  0
SECTION
  2
HEADER
  9
$ACADVER
  1
AC1012
  9
$DWGCODEPAGE
  3
dos932
  9
$INSBASE
 10
0.0
 20
0.0
 30
0.0
  9
$EXTMIN
 10
0.0
 20
0.0
 30
0.0
  9
$EXTMAX
 10
420.0
 20
594.0
 30
0.0
  9
$LIMMIN
 10
0.0
 20
0.0
  9
$LIMMAX
 10
420.0
 20
594.0
  9
$ORTHOMODE
 70
     1
  9
$REGENMODE
 70
     1
  9
$FILLMODE
 70
     1
  9
$QTEXTMODE
 70
     0
  9
$MIRRTEXT
 70
     1
  9
$DRAGMODE
 70
     2
  9
$LTSCALE
 40
1.0
  9
$OSMODE
 70
    37
  9
$ATTMODE
 70
     1
  9
$TEXTSIZE
 40
6.0
  9
$TRACEWID
 40
0.05
  9
$TEXTSTYLE
  7
0_8TATE
  9
$CLAYER
  8
DEFPOINTS
  9
$CELTYPE
  6
CONTINUOUS
  9
$CECOLOR
 62
   256
  9
$CELTSCALE
 40
1.0
  9
$DELOBJ
 70
     1
  9
$DISPSILH
 70
     0
  9
$DIMSCALE
 40
2.0
  9
$DIMASZ
 40
2.5
  9
$DIMEXO
 40
1.5
  9
$DIMDLI
 40
0.0
  9
$DIMRND
 40
0.0
  9
$DIMDLE
 40
0.0
  9
$DIMEXE
 40
1.0
  9
$DIMTP
 40
0.0
  9
$DIMTM
 40
0.0
  9
$DIMTXT
 40
2.5
  9
$DIMCEN
 40
0.0
  9
$DIMTSZ
 40
0.0
  9
$DIMTOL
 70
     0
  9
$DIMLIM
 70
     0
  9
$DIMTIH
 70
     0
  9
$DIMTOH
 70
     0
  9
$DIMSE1
 70
     0
  9
$DIMSE2
 70
     0
  9
$DIMTAD
 70
     1
  9
$DIMZIN
 70
     8
  9
$DIMBLK
  1
OPEN30
  9
$DIMASO
 70
     1
  9
$DIMSHO
 70
     1
  9
$DIMPOST
  1

  9
$DIMAPOST
  1

  9
$DIMALT
 70
     0
  9
$DIMALTD
 70
     2
  9
$DIMALTF
 40
25.4
  9
$DIMLFAC
 40
1.0
  9
$DIMTOFL
 70
     1
  9
$DIMTVP
 40
0.0
  9
$DIMTIX
 70
     0
  9
$DIMSOXD
 70
     0
  9
$DIMSAH
 70
     0
  9
$DIMBLK1
  1

  9
$DIMBLK2
  1

  9
$DIMSTYLE
  2
SUNPOU_2
  9
$DIMCLRD
 70
   256
  9
$DIMCLRE
 70
   256
  9
$DIMCLRT
 70
     6
  9
$DIMTFAC
 40
1.0
  9
$DIMGAP
 40
1.0
  9
$DIMJUST
 70
     0
  9
$DIMSD1
 70
     0
  9
$DIMSD2
 70
     0
  9
$DIMTOLJ
 70
     1
  9
$DIMTZIN
 70
     0
  9
$DIMALTZ
 70
     0
  9
$DIMALTTZ
 70
     0
  9
$DIMFIT
 70
     5
  9
$DIMUPT
 70
     0
  9
$DIMUNIT
 70
     8
  9
$DIMDEC
 70
     1
  9
$DIMTDEC
 70
     1
  9
$DIMALTU
 70
     2
  9
$DIMALTTD
 70
     2
  9
$DIMTXSTY
  7
SUNPOU
  9
$DIMAUNIT
 70
     0
  9
$LUNITS
 70
     2
  9
$LUPREC
 70
     4
  9
$SKETCHINC
 40
0.1
  9
$FILLETRAD
 40
0.0
  9
$AUNITS
 70
     0
  9
$AUPREC
 70
     0
  9
$MENU
  1
acad
  9
$ELEVATION
 40
0.0
  9
$PELEVATION
 40
0.0
  9
$THICKNESS
 40
0.0
  9
$LIMCHECK
 70
     0
  9
$BLIPMODE
 70
     0
  9
$CHAMFERA
 40
0.0
  9
$CHAMFERB
 40
0.0
  9
$CHAMFERC
 40
0.0
  9
$CHAMFERD
 40
0.0
  9
$SKPOLY
 70
     0
  9
$TDCREATE
 40
2453031.439431238
  9
$TDUPDATE
 40
2453266.406001330
  9
$TDINDWG
 40
0.4355995255
  9
$TDUSRTIMER
 40
0.4355980787
  9
$USRTIMER
 70
     1
  9
$ANGBASE
 50
0.0
  9
$ANGDIR
 70
     0
  9
$PDMODE
 70
     0
  9
$PDSIZE
 40
1.0
  9
$PLINEWID
 40
0.0
  9
$COORDS
 70
     1
  9
$SPLFRAME
 70
     0
  9
$SPLINETYPE
 70
     6
  9
$SPLINESEGS
 70
     8
  9
$ATTDIA
 70
     0
  9
$ATTREQ
 70
     1
  9
$HANDLING
 70
-16383
  9
$HANDSEED
  5
234C
  9
$SURFTAB1
 70
     6
  9
$SURFTAB2
 70
     6
  9
$SURFTYPE
 70
     6
  9
$SURFU
 70
     6
  9
$SURFV
 70
     6
  9
$UCSNAME
  2

  9
$UCSORG
 10
0.0
 20
0.0
 30
0.0
  9
$UCSXDIR
 10
1.0
 20
0.0
 30
0.0
  9
$UCSYDIR
 10
0.0
 20
1.0
 30
0.0
  9
$PUCSNAME
  2

  9
$PUCSORG
 10
0.0
 20
0.0
 30
0.0
  9
$PUCSXDIR
 10
1.0
 20
0.0
 30
0.0
  9
$PUCSYDIR
 10
0.0
 20
1.0
 30
0.0
  9
$USERI1
 70
     0
  9
$USERI2
 70
     0
  9
$USERI3
 70
     0
  9
$USERI4
 70
     0
  9
$USERI5
 70
     0
  9
$USERR1
 40
0.0
  9
$USERR2
 40
0.0
  9
$USERR3
 40
0.0
  9
$USERR4
 40
0.0
  9
$USERR5
 40
0.0
  9
$WORLDVIEW
 70
     1
  9
$SHADEDGE
 70
     3
  9
$SHADEDIF
 70
    70
  9
$TILEMODE
 70
     1
  9
$MAXACTVP
 70
    16
  9
$PINSBASE
 10
0.0
 20
0.0
 30
0.0
  9
$PLIMCHECK
 70
     0
  9
$PEXTMIN
 10
-0.0133110541584074
 20
-0.0174202791267817
 30
-0.0015258207003583
  9
$PEXTMAX
 10
396.1216716604904
 20
570.3923158424973
 30
0.0000000349246037
  9
$PLIMMIN
 10
-11.66283321380615
 20
-11.91681766510009
  9
$PLIMMAX
 10
408.2838220596311
 20
582.0198278427122
  9
$UNITMODE
 70
     0
  9
$VISRETAIN
 70
     0
  9
$PLINEGEN
 70
     1
  9
$PSLTSCALE
 70
     1
  9
$TREEDEPTH
 70
  3020
  9
$PICKSTYLE
 70
     1
  9
$CMLSTYLE
  2
STANDARD
  9
$CMLJUST
 70
     0
  9
$CMLSCALE
 40
1.0
  9
$SAVEIMAGES
 70
     0
  0
ENDSEC
  0
SECTION
  2
CLASSES
  0
CLASS
  1
LWPOLYLINE
  2
AcDbPolyline
  3
AutoCAD 2000
 90
    32768
280
     0
281
     1
  0
CLASS
  1
IMAGE
  2
AcDbRasterImage
  3
ISM
 90
    32895
280
     0
281
     1
  0
CLASS
  1
OLE2FRAME
  2
AcDbOle2Frame
  3
AutoCAD 2000
 90
    32768
280
     0
281
     1
  0
CLASS
  1
HATCH
  2
AcDbHatch
  3
AutoCAD 2000
 90
    32768
280
     0
281
     1
  0
CLASS
  1
DICTIONARYVAR
  2
AcDbDictionaryVar
  3
AutoCAD 2000
 90
    32768
280
     0
281
     0
  0
CLASS
  1
RASTERVARIABLES
  2
AcDbRasterVariables
  3
ISM
 90
    32768
280
     0
281
     0
  0
CLASS
  1
IMAGEDEF
  2
AcDbRasterImageDef
  3
ISM
 90
    32768
280
     0
281
     0
  0
CLASS
  1
IMAGEDEF_REACTOR
  2
AcDbRasterImageDefReactor
  3
ISM
 90
    32769
280
     0
281
     0
  0
CLASS
  1
IDBUFFER
  2
AcDbIdBuffer
  3
AutoCAD 2000
 90
    32768
280
     0
281
     0
  0
CLASS
  1
SPATIAL_FILTER
  2
AcDbSpatialFilter
  3
AutoCAD 2000
 90
    32768
280
     0
281
     0
  0
CLASS
  1
XRECORD
  2
AcDbXrecord
  3
AutoCAD 2000
 90
    32768
280
     0
281
     0
  0
CLASS
  1
SORTENTSTABLE
  2
AcDbSortentsTable
  3
AutoCAD 2000
 90
    32768
280
     0
281
     0
  0
CLASS
  1
LAYER_INDEX
  2
AcDbLayerIndex
  3
AutoCAD 2000
 90
    32768
280
     0
281
     0
  0
CLASS
  1
SPATIAL_INDEX
  2
AcDbSpatialIndex
  3
AutoCAD 2000
 90
    32768
280
     0
281
     0
  0
CLASS
  1
OBJECT_PTR
  2
CAseDLPNTableRecord
  3
ASE-LPNTableRecord
 90
    32769
280
     0
281
     0
  0
CLASS
  1
LAYOUT
  2
AcDbLayout
  3
AutoCAD 2000
 90
    32768
280
     0
281
     0
  0
CLASS
  1
PLOTSETTINGS
  2
AcDbPlotSettings
  3
AutoCAD 2000
 90
    32768
280
     0
281
     0
  0
CLASS
  1
ACDBDICTIONARYWDFLT
  2
AcDbDictionaryWithDefault
  3
AutoCAD 2000
 90
    32768
280
     0
281
     0
  0
CLASS
  1
ACDBPLACEHOLDER
  2
AcDbPlaceHolder
  3
AutoCAD 2000
 90
    32768
280
     0
281
     0
  0
CLASS
  1
VBA_PROJECT
  2
AcDbVbaProject
  3
acad
 90
    32768
280
     0
281
     0
  0
CLASS
  1
WIPEOUT
  2
AcDbWipeout
  3
"WipeOut|Product Desc: Object Enabler for WipeOut entity^I^I^I^I^I^I|Company: Autodesk, Inc.^I^I^I^I^I^I|WEB Address: www.autodesk.com"
 90
    32895
280
     0
281
     1
  0
CLASS
  1
WIPEOUTVARIABLES
  2
AcDbWipeoutVariables
  3
"WipeOut|Product Desc:     WipeOut Dbx Application|Company:          Autodesk, Inc.|WEB Address:      www.autodesk.com"
 90
    32768
280
     0
281
     0
  0
CLASS
  1
RTEXT
  2
RText
  3
RText|AutoCAD Express Tool|expresstools@autodesk.com
 90
    32768
280
     0
281
     1
  0
CLASS
  1
ARCALIGNEDTEXT
  2
AcDbArcAlignedText
  3
ATEXT|AutoCAD Express Tool|expresstools@autodesk.com
 90
    32768
280
     0
281
     1
  0
CLASS
  1
ACAD_PROXY_OBJECT_WRAPPER
  2
AcDbProxyObjectWrapper
  3
AutoCAD 2000
 90
    32768
280
     0
281
     0
  0
CLASS
  1
LONG_TRANSACTION
  2
AcDbLongTransaction
  3
AutoCAD 2000
 90
    32768
280
     0
281
     0
  0
CLASS
  1
LWPOLYLINE
  2
AcDbPolyline
  3
AutoCAD 2000
 90
    32768
280
     0
281
     1
  0
CLASS
  1
HATCH
  2
AcDbHatch
  3
AutoCAD 2000
 90
    32768
280
     0
281
     1
  0
CLASS
  1
XRECORD
  2
AcDbXrecord
  3
AutoCAD 2000
 90
    32768
280
     0
281
     0
  0
ENDSEC
  0
SECTION
  2
TABLES
  0
TABLE
  2
VPORT
  5
7
330
0
100
AcDbSymbolTable
 70
     2
  0
VPORT
  5
230D
330
7
100
AcDbSymbolTableRecord
100
AcDbViewportTableRecord
  2
*ACTIVE
 70
     0
 10
0.0
 20
0.0
 11
1.0
 21
1.0
 12
229.3254328917442
 22
297.000001383014
 13
0.0
 23
0.0
 14
1.0
 24
1.0
 15
0.0
 25
0.0
 16
0.0
 26
0.0
 36
1.0
 17
0.0
 27
0.0
 37
0.0
 40
601.1745733420569
 41
1.780442804428044
 42
50.0
 43
0.0
 44
0.0
 50
0.0
 51
0.0
 71
     0
 72
   100
 73
     1
 74
     1
 75
     0
 76
     0
 77
     0
 78
     0
  0
ENDTAB
  0
TABLE
  2
LTYPE
  5
4
330
0
100
AcDbSymbolTable
 70
     4
  0
LTYPE
  5
11
330
4
100
AcDbSymbolTableRecord
100
AcDbLinetypeTableRecord
  2
BYBLOCK
 70
     0
  3

 72
    65
 73
     0
 40
0.0
  0
LTYPE
  5
12
330
4
100
AcDbSymbolTableRecord
100
AcDbLinetypeTableRecord
  2
BYLAYER
 70
     0
  3

 72
    65
 73
     0
 40
0.0
  0
LTYPE
  5
13
330
4
100
AcDbSymbolTableRecord
100
AcDbLinetypeTableRecord
  2
CONTINUOUS
 70
     0
  3
Solid line
 72
    65
 73
     0
 40
0.0
  0
LTYPE
  5
28
330
4
100
AcDbSymbolTableRecord
100
AcDbLinetypeTableRecord
  2
DASHED2
 70
     0
  3
CADPAC LINETYPE
 72
    65
 73
     2
 40
18.89999999999998
 49
12.6
 74
     0
 49
-6.299999999999998
 74
     0
  0
LTYPE
  5
11B1
330
4
100
AcDbSymbolTableRecord
100
AcDbLinetypeTableRecord
  2
CENTER2
 70
     0
  3
Center (.5x) ___ _ ___ _ ___ _ ___ _ ___ _ ___
 72
    65
 73
     4
 40
28.57499999999999
 49
19.05
 74
     0
 49
-3.174999999999998
 74
     0
 49
3.174999999999998
 74
     0
 49
-3.174999999999998
 74
     0
  0
LTYPE
  5
11B6
330
4
100
AcDbSymbolTableRecord
100
AcDbLinetypeTableRecord
  2
PHANTOM2
 70
     0
  3
Phantom (.5x) ___ _ _ ___ _ _ ___ _ _ ___ _ _
 72
    65
 73
     6
 40
31.75
 49
15.875
 74
     0
 49
-3.174999999999998
 74
     0
 49
3.174999999999998
 74
     0
 49
-3.174999999999998
 74
     0
 49
3.174999999999998
 74
     0
 49
-3.174999999999998
 74
     0
  0
ENDTAB
  0
TABLE
  2
LAYER
  5
2
102
{ACAD_XDICTIONARY
360
11CF
102
}
330
0
100
AcDbSymbolTable
 70
    13
  0
LAYER
  5
14
330
2
100
AcDbSymbolTableRecord
100
AcDbLayerTableRecord
  2
0
 70
     0
 62
     7
  6
CONTINUOUS
  0
LAYER
  5
11A4
330
2
100
AcDbSymbolTableRecord
100
AcDbLayerTableRecord
  2
DEFPOINTS
 70
     0
 62
     7
  6
CONTINUOUS
  0
LAYER
  5
11A6
330
2
100
AcDbSymbolTableRecord
100
AcDbLayerTableRecord
  2
02
 70
     0
 62
     2
  6
CONTINUOUS
  0
LAYER
  5
11A7
330
2
100
AcDbSymbolTableRecord
100
AcDbLayerTableRecord
  2
03
 70
     0
 62
     3
  6
CONTINUOUS
  0
LAYER
  5
11A8
330
2
100
AcDbSymbolTableRecord
100
AcDbLayerTableRecord
  2
04
 70
     0
 62
     4
  6
CONTINUOUS
  0
LAYER
  5
11AA
330
2
100
AcDbSymbolTableRecord
100
AcDbLayerTableRecord
  2
06
 70
     0
 62
     6
  6
CONTINUOUS
  0
LAYER
  5
11B0
330
2
100
AcDbSymbolTableRecord
100
AcDbLayerTableRecord
  2
CHUSIN
 70
     0
 62
     6
  6
CENTER2
  0
LAYER
  5
11B2
330
2
100
AcDbSymbolTableRecord
100
AcDbLayerTableRecord
  2
HIKIDASI
 70
     0
 62
     6
  6
CONTINUOUS
  0
LAYER
  5
11B3
330
2
100
AcDbSymbolTableRecord
100
AcDbLayerTableRecord
  2
KAKURE
 70
     0
 62
     6
  6
DASHED2
  0
LAYER
  5
11B4
330
2
100
AcDbSymbolTableRecord
100
AcDbLayerTableRecord
  2
MOJI
 70
     0
 62
     3
  6
CONTINUOUS
  0
LAYER
  5
11B5
330
2
100
AcDbSymbolTableRecord
100
AcDbLayerTableRecord
  2
SOUZOU
 70
     0
 62
     6
  6
PHANTOM2
  0
LAYER
  5
11B7
330
2
100
AcDbSymbolTableRecord
100
AcDbLayerTableRecord
  2
SUNPOU
 70
     0
 62
     6
  6
CONTINUOUS
  0
LAYER
  5
187C
330
2
100
AcDbSymbolTableRecord
100
AcDbLayerTableRecord
  2
SAISEN
 70
     0
 62
     3
  6
CONTINUOUS
  0
ENDTAB
  0
TABLE
  2
STYLE
  5
3
330
0
100
AcDbSymbolTable
 70
     5
  0
STYLE
  5
17
330
3
100
AcDbSymbolTableRecord
100
AcDbTextStyleTableRecord
  2
STANDARD
 70
     0
 40
0.0
 41
0.8
 50
0.0
 71
     0
 42
6.0
  3
txt.shx
  4
bigfont.shx
  0
STYLE
  5
11B9
330
3
100
AcDbSymbolTableRecord
100
AcDbTextStyleTableRecord
  2
SUNPOU
 70
     0
 40
0.0
 41
0.8
 50
0.0
 71
     0
 42
0.2
  3
txt.shx
  4
extfont.shx
  0
STYLE
  5
11C1
330
3
100
AcDbSymbolTableRecord
100
AcDbTextStyleTableRecord
  2
0_80
 70
     0
 40
0.0
 41
0.8
 50
0.0
 71
     0
 42
2.5
  3
txt.shx
  4
extfont.shx
  0
STYLE
  5
1886
330
3
100
AcDbSymbolTableRecord
100
AcDbTextStyleTableRecord
  2
0_8TATE
 70
     4
 40
0.0
 41
0.8
 50
0.0
 71
     0
 42
6.0
  3
txt.shx
  4
extfont.shx
  0
STYLE
  5
22CB
330
3
100
AcDbSymbolTableRecord
100
AcDbTextStyleTableRecord
  2
0_8
 70
     0
 40
0.0
 41
0.8
 50
0.0
 71
     0
 42
6.0
  3
txt.shx
  4
extfont.shx
  0
ENDTAB
  0
TABLE
  2
VIEW
  5
5
330
0
100
AcDbSymbolTable
 70
     1
  0
VIEW
  5
43
330
5
100
AcDbSymbolTableRecord
100
AcDbViewTableRecord
  2
QQQQ
 70
     0
 40
665.171325
 10
18.96499999999998
 20
-6.6825
 41
940.4986499999999
 11
0.0
 21
0.0
 31
1.0
 12
100.0
 22
100.0
 32
0.0
 42
50.0
 43
0.0
 44
0.0
 50
0.0
 71
     0
  0
ENDTAB
  0
TABLE
  2
UCS
  5
6
330
0
100
AcDbSymbolTable
 70
     0
  0
ENDTAB
  0
TABLE
  2
APPID
  5
8
330
0
100
AcDbSymbolTable
 70
     3
  0
APPID
  5
16
330
8
100
AcDbSymbolTableRecord
100
AcDbRegAppTableRecord
  2
ACAD
 70
     0
  0
APPID
  5
22AF
330
8
100
AcDbSymbolTableRecord
100
AcDbRegAppTableRecord
  2
DCO15
 70
     0
  0
APPID
  5
2312
330
8
100
AcDbSymbolTableRecord
100
AcDbRegAppTableRecord
  2
CONTENTBLOCKICON
 70
     0
  0
ENDTAB
  0
TABLE
  2
DIMSTYLE
  5
9
330
0
100
AcDbSymbolTable
 70
     2
  0
DIMSTYLE
105
18
330
9
100
AcDbSymbolTableRecord
100
AcDbDimStyleTableRecord
  2
STANDARD
 70
     0
  3

  4

  5

  6

  7

 40
1.0
 41
0.18
 42
0.0625
 43
0.38
 44
0.18
 45
0.0
 46
0.0
 47
0.0
 48
0.0
140
0.18
141
0.09
142
0.0
143
25.4
144
1.0
145
0.0
146
1.0
147
0.09
 71
     0
 72
     0
 73
     1
 74
     1
 75
     0
 76
     0
 77
     0
 78
     0
170
     0
171
     2
172
     0
173
     0
174
     0
175
     0
176
     0
177
     0
178
     0
270
     2
271
     4
272
     4
273
     2
274
     2
340
17
275
     0
280
     0
281
     0
282
     0
283
     1
284
     0
285
     0
286
     0
287
     3
288
     0
  0
DIMSTYLE
105
11D3
102
{ACAD_REACTORS
330
11F7
330
1204
330
1227
330
1234
330
1241
330
125B
330
1268
330
1277
330
1286
330
1295
330
12A4
330
12B1
330
12BE
330
12CB
330
12D8
330
12E7
330
12F4
330
1556
330
1570
330
157D
330
158D
330
159C
330
15A9
330
15B6
330
160C
330
1622
330
165C
330
166B
330
1678
330
1791
330
19B6
330
19C3
330
19D0
330
19DD
330
19EA
330
19F7
330
1A04
330
1A11
330
1A22
330
1A31
330
217A
102
}
330
9
100
AcDbSymbolTableRecord
100
AcDbDimStyleTableRecord
  2
SUNPOU_2
 70
     0
  3

  4

  5
OPEN30
  6

  7

 40
2.0
 41
2.5
 42
1.5
 43
0.0
 44
1.0
 45
0.0
 46
0.0
 47
0.0
 48
0.0
140
2.5
141
0.0
142
0.0
143
25.4
144
1.0
145
0.0
146
1.0
147
1.0
 71
     0
 72
     0
 73
     0
 74
     0
 75
     0
 76
     0
 77
     1
 78
     8
170
     0
171
     2
172
     1
173
     0
174
     0
175
     0
176
   256
177
   256
178
     6
270
     8
271
     1
272
     1
273
     2
274
     2
340
11B9
275
     0
280
     0
281
     0
282
     0
283
     1
284
     0
285
     0
286
     0
287
     5
288
     0
  0
ENDTAB
  0
TABLE
  2
BLOCK_RECORD
  5
1
330
0
100
AcDbSymbolTable
 70
    44
  0
BLOCK_RECORD
  5
A
102
{ACAD_XDICTIONARY
360
230E
102
}
330
1
100
AcDbSymbolTableRecord
100
AcDbBlockTableRecord
  2
*MODEL_SPACE
  0
BLOCK_RECORD
  5
119D
102
{ACAD_XDICTIONARY
360
2310
102
}
330
1
100
AcDbSymbolTableRecord
100
AcDbBlockTableRecord
  2
*PAPER_SPACE
  0
BLOCK_RECORD
  5
11BA
330
1
100
AcDbSymbolTableRecord
100
AcDbBlockTableRecord
  2
_OPEN30
1001
CONTENTBLOCKICON
1071
        0
1004
2800000020000000200000000100080000000000000400000000000000000000000000000000000000000000000080000080000000808000800000008000800080800000C0C0C000C0DCC000F0CAA6000020400000206000002080000020A0000020C0000020E00000400000004020000040400000406000004080000040A0
1004
000040C0000040E00000600000006020000060400000606000006080000060A0000060C0000060E00000800000008020000080400000806000008080000080A0000080C0000080E00000A0000000A0200000A0400000A0600000A0800000A0A00000A0C00000A0E00000C0000000C0200000C0400000C0600000C0800000C0
1004
A00000C0C00000C0E00000E0000000E0200000E0400000E0600000E0800000E0A00000E0C00000E0E00040000000400020004000400040006000400080004000A0004000C0004000E00040200000402020004020400040206000402080004020A0004020C0004020E000404000004040200040404000404060004040800040
1004
40A0004040C0004040E00040600000406020004060400040606000406080004060A0004060C0004060E00040800000408020004080400040806000408080004080A0004080C0004080E00040A0000040A0200040A0400040A0600040A0800040A0A00040A0C00040A0E00040C0000040C0200040C0400040C0600040C08000
1004
40C0A00040C0C00040C0E00040E0000040E0200040E0400040E0600040E0800040E0A00040E0C00040E0E00080000000800020008000400080006000800080008000A0008000C0008000E00080200000802020008020400080206000802080008020A0008020C0008020E00080400000804020008040400080406000804080
1004
008040A0008040C0008040E00080600000806020008060400080606000806080008060A0008060C0008060E00080800000808020008080400080806000808080008080A0008080C0008080E00080A0000080A0200080A0400080A0600080A0800080A0A00080A0C00080A0E00080C0000080C0200080C0400080C0600080C0
1004
800080C0A00080C0C00080C0E00080E0000080E0200080E0400080E0600080E0800080E0A00080E0C00080E0E000C0000000C0002000C0004000C0006000C0008000C000A000C000C000C000E000C0200000C0202000C0204000C0206000C0208000C020A000C020C000C020E000C0400000C0402000C0404000C0406000C0
1004
408000C040A000C040C000C040E000C0600000C0602000C0604000C0606000C0608000C060A000C060C000C060E000C0800000C0802000C0804000C0806000C0808000C080A000C080C000C080E000C0A00000C0A02000C0A04000C0A06000C0A08000C0A0A000C0A0C000C0A0E000C0C00000C0C02000C0C04000C0C06000
1004
C0C08000C0C0A000F0FBFF00A4A0A000808080000000FF0000FF000000FFFF00FF000000FF00FF00FFFF0000FFFFFF0000000000000000000000000000000000000000000000000000000000000000000000000000000000000000000000000000000000000000000000000000000000000000000000000000000000000000
1004
00000000000000000000000000000000000000000000000000000000000000000000000000000000000000000000000000000000000000000000000000000000000000000000000000000000000000000000000000000000000000000000000000000000000000000000000000000000000000000000000000000000000000
1004
000000000000000000000000000000000000000000000000000000000000000000000000000000000000000000000000000000FFFF0000000000000000000000000000000000000000000000000000000000000000FFFFFFFF0000000000000000000000000000000000000000000000000000000000000000FFFFFFFF0000
1004
000000000000000000000000000000000000000000000000000000000000FFFFFF0000000000000000000000000000000000000000000000000000000000000000FFFFFFFF0000000000000000000000000000000000000000000000000000000000000000FFFFFF0000000000000000000000000000000000000000000000
1004
000000000000000000FFFFFFFF0000000000000000000000000000000000000000000000000000000000000000FFFFFFFF00000000FFFFFFFFFFFFFFFFFFFFFFFFFFFFFFFFFFFFFFFFFFFFFFFFFFFFFFFFFFFF00000000000000000000000000000000000000000000000000FFFFFFFF000000000000000000000000000000
1004
000000000000000000FFFFFFFF000000000000000000000000000000000000000000000000FFFFFFFF000000000000000000000000000000000000000000000000FFFFFFFF000000000000000000000000000000000000000000000000FFFFFFFF000000000000000000000000000000000000000000000000FFFFFFFF0000
1004
0000000000000000000000000000000000000000000000FFFFFF0000000000000000000000000000000000000000000000000000000000000000000000000000000000000000000000000000000000000000000000000000000000000000000000000000000000000000000000000000000000000000000000000000000000
1004
00000000000000000000000000000000000000000000000000000000000000000000000000000000000000000000000000000000000000000000000000000000000000000000000000000000000000000000000000000000000000000000000000000000000000000000000000000000000000000000000000000000000000
1004
0000000000000000000000000000000000000000000000000000000000000000000000000000000000000000000000000000000000000000
  0
BLOCK_RECORD
  5
11F8
330
1
100
AcDbSymbolTableRecord
100
AcDbBlockTableRecord
  2
*D1
  0
BLOCK_RECORD
  5
1205
330
1
100
AcDbSymbolTableRecord
100
AcDbBlockTableRecord
  2
*D2
  0
BLOCK_RECORD
  5
1228
330
1
100
AcDbSymbolTableRecord
100
AcDbBlockTableRecord
  2
*D3
  0
BLOCK_RECORD
  5
1235
330
1
100
AcDbSymbolTableRecord
100
AcDbBlockTableRecord
  2
*D4
  0
BLOCK_RECORD
  5
1242
330
1
100
AcDbSymbolTableRecord
100
AcDbBlockTableRecord
  2
*D5
  0
BLOCK_RECORD
  5
125C
330
1
100
AcDbSymbolTableRecord
100
AcDbBlockTableRecord
  2
*D6
  0
BLOCK_RECORD
  5
1269
330
1
100
AcDbSymbolTableRecord
100
AcDbBlockTableRecord
  2
*D7
  0
BLOCK_RECORD
  5
1278
330
1
100
AcDbSymbolTableRecord
100
AcDbBlockTableRecord
  2
*D8
  0
BLOCK_RECORD
  5
1287
330
1
100
AcDbSymbolTableRecord
100
AcDbBlockTableRecord
  2
*D9
  0
BLOCK_RECORD
  5
1296
330
1
100
AcDbSymbolTableRecord
100
AcDbBlockTableRecord
  2
*D10
  0
BLOCK_RECORD
  5
12A5
330
1
100
AcDbSymbolTableRecord
100
AcDbBlockTableRecord
  2
*D11
  0
BLOCK_RECORD
  5
12B2
330
1
100
AcDbSymbolTableRecord
100
AcDbBlockTableRecord
  2
*D12
  0
BLOCK_RECORD
  5
12BF
330
1
100
AcDbSymbolTableRecord
100
AcDbBlockTableRecord
  2
*D13
  0
BLOCK_RECORD
  5
12CC
330
1
100
AcDbSymbolTableRecord
100
AcDbBlockTableRecord
  2
*D14
  0
BLOCK_RECORD
  5
12D9
330
1
100
AcDbSymbolTableRecord
100
AcDbBlockTableRecord
  2
*D15
  0
BLOCK_RECORD
  5
12E8
330
1
100
AcDbSymbolTableRecord
100
AcDbBlockTableRecord
  2
*D16
  0
BLOCK_RECORD
  5
12F5
330
1
100
AcDbSymbolTableRecord
100
AcDbBlockTableRecord
  2
*D17
  0
BLOCK_RECORD
  5
1557
330
1
100
AcDbSymbolTableRecord
100
AcDbBlockTableRecord
  2
*D18
  0
BLOCK_RECORD
  5
1571
330
1
100
AcDbSymbolTableRecord
100
AcDbBlockTableRecord
  2
*D19
  0
BLOCK_RECORD
  5
157E
330
1
100
AcDbSymbolTableRecord
100
AcDbBlockTableRecord
  2
*D20
  0
BLOCK_RECORD
  5
158E
330
1
100
AcDbSymbolTableRecord
100
AcDbBlockTableRecord
  2
*D21
  0
BLOCK_RECORD
  5
159D
330
1
100
AcDbSymbolTableRecord
100
AcDbBlockTableRecord
  2
*D22
  0
BLOCK_RECORD
  5
15AA
330
1
100
AcDbSymbolTableRecord
100
AcDbBlockTableRecord
  2
*D23
  0
BLOCK_RECORD
  5
15B7
330
1
100
AcDbSymbolTableRecord
100
AcDbBlockTableRecord
  2
*D24
  0
BLOCK_RECORD
  5
160D
330
1
100
AcDbSymbolTableRecord
100
AcDbBlockTableRecord
  2
*D25
  0
BLOCK_RECORD
  5
1623
330
1
100
AcDbSymbolTableRecord
100
AcDbBlockTableRecord
  2
*D26
  0
BLOCK_RECORD
  5
165D
330
1
100
AcDbSymbolTableRecord
100
AcDbBlockTableRecord
  2
*D27
  0
BLOCK_RECORD
  5
166C
330
1
100
AcDbSymbolTableRecord
100
AcDbBlockTableRecord
  2
*D28
  0
BLOCK_RECORD
  5
1679
330
1
100
AcDbSymbolTableRecord
100
AcDbBlockTableRecord
  2
*D29
  0
BLOCK_RECORD
  5
16AB
330
1
100
AcDbSymbolTableRecord
100
AcDbBlockTableRecord
  2
_DOTSMALL
  0
BLOCK_RECORD
  5
1792
330
1
100
AcDbSymbolTableRecord
100
AcDbBlockTableRecord
  2
*D31
  0
BLOCK_RECORD
  5
19B7
330
1
100
AcDbSymbolTableRecord
100
AcDbBlockTableRecord
  2
*D32
  0
BLOCK_RECORD
  5
19C4
330
1
100
AcDbSymbolTableRecord
100
AcDbBlockTableRecord
  2
*D33
  0
BLOCK_RECORD
  5
19D1
330
1
100
AcDbSymbolTableRecord
100
AcDbBlockTableRecord
  2
*D34
  0
BLOCK_RECORD
  5
19DE
330
1
100
AcDbSymbolTableRecord
100
AcDbBlockTableRecord
  2
*D35
  0
BLOCK_RECORD
  5
19EB
330
1
100
AcDbSymbolTableRecord
100
AcDbBlockTableRecord
  2
*D36
  0
BLOCK_RECORD
  5
19F8
330
1
100
AcDbSymbolTableRecord
100
AcDbBlockTableRecord
  2
*D37
  0
BLOCK_RECORD
  5
1A05
330
1
100
AcDbSymbolTableRecord
100
AcDbBlockTableRecord
  2
*D38
  0
BLOCK_RECORD
  5
1A12
330
1
100
AcDbSymbolTableRecord
100
AcDbBlockTableRecord
  2
*D39
  0
BLOCK_RECORD
  5
1A23
330
1
100
AcDbSymbolTableRecord
100
AcDbBlockTableRecord
  2
*D40
  0
BLOCK_RECORD
  5
1A32
330
1
100
AcDbSymbolTableRecord
100
AcDbBlockTableRecord
  2
*D41
  0
BLOCK_RECORD
  5
217B
330
1
100
AcDbSymbolTableRecord
100
AcDbBlockTableRecord
  2
*D42
  0
BLOCK_RECORD
  5
2336
330
1
100
AcDbSymbolTableRecord
100
AcDbBlockTableRecord
  2
*X43
  0
ENDTAB
  0
ENDSEC
  0
SECTION
  2
BLOCKS
  0
BLOCK
  5
D
330
A
100
AcDbEntity
  8
0
100
AcDbBlockBegin
  2
*MODEL_SPACE
 70
     0
 10
0.0
 20
0.0
 30
0.0
  3
*MODEL_SPACE
  1

  0
ENDBLK
  5
E
330
A
100
AcDbEntity
  8
0
100
AcDbBlockEnd
  0
BLOCK
  5
119E
330
119D
100
AcDbEntity
 67
     1
  8
0
100
AcDbBlockBegin
  2
*PAPER_SPACE
 70
     0
 10
0.0
 20
0.0
 30
0.0
  3
*PAPER_SPACE
  1

  0
ENDBLK
  5
119F
330
119D
100
AcDbEntity
 67
     1
  8
0
100
AcDbBlockEnd
  0
BLOCK
  5
11BE
330
11BA
100
AcDbEntity
  8
0
100
AcDbBlockBegin
  2
_OPEN30
 70
     0
 10
0.0
 20
0.0
 30
0.0
  3
_OPEN30
  1

  0
LINE
  5
11BB
330
11BA
100
AcDbEntity
  8
0
  6
BYBLOCK
 62
     0
100
AcDbLine
 10
-1.0
 20
0.26794919
 30
0.0
 11
0.0
 21
0.0
 31
0.0
  0
LINE
  5
11BC
330
11BA
100
AcDbEntity
  8
0
  6
BYBLOCK
 62
     0
100
AcDbLine
 10
0.0
 20
0.0
 30
0.0
 11
-1.0
 21
-0.26794919
 31
0.0
  0
LINE
  5
11BD
330
11BA
100
AcDbEntity
  8
0
  6
BYBLOCK
 62
     0
100
AcDbLine
 10
0.0
 20
0.0
 30
0.0
 11
-1.0
 21
0.0
 31
0.0
  0
ENDBLK
  5
11BF
330
11BA
100
AcDbEntity
  8
0
100
AcDbBlockEnd
  0
BLOCK
  5
1202
330
11F8
100
AcDbEntity
  8
0
100
AcDbBlockBegin
  2
*D1
 70
     1
 10
0.0
 20
0.0
 30
0.0
  3
*D1
  1

  0
LINE
  5
21E2
330
11F8
100
AcDbEntity
  8
SUNPOU
100
AcDbLine
 10
127.9198119934956
 20
351.1650177274476
 30
0.0
 11
50.53852648112204
 21
351.1650177274476
 31
0.0
  0
LINE
  5
21E3
330
11F8
100
AcDbEntity
  8
SUNPOU
100
AcDbLine
 10
218.3198119884954
 20
495.1650177274476
 30
0.0
 11
50.53852648112208
 21
495.1650177274476
 31
0.0
  0
LINE
  5
21E4
330
11F8
100
AcDbEntity
  8
SUNPOU
100
AcDbLine
 10
52.53852648112204
 20
356.1650177274476
 30
0.0
 11
52.53852648112207
 21
490.1650177274476
 31
0.0
  0
INSERT
  5
21E5
330
11F8
100
AcDbEntity
  8
SUNPOU
100
AcDbBlockReference
  2
_OPEN30
 10
52.53852648112204
 20
351.1650177274476
 30
0.0
 41
5.0
 42
5.0
 43
5.0
 50
270.0
  0
INSERT
  5
21E6
330
11F8
100
AcDbEntity
  8
SUNPOU
100
AcDbBlockReference
  2
_OPEN30
 10
52.53852648112207
 20
495.1650177274476
 30
0.0
 41
5.0
 42
5.0
 43
5.0
 50
90.0
  0
MTEXT
  5
21E7
330
11F8
100
AcDbEntity
  8
SUNPOU
 62
     6
100
AcDbMText
 10
48.038526481122
 20
423.1650177274477
 30
0.0
 40
5.0
 41
0.0
 71
     5
 72
     1
  1
\A1;144
  7
SUNPOU
 11
0.0000000000000001
 21
1.0
 31
0.0
1001
ACAD
1000
MTEXTBEGIN
1070
    73
1070
     1
1070
    44
1040
1.0
1070
    74
1070
     0
1000
MTEXTEND
1000
MTEXTBEGIN
1070
    73
1070
     1
1070
    44
1040
1.0
1070
    74
1070
     0
1000
MTEXTEND
  0
POINT
  5
21E8
330
11F8
100
AcDbEntity
  8
DEFPOINTS
 62
     0
100
AcDbPoint
 10
130.9198119934955
 20
351.1650177274476
 30
0.0
  0
POINT
  5
21E9
330
11F8
100
AcDbEntity
  8
DEFPOINTS
 62
     0
100
AcDbPoint
 10
221.3198119884954
 20
495.1650177274476
 30
0.0
  0
POINT
  5
21EA
330
11F8
100
AcDbEntity
  8
DEFPOINTS
 62
     0
100
AcDbPoint
 10
52.53852648112207
 20
495.1650177274476
 30
0.0
  0
ENDBLK
  5
1203
330
11F8
100
AcDbEntity
  8
0
100
AcDbBlockEnd
  0
BLOCK
  5
120F
330
1205
100
AcDbEntity
  8
0
100
AcDbBlockBegin
  2
*D2
 70
     1
 10
0.0
 20
0.0
 30
0.0
  3
*D2
  1

  0
LINE
  5
2201
330
1205
100
AcDbEntity
  8
SUNPOU
100
AcDbLine
 10
127.9198119934956
 20
351.1650177274476
 30
0.0
 11
66.44716897677515
 21
351.1650177274476
 31
0.0
  0
LINE
  5
2202
330
1205
100
AcDbEntity
  8
SUNPOU
100
AcDbLine
 10
171.0470609134955
 20
482.5650177274476
 30
0.0
 11
66.44716897677517
 21
482.5650177274478
 31
0.0
  0
LINE
  5
2203
330
1205
100
AcDbEntity
  8
SUNPOU
100
AcDbLine
 10
68.44716897677516
 20
356.1650177274476
 30
0.0
 11
68.44716897677518
 21
477.5650177274478
 31
0.0
  0
INSERT
  5
2204
330
1205
100
AcDbEntity
  8
SUNPOU
100
AcDbBlockReference
  2
_OPEN30
 10
68.44716897677514
 20
351.1650177274476
 30
0.0
 41
5.0
 42
5.0
 43
5.0
 50
270.0
  0
INSERT
  5
2205
330
1205
100
AcDbEntity
  8
SUNPOU
100
AcDbBlockReference
  2
_OPEN30
 10
68.44716897677519
 20
482.5650177274478
 30
0.0
 41
5.0
 42
5.0
 43
5.0
 50
90.0
  0
MTEXT
  5
2206
330
1205
100
AcDbEntity
  8
SUNPOU
 62
     6
100
AcDbMText
 10
63.9471689767751
 20
416.8650177274478
 30
0.0
 40
5.0
 41
0.0
 71
     5
 72
     1
  1
\A1;131.4
  7
SUNPOU
 11
0.0000000000000001
 21
1.0
 31
0.0
1001
ACAD
1000
MTEXTBEGIN
1070
    73
1070
     1
1070
    44
1040
1.0
1070
    74
1070
     0
1000
MTEXTEND
1000
MTEXTBEGIN
1070
    73
1070
     1
1070
    44
1040
1.0
1070
    74
1070
     0
1000
MTEXTEND
  0
POINT
  5
2207
330
1205
100
AcDbEntity
  8
DEFPOINTS
 62
     0
100
AcDbPoint
 10
130.9198119934955
 20
351.1650177274476
 30
0.0
  0
POINT
  5
2208
330
1205
100
AcDbEntity
  8
DEFPOINTS
 62
     0
100
AcDbPoint
 10
174.0470609134954
 20
482.5650177274476
 30
0.0
  0
POINT
  5
2209
330
1205
100
AcDbEntity
  8
DEFPOINTS
 62
     0
100
AcDbPoint
 10
68.44716897677519
 20
482.5650177274478
 30
0.0
  0
ENDBLK
  5
1210
330
1205
100
AcDbEntity
  8
0
100
AcDbBlockEnd
  0
BLOCK
  5
1232
330
1228
100
AcDbEntity
  8
0
100
AcDbBlockBegin
  2
*D3
 70
     1
 10
0.0
 20
0.0
 30
0.0
  3
*D3
  1

  0
LINE
  5
21D9
330
1228
100
AcDbEntity
  8
SUNPOU
100
AcDbLine
 10
146.3198119934955
 20
366.1650177274476
 30
0.0
 11
146.3198119934955
 21
397.4696150074476
 31
0.0
  0
LINE
  5
21DA
330
1228
100
AcDbEntity
  8
SUNPOU
100
AcDbLine
 10
296.3198119934956
 20
366.1650177274476
 30
0.0
 11
296.3198119934956
 21
397.4696150074476
 31
0.0
  0
LINE
  5
21DB
330
1228
100
AcDbEntity
  8
SUNPOU
100
AcDbLine
 10
151.3198119934956
 20
395.4696150074476
 30
0.0
 11
291.3198119934956
 21
395.4696150074476
 31
0.0
  0
INSERT
  5
21DC
330
1228
100
AcDbEntity
  8
SUNPOU
100
AcDbBlockReference
  2
_OPEN30
 10
146.3198119934955
 20
395.4696150074476
 30
0.0
 41
5.0
 42
5.0
 43
5.0
 50
180.0
  0
INSERT
  5
21DD
330
1228
100
AcDbEntity
  8
SUNPOU
100
AcDbBlockReference
  2
_OPEN30
 10
296.3198119934956
 20
395.4696150074476
 30
0.0
 41
5.0
 42
5.0
 43
5.0
  0
MTEXT
  5
21DE
330
1228
100
AcDbEntity
  8
SUNPOU
 62
     6
100
AcDbMText
 10
221.3198119934954
 20
399.9696150074476
 30
0.0
 40
5.0
 41
0.0
 71
     5
 72
     1
  1
\A1;150
  7
SUNPOU
1001
ACAD
1000
MTEXTBEGIN
1070
    73
1070
     1
1070
    44
1040
1.0
1070
    74
1070
     0
1000
MTEXTEND
1000
MTEXTBEGIN
1070
    73
1070
     1
1070
    44
1040
1.0
1070
    74
1070
     0
1000
MTEXTEND
  0
POINT
  5
21DF
330
1228
100
AcDbEntity
  8
DEFPOINTS
 62
     0
100
AcDbPoint
 10
146.3198119934955
 20
363.1650177274476
 30
0.0
  0
POINT
  5
21E0
330
1228
100
AcDbEntity
  8
DEFPOINTS
 62
     0
100
AcDbPoint
 10
296.3198119934956
 20
363.1650177274476
 30
0.0
  0
POINT
  5
21E1
330
1228
100
AcDbEntity
  8
DEFPOINTS
 62
     0
100
AcDbPoint
 10
296.3198119934956
 20
395.4696150074476
 30
0.0
  0
ENDBLK
  5
1233
330
1228
100
AcDbEntity
  8
0
100
AcDbBlockEnd
  0
BLOCK
  5
123F
330
1235
100
AcDbEntity
  8
0
100
AcDbBlockBegin
  2
*D4
 70
     1
 10
0.0
 20
0.0
 30
0.0
  3
*D4
  1

  0
LINE
  5
21D0
330
1235
100
AcDbEntity
  8
SUNPOU
100
AcDbLine
 10
161.3198119934954
 20
372.89573602785
 30
0.0
 11
161.3198119934954
 21
382.8297729774476
 31
0.0
  0
LINE
  5
21D1
330
1235
100
AcDbEntity
  8
SUNPOU
100
AcDbLine
 10
281.3198119934956
 20
372.8957360278501
 30
0.0
 11
281.3198119934956
 21
382.8297729774476
 31
0.0
  0
LINE
  5
21D2
330
1235
100
AcDbEntity
  8
SUNPOU
100
AcDbLine
 10
166.3198119934954
 20
380.8297729774476
 30
0.0
 11
276.3198119934954
 21
380.8297729774476
 31
0.0
  0
INSERT
  5
21D3
330
1235
100
AcDbEntity
  8
SUNPOU
100
AcDbBlockReference
  2
_OPEN30
 10
161.3198119934954
 20
380.8297729774476
 30
0.0
 41
5.0
 42
5.0
 43
5.0
 50
180.0
  0
INSERT
  5
21D4
330
1235
100
AcDbEntity
  8
SUNPOU
100
AcDbBlockReference
  2
_OPEN30
 10
281.3198119934956
 20
380.8297729774476
 30
0.0
 41
5.0
 42
5.0
 43
5.0
  0
MTEXT
  5
21D5
330
1235
100
AcDbEntity
  8
SUNPOU
 62
     6
100
AcDbMText
 10
221.3198119934954
 20
385.3297729774476
 30
0.0
 40
5.0
 41
0.0
 71
     5
 72
     1
  1
\A1;120
  7
SUNPOU
1001
ACAD
1000
MTEXTBEGIN
1070
    73
1070
     1
1070
    44
1040
1.0
1070
    74
1070
     0
1000
MTEXTEND
1000
MTEXTBEGIN
1070
    73
1070
     1
1070
    44
1040
1.0
1070
    74
1070
     0
1000
MTEXTEND
  0
POINT
  5
21D6
330
1235
100
AcDbEntity
  8
DEFPOINTS
 62
     0
100
AcDbPoint
 10
161.3198119934954
 20
369.89573602785
 30
0.0
  0
POINT
  5
21D7
330
1235
100
AcDbEntity
  8
DEFPOINTS
 62
     0
100
AcDbPoint
 10
281.3198119934956
 20
369.89573602785
 30
0.0
  0
POINT
  5
21D8
330
1235
100
AcDbEntity
  8
DEFPOINTS
 62
     0
100
AcDbPoint
 10
281.3198119934956
 20
380.8297729774476
 30
0.0
  0
ENDBLK
  5
1240
330
1235
100
AcDbEntity
  8
0
100
AcDbBlockEnd
  0
BLOCK
  5
124C
330
1242
100
AcDbEntity
  8
0
100
AcDbBlockBegin
  2
*D5
 70
     1
 10
0.0
 20
0.0
 30
0.0
  3
*D5
  1

  0
LINE
  5
21C7
330
1242
100
AcDbEntity
  8
SUNPOU
100
AcDbLine
 10
203.8198119934956
 20
346.5650177274476
 30
0.0
 11
203.8198119934956
 21
356.0801281074476
 31
0.0
  0
LINE
  5
21C8
330
1242
100
AcDbEntity
  8
SUNPOU
100
AcDbLine
 10
238.8198119934955
 20
346.5650177274476
 30
0.0
 11
238.8198119934955
 21
356.0801281074476
 31
0.0
  0
LINE
  5
21C9
330
1242
100
AcDbEntity
  8
SUNPOU
100
AcDbLine
 10
208.8198119934954
 20
354.0801281074476
 30
0.0
 11
233.8198119934955
 21
354.0801281074476
 31
0.0
  0
INSERT
  5
21CA
330
1242
100
AcDbEntity
  8
SUNPOU
100
AcDbBlockReference
  2
_OPEN30
 10
203.8198119934956
 20
354.0801281074476
 30
0.0
 41
5.0
 42
5.0
 43
5.0
 50
180.0
  0
INSERT
  5
21CB
330
1242
100
AcDbEntity
  8
SUNPOU
100
AcDbBlockReference
  2
_OPEN30
 10
238.8198119934955
 20
354.0801281074476
 30
0.0
 41
5.0
 42
5.0
 43
5.0
  0
MTEXT
  5
21CC
330
1242
100
AcDbEntity
  8
SUNPOU
 62
     6
100
AcDbMText
 10
221.3198119934954
 20
358.5801281074476
 30
0.0
 40
5.0
 41
0.0
 71
     5
 72
     1
  1
\A1;35
  7
SUNPOU
1001
ACAD
1000
MTEXTBEGIN
1070
    73
1070
     1
1070
    44
1040
1.0
1070
    74
1070
     0
1000
MTEXTEND
1000
MTEXTBEGIN
1070
    73
1070
     1
1070
    44
1040
1.0
1070
    74
1070
     0
1000
MTEXTEND
  0
POINT
  5
21CD
330
1242
100
AcDbEntity
  8
DEFPOINTS
 62
     0
100
AcDbPoint
 10
203.8198119934956
 20
343.5650177274477
 30
0.0
  0
POINT
  5
21CE
330
1242
100
AcDbEntity
  8
DEFPOINTS
 62
     0
100
AcDbPoint
 10
238.8198119934955
 20
343.5650177274477
 30
0.0
  0
POINT
  5
21CF
330
1242
100
AcDbEntity
  8
DEFPOINTS
 62
     0
100
AcDbPoint
 10
238.8198119934955
 20
354.0801281074476
 30
0.0
  0
ENDBLK
  5
124D
330
1242
100
AcDbEntity
  8
0
100
AcDbBlockEnd
  0
BLOCK
  5
1266
330
125C
100
AcDbEntity
  8
0
100
AcDbBlockBegin
  2
*D6
 70
     1
 10
0.0
 20
0.0
 30
0.0
  3
*D6
  1

  0
LINE
  5
21BE
330
125C
100
AcDbEntity
  8
SUNPOU
100
AcDbLine
 10
202.3198119934956
 20
298.1650177274477
 30
0.0
 11
174.5765615834955
 21
298.1650177274477
 31
0.0
  0
LINE
  5
21BF
330
125C
100
AcDbEntity
  8
SUNPOU
100
AcDbLine
 10
218.3198119934956
 20
337.1650177274477
 30
0.0
 11
174.5765615834955
 21
337.1650177274477
 31
0.0
  0
LINE
  5
21C0
330
125C
100
AcDbEntity
  8
SUNPOU
100
AcDbLine
 10
176.5765615834955
 20
303.1650177274477
 30
0.0
 11
176.5765615834955
 21
332.1650177274477
 31
0.0
  0
MTEXT
  5
21C1
330
125C
100
AcDbEntity
  8
SUNPOU
 62
     6
100
AcDbMText
 10
172.0765615834956
 20
309.4120943273726
 30
0.0
 40
5.0
 41
0.0
 71
     5
 72
     1
  1
\A1;39
  7
SUNPOU
 11
0.0000000000000001
 21
1.0
 31
0.0
1001
ACAD
1000
MTEXTBEGIN
1070
    73
1070
     1
1070
    44
1040
1.0
1070
    74
1070
     0
1000
MTEXTEND
1000
MTEXTBEGIN
1070
    73
1070
     1
1070
    44
1040
1.0
1070
    74
1070
     0
1000
MTEXTEND
  0
INSERT
  5
21C2
330
125C
100
AcDbEntity
  8
SUNPOU
100
AcDbBlockReference
  2
_OPEN30
 10
176.5765615834955
 20
298.1650177274477
 30
0.0
 41
5.0
 42
5.0
 43
5.0
 50
270.0
  0
INSERT
  5
21C3
330
125C
100
AcDbEntity
  8
SUNPOU
100
AcDbBlockReference
  2
_OPEN30
 10
176.5765615834955
 20
337.1650177274477
 30
0.0
 41
5.0
 42
5.0
 43
5.0
 50
90.0
  0
POINT
  5
21C4
330
125C
100
AcDbEntity
  8
DEFPOINTS
 62
     0
100
AcDbPoint
 10
205.3198119934954
 20
298.1650177274477
 30
0.0
  0
POINT
  5
21C5
330
125C
100
AcDbEntity
  8
DEFPOINTS
 62
     0
100
AcDbPoint
 10
221.3198119934954
 20
337.1650177274477
 30
0.0
  0
POINT
  5
21C6
330
125C
100
AcDbEntity
  8
DEFPOINTS
 62
     0
100
AcDbPoint
 10
176.5765615834955
 20
337.1650177274477
 30
0.0
  0
ENDBLK
  5
1267
330
125C
100
AcDbEntity
  8
0
100
AcDbBlockEnd
  0
BLOCK
  5
1275
330
1269
100
AcDbEntity
  8
0
100
AcDbBlockBegin
  2
*D7
 70
     1
 10
0.0
 20
0.0
 30
0.0
  3
*D7
  1

  0
LINE
  5
2215
330
1269
100
AcDbEntity
  8
SUNPOU
100
AcDbLine
 10
202.3198119934956
 20
330.1650177274477
 30
0.0
 11
189.4239318234954
 21
330.1650177274477
 31
0.0
  0
LINE
  5
2216
330
1269
100
AcDbEntity
  8
SUNPOU
100
AcDbLine
 10
188.4239318234954
 20
316.1650177274477
 30
0.0
 11
189.4239318234954
 21
316.1650177274477
 31
0.0
  0
LINE
  5
2217
330
1269
100
AcDbEntity
  8
SUNPOU
100
AcDbLine
 10
191.4239318234954
 20
335.1650177274477
 30
0.0
 11
191.4239318234954
 21
340.1650177274477
 31
0.0
  0
LINE
  5
2218
330
1269
100
AcDbEntity
  8
SUNPOU
100
AcDbLine
 10
191.4239318234954
 20
311.1650177274477
 30
0.0
 11
191.4239318234954
 21
306.1650177274477
 31
0.0
  0
LINE
  5
2219
330
1269
100
AcDbEntity
  8
SUNPOU
100
AcDbLine
 10
191.4239318234954
 20
330.1650177274477
 30
0.0
 11
191.4239318234954
 21
316.1650177274477
 31
0.0
  0
INSERT
  5
221A
330
1269
100
AcDbEntity
  8
SUNPOU
100
AcDbBlockReference
  2
_OPEN30
 10
191.4239318234954
 20
330.1650177274477
 30
0.0
 41
5.0
 42
5.0
 43
5.0
 50
270.0
  0
INSERT
  5
221B
330
1269
100
AcDbEntity
  8
SUNPOU
100
AcDbBlockReference
  2
_OPEN30
 10
191.4239318234954
 20
316.1650177274477
 30
0.0
 41
5.0
 42
5.0
 43
5.0
 50
90.0
  0
MTEXT
  5
221C
330
1269
100
AcDbEntity
  8
SUNPOU
 62
     6
100
AcDbMText
 10
186.9239318234954
 20
323.1650177274477
 30
0.0
 40
5.0
 41
0.0
 71
     5
 72
     1
  1
\A1;14
  7
SUNPOU
 11
0.0000000000000001
 21
1.0
 31
0.0
1001
ACAD
1000
MTEXTBEGIN
1070
    73
1070
     1
1070
    44
1040
1.0
1070
    74
1070
     0
1000
MTEXTEND
1000
MTEXTBEGIN
1070
    73
1070
     1
1070
    44
1040
1.0
1070
    74
1070
     0
1000
MTEXTEND
  0
POINT
  5
221D
330
1269
100
AcDbEntity
  8
DEFPOINTS
 62
     0
100
AcDbPoint
 10
205.3198119934954
 20
330.1650177274477
 30
0.0
  0
POINT
  5
221E
330
1269
100
AcDbEntity
  8
DEFPOINTS
 62
     0
100
AcDbPoint
 10
191.4239318234954
 20
316.1650177274477
 30
0.0
  0
POINT
  5
221F
330
1269
100
AcDbEntity
  8
DEFPOINTS
 62
     0
100
AcDbPoint
 10
191.4239318234954
 20
316.1650177274477
 30
0.0
  0
ENDBLK
  5
1276
330
1269
100
AcDbEntity
  8
0
100
AcDbBlockEnd
  0
BLOCK
  5
1284
330
1278
100
AcDbEntity
  8
0
100
AcDbBlockBegin
  2
*D8
 70
     1
 10
0.0
 20
0.0
 30
0.0
  3
*D8
  1

  0
LINE
  5
2318
330
1278
100
AcDbEntity
  8
SUNPOU
100
AcDbLine
 10
188.4239318234954
 20
316.1650177274477
 30
0.0
 11
189.4239318234954
 21
316.1650177274477
 31
0.0
  0
LINE
  5
2319
330
1278
100
AcDbEntity
  8
SUNPOU
100
AcDbLine
 10
202.3198119934954
 20
310.1650177274477
 30
0.0
 11
189.4239318234954
 21
310.1650177274477
 31
0.0
  0
LINE
  5
231A
330
1278
100
AcDbEntity
  8
SUNPOU
100
AcDbLine
 10
191.4239318234955
 20
321.1650177274477
 30
0.0
 11
191.4239318234955
 21
326.1650177274477
 31
0.0
  0
LINE
  5
231B
330
1278
100
AcDbEntity
  8
SUNPOU
100
AcDbLine
 10
191.4239318234954
 20
310.1650177274477
 30
0.0
 11
191.4239318234954
 21
305.1650177274477
 31
0.0
  0
MTEXT
  5
231C
330
1278
100
AcDbEntity
  8
SUNPOU
 62
     6
100
AcDbMText
 10
184.8576026697441
 20
312.8871190569091
 30
0.0
 40
5.0
 41
0.0
 71
     5
 72
     1
  1
\A1;6
  7
SUNPOU
 11
0.0000000000000001
 21
1.0
 31
0.0
  0
LINE
  5
231D
330
1278
100
AcDbEntity
  8
SUNPOU
100
AcDbLine
 10
191.4239318234954
 20
316.1650177274477
 30
0.0
 11
191.4239318234954
 21
310.1650177274477
 31
0.0
  0
INSERT
  5
231E
330
1278
100
AcDbEntity
  8
SUNPOU
100
AcDbBlockReference
  2
_OPEN30
 10
191.4239318234954
 20
316.1650177274477
 30
0.0
 41
5.0
 42
5.0
 43
5.0
 50
270.0
  0
INSERT
  5
231F
330
1278
100
AcDbEntity
  8
SUNPOU
100
AcDbBlockReference
  2
_DOTSMALL
 10
191.4239318234954
 20
310.1650177274477
 30
0.0
 41
5.0
 42
5.0
 43
5.0
 50
90.0
  0
POINT
  5
2320
330
1278
100
AcDbEntity
  8
DEFPOINTS
 62
     0
100
AcDbPoint
 10
191.4239318234954
 20
316.1650177274477
 30
0.0
  0
POINT
  5
2321
330
1278
100
AcDbEntity
  8
DEFPOINTS
 62
     0
100
AcDbPoint
 10
205.3198119934954
 20
310.1650177274477
 30
0.0
  0
POINT
  5
2322
330
1278
100
AcDbEntity
  8
DEFPOINTS
 62
     0
100
AcDbPoint
 10
191.4239318234954
 20
310.1650177274477
 30
0.0
  0
ENDBLK
  5
1285
330
1278
100
AcDbEntity
  8
0
100
AcDbBlockEnd
  0
BLOCK
  5
1293
330
1287
100
AcDbEntity
  8
0
100
AcDbBlockBegin
  2
*D9
 70
     1
 10
0.0
 20
0.0
 30
0.0
  3
*D9
  1

  0
LINE
  5
2323
330
1287
100
AcDbEntity
  8
SUNPOU
100
AcDbLine
 10
202.3198119934954
 20
310.1650177274477
 30
0.0
 11
189.4239318234954
 21
310.1650177274477
 31
0.0
  0
LINE
  5
2324
330
1287
100
AcDbEntity
  8
SUNPOU
100
AcDbLine
 10
202.2198119934954
 20
298.1650177274477
 30
0.0
 11
189.4239318234954
 21
298.1650177274477
 31
0.0
  0
LINE
  5
2325
330
1287
100
AcDbEntity
  8
SUNPOU
100
AcDbLine
 10
191.4239318234954
 20
310.1650177274477
 30
0.0
 11
191.4239318234954
 21
315.1650177274477
 31
0.0
  0
LINE
  5
2326
330
1287
100
AcDbEntity
  8
SUNPOU
100
AcDbLine
 10
191.4239318234954
 20
293.1650177274477
 30
0.0
 11
191.4239318234954
 21
288.1650177274477
 31
0.0
  0
MTEXT
  5
2327
330
1287
100
AcDbEntity
  8
SUNPOU
 62
     6
100
AcDbMText
 10
187.1388097463309
 20
303.3768079658855
 30
0.0
 40
5.0
 41
0.0
 71
     5
 72
     1
  1
\A1;12
  7
SUNPOU
 11
0.0000000000000001
 21
1.0
 31
0.0
  0
LINE
  5
2328
330
1287
100
AcDbEntity
  8
SUNPOU
100
AcDbLine
 10
191.4239318234954
 20
310.1650177274477
 30
0.0
 11
191.4239318234954
 21
298.1650177274477
 31
0.0
  0
INSERT
  5
2329
330
1287
100
AcDbEntity
  8
SUNPOU
100
AcDbBlockReference
  2
_DOTSMALL
 10
191.4239318234954
 20
310.1650177274477
 30
0.0
 41
5.0
 42
5.0
 43
5.0
 50
270.0
  0
INSERT
  5
232A
330
1287
100
AcDbEntity
  8
SUNPOU
100
AcDbBlockReference
  2
_OPEN30
 10
191.4239318234954
 20
298.1650177274477
 30
0.0
 41
5.0
 42
5.0
 43
5.0
 50
90.0
  0
POINT
  5
232B
330
1287
100
AcDbEntity
  8
DEFPOINTS
 62
     0
100
AcDbPoint
 10
205.3198119934954
 20
310.1650177274477
 30
0.0
  0
POINT
  5
232C
330
1287
100
AcDbEntity
  8
DEFPOINTS
 62
     0
100
AcDbPoint
 10
205.2198119934955
 20
298.1650177274477
 30
0.0
  0
POINT
  5
232D
330
1287
100
AcDbEntity
  8
DEFPOINTS
 62
     0
100
AcDbPoint
 10
191.4239318234954
 20
298.1650177274477
 30
0.0
  0
ENDBLK
  5
1294
330
1287
100
AcDbEntity
  8
0
100
AcDbBlockEnd
  0
BLOCK
  5
12A2
330
1296
100
AcDbEntity
  8
0
100
AcDbBlockBegin
  2
*D10
 70
     1
 10
0.0
 20
0.0
 30
0.0
  3
*D10
  1

  0
LINE
  5
20F7
330
1296
100
AcDbEntity
  8
SUNPOU
100
AcDbLine
 10
131.6920933167647
 20
65.41793188411737
 30
0.0
 11
131.6920933167647
 21
56.00750560421374
 31
0.0
  0
LINE
  5
20F8
330
1296
100
AcDbEntity
  8
SUNPOU
100
AcDbLine
 10
141.6920933167646
 20
71.71600477411733
 30
0.0
 11
141.6920933167646
 21
56.00750560421374
 31
0.0
  0
LINE
  5
20F9
330
1296
100
AcDbEntity
  8
SUNPOU
100
AcDbLine
 10
126.6920933167646
 20
58.00750560421374
 30
0.0
 11
121.6920933167646
 21
58.00750560421374
 31
0.0
  0
LINE
  5
20FA
330
1296
100
AcDbEntity
  8
SUNPOU
100
AcDbLine
 10
146.6920933167646
 20
58.00750560421374
 30
0.0
 11
151.6920933167646
 21
58.00750560421374
 31
0.0
  0
LINE
  5
20FB
330
1296
100
AcDbEntity
  8
SUNPOU
100
AcDbLine
 10
131.6920933167647
 20
58.00750560421374
 30
0.0
 11
141.6920933167646
 21
58.00750560421374
 31
0.0
  0
INSERT
  5
20FC
330
1296
100
AcDbEntity
  8
SUNPOU
100
AcDbBlockReference
  2
_OPEN30
 10
131.6920933167647
 20
58.00750560421374
 30
0.0
 41
5.0
 42
5.0
 43
5.0
  0
INSERT
  5
20FD
330
1296
100
AcDbEntity
  8
SUNPOU
100
AcDbBlockReference
  2
_OPEN30
 10
141.6920933167646
 20
58.00750560421374
 30
0.0
 41
5.0
 42
5.0
 43
5.0
 50
180.0
  0
MTEXT
  5
20FE
330
1296
100
AcDbEntity
  8
SUNPOU
 62
     6
100
AcDbMText
 10
136.6920933167647
 20
62.50750560421376
 30
0.0
 40
5.0
 41
0.0
 71
     5
 72
     1
  1
\A1;10
  7
SUNPOU
1001
ACAD
1000
MTEXTBEGIN
1070
    73
1070
     1
1070
    44
1040
1.0
1070
    74
1070
     0
1000
MTEXTEND
1000
MTEXTBEGIN
1070
    73
1070
     1
1070
    44
1040
1.0
1070
    74
1070
     0
1000
MTEXTEND
  0
POINT
  5
20FF
330
1296
100
AcDbEntity
  8
DEFPOINTS
 62
     0
100
AcDbPoint
 10
131.6920933167647
 20
68.41793188411735
 30
0.0
  0
POINT
  5
2100
330
1296
100
AcDbEntity
  8
DEFPOINTS
 62
     0
100
AcDbPoint
 10
141.6920933167646
 20
74.71600477411732
 30
0.0
  0
POINT
  5
2101
330
1296
100
AcDbEntity
  8
DEFPOINTS
 62
     0
100
AcDbPoint
 10
141.6920933167646
 20
58.00750560421374
 30
0.0
  0
ENDBLK
  5
12A3
330
1296
100
AcDbEntity
  8
0
100
AcDbBlockEnd
  0
BLOCK
  5
12AF
330
12A5
100
AcDbEntity
  8
0
100
AcDbBlockBegin
  2
*D11
 70
     1
 10
0.0
 20
0.0
 30
0.0
  3
*D11
  1

  0
LINE
  5
20EE
330
12A5
100
AcDbEntity
  8
SUNPOU
100
AcDbLine
 10
141.6920933167646
 20
71.71600477411733
 30
0.0
 11
141.6920933167646
 21
56.00750560421374
 31
0.0
  0
LINE
  5
20EF
330
12A5
100
AcDbEntity
  8
SUNPOU
100
AcDbLine
 10
186.6920933167646
 20
61.38794671411734
 30
0.0
 11
186.6920933167646
 21
56.00750560421374
 31
0.0
  0
LINE
  5
20F0
330
12A5
100
AcDbEntity
  8
SUNPOU
100
AcDbLine
 10
146.6920933167646
 20
58.00750560421374
 30
0.0
 11
181.6920933167646
 21
58.00750560421374
 31
0.0
  0
INSERT
  5
20F1
330
12A5
100
AcDbEntity
  8
SUNPOU
100
AcDbBlockReference
  2
_OPEN30
 10
141.6920933167646
 20
58.00750560421374
 30
0.0
 41
5.0
 42
5.0
 43
5.0
 50
180.0
  0
INSERT
  5
20F2
330
12A5
100
AcDbEntity
  8
SUNPOU
100
AcDbBlockReference
  2
_OPEN30
 10
186.6920933167646
 20
58.00750560421374
 30
0.0
 41
5.0
 42
5.0
 43
5.0
  0
MTEXT
  5
20F3
330
12A5
100
AcDbEntity
  8
SUNPOU
 62
     6
100
AcDbMText
 10
164.1920933167646
 20
62.50750560421376
 30
0.0
 40
5.0
 41
0.0
 71
     5
 72
     1
  1
\A1;45
  7
SUNPOU
1001
ACAD
1000
MTEXTBEGIN
1070
    73
1070
     1
1070
    44
1040
1.0
1070
    74
1070
     0
1000
MTEXTEND
1000
MTEXTBEGIN
1070
    73
1070
     1
1070
    44
1040
1.0
1070
    74
1070
     0
1000
MTEXTEND
  0
POINT
  5
20F4
330
12A5
100
AcDbEntity
  8
DEFPOINTS
 62
     0
100
AcDbPoint
 10
141.6920933167646
 20
74.71600477411732
 30
0.0
  0
POINT
  5
20F5
330
12A5
100
AcDbEntity
  8
DEFPOINTS
 62
     0
100
AcDbPoint
 10
186.6920933167646
 20
64.38794671411733
 30
0.0
  0
POINT
  5
20F6
330
12A5
100
AcDbEntity
  8
DEFPOINTS
 62
     0
100
AcDbPoint
 10
186.6920933167646
 20
58.00750560421374
 30
0.0
  0
ENDBLK
  5
12B0
330
12A5
100
AcDbEntity
  8
0
100
AcDbBlockEnd
  0
BLOCK
  5
12BC
330
12B2
100
AcDbEntity
  8
0
100
AcDbBlockBegin
  2
*D12
 70
     1
 10
0.0
 20
0.0
 30
0.0
  3
*D12
  1

  0
LINE
  5
2102
330
12B2
100
AcDbEntity
  8
SUNPOU
100
AcDbLine
 10
186.6920933167646
 20
61.38794671411734
 30
0.0
 11
186.6920933167646
 21
56.00750560421374
 31
0.0
  0
LINE
  5
2103
330
12B2
100
AcDbEntity
  8
SUNPOU
100
AcDbLine
 10
231.6920933167646
 20
71.71600477411733
 30
0.0
 11
231.6920933167646
 21
56.00750560421374
 31
0.0
  0
LINE
  5
2104
330
12B2
100
AcDbEntity
  8
SUNPOU
100
AcDbLine
 10
191.6920933167646
 20
58.00750560421374
 30
0.0
 11
226.6920933167646
 21
58.00750560421374
 31
0.0
  0
INSERT
  5
2105
330
12B2
100
AcDbEntity
  8
SUNPOU
100
AcDbBlockReference
  2
_OPEN30
 10
186.6920933167646
 20
58.00750560421374
 30
0.0
 41
5.0
 42
5.0
 43
5.0
 50
180.0
  0
INSERT
  5
2106
330
12B2
100
AcDbEntity
  8
SUNPOU
100
AcDbBlockReference
  2
_OPEN30
 10
231.6920933167646
 20
58.00750560421374
 30
0.0
 41
5.0
 42
5.0
 43
5.0
  0
MTEXT
  5
2107
330
12B2
100
AcDbEntity
  8
SUNPOU
 62
     6
100
AcDbMText
 10
209.1920933167646
 20
62.50750560421376
 30
0.0
 40
5.0
 41
0.0
 71
     5
 72
     1
  1
\A1;45
  7
SUNPOU
1001
ACAD
1000
MTEXTBEGIN
1070
    73
1070
     1
1070
    44
1040
1.0
1070
    74
1070
     0
1000
MTEXTEND
1000
MTEXTBEGIN
1070
    73
1070
     1
1070
    44
1040
1.0
1070
    74
1070
     0
1000
MTEXTEND
  0
POINT
  5
2108
330
12B2
100
AcDbEntity
  8
DEFPOINTS
 62
     0
100
AcDbPoint
 10
186.6920933167646
 20
64.38794671411733
 30
0.0
  0
POINT
  5
2109
330
12B2
100
AcDbEntity
  8
DEFPOINTS
 62
     0
100
AcDbPoint
 10
231.6920933167646
 20
74.71600477411732
 30
0.0
  0
POINT
  5
210A
330
12B2
100
AcDbEntity
  8
DEFPOINTS
 62
     0
100
AcDbPoint
 10
231.6920933167646
 20
58.00750560421374
 30
0.0
  0
ENDBLK
  5
12BD
330
12B2
100
AcDbEntity
  8
0
100
AcDbBlockEnd
  0
BLOCK
  5
12C9
330
12BF
100
AcDbEntity
  8
0
100
AcDbBlockBegin
  2
*D13
 70
     1
 10
0.0
 20
0.0
 30
0.0
  3
*D13
  1

  0
LINE
  5
20D3
330
12BF
100
AcDbEntity
  8
SUNPOU
100
AcDbLine
 10
231.6920933167646
 20
71.71600477411733
 30
0.0
 11
231.6920933167646
 21
56.00750560421374
 31
0.0
  0
LINE
  5
20D4
330
12BF
100
AcDbEntity
  8
SUNPOU
100
AcDbLine
 10
276.6920933167646
 20
71.71600477411733
 30
0.0
 11
276.6920933167646
 21
56.00750560421374
 31
0.0
  0
LINE
  5
20D5
330
12BF
100
AcDbEntity
  8
SUNPOU
100
AcDbLine
 10
236.6920933167646
 20
58.00750560421374
 30
0.0
 11
271.6920933167646
 21
58.00750560421374
 31
0.0
  0
INSERT
  5
20D6
330
12BF
100
AcDbEntity
  8
SUNPOU
100
AcDbBlockReference
  2
_OPEN30
 10
231.6920933167646
 20
58.00750560421374
 30
0.0
 41
5.0
 42
5.0
 43
5.0
 50
180.0
  0
INSERT
  5
20D7
330
12BF
100
AcDbEntity
  8
SUNPOU
100
AcDbBlockReference
  2
_OPEN30
 10
276.6920933167646
 20
58.00750560421374
 30
0.0
 41
5.0
 42
5.0
 43
5.0
  0
MTEXT
  5
20D8
330
12BF
100
AcDbEntity
  8
SUNPOU
 62
     6
100
AcDbMText
 10
254.1920933167646
 20
62.50750560421376
 30
0.0
 40
5.0
 41
0.0
 71
     5
 72
     1
  1
\A1;45
  7
SUNPOU
1001
ACAD
1000
MTEXTBEGIN
1070
    73
1070
     1
1070
    44
1040
1.0
1070
    74
1070
     0
1000
MTEXTEND
1000
MTEXTBEGIN
1070
    73
1070
     1
1070
    44
1040
1.0
1070
    74
1070
     0
1000
MTEXTEND
  0
POINT
  5
20D9
330
12BF
100
AcDbEntity
  8
DEFPOINTS
 62
     0
100
AcDbPoint
 10
231.6920933167646
 20
74.71600477411732
 30
0.0
  0
POINT
  5
20DA
330
12BF
100
AcDbEntity
  8
DEFPOINTS
 62
     0
100
AcDbPoint
 10
276.6920933167646
 20
74.71600477411732
 30
0.0
  0
POINT
  5
20DB
330
12BF
100
AcDbEntity
  8
DEFPOINTS
 62
     0
100
AcDbPoint
 10
276.6920933167646
 20
58.00750560421374
 30
0.0
  0
ENDBLK
  5
12CA
330
12BF
100
AcDbEntity
  8
0
100
AcDbBlockEnd
  0
BLOCK
  5
12D6
330
12CC
100
AcDbEntity
  8
0
100
AcDbBlockBegin
  2
*D14
 70
     1
 10
0.0
 20
0.0
 30
0.0
  3
*D14
  1

  0
LINE
  5
2133
330
12CC
100
AcDbEntity
  8
SUNPOU
100
AcDbLine
 10
276.6920933167646
 20
71.71600477411733
 30
0.0
 11
276.6920933167646
 21
56.00750560421374
 31
0.0
  0
LINE
  5
2134
330
12CC
100
AcDbEntity
  8
SUNPOU
100
AcDbLine
 10
321.6920933167646
 20
71.71600477411733
 30
0.0
 11
321.6920933167646
 21
56.00750560421374
 31
0.0
  0
LINE
  5
2135
330
12CC
100
AcDbEntity
  8
SUNPOU
100
AcDbLine
 10
281.6920933167646
 20
58.00750560421374
 30
0.0
 11
316.6920933167646
 21
58.00750560421374
 31
0.0
  0
INSERT
  5
2136
330
12CC
100
AcDbEntity
  8
SUNPOU
100
AcDbBlockReference
  2
_OPEN30
 10
276.6920933167646
 20
58.00750560421374
 30
0.0
 41
5.0
 42
5.0
 43
5.0
 50
180.0
  0
INSERT
  5
2137
330
12CC
100
AcDbEntity
  8
SUNPOU
100
AcDbBlockReference
  2
_OPEN30
 10
321.6920933167646
 20
58.00750560421374
 30
0.0
 41
5.0
 42
5.0
 43
5.0
  0
MTEXT
  5
2138
330
12CC
100
AcDbEntity
  8
SUNPOU
 62
     6
100
AcDbMText
 10
299.1920933167646
 20
62.50750560421376
 30
0.0
 40
5.0
 41
0.0
 71
     5
 72
     1
  1
\A1;45
  7
SUNPOU
1001
ACAD
1000
MTEXTBEGIN
1070
    73
1070
     1
1070
    44
1040
1.0
1070
    74
1070
     0
1000
MTEXTEND
1000
MTEXTBEGIN
1070
    73
1070
     1
1070
    44
1040
1.0
1070
    74
1070
     0
1000
MTEXTEND
  0
POINT
  5
2139
330
12CC
100
AcDbEntity
  8
DEFPOINTS
 62
     0
100
AcDbPoint
 10
276.6920933167646
 20
74.71600477411732
 30
0.0
  0
POINT
  5
213A
330
12CC
100
AcDbEntity
  8
DEFPOINTS
 62
     0
100
AcDbPoint
 10
321.6920933167646
 20
74.71600477411732
 30
0.0
  0
POINT
  5
213B
330
12CC
100
AcDbEntity
  8
DEFPOINTS
 62
     0
100
AcDbPoint
 10
321.6920933167646
 20
58.00750560421374
 30
0.0
  0
ENDBLK
  5
12D7
330
12CC
100
AcDbEntity
  8
0
100
AcDbBlockEnd
  0
BLOCK
  5
12E5
330
12D9
100
AcDbEntity
  8
0
100
AcDbBlockBegin
  2
*D15
 70
     1
 10
0.0
 20
0.0
 30
0.0
  3
*D15
  1

  0
LINE
  5
213C
330
12D9
100
AcDbEntity
  8
SUNPOU
100
AcDbLine
 10
321.6920933167646
 20
71.71600477411733
 30
0.0
 11
321.6920933167646
 21
56.00750560421374
 31
0.0
  0
LINE
  5
213D
330
12D9
100
AcDbEntity
  8
SUNPOU
100
AcDbLine
 10
331.6920933167646
 20
65.41793188411737
 30
0.0
 11
331.6920933167646
 21
56.00750560421374
 31
0.0
  0
LINE
  5
213E
330
12D9
100
AcDbEntity
  8
SUNPOU
100
AcDbLine
 10
316.6920933167646
 20
58.00750560421374
 30
0.0
 11
311.6920933167646
 21
58.00750560421374
 31
0.0
  0
LINE
  5
213F
330
12D9
100
AcDbEntity
  8
SUNPOU
100
AcDbLine
 10
336.6920933167646
 20
58.00750560421374
 30
0.0
 11
341.6920933167646
 21
58.00750560421374
 31
0.0
  0
LINE
  5
2140
330
12D9
100
AcDbEntity
  8
SUNPOU
100
AcDbLine
 10
321.6920933167646
 20
58.00750560421374
 30
0.0
 11
331.6920933167646
 21
58.00750560421374
 31
0.0
  0
INSERT
  5
2141
330
12D9
100
AcDbEntity
  8
SUNPOU
100
AcDbBlockReference
  2
_OPEN30
 10
321.6920933167646
 20
58.00750560421374
 30
0.0
 41
5.0
 42
5.0
 43
5.0
  0
INSERT
  5
2142
330
12D9
100
AcDbEntity
  8
SUNPOU
100
AcDbBlockReference
  2
_OPEN30
 10
331.6920933167646
 20
58.00750560421374
 30
0.0
 41
5.0
 42
5.0
 43
5.0
 50
180.0
  0
MTEXT
  5
2143
330
12D9
100
AcDbEntity
  8
SUNPOU
 62
     6
100
AcDbMText
 10
326.6920933167646
 20
62.50750560421376
 30
0.0
 40
5.0
 41
0.0
 71
     5
 72
     1
  1
\A1;10
  7
SUNPOU
1001
ACAD
1000
MTEXTBEGIN
1070
    73
1070
     1
1070
    44
1040
1.0
1070
    74
1070
     0
1000
MTEXTEND
1000
MTEXTBEGIN
1070
    73
1070
     1
1070
    44
1040
1.0
1070
    74
1070
     0
1000
MTEXTEND
  0
POINT
  5
2144
330
12D9
100
AcDbEntity
  8
DEFPOINTS
 62
     0
100
AcDbPoint
 10
321.6920933167646
 20
74.71600477411732
 30
0.0
  0
POINT
  5
2145
330
12D9
100
AcDbEntity
  8
DEFPOINTS
 62
     0
100
AcDbPoint
 10
331.6920933167646
 20
68.41793188411735
 30
0.0
  0
POINT
  5
2146
330
12D9
100
AcDbEntity
  8
DEFPOINTS
 62
     0
100
AcDbPoint
 10
331.6920933167646
 20
58.00750560421374
 30
0.0
  0
ENDBLK
  5
12E6
330
12D9
100
AcDbEntity
  8
0
100
AcDbBlockEnd
  0
BLOCK
  5
12F2
330
12E8
100
AcDbEntity
  8
0
100
AcDbBlockBegin
  2
*D16
 70
     1
 10
0.0
 20
0.0
 30
0.0
  3
*D16
  1

  0
LINE
  5
2147
330
12E8
100
AcDbEntity
  8
SUNPOU
100
AcDbLine
 10
334.6920933167646
 20
68.41793188411735
 30
0.0
 11
349.6920933167646
 21
68.41793188411735
 31
0.0
  0
LINE
  5
2148
330
12E8
100
AcDbEntity
  8
SUNPOU
100
AcDbLine
 10
334.6920933167646
 20
100.4179318841172
 30
0.0
 11
349.6920933167646
 21
100.4179318841172
 31
0.0
  0
LINE
  5
2149
330
12E8
100
AcDbEntity
  8
SUNPOU
100
AcDbLine
 10
347.6920933167646
 20
73.41793188411735
 30
0.0
 11
347.6920933167646
 21
95.41793188411736
 31
0.0
  0
INSERT
  5
214A
330
12E8
100
AcDbEntity
  8
SUNPOU
100
AcDbBlockReference
  2
_OPEN30
 10
347.6920933167646
 20
68.41793188411735
 30
0.0
 41
5.0
 42
5.0
 43
5.0
 50
270.0
  0
INSERT
  5
214B
330
12E8
100
AcDbEntity
  8
SUNPOU
100
AcDbBlockReference
  2
_OPEN30
 10
347.6920933167646
 20
100.4179318841172
 30
0.0
 41
5.0
 42
5.0
 43
5.0
 50
90.0
  0
MTEXT
  5
214C
330
12E8
100
AcDbEntity
  8
SUNPOU
 62
     6
100
AcDbMText
 10
343.1920933167646
 20
84.41793188411741
 30
0.0
 40
5.0
 41
0.0
 71
     5
 72
     1
  1
\A1;32
  7
SUNPOU
 11
0.0000000000000001
 21
1.0
 31
0.0
1001
ACAD
1000
MTEXTBEGIN
1070
    73
1070
     1
1070
    44
1040
1.0
1070
    74
1070
     0
1000
MTEXTEND
1000
MTEXTBEGIN
1070
    73
1070
     1
1070
    44
1040
1.0
1070
    74
1070
     0
1000
MTEXTEND
  0
POINT
  5
214D
330
12E8
100
AcDbEntity
  8
DEFPOINTS
 62
     0
100
AcDbPoint
 10
331.6920933167646
 20
68.41793188411735
 30
0.0
  0
POINT
  5
214E
330
12E8
100
AcDbEntity
  8
DEFPOINTS
 62
     0
100
AcDbPoint
 10
331.6920933167646
 20
100.4179318841172
 30
0.0
  0
POINT
  5
214F
330
12E8
100
AcDbEntity
  8
DEFPOINTS
 62
     0
100
AcDbPoint
 10
347.6920933167646
 20
100.4179318841172
 30
0.0
  0
ENDBLK
  5
12F3
330
12E8
100
AcDbEntity
  8
0
100
AcDbBlockEnd
  0
BLOCK
  5
12FF
330
12F5
100
AcDbEntity
  8
0
100
AcDbBlockBegin
  2
*D17
 70
     1
 10
0.0
 20
0.0
 30
0.0
  3
*D17
  1

  0
LINE
  5
20DC
330
12F5
100
AcDbEntity
  8
SUNPOU
100
AcDbLine
 10
331.6920933167646
 20
65.41793188411737
 30
0.0
 11
331.6920933167646
 21
45.18972980144986
 31
0.0
  0
LINE
  5
20DD
330
12F5
100
AcDbEntity
  8
SUNPOU
100
AcDbLine
 10
131.6920933167647
 20
65.41793188411737
 30
0.0
 11
131.6920933167647
 21
45.18972980144986
 31
0.0
  0
LINE
  5
20DE
330
12F5
100
AcDbEntity
  8
SUNPOU
100
AcDbLine
 10
326.6920933167646
 20
47.18972980144985
 30
0.0
 11
136.6920933167647
 21
47.18972980144985
 31
0.0
  0
INSERT
  5
20DF
330
12F5
100
AcDbEntity
  8
SUNPOU
100
AcDbBlockReference
  2
_OPEN30
 10
331.6920933167646
 20
47.18972980144985
 30
0.0
 41
5.0
 42
5.0
 43
5.0
  0
INSERT
  5
20E0
330
12F5
100
AcDbEntity
  8
SUNPOU
100
AcDbBlockReference
  2
_OPEN30
 10
131.6920933167647
 20
47.18972980144985
 30
0.0
 41
5.0
 42
5.0
 43
5.0
 50
180.0
  0
MTEXT
  5
20E1
330
12F5
100
AcDbEntity
  8
SUNPOU
 62
     6
100
AcDbMText
 10
231.6920933167646
 20
51.68972980144985
 30
0.0
 40
5.0
 41
0.0
 71
     5
 72
     1
  1
\A1;200
  7
SUNPOU
1001
ACAD
1000
MTEXTBEGIN
1070
    73
1070
     1
1070
    44
1040
1.0
1070
    74
1070
     0
1000
MTEXTEND
1000
MTEXTBEGIN
1070
    73
1070
     1
1070
    44
1040
1.0
1070
    74
1070
     0
1000
MTEXTEND
  0
POINT
  5
20E2
330
12F5
100
AcDbEntity
  8
DEFPOINTS
 62
     0
100
AcDbPoint
 10
331.6920933167646
 20
68.41793188411735
 30
0.0
  0
POINT
  5
20E3
330
12F5
100
AcDbEntity
  8
DEFPOINTS
 62
     0
100
AcDbPoint
 10
131.6920933167647
 20
68.41793188411735
 30
0.0
  0
POINT
  5
20E4
330
12F5
100
AcDbEntity
  8
DEFPOINTS
 62
     0
100
AcDbPoint
 10
131.6920933167647
 20
47.18972980144985
 30
0.0
  0
ENDBLK
  5
1300
330
12F5
100
AcDbEntity
  8
0
100
AcDbBlockEnd
  0
BLOCK
  5
1561
330
1557
100
AcDbEntity
  8
0
100
AcDbBlockBegin
  2
*D18
 70
     1
 10
0.0
 20
0.0
 30
0.0
  3
*D18
  1

  0
LINE
  5
2265
330
1557
100
AcDbEntity
  8
SUNPOU
100
AcDbLine
 10
319.7198119934955
 20
316.1650177274476
 30
0.0
 11
373.349229940098
 21
316.1650177274476
 31
0.0
  0
LINE
  5
2266
330
1557
100
AcDbEntity
  8
SUNPOU
100
AcDbLine
 10
319.7198119934955
 20
341.1650177274477
 30
0.0
 11
373.349229940098
 21
341.1650177274477
 31
0.0
  0
LINE
  5
2267
330
1557
100
AcDbEntity
  8
SUNPOU
100
AcDbLine
 10
371.349229940098
 20
321.1650177274476
 30
0.0
 11
371.349229940098
 21
336.1650177274477
 31
0.0
  0
INSERT
  5
2268
330
1557
100
AcDbEntity
  8
SUNPOU
100
AcDbBlockReference
  2
_OPEN30
 10
371.349229940098
 20
316.1650177274476
 30
0.0
 41
5.0
 42
5.0
 43
5.0
 50
270.0
  0
INSERT
  5
2269
330
1557
100
AcDbEntity
  8
SUNPOU
100
AcDbBlockReference
  2
_OPEN30
 10
371.349229940098
 20
341.1650177274477
 30
0.0
 41
5.0
 42
5.0
 43
5.0
 50
90.0
  0
MTEXT
  5
226A
330
1557
100
AcDbEntity
  8
SUNPOU
 62
     6
100
AcDbMText
 10
366.849229940098
 20
328.6650177274477
 30
0.0
 40
5.0
 41
0.0
 71
     5
 72
     1
  1
\A1;25
  7
SUNPOU
 11
0.0000000000000001
 21
1.0
 31
0.0
1001
ACAD
1000
MTEXTBEGIN
1070
    73
1070
     1
1070
    44
1040
1.0
1070
    74
1070
     0
1000
MTEXTEND
1000
MTEXTBEGIN
1070
    73
1070
     1
1070
    44
1040
1.0
1070
    74
1070
     0
1000
MTEXTEND
  0
POINT
  5
226B
330
1557
100
AcDbEntity
  8
DEFPOINTS
 62
     0
100
AcDbPoint
 10
316.7198119934955
 20
316.1650177274476
 30
0.0
  0
POINT
  5
226C
330
1557
100
AcDbEntity
  8
DEFPOINTS
 62
     0
100
AcDbPoint
 10
316.7198119934955
 20
341.1650177274477
 30
0.0
  0
POINT
  5
226D
330
1557
100
AcDbEntity
  8
DEFPOINTS
 62
     0
100
AcDbPoint
 10
371.349229940098
 20
341.1650177274477
 30
0.0
  0
ENDBLK
  5
1562
330
1557
100
AcDbEntity
  8
0
100
AcDbBlockEnd
  0
BLOCK
  5
157B
330
1571
100
AcDbEntity
  8
0
100
AcDbBlockBegin
  2
*D19
 70
     1
 10
0.0
 20
0.0
 30
0.0
  3
*D19
  1

  0
LINE
  5
225C
330
1571
100
AcDbEntity
  8
SUNPOU
100
AcDbLine
 10
319.7198119934955
 20
341.1650177274477
 30
0.0
 11
373.349229940098
 21
341.1650177274477
 31
0.0
  0
LINE
  5
225D
330
1571
100
AcDbEntity
  8
SUNPOU
100
AcDbLine
 10
319.7198119934955
 20
541.1650177274476
 30
0.0
 11
373.3492299400982
 21
541.1650177274476
 31
0.0
  0
LINE
  5
225E
330
1571
100
AcDbEntity
  8
SUNPOU
100
AcDbLine
 10
371.349229940098
 20
346.1650177274476
 30
0.0
 11
371.3492299400982
 21
536.1650177274476
 31
0.0
  0
INSERT
  5
225F
330
1571
100
AcDbEntity
  8
SUNPOU
100
AcDbBlockReference
  2
_OPEN30
 10
371.349229940098
 20
341.1650177274477
 30
0.0
 41
5.0
 42
5.0
 43
5.0
 50
270.0
  0
INSERT
  5
2260
330
1571
100
AcDbEntity
  8
SUNPOU
100
AcDbBlockReference
  2
_OPEN30
 10
371.3492299400982
 20
541.1650177274476
 30
0.0
 41
5.0
 42
5.0
 43
5.0
 50
90.0
  0
MTEXT
  5
2261
330
1571
100
AcDbEntity
  8
SUNPOU
 62
     6
100
AcDbMText
 10
366.849229940098
 20
441.1650177274479
 30
0.0
 40
5.0
 41
0.0
 71
     5
 72
     1
  1
\A1;200
  7
SUNPOU
 11
0.0000000000000001
 21
1.0
 31
0.0
1001
ACAD
1000
MTEXTBEGIN
1070
    73
1070
     1
1070
    44
1040
1.0
1070
    74
1070
     0
1000
MTEXTEND
1000
MTEXTBEGIN
1070
    73
1070
     1
1070
    44
1040
1.0
1070
    74
1070
     0
1000
MTEXTEND
  0
POINT
  5
2262
330
1571
100
AcDbEntity
  8
DEFPOINTS
 62
     0
100
AcDbPoint
 10
316.7198119934955
 20
341.1650177274477
 30
0.0
  0
POINT
  5
2263
330
1571
100
AcDbEntity
  8
DEFPOINTS
 62
     0
100
AcDbPoint
 10
316.7198119934955
 20
541.1650177274476
 30
0.0
  0
POINT
  5
2264
330
1571
100
AcDbEntity
  8
DEFPOINTS
 62
     0
100
AcDbPoint
 10
371.3492299400982
 20
541.1650177274476
 30
0.0
  0
ENDBLK
  5
157C
330
1571
100
AcDbEntity
  8
0
100
AcDbBlockEnd
  0
BLOCK
  5
1588
330
157E
100
AcDbEntity
  8
0
100
AcDbBlockBegin
  2
*D20
 70
     1
 10
0.0
 20
0.0
 30
0.0
  3
*D20
  1

  0
LINE
  5
2277
330
157E
100
AcDbEntity
  8
SUNPOU
100
AcDbLine
 10
319.7198119934955
 20
541.1650177274476
 30
0.0
 11
373.3492299400982
 21
541.1650177274476
 31
0.0
  0
LINE
  5
2278
330
157E
100
AcDbEntity
  8
SUNPOU
100
AcDbLine
 10
334.3829479558972
 20
566.1650177274477
 30
0.0
 11
373.3492299400982
 21
566.1650177274477
 31
0.0
  0
LINE
  5
2279
330
157E
100
AcDbEntity
  8
SUNPOU
100
AcDbLine
 10
371.3492299400982
 20
546.1650177274476
 30
0.0
 11
371.3492299400982
 21
561.1650177274476
 31
0.0
  0
INSERT
  5
227A
330
157E
100
AcDbEntity
  8
SUNPOU
100
AcDbBlockReference
  2
_OPEN30
 10
371.3492299400982
 20
541.1650177274476
 30
0.0
 41
5.0
 42
5.0
 43
5.0
 50
270.0
  0
INSERT
  5
227B
330
157E
100
AcDbEntity
  8
SUNPOU
100
AcDbBlockReference
  2
_OPEN30
 10
371.3492299400982
 20
566.1650177274477
 30
0.0
 41
5.0
 42
5.0
 43
5.0
 50
90.0
  0
MTEXT
  5
227C
330
157E
100
AcDbEntity
  8
SUNPOU
 62
     6
100
AcDbMText
 10
366.849229940098
 20
553.6650177274479
 30
0.0
 40
5.0
 41
0.0
 71
     5
 72
     1
  1
\A1;25
  7
SUNPOU
 11
0.0000000000000001
 21
1.0
 31
0.0
1001
ACAD
1000
MTEXTBEGIN
1070
    73
1070
     1
1070
    44
1040
1.0
1070
    74
1070
     0
1000
MTEXTEND
1000
MTEXTBEGIN
1070
    73
1070
     1
1070
    44
1040
1.0
1070
    74
1070
     0
1000
MTEXTEND
  0
POINT
  5
227D
330
157E
100
AcDbEntity
  8
DEFPOINTS
 62
     0
100
AcDbPoint
 10
316.7198119934955
 20
541.1650177274476
 30
0.0
  0
POINT
  5
227E
330
157E
100
AcDbEntity
  8
DEFPOINTS
 62
     0
100
AcDbPoint
 10
331.3829479558971
 20
566.1650177274477
 30
0.0
  0
POINT
  5
227F
330
157E
100
AcDbEntity
  8
DEFPOINTS
 62
     0
100
AcDbPoint
 10
371.3492299400982
 20
566.1650177274477
 30
0.0
  0
ENDBLK
  5
1589
330
157E
100
AcDbEntity
  8
0
100
AcDbBlockEnd
  0
BLOCK
  5
159A
330
158E
100
AcDbEntity
  8
0
100
AcDbBlockBegin
  2
*D21
 70
     1
 10
0.0
 20
0.0
 30
0.0
  3
*D21
  1

  0
LINE
  5
21EB
330
158E
100
AcDbEntity
  8
SUNPOU
100
AcDbLine
 10
121.3198119934955
 20
275.8065148674476
 30
0.0
 11
121.3198119934955
 21
273.8222468804938
 31
0.0
  0
LINE
  5
21EC
330
158E
100
AcDbEntity
  8
SUNPOU
100
AcDbLine
 10
124.3198119934955
 20
314.7650177274476
 30
0.0
 11
124.3198119934955
 21
273.8222468804938
 31
0.0
  0
LINE
  5
21ED
330
158E
100
AcDbEntity
  8
SUNPOU
100
AcDbLine
 10
116.3198119934955
 20
275.8222468804938
 30
0.0
 11
111.3198119934955
 21
275.8222468804938
 31
0.0
  0
LINE
  5
21EE
330
158E
100
AcDbEntity
  8
SUNPOU
100
AcDbLine
 10
129.3198119934956
 20
275.8222468804938
 30
0.0
 11
134.3198119934955
 21
275.8222468804938
 31
0.0
  0
MTEXT
  5
21EF
330
158E
100
AcDbEntity
  8
SUNPOU
 62
     6
100
AcDbMText
 10
113.0
 20
282.1102067645465
 30
0.0
 40
5.0
 41
0.0
 71
     5
 72
     1
  1
\A1;3
  7
SUNPOU
1001
ACAD
1000
MTEXTBEGIN
1070
    73
1070
     1
1070
    44
1040
1.0
1070
    74
1070
     0
1000
MTEXTEND
1000
MTEXTBEGIN
1070
    73
1070
     1
1070
    44
1040
1.0
1070
    74
1070
     0
1000
MTEXTEND
  0
LINE
  5
21F0
330
158E
100
AcDbEntity
  8
SUNPOU
100
AcDbLine
 10
121.3198119934955
 20
275.8222468804938
 30
0.0
 11
124.3198119934955
 21
275.8222468804938
 31
0.0
  0
INSERT
  5
21F1
330
158E
100
AcDbEntity
  8
SUNPOU
100
AcDbBlockReference
  2
_OPEN30
 10
121.3198119934955
 20
275.8222468804938
 30
0.0
 41
5.0
 42
5.0
 43
5.0
  0
INSERT
  5
21F2
330
158E
100
AcDbEntity
  8
SUNPOU
100
AcDbBlockReference
  2
_OPEN30
 10
124.3198119934955
 20
275.8222468804938
 30
0.0
 41
5.0
 42
5.0
 43
5.0
 50
180.0
  0
POINT
  5
21F3
330
158E
100
AcDbEntity
  8
DEFPOINTS
 62
     0
100
AcDbPoint
 10
121.3198119934955
 20
278.8065148674476
 30
0.0
  0
POINT
  5
21F4
330
158E
100
AcDbEntity
  8
DEFPOINTS
 62
     0
100
AcDbPoint
 10
124.3198119934955
 20
317.7650177274476
 30
0.0
  0
POINT
  5
21F5
330
158E
100
AcDbEntity
  8
DEFPOINTS
 62
     0
100
AcDbPoint
 10
124.3198119934955
 20
275.8222468804938
 30
0.0
  0
ENDBLK
  5
159B
330
158E
100
AcDbEntity
  8
0
100
AcDbBlockEnd
  0
BLOCK
  5
15A7
330
159D
100
AcDbEntity
  8
0
100
AcDbBlockBegin
  2
*D22
 70
     1
 10
0.0
 20
0.0
 30
0.0
  3
*D22
  1

  0
LINE
  5
21B5
330
159D
100
AcDbEntity
  8
SUNPOU
100
AcDbLine
 10
124.3198119934955
 20
314.7650177274476
 30
0.0
 11
124.3198119934955
 21
273.8222468804938
 31
0.0
  0
LINE
  5
21B6
330
159D
100
AcDbEntity
  8
SUNPOU
100
AcDbLine
 10
221.3198119934954
 20
278.8222468804938
 30
0.0
 11
221.3198119934954
 21
277.8222468804938
 31
0.0
  0
LINE
  5
21B7
330
159D
100
AcDbEntity
  8
SUNPOU
100
AcDbLine
 10
129.3198119934956
 20
275.8222468804938
 30
0.0
 11
216.3198119934956
 21
275.8222468804938
 31
0.0
  0
INSERT
  5
21B8
330
159D
100
AcDbEntity
  8
SUNPOU
100
AcDbBlockReference
  2
_OPEN30
 10
124.3198119934955
 20
275.8222468804938
 30
0.0
 41
5.0
 42
5.0
 43
5.0
 50
180.0
  0
INSERT
  5
21B9
330
159D
100
AcDbEntity
  8
SUNPOU
100
AcDbBlockReference
  2
_OPEN30
 10
221.3198119934954
 20
275.8222468804938
 30
0.0
 41
5.0
 42
5.0
 43
5.0
  0
MTEXT
  5
21BA
330
159D
100
AcDbEntity
  8
SUNPOU
 62
     6
100
AcDbMText
 10
172.8198119934954
 20
280.3222468804938
 30
0.0
 40
5.0
 41
0.0
 71
     5
 72
     1
  1
\A1;97
  7
SUNPOU
1001
ACAD
1000
MTEXTBEGIN
1070
    73
1070
     1
1070
    44
1040
1.0
1070
    74
1070
     0
1000
MTEXTEND
1000
MTEXTBEGIN
1070
    73
1070
     1
1070
    44
1040
1.0
1070
    74
1070
     0
1000
MTEXTEND
  0
POINT
  5
21BB
330
159D
100
AcDbEntity
  8
DEFPOINTS
 62
     0
100
AcDbPoint
 10
124.3198119934955
 20
317.7650177274476
 30
0.0
  0
POINT
  5
21BC
330
159D
100
AcDbEntity
  8
DEFPOINTS
 62
     0
100
AcDbPoint
 10
221.3198119934954
 20
275.8222468804938
 30
0.0
  0
POINT
  5
21BD
330
159D
100
AcDbEntity
  8
DEFPOINTS
 62
     0
100
AcDbPoint
 10
221.3198119934954
 20
275.8222468804938
 30
0.0
  0
ENDBLK
  5
15A8
330
159D
100
AcDbEntity
  8
0
100
AcDbBlockEnd
  0
BLOCK
  5
15B4
330
15AA
100
AcDbEntity
  8
0
100
AcDbBlockBegin
  2
*D23
 70
     1
 10
0.0
 20
0.0
 30
0.0
  3
*D23
  1

  0
LINE
  5
2248
330
15AA
100
AcDbEntity
  8
SUNPOU
100
AcDbLine
 10
221.3198119934954
 20
278.8222468804938
 30
0.0
 11
221.3198119934954
 21
277.8222468804938
 31
0.0
  0
LINE
  5
2249
330
15AA
100
AcDbEntity
  8
SUNPOU
100
AcDbLine
 10
318.3198119934956
 20
314.7650177274476
 30
0.0
 11
318.3198119934956
 21
273.8222468804938
 31
0.0
  0
LINE
  5
224A
330
15AA
100
AcDbEntity
  8
SUNPOU
100
AcDbLine
 10
226.3198119934954
 20
275.8222468804938
 30
0.0
 11
313.3198119934955
 21
275.8222468804938
 31
0.0
  0
INSERT
  5
224B
330
15AA
100
AcDbEntity
  8
SUNPOU
100
AcDbBlockReference
  2
_OPEN30
 10
221.3198119934954
 20
275.8222468804938
 30
0.0
 41
5.0
 42
5.0
 43
5.0
 50
180.0
  0
INSERT
  5
224C
330
15AA
100
AcDbEntity
  8
SUNPOU
100
AcDbBlockReference
  2
_OPEN30
 10
318.3198119934956
 20
275.8222468804938
 30
0.0
 41
5.0
 42
5.0
 43
5.0
  0
MTEXT
  5
224D
330
15AA
100
AcDbEntity
  8
SUNPOU
 62
     6
100
AcDbMText
 10
269.8198119934954
 20
280.3222468804938
 30
0.0
 40
5.0
 41
0.0
 71
     5
 72
     1
  1
\A1;97
  7
SUNPOU
1001
ACAD
1000
MTEXTBEGIN
1070
    73
1070
     1
1070
    44
1040
1.0
1070
    74
1070
     0
1000
MTEXTEND
1000
MTEXTBEGIN
1070
    73
1070
     1
1070
    44
1040
1.0
1070
    74
1070
     0
1000
MTEXTEND
  0
POINT
  5
224E
330
15AA
100
AcDbEntity
  8
DEFPOINTS
 62
     0
100
AcDbPoint
 10
221.3198119934954
 20
275.8222468804938
 30
0.0
  0
POINT
  5
224F
330
15AA
100
AcDbEntity
  8
DEFPOINTS
 62
     0
100
AcDbPoint
 10
318.3198119934956
 20
317.7650177274476
 30
0.0
  0
POINT
  5
2250
330
15AA
100
AcDbEntity
  8
DEFPOINTS
 62
     0
100
AcDbPoint
 10
318.3198119934956
 20
275.8222468804938
 30
0.0
  0
ENDBLK
  5
15B5
330
15AA
100
AcDbEntity
  8
0
100
AcDbBlockEnd
  0
BLOCK
  5
15C3
330
15B7
100
AcDbEntity
  8
0
100
AcDbBlockBegin
  2
*D24
 70
     1
 10
0.0
 20
0.0
 30
0.0
  3
*D24
  1

  0
LINE
  5
223D
330
15B7
100
AcDbEntity
  8
SUNPOU
100
AcDbLine
 10
318.3198119934956
 20
314.7650177274476
 30
0.0
 11
318.3198119934956
 21
273.8222468804938
 31
0.0
  0
LINE
  5
223E
330
15B7
100
AcDbEntity
  8
SUNPOU
100
AcDbLine
 10
321.3198119934954
 20
290.0688480374477
 30
0.0
 11
321.3198119934954
 21
273.8222468804938
 31
0.0
  0
LINE
  5
223F
330
15B7
100
AcDbEntity
  8
SUNPOU
100
AcDbLine
 10
313.3198119934955
 20
275.8222468804938
 30
0.0
 11
308.3198119934956
 21
275.8222468804938
 31
0.0
  0
LINE
  5
2240
330
15B7
100
AcDbEntity
  8
SUNPOU
100
AcDbLine
 10
326.3198119934954
 20
275.8222468804938
 30
0.0
 11
331.3198119934956
 21
275.8222468804938
 31
0.0
  0
MTEXT
  5
2241
330
15B7
100
AcDbEntity
  8
SUNPOU
 62
     6
100
AcDbMText
 10
326.8046222033966
 20
281.8160742399418
 30
0.0
 40
5.0
 41
0.0
 71
     5
 72
     1
  1
\A1;3
  7
SUNPOU
1001
ACAD
1000
MTEXTBEGIN
1070
    73
1070
     1
1070
    44
1040
1.0
1070
    74
1070
     0
1000
MTEXTEND
1000
MTEXTBEGIN
1070
    73
1070
     1
1070
    44
1040
1.0
1070
    74
1070
     0
1000
MTEXTEND
  0
LINE
  5
2242
330
15B7
100
AcDbEntity
  8
SUNPOU
100
AcDbLine
 10
318.3198119934956
 20
275.8222468804938
 30
0.0
 11
321.3198119934954
 21
275.8222468804938
 31
0.0
  0
INSERT
  5
2243
330
15B7
100
AcDbEntity
  8
SUNPOU
100
AcDbBlockReference
  2
_OPEN30
 10
318.3198119934956
 20
275.8222468804938
 30
0.0
 41
5.0
 42
5.0
 43
5.0
  0
INSERT
  5
2244
330
15B7
100
AcDbEntity
  8
SUNPOU
100
AcDbBlockReference
  2
_OPEN30
 10
321.3198119934954
 20
275.8222468804938
 30
0.0
 41
5.0
 42
5.0
 43
5.0
 50
180.0
  0
POINT
  5
2245
330
15B7
100
AcDbEntity
  8
DEFPOINTS
 62
     0
100
AcDbPoint
 10
318.3198119934956
 20
317.7650177274476
 30
0.0
  0
POINT
  5
2246
330
15B7
100
AcDbEntity
  8
DEFPOINTS
 62
     0
100
AcDbPoint
 10
321.3198119934954
 20
293.0688480374477
 30
0.0
  0
POINT
  5
2247
330
15B7
100
AcDbEntity
  8
DEFPOINTS
 62
     0
100
AcDbPoint
 10
321.3198119934954
 20
275.8222468804938
 30
0.0
  0
ENDBLK
  5
15C4
330
15B7
100
AcDbEntity
  8
0
100
AcDbBlockEnd
  0
BLOCK
  5
1617
330
160D
100
AcDbEntity
  8
0
100
AcDbBlockBegin
  2
*D25
 70
     1
 10
0.0
 20
0.0
 30
0.0
  3
*D25
  1

  0
LINE
  5
21AC
330
160D
100
AcDbEntity
  8
SUNPOU
100
AcDbLine
 10
121.3198119934955
 20
255.8980299811421
 30
0.0
 11
121.3198119934955
 21
255.8210345870119
 31
0.0
  0
LINE
  5
21AD
330
160D
100
AcDbEntity
  8
SUNPOU
100
AcDbLine
 10
321.3198119934954
 20
260.8210345870119
 30
0.0
 11
321.3198119934954
 21
259.821034587012
 31
0.0
  0
LINE
  5
21AE
330
160D
100
AcDbEntity
  8
SUNPOU
100
AcDbLine
 10
126.3198119934956
 20
257.8210345870119
 30
0.0
 11
316.3198119934956
 21
257.8210345870119
 31
0.0
  0
MTEXT
  5
21AF
330
160D
100
AcDbEntity
  8
SUNPOU
 62
     6
100
AcDbMText
 10
228.4491105213496
 20
262.8663596897627
 30
0.0
 40
5.0
 41
0.0
 71
     5
 72
     1
  1
\A1;200
  7
SUNPOU
1001
ACAD
1000
MTEXTBEGIN
1070
    73
1070
     1
1070
    44
1040
1.0
1070
    74
1070
     0
1000
MTEXTEND
1000
MTEXTBEGIN
1070
    73
1070
     1
1070
    44
1040
1.0
1070
    74
1070
     0
1000
MTEXTEND
  0
INSERT
  5
21B0
330
160D
100
AcDbEntity
  8
SUNPOU
100
AcDbBlockReference
  2
_OPEN30
 10
121.3198119934955
 20
257.8210345870119
 30
0.0
 41
5.0
 42
5.0
 43
5.0
 50
180.0
  0
INSERT
  5
21B1
330
160D
100
AcDbEntity
  8
SUNPOU
100
AcDbBlockReference
  2
_OPEN30
 10
321.3198119934954
 20
257.8210345870119
 30
0.0
 41
5.0
 42
5.0
 43
5.0
  0
POINT
  5
21B2
330
160D
100
AcDbEntity
  8
DEFPOINTS
 62
     0
100
AcDbPoint
 10
121.3198119934955
 20
258.898029981142
 30
0.0
  0
POINT
  5
21B3
330
160D
100
AcDbEntity
  8
DEFPOINTS
 62
     0
100
AcDbPoint
 10
321.3198119934954
 20
257.8210345870119
 30
0.0
  0
POINT
  5
21B4
330
160D
100
AcDbEntity
  8
DEFPOINTS
 62
     0
100
AcDbPoint
 10
321.3198119934954
 20
257.8210345870119
 30
0.0
  0
ENDBLK
  5
1618
330
160D
100
AcDbEntity
  8
0
100
AcDbBlockEnd
  0
BLOCK
  5
162D
330
1623
100
AcDbEntity
  8
0
100
AcDbBlockBegin
  2
*D26
 70
     1
 10
0.0
 20
0.0
 30
0.0
  3
*D26
  1

  0
LINE
  5
2234
330
1623
100
AcDbEntity
  8
SUNPOU
100
AcDbLine
 10
319.7198119934955
 20
316.1650177274476
 30
0.0
 11
373.349229940098
 21
316.1650177274476
 31
0.0
  0
LINE
  5
2235
330
1623
100
AcDbEntity
  8
SUNPOU
100
AcDbLine
 10
357.2920172667664
 20
211.0216547874475
 30
0.0
 11
373.349229940098
 21
211.0216547874475
 31
0.0
  0
LINE
  5
2236
330
1623
100
AcDbEntity
  8
SUNPOU
100
AcDbLine
 10
371.349229940098
 20
311.1650177274476
 30
0.0
 11
371.349229940098
 21
216.0216547874477
 31
0.0
  0
INSERT
  5
2237
330
1623
100
AcDbEntity
  8
SUNPOU
100
AcDbBlockReference
  2
_OPEN30
 10
371.349229940098
 20
316.1650177274476
 30
0.0
 41
5.0
 42
5.0
 43
5.0
 50
90.0
  0
INSERT
  5
2238
330
1623
100
AcDbEntity
  8
SUNPOU
100
AcDbBlockReference
  2
_OPEN30
 10
371.349229940098
 20
211.0216547874475
 30
0.0
 41
5.0
 42
5.0
 43
5.0
 50
270.0
  0
MTEXT
  5
2239
330
1623
100
AcDbEntity
  8
SUNPOU
 62
     6
100
AcDbMText
 10
366.849229940098
 20
263.5933362574476
 30
0.0
 40
5.0
 41
0.0
 71
     5
 72
     1
  1
\A1;H
  7
SUNPOU
 11
0.0000000000000001
 21
1.0
 31
0.0
1001
ACAD
1000
MTEXTBEGIN
1070
    73
1070
     1
1070
    44
1040
1.0
1070
    74
1070
     0
1000
MTEXTEND
1000
MTEXTBEGIN
1070
    73
1070
     1
1070
    44
1040
1.0
1070
    74
1070
     0
1000
MTEXTEND
  0
POINT
  5
223A
330
1623
100
AcDbEntity
  8
DEFPOINTS
 62
     0
100
AcDbPoint
 10
316.7198119934955
 20
316.1650177274476
 30
0.0
  0
POINT
  5
223B
330
1623
100
AcDbEntity
  8
DEFPOINTS
 62
     0
100
AcDbPoint
 10
354.2920172667662
 20
211.0216547874475
 30
0.0
  0
POINT
  5
223C
330
1623
100
AcDbEntity
  8
DEFPOINTS
 62
     0
100
AcDbPoint
 10
371.349229940098
 20
211.0216547874475
 30
0.0
  0
ENDBLK
  5
162E
330
1623
100
AcDbEntity
  8
0
100
AcDbBlockEnd
  0
BLOCK
  5
1669
330
165D
100
AcDbEntity
  8
0
100
AcDbBlockBegin
  2
*D27
 70
     1
 10
0.0
 20
0.0
 30
0.0
  3
*D27
  1

  0
LINE
  5
2229
330
165D
100
AcDbEntity
  8
SUNPOU
100
AcDbLine
 10
319.7198119934955
 20
316.1650177274476
 30
0.0
 11
358.2920172667662
 21
316.1650177274476
 31
0.0
  0
LINE
  5
222A
330
165D
100
AcDbEntity
  8
SUNPOU
100
AcDbLine
 10
244.3198119934954
 20
313.1650177274477
 30
0.0
 11
358.2920172667662
 21
313.1650177274477
 31
0.0
  0
LINE
  5
222B
330
165D
100
AcDbEntity
  8
SUNPOU
100
AcDbLine
 10
356.2920172667662
 20
321.1650177274476
 30
0.0
 11
356.2920172667662
 21
326.1650177274475
 31
0.0
  0
LINE
  5
222C
330
165D
100
AcDbEntity
  8
SUNPOU
100
AcDbLine
 10
356.2920172667662
 20
308.1650177274477
 30
0.0
 11
356.2920172667662
 21
303.1650177274477
 31
0.0
  0
MTEXT
  5
222D
330
165D
100
AcDbEntity
  8
SUNPOU
 62
     6
100
AcDbMText
 10
363.0318679088272
 20
314.0894466373126
 30
0.0
 40
5.0
 41
0.0
 71
     5
 72
     1
  1
\A1;3
  7
SUNPOU
 11
0.0000000000000001
 21
1.0
 31
0.0
1001
ACAD
1000
MTEXTBEGIN
1070
    73
1070
     1
1070
    44
1040
1.0
1070
    74
1070
     0
1000
MTEXTEND
1000
MTEXTBEGIN
1070
    73
1070
     1
1070
    44
1040
1.0
1070
    74
1070
     0
1000
MTEXTEND
  0
LINE
  5
222E
330
165D
100
AcDbEntity
  8
SUNPOU
100
AcDbLine
 10
356.2920172667662
 20
316.1650177274476
 30
0.0
 11
356.2920172667662
 21
313.1650177274477
 31
0.0
  0
INSERT
  5
222F
330
165D
100
AcDbEntity
  8
SUNPOU
100
AcDbBlockReference
  2
_OPEN30
 10
356.2920172667662
 20
316.1650177274476
 30
0.0
 41
5.0
 42
5.0
 43
5.0
 50
270.0
  0
INSERT
  5
2230
330
165D
100
AcDbEntity
  8
SUNPOU
100
AcDbBlockReference
  2
_OPEN30
 10
356.2920172667662
 20
313.1650177274477
 30
0.0
 41
5.0
 42
5.0
 43
5.0
 50
90.0
  0
POINT
  5
2231
330
165D
100
AcDbEntity
  8
DEFPOINTS
 62
     0
100
AcDbPoint
 10
316.7198119934955
 20
316.1650177274476
 30
0.0
  0
POINT
  5
2232
330
165D
100
AcDbEntity
  8
DEFPOINTS
 62
     0
100
AcDbPoint
 10
241.3198119934956
 20
313.1650177274477
 30
0.0
  0
POINT
  5
2233
330
165D
100
AcDbEntity
  8
DEFPOINTS
 62
     0
100
AcDbPoint
 10
356.2920172667662
 20
313.1650177274477
 30
0.0
  0
ENDBLK
  5
166A
330
165D
100
AcDbEntity
  8
0
100
AcDbBlockEnd
  0
BLOCK
  5
1676
330
166C
100
AcDbEntity
  8
0
100
AcDbBlockBegin
  2
*D28
 70
     1
 10
0.0
 20
0.0
 30
0.0
  3
*D28
  1

  0
LINE
  5
2220
330
166C
100
AcDbEntity
  8
SUNPOU
100
AcDbLine
 10
244.3198119934954
 20
313.1650177274477
 30
0.0
 11
358.2920172667662
 21
313.1650177274477
 31
0.0
  0
LINE
  5
2221
330
166C
100
AcDbEntity
  8
SUNPOU
100
AcDbLine
 10
244.3198119934954
 20
221.0216547874476
 30
0.0
 11
358.2920172667662
 21
221.0216547874475
 31
0.0
  0
LINE
  5
2222
330
166C
100
AcDbEntity
  8
SUNPOU
100
AcDbLine
 10
356.2920172667662
 20
308.1650177274477
 30
0.0
 11
356.2920172667662
 21
226.0216547874477
 31
0.0
  0
INSERT
  5
2223
330
166C
100
AcDbEntity
  8
SUNPOU
100
AcDbBlockReference
  2
_OPEN30
 10
356.2920172667662
 20
313.1650177274477
 30
0.0
 41
5.0
 42
5.0
 43
5.0
 50
90.0
  0
INSERT
  5
2224
330
166C
100
AcDbEntity
  8
SUNPOU
100
AcDbBlockReference
  2
_OPEN30
 10
356.2920172667662
 20
221.0216547874475
 30
0.0
 41
5.0
 42
5.0
 43
5.0
 50
270.0
  0
MTEXT
  5
2225
330
166C
100
AcDbEntity
  8
SUNPOU
 62
     6
100
AcDbMText
 10
351.7920172667662
 20
267.0933362574476
 30
0.0
 40
5.0
 41
0.0
 71
     5
 72
     1
  1
\A1;DH
  7
SUNPOU
 11
0.0000000000000001
 21
1.0
 31
0.0
1001
ACAD
1000
MTEXTBEGIN
1070
    73
1070
     1
1070
    44
1040
1.0
1070
    74
1070
     0
1000
MTEXTEND
1000
MTEXTBEGIN
1070
    73
1070
     1
1070
    44
1040
1.0
1070
    74
1070
     0
1000
MTEXTEND
  0
POINT
  5
2226
330
166C
100
AcDbEntity
  8
DEFPOINTS
 62
     0
100
AcDbPoint
 10
241.3198119934956
 20
313.1650177274477
 30
0.0
  0
POINT
  5
2227
330
166C
100
AcDbEntity
  8
DEFPOINTS
 62
     0
100
AcDbPoint
 10
241.3198119934956
 20
221.0216547874476
 30
0.0
  0
POINT
  5
2228
330
166C
100
AcDbEntity
  8
DEFPOINTS
 62
     0
100
AcDbPoint
 10
356.2920172667662
 20
221.0216547874475
 30
0.0
  0
ENDBLK
  5
1677
330
166C
100
AcDbEntity
  8
0
100
AcDbBlockEnd
  0
BLOCK
  5
1685
330
1679
100
AcDbEntity
  8
0
100
AcDbBlockBegin
  2
*D29
 70
     1
 10
0.0
 20
0.0
 30
0.0
  3
*D29
  1

  0
LINE
  5
2251
330
1679
100
AcDbEntity
  8
SUNPOU
100
AcDbLine
 10
244.3198119934954
 20
221.0216547874476
 30
0.0
 11
358.2920172667662
 21
221.0216547874475
 31
0.0
  0
LINE
  5
2252
330
1679
100
AcDbEntity
  8
SUNPOU
100
AcDbLine
 10
353.3517039014536
 20
211.0216547874475
 30
0.0
 11
354.2920172667662
 21
211.0216547874475
 31
0.0
  0
LINE
  5
2253
330
1679
100
AcDbEntity
  8
SUNPOU
100
AcDbLine
 10
356.2920172667662
 20
226.0216547874477
 30
0.0
 11
356.2920172667662
 21
231.0216547874475
 31
0.0
  0
LINE
  5
2254
330
1679
100
AcDbEntity
  8
SUNPOU
100
AcDbLine
 10
356.2920172667662
 20
206.0216547874475
 30
0.0
 11
356.2920172667662
 21
201.0216547874477
 31
0.0
  0
LINE
  5
2255
330
1679
100
AcDbEntity
  8
SUNPOU
100
AcDbLine
 10
356.2920172667662
 20
221.0216547874475
 30
0.0
 11
356.2920172667662
 21
211.0216547874475
 31
0.0
  0
INSERT
  5
2256
330
1679
100
AcDbEntity
  8
SUNPOU
100
AcDbBlockReference
  2
_OPEN30
 10
356.2920172667662
 20
221.0216547874475
 30
0.0
 41
5.0
 42
5.0
 43
5.0
 50
270.0
  0
INSERT
  5
2257
330
1679
100
AcDbEntity
  8
SUNPOU
100
AcDbBlockReference
  2
_OPEN30
 10
356.2920172667662
 20
211.0216547874475
 30
0.0
 41
5.0
 42
5.0
 43
5.0
 50
90.0
  0
MTEXT
  5
2258
330
1679
100
AcDbEntity
  8
SUNPOU
 62
     6
100
AcDbMText
 10
351.7920172667662
 20
216.0216547874477
 30
0.0
 40
5.0
 41
0.0
 71
     5
 72
     1
  1
\A1;10
  7
SUNPOU
 11
0.0000000000000001
 21
1.0
 31
0.0
1001
ACAD
1000
MTEXTBEGIN
1070
    73
1070
     1
1070
    44
1040
1.0
1070
    74
1070
     0
1000
MTEXTEND
1000
MTEXTBEGIN
1070
    73
1070
     1
1070
    44
1040
1.0
1070
    74
1070
     0
1000
MTEXTEND
  0
POINT
  5
2259
330
1679
100
AcDbEntity
  8
DEFPOINTS
 62
     0
100
AcDbPoint
 10
241.3198119934956
 20
221.0216547874476
 30
0.0
  0
POINT
  5
225A
330
1679
100
AcDbEntity
  8
DEFPOINTS
 62
     0
100
AcDbPoint
 10
356.3517039014536
 20
211.0216547874475
 30
0.0
  0
POINT
  5
225B
330
1679
100
AcDbEntity
  8
DEFPOINTS
 62
     0
100
AcDbPoint
 10
356.2920172667662
 20
211.0216547874475
 30
0.0
  0
ENDBLK
  5
1686
330
1679
100
AcDbEntity
  8
0
100
AcDbBlockEnd
  0
BLOCK
  5
16AD
330
16AB
100
AcDbEntity
  8
0
100
AcDbBlockBegin
  2
_DOTSMALL
 70
     0
 10
0.0
 20
0.0
 30
0.0
  3
_DOTSMALL
  1

  0
POLYLINE
  5
16AC
330
16AB
100
AcDbEntity
  8
0
  6
BYBLOCK
 62
     0
100
AcDb2dPolyline
 66
     1
 10
0.0
 20
0.0
 30
0.0
 70
     1
 40
0.5
 41
0.5
  0
VERTEX
  5
232E
330
16AC
100
AcDbEntity
  8
0
  6
BYBLOCK
 62
     0
100
AcDbVertex
100
AcDb2dVertex
 10
-0.0625
 20
0.0
 30
0.0
 42
1.0
  0
VERTEX
  5
232F
330
16AC
100
AcDbEntity
  8
0
  6
BYBLOCK
 62
     0
100
AcDbVertex
100
AcDb2dVertex
 10
0.0625
 20
0.0
 30
0.0
 42
1.0
  0
SEQEND
  5
2330
330
16AC
100
AcDbEntity
  8
0
  6
BYBLOCK
 62
     0
  0
ENDBLK
  5
16AE
330
16AB
100
AcDbEntity
  8
0
100
AcDbBlockEnd
  0
BLOCK
  5
179C
330
1792
100
AcDbEntity
  8
0
100
AcDbBlockBegin
  2
*D31
 70
     1
 10
0.0
 20
0.0
 30
0.0
  3
*D31
  1

  0
LINE
  5
21A3
330
1792
100
AcDbEntity
  8
SUNPOU
100
AcDbLine
 10
201.3198119934954
 20
277.8807462442784
 30
0.0
 11
201.3198119934954
 21
277.5635036363599
 31
0.0
  0
LINE
  5
21A4
330
1792
100
AcDbEntity
  8
SUNPOU
100
AcDbLine
 10
241.3198119934956
 20
277.8807462442784
 30
0.0
 11
241.3198119934956
 21
277.5635036363599
 31
0.0
  0
LINE
  5
21A5
330
1792
100
AcDbEntity
  8
SUNPOU
100
AcDbLine
 10
206.3198119934956
 20
279.5635036363598
 30
0.0
 11
236.3198119934954
 21
279.5635036363598
 31
0.0
  0
INSERT
  5
21A6
330
1792
100
AcDbEntity
  8
SUNPOU
100
AcDbBlockReference
  2
_OPEN30
 10
201.3198119934954
 20
279.5635036363598
 30
0.0
 41
5.0
 42
5.0
 43
5.0
 50
180.0
  0
INSERT
  5
21A7
330
1792
100
AcDbEntity
  8
SUNPOU
100
AcDbBlockReference
  2
_OPEN30
 10
241.3198119934956
 20
279.5635036363598
 30
0.0
 41
5.0
 42
5.0
 43
5.0
  0
MTEXT
  5
21A8
330
1792
100
AcDbEntity
  8
SUNPOU
 62
     6
100
AcDbMText
 10
221.3198119934954
 20
284.0635036363599
 30
0.0
 40
5.0
 41
0.0
 71
     5
 72
     1
  1
\A1;40
  7
SUNPOU
1001
ACAD
1000
MTEXTBEGIN
1070
    73
1070
     1
1070
    44
1040
1.0
1070
    74
1070
     0
1000
MTEXTEND
1000
MTEXTBEGIN
1070
    73
1070
     1
1070
    44
1040
1.0
1070
    74
1070
     0
1000
MTEXTEND
  0
POINT
  5
21A9
330
1792
100
AcDbEntity
  8
DEFPOINTS
 62
     0
100
AcDbPoint
 10
201.3198119934954
 20
280.8807462442785
 30
0.0
  0
POINT
  5
21AA
330
1792
100
AcDbEntity
  8
DEFPOINTS
 62
     0
100
AcDbPoint
 10
241.3198119934956
 20
280.8807462442785
 30
0.0
  0
POINT
  5
21AB
330
1792
100
AcDbEntity
  8
DEFPOINTS
 62
     0
100
AcDbPoint
 10
241.3198119934956
 20
279.5635036363598
 30
0.0
  0
ENDBLK
  5
179D
330
1792
100
AcDbEntity
  8
0
100
AcDbBlockEnd
  0
BLOCK
  5
19C1
330
19B7
100
AcDbEntity
  8
0
100
AcDbBlockBegin
  2
*D32
 70
     1
 10
0.0
 20
0.0
 30
0.0
  3
*D32
  1

  0
LINE
  5
2281
330
19B7
100
AcDbEntity
  8
SUNPOU
100
AcDbLine
 10
156.6920933167646
 20
151.0736174918893
 30
0.0
 11
156.6920933167646
 21
165.3046255334705
 31
0.0
  0
LINE
  5
2282
330
19B7
100
AcDbEntity
  8
SUNPOU
100
AcDbLine
 10
176.6920933167646
 20
151.0736174918893
 30
0.0
 11
176.6920933167646
 21
165.3046255334705
 31
0.0
  0
LINE
  5
2283
330
19B7
100
AcDbEntity
  8
SUNPOU
100
AcDbLine
 10
161.6920933167646
 20
163.3046255334705
 30
0.0
 11
171.6920933167646
 21
163.3046255334705
 31
0.0
  0
INSERT
  5
2284
330
19B7
100
AcDbEntity
  8
SUNPOU
100
AcDbBlockReference
  2
_OPEN30
 10
156.6920933167646
 20
163.3046255334705
 30
0.0
 41
5.0
 42
5.0
 43
5.0
 50
180.0
  0
INSERT
  5
2285
330
19B7
100
AcDbEntity
  8
SUNPOU
100
AcDbBlockReference
  2
_OPEN30
 10
176.6920933167646
 20
163.3046255334705
 30
0.0
 41
5.0
 42
5.0
 43
5.0
  0
MTEXT
  5
2286
330
19B7
100
AcDbEntity
  8
SUNPOU
 62
     6
100
AcDbMText
 10
166.6920933167646
 20
167.8046255334707
 30
0.0
 40
5.0
 41
0.0
 71
     5
 72
     1
  1
\A1;20
  7
SUNPOU
1001
ACAD
1000
MTEXTBEGIN
1070
    73
1070
     1
1070
    44
1040
1.0
1070
    74
1070
     0
1000
MTEXTEND
1000
MTEXTBEGIN
1070
    73
1070
     1
1070
    44
1040
1.0
1070
    74
1070
     0
1000
MTEXTEND
  0
POINT
  5
2287
330
19B7
100
AcDbEntity
  8
DEFPOINTS
 62
     0
100
AcDbPoint
 10
156.6920933167646
 20
148.0736174918893
 30
0.0
  0
POINT
  5
2288
330
19B7
100
AcDbEntity
  8
DEFPOINTS
 62
     0
100
AcDbPoint
 10
176.6920933167646
 20
148.0736174918893
 30
0.0
  0
POINT
  5
2289
330
19B7
100
AcDbEntity
  8
DEFPOINTS
 62
     0
100
AcDbPoint
 10
176.6920933167646
 20
163.3046255334705
 30
0.0
  0
ENDBLK
  5
19C2
330
19B7
100
AcDbEntity
  8
0
100
AcDbBlockEnd
  0
BLOCK
  5
19CE
330
19C4
100
AcDbEntity
  8
0
100
AcDbBlockBegin
  2
*D33
 70
     1
 10
0.0
 20
0.0
 30
0.0
  3
*D33
  1

  0
LINE
  5
2162
330
19C4
100
AcDbEntity
  8
SUNPOU
100
AcDbLine
 10
176.6920933167646
 20
151.0736174918893
 30
0.0
 11
176.6920933167646
 21
165.3046255334705
 31
0.0
  0
LINE
  5
2163
330
19C4
100
AcDbEntity
  8
SUNPOU
100
AcDbLine
 10
316.6920933167646
 20
161.4293375498668
 30
0.0
 11
316.6920933167646
 21
161.3046255334705
 31
0.0
  0
LINE
  5
2164
330
19C4
100
AcDbEntity
  8
SUNPOU
100
AcDbLine
 10
181.6920933167646
 20
163.3046255334705
 30
0.0
 11
311.6920933167646
 21
163.3046255334705
 31
0.0
  0
MTEXT
  5
2165
330
19C4
100
AcDbEntity
  8
SUNPOU
 62
     6
100
AcDbMText
 10
237.5929727141496
 20
167.8046255334707
 30
0.0
 40
5.0
 41
0.0
 71
     5
 72
     1
  1
\A1;140
  7
SUNPOU
1001
ACAD
1000
MTEXTBEGIN
1070
    73
1070
     1
1070
    44
1040
1.0
1070
    74
1070
     0
1000
MTEXTEND
1000
MTEXTBEGIN
1070
    73
1070
     1
1070
    44
1040
1.0
1070
    74
1070
     0
1000
MTEXTEND
  0
INSERT
  5
2166
330
19C4
100
AcDbEntity
  8
SUNPOU
100
AcDbBlockReference
  2
_OPEN30
 10
176.6920933167646
 20
163.3046255334705
 30
0.0
 41
5.0
 42
5.0
 43
5.0
 50
180.0
  0
INSERT
  5
2167
330
19C4
100
AcDbEntity
  8
SUNPOU
100
AcDbBlockReference
  2
_OPEN30
 10
316.6920933167646
 20
163.3046255334705
 30
0.0
 41
5.0
 42
5.0
 43
5.0
  0
POINT
  5
2168
330
19C4
100
AcDbEntity
  8
DEFPOINTS
 62
     0
100
AcDbPoint
 10
176.6920933167646
 20
148.0736174918893
 30
0.0
  0
POINT
  5
2169
330
19C4
100
AcDbEntity
  8
DEFPOINTS
 62
     0
100
AcDbPoint
 10
316.6920933167646
 20
164.4293375498667
 30
0.0
  0
POINT
  5
216A
330
19C4
100
AcDbEntity
  8
DEFPOINTS
 62
     0
100
AcDbPoint
 10
316.6920933167646
 20
163.3046255334705
 30
0.0
  0
ENDBLK
  5
19CF
330
19C4
100
AcDbEntity
  8
0
100
AcDbBlockEnd
  0
BLOCK
  5
19DB
330
19D1
100
AcDbEntity
  8
0
100
AcDbBlockBegin
  2
*D34
 70
     1
 10
0.0
 20
0.0
 30
0.0
  3
*D34
  1

  0
LINE
  5
2159
330
19D1
100
AcDbEntity
  8
SUNPOU
100
AcDbLine
 10
334.6920933167646
 20
158.4056732742076
 30
0.0
 11
350.6920933167646
 21
158.4056732742076
 31
0.0
  0
LINE
  5
215A
330
19D1
100
AcDbEntity
  8
SUNPOU
100
AcDbLine
 10
334.6920933167646
 20
126.4056732742075
 30
0.0
 11
350.6920933167646
 21
126.4056732742075
 31
0.0
  0
LINE
  5
215B
330
19D1
100
AcDbEntity
  8
SUNPOU
100
AcDbLine
 10
348.6920933167646
 20
153.4056732742075
 30
0.0
 11
348.6920933167646
 21
131.4056732742076
 31
0.0
  0
INSERT
  5
215C
330
19D1
100
AcDbEntity
  8
SUNPOU
100
AcDbBlockReference
  2
_OPEN30
 10
348.6920933167646
 20
158.4056732742076
 30
0.0
 41
5.0
 42
5.0
 43
5.0
 50
90.0
  0
INSERT
  5
215D
330
19D1
100
AcDbEntity
  8
SUNPOU
100
AcDbBlockReference
  2
_OPEN30
 10
348.6920933167646
 20
126.4056732742075
 30
0.0
 41
5.0
 42
5.0
 43
5.0
 50
270.0
  0
MTEXT
  5
215E
330
19D1
100
AcDbEntity
  8
SUNPOU
 62
     6
100
AcDbMText
 10
344.1920933167646
 20
142.4056732742076
 30
0.0
 40
5.0
 41
0.0
 71
     5
 72
     1
  1
\A1;32
  7
SUNPOU
 11
0.0000000000000001
 21
1.0
 31
0.0
1001
ACAD
1000
MTEXTBEGIN
1070
    73
1070
     1
1070
    44
1040
1.0
1070
    74
1070
     0
1000
MTEXTEND
1000
MTEXTBEGIN
1070
    73
1070
     1
1070
    44
1040
1.0
1070
    74
1070
     0
1000
MTEXTEND
  0
POINT
  5
215F
330
19D1
100
AcDbEntity
  8
DEFPOINTS
 62
     0
100
AcDbPoint
 10
331.6920933167646
 20
158.4056732742076
 30
0.0
  0
POINT
  5
2160
330
19D1
100
AcDbEntity
  8
DEFPOINTS
 62
     0
100
AcDbPoint
 10
331.6920933167646
 20
126.4056732742075
 30
0.0
  0
POINT
  5
2161
330
19D1
100
AcDbEntity
  8
DEFPOINTS
 62
     0
100
AcDbPoint
 10
348.6920933167646
 20
126.4056732742075
 30
0.0
  0
ENDBLK
  5
19DC
330
19D1
100
AcDbEntity
  8
0
100
AcDbBlockEnd
  0
BLOCK
  5
19E8
330
19DE
100
AcDbEntity
  8
0
100
AcDbBlockBegin
  2
*D35
 70
     1
 10
0.0
 20
0.0
 30
0.0
  3
*D35
  1

  0
LINE
  5
2114
330
19DE
100
AcDbEntity
  8
SUNPOU
100
AcDbLine
 10
131.6920933167646
 20
123.4056732742075
 30
0.0
 11
131.6920933167646
 21
114.8839761983879
 31
0.0
  0
LINE
  5
2115
330
19DE
100
AcDbEntity
  8
SUNPOU
100
AcDbLine
 10
146.6920933167646
 20
129.8960023315255
 30
0.0
 11
146.6920933167646
 21
114.8839761983879
 31
0.0
  0
LINE
  5
2116
330
19DE
100
AcDbEntity
  8
SUNPOU
100
AcDbLine
 10
136.6920933167646
 20
116.8839761983879
 30
0.0
 11
141.6920933167646
 21
116.8839761983879
 31
0.0
  0
INSERT
  5
2117
330
19DE
100
AcDbEntity
  8
SUNPOU
100
AcDbBlockReference
  2
_OPEN30
 10
131.6920933167646
 20
116.8839761983879
 30
0.0
 41
5.0
 42
5.0
 43
5.0
 50
180.0
  0
INSERT
  5
2118
330
19DE
100
AcDbEntity
  8
SUNPOU
100
AcDbBlockReference
  2
_OPEN30
 10
146.6920933167646
 20
116.8839761983879
 30
0.0
 41
5.0
 42
5.0
 43
5.0
  0
MTEXT
  5
2119
330
19DE
100
AcDbEntity
  8
SUNPOU
 62
     6
100
AcDbMText
 10
139.1920933167646
 20
121.3839761983879
 30
0.0
 40
5.0
 41
0.0
 71
     5
 72
     1
  1
\A1;15
  7
SUNPOU
1001
ACAD
1000
MTEXTBEGIN
1070
    73
1070
     1
1070
    44
1040
1.0
1070
    74
1070
     0
1000
MTEXTEND
1000
MTEXTBEGIN
1070
    73
1070
     1
1070
    44
1040
1.0
1070
    74
1070
     0
1000
MTEXTEND
  0
POINT
  5
211A
330
19DE
100
AcDbEntity
  8
DEFPOINTS
 62
     0
100
AcDbPoint
 10
131.6920933167646
 20
126.4056732742075
 30
0.0
  0
POINT
  5
211B
330
19DE
100
AcDbEntity
  8
DEFPOINTS
 62
     0
100
AcDbPoint
 10
146.6920933167646
 20
132.8960023315255
 30
0.0
  0
POINT
  5
211C
330
19DE
100
AcDbEntity
  8
DEFPOINTS
 62
     0
100
AcDbPoint
 10
146.6920933167646
 20
116.8839761983879
 30
0.0
  0
ENDBLK
  5
19E9
330
19DE
100
AcDbEntity
  8
0
100
AcDbBlockEnd
  0
BLOCK
  5
19F5
330
19EB
100
AcDbEntity
  8
0
100
AcDbBlockBegin
  2
*D36
 70
     1
 10
0.0
 20
0.0
 30
0.0
  3
*D36
  1

  0
LINE
  5
210B
330
19EB
100
AcDbEntity
  8
SUNPOU
100
AcDbLine
 10
146.6920933167646
 20
129.8960023315255
 30
0.0
 11
146.6920933167646
 21
114.8839761983879
 31
0.0
  0
LINE
  5
210C
330
19EB
100
AcDbEntity
  8
SUNPOU
100
AcDbLine
 10
186.6920933167646
 20
129.8960023315255
 30
0.0
 11
186.6920933167646
 21
114.8839761983879
 31
0.0
  0
LINE
  5
210D
330
19EB
100
AcDbEntity
  8
SUNPOU
100
AcDbLine
 10
151.6920933167646
 20
116.8839761983879
 30
0.0
 11
181.6920933167646
 21
116.8839761983879
 31
0.0
  0
INSERT
  5
210E
330
19EB
100
AcDbEntity
  8
SUNPOU
100
AcDbBlockReference
  2
_OPEN30
 10
146.6920933167646
 20
116.8839761983879
 30
0.0
 41
5.0
 42
5.0
 43
5.0
 50
180.0
  0
INSERT
  5
210F
330
19EB
100
AcDbEntity
  8
SUNPOU
100
AcDbBlockReference
  2
_OPEN30
 10
186.6920933167646
 20
116.8839761983879
 30
0.0
 41
5.0
 42
5.0
 43
5.0
  0
MTEXT
  5
2110
330
19EB
100
AcDbEntity
  8
SUNPOU
 62
     6
100
AcDbMText
 10
166.6920933167646
 20
121.3839761983879
 30
0.0
 40
5.0
 41
0.0
 71
     5
 72
     1
  1
\A1;40
  7
SUNPOU
1001
ACAD
1000
MTEXTBEGIN
1070
    73
1070
     1
1070
    44
1040
1.0
1070
    74
1070
     0
1000
MTEXTEND
1000
MTEXTBEGIN
1070
    73
1070
     1
1070
    44
1040
1.0
1070
    74
1070
     0
1000
MTEXTEND
  0
POINT
  5
2111
330
19EB
100
AcDbEntity
  8
DEFPOINTS
 62
     0
100
AcDbPoint
 10
146.6920933167646
 20
132.8960023315255
 30
0.0
  0
POINT
  5
2112
330
19EB
100
AcDbEntity
  8
DEFPOINTS
 62
     0
100
AcDbPoint
 10
186.6920933167646
 20
132.8960023315255
 30
0.0
  0
POINT
  5
2113
330
19EB
100
AcDbEntity
  8
DEFPOINTS
 62
     0
100
AcDbPoint
 10
186.6920933167646
 20
116.8839761983879
 30
0.0
  0
ENDBLK
  5
19F6
330
19EB
100
AcDbEntity
  8
0
100
AcDbBlockEnd
  0
BLOCK
  5
1A02
330
19F8
100
AcDbEntity
  8
0
100
AcDbBlockBegin
  2
*D37
 70
     1
 10
0.0
 20
0.0
 30
0.0
  3
*D37
  1

  0
LINE
  5
20CA
330
19F8
100
AcDbEntity
  8
SUNPOU
100
AcDbLine
 10
186.6920933167646
 20
129.8960023315255
 30
0.0
 11
186.6920933167646
 21
114.8839761983879
 31
0.0
  0
LINE
  5
20CB
330
19F8
100
AcDbEntity
  8
SUNPOU
100
AcDbLine
 10
316.6920933167646
 20
119.8876545501343
 30
0.0
 11
316.6920933167646
 21
114.8839761983879
 31
0.0
  0
LINE
  5
20CC
330
19F8
100
AcDbEntity
  8
SUNPOU
100
AcDbLine
 10
191.6920933167646
 20
116.8839761983879
 30
0.0
 11
311.6920933167646
 21
116.8839761983879
 31
0.0
  0
INSERT
  5
20CD
330
19F8
100
AcDbEntity
  8
SUNPOU
100
AcDbBlockReference
  2
_OPEN30
 10
186.6920933167646
 20
116.8839761983879
 30
0.0
 41
5.0
 42
5.0
 43
5.0
 50
180.0
  0
INSERT
  5
20CE
330
19F8
100
AcDbEntity
  8
SUNPOU
100
AcDbBlockReference
  2
_OPEN30
 10
316.6920933167646
 20
116.8839761983879
 30
0.0
 41
5.0
 42
5.0
 43
5.0
  0
MTEXT
  5
20CF
330
19F8
100
AcDbEntity
  8
SUNPOU
 62
     6
100
AcDbMText
 10
251.6920933167646
 20
121.3839761983879
 30
0.0
 40
5.0
 41
0.0
 71
     5
 72
     1
  1
\A1;130
  7
SUNPOU
1001
ACAD
1000
MTEXTBEGIN
1070
    73
1070
     1
1070
    44
1040
1.0
1070
    74
1070
     0
1000
MTEXTEND
1000
MTEXTBEGIN
1070
    73
1070
     1
1070
    44
1040
1.0
1070
    74
1070
     0
1000
MTEXTEND
  0
POINT
  5
20D0
330
19F8
100
AcDbEntity
  8
DEFPOINTS
 62
     0
100
AcDbPoint
 10
186.6920933167646
 20
132.8960023315255
 30
0.0
  0
POINT
  5
20D1
330
19F8
100
AcDbEntity
  8
DEFPOINTS
 62
     0
100
AcDbPoint
 10
316.6920933167646
 20
122.8876545501343
 30
0.0
  0
POINT
  5
20D2
330
19F8
100
AcDbEntity
  8
DEFPOINTS
 62
     0
100
AcDbPoint
 10
316.6920933167646
 20
116.8839761983879
 30
0.0
  0
ENDBLK
  5
1A03
330
19F8
100
AcDbEntity
  8
0
100
AcDbBlockEnd
  0
BLOCK
  5
1A0F
330
1A05
100
AcDbEntity
  8
0
100
AcDbBlockBegin
  2
*D38
 70
     1
 10
0.0
 20
0.0
 30
0.0
  3
*D38
  1

  0
LINE
  5
2150
330
1A05
100
AcDbEntity
  8
SUNPOU
100
AcDbLine
 10
316.6920933167646
 20
117.885852445554
 30
0.0
 11
316.6920933167646
 21
114.8839761983879
 31
0.0
  0
LINE
  5
2151
330
1A05
100
AcDbEntity
  8
SUNPOU
100
AcDbLine
 10
331.6920933167646
 20
123.4056732742075
 30
0.0
 11
331.6920933167646
 21
114.8839761983879
 31
0.0
  0
LINE
  5
2152
330
1A05
100
AcDbEntity
  8
SUNPOU
100
AcDbLine
 10
321.6920933167646
 20
116.8839761983879
 30
0.0
 11
326.6920933167646
 21
116.8839761983879
 31
0.0
  0
INSERT
  5
2153
330
1A05
100
AcDbEntity
  8
SUNPOU
100
AcDbBlockReference
  2
_OPEN30
 10
316.6920933167646
 20
116.8839761983879
 30
0.0
 41
5.0
 42
5.0
 43
5.0
 50
180.0
  0
INSERT
  5
2154
330
1A05
100
AcDbEntity
  8
SUNPOU
100
AcDbBlockReference
  2
_OPEN30
 10
331.6920933167646
 20
116.8839761983879
 30
0.0
 41
5.0
 42
5.0
 43
5.0
  0
MTEXT
  5
2155
330
1A05
100
AcDbEntity
  8
SUNPOU
 62
     6
100
AcDbMText
 10
324.1920933167646
 20
121.3839761983879
 30
0.0
 40
5.0
 41
0.0
 71
     5
 72
     1
  1
\A1;15
  7
SUNPOU
1001
ACAD
1000
MTEXTBEGIN
1070
    73
1070
     1
1070
    44
1040
1.0
1070
    74
1070
     0
1000
MTEXTEND
1000
MTEXTBEGIN
1070
    73
1070
     1
1070
    44
1040
1.0
1070
    74
1070
     0
1000
MTEXTEND
  0
POINT
  5
2156
330
1A05
100
AcDbEntity
  8
DEFPOINTS
 62
     0
100
AcDbPoint
 10
316.6920933167646
 20
120.885852445554
 30
0.0
  0
POINT
  5
2157
330
1A05
100
AcDbEntity
  8
DEFPOINTS
 62
     0
100
AcDbPoint
 10
331.6920933167646
 20
126.4056732742075
 30
0.0
  0
POINT
  5
2158
330
1A05
100
AcDbEntity
  8
DEFPOINTS
 62
     0
100
AcDbPoint
 10
331.6920933167646
 20
116.8839761983879
 30
0.0
  0
ENDBLK
  5
1A10
330
1A05
100
AcDbEntity
  8
0
100
AcDbBlockEnd
  0
BLOCK
  5
1A1C
330
1A12
100
AcDbEntity
  8
0
100
AcDbBlockBegin
  2
*D39
 70
     1
 10
0.0
 20
0.0
 30
0.0
  3
*D39
  1

  0
LINE
  5
20E5
330
1A12
100
AcDbEntity
  8
SUNPOU
100
AcDbLine
 10
131.6920933167646
 20
123.4056732742075
 30
0.0
 11
131.6920933167646
 21
105.120116238233
 31
0.0
  0
LINE
  5
20E6
330
1A12
100
AcDbEntity
  8
SUNPOU
100
AcDbLine
 10
331.6920933167646
 20
123.4056732742075
 30
0.0
 11
331.6920933167646
 21
105.120116238233
 31
0.0
  0
LINE
  5
20E7
330
1A12
100
AcDbEntity
  8
SUNPOU
100
AcDbLine
 10
136.6920933167646
 20
107.1201162382329
 30
0.0
 11
326.6920933167646
 21
107.1201162382329
 31
0.0
  0
INSERT
  5
20E8
330
1A12
100
AcDbEntity
  8
SUNPOU
100
AcDbBlockReference
  2
_OPEN30
 10
131.6920933167646
 20
107.1201162382329
 30
0.0
 41
5.0
 42
5.0
 43
5.0
 50
180.0
  0
INSERT
  5
20E9
330
1A12
100
AcDbEntity
  8
SUNPOU
100
AcDbBlockReference
  2
_OPEN30
 10
331.6920933167646
 20
107.1201162382329
 30
0.0
 41
5.0
 42
5.0
 43
5.0
  0
MTEXT
  5
20EA
330
1A12
100
AcDbEntity
  8
SUNPOU
 62
     6
100
AcDbMText
 10
231.6920933167646
 20
111.620116238233
 30
0.0
 40
5.0
 41
0.0
 71
     5
 72
     1
  1
\A1;200
  7
SUNPOU
1001
ACAD
1000
MTEXTBEGIN
1070
    73
1070
     1
1070
    44
1040
1.0
1070
    74
1070
     0
1000
MTEXTEND
1000
MTEXTBEGIN
1070
    73
1070
     1
1070
    44
1040
1.0
1070
    74
1070
     0
1000
MTEXTEND
  0
POINT
  5
20EB
330
1A12
100
AcDbEntity
  8
DEFPOINTS
 62
     0
100
AcDbPoint
 10
131.6920933167646
 20
126.4056732742075
 30
0.0
  0
POINT
  5
20EC
330
1A12
100
AcDbEntity
  8
DEFPOINTS
 62
     0
100
AcDbPoint
 10
331.6920933167646
 20
126.4056732742075
 30
0.0
  0
POINT
  5
20ED
330
1A12
100
AcDbEntity
  8
DEFPOINTS
 62
     0
100
AcDbPoint
 10
331.6920933167646
 20
107.1201162382329
 30
0.0
  0
ENDBLK
  5
1A1D
330
1A12
100
AcDbEntity
  8
0
100
AcDbBlockEnd
  0
BLOCK
  5
1A2F
330
1A23
100
AcDbEntity
  8
0
100
AcDbBlockBegin
  2
*D40
 70
     1
 10
0.0
 20
0.0
 30
0.0
  3
*D40
  1

  0
LINE
  5
211D
330
1A23
100
AcDbEntity
  8
SUNPOU
100
AcDbLine
 10
189.6920933167646
 20
145.9056732742076
 30
0.0
 11
208.310756909239
 21
145.9056732742076
 31
0.0
  0
LINE
  5
211E
330
1A23
100
AcDbEntity
  8
SUNPOU
100
AcDbLine
 10
189.6920933167646
 20
138.9056732742075
 30
0.0
 11
208.310756909239
 21
138.9056732742075
 31
0.0
  0
LINE
  5
211F
330
1A23
100
AcDbEntity
  8
SUNPOU
100
AcDbLine
 10
206.310756909239
 20
150.9056732742076
 30
0.0
 11
206.310756909239
 21
155.9056732742076
 31
0.0
  0
LINE
  5
2120
330
1A23
100
AcDbEntity
  8
SUNPOU
100
AcDbLine
 10
206.310756909239
 20
133.9056732742075
 30
0.0
 11
206.310756909239
 21
128.9056732742076
 31
0.0
  0
LINE
  5
2121
330
1A23
100
AcDbEntity
  8
SUNPOU
100
AcDbLine
 10
206.310756909239
 20
145.9056732742076
 30
0.0
 11
206.310756909239
 21
138.9056732742075
 31
0.0
  0
INSERT
  5
2122
330
1A23
100
AcDbEntity
  8
SUNPOU
100
AcDbBlockReference
  2
_OPEN30
 10
206.310756909239
 20
145.9056732742076
 30
0.0
 41
5.0
 42
5.0
 43
5.0
 50
270.0
  0
INSERT
  5
2123
330
1A23
100
AcDbEntity
  8
SUNPOU
100
AcDbBlockReference
  2
_OPEN30
 10
206.310756909239
 20
138.9056732742075
 30
0.0
 41
5.0
 42
5.0
 43
5.0
 50
90.0
  0
MTEXT
  5
2124
330
1A23
100
AcDbEntity
  8
SUNPOU
 62
     6
100
AcDbMText
 10
201.810756909239
 20
142.4056732742076
 30
0.0
 40
5.0
 41
0.0
 71
     5
 72
     1
  1
\A1;7
  7
SUNPOU
 11
0.0000000000000001
 21
1.0
 31
0.0
1001
ACAD
1000
MTEXTBEGIN
1070
    73
1070
     1
1070
    44
1040
1.0
1070
    74
1070
     0
1000
MTEXTEND
1000
MTEXTBEGIN
1070
    73
1070
     1
1070
    44
1040
1.0
1070
    74
1070
     0
1000
MTEXTEND
  0
POINT
  5
2125
330
1A23
100
AcDbEntity
  8
DEFPOINTS
 62
     0
100
AcDbPoint
 10
186.6920933167646
 20
145.9056732742076
 30
0.0
  0
POINT
  5
2126
330
1A23
100
AcDbEntity
  8
DEFPOINTS
 62
     0
100
AcDbPoint
 10
186.6920933167646
 20
138.9056732742075
 30
0.0
  0
POINT
  5
2127
330
1A23
100
AcDbEntity
  8
DEFPOINTS
 62
     0
100
AcDbPoint
 10
206.310756909239
 20
138.9056732742075
 30
0.0
  0
ENDBLK
  5
1A30
330
1A23
100
AcDbEntity
  8
0
100
AcDbBlockEnd
  0
BLOCK
  5
1A3E
330
1A32
100
AcDbEntity
  8
0
100
AcDbBlockBegin
  2
*D41
 70
     1
 10
0.0
 20
0.0
 30
0.0
  3
*D41
  1

  0
LINE
  5
2128
330
1A32
100
AcDbEntity
  8
SUNPOU
100
AcDbLine
 10
189.6920933167646
 20
149.4056732742075
 30
0.0
 11
222.104099996771
 21
149.4056732742075
 31
0.0
  0
LINE
  5
2129
330
1A32
100
AcDbEntity
  8
SUNPOU
100
AcDbLine
 10
189.6920933167646
 20
135.4056732742076
 30
0.0
 11
222.104099996771
 21
135.4056732742076
 31
0.0
  0
LINE
  5
212A
330
1A32
100
AcDbEntity
  8
SUNPOU
100
AcDbLine
 10
220.104099996771
 20
154.4056732742076
 30
0.0
 11
220.104099996771
 21
159.4056732742076
 31
0.0
  0
LINE
  5
212B
330
1A32
100
AcDbEntity
  8
SUNPOU
100
AcDbLine
 10
220.104099996771
 20
130.4056732742076
 30
0.0
 11
220.104099996771
 21
125.4056732742075
 31
0.0
  0
LINE
  5
212C
330
1A32
100
AcDbEntity
  8
SUNPOU
100
AcDbLine
 10
220.104099996771
 20
149.4056732742075
 30
0.0
 11
220.104099996771
 21
135.4056732742076
 31
0.0
  0
INSERT
  5
212D
330
1A32
100
AcDbEntity
  8
SUNPOU
100
AcDbBlockReference
  2
_OPEN30
 10
220.104099996771
 20
149.4056732742075
 30
0.0
 41
5.0
 42
5.0
 43
5.0
 50
270.0
  0
INSERT
  5
212E
330
1A32
100
AcDbEntity
  8
SUNPOU
100
AcDbBlockReference
  2
_OPEN30
 10
220.104099996771
 20
135.4056732742076
 30
0.0
 41
5.0
 42
5.0
 43
5.0
 50
90.0
  0
MTEXT
  5
212F
330
1A32
100
AcDbEntity
  8
SUNPOU
 62
     6
100
AcDbMText
 10
215.604099996771
 20
142.4056732742076
 30
0.0
 40
5.0
 41
0.0
 71
     5
 72
     1
  1
\A1;14
  7
SUNPOU
 11
0.0000000000000001
 21
1.0
 31
0.0
1001
ACAD
1000
MTEXTBEGIN
1070
    73
1070
     1
1070
    44
1040
1.0
1070
    74
1070
     0
1000
MTEXTEND
1000
MTEXTBEGIN
1070
    73
1070
     1
1070
    44
1040
1.0
1070
    74
1070
     0
1000
MTEXTEND
  0
POINT
  5
2130
330
1A32
100
AcDbEntity
  8
DEFPOINTS
 62
     0
100
AcDbPoint
 10
186.6920933167646
 20
149.4056732742075
 30
0.0
  0
POINT
  5
2131
330
1A32
100
AcDbEntity
  8
DEFPOINTS
 62
     0
100
AcDbPoint
 10
186.6920933167646
 20
135.4056732742076
 30
0.0
  0
POINT
  5
2132
330
1A32
100
AcDbEntity
  8
DEFPOINTS
 62
     0
100
AcDbPoint
 10
220.104099996771
 20
135.4056732742076
 30
0.0
  0
ENDBLK
  5
1A3F
330
1A32
100
AcDbEntity
  8
0
100
AcDbBlockEnd
  0
BLOCK
  5
2185
330
217B
100
AcDbEntity
  8
0
100
AcDbBlockBegin
  2
*D42
 70
     1
 10
0.0
 20
0.0
 30
0.0
  3
*D42
  1

  0
LINE
  5
219A
330
217B
100
AcDbEntity
  8
SUNPOU
100
AcDbLine
 10
204.3198119934956
 20
322.8517236774476
 30
0.0
 11
204.3198119934956
 21
321.8517236774477
 31
0.0
  0
LINE
  5
219B
330
217B
100
AcDbEntity
  8
SUNPOU
100
AcDbLine
 10
238.3198119934955
 20
322.8517236774476
 30
0.0
 11
238.3198119934955
 21
321.8517236774477
 31
0.0
  0
LINE
  5
219C
330
217B
100
AcDbEntity
  8
SUNPOU
100
AcDbLine
 10
209.3198119934954
 20
319.8517236774477
 30
0.0
 11
233.3198119934956
 21
319.8517236774477
 31
0.0
  0
INSERT
  5
219D
330
217B
100
AcDbEntity
  8
SUNPOU
100
AcDbBlockReference
  2
_OPEN30
 10
204.3198119934956
 20
319.8517236774477
 30
0.0
 41
5.0
 42
5.0
 43
5.0
 50
180.0
  0
INSERT
  5
219E
330
217B
100
AcDbEntity
  8
SUNPOU
100
AcDbBlockReference
  2
_OPEN30
 10
238.3198119934955
 20
319.8517236774477
 30
0.0
 41
5.0
 42
5.0
 43
5.0
  0
MTEXT
  5
219F
330
217B
100
AcDbEntity
  8
SUNPOU
 62
     6
100
AcDbMText
 10
221.3198119934954
 20
324.3517236774477
 30
0.0
 40
5.0
 41
0.0
 71
     5
 72
     1
  1
\A1;φ34
  7
SUNPOU
1001
ACAD
1000
MTEXTBEGIN
1070
    73
1070
     1
1070
    44
1040
1.0
1070
    74
1070
     0
1000
MTEXTEND
1000
MTEXTBEGIN
1070
    73
1070
     1
1070
    44
1040
1.0
1070
    74
1070
     0
1000
MTEXTEND
  0
POINT
  5
21A0
330
217B
100
AcDbEntity
  8
DEFPOINTS
 62
     0
100
AcDbPoint
 10
204.3198119934956
 20
319.8517236774477
 30
0.0
  0
POINT
  5
21A1
330
217B
100
AcDbEntity
  8
DEFPOINTS
 62
     0
100
AcDbPoint
 10
238.3198119934955
 20
319.8517236774477
 30
0.0
  0
POINT
  5
21A2
330
217B
100
AcDbEntity
  8
DEFPOINTS
 62
     0
100
AcDbPoint
 10
238.3198119934955
 20
319.8517236774477
 30
0.0
  0
ENDBLK
  5
2186
330
217B
100
AcDbEntity
  8
0
100
AcDbBlockEnd
  0
BLOCK
  5
2345
330
2336
100
AcDbEntity
  8
0
100
AcDbBlockBegin
  2
*X43
 70
     1
 10
0.0
 20
0.0
 30
0.0
  3
*X43
  1

  0
LINE
  5
2337
330
2336
100
AcDbEntity
  8
0
  6
CONTINUOUS
 62
     0
100
AcDbLine
 10
236.4681041638047
 20
343.5650177274477
 30
0.0
 11
238.0681041638046
 21
345.1650177274476
 31
0.0
  0
LINE
  5
2338
330
2336
100
AcDbEntity
  8
0
  6
CONTINUOUS
 62
     0
100
AcDbLine
 10
233.8164537343551
 20
343.5650177274477
 30
0.0
 11
235.4164537343551
 21
345.1650177274476
 31
0.0
  0
LINE
  5
2339
330
2336
100
AcDbEntity
  8
0
  6
CONTINUOUS
 62
     0
100
AcDbLine
 10
231.1648033049056
 20
343.5650177274477
 30
0.0
 11
232.7648033049055
 21
345.1650177274476
 31
0.0
  0
LINE
  5
233A
330
2336
100
AcDbEntity
  8
0
  6
CONTINUOUS
 62
     0
100
AcDbLine
 10
228.5131528754559
 20
343.5650177274477
 30
0.0
 11
230.113152875456
 21
345.1650177274476
 31
0.0
  0
LINE
  5
233B
330
2336
100
AcDbEntity
  8
0
  6
CONTINUOUS
 62
     0
100
AcDbLine
 10
225.8615024460064
 20
343.5650177274477
 30
0.0
 11
227.4615024460064
 21
345.1650177274476
 31
0.0
  0
LINE
  5
233C
330
2336
100
AcDbEntity
  8
0
  6
CONTINUOUS
 62
     0
100
AcDbLine
 10
223.2098520165568
 20
343.5650177274477
 30
0.0
 11
224.8098520165569
 21
345.1650177274476
 31
0.0
  0
LINE
  5
233D
330
2336
100
AcDbEntity
  8
0
  6
CONTINUOUS
 62
     0
100
AcDbLine
 10
221.3198119934954
 20
344.3266281338357
 30
0.0
 11
222.1582015871073
 21
345.1650177274476
 31
0.0
  0
LINE
  5
233E
330
2336
100
AcDbEntity
  8
0
  6
CONTINUOUS
 62
     0
100
AcDbLine
 10
220.5582015871073
 20
343.5650177274476
 30
0.0
 11
221.3198119934954
 21
344.3266281338357
 31
0.0
  0
LINE
  5
233F
330
2336
100
AcDbEntity
  8
0
  6
CONTINUOUS
 62
     0
100
AcDbLine
 10
217.9065511576578
 20
343.5650177274476
 30
0.0
 11
219.5065511576578
 21
345.1650177274476
 31
0.0
  0
LINE
  5
2340
330
2336
100
AcDbEntity
  8
0
  6
CONTINUOUS
 62
     0
100
AcDbLine
 10
215.2549007282082
 20
343.5650177274476
 30
0.0
 11
216.8549007282082
 21
345.1650177274476
 31
0.0
  0
LINE
  5
2341
330
2336
100
AcDbEntity
  8
0
  6
CONTINUOUS
 62
     0
100
AcDbLine
 10
212.6032502987587
 20
343.5650177274476
 30
0.0
 11
214.2032502987587
 21
345.1650177274476
 31
0.0
  0
LINE
  5
2342
330
2336
100
AcDbEntity
  8
0
  6
CONTINUOUS
 62
     0
100
AcDbLine
 10
209.9515998693092
 20
343.5650177274476
 30
0.0
 11
211.5515998693092
 21
345.1650177274476
 31
0.0
  0
LINE
  5
2343
330
2336
100
AcDbEntity
  8
0
  6
CONTINUOUS
 62
     0
100
AcDbLine
 10
207.2999494398596
 20
343.5650177274476
 30
0.0
 11
208.8999494398596
 21
345.1650177274476
 31
0.0
  0
LINE
  5
2344
330
2336
100
AcDbEntity
  8
0
  6
CONTINUOUS
 62
     0
100
AcDbLine
 10
204.6482990104101
 20
343.5650177274476
 30
0.0
 11
206.24829901041
 21
345.1650177274476
 31
0.0
  0
ENDBLK
  5
2346
330
2336
100
AcDbEntity
  8
0
100
AcDbBlockEnd
  0
ENDSEC
  0
SECTION
  2
ENTITIES
  0
ARC
  5
1B4
330
A
100
AcDbEntity
  8
03
100
AcDbCircle
 10
316.7198119934955
 20
317.7650177274476
 30
0.0
 40
1.6
100
AcDbArc
 50
270.0
 51
0.0
  0
ARC
  5
1B5
330
A
100
AcDbEntity
  8
03
100
AcDbCircle
 10
316.7198119934955
 20
339.5650177274477
 30
0.0
 40
1.6
100
AcDbArc
 50
0.0
 51
90.0
  0
ARC
  5
1B6
330
A
100
AcDbEntity
  8
03
100
AcDbCircle
 10
316.7198119934955
 20
344.7650177274476
 30
0.0
 40
1.6
100
AcDbArc
 50
270.0
 51
0.0
  0
ARC
  5
1B7
330
A
100
AcDbEntity
  8
03
100
AcDbCircle
 10
316.7198119934955
 20
537.5650177274476
 30
0.0
 40
1.6
100
AcDbArc
 50
0.0
 51
90.0
  0
ARC
  5
1B8
330
A
100
AcDbEntity
  8
03
100
AcDbCircle
 10
316.7198119934955
 20
542.7650177274476
 30
0.0
 40
1.6
100
AcDbArc
 50
270.0
 51
0.0
  0
ARC
  5
1B9
330
A
100
AcDbEntity
  8
03
100
AcDbCircle
 10
316.7198119934955
 20
564.5650177274476
 30
0.0
 40
1.6
100
AcDbArc
 50
0.0
 51
90.0
  0
ARC
  5
1BA
330
A
100
AcDbEntity
  8
03
100
AcDbCircle
 10
125.9198119934956
 20
564.5650177274476
 30
0.0
 40
1.6
100
AcDbArc
 50
90.0
 51
180.0
  0
ARC
  5
1BB
330
A
100
AcDbEntity
  8
03
100
AcDbCircle
 10
125.9198119934956
 20
317.7650177274476
 30
0.0
 40
1.6
100
AcDbArc
 50
180.0
 51
270.0
  0
ARC
  5
1BC
330
A
100
AcDbEntity
  8
03
100
AcDbCircle
 10
202.2198119934954
 20
317.7650177274476
 30
0.0
 40
1.6
100
AcDbArc
 50
270.0
 51
0.0
  0
ARC
  5
1BD
330
A
100
AcDbEntity
  8
03
100
AcDbCircle
 10
240.4198119934955
 20
317.7650177274476
 30
0.0
 40
1.6
100
AcDbArc
 50
180.0
 51
270.0
  0
ARC
  5
1BE
330
A
100
AcDbEntity
  8
03
100
AcDbCircle
 10
238.8198119934954
 20
343.5650177274477
 30
0.0
 40
1.6
100
AcDbArc
 50
0.0
 51
90.0
  0
ARC
  5
1BF
330
A
100
AcDbEntity
  8
03
100
AcDbCircle
 10
203.8198119934956
 20
343.5650177274477
 30
0.0
 40
1.6
100
AcDbArc
 50
90.0
 51
180.0
  0
ARC
  5
1C0
330
A
100
AcDbEntity
  8
03
100
AcDbCircle
 10
310.3198119934956
 20
341.1650177274477
 30
0.0
 40
1.6
100
AcDbArc
 50
180.0
 51
270.0
  0
ARC
  5
1C1
330
A
100
AcDbEntity
  8
03
100
AcDbCircle
 10
310.3198119934956
 20
541.1650177274476
 30
0.0
 40
1.6
100
AcDbArc
 50
90.0
 51
180.0
  0
ARC
  5
1C2
330
A
100
AcDbEntity
  8
02
100
AcDbCircle
 10
306.7198119934955
 20
354.7650177274476
 30
0.0
 40
3.0
100
AcDbArc
 50
90.0
 51
180.0
  0
ARC
  5
1C3
330
A
100
AcDbEntity
  8
02
100
AcDbCircle
 10
271.7198119934955
 20
319.7650177274476
 30
0.0
 40
3.0
100
AcDbArc
 50
90.0
 51
180.0
  0
ARC
  5
1C4
330
A
100
AcDbEntity
  8
02
100
AcDbCircle
 10
299.2198119934954
 20
327.2650177274476
 30
0.0
 40
4.5
100
AcDbArc
 50
270.0
 51
0.0
  0
ARC
  5
1C5
330
A
100
AcDbEntity
  8
02
100
AcDbCircle
 10
299.2198119934954
 20
555.0650177274476
 30
0.0
 40
4.5
100
AcDbArc
 50
0.0
 51
90.0
  0
ARC
  5
1C6
330
A
100
AcDbEntity
  8
02
100
AcDbCircle
 10
135.4198119934955
 20
555.0650177274476
 30
0.0
 40
4.5
100
AcDbArc
 50
90.0
 51
180.0
  0
ARC
  5
1C7
330
A
100
AcDbEntity
  8
02
100
AcDbCircle
 10
135.4198119934955
 20
327.2650177274476
 30
0.0
 40
4.5
100
AcDbArc
 50
180.0
 51
270.0
  0
ARC
  5
1C8
330
A
100
AcDbEntity
  8
02
100
AcDbCircle
 10
306.7198119934955
 20
527.5650177274476
 30
0.0
 40
3.0
100
AcDbArc
 50
180.0
 51
270.0
  0
ARC
  5
1C9
330
A
100
AcDbEntity
  8
02
100
AcDbCircle
 10
273.7198119934955
 20
562.5650177274476
 30
0.0
 40
3.0
100
AcDbArc
 50
180.0
 51
270.0
  0
ARC
  5
1CA
330
A
100
AcDbEntity
  8
02
100
AcDbCircle
 10
164.9198119934955
 20
562.5650177274476
 30
0.0
 40
3.0
100
AcDbArc
 50
270.0
 51
0.0
  0
ARC
  5
1CB
330
A
100
AcDbEntity
  8
02
100
AcDbCircle
 10
127.9198119934956
 20
527.5650177274476
 30
0.0
 40
3.0
100
AcDbArc
 50
270.0
 51
0.0
  0
ARC
  5
1CC
330
A
100
AcDbEntity
  8
02
100
AcDbCircle
 10
127.9198119934956
 20
354.7650177274476
 30
0.0
 40
3.0
100
AcDbArc
 50
0.0
 51
90.0
  0
ARC
  5
1CD
330
A
100
AcDbEntity
  8
02
100
AcDbCircle
 10
162.9198119934955
 20
319.7650177274476
 30
0.0
 40
3.0
100
AcDbArc
 50
0.0
 51
90.0
  0
ARC
  5
1D2
330
A
100
AcDbEntity
  8
03
100
AcDbCircle
 10
199.0198119934954
 20
341.9650177274476
 30
0.0
 40
3.2
100
AcDbArc
 50
0.0
 51
90.0
  0
ARC
  5
1D3
330
A
100
AcDbEntity
  8
03
100
AcDbCircle
 10
243.6198119934954
 20
341.9650177274476
 30
0.0
 40
3.2
100
AcDbArc
 50
90.0
 51
180.0
  0
ARC
  5
1DF
330
A
100
AcDbEntity
  8
03
100
AcDbCircle
 10
205.2198119934955
 20
298.1650177274477
 30
0.0
 40
2.299999999999998
100
AcDbArc
 50
180.0
 51
270.0
  0
ARC
  5
1E0
330
A
100
AcDbEntity
  8
03
100
AcDbCircle
 10
205.2198119934955
 20
293.5650177274477
 30
0.0
 40
2.299999999999998
100
AcDbArc
 50
90.0
 51
180.0
  0
ARC
  5
1E1
330
A
100
AcDbEntity
  8
03
100
AcDbCircle
 10
237.4198119934954
 20
293.5650177274477
 30
0.0
 40
2.299999999999998
100
AcDbArc
 50
0.0
 51
90.0
  0
ARC
  5
1E2
330
A
100
AcDbEntity
  8
03
100
AcDbCircle
 10
237.4198119934954
 20
298.1650177274477
 30
0.0
 40
2.299999999999998
100
AcDbArc
 50
270.0
 51
0.0
  0
ARC
  5
294
330
A
100
AcDbEntity
  8
04
100
AcDbCircle
 10
186.6920933167646
 20
84.41793188411734
 30
0.0
 40
12.5
100
AcDbArc
 50
228.46304097
 51
251.53695903
  0
ARC
  5
295
330
A
100
AcDbEntity
  8
04
100
AcDbCircle
 10
186.6920933167646
 20
84.41793188411734
 30
0.0
 40
10.5
100
AcDbArc
 50
193.7741469999999
 51
226.2258529999999
  0
ARC
  5
299
330
A
100
AcDbEntity
  8
04
100
AcDbCircle
 10
186.6920933167646
 20
84.41793188411734
 30
0.0
 40
12.5
100
AcDbArc
 50
168.46304097
 51
191.5369590299999
  0
ARC
  5
29A
330
A
100
AcDbEntity
  8
04
100
AcDbCircle
 10
186.6920933167646
 20
84.41793188411734
 30
0.0
 40
12.5
100
AcDbArc
 50
288.46304097
 51
311.5369590299998
  0
ARC
  5
29B
330
A
100
AcDbEntity
  8
04
100
AcDbCircle
 10
186.6920933167646
 20
84.41793188411734
 30
0.0
 40
10.5
100
AcDbArc
 50
253.774147
 51
286.2258529999998
  0
ARC
  5
29E
330
A
100
AcDbEntity
  8
04
100
AcDbCircle
 10
186.6920933167646
 20
84.41793188411734
 30
0.0
 40
12.5
100
AcDbArc
 50
348.46304097
 51
11.53695903
  0
ARC
  5
29F
330
A
100
AcDbEntity
  8
04
100
AcDbCircle
 10
186.6920933167646
 20
84.41793188411734
 30
0.0
 40
10.5
100
AcDbArc
 50
313.774147
 51
346.2258529999998
  0
ARC
  5
2A2
330
A
100
AcDbEntity
  8
04
100
AcDbCircle
 10
186.6920933167646
 20
84.41793188411734
 30
0.0
 40
12.5
100
AcDbArc
 50
48.46304097
 51
71.53695903
  0
ARC
  5
2A3
330
A
100
AcDbEntity
  8
04
100
AcDbCircle
 10
186.6920933167646
 20
84.41793188411734
 30
0.0
 40
10.5
100
AcDbArc
 50
13.774147
 51
46.22585299999999
  0
ARC
  5
2A6
330
A
100
AcDbEntity
  8
04
100
AcDbCircle
 10
186.6920933167646
 20
84.41793188411734
 30
0.0
 40
12.5
100
AcDbArc
 50
108.4630409699999
 51
131.53695903
  0
ARC
  5
2A7
330
A
100
AcDbEntity
  8
04
100
AcDbCircle
 10
186.6920933167646
 20
84.41793188411734
 30
0.0
 40
10.5
100
AcDbArc
 50
73.774147
 51
106.225853
  0
ARC
  5
2AD
330
A
100
AcDbEntity
  8
04
100
AcDbCircle
 10
186.6920933167646
 20
84.41793188411734
 30
0.0
 40
10.5
100
AcDbArc
 50
133.774147
 51
166.225853
  0
ARC
  5
2B0
330
A
100
AcDbEntity
  8
04
100
AcDbCircle
 10
186.6920933167646
 20
84.41793188411734
 30
0.0
 40
12.5
100
AcDbArc
 50
108.4630409699999
 51
131.53695903
  0
CIRCLE
  5
2B1
330
A
100
AcDbEntity
  8
04
100
AcDbCircle
 10
141.6920933167646
 20
84.41793188411734
 30
0.0
 40
3.0
  0
CIRCLE
  5
2B2
330
A
100
AcDbEntity
  8
04
100
AcDbCircle
 10
141.6920933167646
 20
84.41793188411734
 30
0.0
 40
6.0
  0
CIRCLE
  5
2B3
330
A
100
AcDbEntity
  8
04
100
AcDbCircle
 10
231.6920933167646
 20
84.41793188411734
 30
0.0
 40
3.0
  0
CIRCLE
  5
2B4
330
A
100
AcDbEntity
  8
04
100
AcDbCircle
 10
231.6920933167646
 20
84.41793188411734
 30
0.0
 40
6.0
  0
CIRCLE
  5
2B5
330
A
100
AcDbEntity
  8
04
100
AcDbCircle
 10
276.6920933167646
 20
84.41793188411734
 30
0.0
 40
3.0
  0
CIRCLE
  5
2B6
330
A
100
AcDbEntity
  8
04
100
AcDbCircle
 10
276.6920933167646
 20
84.41793188411734
 30
0.0
 40
6.0
  0
CIRCLE
  5
2B7
330
A
100
AcDbEntity
  8
04
100
AcDbCircle
 10
321.6920933167646
 20
84.41793188411734
 30
0.0
 40
3.0
  0
CIRCLE
  5
2B8
330
A
100
AcDbEntity
  8
04
100
AcDbCircle
 10
321.6920933167646
 20
84.41793188411734
 30
0.0
 40
6.0
  0
ARC
  5
2D1
330
A
100
AcDbEntity
  8
03
100
AcDbCircle
 10
205.2198119934955
 20
246.0216547874476
 30
0.0
 40
2.299999999999998
100
AcDbArc
 50
90.0
 51
180.0
  0
ARC
  5
2D2
330
A
100
AcDbEntity
  8
03
100
AcDbCircle
 10
205.2198119934955
 20
250.6216547874477
 30
0.0
 40
2.299999999999998
100
AcDbArc
 50
180.0
 51
270.0
  0
ARC
  5
2D3
330
A
100
AcDbEntity
  8
03
100
AcDbCircle
 10
237.4198119934954
 20
250.6216547874477
 30
0.0
 40
2.299999999999998
100
AcDbArc
 50
270.0
 51
0.0
  0
ARC
  5
2D4
330
A
100
AcDbEntity
  8
03
100
AcDbCircle
 10
237.4198119934954
 20
246.0216547874476
 30
0.0
 40
2.299999999999998
100
AcDbArc
 50
0.0
 51
90.0
  0
ARC
  5
2E7
330
A
100
AcDbEntity
  8
04
100
AcDbCircle
 10
217.0131876634953
 20
332.5330028774473
 30
0.0
 40
2.367985149999733
100
AcDbArc
 50
232.4439335600001
 51
270.0000000000041
  0
ARC
  5
2F1
330
A
100
AcDbEntity
  8
06
100
AcDbCircle
 10
176.3198119934956
 20
361.1650177274476
 30
0.0
 40
2.0
100
AcDbArc
 50
90.0
 51
180.0
  0
ARC
  5
2F4
330
A
100
AcDbEntity
  8
06
100
AcDbCircle
 10
266.3198119934956
 20
361.1650177274476
 30
0.0
 40
2.0
100
AcDbArc
 50
0.0
 51
90.0
  0
ARC
  5
2F9
330
A
100
AcDbEntity
  8
06
100
AcDbCircle
 10
294.3198119934954
 20
363.1650177274476
 30
0.0
 40
2.0
100
AcDbArc
 50
0.0
 51
90.0
  0
ARC
  5
2FA
330
A
100
AcDbEntity
  8
06
100
AcDbCircle
 10
148.3198119934955
 20
363.1650177274476
 30
0.0
 40
2.0
100
AcDbArc
 50
90.0
 51
180.0
  0
ARC
  5
2FB
330
A
100
AcDbEntity
  8
06
100
AcDbCircle
 10
284.3198119934955
 20
367.1650177274476
 30
0.0
 40
2.0
100
AcDbArc
 50
180.0
 51
206.74368395
  0
ARC
  5
2FC
330
A
100
AcDbEntity
  8
06
100
AcDbCircle
 10
158.3198119934955
 20
367.1650177274476
 30
0.0
 40
2.0
100
AcDbArc
 50
333.25631605
 51
0.0
  0
ARC
  5
304
330
A
100
AcDbEntity
  8
06
100
AcDbCircle
 10
148.3198119934955
 20
358.1650177274476
 30
0.0
 40
2.0
100
AcDbArc
 50
180.0
 51
210.0
  0
ARC
  5
305
330
A
100
AcDbEntity
  8
06
100
AcDbCircle
 10
172.3198119934956
 20
358.1650177274476
 30
0.0
 40
2.0
100
AcDbArc
 50
330.0000001
 51
0.0
  0
ARC
  5
306
330
A
100
AcDbEntity
  8
06
100
AcDbCircle
 10
270.3198119934956
 20
358.1650177274476
 30
0.0
 40
2.0
100
AcDbArc
 50
180.0
 51
210.0
  0
ARC
  5
307
330
A
100
AcDbEntity
  8
06
100
AcDbCircle
 10
294.3198119934954
 20
358.1650177274476
 30
0.0
 40
2.0
100
AcDbArc
 50
330.0
 51
0.0
  0
ARC
  5
84B
330
A
100
AcDbEntity
  8
06
100
AcDbCircle
 10
226.9434236134955
 20
492.2776649774474
 30
0.0
 40
2.887352750000079
100
AcDbArc
 50
49.46860506000096
 51
89.99999999999944
  0
ARC
  5
9C0
330
A
100
AcDbEntity
  8
06
100
AcDbCircle
 10
166.9434236134958
 20
363.3776649774483
 30
0.0
 40
2.887352749999266
100
AcDbArc
 50
49.46860505999383
 51
90.00000000000447
  0
LINE
  5
9D8
330
A
100
AcDbEntity
  8
SOUZOU
100
AcDbLine
 10
303.7198119934955
 20
544.5650177274476
 30
0.0
 11
303.7198119934955
 21
337.7650177274476
 31
0.0
  0
LINE
  5
9D9
330
A
100
AcDbEntity
  8
SOUZOU
100
AcDbLine
 10
298.7198119934955
 20
544.5650177274476
 30
0.0
 11
298.7198119934955
 21
337.7650177274476
 31
0.0
  0
LINE
  5
9DA
330
A
100
AcDbEntity
  8
SOUZOU
100
AcDbLine
 10
298.7198119934955
 20
337.7650177274476
 30
0.0
 11
303.7198119934955
 21
337.7650177274476
 31
0.0
  0
LINE
  5
9DB
330
A
100
AcDbEntity
  8
SOUZOU
100
AcDbLine
 10
298.7198119934955
 20
544.5650177274476
 30
0.0
 11
303.7198119934955
 21
544.5650177274476
 31
0.0
  0
LINE
  5
9E6
330
A
100
AcDbEntity
  8
03
100
AcDbLine
 10
212.3198119934956
 20
214.0216547874477
 30
0.0
 11
208.8198119934954
 21
214.0216547874477
 31
0.0
  0
LINE
  5
9E7
330
A
100
AcDbEntity
  8
03
100
AcDbLine
 10
233.8198119934954
 20
214.0216547874477
 30
0.0
 11
230.3198119934954
 21
214.0216547874477
 31
0.0
  0
LINE
  5
9E8
330
A
100
AcDbEntity
  8
03
100
AcDbLine
 10
216.8198119934956
 20
239.0216547874477
 30
0.0
 11
212.3198119934956
 21
214.0216547874477
 31
0.0
  0
LINE
  5
9E9
330
A
100
AcDbEntity
  8
03
100
AcDbLine
 10
225.8198119934955
 20
239.0216547874477
 30
0.0
 11
230.3198119934954
 21
214.0216547874477
 31
0.0
  0
LINE
  5
9EB
330
A
100
AcDbEntity
  8
03
100
AcDbLine
 10
233.8198119934954
 20
211.0216547874476
 30
0.0
 11
233.8198119934954
 21
214.0216547874477
 31
0.0
  0
LINE
  5
9EC
330
A
100
AcDbEntity
  8
03
100
AcDbLine
 10
208.8198119934954
 20
211.0216547874476
 30
0.0
 11
208.8198119934954
 21
214.0216547874477
 31
0.0
  0
LINE
  5
9ED
330
A
100
AcDbEntity
  8
03
100
AcDbLine
 10
196.3198119934956
 20
185.5216547874476
 30
0.0
 11
196.3198119934956
 21
189.5216547874476
 31
0.0
  0
LINE
  5
9EE
330
A
100
AcDbEntity
  8
03
100
AcDbLine
 10
246.3198119934954
 20
185.5216547874476
 30
0.0
 11
246.3198119934954
 21
189.5216547874476
 31
0.0
  0
LINE
  5
9EF
330
A
100
AcDbEntity
  8
03
100
AcDbLine
 10
196.3198119934956
 20
185.5216547874476
 30
0.0
 11
246.3198119934954
 21
185.5216547874476
 31
0.0
  0
LINE
  5
9F1
330
A
100
AcDbEntity
  8
03
100
AcDbLine
 10
237.3198119934956
 20
189.5216547874476
 30
0.0
 11
237.3198119934956
 21
209.5216547874477
 31
0.0
  0
LINE
  5
9F2
330
A
100
AcDbEntity
  8
03
100
AcDbLine
 10
205.3198119934954
 20
209.5216547874477
 30
0.0
 11
205.3198119934954
 21
189.5216547874476
 31
0.0
  0
LINE
  5
9F3
330
A
100
AcDbEntity
  8
03
100
AcDbLine
 10
203.3198119934954
 20
209.5216547874477
 30
0.0
 11
203.3198119934954
 21
211.0216547874476
 31
0.0
  0
LINE
  5
9F5
330
A
100
AcDbEntity
  8
03
100
AcDbLine
 10
239.3198119934956
 20
211.0216547874476
 30
0.0
 11
239.3198119934956
 21
209.5216547874477
 31
0.0
  0
LINE
  5
9F6
330
A
100
AcDbEntity
  8
03
100
AcDbLine
 10
203.3198119334954
 20
211.0216547874476
 30
0.0
 11
239.3198119934956
 21
211.0216547874476
 31
0.0
  0
LINE
  5
9F7
330
A
100
AcDbEntity
  8
06
100
AcDbLine
 10
215.0691687934954
 20
357.1650177274476
 30
0.0
 11
146.3198119934955
 21
357.1650177274476
 31
0.0
  0
LINE
  5
9F8
330
A
100
AcDbEntity
  8
06
100
AcDbLine
 10
296.3198119934956
 20
357.1650177274476
 30
0.0
 11
227.0231571634956
 21
357.1650177274476
 31
0.0
  0
LINE
  5
9FC
330
A
100
AcDbEntity
  8
06
100
AcDbLine
 10
229.0198119934955
 20
487.6650177274476
 30
0.0
 11
229.0198119934955
 21
489.6650177274477
 31
0.0
  0
LINE
  5
9FD
330
A
100
AcDbEntity
  8
06
100
AcDbLine
 10
229.0198119934955
 20
487.6650177274476
 30
0.0
 11
213.6198119934955
 21
487.6650177274476
 31
0.0
  0
LINE
  5
9FE
330
A
100
AcDbEntity
  8
06
100
AcDbLine
 10
213.6198119934955
 20
487.6650177274476
 30
0.0
 11
213.6198119934955
 21
489.6650177274477
 31
0.0
  0
LINE
  5
A00
330
A
100
AcDbEntity
  8
06
100
AcDbLine
 10
213.8198119934954
 20
489.6650177274477
 30
0.0
 11
213.8198119934954
 21
494.4721974074476
 31
0.0
  0
LINE
  5
A01
330
A
100
AcDbEntity
  8
06
100
AcDbLine
 10
226.9434236134955
 20
495.1650177274476
 30
0.0
 11
215.6962003634955
 21
495.1650177274476
 31
0.0
  0
LINE
  5
A03
330
A
100
AcDbEntity
  8
06
100
AcDbLine
 10
228.8198119934956
 20
489.6650177274477
 30
0.0
 11
228.8198119934956
 21
494.4721974074476
 31
0.0
  0
LINE
  5
A05
330
A
100
AcDbEntity
  8
06
100
AcDbLine
 10
236.3198119934954
 20
487.6650177274476
 30
0.0
 11
236.3198119934954
 21
484.6650177274476
 31
0.0
  0
LINE
  5
A06
330
A
100
AcDbEntity
  8
06
100
AcDbLine
 10
206.3198119934956
 20
487.6650177274476
 30
0.0
 11
206.3198119934956
 21
484.6650177274476
 31
0.0
  0
LINE
  5
A08
330
A
100
AcDbEntity
  8
06
100
AcDbLine
 10
246.3198119934954
 20
464.6650177274477
 30
0.0
 11
246.3198119934954
 21
480.4650177274476
 31
0.0
  0
LINE
  5
A09
330
A
100
AcDbEntity
  8
06
100
AcDbLine
 10
196.3198119934956
 20
480.4650177274476
 30
0.0
 11
196.3198119934956
 21
464.6650177274477
 31
0.0
  0
LINE
  5
A0A
330
A
100
AcDbEntity
  8
06
100
AcDbLine
 10
184.4098119934955
 20
480.4650177274476
 30
0.0
 11
179.3198119934956
 21
480.9024610474477
 31
0.0
  0
LINE
  5
A0B
330
A
100
AcDbEntity
  8
06
100
AcDbLine
 10
179.3198119934956
 20
484.2275744074476
 30
0.0
 11
179.3198119934956
 21
480.9024610474477
 31
0.0
  0
LINE
  5
A0C
330
A
100
AcDbEntity
  8
06
100
AcDbLine
 10
184.4098119934955
 20
484.6650177274476
 30
0.0
 11
179.3198119934956
 21
484.2275744074476
 31
0.0
  0
LINE
  5
A0D
330
A
100
AcDbEntity
  8
06
100
AcDbLine
 10
258.2298119934955
 20
480.4650177274476
 30
0.0
 11
263.3198119934955
 21
480.9024610474477
 31
0.0
  0
LINE
  5
A0E
330
A
100
AcDbEntity
  8
06
100
AcDbLine
 10
263.3198119934955
 20
484.2275744074476
 30
0.0
 11
263.3198119934955
 21
480.9024610474477
 31
0.0
  0
LINE
  5
A0F
330
A
100
AcDbEntity
  8
06
100
AcDbLine
 10
258.2298119934955
 20
484.6650177274476
 30
0.0
 11
263.3198119934955
 21
484.2275744074476
 31
0.0
  0
LINE
  5
A3F
330
A
100
AcDbEntity
  8
06
100
AcDbLine
 10
280.3198119934954
 20
441.1650177274476
 30
0.0
 11
280.3198119934954
 21
431.1650177274477
 31
0.0
  0
LINE
  5
A40
330
A
100
AcDbEntity
  8
06
100
AcDbLine
 10
162.3198119934954
 20
441.1650177274476
 30
0.0
 11
162.3198119934954
 21
431.1650177274477
 31
0.0
  0
LINE
  5
A42
330
A
100
AcDbEntity
  8
06
100
AcDbLine
 10
296.3198119934956
 20
357.1650177274476
 30
0.0
 11
296.3198119934956
 21
351.1650177274476
 31
0.0
  0
LINE
  5
A43
330
A
100
AcDbEntity
  8
06
100
AcDbLine
 10
146.3198119934955
 20
357.1650177274476
 30
0.0
 11
146.3198119934955
 21
351.1650177274476
 31
0.0
  0
LINE
  5
A46
330
A
100
AcDbEntity
  8
04
100
AcDbLine
 10
237.3198119934956
 20
330.1650177274477
 30
0.0
 11
238.3198119934955
 21
329.1650177274477
 31
0.0
  0
LINE
  5
A47
330
A
100
AcDbEntity
  8
04
100
AcDbLine
 10
237.3198119934956
 20
316.1650177274477
 30
0.0
 11
238.3198119934955
 21
317.1650177274477
 31
0.0
  0
LINE
  5
A48
330
A
100
AcDbEntity
  8
04
100
AcDbLine
 10
205.3198119934954
 20
316.1650177274477
 30
0.0
 11
204.3198119934956
 21
317.1650177274477
 31
0.0
  0
LINE
  5
A49
330
A
100
AcDbEntity
  8
04
100
AcDbLine
 10
205.3198119934954
 20
330.1650177274477
 30
0.0
 11
204.3198119934956
 21
329.1650177274477
 31
0.0
  0
LINE
  5
A4A
330
A
100
AcDbEntity
  8
04
100
AcDbLine
 10
238.3198119934955
 20
317.1650177274477
 30
0.0
 11
238.3198119934955
 21
329.1650177274477
 31
0.0
  0
LINE
  5
A4B
330
A
100
AcDbEntity
  8
04
100
AcDbLine
 10
204.3198119934956
 20
317.1650177274477
 30
0.0
 11
204.3198119934956
 21
329.1650177274477
 31
0.0
  0
LINE
  5
A4C
330
A
100
AcDbEntity
  8
04
100
AcDbLine
 10
205.3198119934954
 20
316.1650177274477
 30
0.0
 11
237.3198119934956
 21
316.1650177274477
 31
0.0
  0
LINE
  5
A4D
330
A
100
AcDbEntity
  8
04
100
AcDbLine
 10
205.3198119934954
 20
330.1650177274477
 30
0.0
 11
237.3198119934956
 21
330.1650177274477
 31
0.0
  0
LINE
  5
E39
330
A
100
AcDbEntity
  8
CHUSIN
100
AcDbLine
 10
321.6920933167646
 20
93.84446775411731
 30
0.0
 11
321.6920933167646
 21
74.71600477411732
 31
0.0
  0
LINE
  5
E3A
330
A
100
AcDbEntity
  8
CHUSIN
100
AcDbLine
 10
276.6920933167646
 20
93.84446775411731
 30
0.0
 11
276.6920933167646
 21
74.71600477411732
 31
0.0
  0
LINE
  5
E3B
330
A
100
AcDbEntity
  8
CHUSIN
100
AcDbLine
 10
231.6920933167646
 20
93.84446775411731
 30
0.0
 11
231.6920933167646
 21
74.71600477411732
 31
0.0
  0
LINE
  5
E3C
330
A
100
AcDbEntity
  8
CHUSIN
100
AcDbLine
 10
141.6920933167646
 20
93.84446775411731
 30
0.0
 11
141.6920933167646
 21
74.71600477411732
 31
0.0
  0
LINE
  5
E3D
330
A
100
AcDbEntity
  8
CHUSIN
100
AcDbLine
 10
186.6920933167646
 20
97.85621999271938
 30
0.0
 11
186.6920933167646
 21
71.98644648953337
 31
0.0
  0
LINE
  5
E3E
330
A
100
AcDbEntity
  8
CHUSIN
100
AcDbLine
 10
125.6112092467646
 20
84.41793188411734
 30
0.0
 11
339.1893975067644
 21
84.41793188411734
 31
0.0
  0
LINE
  5
E3F
330
A
100
AcDbEntity
  8
CHUSIN
100
AcDbLine
 10
221.3198119934954
 20
354.5765439474476
 30
0.0
 11
221.3198119934954
 21
328.9201721274476
 31
0.0
  0
LINE
  5
E40
330
A
100
AcDbEntity
  8
CHUSIN
100
AcDbLine
 10
221.3198119934954
 20
377.5484290674476
 30
0.0
 11
221.3198119934954
 21
361.3857778274476
 31
0.0
  0
LINE
  5
E42
330
A
100
AcDbEntity
  8
CHUSIN
100
AcDbLine
 10
267.7447972334955
 20
482.5650177274476
 30
0.0
 11
174.0470609134954
 21
482.5650177274476
 31
0.0
  0
LINE
  5
E43
330
A
100
AcDbEntity
  8
CHUSIN
100
AcDbLine
 10
181.8098119934956
 20
487.8919866074476
 30
0.0
 11
181.8098119934956
 21
476.5816474474476
 31
0.0
  0
LINE
  5
E44
330
A
100
AcDbEntity
  8
CHUSIN
100
AcDbLine
 10
260.8298119934954
 20
487.8919866074476
 30
0.0
 11
260.8298119934954
 21
476.5816474474476
 31
0.0
  0
LINE
  5
E4C
330
A
100
AcDbEntity
  8
CHUSIN
100
AcDbLine
 10
221.3198119934954
 20
278.2931792928875
 30
0.0
 11
221.3198119934954
 21
168.9806329328876
 31
0.0
  0
LINE
  5
E50
330
A
100
AcDbEntity
  8
CHUSIN
100
AcDbLine
 10
221.3198119934954
 20
505.1920258174476
 30
0.0
 11
221.3198119934954
 21
407.0805241974476
 31
0.0
  0
LINE
  5
E55
330
A
100
AcDbEntity
  8
CHUSIN
100
AcDbLine
 10
281.3198119934956
 20
368.9062557274476
 30
0.0
 11
281.3198119934956
 21
333.1802395374476
 31
0.0
  0
LINE
  5
E56
330
A
100
AcDbEntity
  8
CHUSIN
100
AcDbLine
 10
161.3198119934954
 20
368.6956317974476
 30
0.0
 11
161.3198119934954
 21
332.7537663374477
 31
0.0
  0
LINE
  5
E57
330
A
100
AcDbEntity
  8
CHUSIN
100
AcDbLine
 10
153.3198119934955
 20
379.5071168074477
 30
0.0
 11
153.3198119934955
 21
349.9652893274476
 31
0.0
  0
LINE
  5
E58
330
A
100
AcDbEntity
  8
CHUSIN
100
AcDbLine
 10
289.3198119934956
 20
377.7965432574476
 30
0.0
 11
289.3198119934956
 21
348.5691857974476
 31
0.0
  0
LINE
  5
E59
330
A
100
AcDbEntity
  8
CHUSIN
100
AcDbLine
 10
221.3198119934954
 20
319.4670545574477
 30
0.0
 11
221.3198119934954
 21
271.2929894474477
 31
0.0
  0
LINE
  5
E5A
330
A
100
AcDbEntity
  8
KAKURE
100
AcDbLine
 10
321.3198119934954
 20
181.0216547874476
 30
0.0
 11
121.3198119934955
 21
181.0216547874476
 31
0.0
  0
LINE
  5
E5B
330
A
100
AcDbEntity
  8
KAKURE
100
AcDbLine
 10
321.3198119934954
 20
211.0216547874476
 30
0.0
 11
321.3198119934954
 21
181.0216547874476
 31
0.0
  0
LINE
  5
E5C
330
A
100
AcDbEntity
  8
KAKURE
100
AcDbLine
 10
121.3198119934955
 20
211.0216547874476
 30
0.0
 11
121.3198119934955
 21
181.0216547874476
 31
0.0
  0
LINE
  5
E5D
330
A
100
AcDbEntity
  8
KAKURE
100
AcDbLine
 10
196.3198119934956
 20
211.0216547874476
 30
0.0
 11
196.3198119934956
 21
181.0216547874476
 31
0.0
  0
LINE
  5
E5E
330
A
100
AcDbEntity
  8
KAKURE
100
AcDbLine
 10
146.3198119934955
 20
211.0216547874476
 30
0.0
 11
146.3198119934955
 21
181.0216547874476
 31
0.0
  0
LINE
  5
E5F
330
A
100
AcDbEntity
  8
KAKURE
100
AcDbLine
 10
147.9198119934955
 20
267.899697016652
 30
0.0
 11
147.9198119934955
 21
211.0216547874476
 31
0.0
  0
LINE
  5
E60
330
A
100
AcDbEntity
  8
KAKURE
100
AcDbLine
 10
194.7198119934954
 20
267.899697016652
 30
0.0
 11
194.7198119934954
 21
211.0216547874476
 31
0.0
  0
LINE
  5
E61
330
A
100
AcDbEntity
  8
KAKURE
100
AcDbLine
 10
194.7198119934954
 20
316.1650177274477
 30
0.0
 11
194.7198119934954
 21
271.2929894474477
 31
0.0
  0
LINE
  5
E62
330
A
100
AcDbEntity
  8
KAKURE
100
AcDbLine
 10
147.9198119934955
 20
316.1650177274477
 30
0.0
 11
147.9198119934955
 21
271.2929894474477
 31
0.0
  0
LINE
  5
E73
330
A
100
AcDbEntity
  8
KAKURE
100
AcDbLine
 10
135.9198119934955
 20
351.1650177274476
 30
0.0
 11
135.9198119934955
 21
345.1650177274476
 31
0.0
  0
LINE
  5
E74
330
A
100
AcDbEntity
  8
03
100
AcDbLine
 10
233.8198119934954
 20
246.0216547874476
 30
0.0
 11
208.8198119934954
 21
243.0216547874477
 31
0.0
  0
LINE
  5
E75
330
A
100
AcDbEntity
  8
03
100
AcDbLine
 10
208.8198119934954
 20
246.0216547874476
 30
0.0
 11
233.8198119934954
 21
243.0216547874477
 31
0.0
  0
LINE
  5
E76
330
A
100
AcDbEntity
  8
SAISEN
100
AcDbLine
 10
115.3198119934955
 20
271.2929894474477
 30
0.0
 11
327.3198119934956
 21
271.2929894474477
 31
0.0
  0
LINE
  5
E77
330
A
100
AcDbEntity
  8
SAISEN
100
AcDbLine
 10
327.3198119934956
 20
267.899697016652
 30
0.0
 11
115.3198119934955
 21
267.899697016652
 31
0.0
  0
LINE
  5
E83
330
A
100
AcDbEntity
  8
03
100
AcDbLine
 10
239.7198119934954
 20
258.9500819174476
 30
0.0
 11
237.4198119934954
 21
261.2500819174475
 31
0.0
  0
LINE
  5
E84
330
A
100
AcDbEntity
  8
03
100
AcDbLine
 10
237.4198119934954
 20
258.4216547874477
 30
0.0
 11
239.7198119934954
 21
256.1216547874477
 31
0.0
  0
LINE
  5
E85
330
A
100
AcDbEntity
  8
03
100
AcDbLine
 10
205.2198119934955
 20
258.4500819174476
 30
0.0
 11
202.9198119934955
 21
260.7500819174477
 31
0.0
  0
LINE
  5
E86
330
A
100
AcDbEntity
  8
03
100
AcDbLine
 10
202.9198119934955
 20
257.9216547874477
 30
0.0
 11
205.2198119934955
 21
255.6216547874476
 31
0.0
  0
LINE
  5
E87
330
A
100
AcDbEntity
  8
03
100
AcDbLine
 10
205.2198119934955
 20
230.4500819174477
 30
0.0
 11
202.9198119934955
 21
232.7500819174476
 31
0.0
  0
LINE
  5
E88
330
A
100
AcDbEntity
  8
03
100
AcDbLine
 10
202.9198119934955
 20
229.9216547874476
 30
0.0
 11
205.2198119934955
 21
227.6216547874477
 31
0.0
  0
LINE
  5
E89
330
A
100
AcDbEntity
  8
03
100
AcDbLine
 10
239.7198119934954
 20
230.4500819174477
 30
0.0
 11
237.4198119934954
 21
232.7500819174476
 31
0.0
  0
LINE
  5
E8A
330
A
100
AcDbEntity
  8
03
100
AcDbLine
 10
237.4198119934954
 20
229.9216547874476
 30
0.0
 11
239.7198119934954
 21
227.6216547874477
 31
0.0
  0
LINE
  5
E8B
330
A
100
AcDbEntity
  8
03
100
AcDbLine
 10
211.0198119934954
 20
248.3216547874476
 30
0.0
 11
208.7198119934954
 21
250.6216547874477
 31
0.0
  0
LINE
  5
E8C
330
A
100
AcDbEntity
  8
03
100
AcDbLine
 10
205.8913848634954
 20
250.6216547874477
 30
0.0
 11
208.1913848634955
 21
248.3216547874476
 31
0.0
  0
LINE
  5
E8D
330
A
100
AcDbEntity
  8
03
100
AcDbLine
 10
233.0198119934955
 20
248.3216547874476
 30
0.0
 11
230.7198119934954
 21
250.6216547874477
 31
0.0
  0
LINE
  5
E8E
330
A
100
AcDbEntity
  8
03
100
AcDbLine
 10
227.8913848634954
 20
250.6216547874477
 30
0.0
 11
230.1913848634955
 21
248.3216547874476
 31
0.0
  0
LINE
  5
E8F
330
A
100
AcDbEntity
  8
03
100
AcDbLine
 10
223.3198119934954
 20
246.0216547874476
 30
0.0
 11
221.0198119934954
 21
248.3216547874476
 31
0.0
  0
LINE
  5
E90
330
A
100
AcDbEntity
  8
03
100
AcDbLine
 10
218.1913848634955
 20
248.3216547874476
 30
0.0
 11
220.4913848634955
 21
246.0216547874476
 31
0.0
  0
LINE
  5
ED6
330
A
100
AcDbEntity
  8
06
100
AcDbLine
 10
184.4098119934955
 20
480.4650177274476
 30
0.0
 11
184.4098119934955
 21
484.6650177274476
 31
0.0
  0
LINE
  5
ED7
330
A
100
AcDbEntity
  8
06
100
AcDbLine
 10
258.2298119934955
 20
484.6650177274476
 30
0.0
 11
258.2298119934955
 21
480.4650177274476
 31
0.0
  0
LINE
  5
F2F
330
A
100
AcDbEntity
  8
03
100
AcDbLine
 10
243.6198119934954
 20
329.7934448574476
 30
0.0
 11
240.4198119934955
 21
332.9934448574476
 31
0.0
  0
LINE
  5
F30
330
A
100
AcDbEntity
  8
03
100
AcDbLine
 10
240.4198119934955
 20
330.1650177274477
 30
0.0
 11
243.6198119934954
 21
326.9650177274476
 31
0.0
  0
LINE
  5
F31
330
A
100
AcDbEntity
  8
03
100
AcDbLine
 10
258.2482391134955
 20
342.1650177274477
 30
0.0
 11
255.2482391134955
 21
345.1650177274476
 31
0.0
  0
LINE
  5
F32
330
A
100
AcDbEntity
  8
03
100
AcDbLine
 10
252.4198119934955
 20
345.1650177274476
 30
0.0
 11
255.4198119934955
 21
342.1650177274477
 31
0.0
  0
LINE
  5
F33
330
A
100
AcDbEntity
  8
03
100
AcDbLine
 10
199.2198119934954
 20
330.0191540474477
 30
0.0
 11
202.2198119934954
 21
327.0191540474477
 31
0.0
  0
LINE
  5
F34
330
A
100
AcDbEntity
  8
03
100
AcDbLine
 10
202.2198119934954
 20
324.1907269174477
 30
0.0
 11
199.2198119934954
 21
327.1907269174477
 31
0.0
  0
LINE
  5
F35
330
A
100
AcDbEntity
  8
03
100
AcDbLine
 10
187.0739483134954
 20
342.1650177274477
 30
0.0
 11
184.0739483134955
 21
345.1650177274476
 31
0.0
  0
LINE
  5
F36
330
A
100
AcDbEntity
  8
03
100
AcDbLine
 10
181.2455211834956
 20
345.1650177274476
 30
0.0
 11
184.2455211834956
 21
342.1650177274477
 31
0.0
  0
LINE
  5
F37
330
A
100
AcDbEntity
  8
03
100
AcDbLine
 10
149.5607758434954
 20
580.1650177274478
 30
0.0
 11
149.5607758434954
 21
566.1650177274477
 31
0.0
  0
LINE
  5
F45
330
A
100
AcDbEntity
  8
03
100
AcDbLine
 10
343.0788481334954
 20
580.1650177274478
 30
0.0
 11
99.56077584349557
 21
580.1650177274478
 31
0.0
  0
LINE
  5
F46
330
A
100
AcDbEntity
  8
03
100
AcDbLine
 10
293.0788481334954
 20
580.1650177274478
 30
0.0
 11
293.0788481334954
 21
566.1650177274477
 31
0.0
  0
LINE
  5
F54
330
A
100
AcDbEntity
  8
03
100
AcDbLine
 10
239.7198119934954
 20
273.2365906074476
 30
0.0
 11
237.4198119934954
 21
270.9365906074477
 31
0.0
  0
LINE
  5
F55
330
A
100
AcDbEntity
  8
03
100
AcDbLine
 10
237.4198119934954
 20
273.7650177274475
 30
0.0
 11
239.7198119934954
 21
276.0650177274476
 31
0.0
  0
LINE
  5
F56
330
A
100
AcDbEntity
  8
03
100
AcDbLine
 10
205.2198119934955
 20
273.7365906074476
 30
0.0
 11
202.9198119934955
 21
271.4365906074477
 31
0.0
  0
LINE
  5
F57
330
A
100
AcDbEntity
  8
03
100
AcDbLine
 10
202.9198119934955
 20
274.2650177274475
 30
0.0
 11
205.2198119934955
 21
276.5650177274475
 31
0.0
  0
LINE
  5
F58
330
A
100
AcDbEntity
  8
03
100
AcDbLine
 10
205.2198119934955
 20
303.7365906074477
 30
0.0
 11
202.9198119934955
 21
301.4365906074477
 31
0.0
  0
LINE
  5
F59
330
A
100
AcDbEntity
  8
03
100
AcDbLine
 10
202.9198119934955
 20
304.2650177274476
 30
0.0
 11
205.2198119934955
 21
306.5650177274477
 31
0.0
  0
LINE
  5
F5A
330
A
100
AcDbEntity
  8
03
100
AcDbLine
 10
239.7198119934954
 20
303.7365906074477
 30
0.0
 11
237.4198119934954
 21
301.4365906074477
 31
0.0
  0
LINE
  5
F5B
330
A
100
AcDbEntity
  8
03
100
AcDbLine
 10
237.4198119934954
 20
304.2650177274476
 30
0.0
 11
239.7198119934954
 21
306.5650177274477
 31
0.0
  0
LINE
  5
F5C
330
A
100
AcDbEntity
  8
03
100
AcDbLine
 10
211.0198119934954
 20
295.8650177274477
 30
0.0
 11
208.7198119934954
 21
293.5650177274477
 31
0.0
  0
LINE
  5
F5D
330
A
100
AcDbEntity
  8
03
100
AcDbLine
 10
205.8913848634954
 20
293.5650177274477
 30
0.0
 11
208.1913848634955
 21
295.8650177274477
 31
0.0
  0
LINE
  5
F5E
330
A
100
AcDbEntity
  8
03
100
AcDbLine
 10
233.0198119934955
 20
295.8650177274477
 30
0.0
 11
230.7198119934954
 21
293.5650177274477
 31
0.0
  0
LINE
  5
F5F
330
A
100
AcDbEntity
  8
03
100
AcDbLine
 10
227.8913848634954
 20
293.5650177274477
 30
0.0
 11
230.1913848634955
 21
295.8650177274477
 31
0.0
  0
LINE
  5
F60
330
A
100
AcDbEntity
  8
03
100
AcDbLine
 10
223.3198119934954
 20
298.1650177274477
 30
0.0
 11
221.0198119934954
 21
295.8650177274477
 31
0.0
  0
LINE
  5
F61
330
A
100
AcDbEntity
  8
03
100
AcDbLine
 10
218.1913848634955
 20
295.8650177274477
 30
0.0
 11
220.4913848634955
 21
298.1650177274477
 31
0.0
  0
LINE
  5
F62
330
A
100
AcDbEntity
  8
02
100
AcDbLine
 10
303.7198119934955
 20
337.7650177274476
 30
0.0
 11
308.7198119934955
 21
332.7650177274477
 31
0.0
  0
LINE
  5
F63
330
A
100
AcDbEntity
  8
02
100
AcDbLine
 10
308.7198119934955
 20
335.5934448574477
 30
0.0
 11
303.7198119934955
 21
340.5934448574477
 31
0.0
  0
LINE
  5
F64
330
A
100
AcDbEntity
  8
02
100
AcDbLine
 10
282.4698119934955
 20
322.7650177274477
 30
0.0
 11
287.4698119934955
 21
317.7650177274476
 31
0.0
  0
LINE
  5
F65
330
A
100
AcDbEntity
  8
02
100
AcDbLine
 10
290.2982391134954
 20
317.7650177274476
 30
0.0
 11
285.2982391134954
 21
322.7650177274477
 31
0.0
  0
LINE
  5
F66
330
A
100
AcDbEntity
  8
02
100
AcDbLine
 10
145.0354486934956
 20
322.7650177274477
 30
0.0
 11
150.0354486934956
 21
317.7650177274476
 31
0.0
  0
LINE
  5
F67
330
A
100
AcDbEntity
  8
02
100
AcDbLine
 10
152.8638758234955
 20
317.7650177274476
 30
0.0
 11
147.8638758234955
 21
322.7650177274477
 31
0.0
  0
LINE
  5
F68
330
A
100
AcDbEntity
  8
02
100
AcDbLine
 10
125.9198119934956
 20
341.8806544374476
 30
0.0
 11
130.9198119934955
 21
336.8806544374476
 31
0.0
  0
LINE
  5
F69
330
A
100
AcDbEntity
  8
02
100
AcDbLine
 10
130.9198119934955
 20
339.7090815574476
 30
0.0
 11
125.9198119934956
 21
344.7090815574477
 31
0.0
  0
LINE
  5
F6A
330
A
100
AcDbEntity
  8
02
100
AcDbLine
 10
303.7198119934955
 20
546.5650177274476
 30
0.0
 11
308.7198119934955
 21
541.5650177274476
 31
0.0
  0
LINE
  5
F6B
330
A
100
AcDbEntity
  8
02
100
AcDbLine
 10
285.7198119934955
 20
564.5650177274476
 30
0.0
 11
290.7198119934955
 21
559.5650177274476
 31
0.0
  0
LINE
  5
F6C
330
A
100
AcDbEntity
  8
02
100
AcDbLine
 10
293.5482391134954
 20
559.5650177274476
 30
0.0
 11
288.5482391134956
 21
564.5650177274476
 31
0.0
  0
LINE
  5
F6D
330
A
100
AcDbEntity
  8
02
100
AcDbLine
 10
308.7198119934955
 20
544.3934448574476
 30
0.0
 11
303.7198119934955
 21
549.3934448574476
 31
0.0
  0
LINE
  5
F6E
330
A
100
AcDbEntity
  8
02
100
AcDbLine
 10
130.9198119934955
 20
541.3733416174476
 30
0.0
 11
125.9198119934956
 21
546.3733416174476
 31
0.0
  0
LINE
  5
F6F
330
A
100
AcDbEntity
  8
02
100
AcDbLine
 10
125.9198119934956
 20
543.5449144974476
 30
0.0
 11
130.9198119934955
 21
538.5449144974476
 31
0.0
  0
LINE
  5
F70
330
A
100
AcDbEntity
  8
02
100
AcDbLine
 10
146.4898352234954
 20
559.5650177274476
 30
0.0
 11
141.4898352234954
 21
564.5650177274476
 31
0.0
  0
LINE
  5
F71
330
A
100
AcDbEntity
  8
02
100
AcDbLine
 10
138.6614080934955
 20
564.5650177274476
 30
0.0
 11
143.6614080934955
 21
559.5650177274476
 31
0.0
  0
LINE
  5
F74
330
A
100
AcDbEntity
  8
02
100
AcDbLine
 10
392.7048124872212
 20
211.0216547874476
 30
0.0
 11
50.72383259349556
 21
211.0216547874476
 31
0.0
  0
LINE
  5
F77
330
A
100
AcDbEntity
  8
03
100
AcDbLine
 10
225.8198119934955
 20
239.0216551274476
 30
0.0
 11
225.8198119934955
 21
243.0216547874477
 31
0.0
  0
LINE
  5
F78
330
A
100
AcDbEntity
  8
03
100
AcDbLine
 10
216.8198119934956
 20
239.0216547874477
 30
0.0
 11
216.8198119934956
 21
243.0216547874477
 31
0.0
  0
LINE
  5
F7B
330
A
100
AcDbEntity
  8
03
100
AcDbLine
 10
208.8198119934954
 20
243.0216547874477
 30
0.0
 11
233.8198119934954
 21
243.0216547874477
 31
0.0
  0
LINE
  5
F7F
330
A
100
AcDbEntity
  8
03
100
AcDbLine
 10
205.2198119934955
 20
250.6216547874477
 30
0.0
 11
205.2198119934955
 21
267.899697016652
 31
0.0
  0
LINE
  5
F80
330
A
100
AcDbEntity
  8
03
100
AcDbLine
 10
237.4198119934954
 20
250.6216547874477
 30
0.0
 11
237.4198119934954
 21
267.899697016652
 31
0.0
  0
LINE
  5
F81
330
A
100
AcDbEntity
  8
03
100
AcDbLine
 10
237.4198119934954
 20
250.6216547874477
 30
0.0
 11
205.2198119934955
 21
250.6216547874477
 31
0.0
  0
LINE
  5
F8D
330
A
100
AcDbEntity
  8
06
100
AcDbLine
 10
215.0691687934954
 20
363.1650177274476
 30
0.0
 11
176.3198119934956
 21
363.1650177274476
 31
0.0
  0
LINE
  5
F8E
330
A
100
AcDbEntity
  8
06
100
AcDbLine
 10
266.3198119934956
 20
363.1650177274476
 30
0.0
 11
227.0231571634956
 21
363.1650177274476
 31
0.0
  0
LINE
  5
F91
330
A
100
AcDbEntity
  8
06
100
AcDbLine
 10
208.3198119934956
 20
454.6650177274476
 30
0.0
 11
209.8198119934954
 21
454.6650177274476
 31
0.0
  0
LINE
  5
F92
330
A
100
AcDbEntity
  8
06
100
AcDbLine
 10
234.3198119934954
 20
454.6650177274476
 30
0.0
 11
234.3198119934954
 21
464.6650177274477
 31
0.0
  0
LINE
  5
F93
330
A
100
AcDbEntity
  8
06
100
AcDbLine
 10
208.3198119934956
 20
454.6650177274476
 30
0.0
 11
208.3198119934956
 21
464.6650177274477
 31
0.0
  0
LINE
  5
FA0
330
A
100
AcDbEntity
  8
06
100
AcDbLine
 10
246.3198119934954
 20
431.1650177274477
 30
0.0
 11
246.3198119934954
 21
363.1650177274476
 31
0.0
  0
LINE
  5
FA2
330
A
100
AcDbEntity
  8
06
100
AcDbLine
 10
266.3198119934956
 20
431.1650177274477
 30
0.0
 11
266.3198119934956
 21
363.1650177274476
 31
0.0
  0
LINE
  5
FA4
330
A
100
AcDbEntity
  8
06
100
AcDbLine
 10
196.3198119934956
 20
431.1650177274477
 30
0.0
 11
196.3198119934956
 21
363.1650177274476
 31
0.0
  0
LINE
  5
FA5
330
A
100
AcDbEntity
  8
06
100
AcDbLine
 10
176.3198119934956
 20
431.1650177274477
 30
0.0
 11
176.3198119934956
 21
363.1650177274476
 31
0.0
  0
LINE
  5
FA6
330
A
100
AcDbEntity
  8
06
100
AcDbLine
 10
160.3198119934955
 20
431.1650177274477
 30
0.0
 11
160.3198119934955
 21
367.1650177274476
 31
0.0
  0
LINE
  5
FA9
330
A
100
AcDbEntity
  8
06
100
AcDbLine
 10
282.3198119934954
 20
431.1650177274477
 30
0.0
 11
282.3198119934954
 21
367.1650177274476
 31
0.0
  0
LINE
  5
FAB
330
A
100
AcDbEntity
  8
06
100
AcDbLine
 10
174.0518628034956
 20
357.1650177274476
 30
0.0
 11
146.5877611934955
 21
357.1650177274476
 31
0.0
  0
LINE
  5
FAC
330
A
100
AcDbEntity
  8
06
100
AcDbLine
 10
296.0518628034956
 20
357.1650177274476
 30
0.0
 11
268.5877611934955
 21
357.1650177274476
 31
0.0
  0
LINE
  5
FAE
330
A
100
AcDbEntity
  8
06
100
AcDbLine
 10
296.3198119934956
 20
363.1650177274476
 30
0.0
 11
296.3198119934956
 21
358.1650177274476
 31
0.0
  0
LINE
  5
FAF
330
A
100
AcDbEntity
  8
06
100
AcDbLine
 10
268.3198119934956
 20
361.1650177274476
 30
0.0
 11
268.3198119934956
 21
358.1650177274476
 31
0.0
  0
LINE
  5
FB0
330
A
100
AcDbEntity
  8
06
100
AcDbLine
 10
174.3198119934954
 20
361.1650177274476
 30
0.0
 11
174.3198119934954
 21
358.1650177274476
 31
0.0
  0
LINE
  5
FB1
330
A
100
AcDbEntity
  8
06
100
AcDbLine
 10
146.3198119934955
 20
363.1650177274476
 30
0.0
 11
146.3198119934955
 21
358.1650177274476
 31
0.0
  0
LINE
  5
FB2
330
A
100
AcDbEntity
  8
06
100
AcDbLine
 10
148.3198119934955
 20
365.1650177274476
 30
0.0
 11
153.8198119934954
 21
365.1650177274476
 31
0.0
  0
LINE
  5
FB7
330
A
100
AcDbEntity
  8
04
100
AcDbLine
 10
227.0698119934956
 20
330.6557654574477
 30
0.0
 11
227.0698119934956
 21
334.6742699974477
 31
0.0
  0
LINE
  5
FBA
330
A
100
AcDbEntity
  8
04
100
AcDbLine
 10
215.5698119934954
 20
330.6557654574477
 30
0.0
 11
215.5698119934954
 21
334.6742699974477
 31
0.0
  0
LINE
  5
FBB
330
A
100
AcDbEntity
  8
06
100
AcDbLine
 10
146.8198119934955
 20
357.1650177274476
 30
0.0
 11
169.8198119934955
 21
357.1650177274476
 31
0.0
  0
LINE
  5
FBC
330
A
100
AcDbEntity
  8
06
100
AcDbLine
 10
295.8198119934954
 20
357.1650177274476
 30
0.0
 11
272.8198119934956
 21
357.1650177274476
 31
0.0
  0
LINE
  5
FC0
330
A
100
AcDbEntity
  8
03
100
AcDbLine
 10
205.2198119934955
 20
293.5650177274477
 30
0.0
 11
205.2198119934955
 21
271.2929894474477
 31
0.0
  0
LINE
  5
FC1
330
A
100
AcDbEntity
  8
03
100
AcDbLine
 10
237.4198119934954
 20
293.5650177274477
 30
0.0
 11
237.4198119934954
 21
271.2929894474477
 31
0.0
  0
LINE
  5
FC2
330
A
100
AcDbEntity
  8
03
100
AcDbLine
 10
237.4198119934954
 20
293.5650177274477
 30
0.0
 11
205.2198119934955
 21
293.5650177274477
 31
0.0
  0
LINE
  5
FC3
330
A
100
AcDbEntity
  8
03
100
AcDbLine
 10
213.5798119934956
 20
221.0216547874476
 30
0.0
 11
201.3198119934954
 21
221.0216547874476
 31
0.0
  0
LINE
  5
FC4
330
A
100
AcDbEntity
  8
03
100
AcDbLine
 10
241.3198119934956
 20
221.0216547874476
 30
0.0
 11
229.0598119934954
 21
221.0216547874476
 31
0.0
  0
LINE
  5
FC5
330
A
100
AcDbEntity
  8
03
100
AcDbLine
 10
237.4198119934954
 20
221.0216547874476
 30
0.0
 11
237.4198119934954
 21
246.0216547874476
 31
0.0
  0
LINE
  5
FC6
330
A
100
AcDbEntity
  8
03
100
AcDbLine
 10
205.2198119934955
 20
246.0216547874476
 30
0.0
 11
237.4198119934954
 21
246.0216547874476
 31
0.0
  0
LINE
  5
FC7
330
A
100
AcDbEntity
  8
03
100
AcDbLine
 10
205.2198119934955
 20
221.0216547874476
 30
0.0
 11
205.2198119934955
 21
246.0216547874476
 31
0.0
  0
LINE
  5
FC8
330
A
100
AcDbEntity
  8
03
100
AcDbLine
 10
205.2198119934955
 20
248.3216547874476
 30
0.0
 11
237.4198119934954
 21
248.3216547874476
 31
0.0
  0
LINE
  5
FC9
330
A
100
AcDbEntity
  8
03
100
AcDbLine
 10
201.3198119934954
 20
221.0216547874476
 30
0.0
 11
201.3198119934954
 21
267.899697016652
 31
0.0
  0
LINE
  5
FCA
330
A
100
AcDbEntity
  8
03
100
AcDbLine
 10
241.3198119934956
 20
221.0216547874476
 30
0.0
 11
241.3198119934956
 21
267.899697016652
 31
0.0
  0
LINE
  5
FCB
330
A
100
AcDbEntity
  8
03
100
AcDbLine
 10
202.9198119934955
 20
221.0216547874476
 30
0.0
 11
202.9198119934955
 21
267.899697016652
 31
0.0
  0
LINE
  5
FCC
330
A
100
AcDbEntity
  8
03
100
AcDbLine
 10
239.7198119934954
 20
221.0216547874476
 30
0.0
 11
239.7198119934954
 21
267.899697016652
 31
0.0
  0
LINE
  5
FCD
330
A
100
AcDbEntity
  8
03
100
AcDbLine
 10
321.3198119934954
 20
267.899697016652
 30
0.0
 11
321.3198119934954
 21
211.0216547874476
 31
0.0
  0
LINE
  5
FCE
330
A
100
AcDbEntity
  8
03
100
AcDbLine
 10
196.3198119934956
 20
267.899697016652
 30
0.0
 11
196.3198119934956
 21
211.0216547874476
 31
0.0
  0
LINE
  5
FCF
330
A
100
AcDbEntity
  8
03
100
AcDbLine
 10
146.3198119934955
 20
267.899697016652
 30
0.0
 11
146.3198119934955
 21
211.0216547874476
 31
0.0
  0
LINE
  5
FD0
330
A
100
AcDbEntity
  8
03
100
AcDbLine
 10
121.3198119934955
 20
267.899697016652
 30
0.0
 11
121.3198119934955
 21
211.0216547874476
 31
0.0
  0
LINE
  5
FD1
330
A
100
AcDbEntity
  8
03
100
AcDbLine
 10
196.3198119934956
 20
316.1650177274477
 30
0.0
 11
196.3198119934956
 21
271.2929894474477
 31
0.0
  0
LINE
  5
FD2
330
A
100
AcDbEntity
  8
03
100
AcDbLine
 10
146.3198119934955
 20
316.1650177274477
 30
0.0
 11
146.3198119934955
 21
271.2929894474477
 31
0.0
  0
LINE
  5
FD5
330
A
100
AcDbEntity
  8
03
100
AcDbLine
 10
202.2198119934954
 20
317.7650177274476
 30
0.0
 11
125.9198119934956
 21
317.7650177274476
 31
0.0
  0
LINE
  5
FD7
330
A
100
AcDbEntity
  8
03
100
AcDbLine
 10
202.2198119934954
 20
316.1650177274476
 30
0.0
 11
125.9198119934956
 21
316.1650177274477
 31
0.0
  0
LINE
  5
FD9
330
A
100
AcDbEntity
  8
04
100
AcDbLine
 10
331.6920933167646
 20
100.4179318841172
 30
0.0
 11
331.6920933167646
 21
68.41793188411735
 31
0.0
  0
LINE
  5
FDA
330
A
100
AcDbEntity
  8
04
100
AcDbLine
 10
176.4940542867645
 20
86.91793188411734
 30
0.0
 11
174.4446446067646
 21
86.91793188411734
 31
0.0
  0
LINE
  5
FDB
330
A
100
AcDbEntity
  8
04
100
AcDbLine
 10
179.4280102967646
 20
91.99969275411737
 30
0.0
 11
178.4033054467646
 21
93.77453360411733
 31
0.0
  0
LINE
  5
FDC
330
A
100
AcDbEntity
  8
04
100
AcDbLine
 10
183.7581373167646
 20
94.49969275411737
 30
0.0
 11
182.7334324667646
 21
96.27453360411733
 31
0.0
  0
LINE
  5
FDD
330
A
100
AcDbEntity
  8
04
100
AcDbLine
 10
179.4280102967646
 20
91.99969275411737
 30
0.0
 11
178.4033054467646
 21
93.77453360411733
 31
0.0
  0
LINE
  5
FDE
330
A
100
AcDbEntity
  8
04
100
AcDbLine
 10
183.7581373167646
 20
94.49969275411737
 30
0.0
 11
182.7334324667646
 21
96.27453360411733
 31
0.0
  0
LINE
  5
FDF
330
A
100
AcDbEntity
  8
04
100
AcDbLine
 10
179.4280102967646
 20
91.99969275411737
 30
0.0
 11
178.4033054467646
 21
93.77453360411733
 31
0.0
  0
LINE
  5
FE0
330
A
100
AcDbEntity
  8
04
100
AcDbLine
 10
189.6260493167646
 20
94.49969275411737
 30
0.0
 11
190.6507541667646
 21
96.27453360411733
 31
0.0
  0
LINE
  5
FE1
330
A
100
AcDbEntity
  8
04
100
AcDbLine
 10
193.9561763367646
 20
91.99969275411737
 30
0.0
 11
194.9808811867646
 21
93.77453360411733
 31
0.0
  0
LINE
  5
FE2
330
A
100
AcDbEntity
  8
04
100
AcDbLine
 10
189.6260493167646
 20
94.49969275411737
 30
0.0
 11
190.6507541667646
 21
96.27453360411733
 31
0.0
  0
LINE
  5
FE3
330
A
100
AcDbEntity
  8
04
100
AcDbLine
 10
196.8901323467646
 20
81.91793188411734
 30
0.0
 11
198.9395420267646
 21
81.91793188411734
 31
0.0
  0
LINE
  5
FE4
330
A
100
AcDbEntity
  8
04
100
AcDbLine
 10
196.8901323467646
 20
86.91793188411734
 30
0.0
 11
198.9395420267646
 21
86.91793188411734
 31
0.0
  0
LINE
  5
FE5
330
A
100
AcDbEntity
  8
04
100
AcDbLine
 10
189.6260493167646
 20
74.33617102411735
 30
0.0
 11
190.6507541667646
 21
72.56133017411736
 31
0.0
  0
LINE
  5
FE6
330
A
100
AcDbEntity
  8
04
100
AcDbLine
 10
193.9561763367646
 20
76.83617102411735
 30
0.0
 11
194.9808811867646
 21
75.06133017411736
 31
0.0
  0
LINE
  5
FE7
330
A
100
AcDbEntity
  8
04
100
AcDbLine
 10
179.4280102967646
 20
76.83617102411735
 30
0.0
 11
178.4033054467646
 21
75.06133017411736
 31
0.0
  0
LINE
  5
FE8
330
A
100
AcDbEntity
  8
04
100
AcDbLine
 10
183.7581373167646
 20
74.33617102411735
 30
0.0
 11
182.7334324667646
 21
72.56133017411736
 31
0.0
  0
LINE
  5
FE9
330
A
100
AcDbEntity
  8
04
100
AcDbLine
 10
176.4940542867645
 20
81.91793188411734
 30
0.0
 11
174.4446446067646
 21
81.91793188411734
 31
0.0
  0
LINE
  5
FEA
330
A
100
AcDbEntity
  8
04
100
AcDbLine
 10
131.6920933167646
 20
68.41793188411735
 30
0.0
 11
331.6920933167646
 21
68.41793188411735
 31
0.0
  0
LINE
  5
FEB
330
A
100
AcDbEntity
  8
04
100
AcDbLine
 10
131.6920933167646
 20
100.4179318841172
 30
0.0
 11
331.6920933167646
 21
100.4179318841172
 31
0.0
  0
LINE
  5
FEC
330
A
100
AcDbEntity
  8
04
100
AcDbLine
 10
131.6920933167646
 20
100.4179318841172
 30
0.0
 11
131.6920933167646
 21
68.41793188411735
 31
0.0
  0
LINE
  5
FED
330
A
100
AcDbEntity
  8
02
100
AcDbLine
 10
303.7198119934955
 20
527.5650177274476
 30
0.0
 11
303.7198119934955
 21
555.0650177274476
 31
0.0
  0
LINE
  5
FEE
330
A
100
AcDbEntity
  8
02
100
AcDbLine
 10
303.7198119934955
 20
327.2650177274476
 30
0.0
 11
303.7198119934955
 21
354.7650177274476
 31
0.0
  0
LINE
  5
FF3
330
A
100
AcDbEntity
  8
02
100
AcDbLine
 10
130.9198119934955
 20
351.1650177274476
 30
0.0
 11
303.7198119934955
 21
351.1650177274476
 31
0.0
  0
LINE
  5
FF4
330
A
100
AcDbEntity
  8
03
100
AcDbLine
 10
321.3198119934954
 20
271.2929894474477
 30
0.0
 11
321.3198119934954
 21
566.1650177274477
 31
0.0
  0
LINE
  5
FF6
330
A
100
AcDbEntity
  8
02
100
AcDbLine
 10
135.9198119934955
 20
544.5650177274476
 30
0.0
 11
135.9198119934955
 21
351.1650177274476
 31
0.0
  0
LINE
  5
FF7
330
A
100
AcDbEntity
  8
02
100
AcDbLine
 10
130.9198119934955
 20
327.2650177274476
 30
0.0
 11
130.9198119934955
 21
555.0650177274476
 31
0.0
  0
LINE
  5
FF9
330
A
100
AcDbEntity
  8
03
100
AcDbLine
 10
125.9198119934956
 20
317.7650177274476
 30
0.0
 11
125.9198119934956
 21
564.5650177274476
 31
0.0
  0
LINE
  5
FFB
330
A
100
AcDbEntity
  8
03
100
AcDbLine
 10
124.3198119934955
 20
317.7650177274476
 30
0.0
 11
124.3198119934955
 21
564.5650177274476
 31
0.0
  0
LINE
  5
FFE
330
A
100
AcDbEntity
  8
03
100
AcDbLine
 10
121.3198119934955
 20
566.1650177274477
 30
0.0
 11
121.3198119934955
 21
271.2929894474477
 31
0.0
  0
LINE
  5
1003
330
A
100
AcDbEntity
  8
06
100
AcDbLine
 10
233.8198119934954
 20
453.6650177274476
 30
0.0
 11
233.8198119934954
 21
443.1650177274476
 31
0.0
  0
LINE
  5
1004
330
A
100
AcDbEntity
  8
06
100
AcDbLine
 10
208.8198119934954
 20
453.6650176674476
 30
0.0
 11
208.8198119934954
 21
443.1650177274476
 31
0.0
  0
LINE
  5
1007
330
A
100
AcDbEntity
  8
06
100
AcDbLine
 10
232.8198119934956
 20
454.6650177274476
 30
0.0
 11
233.8198119934954
 21
453.6650177274476
 31
0.0
  0
LINE
  5
1008
330
A
100
AcDbEntity
  8
06
100
AcDbLine
 10
208.8198119934954
 20
453.6650177274476
 30
0.0
 11
209.8198119934954
 21
454.6650177274476
 31
0.0
  0
LINE
  5
105D
330
A
100
AcDbEntity
  8
06
100
AcDbLine
 10
254.3198119934956
 20
443.1650177274476
 30
0.0
 11
254.3198119934956
 21
441.1650177274476
 31
0.0
  0
LINE
  5
105F
330
A
100
AcDbEntity
  8
06
100
AcDbLine
 10
188.3198119934954
 20
443.1650177274476
 30
0.0
 11
188.3198119934954
 21
441.1650177274476
 31
0.0
  0
LINE
  5
1068
330
A
100
AcDbEntity
  8
06
100
AcDbLine
 10
156.3198119934956
 20
375.1650177274476
 30
0.0
 11
156.3198119934956
 21
373.2650177274476
 31
0.0
  0
LINE
  5
1069
330
A
100
AcDbEntity
  8
06
100
AcDbLine
 10
150.3198119934956
 20
375.1650177274476
 30
0.0
 11
150.3198119934956
 21
373.2650177274476
 31
0.0
  0
LINE
  5
106B
330
A
100
AcDbEntity
  8
06
100
AcDbLine
 10
156.3198119934956
 20
375.1650177274476
 30
0.0
 11
155.3198119934956
 21
376.1650177274476
 31
0.0
  0
LINE
  5
106C
330
A
100
AcDbEntity
  8
06
100
AcDbLine
 10
150.3198119934956
 20
375.1650177274476
 30
0.0
 11
151.3198119934956
 21
376.1650177274476
 31
0.0
  0
LINE
  5
106D
330
A
100
AcDbEntity
  8
06
100
AcDbLine
 10
155.3198119934956
 20
376.1650177274476
 30
0.0
 11
151.3198119934956
 21
376.1650177274476
 31
0.0
  0
LINE
  5
106E
330
A
100
AcDbEntity
  8
04
100
AcDbLine
 10
224.3198119934954
 20
336.1650177274477
 30
0.0
 11
224.3198119934954
 21
335.1650177274477
 31
0.0
  0
LINE
  5
106F
330
A
100
AcDbEntity
  8
04
100
AcDbLine
 10
218.3198119934956
 20
336.1650177274477
 30
0.0
 11
218.3198119934956
 21
335.1650177274477
 31
0.0
  0
LINE
  5
1071
330
A
100
AcDbEntity
  8
04
100
AcDbLine
 10
224.3198119934954
 20
336.1650177274477
 30
0.0
 11
223.3198119934954
 21
337.1650177274477
 31
0.0
  0
LINE
  5
1072
330
A
100
AcDbEntity
  8
04
100
AcDbLine
 10
218.3198119934956
 20
336.1650177274477
 30
0.0
 11
219.3198119934954
 21
337.1650177274477
 31
0.0
  0
LINE
  5
1073
330
A
100
AcDbEntity
  8
04
100
AcDbLine
 10
223.3198119934954
 20
337.1650177274477
 30
0.0
 11
219.3198119934954
 21
337.1650177274477
 31
0.0
  0
LINE
  5
1077
330
A
100
AcDbEntity
  8
04
100
AcDbLine
 10
227.3198119934956
 20
316.1650177274477
 30
0.0
 11
227.3198119934956
 21
315.1650177274477
 31
0.0
  0
LINE
  5
1078
330
A
100
AcDbEntity
  8
04
100
AcDbLine
 10
215.3198119934955
 20
316.1650177274477
 30
0.0
 11
215.3198119934955
 21
315.1650177274477
 31
0.0
  0
LINE
  5
1079
330
A
100
AcDbEntity
  8
03
100
AcDbLine
 10
211.3198119934954
 20
313.1650177274477
 30
0.0
 11
201.3198119934954
 21
313.1650177274477
 31
0.0
  0
LINE
  5
107A
330
A
100
AcDbEntity
  8
03
100
AcDbLine
 10
241.3198119934956
 20
313.1650177274477
 30
0.0
 11
231.3198119934956
 21
313.1650177274477
 31
0.0
  0
LINE
  5
107B
330
A
100
AcDbEntity
  8
03
100
AcDbLine
 10
237.4198119934954
 20
313.1650177274477
 30
0.0
 11
237.4198119934954
 21
298.1650177274477
 31
0.0
  0
LINE
  5
107C
330
A
100
AcDbEntity
  8
03
100
AcDbLine
 10
205.2198119934955
 20
298.1650177274477
 30
0.0
 11
237.4198119934954
 21
298.1650177274477
 31
0.0
  0
LINE
  5
107D
330
A
100
AcDbEntity
  8
03
100
AcDbLine
 10
205.2198119934955
 20
313.1650177274477
 30
0.0
 11
205.2198119934955
 21
298.1650177274477
 31
0.0
  0
LINE
  5
107E
330
A
100
AcDbEntity
  8
03
100
AcDbLine
 10
205.2198119934955
 20
295.8650177274477
 30
0.0
 11
237.4198119934954
 21
295.8650177274477
 31
0.0
  0
LINE
  5
107F
330
A
100
AcDbEntity
  8
03
100
AcDbLine
 10
201.3198119934954
 20
313.1650177274477
 30
0.0
 11
201.3198119934954
 21
271.2929894474477
 31
0.0
  0
LINE
  5
1080
330
A
100
AcDbEntity
  8
03
100
AcDbLine
 10
241.3198119934956
 20
313.1650177274477
 30
0.0
 11
241.3198119934956
 21
271.2929894474477
 31
0.0
  0
LINE
  5
1081
330
A
100
AcDbEntity
  8
02
100
AcDbLine
 10
135.9198119934955
 20
345.1650177274476
 30
0.0
 11
135.9198119934955
 21
337.7650177274476
 31
0.0
  0
LINE
  5
1082
330
A
100
AcDbEntity
  8
02
100
AcDbLine
 10
303.7198119934955
 20
345.1650177274476
 30
0.0
 11
130.9198119934955
 21
345.1650177274476
 31
0.0
  0
LINE
  5
1083
330
A
100
AcDbEntity
  8
03
100
AcDbLine
 10
238.8198119934954
 20
343.5650177274477
 30
0.0
 11
203.8198119934956
 21
343.5650177274477
 31
0.0
  0
LINE
  5
1084
330
A
100
AcDbEntity
  8
03
100
AcDbLine
 10
202.9198119934955
 20
313.1650177274477
 30
0.0
 11
202.9198119934955
 21
271.2929894474477
 31
0.0
  0
LINE
  5
1085
330
A
100
AcDbEntity
  8
03
100
AcDbLine
 10
239.7198119934954
 20
313.1650177274477
 30
0.0
 11
239.7198119934954
 21
271.2929894474477
 31
0.0
  0
LINE
  5
1086
330
A
100
AcDbEntity
  8
03
100
AcDbLine
 10
270.4198119934956
 20
345.1650177274476
 30
0.0
 11
270.4198119934956
 21
341.9650177274476
 31
0.0
  0
LINE
  5
1087
330
A
100
AcDbEntity
  8
03
100
AcDbLine
 10
240.4198119934955
 20
320.1650177274477
 30
0.0
 11
243.6198119934954
 21
320.1650177274477
 31
0.0
  0
LINE
  5
1088
330
A
100
AcDbEntity
  8
03
100
AcDbLine
 10
243.6198119934954
 20
341.9650177274476
 30
0.0
 11
243.6198119934954
 21
320.1650177274477
 31
0.0
  0
LINE
  5
1089
330
A
100
AcDbEntity
  8
03
100
AcDbLine
 10
270.4198119934956
 20
341.9650177274476
 30
0.0
 11
243.6198119934954
 21
341.9650177274476
 31
0.0
  0
LINE
  5
108A
330
A
100
AcDbEntity
  8
02
100
AcDbLine
 10
268.7198119934955
 20
319.7650177274476
 30
0.0
 11
268.7198119934955
 21
317.7650177274476
 31
0.0
  0
LINE
  5
108B
330
A
100
AcDbEntity
  8
02
100
AcDbLine
 10
299.2198119934954
 20
322.7650177274477
 30
0.0
 11
271.7198119934955
 21
322.7650177274477
 31
0.0
  0
LINE
  5
108C
330
A
100
AcDbEntity
  8
03
100
AcDbLine
 10
310.3198119934956
 20
344.7650177274476
 30
0.0
 11
316.7198119934955
 21
344.7650177274476
 31
0.0
  0
LINE
  5
108D
330
A
100
AcDbEntity
  8
03
100
AcDbLine
 10
310.3198119934956
 20
343.1650177274477
 30
0.0
 11
316.7198119934955
 21
343.1650177274477
 31
0.0
  0
LINE
  5
108E
330
A
100
AcDbEntity
  8
03
100
AcDbLine
 10
308.7198119934955
 20
354.5650177274476
 30
0.0
 11
310.3198119934956
 21
354.5650177274476
 31
0.0
  0
LINE
  5
108F
330
A
100
AcDbEntity
  8
03
100
AcDbLine
 10
310.3198119934956
 20
341.1650177274477
 30
0.0
 11
310.3198119934956
 21
354.5650177274476
 31
0.0
  0
LINE
  5
1090
330
A
100
AcDbEntity
  8
03
100
AcDbLine
 10
316.7198119934955
 20
339.5650177274477
 30
0.0
 11
310.3198119934956
 21
339.5650177274477
 31
0.0
  0
LINE
  5
1091
330
A
100
AcDbEntity
  8
03
100
AcDbLine
 10
316.7198119934955
 20
341.1650177274477
 30
0.0
 11
310.3198119934956
 21
341.1650177274477
 31
0.0
  0
LINE
  5
1092
330
A
100
AcDbEntity
  8
03
100
AcDbLine
 10
316.7198119934955
 20
317.7650177274476
 30
0.0
 11
316.7198119934955
 21
339.5650177274477
 31
0.0
  0
LINE
  5
1093
330
A
100
AcDbEntity
  8
03
100
AcDbLine
 10
318.3198119934956
 20
317.7650177274476
 30
0.0
 11
318.3198119934956
 21
339.5650177274477
 31
0.0
  0
LINE
  5
1094
330
A
100
AcDbEntity
  8
02
100
AcDbLine
 10
308.7198119934955
 20
357.7650177274477
 30
0.0
 11
306.7198119934955
 21
357.7650177274477
 31
0.0
  0
LINE
  5
1095
330
A
100
AcDbEntity
  8
02
100
AcDbLine
 10
308.7198119934955
 20
357.7650177274477
 30
0.0
 11
308.7198119934955
 21
317.7650177274476
 31
0.0
  0
LINE
  5
1096
330
A
100
AcDbEntity
  8
03
100
AcDbLine
 10
318.3198119934956
 20
344.7650177274476
 30
0.0
 11
318.3198119934956
 21
537.5650177274476
 31
0.0
  0
LINE
  5
1097
330
A
100
AcDbEntity
  8
03
100
AcDbLine
 10
316.7198119934955
 20
344.7650177274476
 30
0.0
 11
316.7198119934955
 21
537.5650177274476
 31
0.0
  0
LINE
  5
1098
330
A
100
AcDbEntity
  8
02
100
AcDbLine
 10
306.7198119934955
 20
524.5650177274476
 30
0.0
 11
308.7198119934955
 21
524.5650177274476
 31
0.0
  0
LINE
  5
1099
330
A
100
AcDbEntity
  8
02
100
AcDbLine
 10
308.7198119934955
 20
524.5650177274476
 30
0.0
 11
308.7198119934955
 21
564.5650177274476
 31
0.0
  0
LINE
  5
109A
330
A
100
AcDbEntity
  8
03
100
AcDbLine
 10
310.3198119934956
 20
527.7650177274477
 30
0.0
 11
308.7198119934955
 21
527.7650177274477
 31
0.0
  0
LINE
  5
109B
330
A
100
AcDbEntity
  8
03
100
AcDbLine
 10
310.3198119934956
 20
527.7650177274477
 30
0.0
 11
310.3198119934956
 21
541.1650177274476
 31
0.0
  0
LINE
  5
109C
330
A
100
AcDbEntity
  8
02
100
AcDbLine
 10
288.7198119934955
 20
559.5650177274476
 30
0.0
 11
288.7198119934955
 21
554.5650177274476
 31
0.0
  0
LINE
  5
109D
330
A
100
AcDbEntity
  8
02
100
AcDbLine
 10
270.7198119934955
 20
562.5650177274476
 30
0.0
 11
270.7198119934955
 21
564.5650177274476
 31
0.0
  0
LINE
  5
109E
330
A
100
AcDbEntity
  8
03
100
AcDbLine
 10
316.7198119934955
 20
537.5650177274476
 30
0.0
 11
310.3198119934956
 21
537.5650177274476
 31
0.0
  0
LINE
  5
109F
330
A
100
AcDbEntity
  8
03
100
AcDbLine
 10
316.7198119934955
 20
539.1650177274478
 30
0.0
 11
310.3198119934956
 21
539.1650177274478
 31
0.0
  0
LINE
  5
10A0
330
A
100
AcDbEntity
  8
03
100
AcDbLine
 10
316.7198119934955
 20
542.7650177274476
 30
0.0
 11
316.7198119934955
 21
564.5650177274476
 31
0.0
  0
LINE
  5
10A1
330
A
100
AcDbEntity
  8
03
100
AcDbLine
 10
318.3198119934956
 20
542.7650177274476
 30
0.0
 11
318.3198119934956
 21
564.5650177274476
 31
0.0
  0
LINE
  5
10A2
330
A
100
AcDbEntity
  8
03
100
AcDbLine
 10
316.7198119934955
 20
542.7650177274476
 30
0.0
 11
310.3198119934956
 21
542.7650177274476
 31
0.0
  0
LINE
  5
10A3
330
A
100
AcDbEntity
  8
03
100
AcDbLine
 10
316.7198119934955
 20
541.1650177274476
 30
0.0
 11
310.3198119934956
 21
541.1650177274476
 31
0.0
  0
LINE
  5
10A4
330
A
100
AcDbEntity
  8
02
100
AcDbLine
 10
135.9198119934955
 20
544.5650177274476
 30
0.0
 11
130.9198119934955
 21
544.5650177274476
 31
0.0
  0
LINE
  5
10A5
330
A
100
AcDbEntity
  8
02
100
AcDbLine
 10
135.9198119934955
 20
337.7650177274476
 30
0.0
 11
130.9198119934955
 21
337.7650177274476
 31
0.0
  0
LINE
  5
10A6
330
A
100
AcDbEntity
  8
02
100
AcDbLine
 10
153.9198119934955
 20
559.5650177274476
 30
0.0
 11
153.9198119934955
 21
554.5650177274476
 31
0.0
  0
LINE
  5
10A7
330
A
100
AcDbEntity
  8
02
100
AcDbLine
 10
153.9198119334955
 20
554.5650177274476
 30
0.0
 11
288.7198119934955
 21
554.5650177274476
 31
0.0
  0
LINE
  5
10A8
330
A
100
AcDbEntity
  8
02
100
AcDbLine
 10
167.9198119934955
 20
564.5650177274476
 30
0.0
 11
167.9198119934955
 21
562.5650177274476
 31
0.0
  0
LINE
  5
10A9
330
A
100
AcDbEntity
  8
02
100
AcDbLine
 10
135.4198119934955
 20
559.5650177274476
 30
0.0
 11
299.2198119934954
 21
559.5650177274476
 31
0.0
  0
LINE
  5
10AA
330
A
100
AcDbEntity
  8
02
100
AcDbLine
 10
127.9198119934956
 20
524.5650177274476
 30
0.0
 11
125.9198119934956
 21
524.5650177274476
 31
0.0
  0
LINE
  5
10AB
330
A
100
AcDbEntity
  8
03
100
AcDbLine
 10
125.9198119934956
 20
564.5650177274476
 30
0.0
 11
316.7198119934955
 21
564.5650177274476
 31
0.0
  0
LINE
  5
10AC
330
A
100
AcDbEntity
  8
03
100
AcDbLine
 10
99.56077584349557
 20
566.1650177274477
 30
0.0
 11
343.0788481334954
 21
566.1650177274477
 31
0.0
  0
LINE
  5
10AD
330
A
100
AcDbEntity
  8
02
100
AcDbLine
 10
125.9198119934956
 20
357.7650177274477
 30
0.0
 11
127.9198119934956
 21
357.7650177274477
 31
0.0
  0
LINE
  5
10AE
330
A
100
AcDbEntity
  8
02
100
AcDbLine
 10
165.9198119934955
 20
319.7650177274476
 30
0.0
 11
165.9198119934955
 21
317.7650177274476
 31
0.0
  0
LINE
  5
10AF
330
A
100
AcDbEntity
  8
02
100
AcDbLine
 10
135.4198119934955
 20
322.7650177274477
 30
0.0
 11
162.9198119934955
 21
322.7650177274477
 31
0.0
  0
LINE
  5
10B0
330
A
100
AcDbEntity
  8
03
100
AcDbLine
 10
199.2198119934954
 20
342.1650177274477
 30
0.0
 11
172.2198119934954
 21
342.1650177274477
 31
0.0
  0
LINE
  5
10B1
330
A
100
AcDbEntity
  8
03
100
AcDbLine
 10
199.2198119934954
 20
320.1650177274477
 30
0.0
 11
199.2198119934954
 21
342.1650177274477
 31
0.0
  0
LINE
  5
10B2
330
A
100
AcDbEntity
  8
03
100
AcDbLine
 10
202.2198119934954
 20
320.1650177274477
 30
0.0
 11
199.2198119934954
 21
320.1650177274477
 31
0.0
  0
LINE
  5
10B3
330
A
100
AcDbEntity
  8
03
100
AcDbLine
 10
172.2198119934954
 20
345.1650177274476
 30
0.0
 11
172.2198119934954
 21
342.1650177274477
 31
0.0
  0
LINE
  5
10B4
330
A
100
AcDbEntity
  8
03
100
AcDbLine
 10
240.4198119934955
 20
317.7650177274476
 30
0.0
 11
316.7198119934955
 21
317.7650177274476
 31
0.0
  0
LINE
  5
10B5
330
A
100
AcDbEntity
  8
03
100
AcDbLine
 10
240.4198119934955
 20
316.1650177274477
 30
0.0
 11
316.7198119934955
 21
316.1650177274477
 31
0.0
  0
LINE
  5
10B6
330
A
100
AcDbEntity
  8
03
100
AcDbLine
 10
203.8198119934956
 20
343.5650177274477
 30
0.0
 11
203.8198119934956
 21
317.7650177274476
 31
0.0
  0
LINE
  5
10B7
330
A
100
AcDbEntity
  8
03
100
AcDbLine
 10
238.8198119934954
 20
343.5650177274477
 30
0.0
 11
238.8198119934954
 21
317.7650177274476
 31
0.0
  0
LINE
  5
10B8
330
A
100
AcDbEntity
  8
03
100
AcDbLine
 10
202.2198119934954
 20
343.5650177274477
 30
0.0
 11
202.2198119934954
 21
317.7650177274476
 31
0.0
  0
LINE
  5
10B9
330
A
100
AcDbEntity
  8
03
100
AcDbLine
 10
240.4198119934955
 20
343.5650177274477
 30
0.0
 11
240.4198119934955
 21
317.7650177274476
 31
0.0
  0
LINE
  5
10BC
330
A
100
AcDbEntity
  8
KAKURE
100
AcDbLine
 10
165.3198119934955
 20
345.1650177274476
 30
0.0
 11
165.3198119934955
 21
357.1650177274476
 31
0.0
  0
LINE
  5
10BD
330
A
100
AcDbEntity
  8
KAKURE
100
AcDbLine
 10
164.6948119934956
 20
357.1650177274476
 30
0.0
 11
164.6948119934956
 21
345.1650177274476
 31
0.0
  0
LINE
  5
10BE
330
A
100
AcDbEntity
  8
KAKURE
100
AcDbLine
 10
157.9448119934955
 20
357.1650177274476
 30
0.0
 11
157.9448119934955
 21
345.1650177274476
 31
0.0
  0
LINE
  5
10BF
330
A
100
AcDbEntity
  8
KAKURE
100
AcDbLine
 10
157.3198119934955
 20
357.1650177274476
 30
0.0
 11
157.3198119934955
 21
345.1650177274476
 31
0.0
  0
LINE
  5
10C7
330
A
100
AcDbEntity
  8
06
100
AcDbLine
 10
169.8198119934955
 20
357.1650177274476
 30
0.0
 11
169.8198119934955
 21
358.7650177274476
 31
0.0
  0
LINE
  5
10C8
330
A
100
AcDbEntity
  8
06
100
AcDbLine
 10
169.8198119934955
 20
357.1650177274476
 30
0.0
 11
152.8198119934955
 21
357.1650177274476
 31
0.0
  0
LINE
  5
10C9
330
A
100
AcDbEntity
  8
06
100
AcDbLine
 10
152.8198119934955
 20
357.1650177274476
 30
0.0
 11
152.8198119934955
 21
358.7650177274476
 31
0.0
  0
LINE
  5
10CD
330
A
100
AcDbEntity
  8
06
100
AcDbLine
 10
169.0198119934954
 20
358.7650177274476
 30
0.0
 11
169.0198119934954
 21
360.7650177274476
 31
0.0
  0
LINE
  5
10CE
330
A
100
AcDbEntity
  8
06
100
AcDbLine
 10
153.6198119934955
 20
358.7650177274476
 30
0.0
 11
153.6198119934955
 21
360.7650177274476
 31
0.0
  0
LINE
  5
10D0
330
A
100
AcDbEntity
  8
06
100
AcDbLine
 10
153.8198119934954
 20
360.7650177274476
 30
0.0
 11
153.8198119934954
 21
365.5721974074476
 31
0.0
  0
LINE
  5
10D1
330
A
100
AcDbEntity
  8
06
100
AcDbLine
 10
166.9434236134956
 20
366.2650177274477
 30
0.0
 11
155.6962003634955
 21
366.2650177274477
 31
0.0
  0
LINE
  5
10D3
330
A
100
AcDbEntity
  8
06
100
AcDbLine
 10
168.8198119934956
 20
360.7650177274476
 30
0.0
 11
168.8198119934956
 21
365.5721974074476
 31
0.0
  0
LINE
  5
10D5
330
A
100
AcDbEntity
  8
06
100
AcDbLine
 10
147.0698119934955
 20
365.1650177274476
 30
0.0
 11
147.0698119934955
 21
366.7650177274476
 31
0.0
  0
LINE
  5
10D6
330
A
100
AcDbEntity
  8
06
100
AcDbLine
 10
153.8198119934954
 20
365.1650177274476
 30
0.0
 11
147.0698119934955
 21
365.1650177274476
 31
0.0
  0
LINE
  5
10D7
330
A
100
AcDbEntity
  8
06
100
AcDbLine
 10
159.5698119934955
 20
366.7650177274476
 30
0.0
 11
159.5698119934955
 21
366.2650177274477
 31
0.0
  0
LINE
  5
10DB
330
A
100
AcDbEntity
  8
06
100
AcDbLine
 10
147.2198119934955
 20
366.7650177274476
 30
0.0
 11
147.2198119934955
 21
368.2650177274477
 31
0.0
  0
LINE
  5
10DC
330
A
100
AcDbEntity
  8
06
100
AcDbLine
 10
159.4198119934955
 20
368.2650177274477
 30
0.0
 11
159.4198119934955
 21
366.7650177274476
 31
0.0
  0
LINE
  5
10DE
330
A
100
AcDbEntity
  8
06
100
AcDbLine
 10
158.3198119934955
 20
368.2650177274477
 30
0.0
 11
158.3198119934955
 21
373.2650177274476
 31
0.0
  0
LINE
  5
10DF
330
A
100
AcDbEntity
  8
06
100
AcDbLine
 10
148.3198119934955
 20
373.2650177274476
 30
0.0
 11
148.3198119934955
 21
368.2650177274477
 31
0.0
  0
LINE
  5
10E3
330
A
100
AcDbEntity
  8
KAKURE
100
AcDbLine
 10
285.3198119934956
 20
345.1650177274476
 30
0.0
 11
285.3198119934956
 21
357.1650177274476
 31
0.0
  0
LINE
  5
10E4
330
A
100
AcDbEntity
  8
KAKURE
100
AcDbLine
 10
284.6948119934954
 20
357.1650177274476
 30
0.0
 11
284.6948119934954
 21
345.1650177274476
 31
0.0
  0
LINE
  5
10E5
330
A
100
AcDbEntity
  8
KAKURE
100
AcDbLine
 10
277.9448119934956
 20
357.1650177274476
 30
0.0
 11
277.9448119934956
 21
345.1650177274476
 31
0.0
  0
LINE
  5
10E6
330
A
100
AcDbEntity
  8
KAKURE
100
AcDbLine
 10
277.3198119934956
 20
357.1650177274476
 30
0.0
 11
277.3198119934956
 21
345.1650177274476
 31
0.0
  0
POLYLINE
  5
11CE
330
A
100
AcDbEntity
  8
DEFPOINTS
100
AcDb2dPolyline
 66
     1
 10
0.0
 20
0.0
 30
0.0
 70
     1
  0
VERTEX
  5
2313
330
11CE
100
AcDbEntity
  8
DEFPOINTS
100
AcDbVertex
100
AcDb2dVertex
 10
0.0
 20
0.0
 30
0.0
  0
VERTEX
  5
2314
330
11CE
100
AcDbEntity
  8
DEFPOINTS
100
AcDbVertex
100
AcDb2dVertex
 10
420.0
 20
0.0
 30
0.0
  0
VERTEX
  5
2315
330
11CE
100
AcDbEntity
  8
DEFPOINTS
100
AcDbVertex
100
AcDb2dVertex
 10
420.0
 20
594.0
 30
0.0
  0
VERTEX
  5
2316
330
11CE
100
AcDbEntity
  8
DEFPOINTS
100
AcDbVertex
100
AcDb2dVertex
 10
0.0
 20
594.0
 30
0.0
  0
SEQEND
  5
2317
330
11CE
100
AcDbEntity
  8
DEFPOINTS
  0
DIMENSION
  5
11F7
330
A
100
AcDbEntity
  8
SUNPOU
100
AcDbDimension
  2
*D1
 10
52.53852648112207
 20
495.1650177274476
 30
0.0
 11
48.038526481122
 21
423.1650177274477
 31
0.0
 70
    32
  3
SUNPOU_2
100
AcDbAlignedDimension
 13
130.9198119934955
 23
351.1650177274476
 33
0.0
 14
221.3198119884954
 24
495.1650177274476
 34
0.0
 50
90.0
100
AcDbRotatedDimension
  0
DIMENSION
  5
1204
330
A
100
AcDbEntity
  8
SUNPOU
100
AcDbDimension
  2
*D2
 10
68.44716897677519
 20
482.5650177274478
 30
0.0
 11
63.9471689767751
 21
416.8650177274478
 31
0.0
 70
    32
  3
SUNPOU_2
100
AcDbAlignedDimension
 13
130.9198119934955
 23
351.1650177274476
 33
0.0
 14
174.0470609134954
 24
482.5650177274476
 34
0.0
 50
90.0
100
AcDbRotatedDimension
  0
DIMENSION
  5
1227
330
A
100
AcDbEntity
  8
SUNPOU
100
AcDbDimension
  2
*D3
 10
296.3198119934956
 20
395.4696150074476
 30
0.0
 11
221.3198119934954
 21
399.9696150074476
 31
0.0
 70
    32
  3
SUNPOU_2
100
AcDbAlignedDimension
 13
146.3198119934955
 23
363.1650177274476
 33
0.0
 14
296.3198119934956
 24
363.1650177274476
 34
0.0
100
AcDbRotatedDimension
  0
DIMENSION
  5
1234
330
A
100
AcDbEntity
  8
SUNPOU
100
AcDbDimension
  2
*D4
 10
281.3198119934956
 20
380.8297729774476
 30
0.0
 11
221.3198119934954
 21
385.3297729774476
 31
0.0
 70
    32
  3
SUNPOU_2
100
AcDbAlignedDimension
 13
161.3198119934954
 23
369.89573602785
 33
0.0
 14
281.3198119934956
 24
369.89573602785
 34
0.0
100
AcDbRotatedDimension
  0
DIMENSION
  5
1241
330
A
100
AcDbEntity
  8
SUNPOU
100
AcDbDimension
  2
*D5
 10
238.8198119934955
 20
354.0801281074476
 30
0.0
 11
221.3198119934954
 21
358.5801281074476
 31
0.0
 70
    32
  3
SUNPOU_2
100
AcDbAlignedDimension
 13
203.8198119934956
 23
343.5650177274477
 33
0.0
 14
238.8198119934955
 24
343.5650177274477
 34
0.0
100
AcDbRotatedDimension
  0
DIMENSION
  5
125B
330
A
100
AcDbEntity
  8
SUNPOU
100
AcDbDimension
  2
*D6
 10
176.5765615834955
 20
337.1650177274477
 30
0.0
 11
172.0765615834956
 21
309.4120943273726
 31
0.0
 70
   160
  3
SUNPOU_2
100
AcDbAlignedDimension
 13
205.3198119934954
 23
298.1650177274477
 33
0.0
 14
221.3198119934954
 24
337.1650177274477
 34
0.0
 50
90.0
100
AcDbRotatedDimension
  0
DIMENSION
  5
1268
330
A
100
AcDbEntity
  8
SUNPOU
100
AcDbDimension
  2
*D7
 10
191.4239318234954
 20
316.1650177274477
 30
0.0
 11
186.9239318234954
 21
323.1650177274477
 31
0.0
 70
    32
  3
SUNPOU_2
100
AcDbAlignedDimension
 13
205.3198119934954
 23
330.1650177274477
 33
0.0
 14
191.4239318234954
 24
316.1650177274477
 34
0.0
 50
90.0
100
AcDbRotatedDimension
  0
DIMENSION
  5
1277
330
A
100
AcDbEntity
  8
SUNPOU
100
AcDbDimension
  2
*D8
 10
191.4239318234954
 20
310.1650177274477
 30
0.0
 11
184.8576026697441
 21
312.8871190569091
 31
0.0
 70
   160
  3
SUNPOU_2
100
AcDbAlignedDimension
 13
191.4239318234954
 23
316.1650177274477
 33
0.0
 14
205.3198119934954
 24
310.1650177274477
 34
0.0
 50
90.0
100
AcDbRotatedDimension
1001
ACAD
1000
DSTYLE
1002
{
1070
     7
1000
DOTSMALL
1070
     5
1000

1070
   173
1070
     1
1070
     6
1000
OPEN30
1002
}
  0
DIMENSION
  5
1286
330
A
100
AcDbEntity
  8
SUNPOU
100
AcDbDimension
  2
*D9
 10
191.4239318234954
 20
298.1650177274477
 30
0.0
 11
187.1388097463309
 21
303.3768079658855
 31
0.0
 70
   160
  3
SUNPOU_2
100
AcDbAlignedDimension
 13
205.3198119934954
 23
310.1650177274477
 33
0.0
 14
205.2198119934955
 24
298.1650177274477
 34
0.0
 50
90.0
100
AcDbRotatedDimension
1001
ACAD
1000
DSTYLE
1002
{
1070
     6
1000
DOTSMALL
1070
     5
1000

1070
   173
1070
     1
1070
     7
1000
OPEN30
1002
}
  0
DIMENSION
  5
1295
330
A
100
AcDbEntity
  8
SUNPOU
100
AcDbDimension
  2
*D10
 10
141.6920933167646
 20
58.00750560421374
 30
0.0
 11
136.6920933167647
 21
62.50750560421376
 31
0.0
 70
    32
  3
SUNPOU_2
100
AcDbAlignedDimension
 13
131.6920933167647
 23
68.41793188411735
 33
0.0
 14
141.6920933167646
 24
74.71600477411732
 34
0.0
100
AcDbRotatedDimension
  0
DIMENSION
  5
12A4
330
A
100
AcDbEntity
  8
SUNPOU
100
AcDbDimension
  2
*D11
 10
186.6920933167646
 20
58.00750560421374
 30
0.0
 11
164.1920933167646
 21
62.50750560421376
 31
0.0
 70
    32
  3
SUNPOU_2
100
AcDbAlignedDimension
 13
141.6920933167646
 23
74.71600477411732
 33
0.0
 14
186.6920933167646
 24
64.38794671411733
 34
0.0
100
AcDbRotatedDimension
  0
DIMENSION
  5
12B1
330
A
100
AcDbEntity
  8
SUNPOU
100
AcDbDimension
  2
*D12
 10
231.6920933167646
 20
58.00750560421374
 30
0.0
 11
209.1920933167646
 21
62.50750560421376
 31
0.0
 70
    32
  3
SUNPOU_2
100
AcDbAlignedDimension
 13
186.6920933167646
 23
64.38794671411733
 33
0.0
 14
231.6920933167646
 24
74.71600477411732
 34
0.0
100
AcDbRotatedDimension
  0
DIMENSION
  5
12BE
330
A
100
AcDbEntity
  8
SUNPOU
100
AcDbDimension
  2
*D13
 10
276.6920933167646
 20
58.00750560421374
 30
0.0
 11
254.1920933167646
 21
62.50750560421376
 31
0.0
 70
    32
  3
SUNPOU_2
100
AcDbAlignedDimension
 13
231.6920933167646
 23
74.71600477411732
 33
0.0
 14
276.6920933167646
 24
74.71600477411732
 34
0.0
100
AcDbRotatedDimension
  0
DIMENSION
  5
12CB
330
A
100
AcDbEntity
  8
SUNPOU
100
AcDbDimension
  2
*D14
 10
321.6920933167646
 20
58.00750560421374
 30
0.0
 11
299.1920933167646
 21
62.50750560421376
 31
0.0
 70
    32
  3
SUNPOU_2
100
AcDbAlignedDimension
 13
276.6920933167646
 23
74.71600477411732
 33
0.0
 14
321.6920933167646
 24
74.71600477411732
 34
0.0
100
AcDbRotatedDimension
  0
DIMENSION
  5
12D8
330
A
100
AcDbEntity
  8
SUNPOU
100
AcDbDimension
  2
*D15
 10
331.6920933167646
 20
58.00750560421374
 30
0.0
 11
326.6920933167646
 21
62.50750560421376
 31
0.0
 70
    32
  3
SUNPOU_2
100
AcDbAlignedDimension
 13
321.6920933167646
 23
74.71600477411732
 33
0.0
 14
331.6920933167646
 24
68.41793188411735
 34
0.0
100
AcDbRotatedDimension
  0
DIMENSION
  5
12E7
330
A
100
AcDbEntity
  8
SUNPOU
100
AcDbDimension
  2
*D16
 10
347.6920933167646
 20
100.4179318841172
 30
0.0
 11
343.1920933167646
 21
84.41793188411741
 31
0.0
 70
    32
  3
SUNPOU_2
100
AcDbAlignedDimension
 13
331.6920933167646
 23
68.41793188411735
 33
0.0
 14
331.6920933167646
 24
100.4179318841172
 34
0.0
 50
90.0
100
AcDbRotatedDimension
  0
DIMENSION
  5
12F4
330
A
100
AcDbEntity
  8
SUNPOU
100
AcDbDimension
  2
*D17
 10
131.6920933167647
 20
47.18972980144985
 30
0.0
 11
231.6920933167646
 21
51.68972980144985
 31
0.0
 70
    32
  3
SUNPOU_2
100
AcDbAlignedDimension
 13
331.6920933167646
 23
68.41793188411735
 33
0.0
 14
131.6920933167647
 24
68.41793188411735
 34
0.0
100
AcDbRotatedDimension
  0
LEADER
  5
1304
330
A
100
AcDbEntity
  8
HIKIDASI
100
AcDbLeader
  3
SUNPOU_2
 73
     0
 75
     1
 40
5.0
 41
35.19999999999999
 76
     3
 10
137.0124121364793
 20
80.66285744399186
 30
0.0
 10
111.6745522567647
 20
56.31912160411736
 30
0.0
 10
106.6745522567646
 20
56.31912160411736
 30
0.0
340
1305
1001
ACAD
1000
DSTYLE
1002
{
1070
     5
1000
OPEN30
1070
    77
1070
     1
1070
   147
1040
1.0
1002
}
1000
LEANOF
1010
0.0
1020
0.0
1030
0.0
  0
MTEXT
  5
1305
330
A
100
AcDbEntity
  8
HIKIDASI
100
AcDbMText
 10
104.6745522567646
 20
58.31912160411736
 30
0.0
 40
5.0
 41
0.0
 71
     9
 72
     1
  1
4-φ6(皿モミ)
  7
SUNPOU
1001
ACAD
1000
MTEXTBEGIN
1070
    73
1070
     1
1070
    44
1040
1.0
1070
    74
1070
     0
1000
MTEXTEND
1000
MTEXTBEGIN
1070
    73
1070
     1
1070
    44
1040
1.0
1070
    74
1070
     0
1000
MTEXTEND
  0
MTEXT
  5
1306
330
A
100
AcDbEntity
  8
MOJI
100
AcDbMText
 10
95.85937903917075
 20
84.99079447060774
 30
0.0
 40
6.0
 41
47.58870816086364
 71
     5
 72
     1
  1
上部アーム(t12)
1001
ACAD
1000
MTEXTBEGIN
1070
    73
1070
     1
1070
    44
1040
1.0
1070
    74
1070
     0
1000
MTEXTEND
1000
MTEXTBEGIN
1070
    73
1070
     1
1070
    44
1040
1.0
1070
    74
1070
     0
1000
MTEXTEND
  0
LEADER
  5
1307
330
A
100
AcDbEntity
  8
HIKIDASI
100
AcDbLeader
  3
SUNPOU_2
 73
     0
 74
     0
 75
     1
 40
5.833333333333332
 41
71.60000000000002
 76
     3
 10
232.9551588338372
 20
316.1650177274477
 30
0.0
 10
238.9511240156056
 20
298.1548466115262
 30
0.0
 10
243.9511240156057
 20
298.1548466115262
 30
0.0
340
1308
1001
ACAD
1000
DSTYLE
1002
{
1070
     5
1000
OPEN30
1070
    77
1070
     1
1070
   147
1040
1.0
1002
}
1000
LEANOF
1010
0.0
1020
0.0
1030
0.0
  0
MTEXT
  5
1308
330
A
100
AcDbEntity
  8
HIKIDASI
100
AcDbMText
 10
245.9511240156057
 20
300.1548466115262
 30
0.0
 40
5.0
 41
0.0
 71
     7
 72
     1
  1
HB-SD,DD-2用ガイドローラ
  7
SUNPOU
1001
ACAD
1000
MTEXTBEGIN
1070
    73
1070
     1
1070
    44
1040
1.0
1070
    74
1070
     0
1000
MTEXTEND
1000
MTEXTBEGIN
1070
    73
1070
     1
1070
    44
1040
1.0
1070
    74
1070
     0
1000
MTEXTEND
  0
LEADER
  5
1309
330
A
100
AcDbEntity
  8
HIKIDASI
100
AcDbLeader
  3
SUNPOU_2
 73
     0
 75
     1
 40
13.33333333333333
 41
28.0
 76
     3
 10
161.3198119934954
 20
357.1650177274476
 30
0.0
 10
117.8702172004564
 20
400.146540422515
 30
0.0
 10
112.8702172004564
 20
400.146540422515
 30
0.0
340
130A
213
0.0
223
8.446824729662466
233
0.0
1001
ACAD
1000
DSTYLE
1002
{
1070
     5
1000
OPEN30
1070
    77
1070
     1
1070
   147
1040
1.0
1002
}
1000
LEANOF
1010
0.0
1020
8.446824729662466
1030
0.0
  0
MTEXT
  5
130A
330
A
100
AcDbEntity
  8
HIKIDASI
100
AcDbMText
 10
96.87021720045642
 20
400.3663823595193
 30
0.0
 40
5.0
 41
0.0
 71
     5
 72
     1
  1
M8タップ\P(サッシ工事)
  7
SUNPOU
1001
ACAD
1000
MTEXTBEGIN
1070
    73
1070
     1
1070
    44
1040
1.0
1070
    74
1070
     0
1000
MTEXTEND
1000
MTEXTBEGIN
1070
    73
1070
     1
1070
    44
1040
1.0
1070
    74
1070
     0
1000
MTEXTEND
  0
LEADER
  5
130B
330
A
100
AcDbEntity
  8
HIKIDASI
100
AcDbLeader
  3
SUNPOU_2
 73
     0
 74
     0
 75
     1
 40
5.833333333333332
 41
36.66666666666666
 76
     3
 10
280.3198119934954
 20
411.9396170074477
 30
0.0
 10
324.3803736421363
 20
467.409237056536
 30
0.0
 10
329.3803736421363
 20
467.409237056536
 30
0.0
340
130C
1001
ACAD
1000
DSTYLE
1002
{
1070
     5
1000
OPEN30
1070
    77
1070
     1
1070
   147
1040
1.0
1002
}
1000
LEANOF
1010
0.0
1020
0.0
1030
0.0
  0
MTEXT
  5
130C
330
A
100
AcDbEntity
  8
HIKIDASI
100
AcDbMText
 10
331.3803736421363
 20
469.409237056536
 30
0.0
 40
5.0
 41
0.0
 71
     7
 72
     1
  1
HB-SD,DD-2
  7
SUNPOU
1001
ACAD
1000
MTEXTBEGIN
1070
    73
1070
     1
1070
    44
1040
1.0
1070
    74
1070
     0
1000
MTEXTEND
1000
MTEXTBEGIN
1070
    73
1070
     1
1070
    44
1040
1.0
1070
    74
1070
     0
1000
MTEXTEND
  0
LEADER
  5
152C
330
A
100
AcDbEntity
  8
HIKIDASI
100
AcDbLeader
  3
SUNPOU_2
 73
     0
 75
     1
 40
5.0
 41
34.93333333333333
 76
     3
 10
128.0676770972357
 20
331.860916049367
 30
0.0
 10
115.5155331383234
 20
311.6753916798903
 30
0.0
 10
110.5155331383234
 20
311.6753916798903
 30
0.0
340
152D
1001
ACAD
1000
DSTYLE
1002
{
1070
     5
1000
OPEN30
1070
    77
1070
     1
1070
   147
1040
1.0
1002
}
1000
LEANOF
1010
0.0
1020
0.0
1030
0.0
  0
MTEXT
  5
152D
330
A
100
AcDbEntity
  8
HIKIDASI
100
AcDbMText
 10
108.5155331383234
 20
313.6753916798903
 30
0.0
 40
5.0
 41
0.0
 71
     9
 72
     1
  1
L-40×40×5
  7
SUNPOU
1001
ACAD
1000
MTEXTBEGIN
1070
    73
1070
     1
1070
    44
1040
1.0
1070
    74
1070
     0
1000
MTEXTEND
1000
MTEXTBEGIN
1070
    73
1070
     1
1070
    44
1040
1.0
1070
    74
1070
     0
1000
MTEXTEND
  0
DIMENSION
  5
1556
330
A
100
AcDbEntity
  8
SUNPOU
100
AcDbDimension
  2
*D18
 10
371.349229940098
 20
341.1650177274477
 30
0.0
 11
366.849229940098
 21
328.6650177274477
 31
0.0
 70
    32
  3
SUNPOU_2
100
AcDbAlignedDimension
 13
316.7198119934955
 23
316.1650177274476
 33
0.0
 14
316.7198119934955
 24
341.1650177274477
 34
0.0
 50
90.0
100
AcDbRotatedDimension
  0
DIMENSION
  5
1570
330
A
100
AcDbEntity
  8
SUNPOU
100
AcDbDimension
  2
*D19
 10
371.3492299400982
 20
541.1650177274476
 30
0.0
 11
366.849229940098
 21
441.1650177274479
 31
0.0
 70
    32
  3
SUNPOU_2
100
AcDbAlignedDimension
 13
316.7198119934955
 23
341.1650177274477
 33
0.0
 14
316.7198119934955
 24
541.1650177274476
 34
0.0
 50
90.0
100
AcDbRotatedDimension
  0
DIMENSION
  5
157D
330
A
100
AcDbEntity
  8
SUNPOU
100
AcDbDimension
  2
*D20
 10
371.3492299400982
 20
566.1650177274477
 30
0.0
 11
366.849229940098
 21
553.6650177274479
 31
0.0
 70
    32
  3
SUNPOU_2
100
AcDbAlignedDimension
 13
316.7198119934955
 23
541.1650177274476
 33
0.0
 14
331.3829479558971
 24
566.1650177274477
 34
0.0
 50
90.0
100
AcDbRotatedDimension
  0
LEADER
  5
158B
330
A
100
AcDbEntity
  8
HIKIDASI
100
AcDbLeader
  3
SUNPOU_2
 73
     0
 74
     0
 75
     1
 40
13.33333333333333
 41
65.06666666666672
 76
     3
 10
230.0954251123144
 20
201.9048278546388
 30
0.0
 10
245.5530462590594
 20
192.8782204762244
 30
0.0
 10
250.5530462590594
 20
192.8782204762244
 30
0.0
340
158C
213
0.0
223
8.736832682042402
233
0.0
1001
ACAD
1000
DSTYLE
1002
{
1070
     5
1000
OPEN30
1070
    77
1070
     1
1070
   147
1040
1.0
1002
}
1000
LEANOF
1010
0.0
1020
8.736832682042402
1030
0.0
  0
MTEXT
  5
158C
330
A
100
AcDbEntity
  8
HIKIDASI
100
AcDbMText
 10
285.0863795923928
 20
192.8080544608486
 30
0.0
 40
5.0
 41
0.0
 71
     5
 72
     1
  1
ピポットヒンジ(S-15A相当)\P(サッシ工事)
  7
SUNPOU
1001
ACAD
1000
MTEXTBEGIN
1070
    73
1070
     1
1070
    44
1040
1.0
1070
    74
1070
     0
1000
MTEXTEND
1000
MTEXTBEGIN
1070
    73
1070
     1
1070
    44
1040
1.0
1070
    74
1070
     0
1000
MTEXTEND
  0
DIMENSION
  5
158D
330
A
100
AcDbEntity
  8
SUNPOU
100
AcDbDimension
  2
*D21
 10
124.3198119934955
 20
275.8222468804938
 30
0.0
 11
113.0
 21
282.1102067645465
 31
0.0
 70
   160
  3
SUNPOU_2
100
AcDbAlignedDimension
 13
121.3198119934955
 23
278.8065148674476
 33
0.0
 14
124.3198119934955
 24
317.7650177274476
 34
0.0
100
AcDbRotatedDimension
  0
DIMENSION
  5
159C
330
A
100
AcDbEntity
  8
SUNPOU
100
AcDbDimension
  2
*D22
 10
221.3198119934954
 20
275.8222468804938
 30
0.0
 11
172.8198119934954
 21
280.3222468804938
 31
0.0
 70
    32
  3
SUNPOU_2
100
AcDbAlignedDimension
 13
124.3198119934955
 23
317.7650177274476
 33
0.0
 14
221.3198119934954
 24
275.8222468804938
 34
0.0
100
AcDbRotatedDimension
  0
DIMENSION
  5
15A9
330
A
100
AcDbEntity
  8
SUNPOU
100
AcDbDimension
  2
*D23
 10
318.3198119934956
 20
275.8222468804938
 30
0.0
 11
269.8198119934954
 21
280.3222468804938
 31
0.0
 70
    32
  3
SUNPOU_2
100
AcDbAlignedDimension
 13
221.3198119934954
 23
275.8222468804938
 33
0.0
 14
318.3198119934956
 24
317.7650177274476
 34
0.0
100
AcDbRotatedDimension
  0
DIMENSION
  5
15B6
330
A
100
AcDbEntity
  8
SUNPOU
100
AcDbDimension
  2
*D24
 10
321.3198119934954
 20
275.8222468804938
 30
0.0
 11
326.8046222033966
 21
281.8160742399418
 31
0.0
 70
   160
  3
SUNPOU_2
100
AcDbAlignedDimension
 13
318.3198119934956
 23
317.7650177274476
 33
0.0
 14
321.3198119934954
 24
293.0688480374477
 34
0.0
100
AcDbRotatedDimension
  0
DIMENSION
  5
160C
330
A
100
AcDbEntity
  8
SUNPOU
100
AcDbDimension
  2
*D25
 10
321.3198119934954
 20
257.8210345870119
 30
0.0
 11
228.4491105213496
 21
262.8663596897627
 31
0.0
 70
   160
  3
SUNPOU_2
100
AcDbAlignedDimension
 13
121.3198119934955
 23
258.898029981142
 33
0.0
 14
321.3198119934954
 24
257.8210345870119
 34
0.0
100
AcDbRotatedDimension
  0
DIMENSION
  5
1622
330
A
100
AcDbEntity
  8
SUNPOU
100
AcDbDimension
  2
*D26
 10
371.349229940098
 20
211.0216547874475
 30
0.0
 11
366.849229940098
 21
263.5933362574476
 31
0.0
 70
    32
  1
H
  3
SUNPOU_2
100
AcDbAlignedDimension
 13
316.7198119934955
 23
316.1650177274476
 33
0.0
 14
354.2920172667662
 24
211.0216547874475
 34
0.0
 50
90.0
100
AcDbRotatedDimension
  0
DIMENSION
  5
165C
330
A
100
AcDbEntity
  8
SUNPOU
100
AcDbDimension
  2
*D27
 10
356.2920172667662
 20
313.1650177274477
 30
0.0
 11
363.0318679088272
 21
314.0894466373126
 31
0.0
 70
   160
  3
SUNPOU_2
100
AcDbAlignedDimension
 13
316.7198119934955
 23
316.1650177274476
 33
0.0
 14
241.3198119934956
 24
313.1650177274477
 34
0.0
 50
90.0
100
AcDbRotatedDimension
  0
DIMENSION
  5
166B
330
A
100
AcDbEntity
  8
SUNPOU
100
AcDbDimension
  2
*D28
 10
356.2920172667662
 20
221.0216547874475
 30
0.0
 11
351.7920172667662
 21
267.0933362574476
 31
0.0
 70
    32
  1
DH
  3
SUNPOU_2
100
AcDbAlignedDimension
 13
241.3198119934956
 23
313.1650177274477
 33
0.0
 14
241.3198119934956
 24
221.0216547874476
 34
0.0
 50
90.0
100
AcDbRotatedDimension
  0
DIMENSION
  5
1678
330
A
100
AcDbEntity
  8
SUNPOU
100
AcDbDimension
  2
*D29
 10
356.2920172667662
 20
211.0216547874475
 30
0.0
 11
351.7920172667662
 21
216.0216547874477
 31
0.0
 70
    32
  3
SUNPOU_2
100
AcDbAlignedDimension
 13
241.3198119934956
 23
221.0216547874476
 33
0.0
 14
356.3517039014536
 24
211.0216547874475
 34
0.0
 50
90.0
100
AcDbRotatedDimension
  0
DIMENSION
  5
1791
330
A
100
AcDbEntity
  8
SUNPOU
100
AcDbDimension
  2
*D31
 10
241.3198119934956
 20
279.5635036363598
 30
0.0
 11
221.3198119934954
 21
284.0635036363599
 31
0.0
 70
    32
  3
SUNPOU_2
100
AcDbAlignedDimension
 13
201.3198119934954
 23
280.8807462442785
 33
0.0
 14
241.3198119934956
 24
280.8807462442785
 34
0.0
100
AcDbRotatedDimension
  0
MTEXT
  5
17A9
330
A
100
AcDbEntity
  8
MOJI
100
AcDbMText
 10
382.5027391848056
 20
215.7913348041014
 30
0.0
 40
5.0
 41
10.77082737428891
 71
     5
 72
     1
  1
F.L
1001
ACAD
1000
MTEXTBEGIN
1070
    73
1070
     1
1070
    44
1040
1.0
1070
    74
1070
     0
1000
MTEXTEND
1000
MTEXTBEGIN
1070
    73
1070
     1
1070
    44
1040
1.0
1070
    74
1070
     0
1000
MTEXTEND
  0
ARC
  5
17AA
330
A
100
AcDbEntity
  8
06
100
AcDbCircle
 10
215.6962003634954
 20
492.2776649774476
 30
0.0
 40
2.88735274999999
100
AcDbArc
 50
89.99999999999777
 51
130.5313949399983
  0
LINE
  5
17AC
330
A
100
AcDbEntity
  8
06
100
AcDbLine
 10
213.6198119934955
 20
489.6650177274477
 30
0.0
 11
213.8198119934954
 21
489.6650177274477
 31
0.0
  0
LINE
  5
17AD
330
A
100
AcDbEntity
  8
06
100
AcDbLine
 10
229.0198119934955
 20
489.6650177274477
 30
0.0
 11
228.8198119934956
 21
489.6650177274477
 31
0.0
  0
LINE
  5
17AF
330
A
100
AcDbEntity
  8
06
100
AcDbLine
 10
213.6198119934955
 20
487.6650177274476
 30
0.0
 11
206.3198119934956
 21
487.6650177274476
 31
0.0
  0
LINE
  5
17B0
330
A
100
AcDbEntity
  8
06
100
AcDbLine
 10
229.0198119934955
 20
487.6650177274476
 30
0.0
 11
236.3198119934954
 21
487.6650177274476
 31
0.0
  0
LINE
  5
17B1
330
A
100
AcDbEntity
  8
06
100
AcDbLine
 10
236.3198119934954
 20
484.6650177274476
 30
0.0
 11
258.2298119934955
 21
484.6650177274476
 31
0.0
  0
LINE
  5
17B2
330
A
100
AcDbEntity
  8
06
100
AcDbLine
 10
206.3198119934956
 20
484.6650177274476
 30
0.0
 11
184.4098119934955
 21
484.6650177274476
 31
0.0
  0
LINE
  5
17B3
330
A
100
AcDbEntity
  8
06
100
AcDbLine
 10
196.3198119934956
 20
480.4650177274476
 30
0.0
 11
184.4098119934955
 21
480.4650177274476
 31
0.0
  0
LINE
  5
17B4
330
A
100
AcDbEntity
  8
06
100
AcDbLine
 10
246.3198119934954
 20
480.4650177274476
 30
0.0
 11
258.2298119934955
 21
480.4650177274476
 31
0.0
  0
LINE
  5
17B5
330
A
100
AcDbEntity
  8
06
100
AcDbLine
 10
208.3198119934956
 20
464.6650177274477
 30
0.0
 11
196.3198119934956
 21
464.6650177274477
 31
0.0
  0
LINE
  5
17B7
330
A
100
AcDbEntity
  8
06
100
AcDbLine
 10
234.3198119934954
 20
464.6650177274477
 30
0.0
 11
246.3198119934954
 21
464.6650177274477
 31
0.0
  0
LINE
  5
17B8
330
A
100
AcDbEntity
  8
06
100
AcDbLine
 10
232.8198119934956
 20
454.6650177274476
 30
0.0
 11
234.3198119934954
 21
454.6650177274476
 31
0.0
  0
LINE
  5
17B9
330
A
100
AcDbEntity
  8
06
100
AcDbLine
 10
208.8198119934954
 20
443.1650177274476
 30
0.0
 11
188.3198119934954
 21
443.1650177274476
 31
0.0
  0
LINE
  5
17BA
330
A
100
AcDbEntity
  8
06
100
AcDbLine
 10
233.8198119934954
 20
443.1650177274476
 30
0.0
 11
254.3198119934956
 21
443.1650177274476
 31
0.0
  0
LINE
  5
17BC
330
A
100
AcDbEntity
  8
06
100
AcDbLine
 10
188.3198119934954
 20
441.1650177274476
 30
0.0
 11
162.3198119934954
 21
441.1650177274476
 31
0.0
  0
LINE
  5
17BD
330
A
100
AcDbEntity
  8
06
100
AcDbLine
 10
254.3198119934956
 20
441.1650177274476
 30
0.0
 11
280.3198119934954
 21
441.1650177274476
 31
0.0
  0
LINE
  5
17BE
330
A
100
AcDbEntity
  8
06
100
AcDbLine
 10
282.3198119934954
 20
431.1650177274477
 30
0.0
 11
160.3198119934955
 21
431.1650177274477
 31
0.0
  0
LINE
  5
17C0
330
A
100
AcDbEntity
  8
06
100
AcDbLine
 10
148.3198119934955
 20
368.2650177274477
 30
0.0
 11
147.2198119934955
 21
368.2650177274477
 31
0.0
  0
LINE
  5
17C1
330
A
100
AcDbEntity
  8
06
100
AcDbLine
 10
158.3198119934955
 20
368.2650177274477
 30
0.0
 11
159.4198119934955
 21
368.2650177274477
 31
0.0
  0
LINE
  5
17C2
330
A
100
AcDbEntity
  8
06
100
AcDbLine
 10
159.4198119934955
 20
366.7650177274476
 30
0.0
 11
159.5698119934955
 21
366.7650177274476
 31
0.0
  0
LINE
  5
17C3
330
A
100
AcDbEntity
  8
06
100
AcDbLine
 10
147.2198119934955
 20
366.7650177274476
 30
0.0
 11
147.0698119934955
 21
366.7650177274476
 31
0.0
  0
LINE
  5
17C4
330
A
100
AcDbEntity
  8
06
100
AcDbLine
 10
150.3198119934956
 20
373.2650177274476
 30
0.0
 11
148.3198119934955
 21
373.2650177274476
 31
0.0
  0
LINE
  5
17C5
330
A
100
AcDbEntity
  8
06
100
AcDbLine
 10
156.3198119934956
 20
373.2650177274476
 30
0.0
 11
158.3198119934955
 21
373.2650177274476
 31
0.0
  0
ARC
  5
17C6
330
A
100
AcDbEntity
  8
06
100
AcDbCircle
 10
155.6962003634954
 20
363.3776649774478
 30
0.0
 40
2.887352749999877
100
AcDbArc
 50
89.99999999999721
 51
130.5313949399993
  0
LINE
  5
17C8
330
A
100
AcDbEntity
  8
06
100
AcDbLine
 10
153.8198119934954
 20
360.7650177274476
 30
0.0
 11
153.6198119934955
 21
360.7650177274476
 31
0.0
  0
LINE
  5
17C9
330
A
100
AcDbEntity
  8
06
100
AcDbLine
 10
153.6198119934955
 20
358.7650177274476
 30
0.0
 11
152.8198119934955
 21
358.7650177274476
 31
0.0
  0
LINE
  5
17CA
330
A
100
AcDbEntity
  8
06
100
AcDbLine
 10
168.8198119934956
 20
360.7650177274476
 30
0.0
 11
169.0198119934954
 21
360.7650177274476
 31
0.0
  0
LINE
  5
17CB
330
A
100
AcDbEntity
  8
06
100
AcDbLine
 10
169.0198119934954
 20
358.7650177274476
 30
0.0
 11
169.8198119934955
 21
358.7650177274476
 31
0.0
  0
LINE
  5
17CD
330
A
100
AcDbEntity
  8
06
100
AcDbLine
 10
284.3198119934951
 20
368.2650177274473
 30
0.0
 11
284.3198119934951
 21
373.2650177274472
 31
0.0
  0
LINE
  5
17CE
330
A
100
AcDbEntity
  8
06
100
AcDbLine
 10
294.3198119934951
 20
373.2650177274472
 30
0.0
 11
294.3198119934951
 21
368.2650177274473
 31
0.0
  0
LINE
  5
17D1
330
A
100
AcDbEntity
  8
06
100
AcDbLine
 10
294.3198119934951
 20
365.1650177274472
 30
0.0
 11
288.8198119934951
 21
365.1650177274472
 31
0.0
  0
ARC
  5
17D4
330
A
100
AcDbEntity
  8
06
100
AcDbCircle
 10
286.9434236234953
 20
363.3776649774473
 30
0.0
 40
2.887352749999877
100
AcDbArc
 50
49.46860506000028
 51
90.00000000000248
  0
LINE
  5
17D7
330
A
100
AcDbEntity
  8
06
100
AcDbLine
 10
283.2198119934951
 20
366.7650177274472
 30
0.0
 11
283.0698119934952
 21
366.7650177274472
 31
0.0
  0
LINE
  5
17D8
330
A
100
AcDbEntity
  8
06
100
AcDbLine
 10
284.3198119934951
 20
368.2650177274473
 30
0.0
 11
283.2198119934951
 21
368.2650177274473
 31
0.0
  0
LINE
  5
17D9
330
A
100
AcDbEntity
  8
06
100
AcDbLine
 10
283.2198119934951
 20
368.2650177274473
 30
0.0
 11
283.2198119934951
 21
366.7650177274472
 31
0.0
  0
LINE
  5
17DA
330
A
100
AcDbEntity
  8
06
100
AcDbLine
 10
283.0698119934952
 20
366.7650177274472
 30
0.0
 11
283.0698119934952
 21
366.2650177274473
 31
0.0
  0
LINE
  5
17DE
330
A
100
AcDbEntity
  8
06
100
AcDbLine
 10
287.3198119934952
 20
376.1650177274472
 30
0.0
 11
291.3198119934953
 21
376.1650177274472
 31
0.0
  0
LINE
  5
17E0
330
A
100
AcDbEntity
  8
06
100
AcDbLine
 10
292.3198119934951
 20
373.2650177274472
 30
0.0
 11
294.3198119934951
 21
373.2650177274472
 31
0.0
  0
LINE
  5
17E1
330
A
100
AcDbEntity
  8
06
100
AcDbLine
 10
292.3198119934951
 20
375.1650177274472
 30
0.0
 11
292.3198119934951
 21
373.2650177274472
 31
0.0
  0
LINE
  5
17E2
330
A
100
AcDbEntity
  8
06
100
AcDbLine
 10
292.3198119934951
 20
375.1650177274472
 30
0.0
 11
291.3198119934953
 21
376.1650177274472
 31
0.0
  0
LINE
  5
17E4
330
A
100
AcDbEntity
  8
06
100
AcDbLine
 10
286.3198119934951
 20
375.1650177274472
 30
0.0
 11
287.3198119934952
 21
376.1650177274472
 31
0.0
  0
LINE
  5
17E6
330
A
100
AcDbEntity
  8
06
100
AcDbLine
 10
286.3198119934951
 20
373.2650177274472
 30
0.0
 11
284.3198119934951
 21
373.2650177274472
 31
0.0
  0
LINE
  5
17E7
330
A
100
AcDbEntity
  8
06
100
AcDbLine
 10
286.3198119934951
 20
375.1650177274472
 30
0.0
 11
286.3198119934951
 21
373.2650177274472
 31
0.0
  0
LINE
  5
17E8
330
A
100
AcDbEntity
  8
06
100
AcDbLine
 10
288.8198119934951
 20
365.1650177274472
 30
0.0
 11
295.5698119934952
 21
365.1650177274472
 31
0.0
  0
LINE
  5
17E9
330
A
100
AcDbEntity
  8
06
100
AcDbLine
 10
295.5698119934952
 20
365.1650177274472
 30
0.0
 11
295.5698119934952
 21
366.7650177274472
 31
0.0
  0
LINE
  5
17EB
330
A
100
AcDbEntity
  8
06
100
AcDbLine
 10
294.3198119934951
 20
368.2650177274473
 30
0.0
 11
295.4198119934951
 21
368.2650177274472
 31
0.0
  0
LINE
  5
17EC
330
A
100
AcDbEntity
  8
06
100
AcDbLine
 10
295.4198119934951
 20
366.7650177274472
 30
0.0
 11
295.5698119934952
 21
366.7650177274472
 31
0.0
  0
LINE
  5
17ED
330
A
100
AcDbEntity
  8
06
100
AcDbLine
 10
295.4198119934951
 20
366.7650177274472
 30
0.0
 11
295.4198119934951
 21
368.2650177274472
 31
0.0
  0
LINE
  5
17EE
330
A
100
AcDbEntity
  8
06
100
AcDbLine
 10
275.6962003734951
 20
366.2650177274473
 30
0.0
 11
286.9434236234953
 21
366.2650177274473
 31
0.0
  0
LINE
  5
17EF
330
A
100
AcDbEntity
  8
06
100
AcDbLine
 10
288.8198119934951
 20
360.7650177274472
 30
0.0
 11
288.8198119934951
 21
365.5721974074472
 31
0.0
  0
LINE
  5
17F1
330
A
100
AcDbEntity
  8
06
100
AcDbLine
 10
273.819811993495
 20
360.7650177274473
 30
0.0
 11
273.8198119934951
 21
365.5721974074473
 31
0.0
  0
LINE
  5
17F5
330
A
100
AcDbEntity
  8
06
100
AcDbLine
 10
272.8198119934952
 20
357.1650177274473
 30
0.0
 11
289.8198119934951
 21
357.1650177274472
 31
0.0
  0
LINE
  5
17F6
330
A
100
AcDbEntity
  8
06
100
AcDbLine
 10
289.0198119934952
 20
358.7650177274472
 30
0.0
 11
289.8198119934951
 21
358.7650177274472
 31
0.0
  0
LINE
  5
17F7
330
A
100
AcDbEntity
  8
06
100
AcDbLine
 10
288.8198119934951
 20
360.7650177274472
 30
0.0
 11
289.0198119934952
 21
360.7650177274472
 31
0.0
  0
LINE
  5
17F8
330
A
100
AcDbEntity
  8
06
100
AcDbLine
 10
289.0198119934952
 20
358.7650177274472
 30
0.0
 11
289.0198119934952
 21
360.7650177274472
 31
0.0
  0
LINE
  5
17F9
330
A
100
AcDbEntity
  8
06
100
AcDbLine
 10
289.8198119934951
 20
357.1650177274472
 30
0.0
 11
289.8198119934951
 21
358.7650177274472
 31
0.0
  0
LINE
  5
17FC
330
A
100
AcDbEntity
  8
06
100
AcDbLine
 10
273.6198119934952
 20
358.7650177274473
 30
0.0
 11
272.8198119934952
 21
358.7650177274473
 31
0.0
  0
LINE
  5
17FD
330
A
100
AcDbEntity
  8
06
100
AcDbLine
 10
273.819811993495
 20
360.7650177274473
 30
0.0
 11
273.6198119934952
 21
360.7650177274473
 31
0.0
  0
LINE
  5
17FE
330
A
100
AcDbEntity
  8
06
100
AcDbLine
 10
273.6198119934952
 20
358.7650177274473
 30
0.0
 11
273.6198119934952
 21
360.7650177274473
 31
0.0
  0
LINE
  5
17FF
330
A
100
AcDbEntity
  8
06
100
AcDbLine
 10
272.8198119934952
 20
357.1650177274473
 30
0.0
 11
272.8198119934952
 21
358.7650177274473
 31
0.0
  0
ARC
  5
1800
330
A
100
AcDbEntity
  8
06
100
AcDbCircle
 10
275.6962003734953
 20
363.3776649774483
 30
0.0
 40
2.887352749999266
100
AcDbArc
 50
89.99999999999552
 51
130.531394940006
  0
ARC
  5
1803
330
A
100
AcDbEntity
  8
04
100
AcDbCircle
 10
217.0131876634946
 20
332.7970325774501
 30
0.0
 40
2.367985149997423
100
AcDbArc
 50
89.99999999997662
 51
127.5560664400179
  0
ARC
  5
1806
330
A
100
AcDbEntity
  8
04
100
AcDbCircle
 10
225.6264363234965
 20
332.7970325774501
 30
0.0
 40
2.367985149997423
100
AcDbArc
 50
52.44393355998202
 51
90.00000000002339
  0
ARC
  5
1808
330
A
100
AcDbEntity
  8
04
100
AcDbCircle
 10
225.6264363234957
 20
332.5330028774473
 30
0.0
 40
2.367985149999733
100
AcDbArc
 50
269.9999999999957
 51
307.5560664399997
  0
LINE
  5
1809
330
A
100
AcDbEntity
  8
04
100
AcDbLine
 10
217.0131876634955
 20
335.1650177274476
 30
0.0
 11
218.3198119934956
 21
335.1650177274476
 31
0.0
  0
LINE
  5
180A
330
A
100
AcDbEntity
  8
04
100
AcDbLine
 10
224.3198119934954
 20
335.1650177274477
 30
0.0
 11
225.6264363234954
 21
335.1650177274476
 31
0.0
  0
LINE
  5
180B
330
A
100
AcDbEntity
  8
04
100
AcDbLine
 10
215.3198119934955
 20
315.1650177274477
 30
0.0
 11
211.3198119934954
 21
315.1650177274477
 31
0.0
  0
LINE
  5
180C
330
A
100
AcDbEntity
  8
04
100
AcDbLine
 10
227.3198119934956
 20
315.1650177274477
 30
0.0
 11
231.3198119934956
 21
315.1650177274477
 31
0.0
  0
LINE
  5
180D
330
A
100
AcDbEntity
  8
04
100
AcDbLine
 10
211.3198119934954
 20
315.1650177274477
 30
0.0
 11
211.3198119934954
 21
310.1650177274477
 31
0.0
  0
LINE
  5
180F
330
A
100
AcDbEntity
  8
04
100
AcDbLine
 10
231.3198119934956
 20
315.1650177274477
 30
0.0
 11
231.3198119934956
 21
310.1650177274477
 31
0.0
  0
LINE
  5
1810
330
A
100
AcDbEntity
  8
03
100
AcDbLine
 10
203.3198119934954
 20
209.5216547874477
 30
0.0
 11
205.3198119934954
 21
209.5216547874477
 31
0.0
  0
LINE
  5
1811
330
A
100
AcDbEntity
  8
03
100
AcDbLine
 10
237.3198119934956
 20
209.5216547874477
 30
0.0
 11
239.3198119934956
 21
209.5216547874477
 31
0.0
  0
LINE
  5
1812
330
A
100
AcDbEntity
  8
03
100
AcDbLine
 10
246.3198119934954
 20
189.5216547874476
 30
0.0
 11
237.3198119934956
 21
189.5216547874476
 31
0.0
  0
LINE
  5
1814
330
A
100
AcDbEntity
  8
03
100
AcDbLine
 10
205.3198119934954
 20
189.5216547874476
 30
0.0
 11
196.3198119934956
 21
189.5216547874476
 31
0.0
  0
LINE
  5
181E
330
A
100
AcDbEntity
  8
04
100
AcDbLine
 10
211.3198119934954
 20
310.1650177274477
 30
0.0
 11
205.3198119934954
 21
310.1650177274477
 31
0.0
  0
LINE
  5
181F
330
A
100
AcDbEntity
  8
04
100
AcDbLine
 10
231.3198119934956
 20
310.1650177274477
 30
0.0
 11
237.3198119934956
 21
310.1650177274477
 31
0.0
  0
LINE
  5
1821
330
A
100
AcDbEntity
  8
03
100
AcDbLine
 10
208.8198119934954
 20
243.0216547874477
 30
0.0
 11
208.8198119934954
 21
246.0216547874476
 31
0.0
  0
LINE
  5
1822
330
A
100
AcDbEntity
  8
03
100
AcDbLine
 10
233.8198119934954
 20
243.0216547874477
 30
0.0
 11
233.8198119934954
 21
246.0216547874476
 31
0.0
  0
MTEXT
  5
1852
330
A
100
AcDbEntity
  8
MOJI
100
AcDbMText
 10
365.5370428984442
 20
176.7646711741241
 30
0.0
 40
6.0
 41
90.06548226037933
 71
     5
 72
     1
  1
HB-SD-2　扉質量70kg×2\PHB-DD-2　扉質量40kg×4
  7
0_80
1001
ACAD
1000
MTEXTBEGIN
1070
    73
1070
     1
1070
    44
1040
1.0
1070
    74
1070
     0
1000
MTEXTEND
1000
MTEXTBEGIN
1070
    73
1070
     1
1070
    44
1040
1.0
1070
    74
1070
     0
1000
MTEXTEND
  0
POLYLINE
  5
185D
330
A
100
AcDbEntity
  8
SAISEN
100
AcDb2dPolyline
 66
     1
 10
0.0
 20
0.0
 30
0.0
 70
     1
  0
VERTEX
  5
2331
330
185D
100
AcDbEntity
  8
SAISEN
100
AcDbVertex
100
AcDb2dVertex
 10
394.1508444759366
 20
292.2914479894398
 30
0.0
  0
VERTEX
  5
2332
330
185D
100
AcDbEntity
  8
SAISEN
100
AcDbVertex
100
AcDb2dVertex
 10
384.1508444759366
 20
292.2914479894398
 30
0.0
  0
VERTEX
  5
2333
330
185D
100
AcDbEntity
  8
SAISEN
100
AcDbVertex
100
AcDb2dVertex
 10
384.1508444759366
 20
252.2914479894398
 30
0.0
  0
VERTEX
  5
2334
330
185D
100
AcDbEntity
  8
SAISEN
100
AcDbVertex
100
AcDb2dVertex
 10
394.1508444759366
 20
252.2914479894398
 30
0.0
  0
SEQEND
  5
2335
330
185D
100
AcDbEntity
  8
SAISEN
  0
MTEXT
  5
185E
330
A
100
AcDbEntity
  8
MOJI
100
AcDbMText
 10
391.9166946764701
 20
272.3306862873236
 30
0.0
 40
6.0
 41
40.06751534069173
 71
     5
 72
     3
  1
点検口側
  7
0_8TATE
1001
ACAD
1000
MTEXTBEGIN
1070
    73
1070
     1
1070
    44
1040
1.0
1070
    74
1070
     0
1000
MTEXTEND
1000
MTEXTBEGIN
1070
    73
1070
     1
1070
    44
1040
1.0
1070
    74
1070
     0
1000
MTEXTEND
  0
TEXT
  5
1924
330
A
100
AcDbEntity
  8
0
100
AcDbText
 10
528.6329573615875
 20
176.048453366077
 30
0.0
 40
7.0
  1

 41
0.7633521493703871
 72
     5
 11
645.8329573615875
 21
176.048453366077
 31
0.0
100
AcDbText
  0
ARC
  5
1928
330
A
100
AcDbEntity
  8
04
100
AcDbCircle
 10
186.6920933167646
 20
142.4056732742076
 30
0.0
 40
7.0
100
AcDbArc
 50
270.0
 51
90.0
  0
LINE
  5
1929
330
A
100
AcDbEntity
  8
CHUSIN
100
AcDbLine
 10
196.1793219266589
 20
142.4056732742076
 30
0.0
 11
127.4049201787962
 21
142.4056732742076
 31
0.0
  0
LINE
  5
192A
330
A
100
AcDbEntity
  8
04
100
AcDbLine
 10
131.6920933167646
 20
126.4056732742075
 30
0.0
 11
310.9475306702268
 21
126.4056732742075
 31
0.0
  0
LINE
  5
192B
330
A
100
AcDbEntity
  8
04
100
AcDbLine
 10
131.6920933167646
 20
158.4056732742076
 30
0.0
 11
310.9475306702265
 21
158.4056732742076
 31
0.0
  0
ARC
  5
1935
330
A
100
AcDbEntity
  8
04
100
AcDbCircle
 10
146.6920933167646
 20
142.4056732742076
 30
0.0
 40
3.5
100
AcDbArc
 50
90.0
 51
270.0
  0
ARC
  5
1936
330
A
100
AcDbEntity
  8
04
100
AcDbCircle
 10
186.6920933167646
 20
142.4056732742076
 30
0.0
 40
3.5
100
AcDbArc
 50
270.0
 51
90.0
  0
ARC
  5
1937
330
A
100
AcDbEntity
  8
04
100
AcDbCircle
 10
146.6920933167646
 20
142.4056732742076
 30
0.0
 40
7.0
100
AcDbArc
 50
90.0
 51
270.0
  0
TEXT
  5
1938
330
A
100
AcDbEntity
  8
0
100
AcDbText
 10
559.1832337465215
 20
144.4287748229415
 30
0.0
 40
7.0
  1

 41
0.8421926910299005
 72
     5
 11
626.7832337465215
 21
144.4287748229415
 31
0.0
100
AcDbText
  0
LINE
  5
1939
330
A
100
AcDbEntity
  8
CHUSIN
100
AcDbLine
 10
156.6920933167646
 20
148.0736174918893
 30
0.0
 11
156.6920933167646
 21
137.1031683123653
 31
0.0
  0
LINE
  5
193A
330
A
100
AcDbEntity
  8
CHUSIN
100
AcDbLine
 10
176.6920933167646
 20
148.0736174918893
 30
0.0
 11
176.6920933167646
 21
137.1031683123653
 31
0.0
  0
LINE
  5
193B
330
A
100
AcDbEntity
  8
CHUSIN
100
AcDbLine
 10
186.6920933167646
 20
151.8694165079696
 30
0.0
 11
186.6920933167646
 21
132.8960023315255
 31
0.0
  0
LINE
  5
193C
330
A
100
AcDbEntity
  8
CHUSIN
100
AcDbLine
 10
146.6920933167646
 20
151.8694165079696
 30
0.0
 11
146.6920933167646
 21
132.8960023315255
 31
0.0
  0
LINE
  5
193D
330
A
100
AcDbEntity
  8
04
100
AcDbLine
 10
131.6920933167646
 20
158.4056732742076
 30
0.0
 11
131.6920933167646
 21
126.4056732742075
 31
0.0
  0
LINE
  5
1941
330
A
100
AcDbEntity
  8
04
100
AcDbLine
 10
146.6920933167646
 20
135.4056732742077
 30
0.0
 11
186.6920933167646
 21
135.4056732742077
 31
0.0
  0
LINE
  5
1942
330
A
100
AcDbEntity
  8
04
100
AcDbLine
 10
146.6920933167646
 20
138.9056732742075
 30
0.0
 11
186.6920933167646
 21
138.9056732742075
 31
0.0
  0
CIRCLE
  5
195A
330
A
100
AcDbEntity
  8
06
100
AcDbCircle
 10
156.6920933167646
 20
142.4056732742076
 30
0.0
 40
3.0
  0
CIRCLE
  5
195B
330
A
100
AcDbEntity
  8
06
100
AcDbCircle
 10
156.6920933167646
 20
142.4056732742076
 30
0.0
 40
2.0
  0
CIRCLE
  5
195C
330
A
100
AcDbEntity
  8
06
100
AcDbCircle
 10
176.6920933167646
 20
142.4056732742076
 30
0.0
 40
3.0
  0
CIRCLE
  5
195D
330
A
100
AcDbEntity
  8
06
100
AcDbCircle
 10
176.6920933167646
 20
142.4056732742076
 30
0.0
 40
2.0
  0
LINE
  5
195E
330
A
100
AcDbEntity
  8
04
100
AcDbLine
 10
186.6920933167646
 20
149.4056732742075
 30
0.0
 11
146.6920933700755
 21
149.4056732742075
 31
0.0
  0
LINE
  5
195F
330
A
100
AcDbEntity
  8
04
100
AcDbLine
 10
186.6920933167646
 20
145.9056732742076
 30
0.0
 11
146.6920933167646
 21
145.9056732742076
 31
0.0
  0
CIRCLE
  5
196E
330
A
100
AcDbEntity
  8
04
100
AcDbCircle
 10
316.6920933167646
 20
142.4056732742076
 30
0.0
 40
17.0
  0
LINE
  5
1975
330
A
100
AcDbEntity
  8
CHUSIN
100
AcDbLine
 10
316.6920933167646
 20
164.4293375498667
 30
0.0
 11
316.6920933167646
 21
120.885852445554
 31
0.0
  0
LINE
  5
1976
330
A
100
AcDbEntity
  8
KAKURE
 48
0.3
100
AcDbLine
 10
331.6920933167646
 20
150.4056732242621
 30
0.0
 11
331.6920933167646
 21
134.4056732742077
 31
0.0
  0
LINE
  5
1977
330
A
100
AcDbEntity
  8
04
100
AcDbLine
 10
316.6920933167646
 20
148.1791759661038
 30
0.0
 11
311.6920933167646
 21
145.2924246201557
 31
0.0
  0
LINE
  5
1978
330
A
100
AcDbEntity
  8
04
100
AcDbLine
 10
321.6920933167646
 20
145.2924246201557
 30
0.0
 11
316.6920933167646
 21
148.1791759661038
 31
0.0
  0
LINE
  5
197F
330
A
100
AcDbEntity
  8
CHUSIN
100
AcDbLine
 10
335.0656241120526
 20
142.4056732742076
 30
0.0
 11
222.788563920452
 21
142.4056732742076
 31
0.0
  0
CIRCLE
  5
199D
330
A
100
AcDbEntity
  8
04
100
AcDbCircle
 10
316.6920933167646
 20
142.4056732742076
 30
0.0
 40
3.0
  0
LINE
  5
199F
330
A
100
AcDbEntity
  8
KAKURE
 48
0.3
100
AcDbLine
 10
310.9475306702268
 20
126.4056732742075
 30
0.0
 11
322.4366559633025
 21
126.4056732742075
 31
0.0
  0
LINE
  5
19A0
330
A
100
AcDbEntity
  8
04
100
AcDbLine
 10
316.6920933167646
 20
136.6321705823114
 30
0.0
 11
321.6920933167646
 21
139.5189219282596
 31
0.0
  0
LINE
  5
19A1
330
A
100
AcDbEntity
  8
04
100
AcDbLine
 10
311.6920933167646
 20
139.5189219282596
 30
0.0
 11
316.6920933167646
 21
136.6321705823114
 31
0.0
  0
LINE
  5
19A2
330
A
100
AcDbEntity
  8
04
100
AcDbLine
 10
311.6920933167646
 20
145.2924246201557
 30
0.0
 11
311.6920933167646
 21
139.5189219282596
 31
0.0
  0
LINE
  5
19A3
330
A
100
AcDbEntity
  8
04
100
AcDbLine
 10
331.6920933167646
 20
134.4056732742077
 30
0.0
 11
331.6920933167646
 21
126.4056732742075
 31
0.0
  0
LINE
  5
19A4
330
A
100
AcDbEntity
  8
04
100
AcDbLine
 10
322.4366559633025
 20
126.4056732742075
 30
0.0
 11
331.6920933167646
 21
126.4056732742075
 31
0.0
  0
LINE
  5
19A5
330
A
100
AcDbEntity
  8
04
100
AcDbLine
 10
321.6920933167646
 20
139.5189219282596
 30
0.0
 11
321.6920933167646
 21
145.2924246201557
 31
0.0
  0
LINE
  5
19A7
330
A
100
AcDbEntity
  8
KAKURE
 48
0.3
100
AcDbLine
 10
322.4366559916391
 20
158.4056732742076
 30
0.0
 11
310.9475306702265
 21
158.4056732742076
 31
0.0
  0
LINE
  5
19AC
330
A
100
AcDbEntity
  8
04
100
AcDbLine
 10
322.4366559633029
 20
158.4056732742076
 30
0.0
 11
331.6920933167646
 21
158.4056732742076
 31
0.0
  0
LINE
  5
19AD
330
A
100
AcDbEntity
  8
04
100
AcDbLine
 10
331.6920933167646
 20
158.4056732742076
 30
0.0
 11
331.6920933167646
 21
150.4056732742076
 31
0.0
  0
DIMENSION
  5
19B6
330
A
100
AcDbEntity
  8
SUNPOU
100
AcDbDimension
  2
*D32
 10
176.6920933167646
 20
163.3046255334705
 30
0.0
 11
166.6920933167646
 21
167.8046255334707
 31
0.0
 70
    32
  3
SUNPOU_2
100
AcDbAlignedDimension
 13
156.6920933167646
 23
148.0736174918893
 33
0.0
 14
176.6920933167646
 24
148.0736174918893
 34
0.0
100
AcDbRotatedDimension
  0
DIMENSION
  5
19C3
330
A
100
AcDbEntity
  8
SUNPOU
100
AcDbDimension
  2
*D33
 10
316.6920933167646
 20
163.3046255334705
 30
0.0
 11
237.5929727141496
 21
167.8046255334707
 31
0.0
 70
   160
  3
SUNPOU_2
100
AcDbAlignedDimension
 13
176.6920933167646
 23
148.0736174918893
 33
0.0
 14
316.6920933167646
 24
164.4293375498667
 34
0.0
100
AcDbRotatedDimension
  0
DIMENSION
  5
19D0
330
A
100
AcDbEntity
  8
SUNPOU
100
AcDbDimension
  2
*D34
 10
348.6920933167646
 20
126.4056732742075
 30
0.0
 11
344.1920933167646
 21
142.4056732742076
 31
0.0
 70
    32
  3
SUNPOU_2
100
AcDbAlignedDimension
 13
331.6920933167646
 23
158.4056732742076
 33
0.0
 14
331.6920933167646
 24
126.4056732742075
 34
0.0
 50
90.0
100
AcDbRotatedDimension
  0
DIMENSION
  5
19DD
330
A
100
AcDbEntity
  8
SUNPOU
100
AcDbDimension
  2
*D35
 10
146.6920933167646
 20
116.8839761983879
 30
0.0
 11
139.1920933167646
 21
121.3839761983879
 31
0.0
 70
    32
  3
SUNPOU_2
100
AcDbAlignedDimension
 13
131.6920933167646
 23
126.4056732742075
 33
0.0
 14
146.6920933167646
 24
132.8960023315255
 34
0.0
100
AcDbRotatedDimension
  0
DIMENSION
  5
19EA
330
A
100
AcDbEntity
  8
SUNPOU
100
AcDbDimension
  2
*D36
 10
186.6920933167646
 20
116.8839761983879
 30
0.0
 11
166.6920933167646
 21
121.3839761983879
 31
0.0
 70
    32
  3
SUNPOU_2
100
AcDbAlignedDimension
 13
146.6920933167646
 23
132.8960023315255
 33
0.0
 14
186.6920933167646
 24
132.8960023315255
 34
0.0
100
AcDbRotatedDimension
  0
DIMENSION
  5
19F7
330
A
100
AcDbEntity
  8
SUNPOU
100
AcDbDimension
  2
*D37
 10
316.6920933167646
 20
116.8839761983879
 30
0.0
 11
251.6920933167646
 21
121.3839761983879
 31
0.0
 70
    32
  3
SUNPOU_2
100
AcDbAlignedDimension
 13
186.6920933167646
 23
132.8960023315255
 33
0.0
 14
316.6920933167646
 24
122.8876545501343
 34
0.0
100
AcDbRotatedDimension
  0
DIMENSION
  5
1A04
330
A
100
AcDbEntity
  8
SUNPOU
100
AcDbDimension
  2
*D38
 10
331.6920933167646
 20
116.8839761983879
 30
0.0
 11
324.1920933167646
 21
121.3839761983879
 31
0.0
 70
    32
  3
SUNPOU_2
100
AcDbAlignedDimension
 13
316.6920933167646
 23
120.885852445554
 33
0.0
 14
331.6920933167646
 24
126.4056732742075
 34
0.0
100
AcDbRotatedDimension
  0
DIMENSION
  5
1A11
330
A
100
AcDbEntity
  8
SUNPOU
100
AcDbDimension
  2
*D39
 10
331.6920933167646
 20
107.1201162382329
 30
0.0
 11
231.6920933167646
 21
111.620116238233
 31
0.0
 70
    32
  3
SUNPOU_2
100
AcDbAlignedDimension
 13
131.6920933167646
 23
126.4056732742075
 33
0.0
 14
331.6920933167646
 24
126.4056732742075
 34
0.0
100
AcDbRotatedDimension
  0
LEADER
  5
1A1E
330
A
100
AcDbEntity
  8
HIKIDASI
100
AcDbLeader
  3
SUNPOU_2
 73
     0
 75
     1
 40
5.0
 41
82.4
 76
     3
 10
154.4638544396885
 20
144.4143921461971
 30
0.0
 10
127.4332410515039
 20
163.6785233806741
 30
0.0
 10
122.4332410515039
 20
163.6785233806741
 30
0.0
340
1A1F
1001
ACAD
1000
DSTYLE
1002
{
1070
     5
1000
OPEN30
1070
    77
1070
     1
1070
   147
1040
1.0
1002
}
1000
LEANOF
1010
0.0
1020
0.0
1030
0.0
  0
MTEXT
  5
1A1F
330
A
100
AcDbEntity
  8
HIKIDASI
100
AcDbMText
 10
120.4332410515039
 20
165.6785233806741
 30
0.0
 40
5.0
 41
0.0
 71
     9
 72
     1
  1
(ガイドローラ取付用穴)2-M6タップ
  7
SUNPOU
1001
ACAD
1000
MTEXTBEGIN
1070
    73
1070
     1
1070
    44
1040
1.0
1070
    74
1070
     0
1000
MTEXTEND
1000
MTEXTBEGIN
1070
    73
1070
     1
1070
    44
1040
1.0
1070
    74
1070
     0
1000
MTEXTEND
  0
MTEXT
  5
1A21
330
A
100
AcDbEntity
  8
MOJI
100
AcDbMText
 10
92.99814294007051
 20
142.3780412531526
 30
0.0
 40
6.0
 41
56.65471015178205
 71
     5
 72
     1
  1
ガイドローラ(t12)
1001
ACAD
1000
MTEXTBEGIN
1070
    73
1070
     1
1070
    44
1040
1.0
1070
    74
1070
     0
1000
MTEXTEND
1000
MTEXTBEGIN
1070
    73
1070
     1
1070
    44
1040
1.0
1070
    74
1070
     0
1000
MTEXTEND
  0
DIMENSION
  5
1A22
330
A
100
AcDbEntity
  8
SUNPOU
100
AcDbDimension
  2
*D40
 10
206.310756909239
 20
138.9056732742075
 30
0.0
 11
201.810756909239
 21
142.4056732742076
 31
0.0
 70
    32
  3
SUNPOU_2
100
AcDbAlignedDimension
 13
186.6920933167646
 23
145.9056732742076
 33
0.0
 14
186.6920933167646
 24
138.9056732742075
 34
0.0
 50
90.0
100
AcDbRotatedDimension
  0
DIMENSION
  5
1A31
330
A
100
AcDbEntity
  8
SUNPOU
100
AcDbDimension
  2
*D41
 10
220.104099996771
 20
135.4056732742076
 30
0.0
 11
215.604099996771
 21
142.4056732742076
 31
0.0
 70
    32
  3
SUNPOU_2
100
AcDbAlignedDimension
 13
186.6920933167646
 23
149.4056732742075
 33
0.0
 14
186.6920933167646
 24
135.4056732742076
 34
0.0
 50
90.0
100
AcDbRotatedDimension
  0
LEADER
  5
1F52
330
A
100
AcDbEntity
  8
HIKIDASI
  6
CONTINUOUS
100
AcDbLeader
  3
SUNPOU_2
 73
     0
 74
     0
 75
     1
 40
5.0
 41
50.4
 76
     3
 10
224.3198119934954
 20
293.5650177274477
 30
0.0
 10
240.6916760889434
 20
287.0995966950133
 30
0.0
 10
245.6916760889435
 20
287.0995966950133
 30
0.0
340
1F53
1001
ACAD
1000
DSTYLE
1002
{
1070
     5
1000
OPEN30
1070
    77
1070
     1
1070
   147
1040
1.0
1002
}
1000
LEANOF
1010
0.0
1020
0.0
1030
0.0
  0
MTEXT
  5
1F53
330
A
100
AcDbEntity
  8
HIKIDASI
  6
CONTINUOUS
 62
     6
100
AcDbMText
 10
247.6916760889435
 20
289.0995966950132
 30
0.0
 40
5.0
 41
0.0
 71
     7
 72
     1
  1
M6タップ(サッシ工事)
  7
SUNPOU
1001
ACAD
1000
MTEXTBEGIN
1070
    73
1070
     1
1070
    44
1040
1.0
1070
    74
1070
     0
1000
MTEXTEND
1000
MTEXTBEGIN
1070
    73
1070
     1
1070
    44
1040
1.0
1070
    74
1070
     0
1000
MTEXTEND
  0
LINE
  5
1F59
330
A
100
AcDbEntity
  8
KAKURE
  6
CONTINUOUS
100
AcDbLine
 10
218.3198119934956
 20
298.1650177274477
 30
0.0
 11
218.3198119934956
 21
293.5650177274477
 31
0.0
  0
LINE
  5
1F5A
330
A
100
AcDbEntity
  8
KAKURE
  6
CONTINUOUS
100
AcDbLine
 10
219.0198119934954
 20
298.1650177274477
 30
0.0
 11
219.0198119934954
 21
293.5650177274477
 31
0.0
  0
LINE
  5
1F5B
330
A
100
AcDbEntity
  8
KAKURE
  6
CONTINUOUS
100
AcDbLine
 10
223.6198119934954
 20
298.1650177274477
 30
0.0
 11
223.6198119934954
 21
293.5650177274477
 31
0.0
  0
LINE
  5
1F5C
330
A
100
AcDbEntity
  8
KAKURE
  6
CONTINUOUS
100
AcDbLine
 10
224.3198119934954
 20
298.1650177274477
 30
0.0
 11
224.3198119934954
 21
293.5650177274477
 31
0.0
  0
LINE
  5
1F5D
330
A
100
AcDbEntity
  8
03
  6
CONTINUOUS
100
AcDbLine
 10
203.8198119934956
 20
343.5650177274477
 30
0.0
 11
203.8198119934956
 21
345.1650177274476
 31
0.0
  0
LINE
  5
1F5E
330
A
100
AcDbEntity
  8
03
  6
CONTINUOUS
100
AcDbLine
 10
238.8198119934954
 20
343.5650177274477
 30
0.0
 11
238.8198119934954
 21
345.1650177274476
 31
0.0
  0
INSERT
  5
1F6E
330
A
100
AcDbEntity
  8
KAKURE
  6
CONTINUOUS
100
AcDbBlockReference
  2
*X43
 10
0.0
 20
0.0
 30
0.0
1001
ACAD
1000
HATCH
1002
{
1070
    19
1000
ANSI31
1040
15.0
1040
0.0
1000
R14_HATCH_DATA
1000
1F6E
1011
1.0
1021
0.0
1031
0.0
1011
0.0
1021
1.0
1031
0.0
1011
0.0
1021
0.0
1031
1.0
1040
0.0
1010
0.0
1020
0.0
1030
1.0
1000
ANSI31
1070
     0
1070
     0
1071
        2
1071
        7
1070
     0
1070
     1
1071
        4
1040
221.3198119934954
1040
343.5650177274476
1040
221.3198119934954
1040
345.1650177274476
1040
203.8198119934954
1040
345.1650177274476
1040
203.8198119934956
1040
343.5650177274477
1071
        0
1071
        7
1070
     0
1070
     1
1071
        4
1040
238.8198119934955
1040
343.5650177274477
1040
238.8198119934954
1040
345.1650177274476
1040
221.3198119934954
1040
345.1650177274476
1040
221.3198119934954
1040
343.5650177274477
1071
        0
1070
     0
1070
     1
1040
0.0
1040
15.0
1070
     0
1070
     1
1040
0.7853981633974483
1040
0.0
1040
6.334197244560072
1040
-1.325825214724775
1040
1.325825214724775
1070
     0
1040
0.0848577297362282
1071
        2
1040
218.1783412477519
1040
343.9459282224672
1040
0.0
1040
224.8867089925664
1040
343.8610696978301
1040
0.0
1002
}
  0
DIMENSION
  5
217A
330
A
100
AcDbEntity
  8
SUNPOU
100
AcDbDimension
  2
*D42
 10
238.3198119934955
 20
319.8517236774477
 30
0.0
 11
221.3198119934954
 21
324.3517236774477
 31
0.0
 70
    32
  1
φ<>
  3
SUNPOU_2
100
AcDbAlignedDimension
 13
204.3198119934956
 23
319.8517236774477
 33
0.0
 14
238.3198119934955
 24
319.8517236774477
 34
0.0
100
AcDbRotatedDimension
  0
MTEXT
  5
22C2
330
A
100
AcDbEntity
  8
MOJI
100
AcDbMText
 10
360.9999999999968
 20
28.5
 30
0.0
 40
7.0
 41
49.99999999999994
 71
     5
 72
     1
  1
たて断面図　
  7
0_80
1001
ACAD
1000
MTEXTBEGIN
1070
    73
1070
     1
1070
    44
1040
1.0
1070
    74
1070
     0
1000
MTEXTEND
1000
MTEXTBEGIN
1070
    73
1070
     1
1070
    44
1040
1.0
1070
    74
1070
     0
1000
MTEXTEND
  0
MTEXT
  5
22C3
330
A
100
AcDbEntity
  8
MOJI
100
AcDbMText
 10
310.9999999999966
 20
29.00000000000023
 30
0.0
 40
7.0
 41
50.0
 71
     5
 72
     1
  1
図番１１－３
  7
0_80
1001
ACAD
1000
MTEXTBEGIN
1070
    73
1070
     1
1070
    44
1040
1.0
1070
    74
1070
     0
1000
MTEXTEND
1000
MTEXTBEGIN
1070
    73
1070
     1
1070
    44
1040
1.0
1070
    74
1070
     0
1000
MTEXTEND
  0
MTEXT
  5
22C4
330
A
100
AcDbEntity
  8
MOJI
100
AcDbMText
 10
185.9999999999969
 20
29.0
 30
0.0
 40
7.0
 41
80.0
 71
     5
 72
     1
  1
ＨＢ－ＳＤ－２\PＨＢ－ＤＤ－２
  7
0_80
1001
ACAD
1000
MTEXTBEGIN
1070
    73
1070
     1
1070
    44
1040
1.0
1070
    74
1070
     0
1000
MTEXTEND
1000
MTEXTBEGIN
1070
    73
1070
     1
1070
    44
1040
1.0
1070
    74
1070
     0
1000
MTEXTEND
  0
POLYLINE
  5
22C5
330
A
100
AcDbEntity
  8
SAISEN
100
AcDb2dPolyline
 66
     1
 10
0.0
 20
0.0
 30
0.0
 70
     1
  0
VERTEX
  5
2347
330
22C5
100
AcDbEntity
  8
SAISEN
100
AcDbVertex
100
AcDb2dVertex
 10
35.99999999999693
 20
17.0
 30
0.0
  0
VERTEX
  5
2348
330
22C5
100
AcDbEntity
  8
SAISEN
100
AcDbVertex
100
AcDb2dVertex
 10
385.9999999999968
 20
17.0
 30
0.0
  0
VERTEX
  5
2349
330
22C5
100
AcDbEntity
  8
SAISEN
100
AcDbVertex
100
AcDb2dVertex
 10
385.9999999999968
 20
41.00000000000022
 30
0.0
  0
VERTEX
  5
234A
330
22C5
100
AcDbEntity
  8
SAISEN
100
AcDbVertex
100
AcDb2dVertex
 10
35.99999999999693
 20
41.00000000000022
 30
0.0
  0
SEQEND
  5
234B
330
22C5
100
AcDbEntity
  8
SAISEN
  0
MTEXT
  5
22C6
330
A
100
AcDbEntity
  8
MOJI
100
AcDbMText
 10
90.99999999999694
 20
29.0
 30
0.0
 40
7.0
 41
110.0
 71
     5
 72
     1
  1
折り戸納り
  7
0_80
1001
ACAD
1000
MTEXTBEGIN
1070
    73
1070
     1
1070
    44
1040
1.0
1070
    74
1070
     0
1000
MTEXTEND
1000
MTEXTBEGIN
1070
    73
1070
     1
1070
    44
1040
1.0
1070
    74
1070
     0
1000
MTEXTEND
  0
LINE
  5
22C7
330
A
100
AcDbEntity
  8
SAISEN
100
AcDbLine
 10
145.9999999999969
 20
41.00000000000022
 30
0.0
 11
145.9999999999969
 21
17.0
 31
0.0
  0
MTEXT
  5
22C8
330
A
100
AcDbEntity
  8
MOJI
100
AcDbMText
 10
255.9999999999997
 20
29.0
 30
0.0
 40
7.0
 41
60.0
 71
     5
 72
     1
  1
片折り戸\P両折り戸
  7
0_80
1001
ACAD
1000
MTEXTBEGIN
1070
    73
1070
     1
1070
    44
1040
1.0
1070
    74
1070
     0
1000
MTEXTEND
1000
MTEXTBEGIN
1070
    73
1070
     1
1070
    44
1040
1.0
1070
    74
1070
     0
1000
MTEXTEND
  0
LINE
  5
22C9
330
A
100
AcDbEntity
  8
SAISEN
100
AcDbLine
 10
225.9999999999969
 20
41.00000000000022
 30
0.0
 11
225.9999999999969
 21
17.0
 31
0.0
  0
LINE
  5
22CA
330
A
100
AcDbEntity
  8
SAISEN
100
AcDbLine
 10
285.9999999999968
 20
41.00000000000022
 30
0.0
 11
285.9999999999968
 21
17.0
 31
0.0
  0
CIRCLE
  5
22D4
330
A
100
AcDbEntity
  8
SAISEN
100
AcDbCircle
 10
392.0976380784291
 20
49.54302641223165
 30
0.0
 40
5.0
  0
TEXT
  5
22D5
330
A
100
AcDbEntity
  8
MOJI
100
AcDbText
 10
389.0488190392129
 20
45.27151320611595
 30
0.0
 40
8.0
  1
Ｓ
 41
0.8
  7
0_8
 11
389.0488190392129
 21
53.27151320611595
 31
0.0
100
AcDbText
 73
     3
  0
VIEWPORT
  5
1819
102
{ACAD_XDICTIONARY
360
2304
102
}
330
119D
100
AcDbEntity
 67
     1
  8
0
100
AcDbViewport
 10
198.3104944229124
 20
285.0515050888061
 30
0.0
 40
1032.541024672655
 41
600.5481851609605
 68
     1
 69
     1
1001
ACAD
1000
MVIEW
1002
{
1070
    16
1010
0.0
1020
0.0
1030
0.0
1010
0.0
1020
0.0
1030
1.0
1040
0.0
1040
600.5481851609605
1040
198.3104944229124
1040
285.0515050888061
1040
50.0
1040
0.0
1040
0.0
1070
     0
1070
   100
1070
     1
1070
     1
1070
     0
1070
     0
1070
     0
1070
     0
1040
0.0
1040
0.0
1040
0.0
1040
10.0
1040
10.0
1040
10.0
1040
10.0
1070
     0
1002
{
1002
}
1002
}
  0
VIEWPORT
  5
22EA
102
{ACAD_XDICTIONARY
360
2306
102
}
330
119D
100
AcDbEntity
 67
     1
  8
DEFPOINTS
  6
CONTINUOUS
100
AcDbViewport
 10
198.0565075874327
 20
285.1784930229186
 30
0.0
 40
396.1130151748655
 41
570.3569860458372
 68
     2
 69
     2
1001
ACAD
1000
MVIEW
1002
{
1070
    16
1010
0.0
1020
0.0
1030
0.0
1010
0.0
1020
0.0
1030
1.0
1040
0.0
1040
570.3569860458372
1040
210.0
1040
297.0
1040
50.0
1040
0.0
1040
0.0
1070
     0
1070
   100
1070
     1
1070
     1
1070
     0
1070
     0
1070
     0
1070
     0
1040
0.0
1040
0.0
1040
0.0
1040
1.0
1040
1.0
1040
0.0
1040
0.0
1070
     0
1002
{
1002
}
1002
}
  0
ENDSEC
  0
SECTION
  2
OBJECTS
  0
DICTIONARY
  5
19
330
0
100
AcDbDictionary
  3
ACAD_COLOR
350
22AA
  3
ACAD_GROUP
350
1A
  3
ACAD_LAYOUT
350
1E
  3
ACAD_MATERIAL
350
22A9
  3
ACAD_MLINESTYLE
350
1B
  3
ACAD_PLOTSETTINGS
350
22
  3
ACAD_WIPEOUT_VARS
350
23
  3
ACADDIM
350
1A20
  3
ASE_INDEX_DICTIONARY
350
22AE
1001
ACAD
1000
TREAT_AS_HARD
1070
     0
  0
DICTIONARY
  5
11CF
330
2
100
AcDbDictionary
  3
ACAD_LAYERFILTERS
350
11D0
  3
ACAD_LAYERSTATES
350
11D4
1001
ACAD
1000
TREAT_AS_HARD
1070
     1
  0
DICTIONARY
  5
230E
330
A
100
AcDbDictionary
  3
ACAD_LAYOUTSELFREF
350
230F
  0
DICTIONARY
  5
2310
330
119D
100
AcDbDictionary
  3
ACAD_LAYOUTSELFREF
350
2311
  0
DICTIONARY
  5
2304
330
1819
100
AcDbDictionary
  3
ACAD_XREC_ROUNDTRIP
350
2305
1001
ACAD
1000
TREAT_AS_HARD
1070
     1
  0
DICTIONARY
  5
2306
330
22EA
100
AcDbDictionary
  3
ACAD_XREC_ROUNDTRIP
350
2307
1001
ACAD
1000
TREAT_AS_HARD
1070
     1
  0
DICTIONARY
  5
22AA
102
{ACAD_REACTORS
330
19
102
}
330
19
100
AcDbDictionary
1001
ACAD
1000
TREAT_AS_HARD
1070
     0
  0
DICTIONARY
  5
1A
102
{ACAD_REACTORS
330
19
102
}
330
19
100
AcDbDictionary
1001
ACAD
1000
TREAT_AS_HARD
1070
     0
  0
DICTIONARY
  5
1E
102
{ACAD_REACTORS
330
19
102
}
330
19
100
AcDbDictionary
1001
ACAD
1000
TREAT_AS_HARD
1070
     0
  0
DICTIONARY
  5
22A9
102
{ACAD_REACTORS
330
19
102
}
330
19
100
AcDbDictionary
1001
ACAD
1000
TREAT_AS_HARD
1070
     0
  0
DICTIONARY
  5
1B
102
{ACAD_REACTORS
330
19
102
}
330
19
100
AcDbDictionary
  3
STANDARD
350
1C
1001
ACAD
1000
TREAT_AS_HARD
1070
     0
  0
DICTIONARY
  5
22
102
{ACAD_REACTORS
330
19
102
}
330
19
100
AcDbDictionary
1001
ACAD
1000
TREAT_AS_HARD
1070
     0
  0
ACAD_ZOMBIE_OBJECT
  5
23
330
19
100
AcDbZombieObject
 90
      499
 91
      524
 93
       10
310
4047
 94
        0
1001
ACAD
1000
AcadProxyRoundTripData
1071
      521
1071
   655383
1070
     0
  0
XRECORD
  5
1A20
102
{ACAD_REACTORS
330
19
102
}
330
19
100
AcDbXrecord
 90
   990106
  3

 60
     0
 61
     0
 62
     4
 63
     4
 64
     1
 65
     0
 66
     0
 67
     3
 68
     1
 69
     0
 70
     0
 71
     0
 72
     0
 40
0.0
170
     2
340
1F53
  0
DICTIONARY
  5
22AE
102
{ACAD_REACTORS
330
19
102
}
330
19
100
AcDbDictionary
  3
ASEBLOCKHIERARCHYINDEXRECORD
350
22B0
1001
DCO15
1040
1508677617.64
1001
ACAD
1000
TREAT_AS_HARD
1070
     0
  0
DICTIONARY
  5
11D0
102
{ACAD_REACTORS
330
11CF
102
}
330
11CF
100
AcDbDictionary
  3
HIHYOJI
350
11D1
1001
ACAD
1000
TREAT_AS_HARD
1070
     1
  0
DICTIONARY
  5
11D4
102
{ACAD_REACTORS
330
11CF
102
}
330
11CF
100
AcDbDictionary
1001
ACAD
1000
TREAT_AS_HARD
1070
     0
  0
XRECORD
  5
230F
102
{ACAD_REACTORS
330
230E
102
}
330
230E
100
AcDbXrecord
340
A
  0
XRECORD
  5
2311
102
{ACAD_REACTORS
330
2310
102
}
330
2310
100
AcDbXrecord
340
119D
  0
XRECORD
  5
2305
102
{ACAD_REACTORS
330
2304
102
}
330
2304
100
AcDbXrecord
102
SHADEPLOT
 70
     0
  0
XRECORD
  5
2307
102
{ACAD_REACTORS
330
2306
102
}
330
2306
100
AcDbXrecord
102
SHADEPLOT
 70
     0
  0
MLINESTYLE
  5
1C
102
{ACAD_REACTORS
330
1B
102
}
330
1B
100
AcDbMlineStyle
  2
STANDARD
 70
     0
  3

 62
     0
 51
90.0
 52
90.0
 71
     2
 49
0.5
 62
   256
  6
BYLAYER
 49
-0.5
 62
   256
  6
BYLAYER
  0
XRECORD
  5
22B0
102
{ACAD_REACTORS
330
22AE
102
}
330
22AE
100
AcDbXrecord
330
21E5
330
21E6
330
2204
330
2205
330
21DC
330
21DD
330
21D3
330
21D4
330
21CA
330
21CB
330
21C2
330
21C3
330
221A
330
221B
330
2210
330
2211
330
21FC
330
21FD
330
20FC
330
20FD
330
20F1
330
20F2
330
2105
330
2106
330
20D6
330
20D7
330
2136
330
2137
330
2141
330
2142
330
214A
330
214B
330
20DF
330
20E0
330
2268
330
2269
330
225F
330
2260
330
227A
330
227B
330
21F1
330
21F2
330
21B8
330
21B9
330
224B
330
224C
330
2243
330
2244
330
21B0
330
21B1
330
2237
330
2238
330
222F
330
2230
330
2223
330
2224
330
2256
330
2257
330
21A6
330
21A7
330
2284
330
2285
330
2166
330
2167
330
215C
330
215D
330
2117
330
2118
330
210E
330
210F
330
20CD
330
20CE
330
2153
330
2154
330
20E8
330
20E9
330
2122
330
2123
330
212D
330
212E
330
219D
330
219E
  0
XRECORD
  5
11D1
102
{ACAD_REACTORS
330
11D0
102
}
330
11D0
100
AcDbXrecord
  1
hihyoji
  1
08,09,*_h
  1
*
  1
*
 70
     0
  1
*
  1
*
  0
ENDSEC
  0
EOF
