  0
SECTION
  2
HEADER
  9
$ACADVER
  1
AC1012
  9
$DWGCODEPAGE
  3
dos932
  9
$INSBASE
 10
0.0
 20
0.0
 30
0.0
  9
$EXTMIN
 10
0.0
 20
-0.0000000000001137
 30
0.0
  9
$EXTMAX
 10
1490.0
 20
2100.0
 30
0.0
  9
$LIMMIN
 10
0.0
 20
0.0
  9
$LIMMAX
 10
1490.0
 20
2100.0
  9
$ORTHOMODE
 70
     1
  9
$REGENMODE
 70
     1
  9
$FILLMODE
 70
     1
  9
$QTEXTMODE
 70
     0
  9
$MIRRTEXT
 70
     1
  9
$DRAGMODE
 70
     2
  9
$LTSCALE
 40
1.0
  9
$OSMODE
 70
    37
  9
$ATTMODE
 70
     1
  9
$TEXTSIZE
 40
15.0
  9
$TRACEWID
 40
0.05
  9
$TEXTSTYLE
  7
STANDARD
  9
$CLAYER
  8
DEFPOINTS
  9
$CELTYPE
  6
CONTINUOUS
  9
$CECOLOR
 62
   256
  9
$CELTSCALE
 40
1.0
  9
$DELOBJ
 70
     1
  9
$DISPSILH
 70
     0
  9
$DIMSCALE
 40
2.0
  9
$DIMASZ
 40
2.5
  9
$DIMEXO
 40
1.5
  9
$DIMDLI
 40
0.0
  9
$DIMRND
 40
0.0
  9
$DIMDLE
 40
0.0
  9
$DIMEXE
 40
1.0
  9
$DIMTP
 40
0.0
  9
$DIMTM
 40
0.0
  9
$DIMTXT
 40
2.5
  9
$DIMCEN
 40
0.0
  9
$DIMTSZ
 40
0.0
  9
$DIMTOL
 70
     0
  9
$DIMLIM
 70
     0
  9
$DIMTIH
 70
     0
  9
$DIMTOH
 70
     0
  9
$DIMSE1
 70
     0
  9
$DIMSE2
 70
     0
  9
$DIMTAD
 70
     1
  9
$DIMZIN
 70
     8
  9
$DIMBLK
  1
OPEN30
  9
$DIMASO
 70
     1
  9
$DIMSHO
 70
     1
  9
$DIMPOST
  1

  9
$DIMAPOST
  1

  9
$DIMALT
 70
     0
  9
$DIMALTD
 70
     2
  9
$DIMALTF
 40
25.4
  9
$DIMLFAC
 40
1.0
  9
$DIMTOFL
 70
     1
  9
$DIMTVP
 40
0.0
  9
$DIMTIX
 70
     0
  9
$DIMSOXD
 70
     0
  9
$DIMSAH
 70
     0
  9
$DIMBLK1
  1

  9
$DIMBLK2
  1

  9
$DIMSTYLE
  2
SUNPOU_2
  9
$DIMCLRD
 70
   256
  9
$DIMCLRE
 70
   256
  9
$DIMCLRT
 70
   256
  9
$DIMTFAC
 40
1.0
  9
$DIMGAP
 40
1.0
  9
$DIMJUST
 70
     0
  9
$DIMSD1
 70
     0
  9
$DIMSD2
 70
     0
  9
$DIMTOLJ
 70
     1
  9
$DIMTZIN
 70
     0
  9
$DIMALTZ
 70
     0
  9
$DIMALTTZ
 70
     0
  9
$DIMFIT
 70
     3
  9
$DIMUPT
 70
     0
  9
$DIMUNIT
 70
     2
  9
$DIMDEC
 70
     1
  9
$DIMTDEC
 70
     1
  9
$DIMALTU
 70
     2
  9
$DIMALTTD
 70
     2
  9
$DIMTXSTY
  7
SUNPOU
  9
$DIMAUNIT
 70
     0
  9
$LUNITS
 70
     2
  9
$LUPREC
 70
     4
  9
$SKETCHINC
 40
0.1
  9
$FILLETRAD
 40
0.0
  9
$AUNITS
 70
     0
  9
$AUPREC
 70
     0
  9
$MENU
  1
acad
  9
$ELEVATION
 40
0.0
  9
$PELEVATION
 40
0.0
  9
$THICKNESS
 40
0.0
  9
$LIMCHECK
 70
     0
  9
$BLIPMODE
 70
     0
  9
$CHAMFERA
 40
0.0
  9
$CHAMFERB
 40
0.0
  9
$CHAMFERC
 40
0.0
  9
$CHAMFERD
 40
0.0
  9
$SKPOLY
 70
     0
  9
$TDCREATE
 40
2311945.702132697
  9
$TDUPDATE
 40
2453266.405824653
  9
$TDINDWG
 40
0.3135499884
  9
$TDUSRTIMER
 40
0.3135483565
  9
$USRTIMER
 70
     1
  9
$ANGBASE
 50
0.0
  9
$ANGDIR
 70
     0
  9
$PDMODE
 70
     0
  9
$PDSIZE
 40
1.0
  9
$PLINEWID
 40
0.0
  9
$COORDS
 70
     1
  9
$SPLFRAME
 70
     0
  9
$SPLINETYPE
 70
     6
  9
$SPLINESEGS
 70
     8
  9
$ATTDIA
 70
     0
  9
$ATTREQ
 70
     1
  9
$HANDLING
 70
-16383
  9
$HANDSEED
  5
1A65
  9
$SURFTAB1
 70
     6
  9
$SURFTAB2
 70
     6
  9
$SURFTYPE
 70
     6
  9
$SURFU
 70
     6
  9
$SURFV
 70
     6
  9
$UCSNAME
  2

  9
$UCSORG
 10
0.0
 20
0.0
 30
0.0
  9
$UCSXDIR
 10
1.0
 20
0.0
 30
0.0
  9
$UCSYDIR
 10
0.0
 20
1.0
 30
0.0
  9
$PUCSNAME
  2

  9
$PUCSORG
 10
0.0
 20
0.0
 30
0.0
  9
$PUCSXDIR
 10
1.0
 20
0.0
 30
0.0
  9
$PUCSYDIR
 10
0.0
 20
1.0
 30
0.0
  9
$USERI1
 70
     0
  9
$USERI2
 70
     0
  9
$USERI3
 70
     0
  9
$USERI4
 70
     0
  9
$USERI5
 70
     0
  9
$USERR1
 40
0.0
  9
$USERR2
 40
0.0
  9
$USERR3
 40
0.0
  9
$USERR4
 40
0.0
  9
$USERR5
 40
0.0
  9
$WORLDVIEW
 70
     1
  9
$SHADEDGE
 70
     3
  9
$SHADEDIF
 70
    70
  9
$TILEMODE
 70
     1
  9
$MAXACTVP
 70
    16
  9
$PINSBASE
 10
0.0
 20
0.0
 30
0.0
  9
$PLIMCHECK
 70
     0
  9
$PEXTMIN
 10
-0.6072779653604812
 20
-0.0609709769432811
 30
-0.0015258207003583
  9
$PEXTMAX
 10
1386.986540087521
 20
1996.373105448741
 30
0.0000000349246037
  9
$PLIMMIN
 10
-41.72283682035327
 20
-41.10720575630119
  9
$PLIMMAX
 10
1428.090456636678
 20
2037.374758355027
  9
$UNITMODE
 70
     0
  9
$VISRETAIN
 70
     0
  9
$PLINEGEN
 70
     1
  9
$PSLTSCALE
 70
     0
  9
$TREEDEPTH
 70
  3020
  9
$PICKSTYLE
 70
     1
  9
$CMLSTYLE
  2
STANDARD
  9
$CMLJUST
 70
     0
  9
$CMLSCALE
 40
1.0
  9
$SAVEIMAGES
 70
     1
  0
ENDSEC
  0
SECTION
  2
CLASSES
  0
CLASS
  1
LWPOLYLINE
  2
AcDbPolyline
  3
AutoCAD 2000
 90
    32768
280
     0
281
     1
  0
CLASS
  1
IMAGE
  2
AcDbRasterImage
  3
ISM
 90
    32895
280
     0
281
     1
  0
CLASS
  1
OLE2FRAME
  2
AcDbOle2Frame
  3
AutoCAD 2000
 90
    32768
280
     0
281
     1
  0
CLASS
  1
HATCH
  2
AcDbHatch
  3
AutoCAD 2000
 90
    32768
280
     0
281
     1
  0
CLASS
  1
DICTIONARYVAR
  2
AcDbDictionaryVar
  3
AutoCAD 2000
 90
    32768
280
     0
281
     0
  0
CLASS
  1
RASTERVARIABLES
  2
AcDbRasterVariables
  3
ISM
 90
    32768
280
     0
281
     0
  0
CLASS
  1
IMAGEDEF
  2
AcDbRasterImageDef
  3
ISM
 90
    32768
280
     0
281
     0
  0
CLASS
  1
IMAGEDEF_REACTOR
  2
AcDbRasterImageDefReactor
  3
ISM
 90
    32769
280
     0
281
     0
  0
CLASS
  1
IDBUFFER
  2
AcDbIdBuffer
  3
AutoCAD 2000
 90
    32768
280
     0
281
     0
  0
CLASS
  1
SPATIAL_FILTER
  2
AcDbSpatialFilter
  3
AutoCAD 2000
 90
    32768
280
     0
281
     0
  0
CLASS
  1
XRECORD
  2
AcDbXrecord
  3
AutoCAD 2000
 90
    32768
280
     0
281
     0
  0
CLASS
  1
SORTENTSTABLE
  2
AcDbSortentsTable
  3
AutoCAD 2000
 90
    32768
280
     0
281
     0
  0
CLASS
  1
LAYER_INDEX
  2
AcDbLayerIndex
  3
AutoCAD 2000
 90
    32768
280
     0
281
     0
  0
CLASS
  1
SPATIAL_INDEX
  2
AcDbSpatialIndex
  3
AutoCAD 2000
 90
    32768
280
     0
281
     0
  0
CLASS
  1
OBJECT_PTR
  2
CAseDLPNTableRecord
  3
ASE-LPNTableRecord
 90
    32769
280
     0
281
     0
  0
CLASS
  1
ACDBDICTIONARYWDFLT
  2
AcDbDictionaryWithDefault
  3
AutoCAD 2000
 90
    32768
280
     0
281
     0
  0
CLASS
  1
ACDBPLACEHOLDER
  2
AcDbPlaceHolder
  3
AutoCAD 2000
 90
    32768
280
     0
281
     0
  0
CLASS
  1
LAYOUT
  2
AcDbLayout
  3
AutoCAD 2000
 90
    32768
280
     0
281
     0
  0
CLASS
  1
LONG_TRANSACTION
  2
AcDbLongTransaction
  3
AutoCAD 2000
 90
    32768
280
     0
281
     0
  0
CLASS
  1
LWPOLYLINE
  2
AcDbPolyline
  3
AutoCAD 2000
 90
    32768
280
     0
281
     1
  0
CLASS
  1
HATCH
  2
AcDbHatch
  3
AutoCAD 2000
 90
    32768
280
     0
281
     1
  0
CLASS
  1
XRECORD
  2
AcDbXrecord
  3
AutoCAD 2000
 90
    32768
280
     0
281
     0
  0
CLASS
  1
LONG_TRANSACTION
  2
AcDbLongTransaction
  3
AutoCAD 2000
 90
    32768
280
     0
281
     0
  0
CLASS
  1
LWPOLYLINE
  2
AcDbPolyline
  3
AutoCAD 2000
 90
    32768
280
     0
281
     1
  0
CLASS
  1
HATCH
  2
AcDbHatch
  3
AutoCAD 2000
 90
    32768
280
     0
281
     1
  0
CLASS
  1
XRECORD
  2
AcDbXrecord
  3
AutoCAD 2000
 90
    32768
280
     0
281
     0
  0
ENDSEC
  0
SECTION
  2
TABLES
  0
TABLE
  2
VPORT
  5
7
330
0
100
AcDbSymbolTable
 70
     2
  0
VPORT
  5
1A57
330
7
100
AcDbSymbolTableRecord
100
AcDbViewportTableRecord
  2
*ACTIVE
 70
     0
 10
0.0
 20
0.0
 11
1.0
 21
1.0
 12
813.2712505591767
 22
1050.000004889443
 13
0.0
 23
0.0
 14
1.0
 24
1.0
 15
0.0
 25
0.0
 16
0.0
 26
0.0
 36
1.0
 17
0.0
 27
0.0
 37
0.0
 40
2123.969893068586
 41
1.780442804428044
 42
50.0
 43
0.0
 44
0.0
 50
0.0
 51
0.0
 71
     0
 72
   100
 73
     1
 74
     1
 75
     0
 76
     0
 77
     0
 78
     0
  0
ENDTAB
  0
TABLE
  2
LTYPE
  5
4
330
0
100
AcDbSymbolTable
 70
     4
  0
LTYPE
  5
11
330
4
100
AcDbSymbolTableRecord
100
AcDbLinetypeTableRecord
  2
BYBLOCK
 70
     0
  3

 72
    65
 73
     0
 40
0.0
  0
LTYPE
  5
12
330
4
100
AcDbSymbolTableRecord
100
AcDbLinetypeTableRecord
  2
BYLAYER
 70
     0
  3

 72
    65
 73
     0
 40
0.0
  0
LTYPE
  5
13
330
4
100
AcDbSymbolTableRecord
100
AcDbLinetypeTableRecord
  2
CONTINUOUS
 70
     0
  3
Solid line
 72
    65
 73
     0
 40
0.0
  0
LTYPE
  5
21
330
4
100
AcDbSymbolTableRecord
100
AcDbLinetypeTableRecord
  2
DASHED2
 70
     0
  3
CADPAC FUSION LINETYPE
 72
    65
 73
     2
 40
47.25
 49
31.5
 74
     0
 49
-15.75
 74
     0
  0
LTYPE
  5
EA2
330
4
100
AcDbSymbolTableRecord
100
AcDbLinetypeTableRecord
  2
CENTER2
 70
     0
  3
Center (.5x) ___ _ ___ _ ___ _ ___ _ ___ _ ___
 72
    65
 73
     4
 40
28.57499999999999
 49
19.05
 74
     0
 49
-3.174999999999998
 74
     0
 49
3.174999999999998
 74
     0
 49
-3.174999999999998
 74
     0
  0
LTYPE
  5
EA7
330
4
100
AcDbSymbolTableRecord
100
AcDbLinetypeTableRecord
  2
PHANTOM2
 70
     0
  3
Phantom (.5x) ___ _ _ ___ _ _ ___ _ _ ___ _ _
 72
    65
 73
     6
 40
31.75
 49
15.875
 74
     0
 49
-3.174999999999998
 74
     0
 49
3.174999999999998
 74
     0
 49
-3.174999999999998
 74
     0
 49
3.174999999999998
 74
     0
 49
-3.174999999999998
 74
     0
  0
ENDTAB
  0
TABLE
  2
LAYER
  5
2
102
{ACAD_XDICTIONARY
360
1751
102
}
330
0
100
AcDbSymbolTable
 70
    13
  0
LAYER
  5
14
330
2
100
AcDbSymbolTableRecord
100
AcDbLayerTableRecord
  2
0
 70
     4
 62
     7
  6
CONTINUOUS
  0
LAYER
  5
E95
330
2
100
AcDbSymbolTableRecord
100
AcDbLayerTableRecord
  2
DEFPOINTS
 70
     0
 62
     7
  6
CONTINUOUS
  0
LAYER
  5
E97
330
2
100
AcDbSymbolTableRecord
100
AcDbLayerTableRecord
  2
02
 70
     0
 62
     2
  6
CONTINUOUS
  0
LAYER
  5
E98
330
2
100
AcDbSymbolTableRecord
100
AcDbLayerTableRecord
  2
03
 70
     0
 62
     3
  6
CONTINUOUS
  0
LAYER
  5
E99
330
2
100
AcDbSymbolTableRecord
100
AcDbLayerTableRecord
  2
04
 70
     0
 62
     4
  6
CONTINUOUS
  0
LAYER
  5
E9B
330
2
100
AcDbSymbolTableRecord
100
AcDbLayerTableRecord
  2
06
 70
     0
 62
     6
  6
CONTINUOUS
  0
LAYER
  5
EA1
330
2
100
AcDbSymbolTableRecord
100
AcDbLayerTableRecord
  2
CHUSIN
 70
     0
 62
     6
  6
CENTER2
  0
LAYER
  5
EA3
330
2
100
AcDbSymbolTableRecord
100
AcDbLayerTableRecord
  2
HIKIDASI
 70
     0
 62
     6
  6
CONTINUOUS
  0
LAYER
  5
EA4
330
2
100
AcDbSymbolTableRecord
100
AcDbLayerTableRecord
  2
KAKURE
 70
     0
 62
     6
  6
DASHED2
  0
LAYER
  5
EA5
330
2
100
AcDbSymbolTableRecord
100
AcDbLayerTableRecord
  2
MOJI
 70
     0
 62
     3
  6
CONTINUOUS
  0
LAYER
  5
EA6
330
2
100
AcDbSymbolTableRecord
100
AcDbLayerTableRecord
  2
SOUZOU
 70
     0
 62
     6
  6
PHANTOM2
  0
LAYER
  5
EA8
330
2
100
AcDbSymbolTableRecord
100
AcDbLayerTableRecord
  2
SUNPOU
 70
     0
 62
     6
  6
CONTINUOUS
  0
LAYER
  5
196B
330
2
100
AcDbSymbolTableRecord
100
AcDbLayerTableRecord
  2
SAISEN
 70
     0
 62
     3
  6
CONTINUOUS
  0
ENDTAB
  0
TABLE
  2
STYLE
  5
3
330
0
100
AcDbSymbolTable
 70
     4
  0
STYLE
  5
17
330
3
100
AcDbSymbolTableRecord
100
AcDbTextStyleTableRecord
  2
STANDARD
 70
     0
 40
0.0
 41
0.8
 50
0.0
 71
     0
 42
15.0
  3
txt.shx
  4
bigfont.shx
  0
STYLE
  5
EAA
330
3
100
AcDbSymbolTableRecord
100
AcDbTextStyleTableRecord
  2
SUNPOU
 70
     0
 40
0.0
 41
0.8
 50
0.0
 71
     0
 42
0.2
  3
txt.shx
  4
extfont.shx
  0
STYLE
  5
EB3
330
3
100
AcDbSymbolTableRecord
100
AcDbTextStyleTableRecord
  2
0_8
 70
     0
 40
0.0
 41
0.8
 50
0.0
 71
     0
 42
2.5
  3
txt.shx
  4
extfont.shx
  0
STYLE
  5
19EE
330
3
100
AcDbSymbolTableRecord
100
AcDbTextStyleTableRecord
  2
0_80
 70
     0
 40
0.0
 41
0.8
 50
0.0
 71
     0
 42
7.0
  3
txt.shx
  4
extfont.shx
  0
ENDTAB
  0
TABLE
  2
VIEW
  5
5
330
0
100
AcDbSymbolTable
 70
     1
  0
VIEW
  5
135
330
5
100
AcDbSymbolTableRecord
100
AcDbViewTableRecord
  2
QQQQ
 70
     0
 40
1552.525
 10
12.5
 20
5.0
 41
2204.474999999999
 11
0.0
 21
0.0
 31
1.0
 12
100.0
 22
100.0
 32
0.0
 42
50.0
 43
0.0
 44
0.0
 50
0.0
 71
     0
  0
ENDTAB
  0
TABLE
  2
UCS
  5
6
330
0
100
AcDbSymbolTable
 70
     0
  0
ENDTAB
  0
TABLE
  2
APPID
  5
8
330
0
100
AcDbSymbolTable
 70
     3
  0
APPID
  5
16
330
8
100
AcDbSymbolTableRecord
100
AcDbRegAppTableRecord
  2
ACAD
 70
     0
  0
APPID
  5
1993
330
8
100
AcDbSymbolTableRecord
100
AcDbRegAppTableRecord
  2
CONTENTBLOCKICON
 70
     0
  0
APPID
  5
19EA
330
8
100
AcDbSymbolTableRecord
100
AcDbRegAppTableRecord
  2
DCO15
 70
     0
  0
ENDTAB
  0
TABLE
  2
DIMSTYLE
  5
9
330
0
100
AcDbSymbolTable
 70
     3
  0
DIMSTYLE
105
18
330
9
100
AcDbSymbolTableRecord
100
AcDbDimStyleTableRecord
  2
STANDARD
 70
     0
  3

  4

  5

  6

  7

 40
1.0
 41
0.18
 42
0.0625
 43
0.38
 44
0.18
 45
0.0
 46
0.0
 47
0.0
 48
0.0
140
0.18
141
0.09
142
0.0
143
25.4
144
1.0
145
0.0
146
1.0
147
0.09
 71
     0
 72
     0
 73
     1
 74
     1
 75
     0
 76
     0
 77
     0
 78
     0
170
     0
171
     2
172
     0
173
     0
174
     0
175
     0
176
     0
177
     0
178
     0
270
     2
271
     4
272
     4
273
     2
274
     2
340
17
275
     0
280
     0
281
     0
282
     0
283
     1
284
     0
285
     0
286
     0
287
     3
288
     0
  0
DIMSTYLE
105
EA9
102
{ACAD_REACTORS
330
EE4
330
EF1
330
EFE
330
F0B
330
F18
330
F25
330
F32
330
F3F
330
F4C
330
F59
330
F66
330
F73
330
F80
330
F8F
330
F9C
330
FA9
330
FB6
330
FC3
330
FD0
330
FDD
330
FEA
330
FF7
330
1004
330
1011
330
102B
330
103A
330
1049
330
1074
330
1083
330
1090
330
109F
330
10AC
330
10BB
330
10C8
330
10D7
330
10E4
330
1103
102
}
330
9
100
AcDbSymbolTableRecord
100
AcDbDimStyleTableRecord
  2
SUNPOU_7
 70
     0
  3

  4

  5
OPEN30
  6

  7

 40
7.0
 41
2.5
 42
1.5
 43
0.0
 44
1.0
 45
0.0
 46
0.0
 47
0.0
 48
0.0
140
2.5
141
0.0
142
0.0
143
25.4
144
1.0
145
0.0
146
1.0
147
1.0
 71
     0
 72
     0
 73
     0
 74
     0
 75
     0
 76
     0
 77
     1
 78
     8
170
     0
171
     2
172
     1
173
     0
174
     0
175
     0
176
   256
177
   256
178
     6
270
     2
271
     1
272
     1
273
     2
274
     2
340
EAA
275
     0
280
     0
281
     0
282
     0
283
     1
284
     0
285
     0
286
     0
287
     3
288
     0
  0
DIMSTYLE
105
1A08
330
9
100
AcDbSymbolTableRecord
100
AcDbDimStyleTableRecord
  2
SUNPOU_2
 70
     0
  3

  4

  5
OPEN30
  6

  7

 40
2.0
 41
2.5
 42
1.5
 43
0.0
 44
1.0
 45
0.0
 46
0.0
 47
0.0
 48
0.0
140
2.5
141
0.0
142
0.0
143
25.4
144
1.0
145
0.0
146
1.0
147
1.0
 71
     0
 72
     0
 73
     0
 74
     0
 75
     0
 76
     0
 77
     1
 78
     8
170
     0
171
     2
172
     1
173
     0
174
     0
175
     0
176
   256
177
   256
178
   256
270
     2
271
     1
272
     1
273
     2
274
     2
340
EAA
275
     0
280
     0
281
     0
282
     0
283
     1
284
     0
285
     0
286
     0
287
     3
288
     0
  0
ENDTAB
  0
TABLE
  2
BLOCK_RECORD
  5
1
330
0
100
AcDbSymbolTable
 70
    41
  0
BLOCK_RECORD
  5
A
102
{ACAD_XDICTIONARY
360
198F
102
}
330
1
100
AcDbSymbolTableRecord
100
AcDbBlockTableRecord
  2
*MODEL_SPACE
  0
BLOCK_RECORD
  5
B
102
{ACAD_XDICTIONARY
360
1991
102
}
330
1
100
AcDbSymbolTableRecord
100
AcDbBlockTableRecord
  2
*PAPER_SPACE
  0
BLOCK_RECORD
  5
EAB
330
1
100
AcDbSymbolTableRecord
100
AcDbBlockTableRecord
  2
_OPEN30
1001
CONTENTBLOCKICON
1071
        0
1004
2800000020000000200000000100080000000000000400000000000000000000000000000000000000000000000080000080000000808000800000008000800080800000C0C0C000C0DCC000F0CAA6000020400000206000002080000020A0000020C0000020E00000400000004020000040400000406000004080000040A0
1004
000040C0000040E00000600000006020000060400000606000006080000060A0000060C0000060E00000800000008020000080400000806000008080000080A0000080C0000080E00000A0000000A0200000A0400000A0600000A0800000A0A00000A0C00000A0E00000C0000000C0200000C0400000C0600000C0800000C0
1004
A00000C0C00000C0E00000E0000000E0200000E0400000E0600000E0800000E0A00000E0C00000E0E00040000000400020004000400040006000400080004000A0004000C0004000E00040200000402020004020400040206000402080004020A0004020C0004020E000404000004040200040404000404060004040800040
1004
40A0004040C0004040E00040600000406020004060400040606000406080004060A0004060C0004060E00040800000408020004080400040806000408080004080A0004080C0004080E00040A0000040A0200040A0400040A0600040A0800040A0A00040A0C00040A0E00040C0000040C0200040C0400040C0600040C08000
1004
40C0A00040C0C00040C0E00040E0000040E0200040E0400040E0600040E0800040E0A00040E0C00040E0E00080000000800020008000400080006000800080008000A0008000C0008000E00080200000802020008020400080206000802080008020A0008020C0008020E00080400000804020008040400080406000804080
1004
008040A0008040C0008040E00080600000806020008060400080606000806080008060A0008060C0008060E00080800000808020008080400080806000808080008080A0008080C0008080E00080A0000080A0200080A0400080A0600080A0800080A0A00080A0C00080A0E00080C0000080C0200080C0400080C0600080C0
1004
800080C0A00080C0C00080C0E00080E0000080E0200080E0400080E0600080E0800080E0A00080E0C00080E0E000C0000000C0002000C0004000C0006000C0008000C000A000C000C000C000E000C0200000C0202000C0204000C0206000C0208000C020A000C020C000C020E000C0400000C0402000C0404000C0406000C0
1004
408000C040A000C040C000C040E000C0600000C0602000C0604000C0606000C0608000C060A000C060C000C060E000C0800000C0802000C0804000C0806000C0808000C080A000C080C000C080E000C0A00000C0A02000C0A04000C0A06000C0A08000C0A0A000C0A0C000C0A0E000C0C00000C0C02000C0C04000C0C06000
1004
C0C08000C0C0A000F0FBFF00A4A0A000808080000000FF0000FF000000FFFF00FF000000FF00FF00FFFF0000FFFFFF0000000000000000000000000000000000000000000000000000000000000000000000000000000000000000000000000000000000000000000000000000000000000000000000000000000000000000
1004
00000000000000000000000000000000000000000000000000000000000000000000000000000000000000000000000000000000000000000000000000000000000000000000000000000000000000000000000000000000000000000000000000000000000000000000000000000000000000000000000000000000000000
1004
000000000000000000000000000000000000000000000000000000000000000000000000000000000000000000000000000000FFFF0000000000000000000000000000000000000000000000000000000000000000FFFFFFFF0000000000000000000000000000000000000000000000000000000000000000FFFFFFFF0000
1004
000000000000000000000000000000000000000000000000000000000000FFFFFF0000000000000000000000000000000000000000000000000000000000000000FFFFFFFF0000000000000000000000000000000000000000000000000000000000000000FFFFFF0000000000000000000000000000000000000000000000
1004
000000000000000000FFFFFFFF0000000000000000000000000000000000000000000000000000000000000000FFFFFFFF00000000FFFFFFFFFFFFFFFFFFFFFFFFFFFFFFFFFFFFFFFFFFFFFFFFFFFFFFFFFFFF00000000000000000000000000000000000000000000000000FFFFFFFF000000000000000000000000000000
1004
000000000000000000FFFFFFFF000000000000000000000000000000000000000000000000FFFFFFFF000000000000000000000000000000000000000000000000FFFFFFFF000000000000000000000000000000000000000000000000FFFFFFFF000000000000000000000000000000000000000000000000FFFFFFFF0000
1004
0000000000000000000000000000000000000000000000FFFFFF0000000000000000000000000000000000000000000000000000000000000000000000000000000000000000000000000000000000000000000000000000000000000000000000000000000000000000000000000000000000000000000000000000000000
1004
00000000000000000000000000000000000000000000000000000000000000000000000000000000000000000000000000000000000000000000000000000000000000000000000000000000000000000000000000000000000000000000000000000000000000000000000000000000000000000000000000000000000000
1004
0000000000000000000000000000000000000000000000000000000000000000000000000000000000000000000000000000000000000000
  0
BLOCK_RECORD
  5
EE5
330
1
100
AcDbSymbolTableRecord
100
AcDbBlockTableRecord
  2
*D1
  0
BLOCK_RECORD
  5
EF2
330
1
100
AcDbSymbolTableRecord
100
AcDbBlockTableRecord
  2
*D2
  0
BLOCK_RECORD
  5
EFF
330
1
100
AcDbSymbolTableRecord
100
AcDbBlockTableRecord
  2
*D3
  0
BLOCK_RECORD
  5
F0C
330
1
100
AcDbSymbolTableRecord
100
AcDbBlockTableRecord
  2
*D4
  0
BLOCK_RECORD
  5
F19
330
1
100
AcDbSymbolTableRecord
100
AcDbBlockTableRecord
  2
*D5
  0
BLOCK_RECORD
  5
F26
330
1
100
AcDbSymbolTableRecord
100
AcDbBlockTableRecord
  2
*D6
  0
BLOCK_RECORD
  5
F33
330
1
100
AcDbSymbolTableRecord
100
AcDbBlockTableRecord
  2
*D7
  0
BLOCK_RECORD
  5
F40
330
1
100
AcDbSymbolTableRecord
100
AcDbBlockTableRecord
  2
*D8
  0
BLOCK_RECORD
  5
F4D
330
1
100
AcDbSymbolTableRecord
100
AcDbBlockTableRecord
  2
*D9
  0
BLOCK_RECORD
  5
F5A
330
1
100
AcDbSymbolTableRecord
100
AcDbBlockTableRecord
  2
*D10
  0
BLOCK_RECORD
  5
F67
330
1
100
AcDbSymbolTableRecord
100
AcDbBlockTableRecord
  2
*D11
  0
BLOCK_RECORD
  5
F74
330
1
100
AcDbSymbolTableRecord
100
AcDbBlockTableRecord
  2
*D12
  0
BLOCK_RECORD
  5
F81
330
1
100
AcDbSymbolTableRecord
100
AcDbBlockTableRecord
  2
*D13
  0
BLOCK_RECORD
  5
F90
330
1
100
AcDbSymbolTableRecord
100
AcDbBlockTableRecord
  2
*D14
  0
BLOCK_RECORD
  5
F9D
330
1
100
AcDbSymbolTableRecord
100
AcDbBlockTableRecord
  2
*D15
  0
BLOCK_RECORD
  5
FAA
330
1
100
AcDbSymbolTableRecord
100
AcDbBlockTableRecord
  2
*D16
  0
BLOCK_RECORD
  5
FB7
330
1
100
AcDbSymbolTableRecord
100
AcDbBlockTableRecord
  2
*D17
  0
BLOCK_RECORD
  5
FC4
330
1
100
AcDbSymbolTableRecord
100
AcDbBlockTableRecord
  2
*D18
  0
BLOCK_RECORD
  5
FD1
330
1
100
AcDbSymbolTableRecord
100
AcDbBlockTableRecord
  2
*D19
  0
BLOCK_RECORD
  5
FDE
330
1
100
AcDbSymbolTableRecord
100
AcDbBlockTableRecord
  2
*D20
  0
BLOCK_RECORD
  5
FEB
330
1
100
AcDbSymbolTableRecord
100
AcDbBlockTableRecord
  2
*D21
  0
BLOCK_RECORD
  5
FF8
330
1
100
AcDbSymbolTableRecord
100
AcDbBlockTableRecord
  2
*D22
  0
BLOCK_RECORD
  5
1005
330
1
100
AcDbSymbolTableRecord
100
AcDbBlockTableRecord
  2
*D23
  0
BLOCK_RECORD
  5
1012
330
1
100
AcDbSymbolTableRecord
100
AcDbBlockTableRecord
  2
*D24
  0
BLOCK_RECORD
  5
102C
330
1
100
AcDbSymbolTableRecord
100
AcDbBlockTableRecord
  2
*D25
  0
BLOCK_RECORD
  5
103B
330
1
100
AcDbSymbolTableRecord
100
AcDbBlockTableRecord
  2
*D26
  0
BLOCK_RECORD
  5
104A
330
1
100
AcDbSymbolTableRecord
100
AcDbBlockTableRecord
  2
*D27
  0
BLOCK_RECORD
  5
1075
330
1
100
AcDbSymbolTableRecord
100
AcDbBlockTableRecord
  2
*D28
  0
BLOCK_RECORD
  5
1084
330
1
100
AcDbSymbolTableRecord
100
AcDbBlockTableRecord
  2
*D29
  0
BLOCK_RECORD
  5
1091
330
1
100
AcDbSymbolTableRecord
100
AcDbBlockTableRecord
  2
*D30
  0
BLOCK_RECORD
  5
10A0
330
1
100
AcDbSymbolTableRecord
100
AcDbBlockTableRecord
  2
*D31
  0
BLOCK_RECORD
  5
10AD
330
1
100
AcDbSymbolTableRecord
100
AcDbBlockTableRecord
  2
*D32
  0
BLOCK_RECORD
  5
10BC
330
1
100
AcDbSymbolTableRecord
100
AcDbBlockTableRecord
  2
*D33
  0
BLOCK_RECORD
  5
10C9
330
1
100
AcDbSymbolTableRecord
100
AcDbBlockTableRecord
  2
*D34
  0
BLOCK_RECORD
  5
10D8
330
1
100
AcDbSymbolTableRecord
100
AcDbBlockTableRecord
  2
*D35
  0
BLOCK_RECORD
  5
10E5
330
1
100
AcDbSymbolTableRecord
100
AcDbBlockTableRecord
  2
*D36
  0
BLOCK_RECORD
  5
1104
330
1
100
AcDbSymbolTableRecord
100
AcDbBlockTableRecord
  2
*D37
  0
BLOCK_RECORD
  5
199E
330
1
100
AcDbSymbolTableRecord
100
AcDbBlockTableRecord
  2
*X38
  0
BLOCK_RECORD
  5
19B1
330
1
100
AcDbSymbolTableRecord
100
AcDbBlockTableRecord
  2
*X39
  0
BLOCK_RECORD
  5
19C4
330
1
100
AcDbSymbolTableRecord
100
AcDbBlockTableRecord
  2
*X40
  0
ENDTAB
  0
ENDSEC
  0
SECTION
  2
BLOCKS
  0
BLOCK
  5
D
330
A
100
AcDbEntity
  8
0
100
AcDbBlockBegin
  2
*MODEL_SPACE
 70
     0
 10
0.0
 20
0.0
 30
0.0
  3
*MODEL_SPACE
  1

  0
ENDBLK
  5
E
330
A
100
AcDbEntity
  8
0
100
AcDbBlockEnd
  0
BLOCK
  5
F
330
B
100
AcDbEntity
 67
     1
  8
0
100
AcDbBlockBegin
  2
*PAPER_SPACE
 70
     0
 10
0.0
 20
0.0
 30
0.0
  3
*PAPER_SPACE
  1

  0
ENDBLK
  5
10
330
B
100
AcDbEntity
 67
     1
  8
0
100
AcDbBlockEnd
  0
BLOCK
  5
EAF
330
EAB
100
AcDbEntity
  8
0
100
AcDbBlockBegin
  2
_OPEN30
 70
     0
 10
0.0
 20
0.0
 30
0.0
  3
_OPEN30
  1

  0
LINE
  5
EAC
330
EAB
100
AcDbEntity
  8
0
  6
BYBLOCK
 62
     0
100
AcDbLine
 10
-1.0
 20
0.26794919
 30
0.0
 11
0.0
 21
0.0
 31
0.0
  0
LINE
  5
EAD
330
EAB
100
AcDbEntity
  8
0
  6
BYBLOCK
 62
     0
100
AcDbLine
 10
0.0
 20
0.0
 30
0.0
 11
-1.0
 21
-0.26794919
 31
0.0
  0
LINE
  5
EAE
330
EAB
100
AcDbEntity
  8
0
  6
BYBLOCK
 62
     0
100
AcDbLine
 10
0.0
 20
0.0
 30
0.0
 11
-1.0
 21
0.0
 31
0.0
  0
ENDBLK
  5
EB0
330
EAB
100
AcDbEntity
  8
0
100
AcDbBlockEnd
  0
BLOCK
  5
EEF
330
EE5
100
AcDbEntity
  8
0
100
AcDbBlockBegin
  2
*D1
 70
     1
 10
0.0
 20
0.0
 30
0.0
  3
*D1
  1

  0
LINE
  5
1805
330
EE5
100
AcDbEntity
  8
SUNPOU
  6
CONTINUOUS
100
AcDbLine
 10
352.4526588783972
 20
351.2527438670703
 30
0.0
 11
352.4526588783972
 21
295.5387548124337
 31
0.0
  0
LINE
  5
1806
330
EE5
100
AcDbEntity
  8
SUNPOU
  6
CONTINUOUS
100
AcDbLine
 10
552.4526588783974
 20
351.2527438670703
 30
0.0
 11
552.4526588783974
 21
295.5387548124337
 31
0.0
  0
LINE
  5
1807
330
EE5
100
AcDbEntity
  8
SUNPOU
  6
CONTINUOUS
100
AcDbLine
 10
369.9526588783971
 20
302.5387548124336
 30
0.0
 11
534.9526588783974
 21
302.5387548124336
 31
0.0
  0
MTEXT
  5
1808
330
EE5
100
AcDbEntity
  8
SUNPOU
  6
CONTINUOUS
 62
     6
100
AcDbMText
 10
452.4526588783973
 20
284.778760454379
 30
0.0
 40
17.5
 41
0.0
 71
     5
 72
     1
  1
\A1;200
  7
SUNPOU
 11
-1.0
 21
0.0000000000000001
 31
0.0
1001
ACAD
1000
MTEXTBEGIN
1070
    73
1070
     1
1070
    44
1040
1.0
1070
    74
1070
     0
1000
MTEXTEND
1000
MTEXTBEGIN
1070
    73
1070
     1
1070
    44
1040
1.0
1070
    74
1070
     0
1000
MTEXTEND
  0
INSERT
  5
1809
330
EE5
100
AcDbEntity
  8
SUNPOU
  6
CONTINUOUS
100
AcDbBlockReference
  2
_OPEN30
 10
352.4526588783972
 20
302.5387548124336
 30
0.0
 41
17.5
 42
17.5
 43
17.5
 50
180.0
  0
INSERT
  5
180A
330
EE5
100
AcDbEntity
  8
SUNPOU
  6
CONTINUOUS
100
AcDbBlockReference
  2
_OPEN30
 10
552.4526588783974
 20
302.5387548124336
 30
0.0
 41
17.5
 42
17.5
 43
17.5
  0
POINT
  5
180B
330
EE5
100
AcDbEntity
  8
DEFPOINTS
  6
CONTINUOUS
 62
     0
100
AcDbPoint
 10
352.4526588783972
 20
361.7527438670703
 30
0.0
  0
POINT
  5
180C
330
EE5
100
AcDbEntity
  8
DEFPOINTS
  6
CONTINUOUS
 62
     0
100
AcDbPoint
 10
552.4526588783974
 20
361.7527438670703
 30
0.0
  0
POINT
  5
180D
330
EE5
100
AcDbEntity
  8
DEFPOINTS
  6
CONTINUOUS
 62
     0
100
AcDbPoint
 10
552.4526588783974
 20
302.5387548124336
 30
0.0
  0
ENDBLK
  5
EF0
330
EE5
100
AcDbEntity
  8
0
100
AcDbBlockEnd
  0
BLOCK
  5
EFC
330
EF2
100
AcDbEntity
  8
0
100
AcDbBlockBegin
  2
*D2
 70
     1
 10
0.0
 20
0.0
 30
0.0
  3
*D2
  1

  0
LINE
  5
180E
330
EF2
100
AcDbEntity
  8
SUNPOU
  6
CONTINUOUS
100
AcDbLine
 10
402.4526588783983
 20
427.652743867069
 30
0.0
 11
402.4526588783983
 21
347.8777357397738
 31
0.0
  0
LINE
  5
180F
330
EF2
100
AcDbEntity
  8
SUNPOU
  6
CONTINUOUS
100
AcDbLine
 10
502.4526588783983
 20
427.6527438670691
 30
0.0
 11
502.4526588783983
 21
347.8777357397738
 31
0.0
  0
LINE
  5
1810
330
EF2
100
AcDbEntity
  8
SUNPOU
  6
CONTINUOUS
100
AcDbLine
 10
419.9526588783982
 20
354.8777357397738
 30
0.0
 11
484.9526588783982
 21
354.8777357397738
 31
0.0
  0
MTEXT
  5
1811
330
EF2
100
AcDbEntity
  8
SUNPOU
  6
CONTINUOUS
 62
     6
100
AcDbMText
 10
452.4526588783983
 20
338.0714943268576
 30
0.0
 40
17.5
 41
0.0
 71
     5
 72
     1
  1
\A1;100
  7
SUNPOU
 11
-1.0
 21
0.0000000000000001
 31
0.0
1001
ACAD
1000
MTEXTBEGIN
1070
    73
1070
     1
1070
    44
1040
1.0
1070
    74
1070
     0
1000
MTEXTEND
1000
MTEXTBEGIN
1070
    73
1070
     1
1070
    44
1040
1.0
1070
    74
1070
     0
1000
MTEXTEND
  0
INSERT
  5
1812
330
EF2
100
AcDbEntity
  8
SUNPOU
  6
CONTINUOUS
100
AcDbBlockReference
  2
_OPEN30
 10
402.4526588783983
 20
354.8777357397738
 30
0.0
 41
17.5
 42
17.5
 43
17.5
 50
180.0
  0
INSERT
  5
1813
330
EF2
100
AcDbEntity
  8
SUNPOU
  6
CONTINUOUS
100
AcDbBlockReference
  2
_OPEN30
 10
502.4526588783983
 20
354.8777357397738
 30
0.0
 41
17.5
 42
17.5
 43
17.5
  0
POINT
  5
1814
330
EF2
100
AcDbEntity
  8
DEFPOINTS
  6
CONTINUOUS
 62
     0
100
AcDbPoint
 10
402.4526588783983
 20
438.1527438670691
 30
0.0
  0
POINT
  5
1815
330
EF2
100
AcDbEntity
  8
DEFPOINTS
  6
CONTINUOUS
 62
     0
100
AcDbPoint
 10
502.4526588783983
 20
438.1527438670691
 30
0.0
  0
POINT
  5
1816
330
EF2
100
AcDbEntity
  8
DEFPOINTS
  6
CONTINUOUS
 62
     0
100
AcDbPoint
 10
502.4526588783983
 20
354.8777357397738
 30
0.0
  0
ENDBLK
  5
EFD
330
EF2
100
AcDbEntity
  8
0
100
AcDbBlockEnd
  0
BLOCK
  5
F09
330
EFF
100
AcDbEntity
  8
0
100
AcDbBlockBegin
  2
*D3
 70
     1
 10
0.0
 20
0.0
 30
0.0
  3
*D3
  1

  0
LINE
  5
1637
330
EFF
100
AcDbEntity
  8
SUNPOU
  6
CONTINUOUS
100
AcDbLine
 10
401.9526588783982
 20
428.152743867069
 30
0.0
 11
318.4526588783976
 21
428.1527438670691
 31
0.0
  0
LINE
  5
1638
330
EFF
100
AcDbEntity
  8
SUNPOU
  6
CONTINUOUS
100
AcDbLine
 10
401.9526588783985
 20
528.1527438670691
 30
0.0
 11
318.4526588783976
 21
528.1527438670691
 31
0.0
  0
LINE
  5
1639
330
EFF
100
AcDbEntity
  8
SUNPOU
  6
CONTINUOUS
100
AcDbLine
 10
325.4526588783976
 20
445.6527438670691
 30
0.0
 11
325.4526588783976
 21
510.6527438670691
 31
0.0
  0
MTEXT
  5
163A
330
EFF
100
AcDbEntity
  8
SUNPOU
  6
CONTINUOUS
 62
     6
100
AcDbMText
 10
309.7026588783976
 20
461.1911413685954
 30
0.0
 40
17.5
 41
0.0
 71
     5
 72
     1
  1
\A1;100
  7
SUNPOU
 11
0.0000000000000001
 21
1.0
 31
0.0
1001
ACAD
1000
MTEXTBEGIN
1070
    73
1070
     1
1070
    44
1040
1.0
1070
    74
1070
     0
1000
MTEXTEND
1000
MTEXTBEGIN
1070
    73
1070
     1
1070
    44
1040
1.0
1070
    74
1070
     0
1000
MTEXTEND
  0
INSERT
  5
163B
330
EFF
100
AcDbEntity
  8
SUNPOU
  6
CONTINUOUS
100
AcDbBlockReference
  2
_OPEN30
 10
325.4526588783976
 20
428.1527438670691
 30
0.0
 41
17.5
 42
17.5
 43
17.5
 50
270.0
  0
INSERT
  5
163C
330
EFF
100
AcDbEntity
  8
SUNPOU
  6
CONTINUOUS
100
AcDbBlockReference
  2
_OPEN30
 10
325.4526588783976
 20
528.1527438670691
 30
0.0
 41
17.5
 42
17.5
 43
17.5
 50
90.0
  0
POINT
  5
163D
330
EFF
100
AcDbEntity
  8
DEFPOINTS
  6
CONTINUOUS
 62
     0
100
AcDbPoint
 10
412.4526588783982
 20
428.152743867069
 30
0.0
  0
POINT
  5
163E
330
EFF
100
AcDbEntity
  8
DEFPOINTS
  6
CONTINUOUS
 62
     0
100
AcDbPoint
 10
412.4526588783984
 20
528.1527438670691
 30
0.0
  0
POINT
  5
163F
330
EFF
100
AcDbEntity
  8
DEFPOINTS
  6
CONTINUOUS
 62
     0
100
AcDbPoint
 10
325.4526588783976
 20
528.1527438670691
 30
0.0
  0
ENDBLK
  5
F0A
330
EFF
100
AcDbEntity
  8
0
100
AcDbBlockEnd
  0
BLOCK
  5
F16
330
F0C
100
AcDbEntity
  8
0
100
AcDbBlockBegin
  2
*D4
 70
     1
 10
0.0
 20
0.0
 30
0.0
  3
*D4
  1

  0
LINE
  5
1613
330
F0C
100
AcDbEntity
  8
SUNPOU
  6
CONTINUOUS
100
AcDbLine
 10
343.5526588783973
 20
390.1527438670703
 30
0.0
 11
214.850635805892
 21
390.1527438670703
 31
0.0
  0
LINE
  5
1614
330
F0C
100
AcDbEntity
  8
SUNPOU
  6
CONTINUOUS
100
AcDbLine
 10
320.1449162842888
 20
478.1527438670694
 30
0.0
 11
214.850635805892
 21
478.1527438670694
 31
0.0
  0
LINE
  5
1615
330
F0C
100
AcDbEntity
  8
SUNPOU
  6
CONTINUOUS
100
AcDbLine
 10
221.8506358058919
 20
407.6527438670702
 30
0.0
 11
221.850635805892
 21
460.6527438670695
 31
0.0
  0
INSERT
  5
1616
330
F0C
100
AcDbEntity
  8
SUNPOU
  6
CONTINUOUS
100
AcDbBlockReference
  2
_OPEN30
 10
221.8506358058919
 20
390.1527438670703
 30
0.0
 41
17.5
 42
17.5
 43
17.5
 50
270.0
  0
INSERT
  5
1617
330
F0C
100
AcDbEntity
  8
SUNPOU
  6
CONTINUOUS
100
AcDbBlockReference
  2
_OPEN30
 10
221.850635805892
 20
478.1527438670694
 30
0.0
 41
17.5
 42
17.5
 43
17.5
 50
90.0
  0
MTEXT
  5
1618
330
F0C
100
AcDbEntity
  8
SUNPOU
  6
CONTINUOUS
 62
     6
100
AcDbMText
 10
206.1006358058919
 20
434.1527438670698
 30
0.0
 40
17.5
 41
0.0
 71
     5
 72
     1
  1
\A1;88
  7
SUNPOU
 11
0.0000000000000001
 21
1.0
 31
0.0
1001
ACAD
1000
MTEXTBEGIN
1070
    73
1070
     1
1070
    44
1040
1.0
1070
    74
1070
     0
1000
MTEXTEND
1000
MTEXTBEGIN
1070
    73
1070
     1
1070
    44
1040
1.0
1070
    74
1070
     0
1000
MTEXTEND
  0
POINT
  5
1619
330
F0C
100
AcDbEntity
  8
DEFPOINTS
  6
CONTINUOUS
 62
     0
100
AcDbPoint
 10
354.0526588783972
 20
390.1527438670703
 30
0.0
  0
POINT
  5
161A
330
F0C
100
AcDbEntity
  8
DEFPOINTS
  6
CONTINUOUS
 62
     0
100
AcDbPoint
 10
330.6449162842888
 20
478.1527438670694
 30
0.0
  0
POINT
  5
161B
330
F0C
100
AcDbEntity
  8
DEFPOINTS
  6
CONTINUOUS
 62
     0
100
AcDbPoint
 10
221.850635805892
 20
478.1527438670694
 30
0.0
  0
ENDBLK
  5
F17
330
F0C
100
AcDbEntity
  8
0
100
AcDbBlockEnd
  0
BLOCK
  5
F23
330
F19
100
AcDbEntity
  8
0
100
AcDbBlockBegin
  2
*D5
 70
     1
 10
0.0
 20
0.0
 30
0.0
  3
*D5
  1

  0
LINE
  5
15E6
330
F19
100
AcDbEntity
  8
SUNPOU
  6
CONTINUOUS
100
AcDbLine
 10
320.1449162842888
 20
478.1527438670694
 30
0.0
 11
214.850635805892
 21
478.1527438670694
 31
0.0
  0
LINE
  5
15E7
330
F19
100
AcDbEntity
  8
SUNPOU
  6
CONTINUOUS
100
AcDbLine
 10
343.415980003713
 20
1990.158592404625
 30
0.0
 11
214.8506358058923
 21
1990.158592404625
 31
0.0
  0
LINE
  5
15E8
330
F19
100
AcDbEntity
  8
SUNPOU
  6
CONTINUOUS
100
AcDbLine
 10
221.8506358058919
 20
495.6527438670693
 30
0.0
 11
221.8506358058923
 21
1972.658592404624
 31
0.0
  0
INSERT
  5
15E9
330
F19
100
AcDbEntity
  8
SUNPOU
  6
CONTINUOUS
100
AcDbBlockReference
  2
_OPEN30
 10
221.8506358058919
 20
478.1527438670694
 30
0.0
 41
17.5
 42
17.5
 43
17.5
 50
270.0
  0
INSERT
  5
15EA
330
F19
100
AcDbEntity
  8
SUNPOU
  6
CONTINUOUS
100
AcDbBlockReference
  2
_OPEN30
 10
221.8506358058923
 20
1990.158592404625
 30
0.0
 41
17.5
 42
17.5
 43
17.5
 50
90.0
  0
MTEXT
  5
15EB
330
F19
100
AcDbEntity
  8
SUNPOU
  6
CONTINUOUS
 62
     6
100
AcDbMText
 10
206.1006358058919
 20
1234.155668135847
 30
0.0
 40
17.5
 41
0.0
 71
     5
 72
     1
  1
\A1;W-88
  7
SUNPOU
 11
0.0000000000000001
 21
1.0
 31
0.0
1001
ACAD
1000
MTEXTBEGIN
1070
    73
1070
     1
1070
    44
1040
1.0
1070
    74
1070
     0
1000
MTEXTEND
1000
MTEXTBEGIN
1070
    73
1070
     1
1070
    44
1040
1.0
1070
    74
1070
     0
1000
MTEXTEND
  0
POINT
  5
15EC
330
F19
100
AcDbEntity
  8
DEFPOINTS
  6
CONTINUOUS
 62
     0
100
AcDbPoint
 10
330.6449162842888
 20
478.1527438670694
 30
0.0
  0
POINT
  5
15ED
330
F19
100
AcDbEntity
  8
DEFPOINTS
  6
CONTINUOUS
 62
     0
100
AcDbPoint
 10
353.915980003713
 20
1990.158592404625
 30
0.0
  0
POINT
  5
15EE
330
F19
100
AcDbEntity
  8
DEFPOINTS
  6
CONTINUOUS
 62
     0
100
AcDbPoint
 10
221.8506358058923
 20
1990.158592404625
 30
0.0
  0
ENDBLK
  5
F24
330
F19
100
AcDbEntity
  8
0
100
AcDbBlockEnd
  0
BLOCK
  5
F30
330
F26
100
AcDbEntity
  8
0
100
AcDbBlockBegin
  2
*D6
 70
     1
 10
0.0
 20
0.0
 30
0.0
  3
*D6
  1

  0
LINE
  5
15EF
330
F26
100
AcDbEntity
  8
SUNPOU
  6
CONTINUOUS
100
AcDbLine
 10
343.5526588783973
 20
390.1527438670703
 30
0.0
 11
174.850635805892
 21
390.1527438670703
 31
0.0
  0
LINE
  5
15F0
330
F26
100
AcDbEntity
  8
SUNPOU
  6
CONTINUOUS
100
AcDbLine
 10
343.5526588784012
 20
1990.15274386707
 30
0.0
 11
174.8506358058923
 21
1990.15274386707
 31
0.0
  0
LINE
  5
15F1
330
F26
100
AcDbEntity
  8
SUNPOU
  6
CONTINUOUS
100
AcDbLine
 10
181.8506358058919
 20
407.6527438670702
 30
0.0
 11
181.8506358058922
 21
1972.65274386707
 31
0.0
  0
INSERT
  5
15F2
330
F26
100
AcDbEntity
  8
SUNPOU
  6
CONTINUOUS
100
AcDbBlockReference
  2
_OPEN30
 10
181.8506358058919
 20
390.1527438670703
 30
0.0
 41
17.5
 42
17.5
 43
17.5
 50
270.0
  0
INSERT
  5
15F3
330
F26
100
AcDbEntity
  8
SUNPOU
  6
CONTINUOUS
100
AcDbBlockReference
  2
_OPEN30
 10
181.8506358058922
 20
1990.15274386707
 30
0.0
 41
17.5
 42
17.5
 43
17.5
 50
90.0
  0
MTEXT
  5
15F4
330
F26
100
AcDbEntity
  8
SUNPOU
  6
CONTINUOUS
 62
     6
100
AcDbMText
 10
166.1006358058919
 20
1190.152743867069
 30
0.0
 40
17.5
 41
0.0
 71
     5
 72
     1
  1
\A1;W
  7
SUNPOU
 11
0.0000000000000001
 21
1.0
 31
0.0
1001
ACAD
1000
MTEXTBEGIN
1070
    73
1070
     1
1070
    44
1040
1.0
1070
    74
1070
     0
1000
MTEXTEND
1000
MTEXTBEGIN
1070
    73
1070
     1
1070
    44
1040
1.0
1070
    74
1070
     0
1000
MTEXTEND
  0
POINT
  5
15F5
330
F26
100
AcDbEntity
  8
DEFPOINTS
  6
CONTINUOUS
 62
     0
100
AcDbPoint
 10
354.0526588783972
 20
390.1527438670703
 30
0.0
  0
POINT
  5
15F6
330
F26
100
AcDbEntity
  8
DEFPOINTS
  6
CONTINUOUS
 62
     0
100
AcDbPoint
 10
354.0526588784012
 20
1990.15274386707
 30
0.0
  0
POINT
  5
15F7
330
F26
100
AcDbEntity
  8
DEFPOINTS
  6
CONTINUOUS
 62
     0
100
AcDbPoint
 10
181.8506358058922
 20
1990.15274386707
 30
0.0
  0
ENDBLK
  5
F31
330
F26
100
AcDbEntity
  8
0
100
AcDbBlockEnd
  0
BLOCK
  5
F3D
330
F33
100
AcDbEntity
  8
0
100
AcDbBlockBegin
  2
*D7
 70
     1
 10
0.0
 20
0.0
 30
0.0
  3
*D7
  1

  0
LINE
  5
15F8
330
F33
100
AcDbEntity
  8
SUNPOU
  6
CONTINUOUS
100
AcDbLine
 10
371.9526588783981
 20
758.1527438670693
 30
0.0
 11
264.850635805892
 21
758.1527438670693
 31
0.0
  0
LINE
  5
15F9
330
F33
100
AcDbEntity
  8
SUNPOU
  6
CONTINUOUS
100
AcDbLine
 10
371.9526588783981
 20
1173.152743867069
 30
0.0
 11
264.8506358058921
 21
1173.152743867069
 31
0.0
  0
LINE
  5
15FA
330
F33
100
AcDbEntity
  8
SUNPOU
  6
CONTINUOUS
100
AcDbLine
 10
271.850635805892
 20
775.6527438670696
 30
0.0
 11
271.8506358058921
 21
1155.652743867068
 31
0.0
  0
INSERT
  5
15FB
330
F33
100
AcDbEntity
  8
SUNPOU
  6
CONTINUOUS
100
AcDbBlockReference
  2
_OPEN30
 10
271.850635805892
 20
758.1527438670693
 30
0.0
 41
17.5
 42
17.5
 43
17.5
 50
270.0
  0
INSERT
  5
15FC
330
F33
100
AcDbEntity
  8
SUNPOU
  6
CONTINUOUS
100
AcDbBlockReference
  2
_OPEN30
 10
271.8506358058921
 20
1173.152743867069
 30
0.0
 41
17.5
 42
17.5
 43
17.5
 50
90.0
  0
MTEXT
  5
15FD
330
F33
100
AcDbEntity
  8
SUNPOU
  6
CONTINUOUS
 62
     6
100
AcDbMText
 10
256.1006358058917
 20
965.6527438670693
 30
0.0
 40
17.5
 41
0.0
 71
     5
 72
     1
  1
\A1;415
  7
SUNPOU
 11
0.0000000000000001
 21
1.0
 31
0.0
1001
ACAD
1000
MTEXTBEGIN
1070
    73
1070
     1
1070
    44
1040
1.0
1070
    74
1070
     0
1000
MTEXTEND
1000
MTEXTBEGIN
1070
    73
1070
     1
1070
    44
1040
1.0
1070
    74
1070
     0
1000
MTEXTEND
  0
POINT
  5
15FE
330
F33
100
AcDbEntity
  8
DEFPOINTS
  6
CONTINUOUS
 62
     0
100
AcDbPoint
 10
382.4526588783981
 20
758.1527438670693
 30
0.0
  0
POINT
  5
15FF
330
F33
100
AcDbEntity
  8
DEFPOINTS
  6
CONTINUOUS
 62
     0
100
AcDbPoint
 10
382.4526588783981
 20
1173.152743867069
 30
0.0
  0
POINT
  5
1600
330
F33
100
AcDbEntity
  8
DEFPOINTS
  6
CONTINUOUS
 62
     0
100
AcDbPoint
 10
271.8506358058921
 20
1173.152743867069
 30
0.0
  0
ENDBLK
  5
F3E
330
F33
100
AcDbEntity
  8
0
100
AcDbBlockEnd
  0
BLOCK
  5
F4A
330
F40
100
AcDbEntity
  8
0
100
AcDbBlockBegin
  2
*D8
 70
     1
 10
0.0
 20
0.0
 30
0.0
  3
*D8
  1

  0
LINE
  5
160A
330
F40
100
AcDbEntity
  8
SUNPOU
  6
CONTINUOUS
100
AcDbLine
 10
371.9526588783981
 20
758.1527438670693
 30
0.0
 11
314.8506358058921
 21
758.1527438670693
 31
0.0
  0
LINE
  5
160B
330
F40
100
AcDbEntity
  8
SUNPOU
  6
CONTINUOUS
100
AcDbLine
 10
374.2351208505003
 20
858.1527438670695
 30
0.0
 11
314.8506358058921
 21
858.1527438670695
 31
0.0
  0
LINE
  5
160C
330
F40
100
AcDbEntity
  8
SUNPOU
  6
CONTINUOUS
100
AcDbLine
 10
321.8506358058921
 20
775.6527438670696
 30
0.0
 11
321.8506358058921
 21
840.6527438670693
 31
0.0
  0
INSERT
  5
160D
330
F40
100
AcDbEntity
  8
SUNPOU
  6
CONTINUOUS
100
AcDbBlockReference
  2
_OPEN30
 10
321.8506358058921
 20
758.1527438670693
 30
0.0
 41
17.5
 42
17.5
 43
17.5
 50
270.0
  0
INSERT
  5
160E
330
F40
100
AcDbEntity
  8
SUNPOU
  6
CONTINUOUS
100
AcDbBlockReference
  2
_OPEN30
 10
321.8506358058921
 20
858.1527438670695
 30
0.0
 41
17.5
 42
17.5
 43
17.5
 50
90.0
  0
MTEXT
  5
160F
330
F40
100
AcDbEntity
  8
SUNPOU
  6
CONTINUOUS
 62
     6
100
AcDbMText
 10
306.100635805892
 20
808.1527438670695
 30
0.0
 40
17.5
 41
0.0
 71
     5
 72
     1
  1
\A1;100
  7
SUNPOU
 11
0.0000000000000001
 21
1.0
 31
0.0
1001
ACAD
1000
MTEXTBEGIN
1070
    73
1070
     1
1070
    44
1040
1.0
1070
    74
1070
     0
1000
MTEXTEND
1000
MTEXTBEGIN
1070
    73
1070
     1
1070
    44
1040
1.0
1070
    74
1070
     0
1000
MTEXTEND
  0
POINT
  5
1610
330
F40
100
AcDbEntity
  8
DEFPOINTS
  6
CONTINUOUS
 62
     0
100
AcDbPoint
 10
382.4526588783981
 20
758.1527438670693
 30
0.0
  0
POINT
  5
1611
330
F40
100
AcDbEntity
  8
DEFPOINTS
  6
CONTINUOUS
 62
     0
100
AcDbPoint
 10
384.7351208505003
 20
858.1527438670695
 30
0.0
  0
POINT
  5
1612
330
F40
100
AcDbEntity
  8
DEFPOINTS
  6
CONTINUOUS
 62
     0
100
AcDbPoint
 10
321.8506358058921
 20
858.1527438670695
 30
0.0
  0
ENDBLK
  5
F4B
330
F40
100
AcDbEntity
  8
0
100
AcDbBlockEnd
  0
BLOCK
  5
F57
330
F4D
100
AcDbEntity
  8
0
100
AcDbBlockBegin
  2
*D9
 70
     1
 10
0.0
 20
0.0
 30
0.0
  3
*D9
  1

  0
LINE
  5
1601
330
F4D
100
AcDbEntity
  8
SUNPOU
  6
CONTINUOUS
100
AcDbLine
 10
374.2351208505003
 20
858.1527438670695
 30
0.0
 11
314.850635805892
 21
858.1527438670695
 31
0.0
  0
LINE
  5
1602
330
F4D
100
AcDbEntity
  8
SUNPOU
  6
CONTINUOUS
100
AcDbLine
 10
371.9526588783981
 20
1173.152743867069
 30
0.0
 11
314.8506358058921
 21
1173.152743867069
 31
0.0
  0
LINE
  5
1603
330
F4D
100
AcDbEntity
  8
SUNPOU
  6
CONTINUOUS
100
AcDbLine
 10
321.850635805892
 20
875.6527438670694
 30
0.0
 11
321.8506358058921
 21
1155.652743867068
 31
0.0
  0
INSERT
  5
1604
330
F4D
100
AcDbEntity
  8
SUNPOU
  6
CONTINUOUS
100
AcDbBlockReference
  2
_OPEN30
 10
321.850635805892
 20
858.1527438670695
 30
0.0
 41
17.5
 42
17.5
 43
17.5
 50
270.0
  0
INSERT
  5
1605
330
F4D
100
AcDbEntity
  8
SUNPOU
  6
CONTINUOUS
100
AcDbBlockReference
  2
_OPEN30
 10
321.8506358058921
 20
1173.152743867069
 30
0.0
 41
17.5
 42
17.5
 43
17.5
 50
90.0
  0
MTEXT
  5
1606
330
F4D
100
AcDbEntity
  8
SUNPOU
  6
CONTINUOUS
 62
     6
100
AcDbMText
 10
306.1006358058917
 20
1015.652743867069
 30
0.0
 40
17.5
 41
0.0
 71
     5
 72
     1
  1
\A1;315
  7
SUNPOU
 11
0.0000000000000001
 21
1.0
 31
0.0
1001
ACAD
1000
MTEXTBEGIN
1070
    73
1070
     1
1070
    44
1040
1.0
1070
    74
1070
     0
1000
MTEXTEND
1000
MTEXTBEGIN
1070
    73
1070
     1
1070
    44
1040
1.0
1070
    74
1070
     0
1000
MTEXTEND
  0
POINT
  5
1607
330
F4D
100
AcDbEntity
  8
DEFPOINTS
  6
CONTINUOUS
 62
     0
100
AcDbPoint
 10
384.7351208505003
 20
858.1527438670695
 30
0.0
  0
POINT
  5
1608
330
F4D
100
AcDbEntity
  8
DEFPOINTS
  6
CONTINUOUS
 62
     0
100
AcDbPoint
 10
382.4526588783981
 20
1173.152743867069
 30
0.0
  0
POINT
  5
1609
330
F4D
100
AcDbEntity
  8
DEFPOINTS
  6
CONTINUOUS
 62
     0
100
AcDbPoint
 10
321.8506358058921
 20
1173.152743867069
 30
0.0
  0
ENDBLK
  5
F58
330
F4D
100
AcDbEntity
  8
0
100
AcDbBlockEnd
  0
BLOCK
  5
F64
330
F5A
100
AcDbEntity
  8
0
100
AcDbBlockBegin
  2
*D10
 70
     1
 10
0.0
 20
0.0
 30
0.0
  3
*D10
  1

  0
LINE
  5
1820
330
F5A
100
AcDbEntity
  8
SUNPOU
  6
CONTINUOUS
100
AcDbLine
 10
377.452658878398
 20
1178.652743867068
 30
0.0
 11
377.452658878398
 21
1296.972817310592
 31
0.0
  0
LINE
  5
1821
330
F5A
100
AcDbEntity
  8
SUNPOU
  6
CONTINUOUS
100
AcDbLine
 10
527.4526588783983
 20
1178.652743867068
 30
0.0
 11
527.4526588783983
 21
1296.972817310592
 31
0.0
  0
LINE
  5
1822
330
F5A
100
AcDbEntity
  8
SUNPOU
  6
CONTINUOUS
100
AcDbLine
 10
394.9526588783981
 20
1289.972817310592
 30
0.0
 11
509.9526588783982
 21
1289.972817310592
 31
0.0
  0
MTEXT
  5
1823
330
F5A
100
AcDbEntity
  8
SUNPOU
  6
CONTINUOUS
 62
     6
100
AcDbMText
 10
452.4526588783982
 20
1273.987003377768
 30
0.0
 40
17.5
 41
0.0
 71
     5
 72
     1
  1
\A1;150
  7
SUNPOU
 11
-1.0
 21
0.0000000000000001
 31
0.0
1001
ACAD
1000
MTEXTBEGIN
1070
    73
1070
     1
1070
    44
1040
1.0
1070
    74
1070
     0
1000
MTEXTEND
1000
MTEXTBEGIN
1070
    73
1070
     1
1070
    44
1040
1.0
1070
    74
1070
     0
1000
MTEXTEND
  0
INSERT
  5
1824
330
F5A
100
AcDbEntity
  8
SUNPOU
  6
CONTINUOUS
100
AcDbBlockReference
  2
_OPEN30
 10
377.452658878398
 20
1289.972817310592
 30
0.0
 41
17.5
 42
17.5
 43
17.5
 50
180.0
  0
INSERT
  5
1825
330
F5A
100
AcDbEntity
  8
SUNPOU
  6
CONTINUOUS
100
AcDbBlockReference
  2
_OPEN30
 10
527.4526588783983
 20
1289.972817310592
 30
0.0
 41
17.5
 42
17.5
 43
17.5
  0
POINT
  5
1826
330
F5A
100
AcDbEntity
  8
DEFPOINTS
  6
CONTINUOUS
 62
     0
100
AcDbPoint
 10
377.452658878398
 20
1168.152743867069
 30
0.0
  0
POINT
  5
1827
330
F5A
100
AcDbEntity
  8
DEFPOINTS
  6
CONTINUOUS
 62
     0
100
AcDbPoint
 10
527.4526588783983
 20
1168.152743867069
 30
0.0
  0
POINT
  5
1828
330
F5A
100
AcDbEntity
  8
DEFPOINTS
  6
CONTINUOUS
 62
     0
100
AcDbPoint
 10
527.4526588783983
 20
1289.972817310592
 30
0.0
  0
ENDBLK
  5
F65
330
F5A
100
AcDbEntity
  8
0
100
AcDbBlockEnd
  0
BLOCK
  5
F71
330
F67
100
AcDbEntity
  8
0
100
AcDbBlockBegin
  2
*D11
 70
     1
 10
0.0
 20
0.0
 30
0.0
  3
*D11
  1

  0
LINE
  5
1817
330
F67
100
AcDbEntity
  8
SUNPOU
  6
CONTINUOUS
100
AcDbLine
 10
549.4526588783978
 20
1340.658381029438
 30
0.0
 11
549.4526588783978
 21
1337.158381029438
 31
0.0
  0
LINE
  5
1818
330
F67
100
AcDbEntity
  8
SUNPOU
  6
CONTINUOUS
100
AcDbLine
 10
355.4526588783975
 20
1340.658381029438
 30
0.0
 11
355.4526588783975
 21
1337.158381029438
 31
0.0
  0
LINE
  5
1819
330
F67
100
AcDbEntity
  8
SUNPOU
  6
CONTINUOUS
100
AcDbLine
 10
531.9526588783978
 20
1330.158381029438
 30
0.0
 11
372.9526588783976
 21
1330.158381029438
 31
0.0
  0
MTEXT
  5
181A
330
F67
100
AcDbEntity
  8
SUNPOU
  6
CONTINUOUS
 62
     6
100
AcDbMText
 10
452.4526588783976
 20
1313.82225107046
 30
0.0
 40
17.5
 41
0.0
 71
     5
 72
     1
  1
\A1;194
  7
SUNPOU
 11
-1.0
 21
0.0000000000000001
 31
0.0
1001
ACAD
1000
MTEXTBEGIN
1070
    73
1070
     1
1070
    44
1040
1.0
1070
    74
1070
     0
1000
MTEXTEND
1000
MTEXTBEGIN
1070
    73
1070
     1
1070
    44
1040
1.0
1070
    74
1070
     0
1000
MTEXTEND
  0
INSERT
  5
181B
330
F67
100
AcDbEntity
  8
SUNPOU
  6
CONTINUOUS
100
AcDbBlockReference
  2
_OPEN30
 10
549.4526588783978
 20
1330.158381029438
 30
0.0
 41
17.5
 42
17.5
 43
17.5
  0
INSERT
  5
181C
330
F67
100
AcDbEntity
  8
SUNPOU
  6
CONTINUOUS
100
AcDbBlockReference
  2
_OPEN30
 10
355.4526588783975
 20
1330.158381029438
 30
0.0
 41
17.5
 42
17.5
 43
17.5
 50
180.0
  0
POINT
  5
181D
330
F67
100
AcDbEntity
  8
DEFPOINTS
  6
CONTINUOUS
 62
     0
100
AcDbPoint
 10
549.4526588783978
 20
1330.158381029438
 30
0.0
  0
POINT
  5
181E
330
F67
100
AcDbEntity
  8
DEFPOINTS
  6
CONTINUOUS
 62
     0
100
AcDbPoint
 10
355.4526588783975
 20
1330.158381029438
 30
0.0
  0
POINT
  5
181F
330
F67
100
AcDbEntity
  8
DEFPOINTS
  6
CONTINUOUS
 62
     0
100
AcDbPoint
 10
355.4526588783975
 20
1330.158381029438
 30
0.0
  0
ENDBLK
  5
F72
330
F67
100
AcDbEntity
  8
0
100
AcDbBlockEnd
  0
BLOCK
  5
F7E
330
F74
100
AcDbEntity
  8
0
100
AcDbBlockBegin
  2
*D12
 70
     1
 10
0.0
 20
0.0
 30
0.0
  3
*D12
  1

  0
LINE
  5
162E
330
F74
100
AcDbEntity
  8
SUNPOU
  6
CONTINUOUS
100
AcDbLine
 10
541.9677811503884
 20
478.1527438670694
 30
0.0
 11
679.3444296448947
 21
478.1527438670694
 31
0.0
  0
LINE
  5
162F
330
F74
100
AcDbEntity
  8
SUNPOU
  6
CONTINUOUS
100
AcDbLine
 10
524.3787039932895
 20
858.1527438670695
 30
0.0
 11
679.3444296448948
 21
858.1527438670695
 31
0.0
  0
LINE
  5
1630
330
F74
100
AcDbEntity
  8
SUNPOU
  6
CONTINUOUS
100
AcDbLine
 10
672.3444296448946
 20
495.6527438670693
 30
0.0
 11
672.3444296448948
 21
840.6527438670693
 31
0.0
  0
INSERT
  5
1631
330
F74
100
AcDbEntity
  8
SUNPOU
  6
CONTINUOUS
100
AcDbBlockReference
  2
_OPEN30
 10
672.3444296448946
 20
478.1527438670694
 30
0.0
 41
17.5
 42
17.5
 43
17.5
 50
270.0
  0
INSERT
  5
1632
330
F74
100
AcDbEntity
  8
SUNPOU
  6
CONTINUOUS
100
AcDbBlockReference
  2
_OPEN30
 10
672.3444296448948
 20
858.1527438670695
 30
0.0
 41
17.5
 42
17.5
 43
17.5
 50
90.0
  0
MTEXT
  5
1633
330
F74
100
AcDbEntity
  8
SUNPOU
  6
CONTINUOUS
 62
     6
100
AcDbMText
 10
656.5944296448947
 20
668.1527438670696
 30
0.0
 40
17.5
 41
0.0
 71
     5
 72
     1
  1
\A1;380
  7
SUNPOU
 11
0.0000000000000001
 21
1.0
 31
0.0
1001
ACAD
1000
MTEXTBEGIN
1070
    73
1070
     1
1070
    44
1040
1.0
1070
    74
1070
     0
1000
MTEXTEND
1000
MTEXTBEGIN
1070
    73
1070
     1
1070
    44
1040
1.0
1070
    74
1070
     0
1000
MTEXTEND
  0
POINT
  5
1634
330
F74
100
AcDbEntity
  8
DEFPOINTS
  6
CONTINUOUS
 62
     0
100
AcDbPoint
 10
531.4677811503884
 20
478.1527438670694
 30
0.0
  0
POINT
  5
1635
330
F74
100
AcDbEntity
  8
DEFPOINTS
  6
CONTINUOUS
 62
     0
100
AcDbPoint
 10
513.8787039932894
 20
858.1527438670695
 30
0.0
  0
POINT
  5
1636
330
F74
100
AcDbEntity
  8
DEFPOINTS
  6
CONTINUOUS
 62
     0
100
AcDbPoint
 10
672.3444296448948
 20
858.1527438670695
 30
0.0
  0
ENDBLK
  5
F7F
330
F74
100
AcDbEntity
  8
0
100
AcDbBlockEnd
  0
BLOCK
  5
F8D
330
F81
100
AcDbEntity
  8
0
100
AcDbBlockBegin
  2
*D13
 70
     1
 10
0.0
 20
0.0
 30
0.0
  3
*D13
  1

  0
LINE
  5
166D
330
F81
100
AcDbEntity
  8
SUNPOU
  6
CONTINUOUS
100
AcDbLine
 10
943.5526588783972
 20
390.1527438670703
 30
0.0
 11
864.8506358058922
 21
390.1527438670703
 31
0.0
  0
LINE
  5
166E
330
F81
100
AcDbEntity
  8
SUNPOU
  6
CONTINUOUS
100
AcDbLine
 10
930.7635092161646
 20
438.152743867069
 30
0.0
 11
864.8506358058922
 21
438.1527438670691
 31
0.0
  0
LINE
  5
166F
330
F81
100
AcDbEntity
  8
SUNPOU
  6
CONTINUOUS
100
AcDbLine
 10
871.850635805892
 20
372.6527438670704
 30
0.0
 11
871.850635805892
 21
355.1527438670703
 31
0.0
  0
LINE
  5
1670
330
F81
100
AcDbEntity
  8
SUNPOU
  6
CONTINUOUS
100
AcDbLine
 10
871.850635805892
 20
455.652743867069
 30
0.0
 11
871.850635805892
 21
473.152743867069
 31
0.0
  0
LINE
  5
1671
330
F81
100
AcDbEntity
  8
SUNPOU
  6
CONTINUOUS
100
AcDbLine
 10
871.850635805892
 20
390.1527438670703
 30
0.0
 11
871.850635805892
 21
438.1527438670691
 31
0.0
  0
INSERT
  5
1672
330
F81
100
AcDbEntity
  8
SUNPOU
  6
CONTINUOUS
100
AcDbBlockReference
  2
_OPEN30
 10
871.850635805892
 20
390.1527438670703
 30
0.0
 41
17.5
 42
17.5
 43
17.5
 50
90.0
  0
INSERT
  5
1673
330
F81
100
AcDbEntity
  8
SUNPOU
  6
CONTINUOUS
100
AcDbBlockReference
  2
_OPEN30
 10
871.850635805892
 20
438.1527438670691
 30
0.0
 41
17.5
 42
17.5
 43
17.5
 50
270.0
  0
MTEXT
  5
1674
330
F81
100
AcDbEntity
  8
SUNPOU
  6
CONTINUOUS
 62
     6
100
AcDbMText
 10
856.100635805892
 20
414.1527438670697
 30
0.0
 40
17.5
 41
0.0
 71
     5
 72
     1
  1
\A1;48
  7
SUNPOU
 11
0.0000000000000001
 21
1.0
 31
0.0
1001
ACAD
1000
MTEXTBEGIN
1070
    73
1070
     1
1070
    44
1040
1.0
1070
    74
1070
     0
1000
MTEXTEND
1000
MTEXTBEGIN
1070
    73
1070
     1
1070
    44
1040
1.0
1070
    74
1070
     0
1000
MTEXTEND
  0
POINT
  5
1675
330
F81
100
AcDbEntity
  8
DEFPOINTS
  6
CONTINUOUS
 62
     0
100
AcDbPoint
 10
954.0526588783972
 20
390.1527438670703
 30
0.0
  0
POINT
  5
1676
330
F81
100
AcDbEntity
  8
DEFPOINTS
  6
CONTINUOUS
 62
     0
100
AcDbPoint
 10
941.2635092161647
 20
438.152743867069
 30
0.0
  0
POINT
  5
1677
330
F81
100
AcDbEntity
  8
DEFPOINTS
  6
CONTINUOUS
 62
     0
100
AcDbPoint
 10
871.850635805892
 20
438.1527438670691
 30
0.0
  0
ENDBLK
  5
F8E
330
F81
100
AcDbEntity
  8
0
100
AcDbBlockEnd
  0
BLOCK
  5
F9A
330
F90
100
AcDbEntity
  8
0
100
AcDbBlockBegin
  2
*D14
 70
     1
 10
0.0
 20
0.0
 30
0.0
  3
*D14
  1

  0
LINE
  5
16B2
330
F90
100
AcDbEntity
  8
SUNPOU
  6
CONTINUOUS
100
AcDbLine
 10
930.7635092161646
 20
438.152743867069
 30
0.0
 11
864.8506358058922
 21
438.1527438670691
 31
0.0
  0
LINE
  5
16B3
330
F90
100
AcDbEntity
  8
SUNPOU
  6
CONTINUOUS
100
AcDbLine
 10
930.7635092161646
 20
518.152743867069
 30
0.0
 11
864.8506358058922
 21
518.152743867069
 31
0.0
  0
LINE
  5
16B4
330
F90
100
AcDbEntity
  8
SUNPOU
  6
CONTINUOUS
100
AcDbLine
 10
871.850635805892
 20
455.652743867069
 30
0.0
 11
871.850635805892
 21
500.6527438670691
 31
0.0
  0
INSERT
  5
16B5
330
F90
100
AcDbEntity
  8
SUNPOU
  6
CONTINUOUS
100
AcDbBlockReference
  2
_OPEN30
 10
871.850635805892
 20
438.1527438670691
 30
0.0
 41
17.5
 42
17.5
 43
17.5
 50
270.0
  0
INSERT
  5
16B6
330
F90
100
AcDbEntity
  8
SUNPOU
  6
CONTINUOUS
100
AcDbBlockReference
  2
_OPEN30
 10
871.850635805892
 20
518.152743867069
 30
0.0
 41
17.5
 42
17.5
 43
17.5
 50
90.0
  0
MTEXT
  5
16B7
330
F90
100
AcDbEntity
  8
SUNPOU
  6
CONTINUOUS
 62
     6
100
AcDbMText
 10
856.100635805892
 20
478.1527438670691
 30
0.0
 40
17.5
 41
0.0
 71
     5
 72
     1
  1
\A1;80
  7
SUNPOU
 11
0.0000000000000001
 21
1.0
 31
0.0
1001
ACAD
1000
MTEXTBEGIN
1070
    73
1070
     1
1070
    44
1040
1.0
1070
    74
1070
     0
1000
MTEXTEND
1000
MTEXTBEGIN
1070
    73
1070
     1
1070
    44
1040
1.0
1070
    74
1070
     0
1000
MTEXTEND
  0
POINT
  5
16B8
330
F90
100
AcDbEntity
  8
DEFPOINTS
  6
CONTINUOUS
 62
     0
100
AcDbPoint
 10
941.2635092161647
 20
438.152743867069
 30
0.0
  0
POINT
  5
16B9
330
F90
100
AcDbEntity
  8
DEFPOINTS
  6
CONTINUOUS
 62
     0
100
AcDbPoint
 10
941.2635092161647
 20
518.152743867069
 30
0.0
  0
POINT
  5
16BA
330
F90
100
AcDbEntity
  8
DEFPOINTS
  6
CONTINUOUS
 62
     0
100
AcDbPoint
 10
871.850635805892
 20
518.152743867069
 30
0.0
  0
ENDBLK
  5
F9B
330
F90
100
AcDbEntity
  8
0
100
AcDbBlockEnd
  0
BLOCK
  5
FA7
330
F9D
100
AcDbEntity
  8
0
100
AcDbBlockBegin
  2
*D15
 70
     1
 10
0.0
 20
0.0
 30
0.0
  3
*D15
  1

  0
LINE
  5
16A9
330
F9D
100
AcDbEntity
  8
SUNPOU
  6
CONTINUOUS
100
AcDbLine
 10
930.7635092161646
 20
518.152743867069
 30
0.0
 11
864.850635805892
 21
518.152743867069
 31
0.0
  0
LINE
  5
16AA
330
F9D
100
AcDbEntity
  8
SUNPOU
  6
CONTINUOUS
100
AcDbLine
 10
930.7635092161646
 20
773.1527438670692
 30
0.0
 11
864.8506358058922
 21
773.1527438670692
 31
0.0
  0
LINE
  5
16AB
330
F9D
100
AcDbEntity
  8
SUNPOU
  6
CONTINUOUS
100
AcDbLine
 10
871.850635805892
 20
535.652743867069
 30
0.0
 11
871.850635805892
 21
755.6527438670692
 31
0.0
  0
INSERT
  5
16AC
330
F9D
100
AcDbEntity
  8
SUNPOU
  6
CONTINUOUS
100
AcDbBlockReference
  2
_OPEN30
 10
871.850635805892
 20
518.152743867069
 30
0.0
 41
17.5
 42
17.5
 43
17.5
 50
270.0
  0
INSERT
  5
16AD
330
F9D
100
AcDbEntity
  8
SUNPOU
  6
CONTINUOUS
100
AcDbBlockReference
  2
_OPEN30
 10
871.850635805892
 20
773.1527438670692
 30
0.0
 41
17.5
 42
17.5
 43
17.5
 50
90.0
  0
MTEXT
  5
16AE
330
F9D
100
AcDbEntity
  8
SUNPOU
  6
CONTINUOUS
 62
     6
100
AcDbMText
 10
856.1006358058916
 20
645.6527438670693
 30
0.0
 40
17.5
 41
0.0
 71
     5
 72
     1
  1
\A1;255
  7
SUNPOU
 11
0.0000000000000001
 21
1.0
 31
0.0
1001
ACAD
1000
MTEXTBEGIN
1070
    73
1070
     1
1070
    44
1040
1.0
1070
    74
1070
     0
1000
MTEXTEND
1000
MTEXTBEGIN
1070
    73
1070
     1
1070
    44
1040
1.0
1070
    74
1070
     0
1000
MTEXTEND
  0
POINT
  5
16AF
330
F9D
100
AcDbEntity
  8
DEFPOINTS
  6
CONTINUOUS
 62
     0
100
AcDbPoint
 10
941.2635092161647
 20
518.152743867069
 30
0.0
  0
POINT
  5
16B0
330
F9D
100
AcDbEntity
  8
DEFPOINTS
  6
CONTINUOUS
 62
     0
100
AcDbPoint
 10
941.2635092161647
 20
773.1527438670692
 30
0.0
  0
POINT
  5
16B1
330
F9D
100
AcDbEntity
  8
DEFPOINTS
  6
CONTINUOUS
 62
     0
100
AcDbPoint
 10
871.850635805892
 20
773.1527438670692
 30
0.0
  0
ENDBLK
  5
FA8
330
F9D
100
AcDbEntity
  8
0
100
AcDbBlockEnd
  0
BLOCK
  5
FB4
330
FAA
100
AcDbEntity
  8
0
100
AcDbBlockBegin
  2
*D16
 70
     1
 10
0.0
 20
0.0
 30
0.0
  3
*D16
  1

  0
LINE
  5
165B
330
FAA
100
AcDbEntity
  8
SUNPOU
  6
CONTINUOUS
100
AcDbLine
 10
930.7635092161646
 20
773.1527438670692
 30
0.0
 11
864.8506358058924
 21
773.1527438670692
 31
0.0
  0
LINE
  5
165C
330
FAA
100
AcDbEntity
  8
SUNPOU
  6
CONTINUOUS
100
AcDbLine
 10
930.7635092161646
 20
1158.152743867068
 30
0.0
 11
864.8506358058924
 21
1158.152743867068
 31
0.0
  0
LINE
  5
165D
330
FAA
100
AcDbEntity
  8
SUNPOU
  6
CONTINUOUS
100
AcDbLine
 10
871.8506358058924
 20
790.6527438670693
 30
0.0
 11
871.8506358058924
 21
1140.652743867069
 31
0.0
  0
INSERT
  5
165E
330
FAA
100
AcDbEntity
  8
SUNPOU
  6
CONTINUOUS
100
AcDbBlockReference
  2
_OPEN30
 10
871.8506358058924
 20
773.1527438670692
 30
0.0
 41
17.5
 42
17.5
 43
17.5
 50
270.0
  0
INSERT
  5
165F
330
FAA
100
AcDbEntity
  8
SUNPOU
  6
CONTINUOUS
100
AcDbBlockReference
  2
_OPEN30
 10
871.8506358058924
 20
1158.152743867068
 30
0.0
 41
17.5
 42
17.5
 43
17.5
 50
90.0
  0
MTEXT
  5
1660
330
FAA
100
AcDbEntity
  8
SUNPOU
  6
CONTINUOUS
 62
     6
100
AcDbMText
 10
856.1006358058921
 20
965.6527438670693
 30
0.0
 40
17.5
 41
0.0
 71
     5
 72
     1
  1
\A1;385
  7
SUNPOU
 11
0.0000000000000001
 21
1.0
 31
0.0
1001
ACAD
1000
MTEXTBEGIN
1070
    73
1070
     1
1070
    44
1040
1.0
1070
    74
1070
     0
1000
MTEXTEND
1000
MTEXTBEGIN
1070
    73
1070
     1
1070
    44
1040
1.0
1070
    74
1070
     0
1000
MTEXTEND
  0
POINT
  5
1661
330
FAA
100
AcDbEntity
  8
DEFPOINTS
  6
CONTINUOUS
 62
     0
100
AcDbPoint
 10
941.2635092161647
 20
773.1527438670692
 30
0.0
  0
POINT
  5
1662
330
FAA
100
AcDbEntity
  8
DEFPOINTS
  6
CONTINUOUS
 62
     0
100
AcDbPoint
 10
941.2635092161647
 20
1158.152743867068
 30
0.0
  0
POINT
  5
1663
330
FAA
100
AcDbEntity
  8
DEFPOINTS
  6
CONTINUOUS
 62
     0
100
AcDbPoint
 10
871.8506358058924
 20
1158.152743867068
 30
0.0
  0
ENDBLK
  5
FB5
330
FAA
100
AcDbEntity
  8
0
100
AcDbBlockEnd
  0
BLOCK
  5
FC1
330
FB7
100
AcDbEntity
  8
0
100
AcDbBlockBegin
  2
*D17
 70
     1
 10
0.0
 20
0.0
 30
0.0
  3
*D17
  1

  0
LINE
  5
16EC
330
FB7
100
AcDbEntity
  8
SUNPOU
  6
CONTINUOUS
100
AcDbLine
 10
930.7635092161646
 20
1158.152743867068
 30
0.0
 11
864.8506358058922
 21
1158.152743867068
 31
0.0
  0
LINE
  5
16ED
330
FB7
100
AcDbEntity
  8
SUNPOU
  6
CONTINUOUS
100
AcDbLine
 10
943.5526588783972
 20
1990.15274386707
 30
0.0
 11
864.8506358058924
 21
1990.15274386707
 31
0.0
  0
LINE
  5
16EE
330
FB7
100
AcDbEntity
  8
SUNPOU
  6
CONTINUOUS
100
AcDbLine
 10
871.850635805892
 20
1175.652743867068
 30
0.0
 11
871.8506358058924
 21
1972.65274386707
 31
0.0
  0
INSERT
  5
16EF
330
FB7
100
AcDbEntity
  8
SUNPOU
  6
CONTINUOUS
100
AcDbBlockReference
  2
_OPEN30
 10
871.850635805892
 20
1158.152743867068
 30
0.0
 41
17.5
 42
17.5
 43
17.5
 50
270.0
  0
INSERT
  5
16F0
330
FB7
100
AcDbEntity
  8
SUNPOU
  6
CONTINUOUS
100
AcDbBlockReference
  2
_OPEN30
 10
871.8506358058924
 20
1990.15274386707
 30
0.0
 41
17.5
 42
17.5
 43
17.5
 50
90.0
  0
MTEXT
  5
16F1
330
FB7
100
AcDbEntity
  8
SUNPOU
  6
CONTINUOUS
 62
     6
100
AcDbMText
 10
856.100635805892
 20
1574.15274386707
 30
0.0
 40
17.5
 41
0.0
 71
     5
 72
     1
  1
\A1;W-768
  7
SUNPOU
 11
0.0000000000000001
 21
1.0
 31
0.0
1001
ACAD
1000
MTEXTBEGIN
1070
    73
1070
     1
1070
    44
1040
1.0
1070
    74
1070
     0
1000
MTEXTEND
1000
MTEXTBEGIN
1070
    73
1070
     1
1070
    44
1040
1.0
1070
    74
1070
     0
1000
MTEXTEND
  0
POINT
  5
16F2
330
FB7
100
AcDbEntity
  8
DEFPOINTS
  6
CONTINUOUS
 62
     0
100
AcDbPoint
 10
941.2635092161647
 20
1158.152743867068
 30
0.0
  0
POINT
  5
16F3
330
FB7
100
AcDbEntity
  8
DEFPOINTS
  6
CONTINUOUS
 62
     0
100
AcDbPoint
 10
954.0526588783974
 20
1990.15274386707
 30
0.0
  0
POINT
  5
16F4
330
FB7
100
AcDbEntity
  8
DEFPOINTS
  6
CONTINUOUS
 62
     0
100
AcDbPoint
 10
871.8506358058924
 20
1990.15274386707
 30
0.0
  0
ENDBLK
  5
FC2
330
FB7
100
AcDbEntity
  8
0
100
AcDbBlockEnd
  0
BLOCK
  5
FCE
330
FC4
100
AcDbEntity
  8
0
100
AcDbBlockBegin
  2
*D18
 70
     1
 10
0.0
 20
0.0
 30
0.0
  3
*D18
  1

  0
LINE
  5
1652
330
FC4
100
AcDbEntity
  8
SUNPOU
  6
CONTINUOUS
100
AcDbLine
 10
943.5526588783972
 20
390.1527438670703
 30
0.0
 11
814.850635805892
 21
390.1527438670703
 31
0.0
  0
LINE
  5
1653
330
FC4
100
AcDbEntity
  8
SUNPOU
  6
CONTINUOUS
100
AcDbLine
 10
943.5526588784007
 20
1990.15274386707
 30
0.0
 11
814.8506358058924
 21
1990.15274386707
 31
0.0
  0
LINE
  5
1654
330
FC4
100
AcDbEntity
  8
SUNPOU
  6
CONTINUOUS
100
AcDbLine
 10
821.850635805892
 20
407.6527438670703
 30
0.0
 11
821.8506358058924
 21
1972.65274386707
 31
0.0
  0
INSERT
  5
1655
330
FC4
100
AcDbEntity
  8
SUNPOU
  6
CONTINUOUS
100
AcDbBlockReference
  2
_OPEN30
 10
821.850635805892
 20
390.1527438670703
 30
0.0
 41
17.5
 42
17.5
 43
17.5
 50
270.0
  0
INSERT
  5
1656
330
FC4
100
AcDbEntity
  8
SUNPOU
  6
CONTINUOUS
100
AcDbBlockReference
  2
_OPEN30
 10
821.8506358058924
 20
1990.15274386707
 30
0.0
 41
17.5
 42
17.5
 43
17.5
 50
90.0
  0
MTEXT
  5
1657
330
FC4
100
AcDbEntity
  8
SUNPOU
  6
CONTINUOUS
 62
     6
100
AcDbMText
 10
806.100635805892
 20
1190.152743867069
 30
0.0
 40
17.5
 41
0.0
 71
     5
 72
     1
  1
\A1;W
  7
SUNPOU
 11
0.0000000000000001
 21
1.0
 31
0.0
1001
ACAD
1000
MTEXTBEGIN
1070
    73
1070
     1
1070
    44
1040
1.0
1070
    74
1070
     0
1000
MTEXTEND
1000
MTEXTBEGIN
1070
    73
1070
     1
1070
    44
1040
1.0
1070
    74
1070
     0
1000
MTEXTEND
  0
POINT
  5
1658
330
FC4
100
AcDbEntity
  8
DEFPOINTS
  6
CONTINUOUS
 62
     0
100
AcDbPoint
 10
954.0526588783972
 20
390.1527438670703
 30
0.0
  0
POINT
  5
1659
330
FC4
100
AcDbEntity
  8
DEFPOINTS
  6
CONTINUOUS
 62
     0
100
AcDbPoint
 10
954.0526588784008
 20
1990.15274386707
 30
0.0
  0
POINT
  5
165A
330
FC4
100
AcDbEntity
  8
DEFPOINTS
  6
CONTINUOUS
 62
     0
100
AcDbPoint
 10
821.8506358058924
 20
1990.15274386707
 30
0.0
  0
ENDBLK
  5
FCF
330
FC4
100
AcDbEntity
  8
0
100
AcDbBlockEnd
  0
BLOCK
  5
FDB
330
FD1
100
AcDbEntity
  8
0
100
AcDbBlockBegin
  2
*D19
 70
     1
 10
0.0
 20
0.0
 30
0.0
  3
*D19
  1

  0
LINE
  5
16C4
330
FD1
100
AcDbEntity
  8
SUNPOU
  6
CONTINUOUS
100
AcDbLine
 10
979.2719359868312
 20
723.1527438670707
 30
0.0
 11
914.8506358058922
 21
723.1527438670707
 31
0.0
  0
LINE
  5
16C5
330
FD1
100
AcDbEntity
  8
SUNPOU
  6
CONTINUOUS
100
AcDbLine
 10
930.7635092161646
 20
773.1527438670692
 30
0.0
 11
914.8506358058922
 21
773.1527438670692
 31
0.0
  0
LINE
  5
16C6
330
FD1
100
AcDbEntity
  8
SUNPOU
  6
CONTINUOUS
100
AcDbLine
 10
921.850635805892
 20
740.6527438670707
 30
0.0
 11
921.850635805892
 21
755.6527438670692
 31
0.0
  0
INSERT
  5
16C7
330
FD1
100
AcDbEntity
  8
SUNPOU
  6
CONTINUOUS
100
AcDbBlockReference
  2
_OPEN30
 10
921.850635805892
 20
723.1527438670707
 30
0.0
 41
17.5
 42
17.5
 43
17.5
 50
270.0
  0
INSERT
  5
16C8
330
FD1
100
AcDbEntity
  8
SUNPOU
  6
CONTINUOUS
100
AcDbBlockReference
  2
_OPEN30
 10
921.850635805892
 20
773.1527438670692
 30
0.0
 41
17.5
 42
17.5
 43
17.5
 50
90.0
  0
MTEXT
  5
16C9
330
FD1
100
AcDbEntity
  8
SUNPOU
  6
CONTINUOUS
 62
     6
100
AcDbMText
 10
906.100635805892
 20
748.1527438670703
 30
0.0
 40
17.5
 41
0.0
 71
     5
 72
     1
  1
\A1;50
  7
SUNPOU
 11
0.0000000000000001
 21
1.0
 31
0.0
1001
ACAD
1000
MTEXTBEGIN
1070
    73
1070
     1
1070
    44
1040
1.0
1070
    74
1070
     0
1000
MTEXTEND
1000
MTEXTBEGIN
1070
    73
1070
     1
1070
    44
1040
1.0
1070
    74
1070
     0
1000
MTEXTEND
  0
POINT
  5
16CA
330
FD1
100
AcDbEntity
  8
DEFPOINTS
  6
CONTINUOUS
 62
     0
100
AcDbPoint
 10
989.7719359868311
 20
723.1527438670707
 30
0.0
  0
POINT
  5
16CB
330
FD1
100
AcDbEntity
  8
DEFPOINTS
  6
CONTINUOUS
 62
     0
100
AcDbPoint
 10
941.2635092161647
 20
773.1527438670692
 30
0.0
  0
POINT
  5
16CC
330
FD1
100
AcDbEntity
  8
DEFPOINTS
  6
CONTINUOUS
 62
     0
100
AcDbPoint
 10
921.850635805892
 20
773.1527438670692
 30
0.0
  0
ENDBLK
  5
FDC
330
FD1
100
AcDbEntity
  8
0
100
AcDbBlockEnd
  0
BLOCK
  5
FE8
330
FDE
100
AcDbEntity
  8
0
100
AcDbBlockBegin
  2
*D20
 70
     1
 10
0.0
 20
0.0
 30
0.0
  3
*D20
  1

  0
LINE
  5
16BB
330
FDE
100
AcDbEntity
  8
SUNPOU
  6
CONTINUOUS
100
AcDbLine
 10
930.7635092161646
 20
773.1527438670692
 30
0.0
 11
914.8506358058924
 21
773.1527438670692
 31
0.0
  0
LINE
  5
16BC
330
FDE
100
AcDbEntity
  8
SUNPOU
  6
CONTINUOUS
100
AcDbLine
 10
930.7635092161646
 20
963.1527438670692
 30
0.0
 11
914.8506358058924
 21
963.1527438670692
 31
0.0
  0
LINE
  5
16BD
330
FDE
100
AcDbEntity
  8
SUNPOU
  6
CONTINUOUS
100
AcDbLine
 10
921.8506358058924
 20
790.6527438670693
 30
0.0
 11
921.8506358058924
 21
945.6527438670692
 31
0.0
  0
INSERT
  5
16BE
330
FDE
100
AcDbEntity
  8
SUNPOU
  6
CONTINUOUS
100
AcDbBlockReference
  2
_OPEN30
 10
921.8506358058924
 20
773.1527438670692
 30
0.0
 41
17.5
 42
17.5
 43
17.5
 50
270.0
  0
INSERT
  5
16BF
330
FDE
100
AcDbEntity
  8
SUNPOU
  6
CONTINUOUS
100
AcDbBlockReference
  2
_OPEN30
 10
921.8506358058924
 20
963.1527438670692
 30
0.0
 41
17.5
 42
17.5
 43
17.5
 50
90.0
  0
MTEXT
  5
16C0
330
FDE
100
AcDbEntity
  8
SUNPOU
  6
CONTINUOUS
 62
     6
100
AcDbMText
 10
906.100635805892
 20
868.1527438670697
 30
0.0
 40
17.5
 41
0.0
 71
     5
 72
     1
  1
\A1;190
  7
SUNPOU
 11
0.0000000000000001
 21
1.0
 31
0.0
1001
ACAD
1000
MTEXTBEGIN
1070
    73
1070
     1
1070
    44
1040
1.0
1070
    74
1070
     0
1000
MTEXTEND
1000
MTEXTBEGIN
1070
    73
1070
     1
1070
    44
1040
1.0
1070
    74
1070
     0
1000
MTEXTEND
  0
POINT
  5
16C1
330
FDE
100
AcDbEntity
  8
DEFPOINTS
  6
CONTINUOUS
 62
     0
100
AcDbPoint
 10
941.2635092161647
 20
773.1527438670692
 30
0.0
  0
POINT
  5
16C2
330
FDE
100
AcDbEntity
  8
DEFPOINTS
  6
CONTINUOUS
 62
     0
100
AcDbPoint
 10
941.2635092161647
 20
963.1527438670692
 30
0.0
  0
POINT
  5
16C3
330
FDE
100
AcDbEntity
  8
DEFPOINTS
  6
CONTINUOUS
 62
     0
100
AcDbPoint
 10
921.8506358058924
 20
963.1527438670692
 30
0.0
  0
ENDBLK
  5
FE9
330
FDE
100
AcDbEntity
  8
0
100
AcDbBlockEnd
  0
BLOCK
  5
FF5
330
FEB
100
AcDbEntity
  8
0
100
AcDbBlockBegin
  2
*D21
 70
     1
 10
0.0
 20
0.0
 30
0.0
  3
*D21
  1

  0
LINE
  5
16F5
330
FEB
100
AcDbEntity
  8
SUNPOU
  6
CONTINUOUS
100
AcDbLine
 10
930.7635092161646
 20
1158.152743867068
 30
0.0
 11
914.8506358058924
 21
1158.152743867068
 31
0.0
  0
LINE
  5
16F6
330
FEB
100
AcDbEntity
  8
SUNPOU
  6
CONTINUOUS
100
AcDbLine
 10
988.2755167131824
 20
1208.152743867069
 30
0.0
 11
914.8506358058924
 21
1208.152743867069
 31
0.0
  0
LINE
  5
16F7
330
FEB
100
AcDbEntity
  8
SUNPOU
  6
CONTINUOUS
100
AcDbLine
 10
921.8506358058924
 20
1175.652743867068
 30
0.0
 11
921.8506358058924
 21
1190.652743867069
 31
0.0
  0
INSERT
  5
16F8
330
FEB
100
AcDbEntity
  8
SUNPOU
  6
CONTINUOUS
100
AcDbBlockReference
  2
_OPEN30
 10
921.8506358058924
 20
1158.152743867068
 30
0.0
 41
17.5
 42
17.5
 43
17.5
 50
270.0
  0
INSERT
  5
16F9
330
FEB
100
AcDbEntity
  8
SUNPOU
  6
CONTINUOUS
100
AcDbBlockReference
  2
_OPEN30
 10
921.8506358058924
 20
1208.152743867069
 30
0.0
 41
17.5
 42
17.5
 43
17.5
 50
90.0
  0
MTEXT
  5
16FA
330
FEB
100
AcDbEntity
  8
SUNPOU
  6
CONTINUOUS
 62
     6
100
AcDbMText
 10
906.100635805892
 20
1183.152743867068
 30
0.0
 40
17.5
 41
0.0
 71
     5
 72
     1
  1
\A1;50
  7
SUNPOU
 11
0.0000000000000001
 21
1.0
 31
0.0
1001
ACAD
1000
MTEXTBEGIN
1070
    73
1070
     1
1070
    44
1040
1.0
1070
    74
1070
     0
1000
MTEXTEND
1000
MTEXTBEGIN
1070
    73
1070
     1
1070
    44
1040
1.0
1070
    74
1070
     0
1000
MTEXTEND
  0
POINT
  5
16FB
330
FEB
100
AcDbEntity
  8
DEFPOINTS
  6
CONTINUOUS
 62
     0
100
AcDbPoint
 10
941.2635092161647
 20
1158.152743867068
 30
0.0
  0
POINT
  5
16FC
330
FEB
100
AcDbEntity
  8
DEFPOINTS
  6
CONTINUOUS
 62
     0
100
AcDbPoint
 10
998.7755167131822
 20
1208.152743867069
 30
0.0
  0
POINT
  5
16FD
330
FEB
100
AcDbEntity
  8
DEFPOINTS
  6
CONTINUOUS
 62
     0
100
AcDbPoint
 10
921.8506358058924
 20
1208.152743867069
 30
0.0
  0
ENDBLK
  5
FF6
330
FEB
100
AcDbEntity
  8
0
100
AcDbBlockEnd
  0
BLOCK
  5
1002
330
FF8
100
AcDbEntity
  8
0
100
AcDbBlockBegin
  2
*D22
 70
     1
 10
0.0
 20
0.0
 30
0.0
  3
*D22
  1

  0
LINE
  5
1829
330
FF8
100
AcDbEntity
  8
SUNPOU
  6
CONTINUOUS
100
AcDbLine
 10
992.4526588783979
 20
1180.280420428397
 30
0.0
 11
992.4526588783979
 21
1363.963281888032
 31
0.0
  0
LINE
  5
182A
330
FF8
100
AcDbEntity
  8
SUNPOU
  6
CONTINUOUS
100
AcDbLine
 10
1112.452658878398
 20
1180.280420428397
 30
0.0
 11
1112.452658878398
 21
1363.963281888032
 31
0.0
  0
LINE
  5
182B
330
FF8
100
AcDbEntity
  8
SUNPOU
  6
CONTINUOUS
100
AcDbLine
 10
1009.952658878398
 20
1356.963281888033
 30
0.0
 11
1094.952658878397
 21
1356.963281888033
 31
0.0
  0
MTEXT
  5
182C
330
FF8
100
AcDbEntity
  8
SUNPOU
  6
CONTINUOUS
 62
     6
100
AcDbMText
 10
1052.452658878398
 20
1340.511354668371
 30
0.0
 40
17.5
 41
0.0
 71
     5
 72
     1
  1
\A1;120
  7
SUNPOU
 11
-1.0
 21
0.0000000000000001
 31
0.0
1001
ACAD
1000
MTEXTBEGIN
1070
    73
1070
     1
1070
    44
1040
1.0
1070
    74
1070
     0
1000
MTEXTEND
1000
MTEXTBEGIN
1070
    73
1070
     1
1070
    44
1040
1.0
1070
    74
1070
     0
1000
MTEXTEND
  0
INSERT
  5
182D
330
FF8
100
AcDbEntity
  8
SUNPOU
  6
CONTINUOUS
100
AcDbBlockReference
  2
_OPEN30
 10
992.4526588783979
 20
1356.963281888033
 30
0.0
 41
17.5
 42
17.5
 43
17.5
 50
180.0
  0
INSERT
  5
182E
330
FF8
100
AcDbEntity
  8
SUNPOU
  6
CONTINUOUS
100
AcDbBlockReference
  2
_OPEN30
 10
1112.452658878398
 20
1356.963281888033
 30
0.0
 41
17.5
 42
17.5
 43
17.5
  0
POINT
  5
182F
330
FF8
100
AcDbEntity
  8
DEFPOINTS
  6
CONTINUOUS
 62
     0
100
AcDbPoint
 10
992.4526588783979
 20
1169.780420428397
 30
0.0
  0
POINT
  5
1830
330
FF8
100
AcDbEntity
  8
DEFPOINTS
  6
CONTINUOUS
 62
     0
100
AcDbPoint
 10
1112.452658878398
 20
1169.780420428397
 30
0.0
  0
POINT
  5
1831
330
FF8
100
AcDbEntity
  8
DEFPOINTS
  6
CONTINUOUS
 62
     0
100
AcDbPoint
 10
1112.452658878398
 20
1356.963281888033
 30
0.0
  0
ENDBLK
  5
1003
330
FF8
100
AcDbEntity
  8
0
100
AcDbBlockEnd
  0
BLOCK
  5
100F
330
1005
100
AcDbEntity
  8
0
100
AcDbBlockBegin
  2
*D23
 70
     1
 10
0.0
 20
0.0
 30
0.0
  3
*D23
  1

  0
LINE
  5
1845
330
1005
100
AcDbEntity
  8
SUNPOU
  6
CONTINUOUS
100
AcDbLine
 10
1093.952658878396
 20
1222.491873197977
 30
0.0
 11
1093.952658878396
 21
1292.633466754243
 31
0.0
  0
LINE
  5
1846
330
1005
100
AcDbEntity
  8
SUNPOU
  6
CONTINUOUS
100
AcDbLine
 10
1010.952658878397
 20
1222.491873197977
 30
0.0
 11
1010.952658878397
 21
1292.633466754243
 31
0.0
  0
LINE
  5
1847
330
1005
100
AcDbEntity
  8
SUNPOU
  6
CONTINUOUS
100
AcDbLine
 10
1076.452658878396
 20
1285.633466754243
 30
0.0
 11
1028.452658878397
 21
1285.633466754243
 31
0.0
  0
MTEXT
  5
1848
330
1005
100
AcDbEntity
  8
SUNPOU
  6
CONTINUOUS
 62
     6
100
AcDbMText
 10
1052.452658878396
 20
1269.510705049053
 30
0.0
 40
17.5
 41
0.0
 71
     5
 72
     1
  1
\A1;83
  7
SUNPOU
 11
-1.0
 21
0.0000000000000001
 31
0.0
1001
ACAD
1000
MTEXTBEGIN
1070
    73
1070
     1
1070
    44
1040
1.0
1070
    74
1070
     0
1000
MTEXTEND
1000
MTEXTBEGIN
1070
    73
1070
     1
1070
    44
1040
1.0
1070
    74
1070
     0
1000
MTEXTEND
  0
INSERT
  5
1849
330
1005
100
AcDbEntity
  8
SUNPOU
  6
CONTINUOUS
100
AcDbBlockReference
  2
_OPEN30
 10
1093.952658878396
 20
1285.633466754243
 30
0.0
 41
17.5
 42
17.5
 43
17.5
  0
INSERT
  5
184A
330
1005
100
AcDbEntity
  8
SUNPOU
  6
CONTINUOUS
100
AcDbBlockReference
  2
_OPEN30
 10
1010.952658878397
 20
1285.633466754243
 30
0.0
 41
17.5
 42
17.5
 43
17.5
 50
180.0
  0
POINT
  5
184B
330
1005
100
AcDbEntity
  8
DEFPOINTS
  6
CONTINUOUS
 62
     0
100
AcDbPoint
 10
1093.952658878396
 20
1211.991873197977
 30
0.0
  0
POINT
  5
184C
330
1005
100
AcDbEntity
  8
DEFPOINTS
  6
CONTINUOUS
 62
     0
100
AcDbPoint
 10
1010.952658878397
 20
1211.991873197977
 30
0.0
  0
POINT
  5
184D
330
1005
100
AcDbEntity
  8
DEFPOINTS
  6
CONTINUOUS
 62
     0
100
AcDbPoint
 10
1010.952658878397
 20
1285.633466754243
 30
0.0
  0
ENDBLK
  5
1010
330
1005
100
AcDbEntity
  8
0
100
AcDbBlockEnd
  0
BLOCK
  5
101E
330
1012
100
AcDbEntity
  8
0
100
AcDbBlockBegin
  2
*D24
 70
     1
 10
0.0
 20
0.0
 30
0.0
  3
*D24
  1

  0
LINE
  5
184E
330
1012
100
AcDbEntity
  8
SUNPOU
  6
CONTINUOUS
100
AcDbLine
 10
1069.952658878396
 20
1229.652743867069
 30
0.0
 11
1069.952658878396
 21
1259.984248200199
 31
0.0
  0
LINE
  5
184F
330
1012
100
AcDbEntity
  8
SUNPOU
  6
CONTINUOUS
100
AcDbLine
 10
1034.952658878396
 20
1229.652743867069
 30
0.0
 11
1034.952658878396
 21
1259.984248200199
 31
0.0
  0
LINE
  5
1850
330
1012
100
AcDbEntity
  8
SUNPOU
  6
CONTINUOUS
100
AcDbLine
 10
1087.452658878396
 20
1252.984248200198
 30
0.0
 11
1104.952658878395
 21
1252.984248200198
 31
0.0
  0
LINE
  5
1851
330
1012
100
AcDbEntity
  8
SUNPOU
  6
CONTINUOUS
100
AcDbLine
 10
1017.452658878396
 20
1252.984248200198
 30
0.0
 11
999.9526588783963
 21
1252.984248200198
 31
0.0
  0
MTEXT
  5
1852
330
1012
100
AcDbEntity
  8
SUNPOU
  6
CONTINUOUS
 62
     6
100
AcDbMText
 10
1052.452658878396
 20
1238.412852736572
 30
0.0
 40
17.5
 41
0.0
 71
     5
 72
     1
  1
\A1;35
  7
SUNPOU
 11
-1.0
 21
0.0000000000000001
 31
0.0
1001
ACAD
1000
MTEXTBEGIN
1070
    73
1070
     1
1070
    44
1040
1.0
1070
    74
1070
     0
1000
MTEXTEND
1000
MTEXTBEGIN
1070
    73
1070
     1
1070
    44
1040
1.0
1070
    74
1070
     0
1000
MTEXTEND
  0
LINE
  5
1853
330
1012
100
AcDbEntity
  8
SUNPOU
  6
CONTINUOUS
100
AcDbLine
 10
1069.952658878396
 20
1252.984248200198
 30
0.0
 11
1034.952658878396
 21
1252.984248200198
 31
0.0
  0
INSERT
  5
1854
330
1012
100
AcDbEntity
  8
SUNPOU
  6
CONTINUOUS
100
AcDbBlockReference
  2
_OPEN30
 10
1069.952658878396
 20
1252.984248200198
 30
0.0
 41
17.5
 42
17.5
 43
17.5
 50
180.0
  0
INSERT
  5
1855
330
1012
100
AcDbEntity
  8
SUNPOU
  6
CONTINUOUS
100
AcDbBlockReference
  2
_OPEN30
 10
1034.952658878396
 20
1252.984248200198
 30
0.0
 41
17.5
 42
17.5
 43
17.5
  0
POINT
  5
1856
330
1012
100
AcDbEntity
  8
DEFPOINTS
  6
CONTINUOUS
 62
     0
100
AcDbPoint
 10
1069.952658878396
 20
1219.152743867069
 30
0.0
  0
POINT
  5
1857
330
1012
100
AcDbEntity
  8
DEFPOINTS
  6
CONTINUOUS
 62
     0
100
AcDbPoint
 10
1034.952658878396
 20
1219.152743867069
 30
0.0
  0
POINT
  5
1858
330
1012
100
AcDbEntity
  8
DEFPOINTS
  6
CONTINUOUS
 62
     0
100
AcDbPoint
 10
1034.952658878396
 20
1252.984248200198
 30
0.0
  0
ENDBLK
  5
101F
330
1012
100
AcDbEntity
  8
0
100
AcDbBlockEnd
  0
BLOCK
  5
1038
330
102C
100
AcDbEntity
  8
0
100
AcDbBlockBegin
  2
*D25
 70
     1
 10
0.0
 20
0.0
 30
0.0
  3
*D25
  1

  0
LINE
  5
18F1
330
102C
100
AcDbEntity
  8
SUNPOU
  6
CONTINUOUS
100
AcDbLine
 10
1080.452658878396
 20
1197.152743867069
 30
0.0
 11
1136.569330878674
 21
1197.152743867069
 31
0.0
  0
LINE
  5
18F2
330
102C
100
AcDbEntity
  8
SUNPOU
  6
CONTINUOUS
100
AcDbLine
 10
1080.452658878396
 20
1219.152743867069
 30
0.0
 11
1136.569330878674
 21
1219.152743867069
 31
0.0
  0
LINE
  5
18F3
330
102C
100
AcDbEntity
  8
SUNPOU
  6
CONTINUOUS
100
AcDbLine
 10
1129.569330878674
 20
1179.652743867068
 30
0.0
 11
1129.569330878674
 21
1162.152743867068
 31
0.0
  0
LINE
  5
18F4
330
102C
100
AcDbEntity
  8
SUNPOU
  6
CONTINUOUS
100
AcDbLine
 10
1129.569330878674
 20
1236.652743867068
 30
0.0
 11
1129.569330878674
 21
1254.152743867068
 31
0.0
  0
MTEXT
  5
18F5
330
102C
100
AcDbEntity
  8
SUNPOU
  6
CONTINUOUS
 62
     6
100
AcDbMText
 10
1124.098269435314
 20
1268.027390920413
 30
0.0
 40
17.5
 41
0.0
 71
     5
 72
     1
  1
\A1;22
  7
SUNPOU
 11
0.0000000000000001
 21
1.0
 31
0.0
1001
ACAD
1000
MTEXTBEGIN
1070
    73
1070
     1
1070
    44
1040
1.0
1070
    74
1070
     0
1000
MTEXTEND
1000
MTEXTBEGIN
1070
    73
1070
     1
1070
    44
1040
1.0
1070
    74
1070
     0
1000
MTEXTEND
  0
LINE
  5
18F6
330
102C
100
AcDbEntity
  8
SUNPOU
  6
CONTINUOUS
100
AcDbLine
 10
1129.569330878674
 20
1197.152743867069
 30
0.0
 11
1129.569330878674
 21
1219.152743867069
 31
0.0
  0
INSERT
  5
18F7
330
102C
100
AcDbEntity
  8
SUNPOU
  6
CONTINUOUS
100
AcDbBlockReference
  2
_OPEN30
 10
1129.569330878674
 20
1197.152743867069
 30
0.0
 41
17.5
 42
17.5
 43
17.5
 50
90.0
  0
INSERT
  5
18F8
330
102C
100
AcDbEntity
  8
SUNPOU
  6
CONTINUOUS
100
AcDbBlockReference
  2
_OPEN30
 10
1129.569330878674
 20
1219.152743867069
 30
0.0
 41
17.5
 42
17.5
 43
17.5
 50
270.0
  0
POINT
  5
18F9
330
102C
100
AcDbEntity
  8
DEFPOINTS
  6
CONTINUOUS
 62
     0
100
AcDbPoint
 10
1069.952658878396
 20
1197.152743867069
 30
0.0
  0
POINT
  5
18FA
330
102C
100
AcDbEntity
  8
DEFPOINTS
  6
CONTINUOUS
 62
     0
100
AcDbPoint
 10
1069.952658878396
 20
1219.152743867069
 30
0.0
  0
POINT
  5
18FB
330
102C
100
AcDbEntity
  8
DEFPOINTS
  6
CONTINUOUS
 62
     0
100
AcDbPoint
 10
1129.569330878674
 20
1219.152743867069
 30
0.0
  0
ENDBLK
  5
1039
330
102C
100
AcDbEntity
  8
0
100
AcDbBlockEnd
  0
BLOCK
  5
1047
330
103B
100
AcDbEntity
  8
0
100
AcDbBlockBegin
  2
*D26
 70
     1
 10
0.0
 20
0.0
 30
0.0
  3
*D26
  1

  0
LINE
  5
1726
330
103B
100
AcDbEntity
  8
SUNPOU
  6
CONTINUOUS
100
AcDbLine
 10
983.848649156812
 20
1960.15274386707
 30
0.0
 11
914.8506358058924
 21
1960.15274386707
 31
0.0
  0
LINE
  5
1727
330
103B
100
AcDbEntity
  8
SUNPOU
  6
CONTINUOUS
100
AcDbLine
 10
943.5526588783972
 20
1990.152743867071
 30
0.0
 11
914.8506358058924
 21
1990.152743867071
 31
0.0
  0
LINE
  5
1728
330
103B
100
AcDbEntity
  8
SUNPOU
  6
CONTINUOUS
100
AcDbLine
 10
921.8506358058924
 20
1942.652743867069
 30
0.0
 11
921.8506358058924
 21
1925.15274386707
 31
0.0
  0
LINE
  5
1729
330
103B
100
AcDbEntity
  8
SUNPOU
  6
CONTINUOUS
100
AcDbLine
 10
921.8506358058924
 20
2007.65274386707
 30
0.0
 11
921.8506358058924
 21
2025.15274386707
 31
0.0
  0
MTEXT
  5
172A
330
103B
100
AcDbEntity
  8
SUNPOU
  6
CONTINUOUS
 62
     6
100
AcDbMText
 10
895.6006358058919
 20
1975.15274386707
 30
0.0
 40
17.5
 41
0.0
 71
     5
 72
     1
  1
\A1;30
  7
SUNPOU
 11
0.0000000000000001
 21
1.0
 31
0.0
1001
ACAD
1000
MTEXTBEGIN
1070
    73
1070
     1
1070
    44
1040
1.0
1070
    74
1070
     0
1000
MTEXTEND
1000
MTEXTBEGIN
1070
    73
1070
     1
1070
    44
1040
1.0
1070
    74
1070
     0
1000
MTEXTEND
  0
LINE
  5
172B
330
103B
100
AcDbEntity
  8
SUNPOU
  6
CONTINUOUS
100
AcDbLine
 10
921.8506358058924
 20
1960.15274386707
 30
0.0
 11
921.8506358058924
 21
1990.152743867071
 31
0.0
  0
INSERT
  5
172C
330
103B
100
AcDbEntity
  8
SUNPOU
  6
CONTINUOUS
100
AcDbBlockReference
  2
_OPEN30
 10
921.8506358058924
 20
1960.15274386707
 30
0.0
 41
17.5
 42
17.5
 43
17.5
 50
90.0
  0
INSERT
  5
172D
330
103B
100
AcDbEntity
  8
SUNPOU
  6
CONTINUOUS
100
AcDbBlockReference
  2
_OPEN30
 10
921.8506358058924
 20
1990.152743867071
 30
0.0
 41
17.5
 42
17.5
 43
17.5
 50
270.0
  0
POINT
  5
172E
330
103B
100
AcDbEntity
  8
DEFPOINTS
  6
CONTINUOUS
 62
     0
100
AcDbPoint
 10
994.3486491568121
 20
1960.15274386707
 30
0.0
  0
POINT
  5
172F
330
103B
100
AcDbEntity
  8
DEFPOINTS
  6
CONTINUOUS
 62
     0
100
AcDbPoint
 10
954.0526588783974
 20
1990.152743867071
 30
0.0
  0
POINT
  5
1730
330
103B
100
AcDbEntity
  8
DEFPOINTS
  6
CONTINUOUS
 62
     0
100
AcDbPoint
 10
921.8506358058924
 20
1990.152743867071
 30
0.0
  0
ENDBLK
  5
1048
330
103B
100
AcDbEntity
  8
0
100
AcDbBlockEnd
  0
BLOCK
  5
1054
330
104A
100
AcDbEntity
  8
0
100
AcDbBlockBegin
  2
*D27
 70
     1
 10
0.0
 20
0.0
 30
0.0
  3
*D27
  1

  0
LINE
  5
18DD
330
104A
100
AcDbEntity
  8
SUNPOU
  6
CONTINUOUS
100
AcDbLine
 10
1010.952658878397
 20
1945.651212811424
 30
0.0
 11
1010.952658878397
 21
1879.941940088281
 31
0.0
  0
LINE
  5
18DE
330
104A
100
AcDbEntity
  8
SUNPOU
  6
CONTINUOUS
100
AcDbLine
 10
1093.952658878396
 20
1945.651212811424
 30
0.0
 11
1093.952658878396
 21
1879.941940088281
 31
0.0
  0
LINE
  5
18DF
330
104A
100
AcDbEntity
  8
SUNPOU
  6
CONTINUOUS
100
AcDbLine
 10
1028.452658878397
 20
1886.941940088282
 30
0.0
 11
1076.452658878396
 21
1886.941940088282
 31
0.0
  0
MTEXT
  5
18E0
330
104A
100
AcDbEntity
  8
SUNPOU
  6
CONTINUOUS
 62
     6
100
AcDbMText
 10
1052.452658878396
 20
1867.899583330712
 30
0.0
 40
17.5
 41
0.0
 71
     5
 72
     1
  1
\A1;83
  7
SUNPOU
 11
-1.0
 21
0.0000000000000001
 31
0.0
1001
ACAD
1000
MTEXTBEGIN
1070
    73
1070
     1
1070
    44
1040
1.0
1070
    74
1070
     0
1000
MTEXTEND
1000
MTEXTBEGIN
1070
    73
1070
     1
1070
    44
1040
1.0
1070
    74
1070
     0
1000
MTEXTEND
  0
INSERT
  5
18E1
330
104A
100
AcDbEntity
  8
SUNPOU
  6
CONTINUOUS
100
AcDbBlockReference
  2
_OPEN30
 10
1010.952658878397
 20
1886.941940088282
 30
0.0
 41
17.5
 42
17.5
 43
17.5
 50
180.0
  0
INSERT
  5
18E2
330
104A
100
AcDbEntity
  8
SUNPOU
  6
CONTINUOUS
100
AcDbBlockReference
  2
_OPEN30
 10
1093.952658878396
 20
1886.941940088282
 30
0.0
 41
17.5
 42
17.5
 43
17.5
  0
POINT
  5
18E3
330
104A
100
AcDbEntity
  8
DEFPOINTS
  6
CONTINUOUS
 62
     0
100
AcDbPoint
 10
1010.952658878397
 20
1956.151212811424
 30
0.0
  0
POINT
  5
18E4
330
104A
100
AcDbEntity
  8
DEFPOINTS
  6
CONTINUOUS
 62
     0
100
AcDbPoint
 10
1093.952658878396
 20
1956.151212811424
 30
0.0
  0
POINT
  5
18E5
330
104A
100
AcDbEntity
  8
DEFPOINTS
  6
CONTINUOUS
 62
     0
100
AcDbPoint
 10
1093.952658878396
 20
1886.941940088282
 30
0.0
  0
ENDBLK
  5
1055
330
104A
100
AcDbEntity
  8
0
100
AcDbBlockEnd
  0
BLOCK
  5
1081
330
1075
100
AcDbEntity
  8
0
100
AcDbBlockBegin
  2
*D28
 70
     1
 10
0.0
 20
0.0
 30
0.0
  3
*D28
  1

  0
LINE
  5
18E6
330
1075
100
AcDbEntity
  8
SUNPOU
  6
CONTINUOUS
100
AcDbLine
 10
1080.452658878398
 20
1949.15274386707
 30
0.0
 11
1136.261077044961
 21
1949.15274386707
 31
0.0
  0
LINE
  5
18E7
330
1075
100
AcDbEntity
  8
SUNPOU
  6
CONTINUOUS
100
AcDbLine
 10
1080.452658878398
 20
1971.15274386707
 30
0.0
 11
1136.261077044961
 21
1971.15274386707
 31
0.0
  0
LINE
  5
18E8
330
1075
100
AcDbEntity
  8
SUNPOU
  6
CONTINUOUS
100
AcDbLine
 10
1129.26107704496
 20
1931.65274386707
 30
0.0
 11
1129.26107704496
 21
1914.152743867069
 31
0.0
  0
LINE
  5
18E9
330
1075
100
AcDbEntity
  8
SUNPOU
  6
CONTINUOUS
100
AcDbLine
 10
1129.26107704496
 20
1988.65274386707
 30
0.0
 11
1129.26107704496
 21
2006.15274386707
 31
0.0
  0
MTEXT
  5
18EA
330
1075
100
AcDbEntity
  8
SUNPOU
  6
CONTINUOUS
 62
     6
100
AcDbMText
 10
1115.388272466597
 20
1914.347136727412
 30
0.0
 40
17.5
 41
0.0
 71
     5
 72
     1
  1
\A1;22
  7
SUNPOU
 11
0.0000000000000001
 21
1.0
 31
0.0
1001
ACAD
1000
MTEXTBEGIN
1070
    73
1070
     1
1070
    44
1040
1.0
1070
    74
1070
     0
1000
MTEXTEND
1000
MTEXTBEGIN
1070
    73
1070
     1
1070
    44
1040
1.0
1070
    74
1070
     0
1000
MTEXTEND
  0
LINE
  5
18EB
330
1075
100
AcDbEntity
  8
SUNPOU
  6
CONTINUOUS
100
AcDbLine
 10
1129.26107704496
 20
1949.15274386707
 30
0.0
 11
1129.26107704496
 21
1971.15274386707
 31
0.0
  0
INSERT
  5
18EC
330
1075
100
AcDbEntity
  8
SUNPOU
  6
CONTINUOUS
100
AcDbBlockReference
  2
_OPEN30
 10
1129.26107704496
 20
1949.15274386707
 30
0.0
 41
17.5
 42
17.5
 43
17.5
 50
90.0
  0
INSERT
  5
18ED
330
1075
100
AcDbEntity
  8
SUNPOU
  6
CONTINUOUS
100
AcDbBlockReference
  2
_OPEN30
 10
1129.26107704496
 20
1971.15274386707
 30
0.0
 41
17.5
 42
17.5
 43
17.5
 50
270.0
  0
POINT
  5
18EE
330
1075
100
AcDbEntity
  8
DEFPOINTS
  6
CONTINUOUS
 62
     0
100
AcDbPoint
 10
1069.952658878396
 20
1949.15274386707
 30
0.0
  0
POINT
  5
18EF
330
1075
100
AcDbEntity
  8
DEFPOINTS
  6
CONTINUOUS
 62
     0
100
AcDbPoint
 10
1069.952658878396
 20
1971.15274386707
 30
0.0
  0
POINT
  5
18F0
330
1075
100
AcDbEntity
  8
DEFPOINTS
  6
CONTINUOUS
 62
     0
100
AcDbPoint
 10
1129.26107704496
 20
1971.15274386707
 30
0.0
  0
ENDBLK
  5
1082
330
1075
100
AcDbEntity
  8
0
100
AcDbBlockEnd
  0
BLOCK
  5
108E
330
1084
100
AcDbEntity
  8
0
100
AcDbBlockBegin
  2
*D29
 70
     1
 10
0.0
 20
0.0
 30
0.0
  3
*D29
  1

  0
LINE
  5
186E
330
1084
100
AcDbEntity
  8
SUNPOU
  6
CONTINUOUS
100
AcDbLine
 10
1093.952658878396
 20
708.6512128114263
 30
0.0
 11
1093.952658878396
 21
638.1537599045957
 31
0.0
  0
LINE
  5
186F
330
1084
100
AcDbEntity
  8
SUNPOU
  6
CONTINUOUS
100
AcDbLine
 10
1010.952658878397
 20
708.6512128114263
 30
0.0
 11
1010.952658878397
 21
638.1537599045957
 31
0.0
  0
LINE
  5
1870
330
1084
100
AcDbEntity
  8
SUNPOU
  6
CONTINUOUS
100
AcDbLine
 10
1076.452658878396
 20
645.1537599045957
 30
0.0
 11
1028.452658878397
 21
645.1537599045957
 31
0.0
  0
MTEXT
  5
1871
330
1084
100
AcDbEntity
  8
SUNPOU
  6
CONTINUOUS
 62
     6
100
AcDbMText
 10
1052.452658878396
 20
627.8023651395487
 30
0.0
 40
17.5
 41
0.0
 71
     5
 72
     1
  1
\A1;83
  7
SUNPOU
 11
-1.0
 21
0.0000000000000001
 31
0.0
1001
ACAD
1000
MTEXTBEGIN
1070
    73
1070
     1
1070
    44
1040
1.0
1070
    74
1070
     0
1000
MTEXTEND
1000
MTEXTBEGIN
1070
    73
1070
     1
1070
    44
1040
1.0
1070
    74
1070
     0
1000
MTEXTEND
  0
INSERT
  5
1872
330
1084
100
AcDbEntity
  8
SUNPOU
  6
CONTINUOUS
100
AcDbBlockReference
  2
_OPEN30
 10
1093.952658878396
 20
645.1537599045957
 30
0.0
 41
17.5
 42
17.5
 43
17.5
  0
INSERT
  5
1873
330
1084
100
AcDbEntity
  8
SUNPOU
  6
CONTINUOUS
100
AcDbBlockReference
  2
_OPEN30
 10
1010.952658878397
 20
645.1537599045957
 30
0.0
 41
17.5
 42
17.5
 43
17.5
 50
180.0
  0
POINT
  5
1874
330
1084
100
AcDbEntity
  8
DEFPOINTS
  6
CONTINUOUS
 62
     0
100
AcDbPoint
 10
1093.952658878396
 20
719.1512128114262
 30
0.0
  0
POINT
  5
1875
330
1084
100
AcDbEntity
  8
DEFPOINTS
  6
CONTINUOUS
 62
     0
100
AcDbPoint
 10
1010.952658878397
 20
719.1512128114262
 30
0.0
  0
POINT
  5
1876
330
1084
100
AcDbEntity
  8
DEFPOINTS
  6
CONTINUOUS
 62
     0
100
AcDbPoint
 10
1010.952658878397
 20
645.1537599045957
 30
0.0
  0
ENDBLK
  5
108F
330
1084
100
AcDbEntity
  8
0
100
AcDbBlockEnd
  0
BLOCK
  5
109D
330
1091
100
AcDbEntity
  8
0
100
AcDbBlockBegin
  2
*D30
 70
     1
 10
0.0
 20
0.0
 30
0.0
  3
*D30
  1

  0
LINE
  5
1859
330
1091
100
AcDbEntity
  8
SUNPOU
  6
CONTINUOUS
100
AcDbLine
 10
1034.952658878396
 20
701.6527438670707
 30
0.0
 11
1034.952658878396
 21
688.6548948932166
 31
0.0
  0
LINE
  5
185A
330
1091
100
AcDbEntity
  8
SUNPOU
  6
CONTINUOUS
100
AcDbLine
 10
1069.952658878394
 20
701.6527438670707
 30
0.0
 11
1069.952658878394
 21
688.6548948932166
 31
0.0
  0
LINE
  5
185B
330
1091
100
AcDbEntity
  8
SUNPOU
  6
CONTINUOUS
100
AcDbLine
 10
1017.452658878396
 20
695.6548948932167
 30
0.0
 11
999.9526588783961
 21
695.6548948932167
 31
0.0
  0
LINE
  5
185C
330
1091
100
AcDbEntity
  8
SUNPOU
  6
CONTINUOUS
100
AcDbLine
 10
1087.452658878395
 20
695.6548948932167
 30
0.0
 11
1104.952658878395
 21
695.6548948932167
 31
0.0
  0
MTEXT
  5
185D
330
1091
100
AcDbEntity
  8
SUNPOU
  6
CONTINUOUS
 62
     6
100
AcDbMText
 10
1052.452658878394
 20
679.1237328743264
 30
0.0
 40
17.5
 41
0.0
 71
     5
 72
     1
  1
\A1;35
  7
SUNPOU
 11
-1.0
 21
0.0000000000000001
 31
0.0
1001
ACAD
1000
MTEXTBEGIN
1070
    73
1070
     1
1070
    44
1040
1.0
1070
    74
1070
     0
1000
MTEXTEND
1000
MTEXTBEGIN
1070
    73
1070
     1
1070
    44
1040
1.0
1070
    74
1070
     0
1000
MTEXTEND
  0
LINE
  5
185E
330
1091
100
AcDbEntity
  8
SUNPOU
  6
CONTINUOUS
100
AcDbLine
 10
1034.952658878396
 20
695.6548948932167
 30
0.0
 11
1069.952658878394
 21
695.6548948932167
 31
0.0
  0
INSERT
  5
185F
330
1091
100
AcDbEntity
  8
SUNPOU
  6
CONTINUOUS
100
AcDbBlockReference
  2
_OPEN30
 10
1034.952658878396
 20
695.6548948932167
 30
0.0
 41
17.5
 42
17.5
 43
17.5
  0
INSERT
  5
1860
330
1091
100
AcDbEntity
  8
SUNPOU
  6
CONTINUOUS
100
AcDbBlockReference
  2
_OPEN30
 10
1069.952658878394
 20
695.6548948932167
 30
0.0
 41
17.5
 42
17.5
 43
17.5
 50
180.0
  0
POINT
  5
1861
330
1091
100
AcDbEntity
  8
DEFPOINTS
  6
CONTINUOUS
 62
     0
100
AcDbPoint
 10
1034.952658878396
 20
712.1527438670709
 30
0.0
  0
POINT
  5
1862
330
1091
100
AcDbEntity
  8
DEFPOINTS
  6
CONTINUOUS
 62
     0
100
AcDbPoint
 10
1069.952658878394
 20
712.1527438670709
 30
0.0
  0
POINT
  5
1863
330
1091
100
AcDbEntity
  8
DEFPOINTS
  6
CONTINUOUS
 62
     0
100
AcDbPoint
 10
1069.952658878394
 20
695.6548948932167
 30
0.0
  0
ENDBLK
  5
109E
330
1091
100
AcDbEntity
  8
0
100
AcDbBlockEnd
  0
BLOCK
  5
10AA
330
10A0
100
AcDbEntity
  8
0
100
AcDbBlockBegin
  2
*D31
 70
     1
 10
0.0
 20
0.0
 30
0.0
  3
*D31
  1

  0
LINE
  5
1664
330
10A0
100
AcDbEntity
  8
SUNPOU
  6
CONTINUOUS
100
AcDbLine
 10
1161.352658878397
 20
390.1527438670703
 30
0.0
 11
1231.452658878397
 21
390.1527438670703
 31
0.0
  0
LINE
  5
1665
330
10A0
100
AcDbEntity
  8
SUNPOU
  6
CONTINUOUS
100
AcDbLine
 10
1093.141042470568
 20
478.1527438670694
 30
0.0
 11
1231.452658878397
 21
478.1527438670694
 31
0.0
  0
LINE
  5
1666
330
10A0
100
AcDbEntity
  8
SUNPOU
  6
CONTINUOUS
100
AcDbLine
 10
1224.452658878397
 20
407.6527438670702
 30
0.0
 11
1224.452658878397
 21
460.6527438670694
 31
0.0
  0
INSERT
  5
1667
330
10A0
100
AcDbEntity
  8
SUNPOU
  6
CONTINUOUS
100
AcDbBlockReference
  2
_OPEN30
 10
1224.452658878397
 20
390.1527438670703
 30
0.0
 41
17.5
 42
17.5
 43
17.5
 50
270.0
  0
INSERT
  5
1668
330
10A0
100
AcDbEntity
  8
SUNPOU
  6
CONTINUOUS
100
AcDbBlockReference
  2
_OPEN30
 10
1224.452658878397
 20
478.1527438670694
 30
0.0
 41
17.5
 42
17.5
 43
17.5
 50
90.0
  0
MTEXT
  5
1669
330
10A0
100
AcDbEntity
  8
SUNPOU
  6
CONTINUOUS
 62
     6
100
AcDbMText
 10
1208.702658878397
 20
434.1527438670701
 30
0.0
 40
17.5
 41
0.0
 71
     5
 72
     1
  1
\A1;88
  7
SUNPOU
 11
0.0000000000000001
 21
1.0
 31
0.0
1001
ACAD
1000
MTEXTBEGIN
1070
    73
1070
     1
1070
    44
1040
1.0
1070
    74
1070
     0
1000
MTEXTEND
1000
MTEXTBEGIN
1070
    73
1070
     1
1070
    44
1040
1.0
1070
    74
1070
     0
1000
MTEXTEND
  0
POINT
  5
166A
330
10A0
100
AcDbEntity
  8
DEFPOINTS
  6
CONTINUOUS
 62
     0
100
AcDbPoint
 10
1150.852658878397
 20
390.1527438670703
 30
0.0
  0
POINT
  5
166B
330
10A0
100
AcDbEntity
  8
DEFPOINTS
  6
CONTINUOUS
 62
     0
100
AcDbPoint
 10
1082.641042470568
 20
478.1527438670694
 30
0.0
  0
POINT
  5
166C
330
10A0
100
AcDbEntity
  8
DEFPOINTS
  6
CONTINUOUS
 62
     0
100
AcDbPoint
 10
1224.452658878397
 20
478.1527438670694
 30
0.0
  0
ENDBLK
  5
10AB
330
10A0
100
AcDbEntity
  8
0
100
AcDbBlockEnd
  0
BLOCK
  5
10B9
330
10AD
100
AcDbEntity
  8
0
100
AcDbBlockBegin
  2
*D32
 70
     1
 10
0.0
 20
0.0
 30
0.0
  3
*D32
  1

  0
LINE
  5
18B3
330
10AD
100
AcDbEntity
  8
SUNPOU
  6
CONTINUOUS
100
AcDbLine
 10
1152.452658878396
 20
351.2527438670703
 30
0.0
 11
1152.452658878396
 21
287.5527438670701
 31
0.0
  0
LINE
  5
18B4
330
10AD
100
AcDbEntity
  8
SUNPOU
  6
CONTINUOUS
100
AcDbLine
 10
1149.452658878397
 20
379.6527438670703
 30
0.0
 11
1149.452658878397
 21
287.5527438670701
 31
0.0
  0
LINE
  5
18B5
330
10AD
100
AcDbEntity
  8
SUNPOU
  6
CONTINUOUS
100
AcDbLine
 10
1169.952658878397
 20
294.5527438670702
 30
0.0
 11
1187.452658878397
 21
294.5527438670702
 31
0.0
  0
LINE
  5
18B6
330
10AD
100
AcDbEntity
  8
SUNPOU
  6
CONTINUOUS
100
AcDbLine
 10
1131.952658878397
 20
294.5527438670702
 30
0.0
 11
1114.452658878396
 21
294.5527438670702
 31
0.0
  0
MTEXT
  5
18B7
330
10AD
100
AcDbEntity
  8
SUNPOU
  6
CONTINUOUS
 62
     6
100
AcDbMText
 10
1177.143230300454
 20
275.931754377896
 30
0.0
 40
17.5
 41
0.0
 71
     5
 72
     1
  1
\A1;3
  7
SUNPOU
 11
-1.0
 21
0.0000000000000001
 31
0.0
1001
ACAD
1000
MTEXTBEGIN
1070
    73
1070
     1
1070
    44
1040
1.0
1070
    74
1070
     0
1000
MTEXTEND
1000
MTEXTBEGIN
1070
    73
1070
     1
1070
    44
1040
1.0
1070
    74
1070
     0
1000
MTEXTEND
  0
LINE
  5
18B8
330
10AD
100
AcDbEntity
  8
SUNPOU
  6
CONTINUOUS
100
AcDbLine
 10
1152.452658878396
 20
294.5527438670702
 30
0.0
 11
1149.452658878397
 21
294.5527438670702
 31
0.0
  0
INSERT
  5
18B9
330
10AD
100
AcDbEntity
  8
SUNPOU
  6
CONTINUOUS
100
AcDbBlockReference
  2
_OPEN30
 10
1152.452658878396
 20
294.5527438670702
 30
0.0
 41
17.5
 42
17.5
 43
17.5
 50
180.0
  0
INSERT
  5
18BA
330
10AD
100
AcDbEntity
  8
SUNPOU
  6
CONTINUOUS
100
AcDbBlockReference
  2
_OPEN30
 10
1149.452658878397
 20
294.5527438670702
 30
0.0
 41
17.5
 42
17.5
 43
17.5
  0
POINT
  5
18BB
330
10AD
100
AcDbEntity
  8
DEFPOINTS
  6
CONTINUOUS
 62
     0
100
AcDbPoint
 10
1152.452658878396
 20
361.7527438670703
 30
0.0
  0
POINT
  5
18BC
330
10AD
100
AcDbEntity
  8
DEFPOINTS
  6
CONTINUOUS
 62
     0
100
AcDbPoint
 10
1149.452658878397
 20
390.1527438670703
 30
0.0
  0
POINT
  5
18BD
330
10AD
100
AcDbEntity
  8
DEFPOINTS
  6
CONTINUOUS
 62
     0
100
AcDbPoint
 10
1149.452658878397
 20
294.5527438670702
 30
0.0
  0
ENDBLK
  5
10BA
330
10AD
100
AcDbEntity
  8
0
100
AcDbBlockEnd
  0
BLOCK
  5
10C6
330
10BC
100
AcDbEntity
  8
0
100
AcDbBlockBegin
  2
*D33
 70
     1
 10
0.0
 20
0.0
 30
0.0
  3
*D33
  1

  0
LINE
  5
1880
330
10BC
100
AcDbEntity
  8
SUNPOU
  6
CONTINUOUS
100
AcDbLine
 10
1149.452658878397
 20
379.6527438670703
 30
0.0
 11
1149.452658878397
 21
287.5527438670703
 31
0.0
  0
LINE
  5
1881
330
10BC
100
AcDbEntity
  8
SUNPOU
  6
CONTINUOUS
100
AcDbLine
 10
955.4526588783977
 20
379.6527438670698
 30
0.0
 11
955.4526588783977
 21
287.5527438670703
 31
0.0
  0
LINE
  5
1882
330
10BC
100
AcDbEntity
  8
SUNPOU
  6
CONTINUOUS
100
AcDbLine
 10
1131.952658878397
 20
294.5527438670703
 30
0.0
 11
972.9526588783976
 21
294.5527438670703
 31
0.0
  0
MTEXT
  5
1883
330
10BC
100
AcDbEntity
  8
SUNPOU
  6
CONTINUOUS
 62
     6
100
AcDbMText
 10
1052.452658878396
 20
278.5398500677838
 30
0.0
 40
17.5
 41
0.0
 71
     5
 72
     1
  1
\A1;194
  7
SUNPOU
 11
-1.0
 21
0.0000000000000001
 31
0.0
1001
ACAD
1000
MTEXTBEGIN
1070
    73
1070
     1
1070
    44
1040
1.0
1070
    74
1070
     0
1000
MTEXTEND
1000
MTEXTBEGIN
1070
    73
1070
     1
1070
    44
1040
1.0
1070
    74
1070
     0
1000
MTEXTEND
  0
INSERT
  5
1884
330
10BC
100
AcDbEntity
  8
SUNPOU
  6
CONTINUOUS
100
AcDbBlockReference
  2
_OPEN30
 10
1149.452658878397
 20
294.5527438670703
 30
0.0
 41
17.5
 42
17.5
 43
17.5
  0
INSERT
  5
1885
330
10BC
100
AcDbEntity
  8
SUNPOU
  6
CONTINUOUS
100
AcDbBlockReference
  2
_OPEN30
 10
955.4526588783977
 20
294.5527438670703
 30
0.0
 41
17.5
 42
17.5
 43
17.5
 50
180.0
  0
POINT
  5
1886
330
10BC
100
AcDbEntity
  8
DEFPOINTS
  6
CONTINUOUS
 62
     0
100
AcDbPoint
 10
1149.452658878397
 20
390.1527438670703
 30
0.0
  0
POINT
  5
1887
330
10BC
100
AcDbEntity
  8
DEFPOINTS
  6
CONTINUOUS
 62
     0
100
AcDbPoint
 10
955.4526588783977
 20
390.1527438670698
 30
0.0
  0
POINT
  5
1888
330
10BC
100
AcDbEntity
  8
DEFPOINTS
  6
CONTINUOUS
 62
     0
100
AcDbPoint
 10
955.4526588783977
 20
294.5527438670703
 30
0.0
  0
ENDBLK
  5
10C7
330
10BC
100
AcDbEntity
  8
0
100
AcDbBlockEnd
  0
BLOCK
  5
10D5
330
10C9
100
AcDbEntity
  8
0
100
AcDbBlockBegin
  2
*D34
 70
     1
 10
0.0
 20
0.0
 30
0.0
  3
*D34
  1

  0
LINE
  5
189D
330
10C9
100
AcDbEntity
  8
SUNPOU
  6
CONTINUOUS
100
AcDbLine
 10
955.4526588783977
 20
379.6527438670698
 30
0.0
 11
955.4526588783977
 21
287.5527438670703
 31
0.0
  0
LINE
  5
189E
330
10C9
100
AcDbEntity
  8
SUNPOU
  6
CONTINUOUS
100
AcDbLine
 10
952.4526588783972
 20
351.2527438670703
 30
0.0
 11
952.4526588783972
 21
287.5527438670703
 31
0.0
  0
LINE
  5
189F
330
10C9
100
AcDbEntity
  8
SUNPOU
  6
CONTINUOUS
100
AcDbLine
 10
972.9526588783976
 20
294.5527438670703
 30
0.0
 11
990.4526588783976
 21
294.5527438670703
 31
0.0
  0
LINE
  5
18A0
330
10C9
100
AcDbEntity
  8
SUNPOU
  6
CONTINUOUS
100
AcDbLine
 10
934.9526588783971
 20
294.5527438670703
 30
0.0
 11
917.4526588783972
 21
294.5527438670703
 31
0.0
  0
MTEXT
  5
18A1
330
10C9
100
AcDbEntity
  8
SUNPOU
  6
CONTINUOUS
 62
     6
100
AcDbMText
 10
930.5125084085647
 20
278.5665563110851
 30
0.0
 40
17.5
 41
0.0
 71
     5
 72
     1
  1
\A1;3
  7
SUNPOU
 11
-1.0
 21
0.0000000000000001
 31
0.0
1001
ACAD
1000
MTEXTBEGIN
1070
    73
1070
     1
1070
    44
1040
1.0
1070
    74
1070
     0
1000
MTEXTEND
1000
MTEXTBEGIN
1070
    73
1070
     1
1070
    44
1040
1.0
1070
    74
1070
     0
1000
MTEXTEND
  0
LINE
  5
18A2
330
10C9
100
AcDbEntity
  8
SUNPOU
  6
CONTINUOUS
100
AcDbLine
 10
955.4526588783977
 20
294.5527438670703
 30
0.0
 11
952.4526588783972
 21
294.5527438670703
 31
0.0
  0
INSERT
  5
18A3
330
10C9
100
AcDbEntity
  8
SUNPOU
  6
CONTINUOUS
100
AcDbBlockReference
  2
_OPEN30
 10
955.4526588783977
 20
294.5527438670703
 30
0.0
 41
17.5
 42
17.5
 43
17.5
 50
180.0
  0
INSERT
  5
18A4
330
10C9
100
AcDbEntity
  8
SUNPOU
  6
CONTINUOUS
100
AcDbBlockReference
  2
_OPEN30
 10
952.4526588783972
 20
294.5527438670703
 30
0.0
 41
17.5
 42
17.5
 43
17.5
  0
POINT
  5
18A5
330
10C9
100
AcDbEntity
  8
DEFPOINTS
  6
CONTINUOUS
 62
     0
100
AcDbPoint
 10
955.4526588783977
 20
390.1527438670698
 30
0.0
  0
POINT
  5
18A6
330
10C9
100
AcDbEntity
  8
DEFPOINTS
  6
CONTINUOUS
 62
     0
100
AcDbPoint
 10
952.4526588783972
 20
361.7527438670703
 30
0.0
  0
POINT
  5
18A7
330
10C9
100
AcDbEntity
  8
DEFPOINTS
  6
CONTINUOUS
 62
     0
100
AcDbPoint
 10
952.4526588783972
 20
294.5527438670703
 30
0.0
  0
ENDBLK
  5
10D6
330
10C9
100
AcDbEntity
  8
0
100
AcDbBlockEnd
  0
BLOCK
  5
10E2
330
10D8
100
AcDbEntity
  8
0
100
AcDbBlockBegin
  2
*D35
 70
     1
 10
0.0
 20
0.0
 30
0.0
  3
*D35
  1

  0
LINE
  5
1889
330
10D8
100
AcDbEntity
  8
SUNPOU
  6
CONTINUOUS
100
AcDbLine
 10
952.4526588783972
 20
351.2527438670703
 30
0.0
 11
952.4526588783972
 21
237.5527438670701
 31
0.0
  0
LINE
  5
188A
330
10D8
100
AcDbEntity
  8
SUNPOU
  6
CONTINUOUS
100
AcDbLine
 10
1152.452658878396
 20
351.2527438670703
 30
0.0
 11
1152.452658878396
 21
237.5527438670701
 31
0.0
  0
LINE
  5
188B
330
10D8
100
AcDbEntity
  8
SUNPOU
  6
CONTINUOUS
100
AcDbLine
 10
969.9526588783971
 20
244.5527438670702
 30
0.0
 11
1134.952658878397
 21
244.5527438670702
 31
0.0
  0
MTEXT
  5
188C
330
10D8
100
AcDbEntity
  8
SUNPOU
  6
CONTINUOUS
 62
     6
100
AcDbMText
 10
1052.452658878396
 20
226.9188169315166
 30
0.0
 40
17.5
 41
0.0
 71
     5
 72
     1
  1
\A1;200
  7
SUNPOU
 11
-1.0
 21
0.0000000000000001
 31
0.0
1001
ACAD
1000
MTEXTBEGIN
1070
    73
1070
     1
1070
    44
1040
1.0
1070
    74
1070
     0
1000
MTEXTEND
1000
MTEXTBEGIN
1070
    73
1070
     1
1070
    44
1040
1.0
1070
    74
1070
     0
1000
MTEXTEND
  0
INSERT
  5
188D
330
10D8
100
AcDbEntity
  8
SUNPOU
  6
CONTINUOUS
100
AcDbBlockReference
  2
_OPEN30
 10
952.4526588783972
 20
244.5527438670702
 30
0.0
 41
17.5
 42
17.5
 43
17.5
 50
180.0
  0
INSERT
  5
188E
330
10D8
100
AcDbEntity
  8
SUNPOU
  6
CONTINUOUS
100
AcDbBlockReference
  2
_OPEN30
 10
1152.452658878396
 20
244.5527438670702
 30
0.0
 41
17.5
 42
17.5
 43
17.5
  0
POINT
  5
188F
330
10D8
100
AcDbEntity
  8
DEFPOINTS
  6
CONTINUOUS
 62
     0
100
AcDbPoint
 10
952.4526588783972
 20
361.7527438670703
 30
0.0
  0
POINT
  5
1890
330
10D8
100
AcDbEntity
  8
DEFPOINTS
  6
CONTINUOUS
 62
     0
100
AcDbPoint
 10
1152.452658878396
 20
361.7527438670703
 30
0.0
  0
POINT
  5
1891
330
10D8
100
AcDbEntity
  8
DEFPOINTS
  6
CONTINUOUS
 62
     0
100
AcDbPoint
 10
1152.452658878396
 20
244.5527438670702
 30
0.0
  0
ENDBLK
  5
10E3
330
10D8
100
AcDbEntity
  8
0
100
AcDbBlockEnd
  0
BLOCK
  5
10EF
330
10E5
100
AcDbEntity
  8
0
100
AcDbBlockBegin
  2
*D36
 70
     1
 10
0.0
 20
0.0
 30
0.0
  3
*D36
  1

  0
LINE
  5
1877
330
10E5
100
AcDbEntity
  8
SUNPOU
  6
CONTINUOUS
100
AcDbLine
 10
1012.452658878397
 20
417.652743867069
 30
0.0
 11
1012.452658878397
 21
337.5527438670701
 31
0.0
  0
LINE
  5
1878
330
10E5
100
AcDbEntity
  8
SUNPOU
  6
CONTINUOUS
100
AcDbLine
 10
1092.452658878397
 20
417.652743867069
 30
0.0
 11
1092.452658878397
 21
337.5527438670701
 31
0.0
  0
LINE
  5
1879
330
10E5
100
AcDbEntity
  8
SUNPOU
  6
CONTINUOUS
100
AcDbLine
 10
1029.952658878397
 20
344.5527438670701
 30
0.0
 11
1074.952658878397
 21
344.5527438670701
 31
0.0
  0
MTEXT
  5
187A
330
10E5
100
AcDbEntity
  8
SUNPOU
  6
CONTINUOUS
 62
     6
100
AcDbMText
 10
1052.452658878398
 20
325.0171373050107
 30
0.0
 40
17.5
 41
0.0
 71
     5
 72
     1
  1
\A1;80
  7
SUNPOU
 11
-1.0
 21
0.0000000000000001
 31
0.0
1001
ACAD
1000
MTEXTBEGIN
1070
    73
1070
     1
1070
    44
1040
1.0
1070
    74
1070
     0
1000
MTEXTEND
1000
MTEXTBEGIN
1070
    73
1070
     1
1070
    44
1040
1.0
1070
    74
1070
     0
1000
MTEXTEND
  0
INSERT
  5
187B
330
10E5
100
AcDbEntity
  8
SUNPOU
  6
CONTINUOUS
100
AcDbBlockReference
  2
_OPEN30
 10
1012.452658878397
 20
344.5527438670701
 30
0.0
 41
17.5
 42
17.5
 43
17.5
 50
180.0
  0
INSERT
  5
187C
330
10E5
100
AcDbEntity
  8
SUNPOU
  6
CONTINUOUS
100
AcDbBlockReference
  2
_OPEN30
 10
1092.452658878397
 20
344.5527438670701
 30
0.0
 41
17.5
 42
17.5
 43
17.5
  0
POINT
  5
187D
330
10E5
100
AcDbEntity
  8
DEFPOINTS
  6
CONTINUOUS
 62
     0
100
AcDbPoint
 10
1012.452658878397
 20
428.152743867069
 30
0.0
  0
POINT
  5
187E
330
10E5
100
AcDbEntity
  8
DEFPOINTS
  6
CONTINUOUS
 62
     0
100
AcDbPoint
 10
1092.452658878397
 20
428.152743867069
 30
0.0
  0
POINT
  5
187F
330
10E5
100
AcDbEntity
  8
DEFPOINTS
  6
CONTINUOUS
 62
     0
100
AcDbPoint
 10
1092.452658878397
 20
344.5527438670701
 30
0.0
  0
ENDBLK
  5
10F0
330
10E5
100
AcDbEntity
  8
0
100
AcDbBlockEnd
  0
BLOCK
  5
1110
330
1104
100
AcDbEntity
  8
0
100
AcDbBlockBegin
  2
*D37
 70
     1
 10
0.0
 20
0.0
 30
0.0
  3
*D37
  1

  0
LINE
  5
18FC
330
1104
100
AcDbEntity
  8
SUNPOU
  6
CONTINUOUS
100
AcDbLine
 10
1080.452658878394
 20
712.1527438670709
 30
0.0
 11
1136.821927770188
 21
712.1527438670709
 31
0.0
  0
LINE
  5
18FD
330
1104
100
AcDbEntity
  8
SUNPOU
  6
CONTINUOUS
100
AcDbLine
 10
1080.452658878394
 20
734.1527438670707
 30
0.0
 11
1136.821927770188
 21
734.1527438670707
 31
0.0
  0
LINE
  5
18FE
330
1104
100
AcDbEntity
  8
SUNPOU
  6
CONTINUOUS
100
AcDbLine
 10
1129.821927770188
 20
694.6527438670707
 30
0.0
 11
1129.821927770188
 21
677.1527438670707
 31
0.0
  0
LINE
  5
18FF
330
1104
100
AcDbEntity
  8
SUNPOU
  6
CONTINUOUS
100
AcDbLine
 10
1129.821927770188
 20
751.6527438670707
 30
0.0
 11
1129.821927770188
 21
769.1527438670707
 31
0.0
  0
MTEXT
  5
1900
330
1104
100
AcDbEntity
  8
SUNPOU
  6
CONTINUOUS
 62
     6
100
AcDbMText
 10
1113.5440839092
 20
681.4062325848281
 30
0.0
 40
17.5
 41
0.0
 71
     5
 72
     1
  1
\A1;22
  7
SUNPOU
 11
0.0000000000000001
 21
1.0
 31
0.0
1001
ACAD
1000
MTEXTBEGIN
1070
    73
1070
     1
1070
    44
1040
1.0
1070
    74
1070
     0
1000
MTEXTEND
1000
MTEXTBEGIN
1070
    73
1070
     1
1070
    44
1040
1.0
1070
    74
1070
     0
1000
MTEXTEND
  0
LINE
  5
1901
330
1104
100
AcDbEntity
  8
SUNPOU
  6
CONTINUOUS
100
AcDbLine
 10
1129.821927770188
 20
712.1527438670709
 30
0.0
 11
1129.821927770188
 21
734.1527438670707
 31
0.0
  0
INSERT
  5
1902
330
1104
100
AcDbEntity
  8
SUNPOU
  6
CONTINUOUS
100
AcDbBlockReference
  2
_OPEN30
 10
1129.821927770188
 20
712.1527438670709
 30
0.0
 41
17.5
 42
17.5
 43
17.5
 50
90.0
  0
INSERT
  5
1903
330
1104
100
AcDbEntity
  8
SUNPOU
  6
CONTINUOUS
100
AcDbBlockReference
  2
_OPEN30
 10
1129.821927770188
 20
734.1527438670707
 30
0.0
 41
17.5
 42
17.5
 43
17.5
 50
270.0
  0
POINT
  5
1904
330
1104
100
AcDbEntity
  8
DEFPOINTS
  6
CONTINUOUS
 62
     0
100
AcDbPoint
 10
1069.952658878394
 20
712.1527438670709
 30
0.0
  0
POINT
  5
1905
330
1104
100
AcDbEntity
  8
DEFPOINTS
  6
CONTINUOUS
 62
     0
100
AcDbPoint
 10
1069.952658878394
 20
734.1527438670707
 30
0.0
  0
POINT
  5
1906
330
1104
100
AcDbEntity
  8
DEFPOINTS
  6
CONTINUOUS
 62
     0
100
AcDbPoint
 10
1129.821927770188
 20
734.1527438670707
 30
0.0
  0
ENDBLK
  5
1111
330
1104
100
AcDbEntity
  8
0
100
AcDbBlockEnd
  0
BLOCK
  5
19AF
330
199E
100
AcDbEntity
  8
0
100
AcDbBlockBegin
  2
*X38
 70
     1
 10
0.0
 20
0.0
 30
0.0
  3
*X38
  1

  0
LINE
  5
199F
330
199E
100
AcDbEntity
  8
0
  6
CONTINUOUS
 62
     0
100
AcDbLine
 10
1065.706134460344
 20
712.1527438670707
 30
0.0
 11
1069.952658878394
 21
716.3992682851212
 31
0.0
  0
LINE
  5
19A0
330
199E
100
AcDbEntity
  8
0
  6
CONTINUOUS
 62
     0
100
AcDbLine
 10
1069.635066648479
 20
723.1527438670707
 30
0.0
 11
1069.952658878394
 21
723.4703360969866
 31
0.0
  0
LINE
  5
19A1
330
199E
100
AcDbEntity
  8
0
  6
CONTINUOUS
 62
     0
100
AcDbLine
 10
1058.635066648479
 20
712.1527438670709
 30
0.0
 11
1069.635066648479
 21
723.1527438670706
 31
0.0
  0
LINE
  5
19A2
330
199E
100
AcDbEntity
  8
0
  6
CONTINUOUS
 62
     0
100
AcDbLine
 10
1052.452658878396
 20
713.0414039088542
 30
0.0
 11
1062.563998836613
 21
723.1527438670707
 31
0.0
  0
LINE
  5
19A3
330
199E
100
AcDbEntity
  8
0
  6
CONTINUOUS
 62
     0
100
AcDbLine
 10
1062.563998836613
 20
723.1527438670707
 30
0.0
 11
1069.952658878394
 21
730.5414039088519
 31
0.0
  0
LINE
  5
19A4
330
199E
100
AcDbEntity
  8
0
  6
CONTINUOUS
 62
     0
100
AcDbLine
 10
1051.563998836613
 20
712.1527438670706
 30
0.0
 11
1052.452658878396
 21
713.0414039088542
 31
0.0
  0
LINE
  5
19A5
330
199E
100
AcDbEntity
  8
0
  6
CONTINUOUS
 62
     0
100
AcDbLine
 10
1052.452658878396
 20
720.1124717207199
 30
0.0
 11
1055.492931024748
 21
723.1527438670707
 31
0.0
  0
LINE
  5
19A6
330
199E
100
AcDbEntity
  8
0
  6
CONTINUOUS
 62
     0
100
AcDbLine
 10
1055.492931024748
 20
723.1527438670707
 30
0.0
 11
1066.492931024747
 21
734.1527438670706
 31
0.0
  0
LINE
  5
19A7
330
199E
100
AcDbEntity
  8
0
  6
CONTINUOUS
 62
     0
100
AcDbLine
 10
1044.492931024748
 20
712.1527438670709
 30
0.0
 11
1052.452658878396
 21
720.1124717207199
 31
0.0
  0
LINE
  5
19A8
330
199E
100
AcDbEntity
  8
0
  6
CONTINUOUS
 62
     0
100
AcDbLine
 10
1048.421863212881
 20
723.1527438670711
 30
0.0
 11
1052.452658878396
 21
727.1835395325854
 31
0.0
  0
LINE
  5
19A9
330
199E
100
AcDbEntity
  8
0
  6
CONTINUOUS
 62
     0
100
AcDbLine
 10
1052.452658878396
 20
727.1835395325854
 30
0.0
 11
1059.421863212881
 21
734.1527438670707
 31
0.0
  0
LINE
  5
19AA
330
199E
100
AcDbEntity
  8
0
  6
CONTINUOUS
 62
     0
100
AcDbLine
 10
1037.421863212881
 20
712.1527438670707
 30
0.0
 11
1048.421863212881
 21
723.1527438670707
 31
0.0
  0
LINE
  5
19AB
330
199E
100
AcDbEntity
  8
0
  6
CONTINUOUS
 62
     0
100
AcDbLine
 10
1041.350795401017
 20
723.1527438670707
 30
0.0
 11
1052.350795401016
 21
734.1527438670707
 31
0.0
  0
LINE
  5
19AC
330
199E
100
AcDbEntity
  8
0
  6
CONTINUOUS
 62
     0
100
AcDbLine
 10
1034.952658878396
 20
716.7546073444492
 30
0.0
 11
1041.350795401017
 21
723.1527438670706
 31
0.0
  0
LINE
  5
19AD
330
199E
100
AcDbEntity
  8
0
  6
CONTINUOUS
 62
     0
100
AcDbLine
 10
1034.952658878396
 20
723.8256751563149
 30
0.0
 11
1045.279727589152
 21
734.1527438670707
 31
0.0
  0
LINE
  5
19AE
330
199E
100
AcDbEntity
  8
0
  6
CONTINUOUS
 62
     0
100
AcDbLine
 10
1034.952658878394
 20
730.8967429681801
 30
0.0
 11
1038.208659777286
 21
734.1527438670707
 31
0.0
  0
ENDBLK
  5
19B0
330
199E
100
AcDbEntity
  8
0
100
AcDbBlockEnd
  0
BLOCK
  5
19C2
330
19B1
100
AcDbEntity
  8
0
100
AcDbBlockBegin
  2
*X39
 70
     1
 10
0.0
 20
0.0
 30
0.0
  3
*X39
  1

  0
LINE
  5
19B2
330
19B1
100
AcDbEntity
  8
0
  6
CONTINUOUS
 62
     0
100
AcDbLine
 10
1065.269267383886
 20
1949.15274386707
 30
0.0
 11
1069.952658878397
 21
1953.836135361582
 31
0.0
  0
LINE
  5
19B3
330
19B1
100
AcDbEntity
  8
0
  6
CONTINUOUS
 62
     0
100
AcDbLine
 10
1069.19819957202
 20
1960.15274386707
 30
0.0
 11
1069.952658878397
 21
1960.907203173447
 31
0.0
  0
LINE
  5
19B4
330
19B1
100
AcDbEntity
  8
0
  6
CONTINUOUS
 62
     0
100
AcDbLine
 10
1058.198199572019
 20
1949.15274386707
 30
0.0
 11
1069.19819957202
 21
1960.15274386707
 31
0.0
  0
LINE
  5
19B5
330
19B1
100
AcDbEntity
  8
0
  6
CONTINUOUS
 62
     0
100
AcDbLine
 10
1052.452658878396
 20
1950.478270985311
 30
0.0
 11
1062.127131760155
 21
1960.15274386707
 31
0.0
  0
LINE
  5
19B6
330
19B1
100
AcDbEntity
  8
0
  6
CONTINUOUS
 62
     0
100
AcDbLine
 10
1062.127131760155
 20
1960.15274386707
 30
0.0
 11
1069.952658878397
 21
1967.978270985311
 31
0.0
  0
LINE
  5
19B7
330
19B1
100
AcDbEntity
  8
0
  6
CONTINUOUS
 62
     0
100
AcDbLine
 10
1051.127131760154
 20
1949.15274386707
 30
0.0
 11
1052.452658878396
 21
1950.478270985311
 31
0.0
  0
LINE
  5
19B8
330
19B1
100
AcDbEntity
  8
0
  6
CONTINUOUS
 62
     0
100
AcDbLine
 10
1052.452658878396
 20
1957.549338797178
 30
0.0
 11
1055.056063948289
 21
1960.15274386707
 31
0.0
  0
LINE
  5
19B9
330
19B1
100
AcDbEntity
  8
0
  6
CONTINUOUS
 62
     0
100
AcDbLine
 10
1055.056063948289
 20
1960.15274386707
 30
0.0
 11
1066.056063948289
 21
1971.15274386707
 31
0.0
  0
LINE
  5
19BA
330
19B1
100
AcDbEntity
  8
0
  6
CONTINUOUS
 62
     0
100
AcDbLine
 10
1044.056063948288
 20
1949.15274386707
 30
0.0
 11
1052.452658878396
 21
1957.549338797178
 31
0.0
  0
LINE
  5
19BB
330
19B1
100
AcDbEntity
  8
0
  6
CONTINUOUS
 62
     0
100
AcDbLine
 10
1047.984996136424
 20
1960.15274386707
 30
0.0
 11
1052.452658878396
 21
1964.620406609043
 31
0.0
  0
LINE
  5
19BC
330
19B1
100
AcDbEntity
  8
0
  6
CONTINUOUS
 62
     0
100
AcDbLine
 10
1052.452658878396
 20
1964.620406609043
 30
0.0
 11
1058.984996136423
 21
1971.15274386707
 31
0.0
  0
LINE
  5
19BD
330
19B1
100
AcDbEntity
  8
0
  6
CONTINUOUS
 62
     0
100
AcDbLine
 10
1036.984996136423
 20
1949.15274386707
 30
0.0
 11
1047.984996136424
 21
1960.15274386707
 31
0.0
  0
LINE
  5
19BE
330
19B1
100
AcDbEntity
  8
0
  6
CONTINUOUS
 62
     0
100
AcDbLine
 10
1040.913928324558
 20
1960.15274386707
 30
0.0
 11
1051.913928324557
 21
1971.15274386707
 31
0.0
  0
LINE
  5
19BF
330
19B1
100
AcDbEntity
  8
0
  6
CONTINUOUS
 62
     0
100
AcDbLine
 10
1034.952658878397
 20
1954.191474420909
 30
0.0
 11
1040.913928324558
 21
1960.15274386707
 31
0.0
  0
LINE
  5
19C0
330
19B1
100
AcDbEntity
  8
0
  6
CONTINUOUS
 62
     0
100
AcDbLine
 10
1034.952658878397
 20
1961.262542232773
 30
0.0
 11
1044.842860512693
 21
1971.15274386707
 31
0.0
  0
LINE
  5
19C1
330
19B1
100
AcDbEntity
  8
0
  6
CONTINUOUS
 62
     0
100
AcDbLine
 10
1034.952658878397
 20
1968.33361004464
 30
0.0
 11
1037.771792700828
 21
1971.15274386707
 31
0.0
  0
ENDBLK
  5
19C3
330
19B1
100
AcDbEntity
  8
0
100
AcDbBlockEnd
  0
BLOCK
  5
19D6
330
19C4
100
AcDbEntity
  8
0
100
AcDbBlockBegin
  2
*X40
 70
     1
 10
0.0
 20
0.0
 30
0.0
  3
*X40
  1

  0
LINE
  5
19C5
330
19C4
100
AcDbEntity
  8
0
  6
CONTINUOUS
 62
     0
100
AcDbLine
 10
1069.87352325349
 20
1197.152743867069
 30
0.0
 11
1069.952658878396
 21
1197.231879491974
 31
0.0
  0
LINE
  5
19C6
330
19C4
100
AcDbEntity
  8
0
  6
CONTINUOUS
 62
     0
100
AcDbLine
 10
1062.802455441625
 20
1197.152743867069
 30
0.0
 11
1069.952658878396
 21
1204.30294730384
 31
0.0
  0
LINE
  5
19C7
330
19C4
100
AcDbEntity
  8
0
  6
CONTINUOUS
 62
     0
100
AcDbLine
 10
1066.731387629759
 20
1208.152743867069
 30
0.0
 11
1069.952658878396
 21
1211.374015115705
 31
0.0
  0
LINE
  5
19C8
330
19C4
100
AcDbEntity
  8
0
  6
CONTINUOUS
 62
     0
100
AcDbLine
 10
1055.731387629758
 20
1197.152743867068
 30
0.0
 11
1066.731387629759
 21
1208.152743867069
 31
0.0
  0
LINE
  5
19C9
330
19C4
100
AcDbEntity
  8
0
  6
CONTINUOUS
 62
     0
100
AcDbLine
 10
1052.452658878396
 20
1200.945082927572
 30
0.0
 11
1059.660319817893
 21
1208.152743867069
 31
0.0
  0
LINE
  5
19CA
330
19C4
100
AcDbEntity
  8
0
  6
CONTINUOUS
 62
     0
100
AcDbLine
 10
1059.660319817893
 20
1208.152743867069
 30
0.0
 11
1069.952658878396
 21
1218.445082927571
 31
0.0
  0
LINE
  5
19CB
330
19C4
100
AcDbEntity
  8
0
  6
CONTINUOUS
 62
     0
100
AcDbLine
 10
1048.660319817893
 20
1197.152743867069
 30
0.0
 11
1052.452658878396
 21
1200.945082927572
 31
0.0
  0
LINE
  5
19CC
330
19C4
100
AcDbEntity
  8
0
  6
CONTINUOUS
 62
     0
100
AcDbLine
 10
1052.452658878396
 20
1208.016150739436
 30
0.0
 11
1052.589252006029
 21
1208.152743867069
 31
0.0
  0
LINE
  5
19CD
330
19C4
100
AcDbEntity
  8
0
  6
CONTINUOUS
 62
     0
100
AcDbLine
 10
1052.589252006029
 20
1208.152743867069
 30
0.0
 11
1063.589252006029
 21
1219.152743867069
 31
0.0
  0
LINE
  5
19CE
330
19C4
100
AcDbEntity
  8
0
  6
CONTINUOUS
 62
     0
100
AcDbLine
 10
1041.589252006027
 20
1197.152743867069
 30
0.0
 11
1052.452658878396
 21
1208.016150739436
 31
0.0
  0
LINE
  5
19CF
330
19C4
100
AcDbEntity
  8
0
  6
CONTINUOUS
 62
     0
100
AcDbLine
 10
1045.518184194163
 20
1208.152743867069
 30
0.0
 11
1052.452658878396
 21
1215.087218551302
 31
0.0
  0
LINE
  5
19D0
330
19C4
100
AcDbEntity
  8
0
  6
CONTINUOUS
 62
     0
100
AcDbLine
 10
1052.452658878396
 20
1215.087218551302
 30
0.0
 11
1056.518184194163
 21
1219.152743867069
 31
0.0
  0
LINE
  5
19D1
330
19C4
100
AcDbEntity
  8
0
  6
CONTINUOUS
 62
     0
100
AcDbLine
 10
1034.952658878396
 20
1197.587218551301
 30
0.0
 11
1045.518184194163
 21
1208.152743867069
 31
0.0
  0
LINE
  5
19D2
330
19C4
100
AcDbEntity
  8
0
  6
CONTINUOUS
 62
     0
100
AcDbLine
 10
1038.447116382297
 20
1208.152743867069
 30
0.0
 11
1049.447116382297
 21
1219.152743867068
 31
0.0
  0
LINE
  5
19D3
330
19C4
100
AcDbEntity
  8
0
  6
CONTINUOUS
 62
     0
100
AcDbLine
 10
1034.952658878396
 20
1204.658286363168
 30
0.0
 11
1038.447116382297
 21
1208.152743867069
 31
0.0
  0
LINE
  5
19D4
330
19C4
100
AcDbEntity
  8
0
  6
CONTINUOUS
 62
     0
100
AcDbLine
 10
1034.952658878396
 20
1211.729354175033
 30
0.0
 11
1042.376048570431
 21
1219.152743867069
 31
0.0
  0
LINE
  5
19D5
330
19C4
100
AcDbEntity
  8
0
  6
CONTINUOUS
 62
     0
100
AcDbLine
 10
1034.952658878396
 20
1218.800421986898
 30
0.0
 11
1035.304980758567
 21
1219.152743867069
 31
0.0
  0
ENDBLK
  5
19D7
330
19C4
100
AcDbEntity
  8
0
100
AcDbBlockEnd
  0
ENDSEC
  0
SECTION
  2
ENTITIES
  0
LINE
  5
502
330
A
100
AcDbEntity
  8
02
100
AcDbLine
 10
362.0526588783972
 20
413.1527438670693
 30
0.0
 11
536.8526588783971
 21
413.1527438670693
 31
0.0
  0
LINE
  5
503
330
A
100
AcDbEntity
  8
02
100
AcDbLine
 10
362.0526588783972
 20
418.1527438670695
 30
0.0
 11
536.8526588783971
 21
418.1527438670695
 31
0.0
  0
LINE
  5
504
330
A
100
AcDbEntity
  8
03
100
AcDbLine
 10
471.5526588783972
 20
413.1527438670693
 30
0.0
 11
471.5526588783975
 21
390.1527438670703
 31
0.0
  0
LINE
  5
505
330
A
100
AcDbEntity
  8
03
100
AcDbLine
 10
354.0526588783972
 20
390.1527438670703
 30
0.0
 11
550.8526588783971
 21
390.1527438670703
 31
0.0
  0
LINE
  5
506
330
A
100
AcDbEntity
  8
03
100
AcDbLine
 10
433.3526588783966
 20
413.1527438670693
 30
0.0
 11
433.3526588783968
 21
390.1527438670703
 31
0.0
  0
LINE
  5
507
330
A
100
AcDbEntity
  8
02
100
AcDbLine
 10
362.0526588783974
 20
1183.152743867068
 30
0.0
 11
536.8526588783975
 21
1183.152743867068
 31
0.0
  0
LINE
  5
508
330
A
100
AcDbEntity
  8
02
100
AcDbLine
 10
362.0526588783974
 20
1177.152743867069
 30
0.0
 11
536.8526588783975
 21
1177.152743867069
 31
0.0
  0
LINE
  5
509
330
A
100
AcDbEntity
  8
02
100
AcDbLine
 10
362.0526588783972
 20
463.1527438670693
 30
0.0
 11
402.4526588783971
 21
463.1527438670693
 31
0.0
  0
LINE
  5
50A
330
A
100
AcDbEntity
  8
02
100
AcDbLine
 10
502.4526588783971
 20
463.1527438670693
 30
0.0
 11
536.8526588783971
 21
463.1527438670693
 31
0.0
  0
LINE
  5
50B
330
A
100
AcDbEntity
  8
02
100
AcDbLine
 10
362.0526588784088
 20
493.1527438670708
 30
0.0
 11
402.4526588784087
 21
493.1527438670708
 31
0.0
  0
LINE
  5
50C
330
A
100
AcDbEntity
  8
02
100
AcDbLine
 10
502.4526588784087
 20
493.1527438670708
 30
0.0
 11
536.8526588784089
 21
493.1527438670708
 31
0.0
  0
ARC
  5
50D
330
A
100
AcDbEntity
  8
03
100
AcDbCircle
 10
354.0526588783972
 20
388.5527438670703
 30
0.0
 40
1.6
100
AcDbArc
 50
90.0
 51
179.9999999999998
  0
ARC
  5
50E
330
A
100
AcDbEntity
  8
03
100
AcDbCircle
 10
354.0526588783975
 20
1991.75274386707
 30
0.0
 40
1.6
100
AcDbArc
 50
179.9999999999998
 51
269.9999999999996
  0
LINE
  5
50F
330
A
100
AcDbEntity
  8
03
100
AcDbLine
 10
355.4526588783978
 20
1990.15274386707
 30
0.0
 11
355.4526588783973
 21
1588.545639278412
 31
0.0
  0
LINE
  5
510
330
A
100
AcDbEntity
  8
03
100
AcDbLine
 10
357.0526588783976
 20
1990.15274386707
 30
0.0
 11
357.0526588783974
 21
1588.545639278412
 31
0.0
  0
LINE
  5
511
330
A
100
AcDbEntity
  8
03
100
AcDbLine
 10
362.0526588783976
 20
1990.15274386707
 30
0.0
 11
362.0526588783974
 21
1588.545639278412
 31
0.0
  0
LINE
  5
512
330
A
100
AcDbEntity
  8
03
100
AcDbLine
 10
536.8526588783975
 20
1990.15274386707
 30
0.0
 11
536.8526588783975
 21
1588.545639278412
 31
0.0
  0
LINE
  5
513
330
A
100
AcDbEntity
  8
03
100
AcDbLine
 10
541.8526588783975
 20
1990.15274386707
 30
0.0
 11
541.8526588783975
 21
1588.545639278412
 31
0.0
  0
LINE
  5
514
330
A
100
AcDbEntity
  8
03
100
AcDbLine
 10
547.8526588783978
 20
1588.545639278412
 30
0.0
 11
547.8526588783978
 21
1990.15274386707
 31
0.0
  0
LINE
  5
515
330
A
100
AcDbEntity
  8
03
100
AcDbLine
 10
549.4526588783978
 20
1990.15274386707
 30
0.0
 11
549.4526588783974
 21
1588.545639278412
 31
0.0
  0
LINE
  5
516
330
A
100
AcDbEntity
  8
03
100
AcDbLine
 10
362.0526588783974
 20
1576.545639278412
 30
0.0
 11
362.0526588783972
 21
390.1527438670698
 31
0.0
  0
LINE
  5
517
330
A
100
AcDbEntity
  8
03
100
AcDbLine
 10
357.0526588783974
 20
1576.545639278412
 30
0.0
 11
357.0526588783972
 21
390.1527438670698
 31
0.0
  0
LINE
  5
518
330
A
100
AcDbEntity
  8
03
100
AcDbLine
 10
355.4526588783975
 20
1576.545639278412
 30
0.0
 11
355.4526588783975
 21
390.1527438670698
 31
0.0
  0
LINE
  5
519
330
A
100
AcDbEntity
  8
03
100
AcDbLine
 10
536.8526588783975
 20
1576.545639278412
 30
0.0
 11
536.8526588783971
 21
390.1527438670703
 31
0.0
  0
LINE
  5
51A
330
A
100
AcDbEntity
  8
03
100
AcDbLine
 10
541.8526588783975
 20
1576.545639278412
 30
0.0
 11
541.8526588783969
 21
390.1527438670703
 31
0.0
  0
LINE
  5
51B
330
A
100
AcDbEntity
  8
03
100
AcDbLine
 10
547.8526588783976
 20
390.1527438670703
 30
0.0
 11
547.8526588783978
 21
1576.545639278412
 31
0.0
  0
LINE
  5
51C
330
A
100
AcDbEntity
  8
03
100
AcDbLine
 10
549.4526588783978
 20
1576.545639278412
 30
0.0
 11
549.4526588783976
 21
390.1527438670698
 31
0.0
  0
LINE
  5
51D
330
A
100
AcDbEntity
  8
02
100
AcDbLine
 10
362.0526588784091
 20
538.1527438670708
 30
0.0
 11
536.8526588784089
 21
538.1527438670708
 31
0.0
  0
LINE
  5
51E
330
A
100
AcDbEntity
  8
02
100
AcDbLine
 10
362.0526588784091
 20
543.1527438670708
 30
0.0
 11
536.8526588784089
 21
543.1527438670708
 31
0.0
  0
LINE
  5
51F
330
A
100
AcDbEntity
  8
03
100
AcDbLine
 10
433.352658878397
 20
1576.545639278412
 30
0.0
 11
433.3526588783966
 21
1339.445859181093
 31
0.0
  0
LINE
  5
520
330
A
100
AcDbEntity
  8
03
100
AcDbLine
 10
471.552658878398
 20
1576.545639278412
 30
0.0
 11
471.5526588783972
 21
1339.445859181093
 31
0.0
  0
LINE
  5
521
330
A
100
AcDbEntity
  8
02
100
AcDbLine
 10
362.0526588783974
 20
1138.152743867068
 30
0.0
 11
377.452658878398
 21
1138.152743867068
 31
0.0
  0
LINE
  5
522
330
A
100
AcDbEntity
  8
02
100
AcDbLine
 10
527.4526588783983
 20
1138.152743867068
 30
0.0
 11
536.8526588783975
 21
1138.152743867068
 31
0.0
  0
LINE
  5
523
330
A
100
AcDbEntity
  8
02
100
AcDbLine
 10
362.0526588783963
 20
798.1527438670707
 30
0.0
 11
377.452658878398
 21
798.1527438670707
 31
0.0
  0
LINE
  5
524
330
A
100
AcDbEntity
  8
02
100
AcDbLine
 10
527.4526588783981
 20
798.1527438670707
 30
0.0
 11
536.8526588783961
 21
798.1527438670707
 31
0.0
  0
LINE
  5
52A
330
A
100
AcDbEntity
  8
02
100
AcDbLine
 10
362.0526588783972
 20
754.1527438670707
 30
0.0
 11
408.0121522702618
 21
754.1527438670707
 31
0.0
  0
LINE
  5
52B
330
A
100
AcDbEntity
  8
02
100
AcDbLine
 10
362.0526588783972
 20
748.1527438670707
 30
0.0
 11
408.0121522702618
 21
748.1527438670707
 31
0.0
  0
LINE
  5
52C
330
A
100
AcDbEntity
  8
02
100
AcDbLine
 10
422.5585853499699
 20
754.1527438670707
 30
0.0
 11
481.8110155088829
 21
754.1527438670707
 31
0.0
  0
LINE
  5
52D
330
A
100
AcDbEntity
  8
02
100
AcDbLine
 10
497.217559935972
 20
754.1527438670707
 30
0.0
 11
536.8526588783961
 21
754.1527438670707
 31
0.0
  0
LINE
  5
52E
330
A
100
AcDbEntity
  8
02
100
AcDbLine
 10
422.5585853499699
 20
748.1527438670707
 30
0.0
 11
481.8110155088829
 21
748.1527438670707
 31
0.0
  0
LINE
  5
52F
330
A
100
AcDbEntity
  8
02
100
AcDbLine
 10
497.217559935972
 20
748.1527438670707
 30
0.0
 11
536.8526588783961
 21
748.1527438670707
 31
0.0
  0
LINE
  5
530
330
A
100
AcDbEntity
  8
02
100
AcDbLine
 10
962.0526588783972
 20
413.152743867069
 30
0.0
 11
1136.852658878397
 21
413.152743867069
 31
0.0
  0
LINE
  5
531
330
A
100
AcDbEntity
  8
02
100
AcDbLine
 10
962.0526588783972
 20
418.1527438670689
 30
0.0
 11
1136.852658878397
 21
418.1527438670689
 31
0.0
  0
LINE
  5
532
330
A
100
AcDbEntity
  8
03
100
AcDbLine
 10
1071.552658878397
 20
413.152743867069
 30
0.0
 11
1071.552658878397
 21
390.1527438670703
 31
0.0
  0
LINE
  5
533
330
A
100
AcDbEntity
  8
03
100
AcDbLine
 10
1071.552658878397
 20
1588.545639278412
 30
0.0
 11
1071.552658878397
 21
1990.15274386707
 31
0.0
  0
LINE
  5
534
330
A
100
AcDbEntity
  8
03
100
AcDbLine
 10
954.0526588783974
 20
390.1527438670703
 30
0.0
 11
1150.852658878397
 21
390.1527438670703
 31
0.0
  0
LINE
  5
535
330
A
100
AcDbEntity
  8
03
100
AcDbLine
 10
1033.352658878398
 20
1588.545639278412
 30
0.0
 11
1033.352658878398
 21
1990.15274386707
 31
0.0
  0
LINE
  5
536
330
A
100
AcDbEntity
  8
03
100
AcDbLine
 10
1033.352658878395
 20
413.152743867069
 30
0.0
 11
1033.352658878395
 21
390.1527438670703
 31
0.0
  0
LINE
  5
537
330
A
100
AcDbEntity
  8
02
100
AcDbLine
 10
962.0526588783976
 20
1183.152743867068
 30
0.0
 11
1136.852658878397
 21
1183.152743867068
 31
0.0
  0
LINE
  5
538
330
A
100
AcDbEntity
  8
02
100
AcDbLine
 10
962.0526588783976
 20
1177.152743867069
 30
0.0
 11
1136.852658878397
 21
1177.152743867069
 31
0.0
  0
LINE
  5
539
330
A
100
AcDbEntity
  8
02
100
AcDbLine
 10
962.0526588783972
 20
463.152743867069
 30
0.0
 11
1136.852658878396
 21
463.152743867069
 31
0.0
  0
LINE
  5
53A
330
A
100
AcDbEntity
  8
02
100
AcDbLine
 10
962.0526588783972
 20
493.152743867069
 30
0.0
 11
1136.852658878396
 21
493.152743867069
 31
0.0
  0
ARC
  5
53B
330
A
100
AcDbEntity
  8
03
100
AcDbCircle
 10
954.052658878397
 20
388.5527438670703
 30
0.0
 40
1.6
100
AcDbArc
 50
90.0
 51
179.9999999999998
  0
ARC
  5
53C
330
A
100
AcDbEntity
  8
03
100
AcDbCircle
 10
954.0526588783974
 20
1991.75274386707
 30
0.0
 40
1.6
100
AcDbArc
 50
179.9999999999998
 51
269.9999999999996
  0
LINE
  5
53D
330
A
100
AcDbEntity
  8
03
100
AcDbLine
 10
955.4526588783977
 20
1990.15274386707
 30
0.0
 11
955.4526588783971
 21
1588.545639278412
 31
0.0
  0
LINE
  5
53E
330
A
100
AcDbEntity
  8
03
100
AcDbLine
 10
957.0526588783977
 20
1990.15274386707
 30
0.0
 11
957.0526588783977
 21
1588.545639278412
 31
0.0
  0
LINE
  5
53F
330
A
100
AcDbEntity
  8
03
100
AcDbLine
 10
962.0526588783976
 20
1990.15274386707
 30
0.0
 11
962.0526588783976
 21
1588.545639278412
 31
0.0
  0
LINE
  5
540
330
A
100
AcDbEntity
  8
03
100
AcDbLine
 10
1136.852658878397
 20
1990.15274386707
 30
0.0
 11
1136.852658878397
 21
1588.545639278412
 31
0.0
  0
LINE
  5
541
330
A
100
AcDbEntity
  8
03
100
AcDbLine
 10
1141.852658878397
 20
1990.15274386707
 30
0.0
 11
1141.852658878397
 21
1588.545639278412
 31
0.0
  0
LINE
  5
542
330
A
100
AcDbEntity
  8
03
100
AcDbLine
 10
1147.852658878398
 20
1588.545639278412
 30
0.0
 11
1147.852658878398
 21
1990.15274386707
 31
0.0
  0
LINE
  5
543
330
A
100
AcDbEntity
  8
03
100
AcDbLine
 10
1149.452658878397
 20
1990.15274386707
 30
0.0
 11
1149.452658878397
 21
1588.545639278412
 31
0.0
  0
LINE
  5
544
330
A
100
AcDbEntity
  8
03
100
AcDbLine
 10
962.0526588783976
 20
1576.545639278412
 30
0.0
 11
962.0526588783972
 21
390.1527438670698
 31
0.0
  0
LINE
  5
545
330
A
100
AcDbEntity
  8
03
100
AcDbLine
 10
957.0526588783977
 20
1576.545639278412
 30
0.0
 11
957.0526588783971
 21
390.1527438670698
 31
0.0
  0
LINE
  5
546
330
A
100
AcDbEntity
  8
03
100
AcDbLine
 10
955.4526588783977
 20
1576.545639278412
 30
0.0
 11
955.4526588783971
 21
390.1527438670698
 31
0.0
  0
LINE
  5
547
330
A
100
AcDbEntity
  8
03
100
AcDbLine
 10
1136.852658878397
 20
1576.545639278412
 30
0.0
 11
1136.852658878397
 21
390.1527438670703
 31
0.0
  0
LINE
  5
548
330
A
100
AcDbEntity
  8
03
100
AcDbLine
 10
1141.852658878397
 20
1576.545639278412
 30
0.0
 11
1141.852658878397
 21
390.1527438670703
 31
0.0
  0
LINE
  5
549
330
A
100
AcDbEntity
  8
03
100
AcDbLine
 10
1147.852658878397
 20
390.1527438670703
 30
0.0
 11
1147.852658878398
 21
1576.545639278412
 31
0.0
  0
LINE
  5
54A
330
A
100
AcDbEntity
  8
03
100
AcDbLine
 10
1149.452658878397
 20
1576.545639278412
 30
0.0
 11
1149.452658878397
 21
390.1527438670698
 31
0.0
  0
LINE
  5
54B
330
A
100
AcDbEntity
  8
02
100
AcDbLine
 10
962.0526588783972
 20
538.152743867069
 30
0.0
 11
1136.852658878396
 21
538.152743867069
 31
0.0
  0
LINE
  5
54C
330
A
100
AcDbEntity
  8
02
100
AcDbLine
 10
962.0526588783972
 20
543.152743867069
 30
0.0
 11
1136.852658878396
 21
543.152743867069
 31
0.0
  0
LINE
  5
54D
330
A
100
AcDbEntity
  8
02
100
AcDbLine
 10
962.0526588783976
 20
1138.152743867068
 30
0.0
 11
1136.852658878397
 21
1138.152743867068
 31
0.0
  0
LINE
  5
54E
330
A
100
AcDbEntity
  8
02
100
AcDbLine
 10
962.0526588783963
 20
798.1527438670707
 30
0.0
 11
1136.852658878397
 21
798.1527438670707
 31
0.0
  0
LINE
  5
54F
330
A
100
AcDbEntity
  8
02
100
AcDbLine
 10
962.0526588783972
 20
754.1527438670707
 30
0.0
 11
1136.852658878397
 21
754.1527438670707
 31
0.0
  0
LINE
  5
550
330
A
100
AcDbEntity
  8
02
100
AcDbLine
 10
962.0526588783972
 20
748.1527438670707
 30
0.0
 11
1136.852658878397
 21
748.1527438670707
 31
0.0
  0
LINE
  5
551
330
A
100
AcDbEntity
  8
03
100
AcDbLine
 10
1033.352658878395
 20
493.152743867069
 30
0.0
 11
1033.352658878397
 21
463.152743867069
 31
0.0
  0
LINE
  5
552
330
A
100
AcDbEntity
  8
03
100
AcDbLine
 10
1071.552658878397
 20
493.152743867069
 30
0.0
 11
1071.552658878397
 21
463.1527438670698
 31
0.0
  0
LINE
  5
553
330
A
100
AcDbEntity
  8
02
100
AcDbLine
 10
962.0526588783976
 20
938.1527438670692
 30
0.0
 11
1136.852658878397
 21
938.1527438670692
 31
0.0
  0
LINE
  5
554
330
A
100
AcDbEntity
  8
02
100
AcDbLine
 10
962.0526588783976
 20
988.1527438670692
 30
0.0
 11
1136.852658878397
 21
988.1527438670692
 31
0.0
  0
CIRCLE
  5
555
330
A
100
AcDbEntity
  8
03
100
AcDbCircle
 10
1052.452658878396
 20
478.1527438670694
 30
0.0
 40
15.0
  0
LINE
  5
556
330
A
100
AcDbEntity
  8
03
100
AcDbLine
 10
1033.352658878395
 20
1138.152743867068
 30
0.0
 11
1033.352658878395
 21
988.1527438670692
 31
0.0
  0
LINE
  5
557
330
A
100
AcDbEntity
  8
03
100
AcDbLine
 10
1033.352658878395
 20
938.1527438670692
 30
0.0
 11
1033.352658878395
 21
798.1527438670707
 31
0.0
  0
LINE
  5
558
330
A
100
AcDbEntity
  8
03
100
AcDbLine
 10
1071.552658878397
 20
1138.152743867068
 30
0.0
 11
1071.552658878397
 21
988.1527438670692
 31
0.0
  0
LINE
  5
559
330
A
100
AcDbEntity
  8
03
100
AcDbLine
 10
1071.552658878397
 20
938.1527438670692
 30
0.0
 11
1071.552658878397
 21
798.1527438670707
 31
0.0
  0
LINE
  5
55A
330
A
100
AcDbEntity
  8
03
100
AcDbLine
 10
1033.352658878398
 20
748.1527438670711
 30
0.0
 11
1033.352658878395
 21
543.1527438670695
 31
0.0
  0
LINE
  5
55B
330
A
100
AcDbEntity
  8
03
100
AcDbLine
 10
1071.552658878395
 20
748.1527438670707
 30
0.0
 11
1071.552658878397
 21
543.152743867069
 31
0.0
  0
LINE
  5
55C
330
A
100
AcDbEntity
  8
02
100
AcDbLine
 10
536.8526588783971
 20
938.1527438670694
 30
0.0
 11
527.4526588783983
 21
938.1527438670694
 31
0.0
  0
LINE
  5
55D
330
A
100
AcDbEntity
  8
02
100
AcDbLine
 10
377.452658878398
 20
938.1527438670694
 30
0.0
 11
362.0526588783974
 21
938.1527438670694
 31
0.0
  0
LINE
  5
55E
330
A
100
AcDbEntity
  8
02
100
AcDbLine
 10
536.8526588783971
 20
988.1527438670694
 30
0.0
 11
527.4526588783983
 21
988.1527438670694
 31
0.0
  0
LINE
  5
55F
330
A
100
AcDbEntity
  8
02
100
AcDbLine
 10
377.4526588783978
 20
988.1527438670694
 30
0.0
 11
362.0526588783972
 21
988.1527438670694
 31
0.0
  0
LINE
  5
560
330
A
100
AcDbEntity
  8
03
100
AcDbLine
 10
1033.352658878397
 20
1576.545639278412
 30
0.0
 11
1033.352658878395
 21
1359.510370249362
 31
0.0
  0
LINE
  5
561
330
A
100
AcDbEntity
  8
03
100
AcDbLine
 10
1033.352658878395
 20
1331.539057055894
 30
0.0
 11
1033.352658878395
 21
1183.152743867068
 31
0.0
  0
LINE
  5
562
330
A
100
AcDbEntity
  8
03
100
AcDbLine
 10
1071.552658878398
 20
1576.545639278412
 30
0.0
 11
1071.552658878397
 21
1359.510370249362
 31
0.0
  0
LINE
  5
563
330
A
100
AcDbEntity
  8
03
100
AcDbLine
 10
1071.552658878397
 20
1331.539057055894
 30
0.0
 11
1071.552658878397
 21
1183.152743867068
 31
0.0
  0
LINE
  5
564
330
A
100
AcDbEntity
  8
03
100
AcDbLine
 10
1034.952658878396
 20
712.1527438670709
 30
0.0
 11
1034.952658878396
 21
734.1527438670707
 31
0.0
  0
LINE
  5
565
330
A
100
AcDbEntity
  8
03
100
AcDbLine
 10
1069.952658878394
 20
712.1527438670709
 30
0.0
 11
1069.952658878394
 21
734.1527438670707
 31
0.0
  0
LINE
  5
566
330
A
100
AcDbEntity
  8
03
100
AcDbLine
 10
1069.952658878394
 20
712.1527438670709
 30
0.0
 11
1034.952658878396
 21
712.1527438670709
 31
0.0
1001
ACAD
1000
ASC_BOUNDS
1002
{
1070
    19
1005
191D
1005
191D
1002
}
  0
LINE
  5
567
330
A
100
AcDbEntity
  8
03
100
AcDbLine
 10
1069.952658878394
 20
734.1527438670707
 30
0.0
 11
1034.952658878396
 21
734.1527438670707
 31
0.0
1001
ACAD
1000
ASC_BOUNDS
1002
{
1070
    19
1005
191D
1005
191D
1002
}
  0
LINE
  5
568
330
A
100
AcDbEntity
  8
03
100
AcDbLine
 10
433.3526588783978
 20
748.1527438670707
 30
0.0
 11
433.3526588783988
 21
735.6527438670707
 31
0.0
  0
LINE
  5
569
330
A
100
AcDbEntity
  8
03
100
AcDbLine
 10
433.3526588784001
 20
708.4583043630917
 30
0.0
 11
433.3526588784086
 21
543.1527438670713
 31
0.0
  0
LINE
  5
56A
330
A
100
AcDbEntity
  8
03
100
AcDbLine
 10
471.5526588783966
 20
748.1527438670707
 30
0.0
 11
471.5526588783972
 21
735.6527438670707
 31
0.0
  0
LINE
  5
56B
330
A
100
AcDbEntity
  8
03
100
AcDbLine
 10
471.5526588783989
 20
710.6527438670728
 30
0.0
 11
471.5526588784094
 21
543.1527438670708
 31
0.0
  0
LINE
  5
56C
330
A
100
AcDbEntity
  8
03
100
AcDbLine
 10
433.3526588783977
 20
1588.545639278412
 30
0.0
 11
433.3526588783978
 21
1947.65274386707
 31
0.0
  0
LINE
  5
56D
330
A
100
AcDbEntity
  8
03
100
AcDbLine
 10
433.3526588783978
 20
1972.65274386707
 30
0.0
 11
433.3526588783978
 21
1990.15274386707
 31
0.0
  0
LINE
  5
56E
330
A
100
AcDbEntity
  8
03
100
AcDbLine
 10
471.5526588783975
 20
1588.545639278412
 30
0.0
 11
471.5526588783976
 21
1947.65274386707
 31
0.0
  0
LINE
  5
56F
330
A
100
AcDbEntity
  8
03
100
AcDbLine
 10
471.5526588783976
 20
1972.65274386707
 30
0.0
 11
471.5526588783976
 21
1990.15274386707
 31
0.0
  0
LINE
  5
570
330
A
100
AcDbEntity
  8
03
100
AcDbLine
 10
1034.952658878397
 20
1949.15274386707
 30
0.0
 11
1034.952658878397
 21
1971.15274386707
 31
0.0
  0
LINE
  5
571
330
A
100
AcDbEntity
  8
03
100
AcDbLine
 10
1069.952658878396
 20
1949.15274386707
 30
0.0
 11
1069.952658878396
 21
1971.15274386707
 31
0.0
  0
LINE
  5
572
330
A
100
AcDbEntity
  8
03
100
AcDbLine
 10
1069.952658878396
 20
1949.15274386707
 30
0.0
 11
1034.952658878397
 21
1949.15274386707
 31
0.0
1001
ACAD
1000
ASC_BOUNDS
1002
{
1070
    19
1005
1930
1005
1930
1002
}
  0
LINE
  5
573
330
A
100
AcDbEntity
  8
03
100
AcDbLine
 10
1069.952658878396
 20
1971.15274386707
 30
0.0
 11
1034.952658878397
 21
1971.15274386707
 31
0.0
1001
ACAD
1000
ASC_BOUNDS
1002
{
1070
    19
1005
1930
1005
1930
1002
}
  0
LINE
  5
574
330
A
100
AcDbEntity
  8
03
100
AcDbLine
 10
471.5526588783971
 20
1249.205349403288
 30
0.0
 11
471.5526588783971
 21
1220.652743867069
 31
0.0
  0
LINE
  5
575
330
A
100
AcDbEntity
  8
03
100
AcDbLine
 10
471.5526588783967
 20
1194.658494992545
 30
0.0
 11
471.5526588783967
 21
1183.152743867068
 31
0.0
  0
LINE
  5
576
330
A
100
AcDbEntity
  8
03
100
AcDbLine
 10
433.3526588783962
 20
1249.205349403289
 30
0.0
 11
433.3526588783961
 21
1220.652743867069
 31
0.0
  0
LINE
  5
577
330
A
100
AcDbEntity
  8
03
100
AcDbLine
 10
433.3526588783961
 20
1194.658494992545
 30
0.0
 11
433.3526588783961
 21
1183.152743867069
 31
0.0
  0
LINE
  5
578
330
A
100
AcDbEntity
  8
03
100
AcDbLine
 10
1034.952658878396
 20
1197.152743867069
 30
0.0
 11
1034.952658878396
 21
1219.152743867069
 31
0.0
  0
LINE
  5
579
330
A
100
AcDbEntity
  8
03
100
AcDbLine
 10
1069.952658878396
 20
1197.152743867069
 30
0.0
 11
1069.952658878396
 21
1219.152743867069
 31
0.0
  0
LINE
  5
57A
330
A
100
AcDbEntity
  8
03
100
AcDbLine
 10
1069.952658878396
 20
1197.152743867069
 30
0.0
 11
1034.952658878396
 21
1197.152743867069
 31
0.0
1001
ACAD
1000
ASC_BOUNDS
1002
{
1070
    19
1005
1957
1005
1957
1002
}
  0
LINE
  5
57B
330
A
100
AcDbEntity
  8
03
100
AcDbLine
 10
1069.952658878396
 20
1219.152743867069
 30
0.0
 11
1034.952658878396
 21
1219.152743867069
 31
0.0
1001
ACAD
1000
ASC_BOUNDS
1002
{
1070
    19
1005
1957
1005
1957
1002
}
  0
LINE
  5
57C
330
A
100
AcDbEntity
  8
03
100
AcDbLine
 10
1003.352658878397
 20
543.152743867069
 30
0.0
 11
1003.352658878397
 21
748.1527438670707
 31
0.0
  0
LINE
  5
57D
330
A
100
AcDbEntity
  8
03
100
AcDbLine
 10
1003.352658878397
 20
493.152743867069
 30
0.0
 11
1003.352658878397
 21
463.152743867069
 31
0.0
  0
LINE
  5
57E
330
A
100
AcDbEntity
  8
03
100
AcDbLine
 10
1003.352658878397
 20
413.152743867069
 30
0.0
 11
1003.352658878397
 21
390.1527438670703
 31
0.0
  0
LINE
  5
57F
330
A
100
AcDbEntity
  8
03
100
AcDbLine
 10
1003.352658878397
 20
798.1527438670707
 30
0.0
 11
1003.352658878397
 21
938.1527438670692
 31
0.0
  0
LINE
  5
580
330
A
100
AcDbEntity
  8
03
100
AcDbLine
 10
1003.352658878397
 20
988.1527438670692
 30
0.0
 11
1003.352658878397
 21
1138.152743867068
 31
0.0
  0
LINE
  5
581
330
A
100
AcDbEntity
  8
03
100
AcDbLine
 10
1003.352658878397
 20
1183.152743867068
 30
0.0
 11
1003.352658878397
 21
1576.545639278412
 31
0.0
  0
LINE
  5
582
330
A
100
AcDbEntity
  8
03
100
AcDbLine
 10
1003.352658878397
 20
1588.545639278412
 30
0.0
 11
1003.352658878397
 21
1990.15274386707
 31
0.0
  0
LINE
  5
583
330
A
100
AcDbEntity
  8
03
100
AcDbLine
 10
1101.552658878397
 20
390.1527438670703
 30
0.0
 11
1101.552658878397
 21
413.152743867069
 31
0.0
  0
LINE
  5
584
330
A
100
AcDbEntity
  8
03
100
AcDbLine
 10
1101.552658878397
 20
463.152743867069
 30
0.0
 11
1101.552658878397
 21
493.152743867069
 31
0.0
  0
LINE
  5
585
330
A
100
AcDbEntity
  8
03
100
AcDbLine
 10
1101.552658878397
 20
543.152743867069
 30
0.0
 11
1101.552658878397
 21
748.1527438670707
 31
0.0
  0
LINE
  5
586
330
A
100
AcDbEntity
  8
03
100
AcDbLine
 10
1101.552658878397
 20
798.1527438670707
 30
0.0
 11
1101.552658878397
 21
938.1527438670692
 31
0.0
  0
LINE
  5
587
330
A
100
AcDbEntity
  8
03
100
AcDbLine
 10
1101.552658878397
 20
988.1527438670692
 30
0.0
 11
1101.552658878397
 21
1138.152743867068
 31
0.0
  0
LINE
  5
588
330
A
100
AcDbEntity
  8
03
100
AcDbLine
 10
1102.620984010381
 20
1183.152743867068
 30
0.0
 11
1102.620984010381
 21
1576.545639278412
 31
0.0
  0
LINE
  5
589
330
A
100
AcDbEntity
  8
03
100
AcDbLine
 10
1102.620984010381
 20
1588.545639278412
 30
0.0
 11
1102.620984010381
 21
1990.15274386707
 31
0.0
  0
LINE
  5
58A
330
A
100
AcDbEntity
  8
03
100
AcDbLine
 10
403.3526588783975
 20
1588.545639278412
 30
0.0
 11
403.3526588783976
 21
1990.15274386707
 31
0.0
  0
LINE
  5
58B
330
A
100
AcDbEntity
  8
03
100
AcDbLine
 10
502.6209840103814
 20
1588.545639278412
 30
0.0
 11
502.6209840103818
 21
1990.15274386707
 31
0.0
  0
LINE
  5
58C
330
A
100
AcDbEntity
  8
03
100
AcDbLine
 10
403.3526588783975
 20
1576.545639278412
 30
0.0
 11
403.3526588783975
 21
1183.152743867068
 31
0.0
  0
LINE
  5
58D
330
A
100
AcDbEntity
  8
03
100
AcDbLine
 10
502.6209840103814
 20
1576.545639278412
 30
0.0
 11
502.6209840103814
 21
1183.152743867068
 31
0.0
  0
LINE
  5
58E
330
A
100
AcDbEntity
  8
03
100
AcDbLine
 10
403.3526588783975
 20
748.1527438670707
 30
0.0
 11
403.3526588783975
 21
543.1527438670708
 31
0.0
  0
LINE
  5
58F
330
A
100
AcDbEntity
  8
03
100
AcDbLine
 10
502.1209840103814
 20
748.1527438670707
 30
0.0
 11
502.1209840103814
 21
543.1527438670708
 31
0.0
  0
LINE
  5
598
330
A
100
AcDbEntity
  8
KAKURE
100
AcDbLine
 10
434.9526588783966
 20
413.1527438670693
 30
0.0
 11
434.9526588783966
 21
390.1527438670703
 31
0.0
  0
LINE
  5
599
330
A
100
AcDbEntity
  8
KAKURE
100
AcDbLine
 10
469.9526588783974
 20
413.1527438670693
 30
0.0
 11
469.9526588783975
 21
390.1527438670703
 31
0.0
  0
LINE
  5
59A
330
A
100
AcDbEntity
  8
KAKURE
100
AcDbLine
 10
434.9526588783973
 20
1576.545639278412
 30
0.0
 11
434.9526588783966
 21
1339.445859181093
 31
0.0
  0
LINE
  5
59B
330
A
100
AcDbEntity
  8
KAKURE
100
AcDbLine
 10
469.9526588783975
 20
1576.545639278412
 30
0.0
 11
469.9526588783968
 21
1339.445859181093
 31
0.0
  0
LINE
  5
59C
330
A
100
AcDbEntity
  8
KAKURE
100
AcDbLine
 10
511.4526588783983
 20
1000.152743867068
 30
0.0
 11
393.4526588783982
 21
1000.152743867068
 31
0.0
  0
LINE
  5
59D
330
A
100
AcDbEntity
  8
KAKURE
100
AcDbLine
 10
1034.952658878396
 20
413.152743867069
 30
0.0
 11
1034.952658878396
 21
390.1527438670703
 31
0.0
  0
LINE
  5
59E
330
A
100
AcDbEntity
  8
KAKURE
100
AcDbLine
 10
1069.952658878396
 20
413.152743867069
 30
0.0
 11
1069.952658878396
 21
390.1527438670703
 31
0.0
  0
LINE
  5
59F
330
A
100
AcDbEntity
  8
KAKURE
100
AcDbLine
 10
1034.952658878397
 20
1990.15274386707
 30
0.0
 11
1034.952658878397
 21
1588.545639278412
 31
0.0
1001
ACAD
1000
ASC_BOUNDS
1002
{
1070
    19
1005
1930
1005
1930
1002
}
  0
LINE
  5
5A0
330
A
100
AcDbEntity
  8
KAKURE
100
AcDbLine
 10
1069.952658878396
 20
1990.15274386707
 30
0.0
 11
1069.952658878396
 21
1588.545639278412
 31
0.0
1001
ACAD
1000
ASC_BOUNDS
1002
{
1070
    19
1005
1930
1005
1930
1002
}
  0
LINE
  5
5A1
330
A
100
AcDbEntity
  8
KAKURE
100
AcDbLine
 10
1069.952658878397
 20
493.152743867069
 30
0.0
 11
1069.952658878399
 21
463.1527438670698
 31
0.0
  0
LINE
  5
5A2
330
A
100
AcDbEntity
  8
KAKURE
100
AcDbLine
 10
1034.952658878397
 20
493.152743867069
 30
0.0
 11
1034.952658878397
 21
463.1527438670693
 31
0.0
  0
LINE
  5
5A3
330
A
100
AcDbEntity
  8
KAKURE
100
AcDbLine
 10
1034.952658878394
 20
798.1527438670707
 30
0.0
 11
1034.952658878394
 21
938.1527438670692
 31
0.0
  0
LINE
  5
5A4
330
A
100
AcDbEntity
  8
KAKURE
100
AcDbLine
 10
1034.952658878394
 20
988.1527438670692
 30
0.0
 11
1034.952658878394
 21
1138.152743867068
 31
0.0
  0
LINE
  5
5A5
330
A
100
AcDbEntity
  8
KAKURE
100
AcDbLine
 10
1069.952658878394
 20
798.1527438670707
 30
0.0
 11
1069.952658878394
 21
938.1527438670692
 31
0.0
  0
LINE
  5
5A6
330
A
100
AcDbEntity
  8
KAKURE
100
AcDbLine
 10
1069.952658878394
 20
988.1527438670692
 30
0.0
 11
1069.952658878394
 21
1138.152743867068
 31
0.0
  0
LINE
  5
5A7
330
A
100
AcDbEntity
  8
KAKURE
100
AcDbLine
 10
1034.952658878394
 20
748.1527438670707
 30
0.0
 11
1034.952658878396
 21
543.1527438670695
 31
0.0
1001
ACAD
1000
ASC_BOUNDS
1002
{
1070
    19
1005
191D
1005
191D
1002
}
  0
LINE
  5
5A8
330
A
100
AcDbEntity
  8
KAKURE
100
AcDbLine
 10
1069.952658878394
 20
748.1527438670707
 30
0.0
 11
1069.952658878396
 21
543.152743867069
 31
0.0
1001
ACAD
1000
ASC_BOUNDS
1002
{
1070
    19
1005
191D
1005
191D
1002
}
  0
LINE
  5
5A9
330
A
100
AcDbEntity
  8
KAKURE
100
AcDbLine
 10
1033.352658878395
 20
1138.152743867068
 30
0.0
 11
1033.352658878395
 21
1183.152743867068
 31
0.0
  0
LINE
  5
5AA
330
A
100
AcDbEntity
  8
KAKURE
100
AcDbLine
 10
1071.552658878397
 20
1138.152743867068
 30
0.0
 11
1071.552658878397
 21
1183.152743867068
 31
0.0
  0
LINE
  5
5AB
330
A
100
AcDbEntity
  8
KAKURE
100
AcDbLine
 10
1033.352658878395
 20
988.1527438670692
 30
0.0
 11
1033.352658878395
 21
938.1527438670692
 31
0.0
  0
LINE
  5
5AC
330
A
100
AcDbEntity
  8
KAKURE
100
AcDbLine
 10
1071.552658878397
 20
938.1527438670692
 30
0.0
 11
1071.552658878397
 21
988.1527438670692
 31
0.0
  0
LINE
  5
5AD
330
A
100
AcDbEntity
  8
KAKURE
100
AcDbLine
 10
1033.352658878395
 20
798.1527438670707
 30
0.0
 11
1033.352658878395
 21
748.1527438670707
 31
0.0
  0
LINE
  5
5AE
330
A
100
AcDbEntity
  8
KAKURE
100
AcDbLine
 10
1071.552658878395
 20
748.1527438670707
 30
0.0
 11
1071.552658878395
 21
798.1527438670707
 31
0.0
  0
LINE
  5
5AF
330
A
100
AcDbEntity
  8
KAKURE
100
AcDbLine
 10
1033.352658878395
 20
543.1527438670695
 30
0.0
 11
1033.352658878395
 21
493.152743867069
 31
0.0
  0
LINE
  5
5B0
330
A
100
AcDbEntity
  8
KAKURE
100
AcDbLine
 10
1071.552658878397
 20
493.152743867069
 30
0.0
 11
1071.552658878397
 21
543.152743867069
 31
0.0
  0
LINE
  5
5B1
330
A
100
AcDbEntity
  8
KAKURE
100
AcDbLine
 10
1033.352658878397
 20
463.152743867069
 30
0.0
 11
1033.352658878397
 21
413.152743867069
 31
0.0
  0
LINE
  5
5B2
330
A
100
AcDbEntity
  8
KAKURE
100
AcDbLine
 10
1071.552658878397
 20
413.152743867069
 30
0.0
 11
1071.552658878397
 21
463.1527438670698
 31
0.0
  0
LINE
  5
5B3
330
A
100
AcDbEntity
  8
KAKURE
100
AcDbLine
 10
1034.952658878397
 20
1576.545639278412
 30
0.0
 11
1034.952658878396
 21
1359.510370249362
 31
0.0
  0
LINE
  5
5B4
330
A
100
AcDbEntity
  8
KAKURE
100
AcDbLine
 10
1034.952658878396
 20
1331.539057055894
 30
0.0
 11
1034.952658878396
 21
1183.152743867068
 31
0.0
1001
ACAD
1000
ASC_BOUNDS
1002
{
1070
    19
1005
1957
1005
1957
1002
}
  0
LINE
  5
5B5
330
A
100
AcDbEntity
  8
KAKURE
100
AcDbLine
 10
1069.952658878396
 20
1576.545639278412
 30
0.0
 11
1069.952658878396
 21
1359.510370249362
 31
0.0
  0
LINE
  5
5B6
330
A
100
AcDbEntity
  8
KAKURE
100
AcDbLine
 10
1069.952658878396
 20
1331.539057055894
 30
0.0
 11
1069.952658878396
 21
1183.152743867068
 31
0.0
1001
ACAD
1000
ASC_BOUNDS
1002
{
1070
    19
1005
1957
1005
1957
1002
}
  0
LINE
  5
5B7
330
A
100
AcDbEntity
  8
KAKURE
100
AcDbLine
 10
434.9526588783958
 20
748.1527438670707
 30
0.0
 11
434.9526588783965
 21
735.6527438670707
 31
0.0
  0
LINE
  5
5B8
330
A
100
AcDbEntity
  8
KAKURE
100
AcDbLine
 10
434.9526588783979
 20
708.4583043630917
 30
0.0
 11
434.9526588784082
 21
543.1527438670708
 31
0.0
  0
LINE
  5
5B9
330
A
100
AcDbEntity
  8
KAKURE
100
AcDbLine
 10
469.9526588783943
 20
748.1527438670712
 30
0.0
 11
469.9526588783952
 21
735.6527438670707
 31
0.0
  0
LINE
  5
5BA
330
A
100
AcDbEntity
  8
KAKURE
100
AcDbLine
 10
469.9526588783972
 20
710.652743867073
 30
0.0
 11
469.9526588784092
 21
543.1527438670708
 31
0.0
  0
LINE
  5
5BB
330
A
100
AcDbEntity
  8
KAKURE
100
AcDbLine
 10
434.9526588783978
 20
1990.15274386707
 30
0.0
 11
434.9526588783978
 21
1972.65274386707
 31
0.0
  0
LINE
  5
5BC
330
A
100
AcDbEntity
  8
KAKURE
100
AcDbLine
 10
434.9526588783978
 20
1947.65274386707
 30
0.0
 11
434.9526588783976
 21
1588.545639278412
 31
0.0
  0
LINE
  5
5BD
330
A
100
AcDbEntity
  8
KAKURE
100
AcDbLine
 10
469.9526588783978
 20
1990.15274386707
 30
0.0
 11
469.9526588783978
 21
1972.65274386707
 31
0.0
  0
LINE
  5
5BE
330
A
100
AcDbEntity
  8
KAKURE
100
AcDbLine
 10
469.9526588783978
 20
1947.65274386707
 30
0.0
 11
469.9526588783975
 21
1588.545639278412
 31
0.0
  0
LINE
  5
5BF
330
A
100
AcDbEntity
  8
KAKURE
100
AcDbLine
 10
469.9526588783967
 20
1249.205349403288
 30
0.0
 11
469.9526588783967
 21
1220.652743867069
 31
0.0
  0
LINE
  5
5C0
330
A
100
AcDbEntity
  8
KAKURE
100
AcDbLine
 10
469.9526588783967
 20
1194.658494992545
 30
0.0
 11
469.9526588783967
 21
1183.152743867068
 31
0.0
  0
LINE
  5
5C1
330
A
100
AcDbEntity
  8
KAKURE
100
AcDbLine
 10
434.9526588783965
 20
1249.205349403289
 30
0.0
 11
434.9526588783965
 21
1220.652743867069
 31
0.0
  0
LINE
  5
5C2
330
A
100
AcDbEntity
  8
KAKURE
100
AcDbLine
 10
434.9526588783965
 20
1194.658494992545
 30
0.0
 11
434.9526588783965
 21
1183.152743867068
 31
0.0
  0
LINE
  5
5C7
330
A
100
AcDbEntity
  8
KAKURE
100
AcDbLine
 10
1030.152658878396
 20
413.152743867069
 30
0.0
 11
1030.152658878396
 21
390.1527438670703
 31
0.0
  0
LINE
  5
5C8
330
A
100
AcDbEntity
  8
KAKURE
100
AcDbLine
 10
1030.152658878396
 20
463.152743867069
 30
0.0
 11
1030.152658878396
 21
493.152743867069
 31
0.0
  0
LINE
  5
5C9
330
A
100
AcDbEntity
  8
KAKURE
100
AcDbLine
 10
1030.152658878396
 20
543.152743867069
 30
0.0
 11
1030.152658878396
 21
748.1527438670707
 31
0.0
  0
LINE
  5
5CA
330
A
100
AcDbEntity
  8
KAKURE
100
AcDbLine
 10
1030.152658878396
 20
798.1527438670707
 30
0.0
 11
1030.152658878396
 21
938.1527438670692
 31
0.0
  0
LINE
  5
5CB
330
A
100
AcDbEntity
  8
KAKURE
100
AcDbLine
 10
1030.152658878396
 20
988.1527438670692
 30
0.0
 11
1030.152658878396
 21
1138.152743867068
 31
0.0
  0
LINE
  5
5CC
330
A
100
AcDbEntity
  8
KAKURE
100
AcDbLine
 10
1030.152658878396
 20
1588.545639278412
 30
0.0
 11
1030.152658878396
 21
1990.15274386707
 31
0.0
  0
LINE
  5
5CD
330
A
100
AcDbEntity
  8
KAKURE
100
AcDbLine
 10
1074.752658878397
 20
1588.545639278412
 30
0.0
 11
1074.752658878397
 21
1990.15274386707
 31
0.0
  0
LINE
  5
5CE
330
A
100
AcDbEntity
  8
KAKURE
100
AcDbLine
 10
1074.752658878397
 20
988.1527438670692
 30
0.0
 11
1074.752658878397
 21
1138.152743867068
 31
0.0
  0
LINE
  5
5CF
330
A
100
AcDbEntity
  8
KAKURE
100
AcDbLine
 10
1074.752658878397
 20
798.1527438670707
 30
0.0
 11
1074.752658878397
 21
938.1527438670692
 31
0.0
  0
LINE
  5
5D0
330
A
100
AcDbEntity
  8
KAKURE
100
AcDbLine
 10
1074.752658878397
 20
543.152743867069
 30
0.0
 11
1074.752658878397
 21
748.1527438670707
 31
0.0
  0
LINE
  5
5D1
330
A
100
AcDbEntity
  8
KAKURE
100
AcDbLine
 10
1074.752658878397
 20
463.152743867069
 30
0.0
 11
1074.752658878397
 21
493.152743867069
 31
0.0
  0
LINE
  5
5D2
330
A
100
AcDbEntity
  8
KAKURE
100
AcDbLine
 10
1074.752658878397
 20
413.152743867069
 30
0.0
 11
1074.752658878397
 21
390.1527438670703
 31
0.0
  0
LINE
  5
5D3
330
A
100
AcDbEntity
  8
KAKURE
100
AcDbLine
 10
1074.752658878397
 20
1183.152743867068
 30
0.0
 11
1074.752658878397
 21
1331.539057055894
 31
0.0
  0
LINE
  5
5D4
330
A
100
AcDbEntity
  8
KAKURE
100
AcDbLine
 10
1074.752658878397
 20
1359.510370249362
 30
0.0
 11
1074.752658878397
 21
1576.545639278412
 31
0.0
  0
LINE
  5
5D5
330
A
100
AcDbEntity
  8
KAKURE
100
AcDbLine
 10
1030.152658878396
 20
1183.152743867068
 30
0.0
 11
1030.152658878396
 21
1331.539057055894
 31
0.0
  0
LINE
  5
5D6
330
A
100
AcDbEntity
  8
KAKURE
100
AcDbLine
 10
1030.152658878396
 20
1359.510370249362
 30
0.0
 11
1030.152658878396
 21
1576.545639278412
 31
0.0
  0
LINE
  5
5D7
330
A
100
AcDbEntity
  8
KAKURE
100
AcDbLine
 10
474.7526588784094
 20
413.1527438670708
 30
0.0
 11
474.7526588784094
 21
390.1527438670718
 31
0.0
  0
LINE
  5
5D8
330
A
100
AcDbEntity
  8
KAKURE
100
AcDbLine
 10
430.1526588784086
 20
413.1527438670708
 30
0.0
 11
430.1526588784086
 21
390.1527438670718
 31
0.0
  0
LINE
  5
5D9
330
A
100
AcDbEntity
  8
KAKURE
100
AcDbLine
 10
430.1526588784086
 20
1339.445859181093
 30
0.0
 11
430.1526588784086
 21
1576.545639278414
 31
0.0
  0
LINE
  5
5DA
330
A
100
AcDbEntity
  8
KAKURE
100
AcDbLine
 10
474.7526588784098
 20
1339.445859181093
 30
0.0
 11
474.7526588784098
 21
1576.545639278414
 31
0.0
  0
LINE
  5
5DB
330
A
100
AcDbEntity
  8
KAKURE
100
AcDbLine
 10
430.1526588784086
 20
543.1527438670708
 30
0.0
 11
430.1526588784086
 21
708.4583043630917
 31
0.0
  0
LINE
  5
5DC
330
A
100
AcDbEntity
  8
KAKURE
100
AcDbLine
 10
430.1526588784086
 20
735.6527438670707
 30
0.0
 11
430.1526588784086
 21
748.1527438670728
 31
0.0
  0
LINE
  5
5DD
330
A
100
AcDbEntity
  8
KAKURE
100
AcDbLine
 10
474.7526588784094
 20
543.1527438670708
 30
0.0
 11
474.7526588784096
 21
710.6527438670707
 31
0.0
  0
LINE
  5
5DE
330
A
100
AcDbEntity
  8
KAKURE
100
AcDbLine
 10
474.7526588784096
 20
735.6527438670707
 30
0.0
 11
474.7526588784096
 21
748.1527438670728
 31
0.0
  0
LINE
  5
5DF
330
A
100
AcDbEntity
  8
KAKURE
100
AcDbLine
 10
430.1526588784086
 20
1249.205349403289
 30
0.0
 11
430.1526588784086
 21
1220.652743867069
 31
0.0
  0
LINE
  5
5E0
330
A
100
AcDbEntity
  8
KAKURE
100
AcDbLine
 10
430.1526588784086
 20
1194.658494992545
 30
0.0
 11
430.1526588784086
 21
1183.152743867068
 31
0.0
  0
LINE
  5
5E1
330
A
100
AcDbEntity
  8
KAKURE
100
AcDbLine
 10
474.7526588784098
 20
1249.205349403288
 30
0.0
 11
474.7526588784098
 21
1220.652743867069
 31
0.0
  0
LINE
  5
5E2
330
A
100
AcDbEntity
  8
KAKURE
100
AcDbLine
 10
474.7526588784098
 20
1195.652743867068
 30
0.0
 11
474.7526588784098
 21
1183.152743867068
 31
0.0
  0
LINE
  5
5E3
330
A
100
AcDbEntity
  8
KAKURE
100
AcDbLine
 10
430.1526588784086
 20
1588.545639278414
 30
0.0
 11
430.1526588784088
 21
1947.65274386707
 31
0.0
  0
LINE
  5
5E4
330
A
100
AcDbEntity
  8
KAKURE
100
AcDbLine
 10
430.1526588784088
 20
1972.65274386707
 30
0.0
 11
430.1526588784088
 21
1990.152743867072
 31
0.0
  0
LINE
  5
5E5
330
A
100
AcDbEntity
  8
KAKURE
100
AcDbLine
 10
474.7526588784098
 20
1588.545639278414
 30
0.0
 11
474.7526588784103
 21
1947.65274386707
 31
0.0
  0
LINE
  5
5E6
330
A
100
AcDbEntity
  8
KAKURE
100
AcDbLine
 10
474.7526588784103
 20
1972.65274386707
 30
0.0
 11
474.7526588784103
 21
1990.152743867072
 31
0.0
  0
LINE
  5
5E7
330
A
100
AcDbEntity
  8
CHUSIN
100
AcDbLine
 10
330.6449162842888
 20
478.1527438670694
 30
0.0
 11
531.4677811503884
 21
478.1527438670694
 31
0.0
  0
LINE
  5
5E8
330
A
100
AcDbEntity
  8
CHUSIN
100
AcDbLine
 10
452.4526588783976
 20
2022.47881656699
 30
0.0
 11
452.4526588783973
 21
1339.445859181093
 31
0.0
  0
LINE
  5
5E9
330
A
100
AcDbEntity
  8
CHUSIN
100
AcDbLine
 10
392.4526588783979
 20
763.1527438670707
 30
0.0
 11
392.4526588783979
 21
783.7461821267842
 31
0.0
  0
LINE
  5
5EA
330
A
100
AcDbEntity
  8
CHUSIN
100
AcDbLine
 10
392.4526588783979
 20
1146.651737846561
 30
0.0
 11
392.4526588783979
 21
1169.780420428397
 31
0.0
  0
LINE
  5
5EB
330
A
100
AcDbEntity
  8
CHUSIN
100
AcDbLine
 10
512.4526588783983
 20
1146.651737846561
 30
0.0
 11
512.4526588783983
 21
1169.780420428397
 31
0.0
  0
LINE
  5
5EC
330
A
100
AcDbEntity
  8
CHUSIN
100
AcDbLine
 10
512.452658878396
 20
763.1527438670707
 30
0.0
 11
512.452658878396
 21
783.7461821267842
 31
0.0
  0
LINE
  5
5ED
330
A
100
AcDbEntity
  8
CHUSIN
100
AcDbLine
 10
403.3405711501216
 20
773.1527438670696
 30
0.0
 11
380.7117644660991
 21
773.1527438670696
 31
0.0
  0
LINE
  5
5EE
330
A
100
AcDbEntity
  8
CHUSIN
100
AcDbLine
 10
501.5647466066725
 20
773.1527438670696
 30
0.0
 11
524.193553290695
 21
773.1527438670696
 31
0.0
  0
LINE
  5
5EF
330
A
100
AcDbEntity
  8
CHUSIN
100
AcDbLine
 10
522.7315948460608
 20
1158.152743867068
 30
0.0
 11
503.1450487021507
 21
1158.152743867068
 31
0.0
  0
LINE
  5
5F0
330
A
100
AcDbEntity
  8
CHUSIN
100
AcDbLine
 10
402.7315948460607
 20
1158.152743867068
 30
0.0
 11
381.3512755643878
 21
1158.152743867068
 31
0.0
  0
LINE
  5
5F1
330
A
100
AcDbEntity
  8
CHUSIN
100
AcDbLine
 10
384.7351208505003
 20
858.1527438670695
 30
0.0
 11
513.8787039932894
 21
858.1527438670695
 31
0.0
  0
LINE
  5
5F2
330
A
100
AcDbEntity
  8
CHUSIN
100
AcDbLine
 10
452.4526588783973
 20
1249.205349403289
 30
0.0
 11
452.4526588783971
 21
367.3256777970205
 31
0.0
  0
LINE
  5
5F3
330
A
100
AcDbEntity
  8
CHUSIN
100
AcDbLine
 10
422.4526588783982
 20
518.1527438670691
 30
0.0
 11
402.4526588783983
 21
518.1527438670691
 31
0.0
  0
LINE
  5
5F4
330
A
100
AcDbEntity
  8
CHUSIN
100
AcDbLine
 10
412.4526588783982
 20
528.1527438670691
 30
0.0
 11
412.4526588783982
 21
508.152743867069
 31
0.0
  0
LINE
  5
5F5
330
A
100
AcDbEntity
  8
CHUSIN
100
AcDbLine
 10
422.4526588783982
 20
438.152743867069
 30
0.0
 11
402.4526588783983
 21
438.152743867069
 31
0.0
  0
LINE
  5
5F6
330
A
100
AcDbEntity
  8
CHUSIN
100
AcDbLine
 10
412.4526588783982
 20
448.152743867069
 30
0.0
 11
412.4526588783982
 21
428.152743867069
 31
0.0
  0
LINE
  5
5F7
330
A
100
AcDbEntity
  8
CHUSIN
100
AcDbLine
 10
492.4526588783982
 20
448.152743867069
 30
0.0
 11
492.4526588783982
 21
428.152743867069
 31
0.0
  0
LINE
  5
5F8
330
A
100
AcDbEntity
  8
CHUSIN
100
AcDbLine
 10
482.4526588783982
 20
438.152743867069
 30
0.0
 11
502.4526588783983
 21
438.152743867069
 31
0.0
  0
LINE
  5
5F9
330
A
100
AcDbEntity
  8
CHUSIN
100
AcDbLine
 10
492.4526588783982
 20
508.1527438670688
 30
0.0
 11
492.4526588783982
 21
528.1527438670687
 31
0.0
  0
LINE
  5
5FA
330
A
100
AcDbEntity
  8
CHUSIN
100
AcDbLine
 10
482.4526588783982
 20
518.1527438670688
 30
0.0
 11
502.4526588783983
 21
518.1527438670688
 31
0.0
  0
ARC
  5
603
330
A
100
AcDbEntity
  8
CHUSIN
100
AcDbCircle
 10
452.4526588783983
 20
1086.652743867069
 30
0.0
 40
6.684999942779628
100
AcDbArc
 50
18.5166660942083
 51
161.4833339057893
  0
LINE
  5
605
330
A
100
AcDbEntity
  8
CHUSIN
100
AcDbLine
 10
500.6238081689686
 20
972.3982438670695
 30
0.0
 11
403.2187103909217
 21
972.3982438670695
 31
0.0
  0
LINE
  5
60E
330
A
100
AcDbEntity
  8
CHUSIN
100
AcDbLine
 10
509.4140590937286
 20
804.1527438670691
 30
0.0
 11
500.1987582166655
 21
804.1527438670691
 31
0.0
  0
ARC
  5
622
330
A
100
AcDbEntity
  8
CHUSIN
100
AcDbCircle
 10
452.4526588783977
 20
972.3982438670692
 30
0.0
 40
42.96999999999999
100
AcDbArc
 50
161.4833339057923
 51
18.51666609420687
  0
LINE
  5
623
330
A
100
AcDbEntity
  8
CHUSIN
100
AcDbLine
 10
503.0595762196147
 20
1086.652743867069
 30
0.0
 11
401.5093638552967
 21
1086.652743867069
 31
0.0
  0
LINE
  5
624
330
A
100
AcDbEntity
  8
CHUSIN
100
AcDbLine
 10
411.7071591406816
 20
986.0446775082717
 30
0.0
 11
446.1137325713198
 21
1088.775769422353
 31
0.0
  0
LINE
  5
625
330
A
100
AcDbEntity
  8
CHUSIN
100
AcDbLine
 10
458.7915851854764
 20
1088.775769422353
 30
0.0
 11
493.1981586161144
 21
986.0446775082717
 31
0.0
  0
CIRCLE
  5
626
330
A
100
AcDbEntity
  8
CHUSIN
100
AcDbCircle
 10
452.4526588783986
 20
858.1527438670699
 30
0.0
 40
37.00999999999572
  0
CIRCLE
  5
627
330
A
100
AcDbEntity
  8
CHUSIN
100
AcDbCircle
 10
452.4526588784015
 20
478.1527438670704
 30
0.0
 40
37.00999999999572
  0
LINE
  5
628
330
A
100
AcDbEntity
  8
CHUSIN
100
AcDbLine
 10
415.4426588784056
 20
468.1527438670695
 30
0.0
 11
415.4426588784056
 21
858.1527438670695
 31
0.0
  0
LINE
  5
629
330
A
100
AcDbEntity
  8
CHUSIN
100
AcDbLine
 10
489.4626588783943
 20
858.1527438670699
 30
0.0
 11
489.4626588783971
 21
478.1527438670702
 31
0.0
  0
LINE
  5
62A
330
A
100
AcDbEntity
  8
CHUSIN
100
AcDbLine
 10
1022.244078893717
 20
478.1527438670694
 30
0.0
 11
1082.641042470568
 21
478.1527438670694
 31
0.0
  0
LINE
  5
62B
330
A
100
AcDbEntity
  8
CHUSIN
100
AcDbLine
 10
992.4526588783979
 20
763.1527438670707
 30
0.0
 11
992.4526588783985
 21
1169.780420428397
 31
0.0
  0
LINE
  5
62C
330
A
100
AcDbEntity
  8
CHUSIN
100
AcDbLine
 10
1112.452658878398
 20
763.1527438670707
 30
0.0
 11
1112.452658878398
 21
1169.780420428397
 31
0.0
  0
LINE
  5
62D
330
A
100
AcDbEntity
  8
CHUSIN
100
AcDbLine
 10
941.2635092161643
 20
773.1527438670692
 30
0.0
 11
1173.006666817669
 21
773.1527438670692
 31
0.0
  0
LINE
  5
62E
330
A
100
AcDbEntity
  8
CHUSIN
100
AcDbLine
 10
1173.006666817669
 20
1158.152743867068
 30
0.0
 11
941.2635092161647
 21
1158.152743867068
 31
0.0
  0
LINE
  5
62F
330
A
100
AcDbEntity
  8
CHUSIN
100
AcDbLine
 10
1173.006666817669
 20
518.152743867069
 30
0.0
 11
941.2635092161643
 21
518.152743867069
 31
0.0
  0
LINE
  5
630
330
A
100
AcDbEntity
  8
CHUSIN
100
AcDbLine
 10
1012.452658878397
 20
528.1527438670686
 30
0.0
 11
1012.452658878397
 21
428.152743867069
 31
0.0
  0
LINE
  5
631
330
A
100
AcDbEntity
  8
CHUSIN
100
AcDbLine
 10
941.2635092161643
 20
438.152743867069
 30
0.0
 11
1173.006666817669
 21
438.152743867069
 31
0.0
  0
LINE
  5
632
330
A
100
AcDbEntity
  8
CHUSIN
100
AcDbLine
 10
1092.452658878397
 20
428.152743867069
 30
0.0
 11
1092.452658878397
 21
528.1527438670686
 31
0.0
  0
LINE
  5
633
330
A
100
AcDbEntity
  8
CHUSIN
100
AcDbLine
 10
941.2635092161647
 20
963.1527438670692
 30
0.0
 11
1173.006666817669
 21
963.1527438670692
 31
0.0
  0
LINE
  5
634
330
A
100
AcDbEntity
  8
CHUSIN
100
AcDbLine
 10
1108.449661966125
 20
723.1527438670707
 30
0.0
 11
989.7719359868311
 21
723.1527438670707
 31
0.0
1001
ACAD
1000
ASC_BOUNDS
1002
{
1070
    19
1005
191D
1005
191D
1005
191D
1005
191D
1002
}
  0
LINE
  5
635
330
A
100
AcDbEntity
  8
CHUSIN
100
AcDbLine
 10
504.5177994690419
 20
723.1527438670707
 30
0.0
 11
402.6002354512693
 21
723.1527438670707
 31
0.0
  0
LINE
  5
636
330
A
100
AcDbEntity
  8
CHUSIN
100
AcDbLine
 10
399.8493367600606
 20
1960.15274386707
 30
0.0
 11
506.6592901414251
 21
1960.15274386707
 31
0.0
  0
LINE
  5
637
330
A
100
AcDbEntity
  8
CHUSIN
100
AcDbLine
 10
1107.208084024783
 20
1960.15274386707
 30
0.0
 11
994.3486491568121
 21
1960.15274386707
 31
0.0
1001
ACAD
1000
ASC_BOUNDS
1002
{
1070
    19
1005
1930
1005
1930
1005
1930
1005
1930
1002
}
  0
LINE
  5
638
330
A
100
AcDbEntity
  8
CHUSIN
100
AcDbLine
 10
397.8199990214534
 20
1208.152743867069
 30
0.0
 11
507.3186108413101
 21
1208.152743867069
 31
0.0
  0
LINE
  5
639
330
A
100
AcDbEntity
  8
CHUSIN
100
AcDbLine
 10
1105.765284830878
 20
1208.152743867069
 30
0.0
 11
998.7755167131822
 21
1208.152743867069
 31
0.0
1001
ACAD
1000
ASC_BOUNDS
1002
{
1070
    19
1005
1957
1005
1957
1005
1957
1005
1957
1002
}
  0
LINE
  5
63A
330
A
100
AcDbEntity
  8
CHUSIN
100
AcDbLine
 10
493.9526588783976
 20
1968.605253398306
 30
0.0
 11
493.9526588783976
 21
1951.891045525898
 31
0.0
  0
LINE
  5
63B
330
A
100
AcDbEntity
  8
CHUSIN
100
AcDbLine
 10
410.9526588783976
 20
1951.891045525898
 30
0.0
 11
410.9526588783976
 21
1968.605253398306
 31
0.0
  0
LINE
  5
63C
330
A
100
AcDbEntity
  8
CHUSIN
100
AcDbLine
 10
493.9526588783973
 20
1216.605253398306
 30
0.0
 11
493.9526588783973
 21
1199.891045525897
 31
0.0
  0
LINE
  5
63D
330
A
100
AcDbEntity
  8
CHUSIN
100
AcDbLine
 10
410.9526588783973
 20
1199.891045525897
 30
0.0
 11
410.9526588783973
 21
1216.605253398306
 31
0.0
  0
LINE
  5
63E
330
A
100
AcDbEntity
  8
CHUSIN
100
AcDbLine
 10
410.1812957525599
 20
770.1527438670698
 30
0.0
 11
421.4464628567959
 21
770.1527438670698
 31
0.0
  0
LINE
  5
63F
330
A
100
AcDbEntity
  8
CHUSIN
100
AcDbLine
 10
410.1812957525599
 20
579.1527438670698
 30
0.0
 11
421.4464628567959
 21
579.1527438670698
 31
0.0
  0
LINE
  5
640
330
A
100
AcDbEntity
  8
CHUSIN
100
AcDbLine
 10
494.7240220042345
 20
579.1527438670698
 30
0.0
 11
483.4588548999984
 21
579.1527438670698
 31
0.0
  0
LINE
  5
641
330
A
100
AcDbEntity
  8
CHUSIN
100
AcDbLine
 10
494.7240220042345
 20
770.1527438670698
 30
0.0
 11
483.4588548999984
 21
770.1527438670698
 31
0.0
  0
LINE
  5
642
330
A
100
AcDbEntity
  8
CHUSIN
100
AcDbLine
 10
1010.952658878397
 20
1963.991873197977
 30
0.0
 11
1010.952658878397
 21
1956.151212811424
 31
0.0
  0
LINE
  5
643
330
A
100
AcDbEntity
  8
CHUSIN
100
AcDbLine
 10
1093.952658878396
 20
1963.991873197977
 30
0.0
 11
1093.952658878396
 21
1956.151212811424
 31
0.0
  0
LINE
  5
644
330
A
100
AcDbEntity
  8
CHUSIN
100
AcDbLine
 10
1052.452658878396
 20
2035.090842502083
 30
0.0
 11
1052.452658878396
 21
1937.907703687619
 31
0.0
1001
ACAD
1000
ASC_BOUNDS
1002
{
1070
    19
1005
1930
1005
1930
1005
1930
1005
1930
1002
}
  0
LINE
  5
645
330
A
100
AcDbEntity
  8
CHUSIN
100
AcDbLine
 10
1052.452658878396
 20
1883.359619030253
 30
0.0
 11
1052.452658878396
 21
1359.510370249362
 31
0.0
  0
LINE
  5
646
330
A
100
AcDbEntity
  8
CHUSIN
100
AcDbLine
 10
1010.952658878397
 20
1211.991873197977
 30
0.0
 11
1010.952658878397
 21
1204.151212811424
 31
0.0
  0
LINE
  5
647
330
A
100
AcDbEntity
  8
CHUSIN
100
AcDbLine
 10
1093.952658878396
 20
1211.991873197977
 30
0.0
 11
1093.952658878396
 21
1204.151212811424
 31
0.0
  0
LINE
  5
648
330
A
100
AcDbEntity
  8
CHUSIN
100
AcDbLine
 10
1052.452658878396
 20
1331.539057055894
 30
0.0
 11
1052.452658878396
 21
1291.952670345348
 31
0.0
  0
LINE
  5
649
330
A
100
AcDbEntity
  8
CHUSIN
100
AcDbLine
 10
1093.952658878396
 20
726.9918731979788
 30
0.0
 11
1093.952658878396
 21
719.1512128114262
 31
0.0
  0
LINE
  5
64A
330
A
100
AcDbEntity
  8
CHUSIN
100
AcDbLine
 10
1010.952658878397
 20
726.9918731979788
 30
0.0
 11
1010.952658878397
 21
719.1512128114262
 31
0.0
  0
LINE
  5
64B
330
A
100
AcDbEntity
  8
CHUSIN
100
AcDbLine
 10
1052.452658878396
 20
1230.340435332072
 30
0.0
 11
1052.452658878396
 21
698.9300918764111
 31
0.0
1001
ACAD
1000
ASC_BOUNDS
1002
{
1070
    19
1005
1957
1005
1957
1005
1957
1005
1957
1005
191D
1005
191D
1005
191D
1005
191D
1002
}
  0
LINE
  5
64C
330
A
100
AcDbEntity
  8
CHUSIN
100
AcDbLine
 10
1052.452658878396
 20
646.074315576668
 30
0.0
 11
1052.452658878396
 21
365.8666874176664
 31
0.0
  0
LINE
  5
64D
330
A
100
AcDbEntity
  8
CHUSIN
100
AcDbLine
 10
530.4650657123191
 20
400.1403370331476
 30
0.0
 11
330.6657277943525
 21
599.9396749511141
 31
0.0
  0
LINE
  5
64E
330
A
100
AcDbEntity
  8
CHUSIN
100
AcDbLine
 10
301.1246982757829
 20
629.4807044696838
 30
0.0
 11
279.6357507599558
 21
650.9696519855108
 31
0.0
  0
CIRCLE
  5
651
330
A
100
AcDbEntity
  8
06
100
AcDbCircle
 10
452.4526588783983
 20
1086.652743867069
 30
0.0
 40
6.031999893784131
  0
CIRCLE
  5
658
330
A
100
AcDbEntity
  8
06
100
AcDbCircle
 10
452.4526588783981
 20
972.3982438670692
 30
0.0
 40
6.0
  0
CIRCLE
  5
65B
330
A
100
AcDbEntity
  8
03
100
AcDbCircle
 10
1012.452658878397
 20
438.152743867069
 30
0.0
 40
4.0
  0
CIRCLE
  5
65C
330
A
100
AcDbEntity
  8
03
100
AcDbCircle
 10
1012.452658878397
 20
438.152743867069
 30
0.0
 40
1.5
  0
CIRCLE
  5
65D
330
A
100
AcDbEntity
  8
03
100
AcDbCircle
 10
1092.452658878397
 20
438.152743867069
 30
0.0
 40
4.0
  0
CIRCLE
  5
65E
330
A
100
AcDbEntity
  8
03
100
AcDbCircle
 10
1092.452658878397
 20
438.152743867069
 30
0.0
 40
1.5
  0
CIRCLE
  5
65F
330
A
100
AcDbEntity
  8
03
100
AcDbCircle
 10
1092.452658878397
 20
518.152743867069
 30
0.0
 40
4.0
  0
CIRCLE
  5
660
330
A
100
AcDbEntity
  8
03
100
AcDbCircle
 10
1092.452658878397
 20
518.152743867069
 30
0.0
 40
1.5
  0
CIRCLE
  5
661
330
A
100
AcDbEntity
  8
03
100
AcDbCircle
 10
1012.452658878397
 20
518.152743867069
 30
0.0
 40
4.0
  0
CIRCLE
  5
662
330
A
100
AcDbEntity
  8
03
100
AcDbCircle
 10
1012.452658878397
 20
518.152743867069
 30
0.0
 40
1.5
  0
CIRCLE
  5
663
330
A
100
AcDbEntity
  8
03
100
AcDbCircle
 10
992.4526588783985
 20
773.1527438670692
 30
0.0
 40
4.0
  0
CIRCLE
  5
664
330
A
100
AcDbEntity
  8
03
100
AcDbCircle
 10
992.4526588783985
 20
773.1527438670692
 30
0.0
 40
1.5
  0
CIRCLE
  5
665
330
A
100
AcDbEntity
  8
03
100
AcDbCircle
 10
1112.452658878396
 20
773.1527438670692
 30
0.0
 40
4.0
  0
CIRCLE
  5
666
330
A
100
AcDbEntity
  8
03
100
AcDbCircle
 10
1112.452658878396
 20
773.1527438670692
 30
0.0
 40
1.5
  0
CIRCLE
  5
667
330
A
100
AcDbEntity
  8
03
100
AcDbCircle
 10
1112.452658878398
 20
1158.152743867068
 30
0.0
 40
4.0
  0
CIRCLE
  5
668
330
A
100
AcDbEntity
  8
03
100
AcDbCircle
 10
1112.452658878398
 20
1158.152743867068
 30
0.0
 40
1.5
  0
CIRCLE
  5
669
330
A
100
AcDbEntity
  8
03
100
AcDbCircle
 10
992.4526588783985
 20
1158.152743867068
 30
0.0
 40
4.0
  0
CIRCLE
  5
66A
330
A
100
AcDbEntity
  8
03
100
AcDbCircle
 10
992.4526588783985
 20
1158.152743867068
 30
0.0
 40
1.5
  0
LINE
  5
66B
330
A
100
AcDbEntity
  8
06
100
AcDbLine
 10
426.9526588783982
 20
773.1527438670698
 30
0.0
 11
426.9526588783982
 21
766.1527438670698
 31
0.0
  0
LINE
  5
66C
330
A
100
AcDbEntity
  8
06
100
AcDbLine
 10
407.9526588783981
 20
766.1527438670698
 30
0.0
 11
407.9526588783981
 21
773.1527438670698
 31
0.0
  0
ARC
  5
66F
330
A
100
AcDbEntity
  8
06
100
AcDbCircle
 10
424.0526588783982
 20
773.7527438670697
 30
0.0
 40
0.6000000000000015
100
AcDbArc
 50
179.9999999999998
 51
269.9999999999996
  0
LINE
  5
672
330
A
100
AcDbEntity
  8
06
100
AcDbLine
 10
411.4526588783983
 20
787.1527438670689
 30
0.0
 11
411.4526588783983
 21
776.6768487773288
 31
0.0
  0
LINE
  5
675
330
A
100
AcDbEntity
  8
06
100
AcDbLine
 10
423.4526588783983
 20
773.7527438670697
 30
0.0
 11
423.4526588783983
 21
787.1527438670689
 31
0.0
  0
LINE
  5
676
330
A
100
AcDbEntity
  8
06
100
AcDbLine
 10
426.4526588783982
 20
794.1527438670689
 30
0.0
 11
408.4526588783982
 21
794.1527438670689
 31
0.0
  0
LINE
  5
677
330
A
100
AcDbEntity
  8
06
100
AcDbLine
 10
496.9526588783987
 20
773.1527438670698
 30
0.0
 11
496.9526588783987
 21
766.1527438670698
 31
0.0
  0
LINE
  5
678
330
A
100
AcDbEntity
  8
06
100
AcDbLine
 10
477.9526588783986
 20
766.1527438670698
 30
0.0
 11
477.9526588783986
 21
773.1527438670698
 31
0.0
  0
ARC
  5
67C
330
A
100
AcDbEntity
  8
06
100
AcDbCircle
 10
480.8526588783982
 20
773.7527438670697
 30
0.0
 40
0.6000000000000229
100
AcDbArc
 50
269.9999999999996
 51
359.9999999999993
  0
LINE
  5
67F
330
A
100
AcDbEntity
  8
06
100
AcDbLine
 10
481.4526588783986
 20
787.1527438670689
 30
0.0
 11
481.4526588783986
 21
773.7527438670697
 31
0.0
  0
LINE
  5
682
330
A
100
AcDbEntity
  8
06
100
AcDbLine
 10
493.4526588783986
 20
777.87349035778
 30
0.0
 11
493.4526588783986
 21
787.1527438670689
 31
0.0
  0
LINE
  5
683
330
A
100
AcDbEntity
  8
06
100
AcDbLine
 10
496.4526588783988
 20
794.1527438670689
 30
0.0
 11
478.4526588783988
 21
794.1527438670689
 31
0.0
  0
LINE
  5
684
330
A
100
AcDbEntity
  8
04
100
AcDbLine
 10
498.9526588783975
 20
1952.65274386707
 30
0.0
 11
498.9526588783975
 21
1967.65274386707
 31
0.0
  0
LINE
  5
687
330
A
100
AcDbEntity
  8
04
100
AcDbLine
 10
410.9526588783976
 20
1972.65274386707
 30
0.0
 11
493.9526588783976
 21
1972.65274386707
 31
0.0
  0
LINE
  5
688
330
A
100
AcDbEntity
  8
04
100
AcDbLine
 10
408.5031691356142
 20
1957.65274386707
 30
0.0
 11
405.9526588783976
 21
1957.65274386707
 31
0.0
  0
LINE
  5
689
330
A
100
AcDbEntity
  8
04
100
AcDbLine
 10
408.5031691356142
 20
1962.65274386707
 30
0.0
 11
405.9526588783976
 21
1962.65274386707
 31
0.0
  0
LINE
  5
68A
330
A
100
AcDbEntity
  8
04
100
AcDbLine
 10
405.9526588783976
 20
1952.65274386707
 30
0.0
 11
405.9526588783976
 21
1957.65274386707
 31
0.0
  0
LINE
  5
68B
330
A
100
AcDbEntity
  8
04
100
AcDbLine
 10
405.9526588783976
 20
1962.65274386707
 30
0.0
 11
405.9526588783976
 21
1967.65274386707
 31
0.0
  0
LINE
  5
68C
330
A
100
AcDbEntity
  8
04
100
AcDbLine
 10
410.9526588783976
 20
1947.65274386707
 30
0.0
 11
405.9526588783976
 21
1952.65274386707
 31
0.0
  0
LINE
  5
68D
330
A
100
AcDbEntity
  8
04
100
AcDbLine
 10
410.9526588783976
 20
1972.65274386707
 30
0.0
 11
405.9526588783976
 21
1967.65274386707
 31
0.0
  0
LINE
  5
68E
330
A
100
AcDbEntity
  8
04
100
AcDbLine
 10
498.9526588783975
 20
1967.65274386707
 30
0.0
 11
493.9526588783976
 21
1972.65274386707
 31
0.0
  0
LINE
  5
68F
330
A
100
AcDbEntity
  8
04
100
AcDbLine
 10
493.9526588783976
 20
1947.65274386707
 30
0.0
 11
498.9526588783975
 21
1952.65274386707
 31
0.0
  0
LINE
  5
690
330
A
100
AcDbEntity
  8
04
100
AcDbLine
 10
442.9526588783976
 20
1947.65274386707
 30
0.0
 11
442.9526588783976
 21
1958.15274386707
 31
0.0
  0
LINE
  5
691
330
A
100
AcDbEntity
  8
04
100
AcDbLine
 10
442.9526588783976
 20
1958.15274386707
 30
0.0
 11
432.9526588783975
 21
1958.15274386707
 31
0.0
  0
LINE
  5
692
330
A
100
AcDbEntity
  8
04
100
AcDbLine
 10
432.9526588783975
 20
1958.15274386707
 30
0.0
 11
432.9526588783975
 21
1947.65274386707
 31
0.0
  0
LINE
  5
693
330
A
100
AcDbEntity
  8
04
100
AcDbLine
 10
410.9526588783976
 20
1947.65274386707
 30
0.0
 11
432.9526588783975
 21
1947.65274386707
 31
0.0
  0
LINE
  5
694
330
A
100
AcDbEntity
  8
04
100
AcDbLine
 10
442.9526588783976
 20
1947.65274386707
 30
0.0
 11
493.9526588783976
 21
1947.65274386707
 31
0.0
  0
LINE
  5
695
330
A
100
AcDbEntity
  8
04
100
AcDbLine
 10
498.9526588783973
 20
1200.652743867069
 30
0.0
 11
498.9526588783973
 21
1215.652743867069
 31
0.0
  0
LINE
  5
698
330
A
100
AcDbEntity
  8
04
100
AcDbLine
 10
410.9526588783973
 20
1220.652743867069
 30
0.0
 11
493.9526588783973
 21
1220.652743867069
 31
0.0
  0
LINE
  5
699
330
A
100
AcDbEntity
  8
04
100
AcDbLine
 10
408.5031691356141
 20
1205.652743867068
 30
0.0
 11
405.9526588783973
 21
1205.652743867068
 31
0.0
  0
LINE
  5
69A
330
A
100
AcDbEntity
  8
04
100
AcDbLine
 10
408.5031691356141
 20
1210.652743867068
 30
0.0
 11
405.9526588783973
 21
1210.652743867068
 31
0.0
  0
LINE
  5
69B
330
A
100
AcDbEntity
  8
04
100
AcDbLine
 10
405.9526588783973
 20
1200.652743867069
 30
0.0
 11
405.9526588783973
 21
1205.652743867068
 31
0.0
  0
LINE
  5
69C
330
A
100
AcDbEntity
  8
04
100
AcDbLine
 10
405.9526588783973
 20
1210.652743867068
 30
0.0
 11
405.9526588783973
 21
1215.652743867069
 31
0.0
  0
LINE
  5
69D
330
A
100
AcDbEntity
  8
04
100
AcDbLine
 10
410.9526588783973
 20
1195.652743867068
 30
0.0
 11
405.9526588783973
 21
1200.652743867069
 31
0.0
  0
LINE
  5
69E
330
A
100
AcDbEntity
  8
04
100
AcDbLine
 10
410.9526588783973
 20
1220.652743867069
 30
0.0
 11
405.9526588783973
 21
1215.652743867069
 31
0.0
  0
LINE
  5
69F
330
A
100
AcDbEntity
  8
04
100
AcDbLine
 10
498.9526588783973
 20
1215.652743867069
 30
0.0
 11
493.9526588783973
 21
1220.652743867069
 31
0.0
  0
LINE
  5
6A0
330
A
100
AcDbEntity
  8
04
100
AcDbLine
 10
493.9526588783973
 20
1195.652743867068
 30
0.0
 11
498.9526588783973
 21
1200.652743867069
 31
0.0
  0
LINE
  5
6A1
330
A
100
AcDbEntity
  8
04
100
AcDbLine
 10
442.9526588783973
 20
1195.652743867068
 30
0.0
 11
442.9526588783973
 21
1206.152743867068
 31
0.0
  0
LINE
  5
6A2
330
A
100
AcDbEntity
  8
04
100
AcDbLine
 10
442.9526588783973
 20
1206.152743867068
 30
0.0
 11
432.9526588783974
 21
1206.152743867068
 31
0.0
  0
LINE
  5
6A3
330
A
100
AcDbEntity
  8
04
100
AcDbLine
 10
432.9526588783974
 20
1206.152743867068
 30
0.0
 11
432.9526588783974
 21
1195.652743867068
 31
0.0
  0
LINE
  5
6A4
330
A
100
AcDbEntity
  8
04
100
AcDbLine
 10
410.9526588783973
 20
1195.652743867068
 30
0.0
 11
432.9526588783974
 21
1195.652743867068
 31
0.0
  0
LINE
  5
6A5
330
A
100
AcDbEntity
  8
04
100
AcDbLine
 10
442.9526588783973
 20
1195.652743867068
 30
0.0
 11
493.9526588783973
 21
1195.652743867068
 31
0.0
  0
LINE
  5
6A6
330
A
100
AcDbEntity
  8
04
100
AcDbLine
 10
498.9526588783972
 20
715.6527438670707
 30
0.0
 11
498.9526588783972
 21
730.6527438670707
 31
0.0
  0
LINE
  5
6A7
330
A
100
AcDbEntity
  8
04
100
AcDbLine
 10
422.4870744996706
 20
735.6527438670707
 30
0.0
 11
481.0671823778703
 21
735.6527438670707
 31
0.0
  0
LINE
  5
6A8
330
A
100
AcDbEntity
  8
04
100
AcDbLine
 10
408.5031691356138
 20
720.6527438670707
 30
0.0
 11
405.9526588783973
 21
720.6527438670707
 31
0.0
  0
LINE
  5
6A9
330
A
100
AcDbEntity
  8
04
100
AcDbLine
 10
408.5031691356138
 20
725.6527438670707
 30
0.0
 11
405.9526588783973
 21
725.6527438670707
 31
0.0
  0
LINE
  5
6AA
330
A
100
AcDbEntity
  8
04
100
AcDbLine
 10
405.9526588783973
 20
715.6527438670707
 30
0.0
 11
405.9526588783973
 21
720.6527438670707
 31
0.0
  0
LINE
  5
6AB
330
A
100
AcDbEntity
  8
04
100
AcDbLine
 10
405.9526588783973
 20
725.6527438670707
 30
0.0
 11
405.9526588783973
 21
730.6527438670707
 31
0.0
  0
LINE
  5
6AC
330
A
100
AcDbEntity
  8
04
100
AcDbLine
 10
408.8577989203439
 20
712.747603825124
 30
0.0
 11
405.9526588783973
 21
715.6527438670707
 31
0.0
  0
LINE
  5
6AD
330
A
100
AcDbEntity
  8
04
100
AcDbLine
 10
409.7218627354854
 20
734.4219477241594
 30
0.0
 11
405.9526588783973
 21
730.6527438670707
 31
0.0
  0
LINE
  5
6AE
330
A
100
AcDbEntity
  8
04
100
AcDbLine
 10
498.9526588783972
 20
730.6527438670707
 30
0.0
 11
496.9375174206057
 21
732.6678853248624
 31
0.0
  0
LINE
  5
6AF
330
A
100
AcDbEntity
  8
04
100
AcDbLine
 10
497.6200082282952
 20
714.3200932169686
 30
0.0
 11
498.9526588783972
 21
715.6527438670707
 31
0.0
  0
LINE
  5
6B0
330
A
100
AcDbEntity
  8
04
100
AcDbLine
 10
442.952658878397
 20
710.6527438670707
 30
0.0
 11
442.952658878397
 21
721.1527438670707
 31
0.0
  0
LINE
  5
6B1
330
A
100
AcDbEntity
  8
04
100
AcDbLine
 10
442.952658878397
 20
721.1527438670707
 30
0.0
 11
432.9526588783972
 21
721.1527438670707
 31
0.0
  0
LINE
  5
6B2
330
A
100
AcDbEntity
  8
04
100
AcDbLine
 10
432.9526588783972
 20
721.1527438670707
 30
0.0
 11
432.9526588783972
 21
710.6527438670707
 31
0.0
  0
LINE
  5
6B3
330
A
100
AcDbEntity
  8
04
100
AcDbLine
 10
423.327225516238
 20
710.6527438670707
 30
0.0
 11
432.9526588783972
 21
710.6527438670707
 31
0.0
  0
LINE
  5
6B5
330
A
100
AcDbEntity
  8
06
100
AcDbLine
 10
409.6926588784056
 20
737.1527438670698
 30
0.0
 11
409.6926588784056
 21
724.1527438670698
 31
0.0
  0
LINE
  5
6B6
330
A
100
AcDbEntity
  8
06
100
AcDbLine
 10
421.1926588784056
 20
724.1527438670698
 30
0.0
 11
421.1926588784056
 21
737.1527438670698
 31
0.0
  0
LINE
  5
6B8
330
A
100
AcDbEntity
  8
06
100
AcDbLine
 10
409.6926590098105
 20
724.1527443574803
 30
0.0
 11
408.4426588784055
 21
719.4876803576093
 31
0.0
  0
LINE
  5
6B9
330
A
100
AcDbEntity
  8
06
100
AcDbLine
 10
421.1926588447449
 20
724.152743992693
 30
0.0
 11
422.4426588784056
 21
719.4876803576088
 31
0.0
  0
LINE
  5
6BD
330
A
100
AcDbEntity
  8
06
100
AcDbLine
 10
411.4426588784056
 20
773.1527438670698
 30
0.0
 11
411.4426588784056
 21
742.1527438670698
 31
0.0
  0
LINE
  5
6C0
330
A
100
AcDbEntity
  8
06
100
AcDbLine
 10
419.4426588784056
 20
773.1527438670698
 30
0.0
 11
419.4426588784056
 21
742.1527438670698
 31
0.0
  0
LINE
  5
6C2
330
A
100
AcDbEntity
  8
06
100
AcDbLine
 10
409.6926588784056
 20
612.1527438670698
 30
0.0
 11
409.6926588784056
 21
625.1527438670698
 31
0.0
  0
LINE
  5
6C3
330
A
100
AcDbEntity
  8
06
100
AcDbLine
 10
421.1926588784056
 20
625.1527438670698
 30
0.0
 11
421.1926588784056
 21
612.1527438670698
 31
0.0
  0
LINE
  5
6C5
330
A
100
AcDbEntity
  8
06
100
AcDbLine
 10
409.6926590098105
 20
625.1527433766598
 30
0.0
 11
408.4426588784055
 21
629.8178073765309
 31
0.0
  0
LINE
  5
6C6
330
A
100
AcDbEntity
  8
06
100
AcDbLine
 10
421.1926588447449
 20
625.1527437414472
 30
0.0
 11
422.4426588784056
 21
629.8178073765309
 31
0.0
  0
LINE
  5
6C7
330
A
100
AcDbEntity
  8
06
100
AcDbLine
 10
416.4426588784055
 20
776.1527438670698
 30
0.0
 11
414.4426588784056
 21
776.1527438670698
 31
0.0
  0
LINE
  5
6C8
330
A
100
AcDbEntity
  8
06
100
AcDbLine
 10
411.4426588784056
 20
773.1527438670698
 30
0.0
 11
414.4426588784056
 21
776.1527438670698
 31
0.0
  0
LINE
  5
6C9
330
A
100
AcDbEntity
  8
06
100
AcDbLine
 10
416.4426588784055
 20
776.1527438670698
 30
0.0
 11
419.4426588784056
 21
773.1527438670698
 31
0.0
  0
LINE
  5
6D6
330
A
100
AcDbEntity
  8
06
100
AcDbLine
 10
411.4426588784056
 20
576.1527438670698
 30
0.0
 11
411.4426588784056
 21
607.1527438670698
 31
0.0
  0
LINE
  5
6D9
330
A
100
AcDbEntity
  8
06
100
AcDbLine
 10
419.4426588784056
 20
576.1527438670698
 30
0.0
 11
419.4426588784056
 21
607.1527438670698
 31
0.0
  0
LINE
  5
6DA
330
A
100
AcDbEntity
  8
06
100
AcDbLine
 10
416.4426588784055
 20
573.1527438670698
 30
0.0
 11
414.4426588784056
 21
573.1527438670698
 31
0.0
  0
LINE
  5
6DB
330
A
100
AcDbEntity
  8
06
100
AcDbLine
 10
411.4426588784056
 20
576.1527438670698
 30
0.0
 11
414.4426588784056
 21
573.1527438670698
 31
0.0
  0
LINE
  5
6DC
330
A
100
AcDbEntity
  8
06
100
AcDbLine
 10
416.4426588784055
 20
573.1527438670698
 30
0.0
 11
419.4426588784056
 21
576.1527438670698
 31
0.0
  0
LINE
  5
6E6
330
A
100
AcDbEntity
  8
06
100
AcDbLine
 10
409.9426588784056
 20
681.6527438670698
 30
0.0
 11
409.0785572632678
 21
681.6527438670698
 31
0.0
  0
LINE
  5
6E9
330
A
100
AcDbEntity
  8
06
100
AcDbLine
 10
409.9426588784056
 20
681.6527438670698
 30
0.0
 11
409.9426588784056
 21
667.6527438670698
 31
0.0
  0
LINE
  5
6EA
330
A
100
AcDbEntity
  8
06
100
AcDbLine
 10
408.5426588784057
 20
683.65274386707
 30
0.0
 11
409.0785572656395
 21
681.6527438582182
 31
0.0
  0
LINE
  5
6EC
330
A
100
AcDbEntity
  8
06
100
AcDbLine
 10
409.9426588784056
 20
667.6527438670698
 30
0.0
 11
409.0785572632678
 21
667.6527438670698
 31
0.0
  0
LINE
  5
6ED
330
A
100
AcDbEntity
  8
06
100
AcDbLine
 10
408.5426588784057
 20
665.6527438670698
 30
0.0
 11
409.0785572656395
 21
667.6527438759214
 31
0.0
  0
LINE
  5
6EE
330
A
100
AcDbEntity
  8
06
100
AcDbLine
 10
420.9426588784055
 20
681.6527438670698
 30
0.0
 11
421.8067604935432
 21
681.6527438670698
 31
0.0
  0
LINE
  5
6EF
330
A
100
AcDbEntity
  8
06
100
AcDbLine
 10
420.9426588784055
 20
681.6527438670698
 30
0.0
 11
420.9426588784055
 21
667.6527438670698
 31
0.0
  0
LINE
  5
6F0
330
A
100
AcDbEntity
  8
06
100
AcDbLine
 10
422.3426588784055
 20
683.65274386707
 30
0.0
 11
421.8067604911716
 21
681.6527438582182
 31
0.0
  0
LINE
  5
6F2
330
A
100
AcDbEntity
  8
06
100
AcDbLine
 10
420.9426588784055
 20
667.6527438670698
 30
0.0
 11
421.8067604935432
 21
667.6527438670698
 31
0.0
  0
LINE
  5
6F3
330
A
100
AcDbEntity
  8
06
100
AcDbLine
 10
422.3426588784055
 20
665.6527438670698
 30
0.0
 11
421.8067604911716
 21
667.6527438759214
 31
0.0
  0
LINE
  5
6F4
330
A
100
AcDbEntity
  8
06
100
AcDbLine
 10
408.5426588784057
 20
719.8608854383659
 30
0.0
 11
408.5426588784057
 21
683.65274386707
 31
0.0
  0
LINE
  5
6F5
330
A
100
AcDbEntity
  8
06
100
AcDbLine
 10
422.3426588784055
 20
683.65274386707
 30
0.0
 11
422.3426588784055
 21
719.8608854383659
 31
0.0
  0
LINE
  5
6F8
330
A
100
AcDbEntity
  8
06
100
AcDbLine
 10
408.5426588784057
 20
665.6527438670698
 30
0.0
 11
408.5426588784057
 21
629.4446022957738
 31
0.0
  0
LINE
  5
6F9
330
A
100
AcDbEntity
  8
06
100
AcDbLine
 10
422.3426588784055
 20
629.4446022957742
 30
0.0
 11
422.3426588784055
 21
665.6527438670698
 31
0.0
  0
LINE
  5
6FB
330
A
100
AcDbEntity
  8
06
100
AcDbLine
 10
495.2126588783888
 20
737.1527438670698
 30
0.0
 11
495.2126588783888
 21
724.1527438670698
 31
0.0
  0
LINE
  5
6FC
330
A
100
AcDbEntity
  8
06
100
AcDbLine
 10
483.7126588783887
 20
724.1527438670698
 30
0.0
 11
483.7126588783887
 21
737.1527438670698
 31
0.0
  0
LINE
  5
6FE
330
A
100
AcDbEntity
  8
06
100
AcDbLine
 10
495.2126587469837
 20
724.1527443574803
 30
0.0
 11
496.4626588783886
 21
719.4876803576093
 31
0.0
  0
LINE
  5
6FF
330
A
100
AcDbEntity
  8
06
100
AcDbLine
 10
483.7126589120494
 20
724.152743992693
 30
0.0
 11
482.4626588783886
 21
719.4876803576088
 31
0.0
  0
LINE
  5
701
330
A
100
AcDbEntity
  8
06
100
AcDbLine
 10
495.2126588783888
 20
612.1527438670698
 30
0.0
 11
495.2126588783888
 21
625.1527438670698
 31
0.0
  0
LINE
  5
702
330
A
100
AcDbEntity
  8
06
100
AcDbLine
 10
483.7126588783887
 20
625.1527438670698
 30
0.0
 11
483.7126588783887
 21
612.1527438670698
 31
0.0
  0
LINE
  5
704
330
A
100
AcDbEntity
  8
06
100
AcDbLine
 10
495.2126587469837
 20
625.1527433766598
 30
0.0
 11
496.4626588783886
 21
629.8178073765309
 31
0.0
  0
LINE
  5
705
330
A
100
AcDbEntity
  8
06
100
AcDbLine
 10
483.7126589120494
 20
625.1527437414472
 30
0.0
 11
482.4626588783886
 21
629.8178073765309
 31
0.0
  0
LINE
  5
709
330
A
100
AcDbEntity
  8
06
100
AcDbLine
 10
493.4626588783888
 20
576.1527438670698
 30
0.0
 11
493.4626588783888
 21
607.1527438670698
 31
0.0
  0
LINE
  5
70C
330
A
100
AcDbEntity
  8
06
100
AcDbLine
 10
485.4626588783886
 20
576.1527438670698
 30
0.0
 11
485.4626588783886
 21
607.1527438670698
 31
0.0
  0
LINE
  5
70D
330
A
100
AcDbEntity
  8
06
100
AcDbLine
 10
488.4626588783886
 20
573.1527438670698
 30
0.0
 11
490.4626588783886
 21
573.1527438670698
 31
0.0
  0
LINE
  5
70E
330
A
100
AcDbEntity
  8
06
100
AcDbLine
 10
493.4626588783888
 20
576.1527438670698
 30
0.0
 11
490.4626588783886
 21
573.1527438670698
 31
0.0
  0
LINE
  5
70F
330
A
100
AcDbEntity
  8
06
100
AcDbLine
 10
488.4626588783886
 20
573.1527438670698
 30
0.0
 11
485.4626588783886
 21
576.1527438670698
 31
0.0
  0
LINE
  5
719
330
A
100
AcDbEntity
  8
06
100
AcDbLine
 10
494.9626588783886
 20
681.6527438670698
 30
0.0
 11
495.8267604935265
 21
681.6527438670698
 31
0.0
  0
LINE
  5
71C
330
A
100
AcDbEntity
  8
06
100
AcDbLine
 10
494.9626588783886
 20
681.6527438670698
 30
0.0
 11
494.9626588783886
 21
667.6527438670698
 31
0.0
  0
LINE
  5
71D
330
A
100
AcDbEntity
  8
06
100
AcDbLine
 10
496.3626588783887
 20
683.65274386707
 30
0.0
 11
495.8267604911546
 21
681.6527438582182
 31
0.0
  0
LINE
  5
71F
330
A
100
AcDbEntity
  8
06
100
AcDbLine
 10
494.9626588783886
 20
667.6527438670698
 30
0.0
 11
495.8267604935265
 21
667.6527438670698
 31
0.0
  0
LINE
  5
720
330
A
100
AcDbEntity
  8
06
100
AcDbLine
 10
496.3626588783887
 20
665.6527438670698
 30
0.0
 11
495.8267604911546
 21
667.6527438759214
 31
0.0
  0
LINE
  5
721
330
A
100
AcDbEntity
  8
06
100
AcDbLine
 10
483.9626588783886
 20
681.6527438670698
 30
0.0
 11
483.0985572632512
 21
681.6527438670698
 31
0.0
  0
LINE
  5
722
330
A
100
AcDbEntity
  8
06
100
AcDbLine
 10
483.9626588783886
 20
681.6527438670698
 30
0.0
 11
483.9626588783886
 21
667.6527438670698
 31
0.0
  0
LINE
  5
723
330
A
100
AcDbEntity
  8
06
100
AcDbLine
 10
482.5626588783888
 20
683.65274386707
 30
0.0
 11
483.0985572656227
 21
681.6527438582182
 31
0.0
  0
LINE
  5
725
330
A
100
AcDbEntity
  8
06
100
AcDbLine
 10
483.9626588783886
 20
667.6527438670698
 30
0.0
 11
483.0985572632512
 21
667.6527438670698
 31
0.0
  0
LINE
  5
726
330
A
100
AcDbEntity
  8
06
100
AcDbLine
 10
482.5626588783888
 20
665.6527438670698
 30
0.0
 11
483.0985572656227
 21
667.6527438759214
 31
0.0
  0
LINE
  5
727
330
A
100
AcDbEntity
  8
06
100
AcDbLine
 10
496.3626588783887
 20
719.8608854383659
 30
0.0
 11
496.3626588783887
 21
683.65274386707
 31
0.0
  0
LINE
  5
728
330
A
100
AcDbEntity
  8
06
100
AcDbLine
 10
482.5626588783888
 20
683.65274386707
 30
0.0
 11
482.5626588783888
 21
719.8608854383659
 31
0.0
  0
LINE
  5
72B
330
A
100
AcDbEntity
  8
06
100
AcDbLine
 10
496.3626588783887
 20
665.6527438670698
 30
0.0
 11
496.3626588783887
 21
629.4446022957738
 31
0.0
  0
LINE
  5
72C
330
A
100
AcDbEntity
  8
06
100
AcDbLine
 10
482.5626588783888
 20
629.4446022957742
 30
0.0
 11
482.5626588783888
 21
665.6527438670698
 31
0.0
  0
LINE
  5
732
330
A
100
AcDbEntity
  8
06
100
AcDbLine
 10
485.4626588783886
 20
773.1527438670698
 30
0.0
 11
485.4626588783886
 21
742.1527438670698
 31
0.0
  0
LINE
  5
733
330
A
100
AcDbEntity
  8
06
100
AcDbLine
 10
493.4626588783888
 20
773.1527438670698
 30
0.0
 11
493.4626588783888
 21
742.1527438670698
 31
0.0
  0
LINE
  5
734
330
A
100
AcDbEntity
  8
06
100
AcDbLine
 10
493.4626588783888
 20
773.1527438670698
 30
0.0
 11
490.4626588783886
 21
776.1527438670698
 31
0.0
  0
LINE
  5
735
330
A
100
AcDbEntity
  8
06
100
AcDbLine
 10
488.4626588783886
 20
776.1527438670698
 30
0.0
 11
490.4626588783886
 21
776.1527438670698
 31
0.0
  0
LINE
  5
736
330
A
100
AcDbEntity
  8
06
100
AcDbLine
 10
488.4626588783886
 20
776.1527438670698
 30
0.0
 11
485.4626588783886
 21
773.1527438670698
 31
0.0
  0
LINE
  5
73E
330
A
100
AcDbEntity
  8
06
100
AcDbLine
 10
407.9526588783981
 20
773.1527438670698
 30
0.0
 11
409.7255916978573
 21
773.1527438670698
 31
0.0
  0
LINE
  5
73F
330
A
100
AcDbEntity
  8
06
100
AcDbLine
 10
420.8153252841579
 20
773.1527438670698
 30
0.0
 11
426.9526588783982
 21
773.1527438670698
 31
0.0
  0
LINE
  5
740
330
A
100
AcDbEntity
  8
06
100
AcDbLine
 10
426.9526588783982
 20
766.1527438670698
 30
0.0
 11
420.9644556973992
 21
766.1527438670698
 31
0.0
  0
LINE
  5
741
330
A
100
AcDbEntity
  8
06
100
AcDbLine
 10
409.4070157162613
 20
766.1527438670698
 30
0.0
 11
407.9526588783981
 21
766.1527438670698
 31
0.0
  0
LINE
  5
742
330
A
100
AcDbEntity
  8
06
100
AcDbLine
 10
496.9526588783987
 20
766.1527438670698
 30
0.0
 11
494.5435024738681
 21
766.1527438670698
 31
0.0
  0
LINE
  5
743
330
A
100
AcDbEntity
  8
06
100
AcDbLine
 10
484.1816597321582
 20
766.1527438670698
 30
0.0
 11
477.9526588783986
 21
766.1527438670698
 31
0.0
  0
LINE
  5
744
330
A
100
AcDbEntity
  8
06
100
AcDbLine
 10
477.9526588783986
 20
773.1527438670698
 30
0.0
 11
484.1816597321582
 21
773.1527438670698
 31
0.0
  0
LINE
  5
745
330
A
100
AcDbEntity
  8
06
100
AcDbLine
 10
494.0526588783987
 20
773.1527438670698
 30
0.0
 11
496.9526588783987
 21
773.1527438670698
 31
0.0
  0
LINE
  5
746
330
A
100
AcDbEntity
  8
04
100
AcDbLine
 10
442.952658878397
 20
710.6527438670707
 30
0.0
 11
481.0671823778703
 21
710.6527438670707
 31
0.0
  0
CIRCLE
  5
747
330
A
100
AcDbEntity
  8
03
100
AcDbCircle
 10
1010.952658878397
 20
1960.15274386707
 30
0.0
 40
2.0
  0
CIRCLE
  5
748
330
A
100
AcDbEntity
  8
03
100
AcDbCircle
 10
1010.952658878397
 20
1960.15274386707
 30
0.0
 40
0.8000000000000111
  0
CIRCLE
  5
749
330
A
100
AcDbEntity
  8
03
100
AcDbCircle
 10
1093.952658878396
 20
1960.15274386707
 30
0.0
 40
2.0
  0
CIRCLE
  5
74A
330
A
100
AcDbEntity
  8
03
100
AcDbCircle
 10
1093.952658878396
 20
1960.15274386707
 30
0.0
 40
0.8000000000000111
  0
CIRCLE
  5
74B
330
A
100
AcDbEntity
  8
03
100
AcDbCircle
 10
1010.952658878397
 20
1208.152743867069
 30
0.0
 40
2.0
  0
CIRCLE
  5
74C
330
A
100
AcDbEntity
  8
03
100
AcDbCircle
 10
1010.952658878397
 20
1208.152743867069
 30
0.0
 40
0.8000000000000111
  0
CIRCLE
  5
74D
330
A
100
AcDbEntity
  8
03
100
AcDbCircle
 10
1093.952658878396
 20
1208.152743867069
 30
0.0
 40
2.0
  0
CIRCLE
  5
74E
330
A
100
AcDbEntity
  8
03
100
AcDbCircle
 10
1093.952658878396
 20
1208.152743867069
 30
0.0
 40
0.8000000000000111
  0
CIRCLE
  5
74F
330
A
100
AcDbEntity
  8
03
100
AcDbCircle
 10
1093.952658878396
 20
723.1527438670707
 30
0.0
 40
2.0
  0
CIRCLE
  5
750
330
A
100
AcDbEntity
  8
03
100
AcDbCircle
 10
1093.952658878396
 20
723.1527438670707
 30
0.0
 40
0.8000000000000111
  0
CIRCLE
  5
751
330
A
100
AcDbEntity
  8
03
100
AcDbCircle
 10
1010.952658878397
 20
723.1527438670707
 30
0.0
 40
2.0
  0
CIRCLE
  5
752
330
A
100
AcDbEntity
  8
03
100
AcDbCircle
 10
1010.952658878397
 20
723.1527438670707
 30
0.0
 40
0.8000000000000111
  0
LINE
  5
759
330
A
100
AcDbEntity
  8
03
100
AcDbLine
 10
352.4526588783972
 20
388.5527438670701
 30
0.0
 11
352.4526588783972
 21
361.7527438670703
 31
0.0
  0
LINE
  5
75A
330
A
100
AcDbEntity
  8
03
100
AcDbLine
 10
552.4526588783971
 20
388.5527438670701
 30
0.0
 11
552.4526588783971
 21
361.7527438670703
 31
0.0
  0
LINE
  5
75B
330
A
100
AcDbEntity
  8
03
100
AcDbLine
 10
550.8526588783971
 20
388.5527438670701
 30
0.0
 11
354.0526588783972
 21
388.5527438670701
 31
0.0
  0
LINE
  5
75C
330
A
100
AcDbEntity
  8
03
100
AcDbLine
 10
550.8526588783971
 20
388.5527438670701
 30
0.0
 11
550.8526588783971
 21
361.7527438670703
 31
0.0
  0
LINE
  5
75D
330
A
100
AcDbEntity
  8
03
100
AcDbLine
 10
354.0526588783972
 20
388.5527438670701
 30
0.0
 11
354.0526588783972
 21
361.7527438670703
 31
0.0
  0
LINE
  5
75E
330
A
100
AcDbEntity
  8
03
100
AcDbLine
 10
367.4526588783971
 20
360.1527438670704
 30
0.0
 11
367.4526588783971
 21
361.7527438670703
 31
0.0
  0
LINE
  5
75F
330
A
100
AcDbEntity
  8
03
100
AcDbLine
 10
537.4526588783972
 20
360.1527438670704
 30
0.0
 11
537.4526588783972
 21
361.7527438670703
 31
0.0
  0
LINE
  5
760
330
A
100
AcDbEntity
  8
03
100
AcDbLine
 10
550.8526588783971
 20
361.7527438670703
 30
0.0
 11
537.4526588783972
 21
361.7527438670703
 31
0.0
  0
LINE
  5
761
330
A
100
AcDbEntity
  8
03
100
AcDbLine
 10
367.4526588783971
 20
361.7527438670703
 30
0.0
 11
354.0526588783972
 21
361.7527438670703
 31
0.0
  0
LINE
  5
762
330
A
100
AcDbEntity
  8
03
100
AcDbLine
 10
550.8526588783971
 20
360.1527438670704
 30
0.0
 11
537.4526588783972
 21
360.1527438670704
 31
0.0
  0
LINE
  5
763
330
A
100
AcDbEntity
  8
03
100
AcDbLine
 10
367.4526588783971
 20
360.1527438670704
 30
0.0
 11
354.0526588783972
 21
360.1527438670704
 31
0.0
  0
ARC
  5
764
330
A
100
AcDbEntity
  8
03
100
AcDbCircle
 10
354.0526588783972
 20
361.7527438670703
 30
0.0
 40
1.6
100
AcDbArc
 50
179.9999999999998
 51
269.9999999999996
  0
ARC
  5
765
330
A
100
AcDbEntity
  8
03
100
AcDbCircle
 10
550.8526588783971
 20
361.7527438670703
 30
0.0
 40
1.6
100
AcDbArc
 50
269.9999999999996
 51
359.9999999999993
  0
ARC
  5
766
330
A
100
AcDbEntity
  8
03
100
AcDbCircle
 10
550.8526588783971
 20
388.5527438670703
 30
0.0
 40
1.6
100
AcDbArc
 50
359.9999999999993
 51
89.99999999999912
  0
LINE
  5
767
330
A
100
AcDbEntity
  8
03
100
AcDbLine
 10
354.0526588783975
 20
1990.15274386707
 30
0.0
 11
550.8526588783975
 21
1990.15274386707
 31
0.0
  0
LINE
  5
768
330
A
100
AcDbEntity
  8
03
100
AcDbLine
 10
352.4526588783976
 20
1991.75274386707
 30
0.0
 11
352.4526588783976
 21
2018.55274386707
 31
0.0
  0
LINE
  5
769
330
A
100
AcDbEntity
  8
03
100
AcDbLine
 10
552.4526588783974
 20
1991.75274386707
 30
0.0
 11
552.4526588783974
 21
2018.55274386707
 31
0.0
  0
LINE
  5
76A
330
A
100
AcDbEntity
  8
03
100
AcDbLine
 10
550.8526588783975
 20
1991.75274386707
 30
0.0
 11
354.0526588783975
 21
1991.75274386707
 31
0.0
  0
LINE
  5
76B
330
A
100
AcDbEntity
  8
03
100
AcDbLine
 10
550.8526588783975
 20
1991.75274386707
 30
0.0
 11
550.8526588783975
 21
2018.55274386707
 31
0.0
  0
LINE
  5
76C
330
A
100
AcDbEntity
  8
03
100
AcDbLine
 10
354.0526588783975
 20
1991.75274386707
 30
0.0
 11
354.0526588783975
 21
2018.55274386707
 31
0.0
  0
LINE
  5
76D
330
A
100
AcDbEntity
  8
03
100
AcDbLine
 10
367.4526588783975
 20
2020.15274386707
 30
0.0
 11
367.4526588783975
 21
2018.55274386707
 31
0.0
  0
LINE
  5
76E
330
A
100
AcDbEntity
  8
03
100
AcDbLine
 10
537.4526588783973
 20
2020.15274386707
 30
0.0
 11
537.4526588783973
 21
2018.55274386707
 31
0.0
  0
LINE
  5
76F
330
A
100
AcDbEntity
  8
03
100
AcDbLine
 10
550.8526588783975
 20
2018.55274386707
 30
0.0
 11
537.4526588783973
 21
2018.55274386707
 31
0.0
  0
LINE
  5
770
330
A
100
AcDbEntity
  8
03
100
AcDbLine
 10
367.4526588783975
 20
2018.55274386707
 30
0.0
 11
354.0526588783975
 21
2018.55274386707
 31
0.0
  0
LINE
  5
771
330
A
100
AcDbEntity
  8
03
100
AcDbLine
 10
550.8526588783975
 20
2020.15274386707
 30
0.0
 11
537.4526588783973
 21
2020.15274386707
 31
0.0
  0
LINE
  5
772
330
A
100
AcDbEntity
  8
03
100
AcDbLine
 10
367.4526588783975
 20
2020.15274386707
 30
0.0
 11
354.0526588783975
 21
2020.15274386707
 31
0.0
  0
ARC
  5
773
330
A
100
AcDbEntity
  8
03
100
AcDbCircle
 10
354.0526588783975
 20
2018.55274386707
 30
0.0
 40
1.6
100
AcDbArc
 50
89.99999999999912
 51
179.9999999999988
  0
ARC
  5
774
330
A
100
AcDbEntity
  8
03
100
AcDbCircle
 10
550.8526588783975
 20
2018.55274386707
 30
0.0
 40
1.6
100
AcDbArc
 50
359.9999999999993
 51
89.99999999999912
  0
ARC
  5
775
330
A
100
AcDbEntity
  8
03
100
AcDbCircle
 10
550.8526588783975
 20
1991.75274386707
 30
0.0
 40
1.6
100
AcDbArc
 50
269.9999999999996
 51
359.9999999999993
  0
LINE
  5
776
330
A
100
AcDbEntity
  8
06
100
AcDbLine
 10
527.4526588783983
 20
995.1527438670693
 30
0.0
 11
527.4526588783986
 21
801.152743867069
 31
0.0
  0
LINE
  5
777
330
A
100
AcDbEntity
  8
06
100
AcDbLine
 10
377.4526588783989
 20
995.1527438670693
 30
0.0
 11
377.4526588783978
 21
801.152743867069
 31
0.0
  0
LINE
  5
778
330
A
100
AcDbEntity
  8
06
100
AcDbLine
 10
393.4526588783982
 20
799.1527438670689
 30
0.0
 11
393.4526588783982
 21
1143.152743867068
 31
0.0
  0
LINE
  5
779
330
A
100
AcDbEntity
  8
06
100
AcDbLine
 10
511.4526588783983
 20
799.1527438670689
 30
0.0
 11
511.4526588783983
 21
1143.152743867068
 31
0.0
  0
LINE
  5
77A
330
A
100
AcDbEntity
  8
06
100
AcDbLine
 10
396.4526588783982
 20
796.1527438670689
 30
0.0
 11
393.4526588783982
 21
799.1527438670689
 31
0.0
  0
LINE
  5
77B
330
A
100
AcDbEntity
  8
06
100
AcDbLine
 10
508.4526588783982
 20
796.1527438670689
 30
0.0
 11
511.4526588783983
 21
799.1527438670689
 31
0.0
  0
LINE
  5
77C
330
A
100
AcDbEntity
  8
06
100
AcDbLine
 10
527.4526588783983
 20
995.1527438670693
 30
0.0
 11
527.4526588783981
 21
801.152743867069
 31
0.0
  0
ARC
  5
77D
330
A
100
AcDbEntity
  8
06
100
AcDbCircle
 10
522.4526588783978
 20
801.152743867069
 30
0.0
 40
5.0
100
AcDbArc
 50
269.9999999999996
 51
359.9999999999993
  0
ARC
  5
77E
330
A
100
AcDbEntity
  8
06
100
AcDbCircle
 10
522.4526588783979
 20
995.1527438670693
 30
0.0
 40
5.0
100
AcDbArc
 50
359.9999999999993
 51
89.99999999999912
  0
LINE
  5
77F
330
A
100
AcDbEntity
  8
06
100
AcDbLine
 10
377.4526588783978
 20
995.1527438670693
 30
0.0
 11
377.4526588783978
 21
801.152743867069
 31
0.0
  0
ARC
  5
780
330
A
100
AcDbEntity
  8
06
100
AcDbCircle
 10
382.4526588783982
 20
801.152743867069
 30
0.0
 40
5.0
100
AcDbArc
 50
179.9999999999998
 51
269.9999999999996
  0
ARC
  5
781
330
A
100
AcDbEntity
  8
06
100
AcDbCircle
 10
382.4526588783978
 20
995.1527438670693
 30
0.0
 40
5.0
100
AcDbArc
 50
89.99999999999912
 51
179.9999999999988
  0
ARC
  5
782
330
A
100
AcDbEntity
  8
06
100
AcDbCircle
 10
428.4526588783978
 20
795.1527438670689
 30
0.0
 40
1.0
100
AcDbArc
 50
89.99999999999912
 51
179.9999999999988
  0
ARC
  5
783
330
A
100
AcDbEntity
  8
06
100
AcDbCircle
 10
406.4526588783977
 20
795.1527438670689
 30
0.0
 40
1.0
100
AcDbArc
 50
359.9999999999993
 51
89.99999999999912
  0
LINE
  5
784
330
A
100
AcDbEntity
  8
06
100
AcDbLine
 10
427.4526588783977
 20
794.1527438670689
 30
0.0
 11
427.4526588783977
 21
795.1527438670689
 31
0.0
  0
LINE
  5
785
330
A
100
AcDbEntity
  8
06
100
AcDbLine
 10
407.4526588783978
 20
795.1527438670689
 30
0.0
 11
407.4526588783978
 21
794.1527438364535
 31
0.0
  0
LINE
  5
786
330
A
100
AcDbEntity
  8
06
100
AcDbLine
 10
382.4526588783982
 20
796.1527438670689
 30
0.0
 11
522.4526588783978
 21
796.1527438670689
 31
0.0
  0
ARC
  5
789
330
A
100
AcDbEntity
  8
06
100
AcDbCircle
 10
476.4526588783979
 20
795.1527438670689
 30
0.0
 40
1.0
100
AcDbArc
 50
359.9999999999993
 51
89.99999999999912
  0
ARC
  5
78A
330
A
100
AcDbEntity
  8
06
100
AcDbCircle
 10
498.4526588783981
 20
795.1527438670689
 30
0.0
 40
1.0
100
AcDbArc
 50
90.0
 51
179.9999999999998
  0
LINE
  5
78B
330
A
100
AcDbEntity
  8
06
100
AcDbLine
 10
477.4526588783981
 20
794.1527438670689
 30
0.0
 11
477.4526588783981
 21
795.1527438670689
 31
0.0
  0
LINE
  5
78C
330
A
100
AcDbEntity
  8
06
100
AcDbLine
 10
497.4526588783979
 20
795.1527438670689
 30
0.0
 11
497.4526588783979
 21
794.1527438364535
 31
0.0
  0
LINE
  5
78D
330
A
100
AcDbEntity
  8
06
100
AcDbLine
 10
511.4526588783983
 20
1000.152743867068
 30
0.0
 11
522.4526588783983
 21
1000.152743867068
 31
0.0
  0
LINE
  5
78E
330
A
100
AcDbEntity
  8
06
100
AcDbLine
 10
382.4526588783978
 20
1000.152743867068
 30
0.0
 11
393.4526588783982
 21
1000.152743867068
 31
0.0
  0
LINE
  5
78F
330
A
100
AcDbEntity
  8
06
100
AcDbLine
 10
508.4526588783982
 20
1146.152743867068
 30
0.0
 11
396.4526588783982
 21
1146.152743867068
 31
0.0
  0
LINE
  5
790
330
A
100
AcDbEntity
  8
06
100
AcDbLine
 10
393.4526588783982
 20
1143.152743867068
 30
0.0
 11
396.4526588783982
 21
1146.152743867068
 31
0.0
  0
LINE
  5
791
330
A
100
AcDbEntity
  8
06
100
AcDbLine
 10
508.4526588783982
 20
1146.152743867068
 30
0.0
 11
511.4526588783983
 21
1143.152743867068
 31
0.0
  0
LINE
  5
792
330
A
100
AcDbEntity
  8
03
100
AcDbLine
 10
952.4526588783972
 20
388.5527438670701
 30
0.0
 11
952.4526588783972
 21
361.7527438670703
 31
0.0
  0
LINE
  5
793
330
A
100
AcDbEntity
  8
03
100
AcDbLine
 10
1152.452658878396
 20
388.5527438670701
 30
0.0
 11
1152.452658878396
 21
361.7527438670703
 31
0.0
  0
LINE
  5
794
330
A
100
AcDbEntity
  8
03
100
AcDbLine
 10
1150.852658878397
 20
388.5527438670701
 30
0.0
 11
954.0526588783974
 21
388.5527438670701
 31
0.0
  0
LINE
  5
795
330
A
100
AcDbEntity
  8
03
100
AcDbLine
 10
1150.852658878397
 20
388.5527438670701
 30
0.0
 11
1150.852658878397
 21
361.7527438670703
 31
0.0
  0
LINE
  5
796
330
A
100
AcDbEntity
  8
03
100
AcDbLine
 10
954.0526588783974
 20
388.5527438670701
 30
0.0
 11
954.0526588783974
 21
361.7527438670703
 31
0.0
  0
LINE
  5
797
330
A
100
AcDbEntity
  8
03
100
AcDbLine
 10
967.4526588783972
 20
360.1527438670704
 30
0.0
 11
967.4526588783972
 21
361.7527438670703
 31
0.0
  0
LINE
  5
798
330
A
100
AcDbEntity
  8
03
100
AcDbLine
 10
1137.452658878397
 20
360.1527438670704
 30
0.0
 11
1137.452658878397
 21
361.7527438670703
 31
0.0
  0
LINE
  5
799
330
A
100
AcDbEntity
  8
03
100
AcDbLine
 10
1150.852658878397
 20
361.7527438670703
 30
0.0
 11
1137.452658878397
 21
361.7527438670703
 31
0.0
  0
LINE
  5
79A
330
A
100
AcDbEntity
  8
03
100
AcDbLine
 10
967.4526588783972
 20
361.7527438670703
 30
0.0
 11
954.0526588783974
 21
361.7527438670703
 31
0.0
  0
LINE
  5
79B
330
A
100
AcDbEntity
  8
03
100
AcDbLine
 10
1150.852658878397
 20
360.1527438670704
 30
0.0
 11
1137.452658878397
 21
360.1527438670704
 31
0.0
  0
LINE
  5
79C
330
A
100
AcDbEntity
  8
03
100
AcDbLine
 10
967.4526588783972
 20
360.1527438670704
 30
0.0
 11
954.0526588783974
 21
360.1527438670704
 31
0.0
  0
ARC
  5
79D
330
A
100
AcDbEntity
  8
03
100
AcDbCircle
 10
954.052658878397
 20
361.7527438670703
 30
0.0
 40
1.6
100
AcDbArc
 50
179.9999999999998
 51
269.9999999999996
  0
ARC
  5
79E
330
A
100
AcDbEntity
  8
03
100
AcDbCircle
 10
1150.852658878397
 20
361.7527438670703
 30
0.0
 40
1.6
100
AcDbArc
 50
269.9999999999996
 51
359.9999999999993
  0
ARC
  5
79F
330
A
100
AcDbEntity
  8
03
100
AcDbCircle
 10
1150.852658878397
 20
388.5527438670701
 30
0.0
 40
1.6
100
AcDbArc
 50
359.9999999999993
 51
89.99999999999912
  0
LINE
  5
7A0
330
A
100
AcDbEntity
  8
03
100
AcDbLine
 10
954.0526588783974
 20
1990.15274386707
 30
0.0
 11
1150.852658878397
 21
1990.15274386707
 31
0.0
  0
LINE
  5
7A1
330
A
100
AcDbEntity
  8
03
100
AcDbLine
 10
952.4526588783974
 20
1991.75274386707
 30
0.0
 11
952.4526588783974
 21
2018.55274386707
 31
0.0
  0
LINE
  5
7A2
330
A
100
AcDbEntity
  8
03
100
AcDbLine
 10
1152.452658878396
 20
1991.75274386707
 30
0.0
 11
1152.452658878396
 21
2018.55274386707
 31
0.0
  0
LINE
  5
7A3
330
A
100
AcDbEntity
  8
03
100
AcDbLine
 10
1150.852658878397
 20
1991.75274386707
 30
0.0
 11
954.0526588783974
 21
1991.75274386707
 31
0.0
  0
LINE
  5
7A4
330
A
100
AcDbEntity
  8
03
100
AcDbLine
 10
1150.852658878397
 20
1991.75274386707
 30
0.0
 11
1150.852658878397
 21
2018.55274386707
 31
0.0
  0
LINE
  5
7A5
330
A
100
AcDbEntity
  8
03
100
AcDbLine
 10
954.0526588783974
 20
1991.75274386707
 30
0.0
 11
954.0526588783974
 21
2018.55274386707
 31
0.0
  0
LINE
  5
7A6
330
A
100
AcDbEntity
  8
03
100
AcDbLine
 10
967.4526588783974
 20
2020.15274386707
 30
0.0
 11
967.4526588783974
 21
2018.55274386707
 31
0.0
  0
LINE
  5
7A7
330
A
100
AcDbEntity
  8
03
100
AcDbLine
 10
1137.452658878397
 20
2020.15274386707
 30
0.0
 11
1137.452658878397
 21
2018.55274386707
 31
0.0
  0
LINE
  5
7A8
330
A
100
AcDbEntity
  8
03
100
AcDbLine
 10
1150.852658878397
 20
2018.55274386707
 30
0.0
 11
1137.452658878397
 21
2018.55274386707
 31
0.0
  0
LINE
  5
7A9
330
A
100
AcDbEntity
  8
03
100
AcDbLine
 10
967.4526588783974
 20
2018.55274386707
 30
0.0
 11
954.0526588783974
 21
2018.55274386707
 31
0.0
  0
LINE
  5
7AA
330
A
100
AcDbEntity
  8
03
100
AcDbLine
 10
1150.852658878397
 20
2020.15274386707
 30
0.0
 11
1137.452658878397
 21
2020.15274386707
 31
0.0
  0
LINE
  5
7AB
330
A
100
AcDbEntity
  8
03
100
AcDbLine
 10
967.4526588783974
 20
2020.15274386707
 30
0.0
 11
954.0526588783974
 21
2020.15274386707
 31
0.0
  0
ARC
  5
7AC
330
A
100
AcDbEntity
  8
03
100
AcDbCircle
 10
954.0526588783974
 20
2018.55274386707
 30
0.0
 40
1.6
100
AcDbArc
 50
89.99999999999912
 51
179.9999999999988
  0
ARC
  5
7AD
330
A
100
AcDbEntity
  8
03
100
AcDbCircle
 10
1150.852658878397
 20
2018.55274386707
 30
0.0
 40
1.6
100
AcDbArc
 50
359.9999999999993
 51
89.99999999999912
  0
ARC
  5
7AE
330
A
100
AcDbEntity
  8
03
100
AcDbCircle
 10
1150.852658878397
 20
1991.75274386707
 30
0.0
 40
1.6
100
AcDbArc
 50
269.9999999999996
 51
359.9999999999993
  0
LINE
  5
7AF
330
A
100
AcDbEntity
  8
SAISEN
100
AcDbLine
 10
569.4526588783977
 20
1576.545639278412
 30
0.0
 11
335.4526588783976
 21
1576.545639278412
 31
0.0
  0
LINE
  5
7B0
330
A
100
AcDbEntity
  8
SAISEN
100
AcDbLine
 10
335.4526588783976
 20
1588.545639278412
 30
0.0
 11
569.4526588783977
 21
1588.545639278412
 31
0.0
  0
LINE
  5
7B1
330
A
100
AcDbEntity
  8
SAISEN
100
AcDbLine
 10
1169.452658878397
 20
1576.545639278412
 30
0.0
 11
935.4526588783979
 21
1576.545639278412
 31
0.0
  0
LINE
  5
7B2
330
A
100
AcDbEntity
  8
SAISEN
100
AcDbLine
 10
935.4526588783979
 20
1588.545639278412
 30
0.0
 11
1169.452658878397
 21
1588.545639278412
 31
0.0
  0
LINE
  5
893
330
A
100
AcDbEntity
  8
SOUZOU
100
AcDbLine
 10
524.5775505594216
 20
434.3121234335042
 30
0.0
 11
496.2932793119598
 21
406.0278521860426
 31
0.0
  0
LINE
  5
894
330
A
100
AcDbEntity
  8
SOUZOU
100
AcDbLine
 10
524.5775505594216
 20
434.3121234335042
 30
0.0
 11
332.4196897490057
 21
626.4699842439227
 31
0.0
  0
LINE
  5
895
330
A
100
AcDbEntity
  8
SOUZOU
100
AcDbLine
 10
306.4998186875511
 20
652.389855305377
 30
0.0
 11
301.0794544650575
 21
657.8102195278709
 31
0.0
  0
LINE
  5
896
330
A
100
AcDbEntity
  8
SOUZOU
100
AcDbLine
 10
496.2932793119598
 20
406.0278521860426
 30
0.0
 11
321.0976870638191
 21
581.2234444341851
 31
0.0
  0
LINE
  5
897
330
A
100
AcDbEntity
  8
SOUZOU
100
AcDbLine
 10
297.0836888745303
 20
605.2374426234741
 30
0.0
 11
272.7951832175958
 21
629.5259482804087
 31
0.0
  0
LINE
  5
B97
330
A
100
AcDbEntity
  8
06
100
AcDbLine
 10
377.452658878398
 20
763.1527438670693
 30
0.0
 11
377.452658878398
 21
1168.152743867069
 31
0.0
  0
LINE
  5
B98
330
A
100
AcDbEntity
  8
06
100
AcDbLine
 10
527.4526588783981
 20
763.1527438670693
 30
0.0
 11
527.4526588783983
 21
1168.152743867069
 31
0.0
  0
LINE
  5
B99
330
A
100
AcDbEntity
  8
06
100
AcDbLine
 10
382.4526588783981
 20
1173.152743867069
 30
0.0
 11
522.4526588783983
 21
1173.152743867069
 31
0.0
  0
LINE
  5
B9A
330
A
100
AcDbEntity
  8
06
100
AcDbLine
 10
377.452658878398
 20
763.1527438670693
 30
0.0
 11
382.4526588783981
 21
758.1527438670693
 31
0.0
  0
LINE
  5
B9B
330
A
100
AcDbEntity
  8
06
100
AcDbLine
 10
527.4526588783981
 20
763.1527438670693
 30
0.0
 11
522.4526588783979
 21
758.1527438670693
 31
0.0
  0
LINE
  5
B9C
330
A
100
AcDbEntity
  8
06
100
AcDbLine
 10
527.4526588783983
 20
1168.152743867069
 30
0.0
 11
522.4526588783983
 21
1173.152743867069
 31
0.0
  0
LINE
  5
B9D
330
A
100
AcDbEntity
  8
06
100
AcDbLine
 10
377.452658878398
 20
1168.152743867069
 30
0.0
 11
382.4526588783981
 21
1173.152743867069
 31
0.0
  0
ARC
  5
B9E
330
A
100
AcDbEntity
  8
06
100
AcDbCircle
 10
412.4526588783982
 20
518.1527438670691
 30
0.0
 40
10.0
100
AcDbArc
 50
89.99999999999912
 51
179.9999999999988
  0
ARC
  5
B9F
330
A
100
AcDbEntity
  8
06
100
AcDbCircle
 10
492.4526588783982
 20
438.1527438670691
 30
0.0
 40
10.0
100
AcDbArc
 50
269.9999999999996
 51
359.9999999999991
  0
ARC
  5
BA0
330
A
100
AcDbEntity
  8
06
100
AcDbCircle
 10
412.4526588783982
 20
438.1527438670691
 30
0.0
 40
10.0
100
AcDbArc
 50
179.9999999999996
 51
269.9999999999996
  0
ARC
  5
BA1
330
A
100
AcDbEntity
  8
06
100
AcDbCircle
 10
492.4526588783982
 20
518.1527438670688
 30
0.0
 40
10.0
100
AcDbArc
 50
359.9999999999993
 51
89.99999999999912
  0
LINE
  5
BA2
330
A
100
AcDbEntity
  8
06
100
AcDbLine
 10
412.4526588783982
 20
528.1527438670694
 30
0.0
 11
492.4526588783982
 21
528.1527438670694
 31
0.0
  0
LINE
  5
BA3
330
A
100
AcDbEntity
  8
06
100
AcDbLine
 10
402.4526588783983
 20
518.1527438670691
 30
0.0
 11
402.4526588783983
 21
438.152743867069
 31
0.0
  0
LINE
  5
BA4
330
A
100
AcDbEntity
  8
06
100
AcDbLine
 10
412.4526588783982
 20
428.152743867069
 30
0.0
 11
492.4526588783982
 21
428.152743867069
 31
0.0
  0
LINE
  5
BA5
330
A
100
AcDbEntity
  8
06
100
AcDbLine
 10
502.4526588783983
 20
518.1527438670688
 30
0.0
 11
502.4526588783983
 21
438.152743867069
 31
0.0
  0
CIRCLE
  5
BA6
330
A
100
AcDbEntity
  8
06
100
AcDbCircle
 10
452.4526588783983
 20
1086.652743867069
 30
0.0
 40
17.0
  0
LINE
  5
BA7
330
A
100
AcDbEntity
  8
06
100
AcDbLine
 10
427.4526588783977
 20
794.1527438670689
 30
0.0
 11
407.4526588783978
 21
794.1527438670689
 31
0.0
  0
CIRCLE
  5
BA9
330
A
100
AcDbEntity
  8
06
100
AcDbCircle
 10
452.4526588783981
 20
972.3982438670692
 30
0.0
 40
45.00000000000002
  0
LINE
  5
BAA
330
A
100
AcDbEntity
  8
06
100
AcDbLine
 10
477.4526588783981
 20
794.1527438670689
 30
0.0
 11
497.4526588783979
 21
794.1527438670689
 31
0.0
  0
CIRCLE
  5
BB1
330
A
100
AcDbEntity
  8
06
100
AcDbCircle
 10
452.4526588784063
 20
858.1527438670702
 30
0.0
 40
39.4999999999964
  0
CIRCLE
  5
BB2
330
A
100
AcDbEntity
  8
06
100
AcDbCircle
 10
452.4526588784089
 20
478.152743867071
 30
0.0
 40
39.4999999999964
  0
LINE
  5
BB3
330
A
100
AcDbEntity
  8
06
100
AcDbLine
 10
382.4526588783981
 20
758.1527438670693
 30
0.0
 11
408.0121522702618
 21
758.1527438670693
 31
0.0
  0
LINE
  5
BB4
330
A
100
AcDbEntity
  8
06
100
AcDbLine
 10
422.5585853499699
 20
758.1527438670693
 30
0.0
 11
481.8110155088829
 21
758.1527438670693
 31
0.0
  0
LINE
  5
BB5
330
A
100
AcDbEntity
  8
06
100
AcDbLine
 10
497.217559935972
 20
758.1527438670693
 30
0.0
 11
522.4526588783979
 21
758.1527438670693
 31
0.0
  0
LINE
  5
C56
330
A
100
AcDbEntity
  8
SAISEN
100
AcDbLine
 10
771.8506358058921
 20
950.1527438670702
 30
0.0
 11
771.8506358058921
 21
1430.15274386707
 31
0.0
  0
LINE
  5
C57
330
A
100
AcDbEntity
  8
SAISEN
100
AcDbLine
 10
771.8506358058921
 20
1430.15274386707
 30
0.0
 11
720.8506358058921
 21
1430.15274386707
 31
0.0
  0
LINE
  5
C58
330
A
100
AcDbEntity
  8
SAISEN
100
AcDbLine
 10
720.8506358058921
 20
950.1527438670702
 30
0.0
 11
720.8506358058921
 21
1430.15274386707
 31
0.0
  0
LINE
  5
C59
330
A
100
AcDbEntity
  8
SAISEN
100
AcDbLine
 10
771.8506358058921
 20
950.1527438670702
 30
0.0
 11
720.8506358058921
 21
950.1527438670702
 31
0.0
  0
LINE
  5
C5A
330
A
100
AcDbEntity
  8
SAISEN
100
AcDbLine
 10
764.3506358058921
 20
957.65274386707
 30
0.0
 11
764.3506358058921
 21
1422.65274386707
 31
0.0
  0
LINE
  5
C5B
330
A
100
AcDbEntity
  8
SAISEN
100
AcDbLine
 10
764.3506358058921
 20
1422.65274386707
 30
0.0
 11
728.3506358058921
 21
1422.65274386707
 31
0.0
  0
LINE
  5
C5C
330
A
100
AcDbEntity
  8
SAISEN
100
AcDbLine
 10
728.3506358058921
 20
957.65274386707
 30
0.0
 11
728.3506358058921
 21
1422.65274386707
 31
0.0
  0
LINE
  5
C5D
330
A
100
AcDbEntity
  8
SAISEN
100
AcDbLine
 10
764.3506358058921
 20
957.65274386707
 30
0.0
 11
728.3506358058921
 21
957.65274386707
 31
0.0
  0
LINE
  5
C5F
330
A
100
AcDbEntity
  8
SAISEN
100
AcDbLine
 10
136.850635805892
 20
964.6527438670698
 30
0.0
 11
136.850635805892
 21
1415.65274386707
 31
0.0
  0
LINE
  5
C60
330
A
100
AcDbEntity
  8
SAISEN
100
AcDbLine
 10
136.850635805892
 20
1415.65274386707
 30
0.0
 11
85.85063580589212
 21
1415.65274386707
 31
0.0
  0
LINE
  5
C61
330
A
100
AcDbEntity
  8
SAISEN
100
AcDbLine
 10
85.85063580589212
 20
964.6527438670698
 30
0.0
 11
85.85063580589212
 21
1415.65274386707
 31
0.0
  0
LINE
  5
C62
330
A
100
AcDbEntity
  8
SAISEN
100
AcDbLine
 10
136.850635805892
 20
964.6527438670698
 30
0.0
 11
85.85063580589212
 21
964.6527438670698
 31
0.0
  0
LINE
  5
C63
330
A
100
AcDbEntity
  8
SAISEN
100
AcDbLine
 10
129.3506358058921
 20
972.1527438670701
 30
0.0
 11
129.3506358058921
 21
1408.15274386707
 31
0.0
  0
LINE
  5
C64
330
A
100
AcDbEntity
  8
SAISEN
100
AcDbLine
 10
129.3506358058921
 20
1408.15274386707
 30
0.0
 11
93.35063580589212
 21
1408.15274386707
 31
0.0
  0
LINE
  5
C65
330
A
100
AcDbEntity
  8
SAISEN
100
AcDbLine
 10
93.35063580589212
 20
972.1527438670701
 30
0.0
 11
93.35063580589212
 21
1408.15274386707
 31
0.0
  0
LINE
  5
C66
330
A
100
AcDbEntity
  8
SAISEN
100
AcDbLine
 10
129.3506358058921
 20
972.1527438670701
 30
0.0
 11
93.35063580589212
 21
972.1527438670701
 31
0.0
  0
LINE
  5
CA6
330
A
100
AcDbEntity
  8
06
100
AcDbLine
 10
482.9626588783886
 20
742.1527438670698
 30
0.0
 11
482.9626588783886
 21
737.1527438670698
 31
0.0
  0
LINE
  5
CA7
330
A
100
AcDbEntity
  8
06
100
AcDbLine
 10
495.2126588783888
 20
737.1527438670698
 30
0.0
 11
495.9626588783886
 21
737.1527438670698
 31
0.0
  0
LINE
  5
CA8
330
A
100
AcDbEntity
  8
06
100
AcDbLine
 10
495.9626588783886
 20
737.1527438670698
 30
0.0
 11
495.9626588783886
 21
742.1527438670698
 31
0.0
  0
LINE
  5
CAF
330
A
100
AcDbEntity
  8
06
100
AcDbLine
 10
495.9626588783886
 20
607.1527438670698
 30
0.0
 11
495.9626588783886
 21
612.1527438670698
 31
0.0
  0
LINE
  5
CB1
330
A
100
AcDbEntity
  8
06
100
AcDbLine
 10
482.9626588783886
 20
612.1527438670698
 30
0.0
 11
482.9626588783886
 21
607.1527438670698
 31
0.0
  0
LINE
  5
CB8
330
A
100
AcDbEntity
  8
06
100
AcDbLine
 10
421.9426588784056
 20
742.1527438670698
 30
0.0
 11
421.9426588784056
 21
737.1527438670698
 31
0.0
  0
LINE
  5
CBA
330
A
100
AcDbEntity
  8
06
100
AcDbLine
 10
408.9426588784055
 20
737.1527438670698
 30
0.0
 11
408.9426588784055
 21
742.1527438670698
 31
0.0
  0
LINE
  5
CC1
330
A
100
AcDbEntity
  8
06
100
AcDbLine
 10
408.9426588784055
 20
607.1527438670698
 30
0.0
 11
408.9426588784055
 21
612.1527438670698
 31
0.0
  0
LINE
  5
CC2
330
A
100
AcDbEntity
  8
06
100
AcDbLine
 10
408.9426588784055
 20
612.1527438670698
 30
0.0
 11
409.6926588784056
 21
612.1527438670698
 31
0.0
  0
LINE
  5
CC3
330
A
100
AcDbEntity
  8
06
100
AcDbLine
 10
421.9426588784056
 20
612.1527438670698
 30
0.0
 11
421.9426588784056
 21
607.1527438670698
 31
0.0
  0
CIRCLE
  5
CCC
330
A
100
AcDbEntity
  8
04
100
AcDbCircle
 10
410.9526588783971
 20
1208.152743867069
 30
0.0
 40
3.5
  0
CIRCLE
  5
CD2
330
A
100
AcDbEntity
  8
04
100
AcDbCircle
 10
410.9526588783976
 20
1960.15274386707
 30
0.0
 40
3.5
  0
LINE
  5
D2C
330
A
100
AcDbEntity
  8
06
100
AcDbLine
 10
496.9526588783987
 20
787.1527438670689
 30
0.0
 11
477.9526588783986
 21
787.1527438670689
 31
0.0
  0
LINE
  5
D2D
330
A
100
AcDbEntity
  8
06
100
AcDbLine
 10
477.9526588783986
 20
787.1527438670689
 30
0.0
 11
477.9526588783986
 21
794.1527438670689
 31
0.0
  0
LINE
  5
D2E
330
A
100
AcDbEntity
  8
06
100
AcDbLine
 10
477.9526588783986
 20
794.1527438670689
 30
0.0
 11
496.9526588783987
 21
794.1527438670689
 31
0.0
  0
LINE
  5
D2F
330
A
100
AcDbEntity
  8
06
100
AcDbLine
 10
496.9526588783987
 20
794.1527438670689
 30
0.0
 11
496.9526588783987
 21
787.1527438670689
 31
0.0
  0
LINE
  5
D35
330
A
100
AcDbEntity
  8
06
100
AcDbLine
 10
426.9526588783982
 20
787.1527438670689
 30
0.0
 11
407.9526588783981
 21
787.1527438670689
 31
0.0
  0
LINE
  5
D36
330
A
100
AcDbEntity
  8
06
100
AcDbLine
 10
407.9526588783981
 20
787.1527438670689
 30
0.0
 11
407.9526588783981
 21
794.1527438670689
 31
0.0
  0
LINE
  5
D37
330
A
100
AcDbEntity
  8
06
100
AcDbLine
 10
407.9526588783981
 20
794.1527438670689
 30
0.0
 11
426.9526588783982
 21
794.1527438670689
 31
0.0
  0
LINE
  5
D38
330
A
100
AcDbEntity
  8
06
100
AcDbLine
 10
426.9526588783982
 20
794.1527438670689
 30
0.0
 11
426.9526588783982
 21
787.1527438670689
 31
0.0
  0
CIRCLE
  5
DBD
330
A
100
AcDbEntity
  8
06
100
AcDbCircle
 10
452.4526588783986
 20
858.1527438670699
 30
0.0
 40
6.5
  0
CIRCLE
  5
E01
330
A
100
AcDbEntity
  8
06
100
AcDbCircle
 10
452.4526588784015
 20
478.1527438670704
 30
0.0
 40
6.5
  0
LINE
  5
E7D
330
A
100
AcDbEntity
  8
SOUZOU
100
AcDbLine
 10
301.0794544650575
 20
657.8102195278709
 30
0.0
 11
298.9662362940721
 21
658.1156287091211
 31
0.0
  0
LINE
  5
E7E
330
A
100
AcDbEntity
  8
SOUZOU
100
AcDbLine
 10
298.9662362940721
 20
658.1156287091211
 30
0.0
 11
296.9245284676684
 21
658.2097265633946
 31
0.0
  0
LINE
  5
E7F
330
A
100
AcDbEntity
  8
SOUZOU
100
AcDbLine
 10
296.9245284676684
 20
658.2097265633946
 30
0.0
 11
295.0258413304288
 21
657.8812017637154
 31
0.0
  0
LINE
  5
E80
330
A
100
AcDbEntity
  8
SOUZOU
100
AcDbLine
 10
295.0258413304288
 20
657.8812017637154
 30
0.0
 11
293.3416852269349
 21
656.9187429831057
 31
0.0
  0
LINE
  5
E81
330
A
100
AcDbEntity
  8
SOUZOU
100
AcDbLine
 10
293.3416852269349
 20
656.9187429831057
 30
0.0
 11
291.943570501769
 21
655.1110388945898
 31
0.0
  0
LINE
  5
E82
330
A
100
AcDbEntity
  8
SOUZOU
100
AcDbLine
 10
291.943570501769
 20
655.1110388945898
 30
0.0
 11
290.8601243060298
 21
652.343127472797
 31
0.0
  0
LINE
  5
E83
330
A
100
AcDbEntity
  8
SOUZOU
100
AcDbLine
 10
290.8601243060298
 20
652.343127472797
 30
0.0
 11
289.9484410168851
 21
648.8854438987821
 31
0.0
  0
LINE
  5
E84
330
A
100
AcDbEntity
  8
SOUZOU
100
AcDbLine
 10
289.9484410168851
 20
648.8854438987821
 30
0.0
 11
289.0227318180185
 21
645.104772655205
 31
0.0
  0
LINE
  5
E85
330
A
100
AcDbEntity
  8
SOUZOU
100
AcDbLine
 10
289.0227318180185
 20
645.104772655205
 30
0.0
 11
287.8972078931151
 21
641.3678982247269
 31
0.0
  0
LINE
  5
E86
330
A
100
AcDbEntity
  8
SOUZOU
100
AcDbLine
 10
287.8972078931151
 20
641.3678982247269
 30
0.0
 11
286.3860804258584
 21
638.0416050900073
 31
0.0
  0
LINE
  5
E87
330
A
100
AcDbEntity
  8
SOUZOU
100
AcDbLine
 10
286.3860804258584
 20
638.0416050900073
 30
0.0
 11
284.3535718146083
 21
635.4056347939838
 31
0.0
  0
LINE
  5
E88
330
A
100
AcDbEntity
  8
SOUZOU
100
AcDbLine
 10
284.3535718146083
 20
635.4056347939838
 30
0.0
 11
281.8639493164232
 21
633.3915571206964
 31
0.0
  0
LINE
  5
E89
330
A
100
AcDbEntity
  8
SOUZOU
100
AcDbLine
 10
281.8639493164232
 20
633.3915571206964
 30
0.0
 11
279.0314914030367
 21
631.8438989144604
 31
0.0
  0
LINE
  5
E8A
330
A
100
AcDbEntity
  8
SOUZOU
100
AcDbLine
 10
279.0314914030367
 20
631.8438989144604
 30
0.0
 11
275.970476546183
 21
630.6071870195927
 31
0.0
  0
LINE
  5
E8B
330
A
100
AcDbEntity
  8
SOUZOU
100
AcDbLine
 10
275.970476546183
 20
630.6071870195927
 30
0.0
 11
272.7951832175958
 21
629.5259482804087
 31
0.0
  0
POLYLINE
  5
ECB
330
A
100
AcDbEntity
  8
DEFPOINTS
100
AcDb2dPolyline
 66
     1
 10
0.0
 20
0.0
 30
0.0
 70
     1
  0
VERTEX
  5
1A5B
330
ECB
100
AcDbEntity
  8
DEFPOINTS
100
AcDbVertex
100
AcDb2dVertex
 10
1490.0
 20
-0.0000000000001137
 30
0.0
  0
VERTEX
  5
1A5C
330
ECB
100
AcDbEntity
  8
DEFPOINTS
100
AcDbVertex
100
AcDb2dVertex
 10
1490.0
 20
2100.0
 30
0.0
  0
VERTEX
  5
1A5D
330
ECB
100
AcDbEntity
  8
DEFPOINTS
100
AcDbVertex
100
AcDb2dVertex
 10
0.0000000000002274
 20
2100.0
 30
0.0
  0
VERTEX
  5
1A5E
330
ECB
100
AcDbEntity
  8
DEFPOINTS
100
AcDbVertex
100
AcDb2dVertex
 10
0.0
 20
0.0
 30
0.0
  0
SEQEND
  5
1A5F
330
ECB
100
AcDbEntity
  8
DEFPOINTS
  0
DIMENSION
  5
EE4
330
A
100
AcDbEntity
  8
SUNPOU
  6
CONTINUOUS
100
AcDbDimension
  2
*D1
 10
552.4526588783974
 20
302.5387548124336
 30
0.0
 11
452.4526588783973
 21
284.778760454379
 31
0.0
 70
   160
 53
180.0
  3
SUNPOU_7
100
AcDbAlignedDimension
 13
352.4526588783972
 23
361.7527438670703
 33
0.0
 14
552.4526588783974
 24
361.7527438670703
 34
0.0
 50
180.0
100
AcDbRotatedDimension
  0
DIMENSION
  5
EF1
330
A
100
AcDbEntity
  8
SUNPOU
  6
CONTINUOUS
100
AcDbDimension
  2
*D2
 10
502.4526588783983
 20
354.8777357397738
 30
0.0
 11
452.4526588783983
 21
338.0714943268576
 31
0.0
 70
   160
 53
180.0
  3
SUNPOU_7
100
AcDbAlignedDimension
 13
402.4526588783983
 23
438.1527438670691
 33
0.0
 14
502.4526588783983
 24
438.1527438670691
 34
0.0
 50
180.0
100
AcDbRotatedDimension
  0
DIMENSION
  5
EFE
330
A
100
AcDbEntity
  8
SUNPOU
  6
CONTINUOUS
100
AcDbDimension
  2
*D3
 10
325.4526588783976
 20
528.1527438670691
 30
0.0
 11
309.7026588783976
 21
461.1911413685954
 31
0.0
 70
   160
  3
SUNPOU_7
100
AcDbAlignedDimension
 13
412.4526588783982
 23
428.152743867069
 33
0.0
 14
412.4526588783984
 24
528.1527438670691
 34
0.0
 50
90.0
100
AcDbRotatedDimension
  0
DIMENSION
  5
F0B
330
A
100
AcDbEntity
  8
SUNPOU
  6
CONTINUOUS
100
AcDbDimension
  2
*D4
 10
221.850635805892
 20
478.1527438670694
 30
0.0
 11
206.1006358058919
 21
434.1527438670698
 31
0.0
 70
    32
  3
SUNPOU_7
100
AcDbAlignedDimension
 13
354.0526588783972
 23
390.1527438670703
 33
0.0
 14
330.6449162842888
 24
478.1527438670694
 34
0.0
 50
90.0
100
AcDbRotatedDimension
  0
DIMENSION
  5
F18
330
A
100
AcDbEntity
  8
SUNPOU
  6
CONTINUOUS
100
AcDbDimension
  2
*D5
 10
221.8506358058923
 20
1990.158592404625
 30
0.0
 11
206.1006358058919
 21
1234.155668135847
 31
0.0
 70
    32
  1
W-88
  3
SUNPOU_7
100
AcDbAlignedDimension
 13
330.6449162842888
 23
478.1527438670694
 33
0.0
 14
353.915980003713
 24
1990.158592404625
 34
0.0
 50
90.0
100
AcDbRotatedDimension
  0
DIMENSION
  5
F25
330
A
100
AcDbEntity
  8
SUNPOU
  6
CONTINUOUS
100
AcDbDimension
  2
*D6
 10
181.8506358058922
 20
1990.15274386707
 30
0.0
 11
166.1006358058919
 21
1190.152743867069
 31
0.0
 70
    32
  1
W
  3
SUNPOU_7
100
AcDbAlignedDimension
 13
354.0526588783972
 23
390.1527438670703
 33
0.0
 14
354.0526588784012
 24
1990.15274386707
 34
0.0
 50
90.0
100
AcDbRotatedDimension
  0
DIMENSION
  5
F32
330
A
100
AcDbEntity
  8
SUNPOU
  6
CONTINUOUS
100
AcDbDimension
  2
*D7
 10
271.8506358058921
 20
1173.152743867069
 30
0.0
 11
256.1006358058917
 21
965.6527438670693
 31
0.0
 70
    32
  3
SUNPOU_7
100
AcDbAlignedDimension
 13
382.4526588783981
 23
758.1527438670693
 33
0.0
 14
382.4526588783981
 24
1173.152743867069
 34
0.0
 50
90.0
100
AcDbRotatedDimension
  0
DIMENSION
  5
F3F
330
A
100
AcDbEntity
  8
SUNPOU
  6
CONTINUOUS
100
AcDbDimension
  2
*D8
 10
321.8506358058921
 20
858.1527438670695
 30
0.0
 11
306.100635805892
 21
808.1527438670695
 31
0.0
 70
    32
  3
SUNPOU_7
100
AcDbAlignedDimension
 13
382.4526588783981
 23
758.1527438670693
 33
0.0
 14
384.7351208505003
 24
858.1527438670695
 34
0.0
 50
90.0
100
AcDbRotatedDimension
  0
DIMENSION
  5
F4C
330
A
100
AcDbEntity
  8
SUNPOU
  6
CONTINUOUS
100
AcDbDimension
  2
*D9
 10
321.8506358058921
 20
1173.152743867069
 30
0.0
 11
306.1006358058917
 21
1015.652743867069
 31
0.0
 70
    32
  3
SUNPOU_7
100
AcDbAlignedDimension
 13
384.7351208505003
 23
858.1527438670695
 33
0.0
 14
382.4526588783981
 24
1173.152743867069
 34
0.0
 50
90.0
100
AcDbRotatedDimension
  0
DIMENSION
  5
F59
330
A
100
AcDbEntity
  8
SUNPOU
  6
CONTINUOUS
100
AcDbDimension
  2
*D10
 10
527.4526588783983
 20
1289.972817310592
 30
0.0
 11
452.4526588783982
 21
1273.987003377768
 31
0.0
 70
   160
 53
180.0
  3
SUNPOU_7
100
AcDbAlignedDimension
 13
377.452658878398
 23
1168.152743867069
 33
0.0
 14
527.4526588783983
 24
1168.152743867069
 34
0.0
 50
180.0
100
AcDbRotatedDimension
  0
DIMENSION
  5
F66
330
A
100
AcDbEntity
  8
SUNPOU
  6
CONTINUOUS
100
AcDbDimension
  2
*D11
 10
355.4526588783975
 20
1330.158381029438
 30
0.0
 11
452.4526588783976
 21
1313.82225107046
 31
0.0
 70
   160
 53
180.0
  3
SUNPOU_7
100
AcDbAlignedDimension
 13
549.4526588783978
 23
1330.158381029438
 33
0.0
 14
355.4526588783975
 24
1330.158381029438
 34
0.0
 50
180.0
100
AcDbRotatedDimension
  0
DIMENSION
  5
F73
330
A
100
AcDbEntity
  8
SUNPOU
  6
CONTINUOUS
100
AcDbDimension
  2
*D12
 10
672.3444296448948
 20
858.1527438670695
 30
0.0
 11
656.5944296448947
 21
668.1527438670696
 31
0.0
 70
    32
  3
SUNPOU_7
100
AcDbAlignedDimension
 13
531.4677811503884
 23
478.1527438670694
 33
0.0
 14
513.8787039932894
 24
858.1527438670695
 34
0.0
 50
90.0
100
AcDbRotatedDimension
  0
DIMENSION
  5
F80
330
A
100
AcDbEntity
  8
SUNPOU
  6
CONTINUOUS
100
AcDbDimension
  2
*D13
 10
871.850635805892
 20
438.1527438670691
 30
0.0
 11
856.100635805892
 21
414.1527438670697
 31
0.0
 70
    32
  3
SUNPOU_7
100
AcDbAlignedDimension
 13
954.0526588783972
 23
390.1527438670703
 33
0.0
 14
941.2635092161647
 24
438.152743867069
 34
0.0
 50
90.0
100
AcDbRotatedDimension
  0
DIMENSION
  5
F8F
330
A
100
AcDbEntity
  8
SUNPOU
  6
CONTINUOUS
100
AcDbDimension
  2
*D14
 10
871.850635805892
 20
518.152743867069
 30
0.0
 11
856.100635805892
 21
478.1527438670691
 31
0.0
 70
    32
  3
SUNPOU_7
100
AcDbAlignedDimension
 13
941.2635092161647
 23
438.152743867069
 33
0.0
 14
941.2635092161647
 24
518.152743867069
 34
0.0
 50
90.0
100
AcDbRotatedDimension
  0
DIMENSION
  5
F9C
330
A
100
AcDbEntity
  8
SUNPOU
  6
CONTINUOUS
100
AcDbDimension
  2
*D15
 10
871.850635805892
 20
773.1527438670692
 30
0.0
 11
856.1006358058916
 21
645.6527438670693
 31
0.0
 70
    32
  3
SUNPOU_7
100
AcDbAlignedDimension
 13
941.2635092161647
 23
518.152743867069
 33
0.0
 14
941.2635092161647
 24
773.1527438670692
 34
0.0
 50
90.0
100
AcDbRotatedDimension
  0
DIMENSION
  5
FA9
330
A
100
AcDbEntity
  8
SUNPOU
  6
CONTINUOUS
100
AcDbDimension
  2
*D16
 10
871.8506358058924
 20
1158.152743867068
 30
0.0
 11
856.1006358058921
 21
965.6527438670693
 31
0.0
 70
    32
  3
SUNPOU_7
100
AcDbAlignedDimension
 13
941.2635092161647
 23
773.1527438670692
 33
0.0
 14
941.2635092161647
 24
1158.152743867068
 34
0.0
 50
90.0
100
AcDbRotatedDimension
  0
DIMENSION
  5
FB6
330
A
100
AcDbEntity
  8
SUNPOU
  6
CONTINUOUS
100
AcDbDimension
  2
*D17
 10
871.8506358058924
 20
1990.15274386707
 30
0.0
 11
856.100635805892
 21
1574.15274386707
 31
0.0
 70
    32
  1
W-768
  3
SUNPOU_7
100
AcDbAlignedDimension
 13
941.2635092161647
 23
1158.152743867068
 33
0.0
 14
954.0526588783974
 24
1990.15274386707
 34
0.0
 50
90.0
100
AcDbRotatedDimension
  0
DIMENSION
  5
FC3
330
A
100
AcDbEntity
  8
SUNPOU
  6
CONTINUOUS
100
AcDbDimension
  2
*D18
 10
821.8506358058924
 20
1990.15274386707
 30
0.0
 11
806.100635805892
 21
1190.152743867069
 31
0.0
 70
    32
  1
W
  3
SUNPOU_7
100
AcDbAlignedDimension
 13
954.0526588783972
 23
390.1527438670703
 33
0.0
 14
954.0526588784008
 24
1990.15274386707
 34
0.0
 50
90.0
100
AcDbRotatedDimension
  0
DIMENSION
  5
FD0
330
A
100
AcDbEntity
  8
SUNPOU
  6
CONTINUOUS
100
AcDbDimension
  2
*D19
 10
921.850635805892
 20
773.1527438670692
 30
0.0
 11
906.100635805892
 21
748.1527438670703
 31
0.0
 70
    32
  3
SUNPOU_7
100
AcDbAlignedDimension
 13
989.7719359868311
 23
723.1527438670707
 33
0.0
 14
941.2635092161647
 24
773.1527438670692
 34
0.0
 50
90.0
100
AcDbRotatedDimension
  0
DIMENSION
  5
FDD
330
A
100
AcDbEntity
  8
SUNPOU
  6
CONTINUOUS
100
AcDbDimension
  2
*D20
 10
921.8506358058924
 20
963.1527438670692
 30
0.0
 11
906.100635805892
 21
868.1527438670697
 31
0.0
 70
    32
  3
SUNPOU_7
100
AcDbAlignedDimension
 13
941.2635092161647
 23
773.1527438670692
 33
0.0
 14
941.2635092161647
 24
963.1527438670692
 34
0.0
 50
90.0
100
AcDbRotatedDimension
  0
DIMENSION
  5
FEA
330
A
100
AcDbEntity
  8
SUNPOU
  6
CONTINUOUS
100
AcDbDimension
  2
*D21
 10
921.8506358058924
 20
1208.152743867069
 30
0.0
 11
906.100635805892
 21
1183.152743867068
 31
0.0
 70
    32
  3
SUNPOU_7
100
AcDbAlignedDimension
 13
941.2635092161647
 23
1158.152743867068
 33
0.0
 14
998.7755167131822
 24
1208.152743867069
 34
0.0
 50
90.0
100
AcDbRotatedDimension
  0
DIMENSION
  5
FF7
330
A
100
AcDbEntity
  8
SUNPOU
  6
CONTINUOUS
100
AcDbDimension
  2
*D22
 10
1112.452658878398
 20
1356.963281888033
 30
0.0
 11
1052.452658878398
 21
1340.511354668371
 31
0.0
 70
   160
 53
180.0
  3
SUNPOU_7
100
AcDbAlignedDimension
 13
992.4526588783979
 23
1169.780420428397
 33
0.0
 14
1112.452658878398
 24
1169.780420428397
 34
0.0
 50
180.0
100
AcDbRotatedDimension
  0
DIMENSION
  5
1004
330
A
100
AcDbEntity
  8
SUNPOU
  6
CONTINUOUS
100
AcDbDimension
  2
*D23
 10
1010.952658878397
 20
1285.633466754243
 30
0.0
 11
1052.452658878396
 21
1269.510705049053
 31
0.0
 70
   160
 53
180.0
  3
SUNPOU_7
100
AcDbAlignedDimension
 13
1093.952658878396
 23
1211.991873197977
 33
0.0
 14
1010.952658878397
 24
1211.991873197977
 34
0.0
 50
180.0
100
AcDbRotatedDimension
  0
DIMENSION
  5
1011
330
A
100
AcDbEntity
  8
SUNPOU
  6
CONTINUOUS
100
AcDbDimension
  2
*D24
 10
1034.952658878396
 20
1252.984248200198
 30
0.0
 11
1052.452658878396
 21
1238.412852736572
 31
0.0
 70
   160
 53
180.0
  3
SUNPOU_7
100
AcDbAlignedDimension
 13
1069.952658878396
 23
1219.152743867069
 33
0.0
 14
1034.952658878396
 24
1219.152743867069
 34
0.0
 50
180.0
100
AcDbRotatedDimension
  0
DIMENSION
  5
102B
330
A
100
AcDbEntity
  8
SUNPOU
  6
CONTINUOUS
100
AcDbDimension
  2
*D25
 10
1129.569330878674
 20
1219.152743867069
 30
0.0
 11
1124.098269435314
 21
1268.027390920413
 31
0.0
 70
   160
  3
SUNPOU_7
100
AcDbAlignedDimension
 13
1069.952658878396
 23
1197.152743867069
 33
0.0
 14
1069.952658878396
 24
1219.152743867069
 34
0.0
 50
90.0
100
AcDbRotatedDimension
  0
DIMENSION
  5
103A
330
A
100
AcDbEntity
  8
SUNPOU
  6
CONTINUOUS
100
AcDbDimension
  2
*D26
 10
921.8506358058924
 20
1990.152743867071
 30
0.0
 11
895.6006358058919
 21
1975.15274386707
 31
0.0
 70
    32
  3
SUNPOU_7
100
AcDbAlignedDimension
 13
994.3486491568121
 23
1960.15274386707
 33
0.0
 14
954.0526588783974
 24
1990.152743867071
 34
0.0
 50
90.0
100
AcDbRotatedDimension
  0
DIMENSION
  5
1049
330
A
100
AcDbEntity
  8
SUNPOU
  6
CONTINUOUS
100
AcDbDimension
  2
*D27
 10
1093.952658878396
 20
1886.941940088282
 30
0.0
 11
1052.452658878396
 21
1867.899583330712
 31
0.0
 70
   160
 53
180.0
  3
SUNPOU_7
100
AcDbAlignedDimension
 13
1010.952658878397
 23
1956.151212811424
 33
0.0
 14
1093.952658878396
 24
1956.151212811424
 34
0.0
 50
180.0
100
AcDbRotatedDimension
  0
DIMENSION
  5
1074
330
A
100
AcDbEntity
  8
SUNPOU
  6
CONTINUOUS
100
AcDbDimension
  2
*D28
 10
1129.26107704496
 20
1971.15274386707
 30
0.0
 11
1115.388272466597
 21
1914.347136727412
 31
0.0
 70
   160
  3
SUNPOU_7
100
AcDbAlignedDimension
 13
1069.952658878396
 23
1949.15274386707
 33
0.0
 14
1069.952658878396
 24
1971.15274386707
 34
0.0
 50
90.0
100
AcDbRotatedDimension
  0
DIMENSION
  5
1083
330
A
100
AcDbEntity
  8
SUNPOU
  6
CONTINUOUS
100
AcDbDimension
  2
*D29
 10
1010.952658878397
 20
645.1537599045957
 30
0.0
 11
1052.452658878396
 21
627.8023651395487
 31
0.0
 70
   160
 53
180.0
  3
SUNPOU_7
100
AcDbAlignedDimension
 13
1093.952658878396
 23
719.1512128114262
 33
0.0
 14
1010.952658878397
 24
719.1512128114262
 34
0.0
 50
180.0
100
AcDbRotatedDimension
  0
DIMENSION
  5
1090
330
A
100
AcDbEntity
  8
SUNPOU
  6
CONTINUOUS
100
AcDbDimension
  2
*D30
 10
1069.952658878394
 20
695.6548948932167
 30
0.0
 11
1052.452658878394
 21
679.1237328743264
 31
0.0
 70
   160
 53
180.0
  3
SUNPOU_7
100
AcDbAlignedDimension
 13
1034.952658878396
 23
712.1527438670709
 33
0.0
 14
1069.952658878394
 24
712.1527438670709
 34
0.0
 50
180.0
100
AcDbRotatedDimension
  0
DIMENSION
  5
109F
330
A
100
AcDbEntity
  8
SUNPOU
  6
CONTINUOUS
100
AcDbDimension
  2
*D31
 10
1224.452658878397
 20
478.1527438670694
 30
0.0
 11
1208.702658878397
 21
434.1527438670701
 31
0.0
 70
    32
  3
SUNPOU_7
100
AcDbAlignedDimension
 13
1150.852658878397
 23
390.1527438670703
 33
0.0
 14
1082.641042470568
 24
478.1527438670694
 34
0.0
 50
90.0
100
AcDbRotatedDimension
  0
DIMENSION
  5
10AC
330
A
100
AcDbEntity
  8
SUNPOU
  6
CONTINUOUS
100
AcDbDimension
  2
*D32
 10
1149.452658878397
 20
294.5527438670702
 30
0.0
 11
1177.143230300454
 21
275.931754377896
 31
0.0
 70
   160
 53
180.0
  3
SUNPOU_7
100
AcDbAlignedDimension
 13
1152.452658878396
 23
361.7527438670703
 33
0.0
 14
1149.452658878397
 24
390.1527438670703
 34
0.0
 50
180.0
100
AcDbRotatedDimension
  0
DIMENSION
  5
10BB
330
A
100
AcDbEntity
  8
SUNPOU
  6
CONTINUOUS
100
AcDbDimension
  2
*D33
 10
955.4526588783977
 20
294.5527438670703
 30
0.0
 11
1052.452658878396
 21
278.5398500677838
 31
0.0
 70
   160
 53
180.0
  3
SUNPOU_7
100
AcDbAlignedDimension
 13
1149.452658878397
 23
390.1527438670703
 33
0.0
 14
955.4526588783977
 24
390.1527438670698
 34
0.0
 50
180.0
100
AcDbRotatedDimension
  0
DIMENSION
  5
10C8
330
A
100
AcDbEntity
  8
SUNPOU
  6
CONTINUOUS
100
AcDbDimension
  2
*D34
 10
952.4526588783972
 20
294.5527438670703
 30
0.0
 11
930.5125084085647
 21
278.5665563110851
 31
0.0
 70
   160
 53
180.0
  3
SUNPOU_7
100
AcDbAlignedDimension
 13
955.4526588783977
 23
390.1527438670698
 33
0.0
 14
952.4526588783972
 24
361.7527438670703
 34
0.0
 50
180.0
100
AcDbRotatedDimension
  0
DIMENSION
  5
10D7
330
A
100
AcDbEntity
  8
SUNPOU
  6
CONTINUOUS
100
AcDbDimension
  2
*D35
 10
1152.452658878396
 20
244.5527438670702
 30
0.0
 11
1052.452658878396
 21
226.9188169315166
 31
0.0
 70
   160
 53
180.0
  3
SUNPOU_7
100
AcDbAlignedDimension
 13
952.4526588783972
 23
361.7527438670703
 33
0.0
 14
1152.452658878396
 24
361.7527438670703
 34
0.0
 50
180.0
100
AcDbRotatedDimension
  0
DIMENSION
  5
10E4
330
A
100
AcDbEntity
  8
SUNPOU
  6
CONTINUOUS
100
AcDbDimension
  2
*D36
 10
1092.452658878397
 20
344.5527438670701
 30
0.0
 11
1052.452658878398
 21
325.0171373050107
 31
0.0
 70
   160
 53
180.0
  3
SUNPOU_7
100
AcDbAlignedDimension
 13
1012.452658878397
 23
428.152743867069
 33
0.0
 14
1092.452658878397
 24
428.152743867069
 34
0.0
 50
180.0
100
AcDbRotatedDimension
  0
LEADER
  5
10F2
330
A
100
AcDbEntity
  8
HIKIDASI
  6
CONTINUOUS
100
AcDbLeader
  3
SUNPOU_7
 73
     0
 75
     1
 40
17.5
 41
57.86666666666668
 76
     3
 10
495.5685056776302
 20
453.2373509992225
 30
0.0
 10
617.7434720070476
 20
445.8627128074169
 30
0.0
 10
617.7434720070476
 20
428.362712807417
 30
0.0
340
10F3
211
0.0000000000000001
221
1.0
231
0.0
1001
ACAD
1000
DSTYLE
1002
{
1070
     5
1000
OPEN30
1070
    77
1070
     1
1070
   147
1040
1.0
1070
   342
1005
EAB
1002
}
1000
LEANOF
1010
0.0
1020
0.0
1030
0.0
1000
LEANOF
1010
0.0
1020
0.0
1030
0.0
  0
MTEXT
  5
10F3
330
A
100
AcDbEntity
  8
HIKIDASI
  6
CONTINUOUS
 62
     6
100
AcDbMText
 10
610.7434720070474
 20
421.3627128074169
 30
0.0
 40
17.5
 41
0.0
 71
     9
 72
     1
  1
トップ軸
  7
SUNPOU
 11
0.0000000000000001
 21
1.0
 31
0.0
1001
ACAD
1000
MTEXTBEGIN
1070
    73
1070
     1
1070
    44
1040
1.0
1070
    74
1070
     0
1000
MTEXTEND
1000
MTEXTBEGIN
1070
    73
1070
     1
1070
    44
1040
1.0
1070
    74
1070
     0
1000
MTEXTEND
  0
LEADER
  5
10F5
330
A
100
AcDbEntity
  8
HIKIDASI
  6
CONTINUOUS
100
AcDbLeader
  3
SUNPOU_7
 73
     0
 75
     1
 40
17.5
 41
166.1333333333333
 76
     3
 10
496.3626588783887
 20
640.0589780472266
 30
0.0
 10
707.9398409159516
 20
602.4405010652125
 30
0.0
 10
707.9398409159516
 20
584.9405010652125
 30
0.0
340
10F6
211
0.0000000000000001
221
1.0
231
0.0
1001
ACAD
1000
DSTYLE
1002
{
1070
     5
1000
OPEN30
1070
    77
1070
     1
1070
   147
1040
1.0
1070
   342
1005
EAB
1002
}
1000
LEANOF
1010
0.0
1020
0.0
1030
0.0
1000
LEANOF
1010
0.0
1020
0.0
1030
0.0
  0
MTEXT
  5
10F6
330
A
100
AcDbEntity
  8
HIKIDASI
  6
CONTINUOUS
 62
     6
100
AcDbMText
 10
700.9398409159516
 20
577.9405010652125
 30
0.0
 40
17.5
 41
0.0
 71
     9
 72
     1
  1
チェーン張り調整金具
  7
SUNPOU
 11
0.0000000000000001
 21
1.0
 31
0.0
1001
ACAD
1000
MTEXTBEGIN
1070
    73
1070
     1
1070
    44
1040
1.0
1070
    74
1070
     0
1000
MTEXTEND
1000
MTEXTBEGIN
1070
    73
1070
     1
1070
    44
1040
1.0
1070
    74
1070
     0
1000
MTEXTEND
  0
LEADER
  5
10F7
330
A
100
AcDbEntity
  8
HIKIDASI
  6
CONTINUOUS
100
AcDbLeader
  3
SUNPOU_7
 73
     0
 75
     1
 40
17.5
 41
121.7999999999999
 76
     3
 10
493.8112927811328
 20
805.9350611010117
 30
0.0
 10
621.3155303093251
 20
824.1401865040538
 30
0.0
 10
621.3155303093251
 20
806.6401865040537
 30
0.0
340
10F8
211
0.0000000000000001
221
1.0
231
0.0
1001
ACAD
1000
DSTYLE
1002
{
1070
     5
1000
OPEN30
1070
    77
1070
     1
1070
   147
1040
1.0
1070
   342
1005
EAB
1002
}
1000
LEANOF
1010
0.0
1020
0.0
1030
0.0
1000
LEANOF
1010
0.0
1020
0.0
1030
0.0
  0
MTEXT
  5
10F8
330
A
100
AcDbEntity
  8
HIKIDASI
  6
CONTINUOUS
 62
     6
100
AcDbMText
 10
605.5655303093251
 20
799.640186504054
 30
0.0
 40
17.5
 41
0.0
 71
     6
 72
     1
  1
#35　L=320
  7
SUNPOU
 11
0.0000000000000001
 21
1.0
 31
0.0
1001
ACAD
1000
MTEXTBEGIN
1070
    73
1070
     1
1070
    44
1040
1.0
1070
    74
1070
     0
1000
MTEXTEND
1000
MTEXTBEGIN
1070
    73
1070
     1
1070
    44
1040
1.0
1070
    74
1070
     0
1000
MTEXTEND
  0
LEADER
  5
10F9
330
A
100
AcDbEntity
  8
HIKIDASI
  6
CONTINUOUS
100
AcDbLeader
  3
SUNPOU_7
 73
     0
 74
     0
 75
     1
 40
17.5
 41
93.33333333333332
 76
     3
 10
491.3513834214911
 20
925.2802657607666
 30
0.0
 10
621.3155303093254
 20
985.7684952466019
 30
0.0
 10
621.3155303093254
 20
1003.268495246601
 30
0.0
340
10FA
211
0.0000000000000001
221
1.0
231
0.0
1001
ACAD
1000
DSTYLE
1002
{
1070
     5
1000
OPEN30
1070
    77
1070
     1
1070
   147
1040
1.0
1070
   342
1005
EAB
1002
}
1000
LEANOF
1010
0.0
1020
0.0
1030
0.0
1000
LEANOF
1010
0.0
1020
0.0
1030
0.0
  0
MTEXT
  5
10FA
330
A
100
AcDbEntity
  8
HIKIDASI
  6
CONTINUOUS
 62
     6
100
AcDbMText
 10
614.3155303093252
 20
1010.268495246602
 30
0.0
 40
17.5
 41
0.0
 71
     7
 72
     1
  1
HB-SD-2
  7
SUNPOU
 11
0.0000000000000001
 21
1.0
 31
0.0
1001
ACAD
1000
MTEXTBEGIN
1070
    73
1070
     1
1070
    44
1040
1.0
1070
    74
1070
     0
1000
MTEXTEND
1000
MTEXTBEGIN
1070
    73
1070
     1
1070
    44
1040
1.0
1070
    74
1070
     0
1000
MTEXTEND
  0
LEADER
  5
10FB
330
A
100
AcDbEntity
  8
HIKIDASI
  6
CONTINUOUS
100
AcDbLeader
  3
SUNPOU_7
 73
     0
 74
     0
 75
     1
 40
17.5
 41
109.2
 76
     3
 10
436.0029638045189
 20
1211.112225189435
 30
0.0
 10
326.6836892453783
 20
1227.66682632317
 30
0.0
 10
326.6836892453783
 20
1245.16682632317
 30
0.0
340
10FC
211
0.0000000000000001
221
1.0
231
0.0
1001
ACAD
1000
DSTYLE
1002
{
1070
     5
1000
OPEN30
1070
    77
1070
     1
1070
   147
1040
1.0
1070
   342
1005
EAB
1002
}
1000
LEANOF
1010
0.0
1020
0.0
1030
0.0
1000
LEANOF
1010
0.0
1020
0.0
1030
0.0
  0
MTEXT
  5
10FC
330
A
100
AcDbEntity
  8
HIKIDASI
  6
CONTINUOUS
 62
     6
100
AcDbMText
 10
319.6836892453783
 20
1252.16682632317
 30
0.0
 40
17.5
 41
0.0
 71
     7
 72
     1
  1
吊元センサ\U+203B2
  7
SUNPOU
 11
0.0000000000000001
 21
1.0
 31
0.0
1001
ACAD
1000
MTEXTBEGIN
1070
    73
1070
     1
1070
    44
1040
1.0
1070
    74
1070
     0
1000
MTEXTEND
1000
MTEXTBEGIN
1070
    73
1070
     1
1070
    44
1040
1.0
1070
    74
1070
     0
1000
MTEXTEND
  0
LEADER
  5
10FD
330
A
100
AcDbEntity
  8
HIKIDASI
  6
CONTINUOUS
100
AcDbLeader
  3
SUNPOU_7
 73
     0
 75
     1
 40
17.5
 41
79.33333333333336
 76
     3
 10
436.1994262782192
 20
1958.674165082372
 30
0.0
 10
308.6808090959223
 20
1944.492521061926
 30
0.0
 10
308.6808090959223
 20
1926.992521061926
 30
0.0
340
10FE
211
0.0000000000000001
221
1.0
231
0.0
1001
ACAD
1000
DSTYLE
1002
{
1070
     5
1000
OPEN30
1070
    77
1070
     1
1070
   147
1040
1.0
1070
   342
1005
EAB
1002
}
1000
LEANOF
1010
0.0
1020
0.0
1030
0.0
1000
LEANOF
1010
0.0
1020
0.0
1030
0.0
  0
MTEXT
  5
10FE
330
A
100
AcDbEntity
  8
HIKIDASI
  6
CONTINUOUS
 62
     6
100
AcDbMText
 10
301.6808090959223
 20
1919.992521061925
 30
0.0
 40
17.5
 41
0.0
 71
     9
 72
     1
  1
戸先センサ
  7
SUNPOU
 11
0.0000000000000001
 21
1.0
 31
0.0
1001
ACAD
1000
MTEXTBEGIN
1070
    73
1070
     1
1070
    44
1040
1.0
1070
    74
1070
     0
1000
MTEXTEND
1000
MTEXTBEGIN
1070
    73
1070
     1
1070
    44
1040
1.0
1070
    74
1070
     0
1000
MTEXTEND
  0
LEADER
  5
10FF
330
A
100
AcDbEntity
  8
HIKIDASI
  6
CONTINUOUS
100
AcDbLeader
  3
SUNPOU_7
 73
     0
 74
     0
 75
     1
 40
17.5
 41
51.33333333333332
 76
     3
 10
1008.70993991973
 20
519.5641455804128
 30
0.0
 10
924.6803636674028
 20
533.7522015642652
 30
0.0
 10
924.6803636674028
 20
551.2522015642652
 30
0.0
340
1100
211
0.0000000000000001
221
1.0
231
0.0
1001
ACAD
1000
DSTYLE
1002
{
1070
     5
1000
OPEN30
1070
    77
1070
     1
1070
   147
1040
1.0
1070
   342
1005
EAB
1002
}
1000
LEANOF
1010
0.0
1020
0.0
1030
0.0
1000
LEANOF
1010
0.0
1020
0.0
1030
0.0
  0
MTEXT
  5
1100
330
A
100
AcDbEntity
  8
HIKIDASI
  6
CONTINUOUS
 62
     6
100
AcDbMText
 10
917.6803636674026
 20
558.2522015642651
 30
0.0
 40
17.5
 41
0.0
 71
     7
 72
     1
  1
4-M8
  7
SUNPOU
 11
0.0000000000000001
 21
1.0
 31
0.0
1001
ACAD
1000
MTEXTBEGIN
1070
    73
1070
     1
1070
    44
1040
1.0
1070
    74
1070
     0
1000
MTEXTEND
1000
MTEXTBEGIN
1070
    73
1070
     1
1070
    44
1040
1.0
1070
    74
1070
     0
1000
MTEXTEND
  0
LEADER
  5
1101
330
A
100
AcDbEntity
  8
HIKIDASI
  6
CONTINUOUS
100
AcDbLeader
  3
SUNPOU_7
 73
     0
 75
     1
 40
17.5
 41
51.33333333333332
 76
     3
 10
1008.952658878397
 20
723.1527438670707
 30
0.0
 10
923.8284976154407
 20
706.6604796161263
 30
0.0
 10
923.8284976154407
 20
689.1604796161264
 30
0.0
340
1102
211
0.0000000000000001
221
1.0
231
0.0
1001
ACAD
1000
DSTYLE
1002
{
1070
     5
1000
OPEN30
1070
    77
1070
     1
1070
   147
1040
1.0
1070
   342
1005
EAB
1002
}
1000
LEANOF
1010
0.0
1020
0.0
1030
0.0
1000
LEANOF
1010
0.0
1020
0.0
1030
0.0
  0
MTEXT
  5
1102
330
A
100
AcDbEntity
  8
SUNPOU
  6
CONTINUOUS
 62
     6
100
AcDbMText
 10
916.8284976154406
 20
682.1604796161262
 30
0.0
 40
17.5
 41
0.0
 71
     9
 72
     1
  1
2-M4
  7
SUNPOU
 11
0.0000000000000001
 21
1.0
 31
0.0
1001
ACAD
1000
MTEXTBEGIN
1070
    73
1070
     1
1070
    44
1040
1.0
1070
    74
1070
     0
1000
MTEXTEND
1000
MTEXTBEGIN
1070
    73
1070
     1
1070
    44
1040
1.0
1070
    74
1070
     0
1000
MTEXTEND
  0
DIMENSION
  5
1103
330
A
100
AcDbEntity
  8
SUNPOU
  6
CONTINUOUS
100
AcDbDimension
  2
*D37
 10
1129.821927770188
 20
734.1527438670707
 30
0.0
 11
1113.5440839092
 21
681.4062325848281
 31
0.0
 70
   160
  3
SUNPOU_7
100
AcDbAlignedDimension
 13
1069.952658878394
 23
712.1527438670709
 33
0.0
 14
1069.952658878394
 24
734.1527438670707
 34
0.0
 50
90.0
100
AcDbRotatedDimension
  0
LEADER
  5
111D
330
A
100
AcDbEntity
  8
HIKIDASI
  6
CONTINUOUS
100
AcDbLeader
  3
SUNPOU_7
 73
     0
 74
     0
 75
     1
 40
17.5
 41
35.0
 76
     3
 10
1066.113962468468
 20
484.3469979964953
 30
0.0
 10
1191.393666943331
 20
516.4862398710047
 30
0.0
 10
1191.393666943331
 20
533.9862398710047
 30
0.0
340
111E
211
0.0000000000000001
221
1.0
231
0.0
1001
ACAD
1000
DSTYLE
1002
{
1070
     5
1000
OPEN30
1070
    77
1070
     1
1070
   147
1040
1.0
1070
   342
1005
EAB
1002
}
1000
LEANOF
1010
0.0
1020
0.0
1030
0.0
1000
LEANOF
1010
0.0
1020
0.0
1030
0.0
  0
MTEXT
  5
111E
330
A
100
AcDbEntity
  8
HIKIDASI
  6
CONTINUOUS
 62
     6
100
AcDbMText
 10
1184.393666943331
 20
540.9862398710047
 30
0.0
 40
17.5
 41
0.0
 71
     7
 72
     1
  1
φ30
  7
SUNPOU
 11
0.0000000000000001
 21
1.0
 31
0.0
1001
ACAD
1000
MTEXTBEGIN
1070
    73
1070
     1
1070
    44
1040
1.0
1070
    74
1070
     0
1000
MTEXTEND
1000
MTEXTBEGIN
1070
    73
1070
     1
1070
    44
1040
1.0
1070
    74
1070
     0
1000
MTEXTEND
  0
LEADER
  5
111F
330
A
100
AcDbEntity
  8
HIKIDASI
  6
CONTINUOUS
100
AcDbLeader
  3
SUNPOU_7
 73
     0
 75
     1
 40
17.5
 41
88.66666666666665
 76
     3
 10
1060.523726325339
 20
723.1527438670706
 30
0.0
 10
1225.128844325185
 20
703.7014829055732
 30
0.0
 10
1225.128844325185
 20
686.2014829055732
 30
0.0
340
1120
211
0.0000000000000001
221
1.0
231
0.0
1001
ACAD
1000
DSTYLE
1002
{
1070
     5
1000
OPEN30
1070
    77
1070
     1
1070
   147
1040
1.0
1070
   342
1005
EAB
1002
}
1000
LEANOF
1010
0.0
1020
0.0
1030
0.0
1000
LEANOF
1010
0.0
1020
0.0
1030
0.0
  0
MTEXT
  5
1120
330
A
100
AcDbEntity
  8
HIKIDASI
  6
CONTINUOUS
 62
     6
100
AcDbMText
 10
1218.128844325184
 20
679.2014829055732
 30
0.0
 40
17.5
 41
0.0
 71
     9
 72
     1
  1
切欠き穴\U+203B1
  7
SUNPOU
 11
0.0000000000000001
 21
1.0
 31
0.0
1001
ACAD
1000
MTEXTBEGIN
1070
    73
1070
     1
1070
    44
1040
1.0
1070
    74
1070
     0
1000
MTEXTEND
1000
MTEXTBEGIN
1070
    73
1070
     1
1070
    44
1040
1.0
1070
    74
1070
     0
1000
MTEXTEND
  0
LEADER
  5
1121
330
A
100
AcDbEntity
  8
HIKIDASI
  6
CONTINUOUS
100
AcDbLeader
  3
SUNPOU_7
 73
     0
 75
     1
 40
17.5
 41
79.8
 76
     3
 10
1087.331480523358
 20
950.1824226956903
 30
0.0
 10
1199.212530735769
 20
917.1106558595598
 30
0.0
 10
1199.212530735769
 20
899.6106558595597
 30
0.0
340
1122
211
0.0000000000000001
221
1.0
231
0.0
1001
ACAD
1000
DSTYLE
1002
{
1070
     5
1000
OPEN30
1070
    77
1070
     1
1070
   147
1040
1.0
1070
   342
1005
EAB
1002
}
1000
LEANOF
1010
0.0
1020
0.0
1030
0.0
1000
LEANOF
1010
0.0
1020
0.0
1030
0.0
  0
MTEXT
  5
1122
330
A
100
AcDbEntity
  8
HIKIDASI
  6
CONTINUOUS
 62
     6
100
AcDbMText
 10
1192.212530735768
 20
892.6106558595597
 30
0.0
 40
17.5
 41
0.0
 71
     9
 72
     1
  1
FB50×6
  7
SUNPOU
 11
0.0000000000000001
 21
1.0
 31
0.0
1001
ACAD
1000
MTEXTBEGIN
1070
    73
1070
     1
1070
    44
1040
1.0
1070
    74
1070
     0
1000
MTEXTEND
1000
MTEXTBEGIN
1070
    73
1070
     1
1070
    44
1040
1.0
1070
    74
1070
     0
1000
MTEXTEND
  0
LEADER
  5
1123
330
A
100
AcDbEntity
  8
HIKIDASI
  6
CONTINUOUS
100
AcDbLeader
  3
SUNPOU_7
 73
     0
 75
     1
 40
17.5
 41
98.46666666666669
 76
     3
 10
1085.655876372652
 20
1147.190688131977
 30
0.0
 10
1199.212530735769
 20
1104.194831874579
 30
0.0
 10
1199.212530735769
 20
1086.694831874579
 30
0.0
340
1124
211
0.0000000000000001
221
1.0
231
0.0
1001
ACAD
1000
DSTYLE
1002
{
1070
     5
1000
OPEN30
1070
    77
1070
     1
1070
   147
1040
1.0
1070
   342
1005
EAB
1002
}
1000
LEANOF
1010
0.0
1020
0.0
1030
0.0
1000
LEANOF
1010
0.0
1020
0.0
1030
0.0
  0
MTEXT
  5
1124
330
A
100
AcDbEntity
  8
HIKIDASI
  6
CONTINUOUS
 62
     6
100
AcDbMText
 10
1192.212530735768
 20
1079.694831874577
 30
0.0
 40
17.5
 41
0.0
 71
     9
 72
     1
  1
L50×6(4)
  7
SUNPOU
 11
0.0000000000000001
 21
1.0
 31
0.0
1001
ACAD
1000
MTEXTBEGIN
1070
    73
1070
     1
1070
    44
1040
1.0
1070
    74
1070
     0
1000
MTEXTEND
1000
MTEXTBEGIN
1070
    73
1070
     1
1070
    44
1040
1.0
1070
    74
1070
     0
1000
MTEXTEND
  0
LEADER
  5
1125
330
A
100
AcDbEntity
  8
HIKIDASI
  6
CONTINUOUS
100
AcDbLeader
  3
SUNPOU_7
 73
     0
 74
     0
 75
     1
 40
17.5
 41
93.33333333333332
 76
     3
 10
1055.055481758107
 20
1207.500846063391
 30
0.0
 10
1192.789473248629
 20
1271.68439981072
 30
0.0
 10
1192.789473248629
 20
1289.18439981072
 30
0.0
340
1126
211
0.0000000000000001
221
1.0
231
0.0
1001
ACAD
1000
DSTYLE
1002
{
1070
     5
1000
OPEN30
1070
    77
1070
     1
1070
   147
1040
1.0
1070
   342
1005
EAB
1002
}
1000
LEANOF
1010
0.0
1020
0.0
1030
0.0
1000
LEANOF
1010
0.0
1020
0.0
1030
0.0
  0
MTEXT
  5
1126
330
A
100
AcDbEntity
  8
HIKIDASI
  6
CONTINUOUS
 62
     6
100
AcDbMText
 10
1185.78947324863
 20
1296.184399810719
 30
0.0
 40
17.5
 41
0.0
 71
     7
 72
     1
  1
切欠き穴\U+203B2
  7
SUNPOU
 11
0.0000000000000001
 21
1.0
 31
0.0
1001
ACAD
1000
MTEXTBEGIN
1070
    73
1070
     1
1070
    44
1040
1.0
1070
    74
1070
     0
1000
MTEXTEND
1000
MTEXTBEGIN
1070
    73
1070
     1
1070
    44
1040
1.0
1070
    74
1070
     0
1000
MTEXTEND
  0
LEADER
  5
1127
330
A
100
AcDbEntity
  8
HIKIDASI
  6
CONTINUOUS
100
AcDbLeader
  3
SUNPOU_7
 73
     0
 74
     0
 75
     1
 40
17.5
 41
96.13333333333333
 76
     3
 10
1059.904303713552
 20
1417.344198890722
 30
0.0
 10
1199.212530735769
 20
1459.610655859559
 30
0.0
 10
1199.212530735769
 20
1477.110655859559
 30
0.0
340
1128
211
0.0000000000000001
221
1.0
231
0.0
1001
ACAD
1000
DSTYLE
1002
{
1070
     5
1000
OPEN30
1070
    77
1070
     1
1070
   147
1040
1.0
1070
   342
1005
EAB
1002
}
1000
LEANOF
1010
0.0
1020
0.0
1030
0.0
1000
LEANOF
1010
0.0
1020
0.0
1030
0.0
  0
MTEXT
  5
1128
330
A
100
AcDbEntity
  8
HIKIDASI
  6
CONTINUOUS
 62
     6
100
AcDbMText
 10
1192.212530735768
 20
1484.110655859559
 30
0.0
 40
17.5
 41
0.0
 71
     7
 72
     1
  1
上部ガイド溝
  7
SUNPOU
 11
0.0000000000000001
 21
1.0
 31
0.0
1001
ACAD
1000
MTEXTBEGIN
1070
    73
1070
     1
1070
    44
1040
1.0
1070
    74
1070
     0
1000
MTEXTEND
1000
MTEXTBEGIN
1070
    73
1070
     1
1070
    44
1040
1.0
1070
    74
1070
     0
1000
MTEXTEND
  0
LEADER
  5
1129
330
A
100
AcDbEntity
  8
HIKIDASI
  6
CONTINUOUS
100
AcDbLeader
  3
SUNPOU_7
 73
     0
 75
     1
 40
17.5
 41
51.33333333333332
 76
     3
 10
989.0967264260352
 20
1155.97611404664
 30
0.0
 10
919.1108523459092
 20
1142.105549891152
 30
0.0
 10
919.1108523459092
 20
1124.605549891153
 30
0.0
340
112A
211
0.0000000000000001
221
1.0
231
0.0
1001
ACAD
1000
DSTYLE
1002
{
1070
     5
1000
OPEN30
1070
    77
1070
     1
1070
   147
1040
1.0
1070
   342
1005
EAB
1002
}
1000
LEANOF
1010
0.0
1020
0.0
1030
0.0
1000
LEANOF
1010
0.0
1020
0.0
1030
0.0
  0
MTEXT
  5
112A
330
A
100
AcDbEntity
  8
HIKIDASI
  6
CONTINUOUS
 62
     6
100
AcDbMText
 10
912.1108523459092
 20
1117.605549891153
 30
0.0
 40
17.5
 41
0.0
 71
     9
 72
     1
  1
4-M8
  7
SUNPOU
 11
0.0000000000000001
 21
1.0
 31
0.0
1001
ACAD
1000
MTEXTBEGIN
1070
    73
1070
     1
1070
    44
1040
1.0
1070
    74
1070
     0
1000
MTEXTEND
1000
MTEXTBEGIN
1070
    73
1070
     1
1070
    44
1040
1.0
1070
    74
1070
     0
1000
MTEXTEND
  0
LEADER
  5
112B
330
A
100
AcDbEntity
  8
HIKIDASI
  6
CONTINUOUS
100
AcDbLeader
  3
SUNPOU_7
 73
     0
 74
     0
 75
     1
 40
17.5
 41
51.33333333333332
 76
     3
 10
1009.03948795649
 20
1208.735647824484
 30
0.0
 10
921.2491578387307
 20
1217.983561595531
 30
0.0
 10
921.2491578387307
 20
1235.483561595531
 30
0.0
340
112C
211
0.0000000000000001
221
1.0
231
0.0
1001
ACAD
1000
DSTYLE
1002
{
1070
     5
1000
OPEN30
1070
    77
1070
     1
1070
   147
1040
1.0
1070
   342
1005
EAB
1002
}
1000
LEANOF
1010
0.0
1020
0.0
1030
0.0
1000
LEANOF
1010
0.0
1020
0.0
1030
0.0
  0
MTEXT
  5
112C
330
A
100
AcDbEntity
  8
HIKIDASI
  6
CONTINUOUS
 62
     6
100
AcDbMText
 10
914.2491578387307
 20
1242.48356159553
 30
0.0
 40
17.5
 41
0.0
 71
     7
 72
     1
  1
2-M4
  7
SUNPOU
 11
0.0000000000000001
 21
1.0
 31
0.0
1001
ACAD
1000
MTEXTBEGIN
1070
    73
1070
     1
1070
    44
1040
1.0
1070
    74
1070
     0
1000
MTEXTEND
1000
MTEXTBEGIN
1070
    73
1070
     1
1070
    44
1040
1.0
1070
    74
1070
     0
1000
MTEXTEND
  0
LEADER
  5
112D
330
A
100
AcDbEntity
  8
HIKIDASI
  6
CONTINUOUS
100
AcDbLeader
  3
SUNPOU_7
 73
     0
 75
     1
 40
17.5
 41
51.33333333333332
 76
     3
 10
1008.952658878397
 20
1960.15274386707
 30
0.0
 10
989.4790693846408
 20
1929.175485562492
 30
0.0
 10
989.4790693846408
 20
1911.675485562492
 30
0.0
340
112E
211
0.0000000000000001
221
1.0
231
0.0
1001
ACAD
1000
DSTYLE
1002
{
1070
     5
1000
OPEN30
1070
    77
1070
     1
1070
   147
1040
1.0
1070
   342
1005
EAB
1002
}
1000
LEANOF
1010
0.0
1020
0.0
1030
0.0
1000
LEANOF
1010
0.0
1020
0.0
1030
0.0
  0
MTEXT
  5
112E
330
A
100
AcDbEntity
  8
HIKIDASI
  6
CONTINUOUS
 62
     6
100
AcDbMText
 10
982.4790693846408
 20
1904.675485562492
 30
0.0
 40
17.5
 41
0.0
 71
     9
 72
     1
  1
2-M4
  7
SUNPOU
 11
0.0000000000000001
 21
1.0
 31
0.0
1001
ACAD
1000
MTEXTBEGIN
1070
    73
1070
     1
1070
    44
1040
1.0
1070
    74
1070
     0
1000
MTEXTEND
1000
MTEXTBEGIN
1070
    73
1070
     1
1070
    44
1040
1.0
1070
    74
1070
     0
1000
MTEXTEND
  0
LEADER
  5
112F
330
A
100
AcDbEntity
  8
HIKIDASI
  6
CONTINUOUS
100
AcDbLeader
  3
SUNPOU_7
 73
     0
 75
     1
 40
17.5
 41
67.2
 76
     3
 10
1060.523726325339
 20
1960.15274386707
 30
0.0
 10
1192.829044553991
 20
1923.144091452318
 30
0.0
 10
1192.829044553991
 20
1905.644091452318
 30
0.0
340
1130
211
0.0000000000000001
221
1.0
231
0.0
1001
ACAD
1000
DSTYLE
1002
{
1070
     5
1000
OPEN30
1070
    77
1070
     1
1070
   147
1040
1.0
1070
   342
1005
EAB
1002
}
1000
LEANOF
1010
0.0
1020
0.0
1030
0.0
1000
LEANOF
1010
0.0
1020
0.0
1030
0.0
  0
MTEXT
  5
1130
330
A
100
AcDbEntity
  8
HIKIDASI
  6
CONTINUOUS
 62
     6
100
AcDbMText
 10
1185.829044553992
 20
1898.644091452318
 30
0.0
 40
17.5
 41
0.0
 71
     9
 72
     1
  1
切欠き穴
  7
SUNPOU
 11
0.0000000000000001
 21
1.0
 31
0.0
1001
ACAD
1000
MTEXTBEGIN
1070
    73
1070
     1
1070
    44
1040
1.0
1070
    74
1070
     0
1000
MTEXTEND
1000
MTEXTBEGIN
1070
    73
1070
     1
1070
    44
1040
1.0
1070
    74
1070
     0
1000
MTEXTEND
  0
LEADER
  5
1132
330
A
100
AcDbEntity
  8
HIKIDASI
  6
CONTINUOUS
100
AcDbLeader
  3
SUNPOU_7
 73
     0
 74
     0
 75
     1
 40
17.5
 41
121.7999999999999
 76
     3
 10
410.9426588784056
 20
550.5777438670698
 30
0.0
 10
272.3070359241526
 20
570.7109898881297
 30
0.0
 10
272.3070359241526
 20
588.2109898881297
 30
0.0
340
1133
211
0.0000000000000001
221
1.0
231
0.0
1001
ACAD
1000
DSTYLE
1002
{
1070
     5
1000
OPEN30
1070
    77
1070
     1
1070
   147
1040
1.0
1070
   342
1005
EAB
1002
}
1000
LEANOF
1010
0.0
1020
0.0
1030
0.0
1000
LEANOF
1010
0.0
1020
0.0
1030
0.0
  0
MTEXT
  5
1133
330
A
100
AcDbEntity
  8
HIKIDASI
  6
CONTINUOUS
 62
     6
100
AcDbMText
 10
256.5570359241525
 20
595.2109898881296
 30
0.0
 40
17.5
 41
0.0
 71
     4
 72
     1
  1
#35　L=320
  7
SUNPOU
 11
0.0000000000000001
 21
1.0
 31
0.0
1001
ACAD
1000
MTEXTBEGIN
1070
    73
1070
     1
1070
    44
1040
1.0
1070
    74
1070
     0
1000
MTEXTEND
1000
MTEXTBEGIN
1070
    73
1070
     1
1070
    44
1040
1.0
1070
    74
1070
     0
1000
MTEXTEND
  0
MTEXT
  5
1134
330
A
100
AcDbEntity
  8
HIKIDASI
  6
CONTINUOUS
 62
     6
100
AcDbMText
 10
310.7999475484985
 20
687.9351359145405
 30
0.0
 40
17.5
 41
0.0
 71
     6
 72
     1
  1
吊元センサ\U+203B1
  7
SUNPOU
 11
0.0000000000000001
 21
1.0
 31
0.0
1001
ACAD
1000
MTEXTBEGIN
1070
    73
1070
     1
1070
    44
1040
1.0
1070
    74
1070
     0
1000
MTEXTEND
1000
MTEXTBEGIN
1070
    73
1070
     1
1070
    44
1040
1.0
1070
    74
1070
     0
1000
MTEXTEND
  0
LEADER
  5
1135
330
A
100
AcDbEntity
  8
HIKIDASI
  6
CONTINUOUS
100
AcDbLeader
  3
SUNPOU_7
 73
     0
 75
     1
 40
17.5
 41
104.5333333333333
 76
     3
 10
456.0379514474213
 20
720.5635621992631
 30
0.0
 10
326.5499475484983
 20
712.4351359145405
 30
0.0
 10
326.5499475484983
 20
694.9351359145405
 30
0.0
340
1134
211
0.0000000000000001
221
1.0
231
0.0
1001
ACAD
1000
DSTYLE
1002
{
1070
     5
1000
OPEN30
1070
    77
1070
     1
1070
   147
1040
1.0
1070
   342
1005
EAB
1002
}
1000
LEANOF
1010
0.0
1020
0.0
1030
0.0
1000
LEANOF
1010
0.0
1020
0.0
1030
0.0
  0
MTEXT
  5
1136
330
A
100
AcDbEntity
  8
MOJI
  6
CONTINUOUS
100
AcDbMText
 10
886.2343258212414
 20
258.400219226585
 30
0.0
 40
17.5
 41
0.0
 71
     5
 72
     1
  1
(両端)
  7
0_8
 11
0.0000000000000001
 21
1.0
 31
0.0
1001
ACAD
1000
MTEXTBEGIN
1070
    73
1070
     1
1070
    44
1040
1.0
1070
    74
1070
     0
1000
MTEXTEND
1000
MTEXTBEGIN
1070
    73
1070
     1
1070
    44
1040
1.0
1070
    74
1070
     0
1000
MTEXTEND
  0
MTEXT
  5
1138
330
A
100
AcDbEntity
  8
MOJI
  6
CONTINUOUS
100
AcDbMText
 10
110.9749808775013
 20
1190.152743867069
 30
0.0
 40
30.0
 41
436.0
 71
     5
 72
     1
  1
HB-SD-2（片開）横断面図
 11
0.0000000000000001
 21
1.0
 31
0.0
1001
ACAD
1000
MTEXTBEGIN
1070
    73
1070
     1
1070
    44
1040
1.0
1070
    74
1070
     0
1000
MTEXTEND
1000
MTEXTBEGIN
1070
    73
1070
     1
1070
    44
1040
1.0
1070
    74
1070
     0
1000
MTEXTEND
  0
MTEXT
  5
113A
330
A
100
AcDbEntity
  8
MOJI
  6
CONTINUOUS
100
AcDbMText
 10
746.6489911631851
 20
1190.152743867069
 30
0.0
 40
30.0
 41
436.0
 71
     5
 72
     1
  1
HB-SD-2（片開）FB配置図
 11
0.0000000000000001
 21
1.0
 31
0.0
1001
ACAD
1000
MTEXTBEGIN
1070
    73
1070
     1
1070
    44
1040
1.0
1070
    74
1070
     0
1000
MTEXTEND
1000
MTEXTBEGIN
1070
    73
1070
     1
1070
    44
1040
1.0
1070
    74
1070
     0
1000
MTEXTEND
  0
MTEXT
  5
113B
330
A
100
AcDbEntity
  8
MOJI
  6
CONTINUOUS
100
AcDbMText
 10
1344.479651217293
 20
357.0975919768386
 30
0.0
 40
20.0
 41
771.5404
 71
     4
 72
     1
  1
注1.W=850～1200の場合は、吊元センサ\U+203B1の取付位置で使用して下さい。\P　　又W=1200～1500の場合は、吊元センサ\U+203B2の取付位置で使用して下さい。\P注2.吊元側切欠き穴からローラを挿入してガイドローラベースの軸に固定し下さい。
 11
0.0000000000000001
 21
1.0
 31
0.0
1001
ACAD
1000
MTEXTBEGIN
1070
    73
1070
     1
1070
    44
1040
1.0
1070
    74
1070
     0
1000
MTEXTEND
1000
MTEXTBEGIN
1070
    73
1070
     1
1070
    44
1040
1.0
1070
    74
1070
     0
1000
MTEXTEND
  0
MTEXT
  5
116C
330
A
100
AcDbEntity
  8
HIKIDASI
  6
CONTINUOUS
 62
     6
100
AcDbMText
 10
610.5927057262661
 20
1169.087337758818
 30
0.0
 40
17.5
 41
0.0
 71
     1
 72
     1
  1
点検口
  7
SUNPOU
 11
0.0000000000000001
 21
1.0
 31
0.0
1001
ACAD
1000
MTEXTBEGIN
1070
    73
1070
     1
1070
    44
1040
1.0
1070
    74
1070
     0
1000
MTEXTEND
1000
MTEXTBEGIN
1070
    73
1070
     1
1070
    44
1040
1.0
1070
    74
1070
     0
1000
MTEXTEND
  0
MTEXT
  5
1171
330
A
100
AcDbEntity
  8
HIKIDASI
  6
CONTINUOUS
 62
     6
100
AcDbMText
 10
1245.045090671867
 20
1169.087337758818
 30
0.0
 40
17.5
 41
0.0
 71
     1
 72
     1
  1
点検口
  7
SUNPOU
 11
0.0000000000000001
 21
1.0
 31
0.0
1001
ACAD
1000
MTEXTBEGIN
1070
    73
1070
     1
1070
    44
1040
1.0
1070
    74
1070
     0
1000
MTEXTEND
1000
MTEXTBEGIN
1070
    73
1070
     1
1070
    44
1040
1.0
1070
    74
1070
     0
1000
MTEXTEND
  0
INSERT
  5
191D
330
A
100
AcDbEntity
  8
06
  6
CONTINUOUS
100
AcDbBlockReference
  2
*X38
 10
0.0
 20
0.0
 30
0.0
1001
ACAD
1000
HATCH
1002
{
1070
    19
1000
ANSI31
1040
40.0
1040
0.0
1000
ASC_BOUNDS
1070
     4
1070
     1
1070
     4
1005
64B
1005
634
1005
5A7
1005
567
1070
     1
1070
     4
1005
5A8
1005
634
1005
64B
1005
567
1070
     1
1070
     4
1005
5A8
1005
566
1005
64B
1005
634
1070
     1
1070
     4
1005
64B
1005
566
1005
5A7
1005
634
1000
ASC_SEEDPOINT
1011
1048.26014424648
1021
718.0028686991754
1031
0.0
1000
R14_HATCH_DATA
1000
191D
1011
1.0
1021
0.0
1031
0.0
1011
0.0
1021
1.0
1031
0.0
1011
0.0
1021
0.0
1031
1.0
1040
0.0
1010
0.0
1020
0.0
1030
1.0
1000
ANSI31
1070
     0
1070
     1
1071
        4
1071
        7
1070
     0
1070
     1
1071
        4
1040
1052.452658878396
1040
723.1527438670707
1040
1034.952658878394
1040
723.1527438670711
1040
1034.952658878394
1040
712.1527438670709
1040
1052.452658878396
1040
712.1527438670707
1071
        4
1005
634
1005
5A7
1005
566
1005
64B
1071
        7
1070
     0
1070
     1
1071
        4
1040
1069.952658878394
1040
723.1527438670707
1040
1052.452658878396
1040
723.1527438670707
1040
1052.452658878396
1040
712.1527438670709
1040
1069.952658878394
1040
712.1527438670709
1071
        4
1005
634
1005
64B
1005
566
1005
5A8
1071
        7
1070
     0
1070
     1
1071
        4
1040
1069.952658878394
1040
734.1527438670707
1040
1052.452658878396
1040
734.1527438670707
1040
1052.452658878396
1040
723.1527438670707
1040
1069.952658878394
1040
723.1527438670707
1071
        4
1005
567
1005
64B
1005
634
1005
5A8
1071
        7
1070
     0
1070
     1
1071
        4
1040
1052.452658878396
1040
734.1527438670707
1040
1034.952658878394
1040
734.1527438670707
1040
1034.952658878394
1040
723.1527438670707
1040
1052.452658878396
1040
723.1527438670707
1071
        4
1005
567
1005
5A7
1005
634
1005
64B
1070
     0
1070
     1
1040
0.0
1040
40.0
1070
     0
1070
     1
1040
0.7853981633974483
1040
0.0
1040
0.0
1040
-3.535533905932736
1040
3.535533905932736
1070
     0
1040
0.0964055683678781
1071
        4
1040
1048.26014424648
1040
718.0028686991754
1040
0.0
1040
1059.930359730332
1040
718.0028686991754
1040
0.0
1040
1058.387190287983
1040
728.4146754742704
1040
0.0
1040
1043.823536208416
1040
729.7643499600581
1040
0.0
1002
}
  0
INSERT
  5
1930
330
A
100
AcDbEntity
  8
06
  6
CONTINUOUS
100
AcDbBlockReference
  2
*X39
 10
0.0
 20
0.0
 30
0.0
1001
ACAD
1000
HATCH
1002
{
1070
    19
1000
ANSI31
1040
40.0
1040
0.0
1000
ASC_BOUNDS
1070
     4
1070
     1
1070
     4
1005
644
1005
637
1005
59F
1005
573
1070
     1
1070
     4
1005
5A0
1005
637
1005
644
1005
573
1070
     1
1070
     4
1005
5A0
1005
572
1005
644
1005
637
1070
     1
1070
     4
1005
644
1005
572
1005
59F
1005
637
1000
ASC_SEEDPOINT
1011
1050.213010411876
1021
1956.10307375134
1031
0.0
1000
R14_HATCH_DATA
1000
1930
1011
1.0
1021
0.0
1031
0.0
1011
0.0
1021
1.0
1031
0.0
1011
0.0
1021
0.0
1031
1.0
1040
0.0
1010
0.0
1020
0.0
1030
1.0
1000
ANSI31
1070
     0
1070
     1
1071
        4
1071
        7
1070
     0
1070
     1
1071
        4
1040
1052.452658878396
1040
1960.15274386707
1040
1034.952658878397
1040
1960.15274386707
1040
1034.952658878397
1040
1949.15274386707
1040
1052.452658878396
1040
1949.15274386707
1071
        4
1005
637
1005
59F
1005
572
1005
644
1071
        7
1070
     0
1070
     1
1071
        4
1040
1069.952658878396
1040
1960.15274386707
1040
1052.452658878396
1040
1960.15274386707
1040
1052.452658878396
1040
1949.15274386707
1040
1069.952658878396
1040
1949.15274386707
1071
        4
1005
637
1005
644
1005
572
1005
5A0
1071
        7
1070
     0
1070
     1
1071
        4
1040
1069.952658878396
1040
1971.15274386707
1040
1052.452658878396
1040
1971.15274386707
1040
1052.452658878396
1040
1960.15274386707
1040
1069.952658878396
1040
1960.15274386707
1071
        4
1005
573
1005
644
1005
637
1005
5A0
1071
        7
1070
     0
1070
     1
1071
        4
1040
1052.452658878396
1040
1971.15274386707
1040
1034.952658878397
1040
1971.15274386707
1040
1034.952658878397
1040
1960.15274386707
1040
1052.452658878396
1040
1960.15274386707
1071
        4
1005
573
1005
59F
1005
637
1005
644
1070
     0
1070
     1
1040
0.0
1040
40.0
1070
     0
1070
     1
1040
0.7853981633974483
1040
0.0
1040
0.0
1040
-3.535533905932736
1040
3.535533905932736
1070
     0
1040
0.1117553691078758
1071
        4
1040
1050.213010411876
1040
1956.10307375134
1040
0.0
1040
1057.703909547216
1040
1955.320785998624
1040
0.0
1040
1058.710155289596
1040
1965.155255838195
1040
0.0
1040
1046.411649781233
1040
1966.384568738387
1040
0.0
1002
}
  0
LINE
  5
1937
330
A
100
AcDbEntity
  8
06
  6
CONTINUOUS
100
AcDbLine
 10
411.4426588784056
 20
742.1527438670698
 30
0.0
 11
408.9426588784055
 21
742.1527438670698
 31
0.0
  0
LINE
  5
1938
330
A
100
AcDbEntity
  8
06
  6
CONTINUOUS
100
AcDbLine
 10
419.4426588784056
 20
742.1527438670698
 30
0.0
 11
421.9426588784056
 21
742.1527438670698
 31
0.0
  0
LINE
  5
1939
330
A
100
AcDbEntity
  8
06
  6
CONTINUOUS
100
AcDbLine
 10
421.9426588784056
 20
737.1527438670698
 30
0.0
 11
421.1926588784056
 21
737.1527438670698
 31
0.0
  0
LINE
  5
193A
330
A
100
AcDbEntity
  8
06
  6
CONTINUOUS
100
AcDbLine
 10
408.9426588784055
 20
737.1527438670698
 30
0.0
 11
409.6926588784056
 21
737.1527438670698
 31
0.0
  0
LINE
  5
193B
330
A
100
AcDbEntity
  8
06
100
AcDbLine
 10
421.1926588784056
 20
612.1527438670698
 30
0.0
 11
421.9426588784056
 21
612.1527438670698
 31
0.0
  0
LINE
  5
193C
330
A
100
AcDbEntity
  8
06
  6
CONTINUOUS
100
AcDbLine
 10
408.9426588784055
 20
607.1527438670698
 30
0.0
 11
411.4426588784056
 21
607.1527438670698
 31
0.0
  0
LINE
  5
193D
330
A
100
AcDbEntity
  8
06
  6
CONTINUOUS
100
AcDbLine
 10
419.4426588784056
 20
607.1527438670698
 30
0.0
 11
421.9426588784056
 21
607.1527438670698
 31
0.0
  0
LINE
  5
193E
330
A
100
AcDbEntity
  8
06
  6
CONTINUOUS
100
AcDbLine
 10
482.9626588783886
 20
737.1527438670698
 30
0.0
 11
483.7126588783887
 21
737.1527438670698
 31
0.0
  0
LINE
  5
193F
330
A
100
AcDbEntity
  8
06
  6
CONTINUOUS
100
AcDbLine
 10
485.4626588783886
 20
742.1527438670698
 30
0.0
 11
482.9626588783886
 21
742.1527438670698
 31
0.0
  0
LINE
  5
1940
330
A
100
AcDbEntity
  8
06
  6
CONTINUOUS
100
AcDbLine
 10
493.4626588783888
 20
742.1527438670698
 30
0.0
 11
495.9626588783886
 21
742.1527438670698
 31
0.0
  0
LINE
  5
1941
330
A
100
AcDbEntity
  8
06
  6
CONTINUOUS
100
AcDbLine
 10
482.9626588783886
 20
612.1527438670698
 30
0.0
 11
483.7126588783887
 21
612.1527438670698
 31
0.0
  0
LINE
  5
1942
330
A
100
AcDbEntity
  8
06
  6
CONTINUOUS
100
AcDbLine
 10
495.2126588783888
 20
612.1527438670698
 30
0.0
 11
495.9626588783886
 21
612.1527438670698
 31
0.0
  0
LINE
  5
1943
330
A
100
AcDbEntity
  8
06
  6
CONTINUOUS
100
AcDbLine
 10
495.9626588783886
 20
607.1527438670698
 30
0.0
 11
493.4626588783888
 21
607.1527438670698
 31
0.0
  0
LINE
  5
1944
330
A
100
AcDbEntity
  8
06
  6
CONTINUOUS
100
AcDbLine
 10
482.9626588783886
 20
607.1527438670698
 30
0.0
 11
485.4626588783886
 21
607.1527438670698
 31
0.0
  0
INSERT
  5
1957
330
A
100
AcDbEntity
  8
06
  6
CONTINUOUS
100
AcDbBlockReference
  2
*X40
 10
0.0
 20
0.0
 30
0.0
1001
ACAD
1000
HATCH
1002
{
1070
    19
1000
ANSI31
1040
40.0
1040
0.0
1000
ASC_BOUNDS
1070
     4
1070
     1
1070
     4
1005
64B
1005
57A
1005
5B4
1005
639
1070
     1
1070
     4
1005
5B6
1005
57A
1005
64B
1005
639
1070
     1
1070
     4
1005
5B6
1005
639
1005
64B
1005
57B
1070
     1
1070
     4
1005
64B
1005
639
1005
5B4
1005
57B
1000
ASC_SEEDPOINT
1011
1050.628105112511
1021
1212.572518026058
1031
0.0
1000
R14_HATCH_DATA
1000
1957
1011
1.0
1021
0.0
1031
0.0
1011
0.0
1021
1.0
1031
0.0
1011
0.0
1021
0.0
1031
1.0
1040
0.0
1010
0.0
1020
0.0
1030
1.0
1000
ANSI31
1070
     0
1070
     1
1071
        4
1071
        7
1070
     0
1070
     1
1071
        4
1040
1052.452658878396
1040
1219.152743867069
1040
1034.952658878396
1040
1219.152743867069
1040
1034.952658878396
1040
1208.152743867069
1040
1052.452658878396
1040
1208.152743867069
1071
        4
1005
57B
1005
5B4
1005
639
1005
64B
1071
        7
1070
     0
1070
     1
1071
        4
1040
1069.952658878396
1040
1219.152743867069
1040
1052.452658878396
1040
1219.152743867069
1040
1052.452658878396
1040
1208.152743867069
1040
1069.952658878396
1040
1208.152743867069
1071
        4
1005
57B
1005
64B
1005
639
1005
5B6
1071
        7
1070
     0
1070
     1
1071
        4
1040
1069.952658878396
1040
1208.152743867069
1040
1052.452658878396
1040
1208.152743867069
1040
1052.452658878396
1040
1197.152743867069
1040
1069.952658878396
1040
1197.152743867069
1071
        4
1005
639
1005
64B
1005
57A
1005
5B6
1071
        7
1070
     0
1070
     1
1071
        4
1040
1052.452658878396
1040
1208.152743867069
1040
1034.952658878396
1040
1208.152743867069
1040
1034.952658878396
1040
1197.152743867069
1040
1052.452658878396
1040
1197.152743867069
1071
        4
1005
639
1005
5B4
1005
57A
1005
64B
1070
     0
1070
     1
1040
0.0
1040
40.0
1070
     0
1070
     1
1040
0.7853981633974483
1040
0.0
1040
0.0
1040
-3.535533905932736
1040
3.535533905932736
1070
     0
1040
0.0860289033295046
1071
        4
1040
1050.628105112511
1040
1212.572518026058
1040
0.0
1040
1056.394575515521
1040
1213.690890221569
1040
0.0
1040
1055.706045666569
1040
1203.281392090285
1040
0.0
1040
1047.271498815379
1040
1203.71154088407
1040
0.0
1002
}
  0
LEADER
  5
197A
330
A
100
AcDbEntity
  8
HIKIDASI
  6
CONTINUOUS
100
AcDbLeader
  3
SUNPOU_7
 76
     2
 10
563.0965836829409
 20
1191.492675029046
 30
0.0
 10
604.9415433257372
 20
1191.492675029046
 30
0.0
1001
ACAD
1000
DSTYLE
1002
{
1070
     5
1000
OPEN30
1070
   342
1005
EAB
1002
}
1000
LEANOF
1010
0.0
1020
0.0
1030
0.0
1000
LEANOF
1010
0.0
1020
0.0
1030
0.0
  0
LEADER
  5
197B
330
A
100
AcDbEntity
  8
HIKIDASI
  6
CONTINUOUS
100
AcDbLeader
  3
SUNPOU_7
 76
     2
 10
1196.615179912672
 20
1191.632886377182
 30
0.0
 10
1237.498024284596
 20
1191.632886377182
 30
0.0
1001
ACAD
1000
DSTYLE
1002
{
1070
     5
1000
OPEN30
1070
   342
1005
EAB
1002
}
1000
LEANOF
1010
0.0
1020
0.0
1030
0.0
1000
LEANOF
1010
0.0
1020
0.0
1030
0.0
  0
MTEXT
  5
19FE
330
A
100
AcDbEntity
  8
MOJI
100
AcDbMText
 10
1094.999999999999
 20
102.0000000000001
 30
0.0
 40
24.5
 41
175.0
 71
     5
 72
     1
  1
図番１１－５
  7
0_80
1001
ACAD
1000
MTEXTBEGIN
1070
    73
1070
     1
1070
    44
1040
1.0
1070
    74
1070
     0
1000
MTEXTEND
1000
MTEXTBEGIN
1070
    73
1070
     1
1070
    44
1040
1.0
1070
    74
1070
     0
1000
MTEXTEND
  0
MTEXT
  5
19FF
330
A
100
AcDbEntity
  8
MOJI
100
AcDbMText
 10
1270.0
 20
102.0000000000001
 30
0.0
 40
22.74999999999999
 41
174.9999999999998
 71
     5
 72
     1
  1
ＤＤよこ断面図\PＦＢ配置図　　
  7
0_80
1001
ACAD
1000
MTEXTBEGIN
1070
    73
1070
     1
1070
    44
1040
1.0
1070
    74
1070
     0
1000
MTEXTEND
1000
MTEXTBEGIN
1070
    73
1070
     1
1070
    44
1040
1.0
1070
    74
1070
     0
1000
MTEXTEND
  0
MTEXT
  5
1A00
330
A
100
AcDbEntity
  8
MOJI
100
AcDbMText
 10
657.5
 20
102.0000000000004
 30
0.0
 40
24.5
 41
280.0
 71
     5
 72
     1
  1
ＨＢ－ＳＤ－２
  7
0_8
1001
ACAD
1000
MTEXTBEGIN
1070
    73
1070
     1
1070
    44
1040
1.0
1070
    74
1070
     0
1000
MTEXTEND
1000
MTEXTBEGIN
1070
    73
1070
     1
1070
    44
1040
1.0
1070
    74
1070
     0
1000
MTEXTEND
  0
POLYLINE
  5
1A01
330
A
100
AcDbEntity
  8
SAISEN
100
AcDb2dPolyline
 66
     1
 10
0.0
 20
0.0
 30
0.0
 70
     1
  0
VERTEX
  5
1A60
330
1A01
100
AcDbEntity
  8
SAISEN
100
AcDbVertex
100
AcDb2dVertex
 10
132.4999999999997
 20
59.99999999999993
 30
0.0
  0
VERTEX
  5
1A61
330
1A01
100
AcDbEntity
  8
SAISEN
100
AcDbVertex
100
AcDb2dVertex
 10
1357.5
 20
59.99999999999993
 30
0.0
  0
VERTEX
  5
1A62
330
1A01
100
AcDbEntity
  8
SAISEN
100
AcDbVertex
100
AcDb2dVertex
 10
1357.5
 20
144.0000000000006
 30
0.0
  0
VERTEX
  5
1A63
330
1A01
100
AcDbEntity
  8
SAISEN
100
AcDbVertex
100
AcDb2dVertex
 10
132.4999999999997
 20
144.0000000000006
 30
0.0
  0
SEQEND
  5
1A64
330
1A01
100
AcDbEntity
  8
SAISEN
  0
MTEXT
  5
1A02
330
A
100
AcDbEntity
  8
MOJI
100
AcDbMText
 10
324.9999999999999
 20
102.0000000000004
 30
0.0
 40
24.5
 41
385.0
 71
     5
 72
     1
  1
折り戸納り
  7
0_8
1001
ACAD
1000
MTEXTBEGIN
1070
    73
1070
     1
1070
    44
1040
1.0
1070
    74
1070
     0
1000
MTEXTEND
1000
MTEXTBEGIN
1070
    73
1070
     1
1070
    44
1040
1.0
1070
    74
1070
     0
1000
MTEXTEND
  0
LINE
  5
1A03
330
A
100
AcDbEntity
  8
SAISEN
100
AcDbLine
 10
517.4999999999998
 20
144.0000000000003
 30
0.0
 11
517.4999999999998
 21
59.99999999999993
 31
0.0
  0
MTEXT
  5
1A04
330
A
100
AcDbEntity
  8
MOJI
100
AcDbMText
 10
902.5000000000103
 20
102.0000000000004
 30
0.0
 40
24.5
 41
210.0
 71
     5
 72
     1
  1
片折り戸
  7
0_8
1001
ACAD
1000
MTEXTBEGIN
1070
    73
1070
     1
1070
    44
1040
1.0
1070
    74
1070
     0
1000
MTEXTEND
1000
MTEXTBEGIN
1070
    73
1070
     1
1070
    44
1040
1.0
1070
    74
1070
     0
1000
MTEXTEND
  0
LINE
  5
1A05
330
A
100
AcDbEntity
  8
SAISEN
100
AcDbLine
 10
797.4999999999996
 20
144.0000000000003
 30
0.0
 11
797.4999999999996
 21
59.99999999999993
 31
0.0
  0
LINE
  5
1A06
330
A
100
AcDbEntity
  8
SAISEN
100
AcDbLine
 10
1007.5
 20
144.0000000000003
 30
0.0
 11
1007.5
 21
59.99999999999993
 31
0.0
  0
CIRCLE
  5
1A10
330
A
100
AcDbEntity
  8
SAISEN
100
AcDbCircle
 10
1378.841733274513
 20
173.9005924428106
 30
0.0
 40
17.5
  0
TEXT
  5
1A11
330
A
100
AcDbEntity
  8
MOJI
100
AcDbText
 10
1368.170866637256
 20
158.9502962214057
 30
0.0
 40
28.0
  1
Ｓ
 41
0.8
  7
0_8
 11
1368.170866637256
 21
186.9502962214057
 31
0.0
100
AcDbText
 73
     3
  0
VIEWPORT
  5
EC5
102
{ACAD_XDICTIONARY
360
1A4A
102
}
330
B
100
AcDbEntity
 67
     1
  8
0
100
AcDbViewport
 10
693.1838099081623
 20
998.1337762993629
 30
0.0
 40
3780.866866501024
 41
2199.033918029785
 68
     1
 69
     1
1001
ACAD
1000
MVIEW
1002
{
1070
    16
1010
0.0
1020
0.0
1030
0.0
1010
0.0
1020
0.0
1030
1.0
1040
0.0
1040
2199.033918029785
1040
693.1838099081623
1040
998.1337762993629
1040
50.0
1040
0.0
1040
0.0
1070
     0
1070
   100
1070
     1
1070
     1
1070
     0
1070
     0
1070
     0
1070
     0
1040
0.0
1040
0.0
1040
0.0
1040
10.0
1040
10.0
1040
10.0
1040
10.0
1070
     0
1002
{
1002
}
1002
}
  0
VIEWPORT
  5
1A34
102
{ACAD_XDICTIONARY
360
1A50
102
}
330
B
100
AcDbEntity
 67
     1
  8
DEFPOINTS
  6
CONTINUOUS
100
AcDbViewport
 10
693.1838132460224
 20
998.1337729615027
 30
0.0
 40
1387.580803871155
 41
1996.249487876892
 68
     2
 69
     2
1001
ACAD
1000
MVIEW
1002
{
1070
    16
1010
0.0
1020
0.0
1030
0.0
1010
0.0
1020
0.0
1030
1.0
1040
0.0
1040
1996.249487876892
1040
745.0
1040
1049.999999999999
1040
50.0
1040
0.0
1040
0.0
1070
     0
1070
   100
1070
     1
1070
     1
1070
     0
1070
     0
1070
     0
1070
     0
1040
0.0
1040
0.0
1040
0.0
1040
1.0
1040
1.0
1040
0.0
1040
0.0
1070
     0
1002
{
1002
}
1002
}
  0
ENDSEC
  0
SECTION
  2
OBJECTS
  0
DICTIONARY
  5
19
330
0
100
AcDbDictionary
  3
ACAD_COLOR
350
19E2
  3
ACAD_GROUP
350
1A
  3
ACAD_LAYOUT
350
BD2
  3
ACAD_MATERIAL
350
19E1
  3
ACAD_MLINESTYLE
350
1B
  3
ACAD_PLOTSETTINGS
350
BD3
  3
ACADDIM
350
116A
  3
ASE_INDEX_DICTIONARY
350
19E9
1001
ACAD
1000
TREAT_AS_HARD
1070
     0
1000
TREAT_AS_HARD
1070
     0
  0
DICTIONARY
  5
1751
330
2
100
AcDbDictionary
  3
ACAD_LAYERFILTERS
350
1752
  3
ACAD_LAYERSTATES
350
1755
1001
ACAD
1000
TREAT_AS_HARD
1070
     1
1000
TREAT_AS_HARD
1070
     1
  0
DICTIONARY
  5
198F
330
A
100
AcDbDictionary
  3
ACAD_LAYOUTSELFREF
350
1A58
1001
ACAD
1000
TREAT_AS_HARD
1070
     1
  0
DICTIONARY
  5
1991
330
B
100
AcDbDictionary
  3
ACAD_LAYOUTSELFREF
350
1A59
1001
ACAD
1000
TREAT_AS_HARD
1070
     1
  0
DICTIONARY
  5
1A4A
330
EC5
100
AcDbDictionary
  3
ACAD_XREC_ROUNDTRIP
350
1A4B
1001
ACAD
1000
TREAT_AS_HARD
1070
     1
  0
DICTIONARY
  5
1A50
330
1A34
100
AcDbDictionary
  3
ACAD_XREC_ROUNDTRIP
350
1A51
1001
ACAD
1000
TREAT_AS_HARD
1070
     1
  0
DICTIONARY
  5
19E2
102
{ACAD_REACTORS
330
19
102
}
330
19
100
AcDbDictionary
1001
ACAD
1000
TREAT_AS_HARD
1070
     0
  0
DICTIONARY
  5
1A
102
{ACAD_REACTORS
330
19
102
}
330
19
100
AcDbDictionary
  3
DAGROUP593
350
593
  3
DAGROUP597
350
597
1001
ACAD
1000
TREAT_AS_HARD
1070
     0
1000
TREAT_AS_HARD
1070
     0
  0
DICTIONARY
  5
BD2
102
{ACAD_REACTORS
330
19
102
}
330
19
100
AcDbDictionary
1001
ACAD
1000
TREAT_AS_HARD
1070
     0
1000
TREAT_AS_HARD
1070
     0
  0
DICTIONARY
  5
19E1
102
{ACAD_REACTORS
330
19
102
}
330
19
100
AcDbDictionary
1001
ACAD
1000
TREAT_AS_HARD
1070
     0
  0
DICTIONARY
  5
1B
102
{ACAD_REACTORS
330
19
102
}
330
19
100
AcDbDictionary
  3
STANDARD
350
1C
1001
ACAD
1000
TREAT_AS_HARD
1070
     0
1000
TREAT_AS_HARD
1070
     0
  0
DICTIONARY
  5
BD3
102
{ACAD_REACTORS
330
19
102
}
330
19
100
AcDbDictionary
1001
ACAD
1000
TREAT_AS_HARD
1070
     0
1000
TREAT_AS_HARD
1070
     0
  0
XRECORD
  5
116A
102
{ACAD_REACTORS
330
19
102
}
330
19
100
AcDbXrecord
 90
   990106
  3

 60
     0
 61
     0
 62
     1
 63
     3
 64
     0
 65
     0
 66
     0
 67
     3
 68
     1
 69
     0
 70
     0
 71
     0
 72
     0
 40
0.0
170
     0
340
116C
  0
DICTIONARY
  5
19E9
102
{ACAD_REACTORS
330
19
102
}
330
19
100
AcDbDictionary
  3
ASEBLOCKHIERARCHYINDEXRECORD
350
19EB
1001
DCO15
1040
1508677823.578
1001
ACAD
1000
TREAT_AS_HARD
1070
     0
  0
DICTIONARY
  5
1752
102
{ACAD_REACTORS
330
1751
102
}
330
1751
100
AcDbDictionary
  3
HIHYOJI
350
1753
1001
ACAD
1000
TREAT_AS_HARD
1070
     1
1000
TREAT_AS_HARD
1070
     0
  0
DICTIONARY
  5
1755
102
{ACAD_REACTORS
330
1751
102
}
330
1751
100
AcDbDictionary
1001
ACAD
1000
TREAT_AS_HARD
1070
     0
1000
TREAT_AS_HARD
1070
     0
  0
XRECORD
  5
1A58
102
{ACAD_REACTORS
330
198F
102
}
330
198F
100
AcDbXrecord
340
A
  0
XRECORD
  5
1A59
102
{ACAD_REACTORS
330
1991
102
}
330
1991
100
AcDbXrecord
340
B
  0
XRECORD
  5
1A4B
102
{ACAD_REACTORS
330
1A4A
102
}
330
1A4A
100
AcDbXrecord
102
SHADEPLOT
 70
     0
  0
XRECORD
  5
1A51
102
{ACAD_REACTORS
330
1A50
102
}
330
1A50
100
AcDbXrecord
102
SHADEPLOT
 70
     0
  0
GROUP
  5
593
102
{ACAD_REACTORS
330
1A
102
}
330
1A
100
AcDbGroup
300

 70
     0
 71
     1
  0
GROUP
  5
597
102
{ACAD_REACTORS
330
1A
102
}
330
1A
100
AcDbGroup
300

 70
     0
 71
     1
  0
MLINESTYLE
  5
1C
102
{ACAD_REACTORS
330
1B
102
}
330
1B
100
AcDbMlineStyle
  2
STANDARD
 70
     0
  3

 62
     0
 51
90.0
 52
90.0
 71
     2
 49
0.5
 62
   256
  6
BYLAYER
 49
-0.5
 62
   256
  6
BYLAYER
  0
XRECORD
  5
19EB
102
{ACAD_REACTORS
330
19E9
102
}
330
19E9
100
AcDbXrecord
330
1957
330
191D
330
1930
330
1809
330
180A
330
1812
330
1813
330
163B
330
163C
330
1616
330
1617
330
15E9
330
15EA
330
15F2
330
15F3
330
15FB
330
15FC
330
160D
330
160E
330
1604
330
1605
330
1824
330
1825
330
181B
330
181C
330
1631
330
1632
330
1672
330
1673
330
16B5
330
16B6
330
16AC
330
16AD
330
165E
330
165F
330
16EF
330
16F0
330
1655
330
1656
330
16C7
330
16C8
330
16BE
330
16BF
330
16F8
330
16F9
330
182D
330
182E
330
1849
330
184A
330
1854
330
1855
330
18F7
330
18F8
330
172C
330
172D
330
18E1
330
18E2
330
18EC
330
18ED
330
1872
330
1873
330
1860
330
185F
330
1668
330
1667
330
18B9
330
18BA
330
1884
330
1885
330
18A3
330
18A4
330
188D
330
188E
330
187B
330
187C
330
1902
330
1903
  0
XRECORD
  5
1753
102
{ACAD_REACTORS
330
1752
102
}
330
1752
100
AcDbXrecord
  1
hihyoji
  1
08,09,*_h
  1
*
  1
*
 70
     0
  1
*
  1
*
  0
ENDSEC
  0
EOF
