  0
SECTION
  2
HEADER
  9
$ACADVER
  1
AC1012
  9
$DWGCODEPAGE
  3
dos932
  9
$INSBASE
 10
0.0
 20
0.0
 30
0.0
  9
$EXTMIN
 10
0.0
 20
0.0
 30
0.0
  9
$EXTMAX
 10
420.0
 20
594.0
 30
0.0
  9
$LIMMIN
 10
0.0
 20
0.0
  9
$LIMMAX
 10
420.0
 20
594.0
  9
$ORTHOMODE
 70
     1
  9
$REGENMODE
 70
     1
  9
$FILLMODE
 70
     1
  9
$QTEXTMODE
 70
     0
  9
$MIRRTEXT
 70
     0
  9
$DRAGMODE
 70
     2
  9
$LTSCALE
 40
1.0
  9
$OSMODE
 70
    37
  9
$ATTMODE
 70
     1
  9
$TEXTSIZE
 40
4.0
  9
$TRACEWID
 40
0.05
  9
$TEXTSTYLE
  7
STANDARD
  9
$CLAYER
  8
DEFPOINTS
  9
$CELTYPE
  6
BYLAYER
  9
$CECOLOR
 62
   256
  9
$CELTSCALE
 40
1.0
  9
$DELOBJ
 70
     1
  9
$DISPSILH
 70
     0
  9
$DIMSCALE
 40
2.0
  9
$DIMASZ
 40
2.5
  9
$DIMEXO
 40
1.5
  9
$DIMDLI
 40
0.0
  9
$DIMRND
 40
0.0
  9
$DIMDLE
 40
0.0
  9
$DIMEXE
 40
1.0
  9
$DIMTP
 40
0.0
  9
$DIMTM
 40
0.0
  9
$DIMTXT
 40
2.5
  9
$DIMCEN
 40
0.0
  9
$DIMTSZ
 40
0.0
  9
$DIMTOL
 70
     0
  9
$DIMLIM
 70
     0
  9
$DIMTIH
 70
     0
  9
$DIMTOH
 70
     0
  9
$DIMSE1
 70
     0
  9
$DIMSE2
 70
     0
  9
$DIMTAD
 70
     1
  9
$DIMZIN
 70
     8
  9
$DIMBLK
  1
OPEN30
  9
$DIMASO
 70
     1
  9
$DIMSHO
 70
     1
  9
$DIMPOST
  1

  9
$DIMAPOST
  1

  9
$DIMALT
 70
     0
  9
$DIMALTD
 70
     2
  9
$DIMALTF
 40
25.4
  9
$DIMLFAC
 40
1.0
  9
$DIMTOFL
 70
     1
  9
$DIMTVP
 40
0.0
  9
$DIMTIX
 70
     0
  9
$DIMSOXD
 70
     0
  9
$DIMSAH
 70
     0
  9
$DIMBLK1
  1

  9
$DIMBLK2
  1

  9
$DIMSTYLE
  2
SUNPOU_2
  9
$DIMCLRD
 70
   256
  9
$DIMCLRE
 70
   256
  9
$DIMCLRT
 70
     6
  9
$DIMTFAC
 40
1.0
  9
$DIMGAP
 40
1.0
  9
$DIMJUST
 70
     0
  9
$DIMSD1
 70
     0
  9
$DIMSD2
 70
     0
  9
$DIMTOLJ
 70
     1
  9
$DIMTZIN
 70
     0
  9
$DIMALTZ
 70
     0
  9
$DIMALTTZ
 70
     0
  9
$DIMFIT
 70
     3
  9
$DIMUPT
 70
     0
  9
$DIMUNIT
 70
     2
  9
$DIMDEC
 70
     1
  9
$DIMTDEC
 70
     1
  9
$DIMALTU
 70
     2
  9
$DIMALTTD
 70
     2
  9
$DIMTXSTY
  7
SUNPOU
  9
$DIMAUNIT
 70
     0
  9
$LUNITS
 70
     2
  9
$LUPREC
 70
     4
  9
$SKETCHINC
 40
0.1
  9
$FILLETRAD
 40
0.0
  9
$AUNITS
 70
     0
  9
$AUPREC
 70
     0
  9
$MENU
  1
acad
  9
$ELEVATION
 40
0.0
  9
$PELEVATION
 40
0.0
  9
$THICKNESS
 40
0.0
  9
$LIMCHECK
 70
     0
  9
$BLIPMODE
 70
     0
  9
$CHAMFERA
 40
0.0
  9
$CHAMFERB
 40
0.0
  9
$CHAMFERC
 40
0.0
  9
$CHAMFERD
 40
0.0
  9
$SKPOLY
 70
     0
  9
$TDCREATE
 40
2444972.375000000
  9
$TDUPDATE
 40
2453266.405058229
  9
$TDINDWG
 40
0.5563748148
  9
$TDUSRTIMER
 40
0.5563748148
  9
$USRTIMER
 70
     1
  9
$ANGBASE
 50
0.0
  9
$ANGDIR
 70
     0
  9
$PDMODE
 70
     0
  9
$PDSIZE
 40
1.0
  9
$PLINEWID
 40
0.0
  9
$COORDS
 70
     1
  9
$SPLFRAME
 70
     0
  9
$SPLINETYPE
 70
     6
  9
$SPLINESEGS
 70
     8
  9
$ATTDIA
 70
     0
  9
$ATTREQ
 70
     1
  9
$HANDLING
 70
-16383
  9
$HANDSEED
  5
24E5
  9
$SURFTAB1
 70
     6
  9
$SURFTAB2
 70
     6
  9
$SURFTYPE
 70
     6
  9
$SURFU
 70
     6
  9
$SURFV
 70
     6
  9
$UCSNAME
  2

  9
$UCSORG
 10
0.0
 20
0.0
 30
0.0
  9
$UCSXDIR
 10
1.0
 20
0.0
 30
0.0
  9
$UCSYDIR
 10
0.0
 20
1.0
 30
0.0
  9
$PUCSNAME
  2

  9
$PUCSORG
 10
0.0
 20
0.0
 30
0.0
  9
$PUCSXDIR
 10
1.0
 20
0.0
 30
0.0
  9
$PUCSYDIR
 10
0.0
 20
1.0
 30
0.0
  9
$USERI1
 70
     0
  9
$USERI2
 70
     0
  9
$USERI3
 70
     0
  9
$USERI4
 70
     0
  9
$USERI5
 70
     0
  9
$USERR1
 40
0.0
  9
$USERR2
 40
0.0
  9
$USERR3
 40
0.0
  9
$USERR4
 40
0.0
  9
$USERR5
 40
0.0
  9
$WORLDVIEW
 70
     1
  9
$SHADEDGE
 70
     3
  9
$SHADEDIF
 70
    70
  9
$TILEMODE
 70
     1
  9
$MAXACTVP
 70
    16
  9
$PINSBASE
 10
0.0
 20
0.0
 30
0.0
  9
$PLIMCHECK
 70
     0
  9
$PEXTMIN
 10
-0.2055473772918503
 20
-0.0174202791267817
 30
-0.0015258207003583
  9
$PEXTMAX
 10
396.3139079836237
 20
570.3923158424973
 30
0.0000000349246037
  9
$PLIMMIN
 10
-11.94191342824454
 20
-11.76600219398141
  9
$PLIMMAX
 10
408.0435733360149
 20
582.1408996648768
  9
$UNITMODE
 70
     0
  9
$VISRETAIN
 70
     0
  9
$PLINEGEN
 70
     1
  9
$PSLTSCALE
 70
     0
  9
$TREEDEPTH
 70
  3020
  9
$PICKSTYLE
 70
     1
  9
$CMLSTYLE
  2
STANDARD
  9
$CMLJUST
 70
     0
  9
$CMLSCALE
 40
1.0
  9
$SAVEIMAGES
 70
     1
  0
ENDSEC
  0
SECTION
  2
CLASSES
  0
CLASS
  1
LWPOLYLINE
  2
AcDbPolyline
  3
AutoCAD 2000
 90
    32768
280
     0
281
     1
  0
CLASS
  1
IMAGE
  2
AcDbRasterImage
  3
ISM
 90
    32895
280
     0
281
     1
  0
CLASS
  1
OLE2FRAME
  2
AcDbOle2Frame
  3
AutoCAD 2000
 90
    32768
280
     0
281
     1
  0
CLASS
  1
HATCH
  2
AcDbHatch
  3
AutoCAD 2000
 90
    32768
280
     0
281
     1
  0
CLASS
  1
DICTIONARYVAR
  2
AcDbDictionaryVar
  3
AutoCAD 2000
 90
    32768
280
     0
281
     0
  0
CLASS
  1
RASTERVARIABLES
  2
AcDbRasterVariables
  3
ISM
 90
    32768
280
     0
281
     0
  0
CLASS
  1
IMAGEDEF
  2
AcDbRasterImageDef
  3
ISM
 90
    32768
280
     0
281
     0
  0
CLASS
  1
IMAGEDEF_REACTOR
  2
AcDbRasterImageDefReactor
  3
ISM
 90
    32769
280
     0
281
     0
  0
CLASS
  1
IDBUFFER
  2
AcDbIdBuffer
  3
AutoCAD 2000
 90
    32768
280
     0
281
     0
  0
CLASS
  1
SPATIAL_FILTER
  2
AcDbSpatialFilter
  3
AutoCAD 2000
 90
    32768
280
     0
281
     0
  0
CLASS
  1
XRECORD
  2
AcDbXrecord
  3
AutoCAD 2000
 90
    32768
280
     0
281
     0
  0
CLASS
  1
SORTENTSTABLE
  2
AcDbSortentsTable
  3
AutoCAD 2000
 90
    32768
280
     0
281
     0
  0
CLASS
  1
LAYER_INDEX
  2
AcDbLayerIndex
  3
AutoCAD 2000
 90
    32768
280
     0
281
     0
  0
CLASS
  1
SPATIAL_INDEX
  2
AcDbSpatialIndex
  3
AutoCAD 2000
 90
    32768
280
     0
281
     0
  0
CLASS
  1
OBJECT_PTR
  2
CAseDLPNTableRecord
  3
ASE-LPNTableRecord
 90
    32769
280
     0
281
     0
  0
CLASS
  1
LAYOUT
  2
AcDbLayout
  3
AutoCAD 2000
 90
    32768
280
     0
281
     0
  0
CLASS
  1
PLOTSETTINGS
  2
AcDbPlotSettings
  3
AutoCAD 2000
 90
    32768
280
     0
281
     0
  0
CLASS
  1
ACDBDICTIONARYWDFLT
  2
AcDbDictionaryWithDefault
  3
AutoCAD 2000
 90
    32768
280
     0
281
     0
  0
CLASS
  1
ACDBPLACEHOLDER
  2
AcDbPlaceHolder
  3
AutoCAD 2000
 90
    32768
280
     0
281
     0
  0
CLASS
  1
VBA_PROJECT
  2
AcDbVbaProject
  3
acad
 90
    32768
280
     0
281
     0
  0
CLASS
  1
WIPEOUT
  2
AcDbWipeout
  3
"WipeOut|Product Desc: Object Enabler for WipeOut entity^I^I^I^I^I^I|Company: Autodesk, Inc.^I^I^I^I^I^I|WEB Address: www.autodesk.com"
 90
    32895
280
     0
281
     1
  0
CLASS
  1
WIPEOUTVARIABLES
  2
AcDbWipeoutVariables
  3
"WipeOut|Product Desc:     WipeOut Dbx Application|Company:          Autodesk, Inc.|WEB Address:      www.autodesk.com"
 90
    32768
280
     0
281
     0
  0
CLASS
  1
RTEXT
  2
RText
  3
RText|AutoCAD Express Tool|expresstools@autodesk.com
 90
    32768
280
     0
281
     1
  0
CLASS
  1
ARCALIGNEDTEXT
  2
AcDbArcAlignedText
  3
ATEXT|AutoCAD Express Tool|expresstools@autodesk.com
 90
    32768
280
     0
281
     1
  0
CLASS
  1
LONG_TRANSACTION
  2
AcDbLongTransaction
  3
AutoCAD 2000
 90
    32768
280
     0
281
     0
  0
CLASS
  1
LWPOLYLINE
  2
AcDbPolyline
  3
AutoCAD 2000
 90
    32768
280
     0
281
     1
  0
CLASS
  1
HATCH
  2
AcDbHatch
  3
AutoCAD 2000
 90
    32768
280
     0
281
     1
  0
CLASS
  1
XRECORD
  2
AcDbXrecord
  3
AutoCAD 2000
 90
    32768
280
     0
281
     0
  0
CLASS
  1
LONG_TRANSACTION
  2
AcDbLongTransaction
  3
AutoCAD 2000
 90
    32768
280
     0
281
     0
  0
CLASS
  1
LWPOLYLINE
  2
AcDbPolyline
  3
AutoCAD 2000
 90
    32768
280
     0
281
     1
  0
CLASS
  1
HATCH
  2
AcDbHatch
  3
AutoCAD 2000
 90
    32768
280
     0
281
     1
  0
CLASS
  1
XRECORD
  2
AcDbXrecord
  3
AutoCAD 2000
 90
    32768
280
     0
281
     0
  0
ENDSEC
  0
SECTION
  2
TABLES
  0
TABLE
  2
VPORT
  5
7
330
0
100
AcDbSymbolTable
 70
     2
  0
VPORT
  5
24CE
330
7
100
AcDbSymbolTableRecord
100
AcDbViewportTableRecord
  2
*ACTIVE
 70
     0
 10
0.0
 20
0.0
 11
1.0
 21
1.0
 12
229.3150518830378
 22
297.000001383014
 13
0.0
 23
0.0
 14
1.0
 24
1.0
 15
0.0
 25
0.0
 16
0.0
 26
0.0
 36
1.0
 17
0.0
 27
0.0
 37
0.0
 40
600.8697546813988
 41
1.780442804428044
 42
50.0
 43
0.0
 44
0.0
 50
0.0
 51
0.0
 71
     0
 72
   100
 73
     1
 74
     1
 75
     0
 76
     0
 77
     0
 78
     0
  0
ENDTAB
  0
TABLE
  2
LTYPE
  5
4
330
0
100
AcDbSymbolTable
 70
     4
  0
LTYPE
  5
11
330
4
100
AcDbSymbolTableRecord
100
AcDbLinetypeTableRecord
  2
BYBLOCK
 70
     0
  3

 72
    65
 73
     0
 40
0.0
  0
LTYPE
  5
12
330
4
100
AcDbSymbolTableRecord
100
AcDbLinetypeTableRecord
  2
BYLAYER
 70
     0
  3

 72
    65
 73
     0
 40
0.0
  0
LTYPE
  5
13
330
4
100
AcDbSymbolTableRecord
100
AcDbLinetypeTableRecord
  2
CONTINUOUS
 70
     0
  3
Solid line
 72
    65
 73
     0
 40
0.0
  0
LTYPE
  5
1277
330
4
100
AcDbSymbolTableRecord
100
AcDbLinetypeTableRecord
  2
CENTER2
 70
     0
  3
Center (.5x) ___ _ ___ _ ___ _ ___ _ ___ _ ___
 72
    65
 73
     4
 40
28.57499999999999
 49
19.05
 74
     0
 49
-3.174999999999998
 74
     0
 49
3.174999999999998
 74
     0
 49
-3.174999999999998
 74
     0
  0
LTYPE
  5
127A
330
4
100
AcDbSymbolTableRecord
100
AcDbLinetypeTableRecord
  2
DASHED2
 70
     0
  3
Dashed (.5x) _ _ _ _ _ _ _ _ _ _ _ _ _ _ _ _ _
 72
    65
 73
     2
 40
9.524999999999996
 49
6.349999999999998
 74
     0
 49
-3.174999999999998
 74
     0
  0
LTYPE
  5
127D
330
4
100
AcDbSymbolTableRecord
100
AcDbLinetypeTableRecord
  2
PHANTOM2
 70
     0
  3
Phantom (.5x) ___ _ _ ___ _ _ ___ _ _ ___ _ _
 72
    65
 73
     6
 40
31.75
 49
15.875
 74
     0
 49
-3.174999999999998
 74
     0
 49
3.174999999999998
 74
     0
 49
-3.174999999999998
 74
     0
 49
3.174999999999998
 74
     0
 49
-3.174999999999998
 74
     0
  0
ENDTAB
  0
TABLE
  2
LAYER
  5
2
102
{ACAD_XDICTIONARY
360
1B04
102
}
330
0
100
AcDbSymbolTable
 70
    13
  0
LAYER
  5
14
330
2
100
AcDbSymbolTableRecord
100
AcDbLayerTableRecord
  2
0
 70
     0
 62
     7
  6
CONTINUOUS
  0
LAYER
  5
126E
330
2
100
AcDbSymbolTableRecord
100
AcDbLayerTableRecord
  2
DEFPOINTS
 70
     0
 62
     7
  6
CONTINUOUS
  0
LAYER
  5
1271
330
2
100
AcDbSymbolTableRecord
100
AcDbLayerTableRecord
  2
03
 70
     0
 62
     3
  6
CONTINUOUS
  0
LAYER
  5
1272
330
2
100
AcDbSymbolTableRecord
100
AcDbLayerTableRecord
  2
04
 70
     0
 62
     4
  6
CONTINUOUS
  0
LAYER
  5
1274
330
2
100
AcDbSymbolTableRecord
100
AcDbLayerTableRecord
  2
06
 70
     0
 62
     6
  6
CONTINUOUS
  0
LAYER
  5
1276
330
2
100
AcDbSymbolTableRecord
100
AcDbLayerTableRecord
  2
CHUSIN
 70
     0
 62
     6
  6
CENTER2
  0
LAYER
  5
1278
330
2
100
AcDbSymbolTableRecord
100
AcDbLayerTableRecord
  2
HIKIDASI
 70
     0
 62
     6
  6
CONTINUOUS
  0
LAYER
  5
1279
330
2
100
AcDbSymbolTableRecord
100
AcDbLayerTableRecord
  2
KAKURE
 70
     0
 62
     6
  6
DASHED2
  0
LAYER
  5
127B
330
2
100
AcDbSymbolTableRecord
100
AcDbLayerTableRecord
  2
MOJI
 70
     0
 62
     3
  6
CONTINUOUS
  0
LAYER
  5
127C
330
2
100
AcDbSymbolTableRecord
100
AcDbLayerTableRecord
  2
SOUZOU
 70
     0
 62
     6
  6
PHANTOM2
  0
LAYER
  5
127E
330
2
100
AcDbSymbolTableRecord
100
AcDbLayerTableRecord
  2
SUNPOU
 70
     0
 62
     6
  6
CONTINUOUS
  0
LAYER
  5
1ED1
330
2
100
AcDbSymbolTableRecord
100
AcDbLayerTableRecord
  2
SAISEN
 70
     0
 62
     3
  6
CONTINUOUS
  0
LAYER
  5
2097
330
2
100
AcDbSymbolTableRecord
100
AcDbLayerTableRecord
  2
02
 70
     0
 62
     2
  6
CONTINUOUS
  0
ENDTAB
  0
TABLE
  2
STYLE
  5
3
330
0
100
AcDbSymbolTable
 70
     4
  0
STYLE
  5
17
330
3
100
AcDbSymbolTableRecord
100
AcDbTextStyleTableRecord
  2
STANDARD
 70
     0
 40
0.0
 41
0.8
 50
0.0
 71
     0
 42
4.0
  3
txt.shx
  4
bigfont.shx
  0
STYLE
  5
1280
330
3
100
AcDbSymbolTableRecord
100
AcDbTextStyleTableRecord
  2
SUNPOU
 70
     0
 40
0.0
 41
0.8
 50
0.0
 71
     0
 42
0.2
  3
txt.shx
  4
extfont.shx
  0
STYLE
  5
1281
330
3
100
AcDbSymbolTableRecord
100
AcDbTextStyleTableRecord
  2
0_8
 70
     0
 40
0.0
 41
0.8
 50
0.0
 71
     0
 42
2.5
  3
txt.shx
  4
extfont.shx
  0
STYLE
  5
246F
330
3
100
AcDbSymbolTableRecord
100
AcDbTextStyleTableRecord
  2
0_80
 70
     0
 40
0.0
 41
0.8
 50
0.0
 71
     0
 42
7.0
  3
txt.shx
  4
extfont.shx
  0
ENDTAB
  0
TABLE
  2
VIEW
  5
5
330
0
100
AcDbSymbolTable
 70
     1
  0
VIEW
  5
3E
330
5
100
AcDbSymbolTableRecord
100
AcDbViewTableRecord
  2
QQQQ
 70
     0
 40
474.5132437499998
 10
1.188749999999884
 20
2.236874999999939
 41
671.2626374999997
 11
0.0
 21
0.0
 31
1.0
 12
100.0
 22
100.0
 32
0.0
 42
50.0
 43
0.0
 44
0.0
 50
0.0
 71
     0
  0
ENDTAB
  0
TABLE
  2
UCS
  5
6
330
0
100
AcDbSymbolTable
 70
     0
  0
ENDTAB
  0
TABLE
  2
APPID
  5
8
330
0
100
AcDbSymbolTable
 70
     2
  0
APPID
  5
16
330
8
100
AcDbSymbolTableRecord
100
AcDbRegAppTableRecord
  2
ACAD
 70
     0
  0
APPID
  5
246C
330
8
100
AcDbSymbolTableRecord
100
AcDbRegAppTableRecord
  2
DCO15
 70
     0
  0
ENDTAB
  0
TABLE
  2
DIMSTYLE
  5
9
330
0
100
AcDbSymbolTable
 70
     2
  0
DIMSTYLE
105
18
330
9
100
AcDbSymbolTableRecord
100
AcDbDimStyleTableRecord
  2
STANDARD
 70
     0
  3

  4

  5

  6

  7

 40
1.0
 41
0.18
 42
0.0625
 43
0.38
 44
0.18
 45
0.0
 46
0.0
 47
0.0
 48
0.0
140
0.18
141
0.09
142
0.0
143
25.4
144
1.0
145
0.0
146
1.0
147
0.09
 71
     0
 72
     0
 73
     1
 74
     1
 75
     0
 76
     0
 77
     0
 78
     0
170
     0
171
     2
172
     0
173
     0
174
     0
175
     0
176
     0
177
     0
178
     0
270
     2
271
     4
272
     4
273
     2
274
     2
340
17
275
     0
280
     0
281
     0
282
     0
283
     1
284
     0
285
     0
286
     0
287
     3
288
     0
  0
DIMSTYLE
105
129D
102
{ACAD_REACTORS
330
12EE
330
12FB
330
1308
330
1315
330
1324
330
1331
330
134D
330
135A
330
1374
330
1383
330
1390
330
139D
330
13AA
330
13B9
330
13C6
330
13D5
330
13F0
330
13FD
330
140A
330
1417
330
1424
330
1433
330
1440
330
144F
330
145C
330
1469
330
1476
330
1483
330
1490
330
149D
330
14B9
330
14D5
330
14E4
330
14F1
330
14FE
330
150D
330
151A
330
1536
330
1545
330
1552
330
155F
330
1625
330
1F91
330
200E
330
241F
102
}
330
9
100
AcDbSymbolTableRecord
100
AcDbDimStyleTableRecord
  2
SUNPOU_2
 70
     0
  3

  4

  5
OPEN30
  6

  7

 40
2.0
 41
2.5
 42
1.5
 43
0.0
 44
1.0
 45
0.0
 46
0.0
 47
0.0
 48
0.0
140
2.5
141
0.0
142
0.0
143
25.4
144
1.0
145
0.0
146
1.0
147
1.0
 71
     0
 72
     0
 73
     0
 74
     0
 75
     0
 76
     0
 77
     1
 78
     8
170
     0
171
     2
172
     1
173
     0
174
     0
175
     0
176
   256
177
   256
178
     6
270
     2
271
     1
272
     1
273
     2
274
     2
340
1280
275
     0
280
     0
281
     0
282
     0
283
     1
284
     0
285
     0
286
     0
287
     3
288
     0
  0
ENDTAB
  0
TABLE
  2
BLOCK_RECORD
  5
1
330
0
100
AcDbSymbolTable
 70
    46
  0
BLOCK_RECORD
  5
A
102
{ACAD_XDICTIONARY
360
2441
102
}
330
1
100
AcDbSymbolTableRecord
100
AcDbBlockTableRecord
  2
*MODEL_SPACE
  0
BLOCK_RECORD
  5
B
102
{ACAD_XDICTIONARY
360
2443
102
}
330
1
100
AcDbSymbolTableRecord
100
AcDbBlockTableRecord
  2
*PAPER_SPACE
  0
BLOCK_RECORD
  5
4E
330
1
100
AcDbSymbolTableRecord
100
AcDbBlockTableRecord
  2
_OPEN30
  0
BLOCK_RECORD
  5
12EF
330
1
100
AcDbSymbolTableRecord
100
AcDbBlockTableRecord
  2
*D1
  0
BLOCK_RECORD
  5
12FC
330
1
100
AcDbSymbolTableRecord
100
AcDbBlockTableRecord
  2
*D2
  0
BLOCK_RECORD
  5
1309
330
1
100
AcDbSymbolTableRecord
100
AcDbBlockTableRecord
  2
*D3
  0
BLOCK_RECORD
  5
1316
330
1
100
AcDbSymbolTableRecord
100
AcDbBlockTableRecord
  2
*D4
  0
BLOCK_RECORD
  5
1325
330
1
100
AcDbSymbolTableRecord
100
AcDbBlockTableRecord
  2
*D5
  0
BLOCK_RECORD
  5
1332
330
1
100
AcDbSymbolTableRecord
100
AcDbBlockTableRecord
  2
*D6
  0
BLOCK_RECORD
  5
134E
330
1
100
AcDbSymbolTableRecord
100
AcDbBlockTableRecord
  2
*D7
  0
BLOCK_RECORD
  5
135B
330
1
100
AcDbSymbolTableRecord
100
AcDbBlockTableRecord
  2
*D8
  0
BLOCK_RECORD
  5
1375
330
1
100
AcDbSymbolTableRecord
100
AcDbBlockTableRecord
  2
*D9
  0
BLOCK_RECORD
  5
1384
330
1
100
AcDbSymbolTableRecord
100
AcDbBlockTableRecord
  2
*D10
  0
BLOCK_RECORD
  5
1391
330
1
100
AcDbSymbolTableRecord
100
AcDbBlockTableRecord
  2
*D11
  0
BLOCK_RECORD
  5
139E
330
1
100
AcDbSymbolTableRecord
100
AcDbBlockTableRecord
  2
*D12
  0
BLOCK_RECORD
  5
13AB
330
1
100
AcDbSymbolTableRecord
100
AcDbBlockTableRecord
  2
*D13
  0
BLOCK_RECORD
  5
13BA
330
1
100
AcDbSymbolTableRecord
100
AcDbBlockTableRecord
  2
*D14
  0
BLOCK_RECORD
  5
13C7
330
1
100
AcDbSymbolTableRecord
100
AcDbBlockTableRecord
  2
*D15
  0
BLOCK_RECORD
  5
13D6
330
1
100
AcDbSymbolTableRecord
100
AcDbBlockTableRecord
  2
*D16
  0
BLOCK_RECORD
  5
13F1
330
1
100
AcDbSymbolTableRecord
100
AcDbBlockTableRecord
  2
*D17
  0
BLOCK_RECORD
  5
13FE
330
1
100
AcDbSymbolTableRecord
100
AcDbBlockTableRecord
  2
*D18
  0
BLOCK_RECORD
  5
140B
330
1
100
AcDbSymbolTableRecord
100
AcDbBlockTableRecord
  2
*D19
  0
BLOCK_RECORD
  5
1418
330
1
100
AcDbSymbolTableRecord
100
AcDbBlockTableRecord
  2
*D20
  0
BLOCK_RECORD
  5
1425
330
1
100
AcDbSymbolTableRecord
100
AcDbBlockTableRecord
  2
*D21
  0
BLOCK_RECORD
  5
1434
330
1
100
AcDbSymbolTableRecord
100
AcDbBlockTableRecord
  2
*D22
  0
BLOCK_RECORD
  5
1441
330
1
100
AcDbSymbolTableRecord
100
AcDbBlockTableRecord
  2
*D23
  0
BLOCK_RECORD
  5
1450
330
1
100
AcDbSymbolTableRecord
100
AcDbBlockTableRecord
  2
*D24
  0
BLOCK_RECORD
  5
145D
330
1
100
AcDbSymbolTableRecord
100
AcDbBlockTableRecord
  2
*D25
  0
BLOCK_RECORD
  5
146A
330
1
100
AcDbSymbolTableRecord
100
AcDbBlockTableRecord
  2
*D26
  0
BLOCK_RECORD
  5
1477
330
1
100
AcDbSymbolTableRecord
100
AcDbBlockTableRecord
  2
*D27
  0
BLOCK_RECORD
  5
1484
330
1
100
AcDbSymbolTableRecord
100
AcDbBlockTableRecord
  2
*D28
  0
BLOCK_RECORD
  5
1491
330
1
100
AcDbSymbolTableRecord
100
AcDbBlockTableRecord
  2
*D29
  0
BLOCK_RECORD
  5
149E
330
1
100
AcDbSymbolTableRecord
100
AcDbBlockTableRecord
  2
*D30
  0
BLOCK_RECORD
  5
14BA
330
1
100
AcDbSymbolTableRecord
100
AcDbBlockTableRecord
  2
*D31
  0
BLOCK_RECORD
  5
14D6
330
1
100
AcDbSymbolTableRecord
100
AcDbBlockTableRecord
  2
*D32
  0
BLOCK_RECORD
  5
14E5
330
1
100
AcDbSymbolTableRecord
100
AcDbBlockTableRecord
  2
*D33
  0
BLOCK_RECORD
  5
14F2
330
1
100
AcDbSymbolTableRecord
100
AcDbBlockTableRecord
  2
*D34
  0
BLOCK_RECORD
  5
14FF
330
1
100
AcDbSymbolTableRecord
100
AcDbBlockTableRecord
  2
*D35
  0
BLOCK_RECORD
  5
150E
330
1
100
AcDbSymbolTableRecord
100
AcDbBlockTableRecord
  2
*D36
  0
BLOCK_RECORD
  5
151B
330
1
100
AcDbSymbolTableRecord
100
AcDbBlockTableRecord
  2
*D37
  0
BLOCK_RECORD
  5
1537
330
1
100
AcDbSymbolTableRecord
100
AcDbBlockTableRecord
  2
*D38
  0
BLOCK_RECORD
  5
1546
330
1
100
AcDbSymbolTableRecord
100
AcDbBlockTableRecord
  2
*D39
  0
BLOCK_RECORD
  5
1553
330
1
100
AcDbSymbolTableRecord
100
AcDbBlockTableRecord
  2
*D40
  0
BLOCK_RECORD
  5
1560
330
1
100
AcDbSymbolTableRecord
100
AcDbBlockTableRecord
  2
*D41
  0
BLOCK_RECORD
  5
1626
330
1
100
AcDbSymbolTableRecord
100
AcDbBlockTableRecord
  2
*D42
  0
BLOCK_RECORD
  5
1F92
330
1
100
AcDbSymbolTableRecord
100
AcDbBlockTableRecord
  2
*D43
  0
BLOCK_RECORD
  5
200F
330
1
100
AcDbSymbolTableRecord
100
AcDbBlockTableRecord
  2
*D44
  0
BLOCK_RECORD
  5
2420
330
1
100
AcDbSymbolTableRecord
100
AcDbBlockTableRecord
  2
*D45
  0
ENDTAB
  0
ENDSEC
  0
SECTION
  2
BLOCKS
  0
BLOCK
  5
D
330
A
100
AcDbEntity
  8
0
100
AcDbBlockBegin
  2
*MODEL_SPACE
 70
     0
 10
0.0
 20
0.0
 30
0.0
  3
*MODEL_SPACE
  1

  0
ENDBLK
  5
E
330
A
100
AcDbEntity
  8
0
100
AcDbBlockEnd
  0
BLOCK
  5
F
330
B
100
AcDbEntity
 67
     1
  8
0
100
AcDbBlockBegin
  2
*PAPER_SPACE
 70
     0
 10
0.0
 20
0.0
 30
0.0
  3
*PAPER_SPACE
  1

  0
ENDBLK
  5
10
330
B
100
AcDbEntity
 67
     1
  8
0
100
AcDbBlockEnd
  0
BLOCK
  5
49D
330
4E
100
AcDbEntity
  8
0
100
AcDbBlockBegin
  2
_OPEN30
 70
     0
 10
0.0
 20
0.0
 30
0.0
  3
_OPEN30
  1

  0
LINE
  5
49E
330
4E
100
AcDbEntity
  8
0
  6
CONTINUOUS
 62
     0
100
AcDbLine
 10
0.0
 20
0.0
 30
0.0
 11
-0.9659258262890681
 21
0.2588190451025207
 31
0.0
  0
LINE
  5
49F
330
4E
100
AcDbEntity
  8
0
  6
CONTINUOUS
 62
     0
100
AcDbLine
 10
0.0
 20
0.0
 30
0.0
 11
-0.9659258262890681
 21
-0.2588190451025207
 31
0.0
  0
LINE
  5
4A0
330
4E
100
AcDbEntity
  8
0
  6
CONTINUOUS
 62
     0
100
AcDbLine
 10
0.0
 20
0.0
 30
0.0
 11
-0.9659258262890681
 21
0.0
 31
0.0
  0
ENDBLK
  5
4A1
330
4E
100
AcDbEntity
  8
0
100
AcDbBlockEnd
  0
BLOCK
  5
12F9
330
12EF
100
AcDbEntity
  8
0
100
AcDbBlockBegin
  2
*D1
 70
     1
 10
0.0
 20
0.0
 30
0.0
  3
*D1
  1

  0
LINE
  5
2404
330
12EF
100
AcDbEntity
  8
SUNPOU
100
AcDbLine
 10
152.3105014744853
 20
558.5995769544496
 30
0.0
 11
95.02462597209968
 21
558.5995769544496
 31
0.0
  0
LINE
  5
2405
330
12EF
100
AcDbEntity
  8
SUNPOU
100
AcDbLine
 10
149.010501474485
 20
540.5995769544492
 30
0.0
 11
95.02462597209968
 21
540.5995769544492
 31
0.0
  0
LINE
  5
2406
330
12EF
100
AcDbEntity
  8
SUNPOU
100
AcDbLine
 10
97.0246259720997
 20
553.5995769544496
 30
0.0
 11
97.0246259720997
 21
545.5995769544492
 31
0.0
  0
INSERT
  5
2407
330
12EF
100
AcDbEntity
  8
SUNPOU
100
AcDbBlockReference
  2
_OPEN30
 10
97.0246259720997
 20
558.5995769544496
 30
0.0
 41
5.0
 42
5.0
 43
5.0
 50
90.0
  0
INSERT
  5
2408
330
12EF
100
AcDbEntity
  8
SUNPOU
100
AcDbBlockReference
  2
_OPEN30
 10
97.02462597209969
 20
540.5995769544492
 30
0.0
 41
5.0
 42
5.0
 43
5.0
 50
270.0
  0
MTEXT
  5
2409
330
12EF
100
AcDbEntity
  8
SUNPOU
 62
     6
100
AcDbMText
 10
92.52462597209959
 20
549.5995769544495
 30
0.0
 40
5.0
 41
0.0
 71
     5
 72
     1
  1
\A1;18
  7
SUNPOU
 11
0.0000000000000001
 21
1.0
 31
0.0
1001
ACAD
1000
MTEXTBEGIN
1070
    73
1070
     1
1070
    44
1040
1.0
1070
    74
1070
     0
1000
MTEXTEND
1000
MTEXTBEGIN
1070
    73
1070
     1
1070
    44
1040
1.0
1070
    74
1070
     0
1000
MTEXTEND
  0
POINT
  5
240A
330
12EF
100
AcDbEntity
  8
DEFPOINTS
 62
     0
100
AcDbPoint
 10
155.3105014744853
 20
558.5995769544496
 30
0.0
  0
POINT
  5
240B
330
12EF
100
AcDbEntity
  8
DEFPOINTS
 62
     0
100
AcDbPoint
 10
152.010501474485
 20
540.5995769544492
 30
0.0
  0
POINT
  5
240C
330
12EF
100
AcDbEntity
  8
DEFPOINTS
 62
     0
100
AcDbPoint
 10
97.02462597209969
 20
540.5995769544492
 30
0.0
  0
ENDBLK
  5
12FA
330
12EF
100
AcDbEntity
  8
0
100
AcDbBlockEnd
  0
BLOCK
  5
1306
330
12FC
100
AcDbEntity
  8
0
100
AcDbBlockBegin
  2
*D2
 70
     1
 10
0.0
 20
0.0
 30
0.0
  3
*D2
  1

  0
LINE
  5
23FB
330
12FC
100
AcDbEntity
  8
SUNPOU
100
AcDbLine
 10
149.010501474485
 20
540.5995769544492
 30
0.0
 11
95.02462597209968
 21
540.5995769544492
 31
0.0
  0
LINE
  5
23FC
330
12FC
100
AcDbEntity
  8
SUNPOU
100
AcDbLine
 10
151.3105014744853
 20
308.5995769544495
 30
0.0
 11
95.02462597209964
 21
308.5995769544495
 31
0.0
  0
LINE
  5
23FD
330
12FC
100
AcDbEntity
  8
SUNPOU
100
AcDbLine
 10
97.02462597209969
 20
535.5995769544493
 30
0.0
 11
97.02462597209965
 21
313.5995769544495
 31
0.0
  0
INSERT
  5
23FE
330
12FC
100
AcDbEntity
  8
SUNPOU
100
AcDbBlockReference
  2
_OPEN30
 10
97.02462597209969
 20
540.5995769544492
 30
0.0
 41
5.0
 42
5.0
 43
5.0
 50
90.0
  0
INSERT
  5
23FF
330
12FC
100
AcDbEntity
  8
SUNPOU
100
AcDbBlockReference
  2
_OPEN30
 10
97.02462597209965
 20
308.5995769544495
 30
0.0
 41
5.0
 42
5.0
 43
5.0
 50
270.0
  0
MTEXT
  5
2400
330
12FC
100
AcDbEntity
  8
SUNPOU
 62
     6
100
AcDbMText
 10
92.52462597209959
 20
424.5995769544494
 30
0.0
 40
5.0
 41
0.0
 71
     5
 72
     1
  1
\A1;232
  7
SUNPOU
 11
0.0000000000000001
 21
1.0
 31
0.0
1001
ACAD
1000
MTEXTBEGIN
1070
    73
1070
     1
1070
    44
1040
1.0
1070
    74
1070
     0
1000
MTEXTEND
1000
MTEXTBEGIN
1070
    73
1070
     1
1070
    44
1040
1.0
1070
    74
1070
     0
1000
MTEXTEND
  0
POINT
  5
2401
330
12FC
100
AcDbEntity
  8
DEFPOINTS
 62
     0
100
AcDbPoint
 10
152.010501474485
 20
540.5995769544492
 30
0.0
  0
POINT
  5
2402
330
12FC
100
AcDbEntity
  8
DEFPOINTS
 62
     0
100
AcDbPoint
 10
154.3105014744853
 20
308.5995769544495
 30
0.0
  0
POINT
  5
2403
330
12FC
100
AcDbEntity
  8
DEFPOINTS
 62
     0
100
AcDbPoint
 10
97.02462597209965
 20
308.5995769544495
 30
0.0
  0
ENDBLK
  5
1307
330
12FC
100
AcDbEntity
  8
0
100
AcDbBlockEnd
  0
BLOCK
  5
1313
330
1309
100
AcDbEntity
  8
0
100
AcDbBlockBegin
  2
*D3
 70
     1
 10
0.0
 20
0.0
 30
0.0
  3
*D3
  1

  0
LINE
  5
23F2
330
1309
100
AcDbEntity
  8
SUNPOU
100
AcDbLine
 10
151.3105014744853
 20
308.5995769544495
 30
0.0
 11
95.02462597209964
 21
308.5995769544495
 31
0.0
  0
LINE
  5
23F3
330
1309
100
AcDbEntity
  8
SUNPOU
100
AcDbLine
 10
151.3105014744853
 20
243.5995769544494
 30
0.0
 11
95.02462597209962
 21
243.5995769544494
 31
0.0
  0
LINE
  5
23F4
330
1309
100
AcDbEntity
  8
SUNPOU
100
AcDbLine
 10
97.02462597209965
 20
303.5995769544495
 30
0.0
 11
97.02462597209965
 21
248.5995769544495
 31
0.0
  0
INSERT
  5
23F5
330
1309
100
AcDbEntity
  8
SUNPOU
100
AcDbBlockReference
  2
_OPEN30
 10
97.02462597209965
 20
308.5995769544495
 30
0.0
 41
5.0
 42
5.0
 43
5.0
 50
90.0
  0
INSERT
  5
23F6
330
1309
100
AcDbEntity
  8
SUNPOU
100
AcDbBlockReference
  2
_OPEN30
 10
97.02462597209965
 20
243.5995769544494
 30
0.0
 41
5.0
 42
5.0
 43
5.0
 50
270.0
  0
MTEXT
  5
23F7
330
1309
100
AcDbEntity
  8
SUNPOU
 62
     6
100
AcDbMText
 10
92.52462597209959
 20
276.0995769544495
 30
0.0
 40
5.0
 41
0.0
 71
     5
 72
     1
  1
\A1;65
  7
SUNPOU
 11
0.0000000000000001
 21
1.0
 31
0.0
1001
ACAD
1000
MTEXTBEGIN
1070
    73
1070
     1
1070
    44
1040
1.0
1070
    74
1070
     0
1000
MTEXTEND
1000
MTEXTBEGIN
1070
    73
1070
     1
1070
    44
1040
1.0
1070
    74
1070
     0
1000
MTEXTEND
  0
POINT
  5
23F8
330
1309
100
AcDbEntity
  8
DEFPOINTS
 62
     0
100
AcDbPoint
 10
154.3105014744853
 20
308.5995769544495
 30
0.0
  0
POINT
  5
23F9
330
1309
100
AcDbEntity
  8
DEFPOINTS
 62
     0
100
AcDbPoint
 10
154.3105014744853
 20
243.5995769544494
 30
0.0
  0
POINT
  5
23FA
330
1309
100
AcDbEntity
  8
DEFPOINTS
 62
     0
100
AcDbPoint
 10
97.02462597209965
 20
243.5995769544494
 30
0.0
  0
ENDBLK
  5
1314
330
1309
100
AcDbEntity
  8
0
100
AcDbBlockEnd
  0
BLOCK
  5
1322
330
1316
100
AcDbEntity
  8
0
100
AcDbBlockBegin
  2
*D4
 70
     1
 10
0.0
 20
0.0
 30
0.0
  3
*D4
  1

  0
LINE
  5
23E7
330
1316
100
AcDbEntity
  8
SUNPOU
100
AcDbLine
 10
151.3105014744853
 20
243.5995769544494
 30
0.0
 11
95.02462597209962
 21
243.5995769544494
 31
0.0
  0
LINE
  5
23E8
330
1316
100
AcDbEntity
  8
SUNPOU
100
AcDbLine
 10
163.5105014744854
 20
239.5995769544494
 30
0.0
 11
95.02462597209962
 21
239.5995769544494
 31
0.0
  0
LINE
  5
23E9
330
1316
100
AcDbEntity
  8
SUNPOU
100
AcDbLine
 10
97.02462597209965
 20
248.5995769544495
 30
0.0
 11
97.02462597209965
 21
253.5995769544495
 31
0.0
  0
LINE
  5
23EA
330
1316
100
AcDbEntity
  8
SUNPOU
100
AcDbLine
 10
97.02462597209965
 20
234.5995769544494
 30
0.0
 11
97.02462597209965
 21
229.5995769544494
 31
0.0
  0
MTEXT
  5
23EB
330
1316
100
AcDbEntity
  8
SUNPOU
 62
     6
100
AcDbMText
 10
89.52462597209956
 20
241.5995769544494
 30
0.0
 40
5.0
 41
0.0
 71
     5
 72
     1
  1
\A1;4
  7
SUNPOU
 11
0.0000000000000001
 21
1.0
 31
0.0
1001
ACAD
1000
MTEXTBEGIN
1070
    73
1070
     1
1070
    44
1040
1.0
1070
    74
1070
     0
1000
MTEXTEND
1000
MTEXTBEGIN
1070
    73
1070
     1
1070
    44
1040
1.0
1070
    74
1070
     0
1000
MTEXTEND
  0
LINE
  5
23EC
330
1316
100
AcDbEntity
  8
SUNPOU
100
AcDbLine
 10
97.02462597209965
 20
243.5995769544494
 30
0.0
 11
97.02462597209965
 21
239.5995769544494
 31
0.0
  0
INSERT
  5
23ED
330
1316
100
AcDbEntity
  8
SUNPOU
100
AcDbBlockReference
  2
_OPEN30
 10
97.02462597209965
 20
243.5995769544494
 30
0.0
 41
5.0
 42
5.0
 43
5.0
 50
270.0
  0
INSERT
  5
23EE
330
1316
100
AcDbEntity
  8
SUNPOU
100
AcDbBlockReference
  2
_OPEN30
 10
97.02462597209965
 20
239.5995769544494
 30
0.0
 41
5.0
 42
5.0
 43
5.0
 50
90.0
  0
POINT
  5
23EF
330
1316
100
AcDbEntity
  8
DEFPOINTS
 62
     0
100
AcDbPoint
 10
154.3105014744853
 20
243.5995769544494
 30
0.0
  0
POINT
  5
23F0
330
1316
100
AcDbEntity
  8
DEFPOINTS
 62
     0
100
AcDbPoint
 10
166.5105014744854
 20
239.5995769544494
 30
0.0
  0
POINT
  5
23F1
330
1316
100
AcDbEntity
  8
DEFPOINTS
 62
     0
100
AcDbPoint
 10
97.02462597209965
 20
239.5995769544494
 30
0.0
  0
ENDBLK
  5
1323
330
1316
100
AcDbEntity
  8
0
100
AcDbBlockEnd
  0
BLOCK
  5
132F
330
1325
100
AcDbEntity
  8
0
100
AcDbBlockBegin
  2
*D5
 70
     1
 10
0.0
 20
0.0
 30
0.0
  3
*D5
  1

  0
LINE
  5
23DE
330
1325
100
AcDbEntity
  8
SUNPOU
100
AcDbLine
 10
163.5105014744854
 20
239.5995769544494
 30
0.0
 11
95.02462597209962
 21
239.5995769544494
 31
0.0
  0
LINE
  5
23DF
330
1325
100
AcDbEntity
  8
SUNPOU
100
AcDbLine
 10
163.5105014744858
 20
106.8469414881229
 30
0.0
 11
95.02462597209959
 21
106.8469414881229
 31
0.0
  0
LINE
  5
23E0
330
1325
100
AcDbEntity
  8
SUNPOU
100
AcDbLine
 10
97.02462597209965
 20
234.5995769544494
 30
0.0
 11
97.02462597209958
 21
111.8469414881229
 31
0.0
  0
INSERT
  5
23E1
330
1325
100
AcDbEntity
  8
SUNPOU
100
AcDbBlockReference
  2
_OPEN30
 10
97.02462597209965
 20
239.5995769544494
 30
0.0
 41
5.0
 42
5.0
 43
5.0
 50
90.0
  0
INSERT
  5
23E2
330
1325
100
AcDbEntity
  8
SUNPOU
100
AcDbBlockReference
  2
_OPEN30
 10
97.02462597209958
 20
106.8469414881229
 30
0.0
 41
5.0
 42
5.0
 43
5.0
 50
270.0
  0
MTEXT
  5
23E3
330
1325
100
AcDbEntity
  8
SUNPOU
 62
     6
100
AcDbMText
 10
92.52462597209959
 20
173.2232592212862
 30
0.0
 40
5.0
 41
0.0
 71
     5
 72
     1
  1
\A1;DH=2134
  7
SUNPOU
 11
0.0000000000000001
 21
1.0
 31
0.0
1001
ACAD
1000
MTEXTBEGIN
1070
    73
1070
     1
1070
    44
1040
1.0
1070
    74
1070
     0
1000
MTEXTEND
1000
MTEXTBEGIN
1070
    73
1070
     1
1070
    44
1040
1.0
1070
    74
1070
     0
1000
MTEXTEND
  0
POINT
  5
23E4
330
1325
100
AcDbEntity
  8
DEFPOINTS
 62
     0
100
AcDbPoint
 10
166.5105014744854
 20
239.5995769544494
 30
0.0
  0
POINT
  5
23E5
330
1325
100
AcDbEntity
  8
DEFPOINTS
 62
     0
100
AcDbPoint
 10
166.5105014744858
 20
106.8469414881229
 30
0.0
  0
POINT
  5
23E6
330
1325
100
AcDbEntity
  8
DEFPOINTS
 62
     0
100
AcDbPoint
 10
97.02462597209958
 20
106.8469414881229
 30
0.0
  0
ENDBLK
  5
1330
330
1325
100
AcDbEntity
  8
0
100
AcDbBlockEnd
  0
BLOCK
  5
133E
330
1332
100
AcDbEntity
  8
0
100
AcDbBlockBegin
  2
*D6
 70
     1
 10
0.0
 20
0.0
 30
0.0
  3
*D6
  1

  0
LINE
  5
23D3
330
1332
100
AcDbEntity
  8
SUNPOU
100
AcDbLine
 10
163.5105014744858
 20
106.8469414881229
 30
0.0
 11
95.02462597209959
 21
106.8469414881229
 31
0.0
  0
LINE
  5
23D4
330
1332
100
AcDbEntity
  8
SUNPOU
100
AcDbLine
 10
94.02462597209988
 20
96.84694148812292
 30
0.0
 11
95.02462597209959
 21
96.84694148812292
 31
0.0
  0
LINE
  5
23D5
330
1332
100
AcDbEntity
  8
SUNPOU
100
AcDbLine
 10
97.02462597209958
 20
111.8469414881229
 30
0.0
 11
97.02462597209958
 21
116.846941488123
 31
0.0
  0
LINE
  5
23D6
330
1332
100
AcDbEntity
  8
SUNPOU
100
AcDbLine
 10
97.02462597209958
 20
91.8469414881229
 30
0.0
 11
97.02462597209958
 21
86.8469414881229
 31
0.0
  0
LINE
  5
23D7
330
1332
100
AcDbEntity
  8
SUNPOU
100
AcDbLine
 10
97.02462597209958
 20
106.8469414881229
 30
0.0
 11
97.02462597209958
 21
96.8469414881229
 31
0.0
  0
INSERT
  5
23D8
330
1332
100
AcDbEntity
  8
SUNPOU
100
AcDbBlockReference
  2
_OPEN30
 10
97.02462597209958
 20
106.8469414881229
 30
0.0
 41
5.0
 42
5.0
 43
5.0
 50
270.0
  0
INSERT
  5
23D9
330
1332
100
AcDbEntity
  8
SUNPOU
100
AcDbBlockReference
  2
_OPEN30
 10
97.02462597209958
 20
96.8469414881229
 30
0.0
 41
5.0
 42
5.0
 43
5.0
 50
90.0
  0
MTEXT
  5
23DA
330
1332
100
AcDbEntity
  8
SUNPOU
 62
     6
100
AcDbMText
 10
92.52462597209957
 20
101.8469414881228
 30
0.0
 40
5.0
 41
0.0
 71
     5
 72
     1
  1
\A1;10
  7
SUNPOU
 11
0.0000000000000001
 21
1.0
 31
0.0
1001
ACAD
1000
MTEXTBEGIN
1070
    73
1070
     1
1070
    44
1040
1.0
1070
    74
1070
     0
1000
MTEXTEND
1000
MTEXTBEGIN
1070
    73
1070
     1
1070
    44
1040
1.0
1070
    74
1070
     0
1000
MTEXTEND
  0
POINT
  5
23DB
330
1332
100
AcDbEntity
  8
DEFPOINTS
 62
     0
100
AcDbPoint
 10
166.5105014744858
 20
106.8469414881229
 30
0.0
  0
POINT
  5
23DC
330
1332
100
AcDbEntity
  8
DEFPOINTS
 62
     0
100
AcDbPoint
 10
97.02462597209986
 20
96.8469414881229
 30
0.0
  0
POINT
  5
23DD
330
1332
100
AcDbEntity
  8
DEFPOINTS
 62
     0
100
AcDbPoint
 10
97.02462597209958
 20
96.8469414881229
 30
0.0
  0
ENDBLK
  5
133F
330
1332
100
AcDbEntity
  8
0
100
AcDbBlockEnd
  0
BLOCK
  5
1358
330
134E
100
AcDbEntity
  8
0
100
AcDbBlockBegin
  2
*D7
 70
     1
 10
0.0
 20
0.0
 30
0.0
  3
*D7
  1

  0
LINE
  5
23CA
330
134E
100
AcDbEntity
  8
SUNPOU
100
AcDbLine
 10
84.0984812158222
 20
96.84694148812289
 30
0.0
 11
85.09848121582217
 21
96.84694148812289
 31
0.0
  0
LINE
  5
23CB
330
134E
100
AcDbEntity
  8
SUNPOU
100
AcDbLine
 10
149.0105014744854
 20
243.5995769544494
 30
0.0
 11
85.09848121582221
 21
243.5995769544494
 31
0.0
  0
LINE
  5
23CC
330
134E
100
AcDbEntity
  8
SUNPOU
100
AcDbLine
 10
87.09848121582217
 20
101.8469414881227
 30
0.0
 11
87.0984812158222
 21
238.5995769544494
 31
0.0
  0
INSERT
  5
23CD
330
134E
100
AcDbEntity
  8
SUNPOU
100
AcDbBlockReference
  2
_OPEN30
 10
87.09848121582217
 20
96.84694148812289
 30
0.0
 41
5.0
 42
5.0
 43
5.0
 50
270.0
  0
INSERT
  5
23CE
330
134E
100
AcDbEntity
  8
SUNPOU
100
AcDbBlockReference
  2
_OPEN30
 10
87.0984812158222
 20
243.5995769544494
 30
0.0
 41
5.0
 42
5.0
 43
5.0
 50
90.0
  0
MTEXT
  5
23CF
330
134E
100
AcDbEntity
  8
SUNPOU
 62
     6
100
AcDbMText
 10
82.59848121582214
 20
170.223259221286
 30
0.0
 40
5.0
 41
0.0
 71
     5
 72
     1
  1
\A1;H=2148
  7
SUNPOU
 11
0.0000000000000001
 21
1.0
 31
0.0
1001
ACAD
1000
MTEXTBEGIN
1070
    73
1070
     1
1070
    44
1040
1.0
1070
    74
1070
     0
1000
MTEXTEND
1000
MTEXTBEGIN
1070
    73
1070
     1
1070
    44
1040
1.0
1070
    74
1070
     0
1000
MTEXTEND
  0
POINT
  5
23D0
330
134E
100
AcDbEntity
  8
DEFPOINTS
 62
     0
100
AcDbPoint
 10
87.09848121582217
 20
96.84694148812289
 30
0.0
  0
POINT
  5
23D1
330
134E
100
AcDbEntity
  8
DEFPOINTS
 62
     0
100
AcDbPoint
 10
152.0105014744854
 20
243.5995769544494
 30
0.0
  0
POINT
  5
23D2
330
134E
100
AcDbEntity
  8
DEFPOINTS
 62
     0
100
AcDbPoint
 10
87.0984812158222
 20
243.5995769544494
 30
0.0
  0
ENDBLK
  5
1359
330
134E
100
AcDbEntity
  8
0
100
AcDbBlockEnd
  0
BLOCK
  5
1365
330
135B
100
AcDbEntity
  8
0
100
AcDbBlockBegin
  2
*D8
 70
     1
 10
0.0
 20
0.0
 30
0.0
  3
*D8
  1

  0
LINE
  5
23C1
330
135B
100
AcDbEntity
  8
SUNPOU
100
AcDbLine
 10
149.0105014744854
 20
243.5995769544494
 30
0.0
 11
85.09848121582221
 21
243.5995769544494
 31
0.0
  0
LINE
  5
23C2
330
135B
100
AcDbEntity
  8
SUNPOU
100
AcDbLine
 10
152.3105014744853
 20
558.5995769544495
 30
0.0
 11
85.09848121582228
 21
558.5995769544495
 31
0.0
  0
LINE
  5
23C3
330
135B
100
AcDbEntity
  8
SUNPOU
100
AcDbLine
 10
87.0984812158222
 20
248.5995769544494
 30
0.0
 11
87.09848121582226
 21
553.5995769544495
 31
0.0
  0
INSERT
  5
23C4
330
135B
100
AcDbEntity
  8
SUNPOU
100
AcDbBlockReference
  2
_OPEN30
 10
87.0984812158222
 20
243.5995769544494
 30
0.0
 41
5.0
 42
5.0
 43
5.0
 50
270.0
  0
INSERT
  5
23C5
330
135B
100
AcDbEntity
  8
SUNPOU
100
AcDbBlockReference
  2
_OPEN30
 10
87.09848121582226
 20
558.5995769544495
 30
0.0
 41
5.0
 42
5.0
 43
5.0
 50
90.0
  0
MTEXT
  5
23C6
330
135B
100
AcDbEntity
  8
SUNPOU
 62
     6
100
AcDbMText
 10
82.59848121582217
 20
401.0995769544494
 30
0.0
 40
5.0
 41
0.0
 71
     5
 72
     1
  1
\A1;315
  7
SUNPOU
 11
0.0000000000000001
 21
1.0
 31
0.0
1001
ACAD
1000
MTEXTBEGIN
1070
    73
1070
     1
1070
    44
1040
1.0
1070
    74
1070
     0
1000
MTEXTEND
1000
MTEXTBEGIN
1070
    73
1070
     1
1070
    44
1040
1.0
1070
    74
1070
     0
1000
MTEXTEND
  0
POINT
  5
23C7
330
135B
100
AcDbEntity
  8
DEFPOINTS
 62
     0
100
AcDbPoint
 10
152.0105014744854
 20
243.5995769544494
 30
0.0
  0
POINT
  5
23C8
330
135B
100
AcDbEntity
  8
DEFPOINTS
 62
     0
100
AcDbPoint
 10
155.3105014744853
 20
558.5995769544495
 30
0.0
  0
POINT
  5
23C9
330
135B
100
AcDbEntity
  8
DEFPOINTS
 62
     0
100
AcDbPoint
 10
87.09848121582226
 20
558.5995769544495
 30
0.0
  0
ENDBLK
  5
1366
330
135B
100
AcDbEntity
  8
0
100
AcDbBlockEnd
  0
BLOCK
  5
1381
330
1375
100
AcDbEntity
  8
0
100
AcDbBlockBegin
  2
*D9
 70
     1
 10
0.0
 20
0.0
 30
0.0
  3
*D9
  1

  0
LINE
  5
23B6
330
1375
100
AcDbEntity
  8
SUNPOU
100
AcDbLine
 10
184.5105014744855
 20
227.4605734426748
 30
0.0
 11
184.5105014744855
 21
226.4605734426749
 31
0.0
  0
LINE
  5
23B7
330
1375
100
AcDbEntity
  8
SUNPOU
100
AcDbLine
 10
186.5105014744855
 20
227.4605734426748
 30
0.0
 11
186.5105014744855
 21
226.4605734426749
 31
0.0
  0
LINE
  5
23B8
330
1375
100
AcDbEntity
  8
SUNPOU
100
AcDbLine
 10
179.5105014744855
 20
224.4605734426749
 30
0.0
 11
174.5105014744855
 21
224.4605734426749
 31
0.0
  0
LINE
  5
23B9
330
1375
100
AcDbEntity
  8
SUNPOU
100
AcDbLine
 10
191.5105014744855
 20
224.4605734426749
 30
0.0
 11
196.5105014744855
 21
224.4605734426749
 31
0.0
  0
MTEXT
  5
23BA
330
1375
100
AcDbEntity
  8
SUNPOU
 62
     6
100
AcDbMText
 10
179.0911054696166
 20
228.9982016701506
 30
0.0
 40
5.0
 41
0.0
 71
     5
 72
     1
  1
\A1;2
  7
SUNPOU
1001
ACAD
1000
MTEXTBEGIN
1070
    73
1070
     1
1070
    44
1040
1.0
1070
    74
1070
     0
1000
MTEXTEND
1000
MTEXTBEGIN
1070
    73
1070
     1
1070
    44
1040
1.0
1070
    74
1070
     0
1000
MTEXTEND
  0
LINE
  5
23BB
330
1375
100
AcDbEntity
  8
SUNPOU
100
AcDbLine
 10
184.5105014744855
 20
224.4605734426749
 30
0.0
 11
186.5105014744855
 21
224.4605734426749
 31
0.0
  0
INSERT
  5
23BC
330
1375
100
AcDbEntity
  8
SUNPOU
100
AcDbBlockReference
  2
_OPEN30
 10
184.5105014744855
 20
224.4605734426749
 30
0.0
 41
5.0
 42
5.0
 43
5.0
  0
INSERT
  5
23BD
330
1375
100
AcDbEntity
  8
SUNPOU
100
AcDbBlockReference
  2
_OPEN30
 10
186.5105014744855
 20
224.4605734426749
 30
0.0
 41
5.0
 42
5.0
 43
5.0
 50
180.0
  0
POINT
  5
23BE
330
1375
100
AcDbEntity
  8
DEFPOINTS
 62
     0
100
AcDbPoint
 10
184.5105014744855
 20
224.4605734426749
 30
0.0
  0
POINT
  5
23BF
330
1375
100
AcDbEntity
  8
DEFPOINTS
 62
     0
100
AcDbPoint
 10
186.5105014744855
 20
224.4605734426749
 30
0.0
  0
POINT
  5
23C0
330
1375
100
AcDbEntity
  8
DEFPOINTS
 62
     0
100
AcDbPoint
 10
186.5105014744855
 20
224.4605734426749
 30
0.0
  0
ENDBLK
  5
1382
330
1375
100
AcDbEntity
  8
0
100
AcDbBlockEnd
  0
BLOCK
  5
138E
330
1384
100
AcDbEntity
  8
0
100
AcDbBlockBegin
  2
*D10
 70
     1
 10
0.0
 20
0.0
 30
0.0
  3
*D10
  1

  0
LINE
  5
23AD
330
1384
100
AcDbEntity
  8
SUNPOU
100
AcDbLine
 10
150.5105014744854
 20
207.2445680519114
 30
0.0
 11
150.5105014744854
 21
208.2445680519113
 31
0.0
  0
LINE
  5
23AE
330
1384
100
AcDbEntity
  8
SUNPOU
100
AcDbLine
 10
231.5105014744855
 20
213.2445680519114
 30
0.0
 11
231.5105014744855
 21
212.2445680519113
 31
0.0
  0
LINE
  5
23AF
330
1384
100
AcDbEntity
  8
SUNPOU
100
AcDbLine
 10
155.5105014744854
 20
210.2445680519113
 30
0.0
 11
226.5105014744855
 21
210.2445680519113
 31
0.0
  0
INSERT
  5
23B0
330
1384
100
AcDbEntity
  8
SUNPOU
100
AcDbBlockReference
  2
_OPEN30
 10
150.5105014744854
 20
210.2445680519113
 30
0.0
 41
5.0
 42
5.0
 43
5.0
 50
180.0
  0
INSERT
  5
23B1
330
1384
100
AcDbEntity
  8
SUNPOU
100
AcDbBlockReference
  2
_OPEN30
 10
231.5105014744855
 20
210.2445680519113
 30
0.0
 41
5.0
 42
5.0
 43
5.0
  0
MTEXT
  5
23B2
330
1384
100
AcDbEntity
  8
SUNPOU
 62
     6
100
AcDbMText
 10
191.0105014744854
 20
214.7445680519113
 30
0.0
 40
5.0
 41
0.0
 71
     5
 72
     1
  1
\A1;81
  7
SUNPOU
1001
ACAD
1000
MTEXTBEGIN
1070
    73
1070
     1
1070
    44
1040
1.0
1070
    74
1070
     0
1000
MTEXTEND
1000
MTEXTBEGIN
1070
    73
1070
     1
1070
    44
1040
1.0
1070
    74
1070
     0
1000
MTEXTEND
  0
POINT
  5
23B3
330
1384
100
AcDbEntity
  8
DEFPOINTS
 62
     0
100
AcDbPoint
 10
150.5105014744854
 20
210.2445680519116
 30
0.0
  0
POINT
  5
23B4
330
1384
100
AcDbEntity
  8
DEFPOINTS
 62
     0
100
AcDbPoint
 10
231.5105014744855
 20
210.2445680519113
 30
0.0
  0
POINT
  5
23B5
330
1384
100
AcDbEntity
  8
DEFPOINTS
 62
     0
100
AcDbPoint
 10
231.5105014744855
 20
210.2445680519113
 30
0.0
  0
ENDBLK
  5
138F
330
1384
100
AcDbEntity
  8
0
100
AcDbBlockEnd
  0
BLOCK
  5
139B
330
1391
100
AcDbEntity
  8
0
100
AcDbBlockBegin
  2
*D11
 70
     1
 10
0.0
 20
0.0
 30
0.0
  3
*D11
  1

  0
LINE
  5
23A4
330
1391
100
AcDbEntity
  8
SUNPOU
100
AcDbLine
 10
150.5105014744854
 20
205.7151314619134
 30
0.0
 11
150.5105014744854
 21
204.7151314619134
 31
0.0
  0
LINE
  5
23A5
330
1391
100
AcDbEntity
  8
SUNPOU
100
AcDbLine
 10
166.5105014744854
 20
205.7151314619134
 30
0.0
 11
166.5105014744854
 21
204.7151314619134
 31
0.0
  0
LINE
  5
23A6
330
1391
100
AcDbEntity
  8
SUNPOU
100
AcDbLine
 10
155.5105014744854
 20
202.7151314619134
 30
0.0
 11
161.5105014744854
 21
202.7151314619134
 31
0.0
  0
INSERT
  5
23A7
330
1391
100
AcDbEntity
  8
SUNPOU
100
AcDbBlockReference
  2
_OPEN30
 10
150.5105014744854
 20
202.7151314619134
 30
0.0
 41
5.0
 42
5.0
 43
5.0
 50
180.0
  0
INSERT
  5
23A8
330
1391
100
AcDbEntity
  8
SUNPOU
100
AcDbBlockReference
  2
_OPEN30
 10
166.5105014744854
 20
202.7151314619134
 30
0.0
 41
5.0
 42
5.0
 43
5.0
  0
MTEXT
  5
23A9
330
1391
100
AcDbEntity
  8
SUNPOU
 62
     6
100
AcDbMText
 10
158.5105014744854
 20
207.2151314619134
 30
0.0
 40
5.0
 41
0.0
 71
     5
 72
     1
  1
\A1;16
  7
SUNPOU
1001
ACAD
1000
MTEXTBEGIN
1070
    73
1070
     1
1070
    44
1040
1.0
1070
    74
1070
     0
1000
MTEXTEND
1000
MTEXTBEGIN
1070
    73
1070
     1
1070
    44
1040
1.0
1070
    74
1070
     0
1000
MTEXTEND
  0
POINT
  5
23AA
330
1391
100
AcDbEntity
  8
DEFPOINTS
 62
     0
100
AcDbPoint
 10
150.5105014744854
 20
202.7151314619134
 30
0.0
  0
POINT
  5
23AB
330
1391
100
AcDbEntity
  8
DEFPOINTS
 62
     0
100
AcDbPoint
 10
166.5105014744854
 20
202.7151314619134
 30
0.0
  0
POINT
  5
23AC
330
1391
100
AcDbEntity
  8
DEFPOINTS
 62
     0
100
AcDbPoint
 10
166.5105014744854
 20
202.7151314619134
 30
0.0
  0
ENDBLK
  5
139C
330
1391
100
AcDbEntity
  8
0
100
AcDbBlockEnd
  0
BLOCK
  5
13A8
330
139E
100
AcDbEntity
  8
0
100
AcDbBlockBegin
  2
*D12
 70
     1
 10
0.0
 20
0.0
 30
0.0
  3
*D12
  1

  0
LINE
  5
239A
330
139E
100
AcDbEntity
  8
SUNPOU
100
AcDbLine
 10
166.5105014744854
 20
205.7151314619134
 30
0.0
 11
166.5105014744854
 21
204.7151314619134
 31
0.0
  0
LINE
  5
239B
330
139E
100
AcDbEntity
  8
SUNPOU
100
AcDbLine
 10
206.5105014744855
 20
199.7151314619135
 30
0.0
 11
206.5105014744855
 21
200.7151314619134
 31
0.0
  0
LINE
  5
239C
330
139E
100
AcDbEntity
  8
SUNPOU
100
AcDbLine
 10
171.5105014744854
 20
202.7151314619134
 30
0.0
 11
185.5015694688113
 21
202.7151314619134
 31
0.0
  0
LINE
  5
239D
330
139E
100
AcDbEntity
  8
SUNPOU
100
AcDbLine
 10
201.5105014744855
 20
202.7151314619134
 30
0.0
 11
195.5015694688113
 21
202.7151314619134
 31
0.0
  0
MTEXT
  5
239E
330
139E
100
AcDbEntity
  8
SUNPOU
 62
     6
100
AcDbMText
 10
190.5015694688113
 20
206.637172494211
 30
0.0
 40
5.0
 41
0.0
 71
     5
 72
     1
  1
\A1;40
  7
SUNPOU
1001
ACAD
1000
MTEXTBEGIN
1070
    73
1070
     1
1070
    44
1040
1.0
1070
    74
1070
     0
1000
MTEXTEND
1000
MTEXTBEGIN
1070
    73
1070
     1
1070
    44
1040
1.0
1070
    74
1070
     0
1000
MTEXTEND
  0
INSERT
  5
239F
330
139E
100
AcDbEntity
  8
SUNPOU
100
AcDbBlockReference
  2
_OPEN30
 10
166.5105014744854
 20
202.7151314619134
 30
0.0
 41
5.0
 42
5.0
 43
5.0
 50
180.0
  0
INSERT
  5
23A0
330
139E
100
AcDbEntity
  8
SUNPOU
100
AcDbBlockReference
  2
_OPEN30
 10
206.5105014744855
 20
202.7151314619134
 30
0.0
 41
5.0
 42
5.0
 43
5.0
  0
POINT
  5
23A1
330
139E
100
AcDbEntity
  8
DEFPOINTS
 62
     0
100
AcDbPoint
 10
166.5105014744854
 20
202.7151314619134
 30
0.0
  0
POINT
  5
23A2
330
139E
100
AcDbEntity
  8
DEFPOINTS
 62
     0
100
AcDbPoint
 10
206.5105014744855
 20
202.7151314619135
 30
0.0
  0
POINT
  5
23A3
330
139E
100
AcDbEntity
  8
DEFPOINTS
 62
     0
100
AcDbPoint
 10
206.5105014744855
 20
202.7151314619134
 30
0.0
  0
ENDBLK
  5
13A9
330
139E
100
AcDbEntity
  8
0
100
AcDbBlockEnd
  0
BLOCK
  5
13B7
330
13AB
100
AcDbEntity
  8
0
100
AcDbBlockBegin
  2
*D13
 70
     1
 10
0.0
 20
0.0
 30
0.0
  3
*D13
  1

  0
LINE
  5
238F
330
13AB
100
AcDbEntity
  8
SUNPOU
100
AcDbLine
 10
206.5105014744855
 20
199.7151314619135
 30
0.0
 11
206.5105014744855
 21
200.7151314619134
 31
0.0
  0
LINE
  5
2390
330
13AB
100
AcDbEntity
  8
SUNPOU
100
AcDbLine
 10
211.5105014744855
 20
205.7151314619134
 30
0.0
 11
211.5105014744855
 21
204.7151314619134
 31
0.0
  0
LINE
  5
2391
330
13AB
100
AcDbEntity
  8
SUNPOU
100
AcDbLine
 10
201.5105014744855
 20
202.7151314619134
 30
0.0
 11
196.5105014744855
 21
202.7151314619134
 31
0.0
  0
LINE
  5
2392
330
13AB
100
AcDbEntity
  8
SUNPOU
100
AcDbLine
 10
216.5105014744855
 20
202.7151314619134
 30
0.0
 11
221.5105014744855
 21
202.7151314619134
 31
0.0
  0
MTEXT
  5
2393
330
13AB
100
AcDbEntity
  8
SUNPOU
 62
     6
100
AcDbMText
 10
208.9278960877859
 20
206.9388371269723
 30
0.0
 40
5.0
 41
0.0
 71
     5
 72
     1
  1
\A1;5
  7
SUNPOU
1001
ACAD
1000
MTEXTBEGIN
1070
    73
1070
     1
1070
    44
1040
1.0
1070
    74
1070
     0
1000
MTEXTEND
1000
MTEXTBEGIN
1070
    73
1070
     1
1070
    44
1040
1.0
1070
    74
1070
     0
1000
MTEXTEND
  0
LINE
  5
2394
330
13AB
100
AcDbEntity
  8
SUNPOU
100
AcDbLine
 10
206.5105014744855
 20
202.7151314619134
 30
0.0
 11
211.5105014744855
 21
202.7151314619134
 31
0.0
  0
INSERT
  5
2395
330
13AB
100
AcDbEntity
  8
SUNPOU
100
AcDbBlockReference
  2
_OPEN30
 10
206.5105014744855
 20
202.7151314619134
 30
0.0
 41
5.0
 42
5.0
 43
5.0
  0
INSERT
  5
2396
330
13AB
100
AcDbEntity
  8
SUNPOU
100
AcDbBlockReference
  2
_OPEN30
 10
211.5105014744855
 20
202.7151314619134
 30
0.0
 41
5.0
 42
5.0
 43
5.0
 50
180.0
  0
POINT
  5
2397
330
13AB
100
AcDbEntity
  8
DEFPOINTS
 62
     0
100
AcDbPoint
 10
206.5105014744855
 20
202.7151314619135
 30
0.0
  0
POINT
  5
2398
330
13AB
100
AcDbEntity
  8
DEFPOINTS
 62
     0
100
AcDbPoint
 10
211.5105014744855
 20
202.7151314619134
 30
0.0
  0
POINT
  5
2399
330
13AB
100
AcDbEntity
  8
DEFPOINTS
 62
     0
100
AcDbPoint
 10
211.5105014744855
 20
202.7151314619134
 30
0.0
  0
ENDBLK
  5
13B8
330
13AB
100
AcDbEntity
  8
0
100
AcDbBlockEnd
  0
BLOCK
  5
13C4
330
13BA
100
AcDbEntity
  8
0
100
AcDbBlockBegin
  2
*D14
 70
     1
 10
0.0
 20
0.0
 30
0.0
  3
*D14
  1

  0
LINE
  5
2386
330
13BA
100
AcDbEntity
  8
SUNPOU
100
AcDbLine
 10
211.5105014744855
 20
205.7151314619134
 30
0.0
 11
211.5105014744855
 21
204.7151314619134
 31
0.0
  0
LINE
  5
2387
330
13BA
100
AcDbEntity
  8
SUNPOU
100
AcDbLine
 10
251.5105014744855
 20
205.7151314619134
 30
0.0
 11
251.5105014744855
 21
204.7151314619134
 31
0.0
  0
LINE
  5
2388
330
13BA
100
AcDbEntity
  8
SUNPOU
100
AcDbLine
 10
216.5105014744855
 20
202.7151314619134
 30
0.0
 11
246.5105014744855
 21
202.7151314619134
 31
0.0
  0
MTEXT
  5
2389
330
13BA
100
AcDbEntity
  8
SUNPOU
 62
     6
100
AcDbMText
 10
235.5009447190186
 20
207.2151314619134
 30
0.0
 40
5.0
 41
0.0
 71
     5
 72
     1
  1
\A1;40
  7
SUNPOU
1001
ACAD
1000
MTEXTBEGIN
1070
    73
1070
     1
1070
    44
1040
1.0
1070
    74
1070
     0
1000
MTEXTEND
1000
MTEXTBEGIN
1070
    73
1070
     1
1070
    44
1040
1.0
1070
    74
1070
     0
1000
MTEXTEND
  0
INSERT
  5
238A
330
13BA
100
AcDbEntity
  8
SUNPOU
100
AcDbBlockReference
  2
_OPEN30
 10
211.5105014744855
 20
202.7151314619134
 30
0.0
 41
5.0
 42
5.0
 43
5.0
 50
180.0
  0
INSERT
  5
238B
330
13BA
100
AcDbEntity
  8
SUNPOU
100
AcDbBlockReference
  2
_OPEN30
 10
251.5105014744855
 20
202.7151314619134
 30
0.0
 41
5.0
 42
5.0
 43
5.0
  0
POINT
  5
238C
330
13BA
100
AcDbEntity
  8
DEFPOINTS
 62
     0
100
AcDbPoint
 10
211.5105014744855
 20
202.7151314619134
 30
0.0
  0
POINT
  5
238D
330
13BA
100
AcDbEntity
  8
DEFPOINTS
 62
     0
100
AcDbPoint
 10
251.5105014744855
 20
202.7151314619134
 30
0.0
  0
POINT
  5
238E
330
13BA
100
AcDbEntity
  8
DEFPOINTS
 62
     0
100
AcDbPoint
 10
251.5105014744855
 20
202.7151314619134
 30
0.0
  0
ENDBLK
  5
13C5
330
13BA
100
AcDbEntity
  8
0
100
AcDbBlockEnd
  0
BLOCK
  5
13D3
330
13C7
100
AcDbEntity
  8
0
100
AcDbBlockBegin
  2
*D15
 70
     1
 10
0.0
 20
0.0
 30
0.0
  3
*D15
  1

  0
LINE
  5
237B
330
13C7
100
AcDbEntity
  8
SUNPOU
100
AcDbLine
 10
251.5105014744855
 20
205.7151314619134
 30
0.0
 11
251.5105014744855
 21
204.7151314619134
 31
0.0
  0
LINE
  5
237C
330
13C7
100
AcDbEntity
  8
SUNPOU
100
AcDbLine
 10
256.5105014744855
 20
242.0995769544495
 30
0.0
 11
256.5105014744855
 21
200.7151314619134
 31
0.0
  0
LINE
  5
237D
330
13C7
100
AcDbEntity
  8
SUNPOU
100
AcDbLine
 10
246.5105014744855
 20
202.7151314619134
 30
0.0
 11
241.5105014744855
 21
202.7151314619134
 31
0.0
  0
LINE
  5
237E
330
13C7
100
AcDbEntity
  8
SUNPOU
100
AcDbLine
 10
261.5105014744855
 20
202.7151314619134
 30
0.0
 11
266.5105014744855
 21
202.7151314619134
 31
0.0
  0
MTEXT
  5
237F
330
13C7
100
AcDbEntity
  8
SUNPOU
 62
     6
100
AcDbMText
 10
254.0105014744855
 20
207.2280871477254
 30
0.0
 40
5.0
 41
0.0
 71
     5
 72
     1
  1
\A1;5
  7
SUNPOU
1001
ACAD
1000
MTEXTBEGIN
1070
    73
1070
     1
1070
    44
1040
1.0
1070
    74
1070
     0
1000
MTEXTEND
1000
MTEXTBEGIN
1070
    73
1070
     1
1070
    44
1040
1.0
1070
    74
1070
     0
1000
MTEXTEND
  0
LINE
  5
2380
330
13C7
100
AcDbEntity
  8
SUNPOU
100
AcDbLine
 10
251.5105014744855
 20
202.7151314619134
 30
0.0
 11
256.5105014744855
 21
202.7151314619134
 31
0.0
  0
INSERT
  5
2381
330
13C7
100
AcDbEntity
  8
SUNPOU
100
AcDbBlockReference
  2
_OPEN30
 10
251.5105014744855
 20
202.7151314619134
 30
0.0
 41
5.0
 42
5.0
 43
5.0
  0
INSERT
  5
2382
330
13C7
100
AcDbEntity
  8
SUNPOU
100
AcDbBlockReference
  2
_OPEN30
 10
256.5105014744855
 20
202.7151314619134
 30
0.0
 41
5.0
 42
5.0
 43
5.0
 50
180.0
  0
POINT
  5
2383
330
13C7
100
AcDbEntity
  8
DEFPOINTS
 62
     0
100
AcDbPoint
 10
251.5105014744855
 20
202.7151314619134
 30
0.0
  0
POINT
  5
2384
330
13C7
100
AcDbEntity
  8
DEFPOINTS
 62
     0
100
AcDbPoint
 10
256.5105014744855
 20
245.0995769544495
 30
0.0
  0
POINT
  5
2385
330
13C7
100
AcDbEntity
  8
DEFPOINTS
 62
     0
100
AcDbPoint
 10
256.5105014744855
 20
202.7151314619134
 30
0.0
  0
ENDBLK
  5
13D4
330
13C7
100
AcDbEntity
  8
0
100
AcDbBlockEnd
  0
BLOCK
  5
13E0
330
13D6
100
AcDbEntity
  8
0
100
AcDbBlockBegin
  2
*D16
 70
     1
 10
0.0
 20
0.0
 30
0.0
  3
*D16
  1

  0
LINE
  5
2372
330
13D6
100
AcDbEntity
  8
SUNPOU
100
AcDbLine
 10
256.5105014744855
 20
242.0995769544495
 30
0.0
 11
256.5105014744855
 21
200.7151314619134
 31
0.0
  0
LINE
  5
2373
330
13D6
100
AcDbEntity
  8
SUNPOU
100
AcDbLine
 10
309.5105014744855
 20
242.0995769544496
 30
0.0
 11
309.5105014744855
 21
200.7151314619134
 31
0.0
  0
LINE
  5
2374
330
13D6
100
AcDbEntity
  8
SUNPOU
100
AcDbLine
 10
261.5105014744855
 20
202.7151314619134
 30
0.0
 11
304.5105014744855
 21
202.7151314619134
 31
0.0
  0
INSERT
  5
2375
330
13D6
100
AcDbEntity
  8
SUNPOU
100
AcDbBlockReference
  2
_OPEN30
 10
256.5105014744855
 20
202.7151314619134
 30
0.0
 41
5.0
 42
5.0
 43
5.0
 50
180.0
  0
INSERT
  5
2376
330
13D6
100
AcDbEntity
  8
SUNPOU
100
AcDbBlockReference
  2
_OPEN30
 10
309.5105014744855
 20
202.7151314619134
 30
0.0
 41
5.0
 42
5.0
 43
5.0
  0
MTEXT
  5
2377
330
13D6
100
AcDbEntity
  8
SUNPOU
 62
     6
100
AcDbMText
 10
283.0105014744855
 20
207.2151314619134
 30
0.0
 40
5.0
 41
0.0
 71
     5
 72
     1
  1
\A1;53
  7
SUNPOU
1001
ACAD
1000
MTEXTBEGIN
1070
    73
1070
     1
1070
    44
1040
1.0
1070
    74
1070
     0
1000
MTEXTEND
1000
MTEXTBEGIN
1070
    73
1070
     1
1070
    44
1040
1.0
1070
    74
1070
     0
1000
MTEXTEND
  0
POINT
  5
2378
330
13D6
100
AcDbEntity
  8
DEFPOINTS
 62
     0
100
AcDbPoint
 10
256.5105014744855
 20
245.0995769544495
 30
0.0
  0
POINT
  5
2379
330
13D6
100
AcDbEntity
  8
DEFPOINTS
 62
     0
100
AcDbPoint
 10
309.5105014744855
 20
245.0995769544495
 30
0.0
  0
POINT
  5
237A
330
13D6
100
AcDbEntity
  8
DEFPOINTS
 62
     0
100
AcDbPoint
 10
309.5105014744855
 20
202.7151314619134
 30
0.0
  0
ENDBLK
  5
13E1
330
13D6
100
AcDbEntity
  8
0
100
AcDbBlockEnd
  0
BLOCK
  5
13FB
330
13F1
100
AcDbEntity
  8
0
100
AcDbBlockBegin
  2
*D17
 70
     1
 10
0.0
 20
0.0
 30
0.0
  3
*D17
  1

  0
LINE
  5
2369
330
13F1
100
AcDbEntity
  8
SUNPOU
100
AcDbLine
 10
309.5105014744855
 20
242.0995769544496
 30
0.0
 11
309.5105014744855
 21
190.0736459164397
 31
0.0
  0
LINE
  5
236A
330
13F1
100
AcDbEntity
  8
SUNPOU
100
AcDbLine
 10
231.5105014744855
 20
195.0736459164397
 30
0.0
 11
231.5105014744855
 21
194.0736459164397
 31
0.0
  0
LINE
  5
236B
330
13F1
100
AcDbEntity
  8
SUNPOU
100
AcDbLine
 10
304.5105014744855
 20
192.0736459164397
 30
0.0
 11
236.5105014744855
 21
192.0736459164397
 31
0.0
  0
INSERT
  5
236C
330
13F1
100
AcDbEntity
  8
SUNPOU
100
AcDbBlockReference
  2
_OPEN30
 10
309.5105014744855
 20
192.0736459164397
 30
0.0
 41
5.0
 42
5.0
 43
5.0
  0
INSERT
  5
236D
330
13F1
100
AcDbEntity
  8
SUNPOU
100
AcDbBlockReference
  2
_OPEN30
 10
231.5105014744855
 20
192.0736459164397
 30
0.0
 41
5.0
 42
5.0
 43
5.0
 50
180.0
  0
MTEXT
  5
236E
330
13F1
100
AcDbEntity
  8
SUNPOU
 62
     6
100
AcDbMText
 10
270.5105014744855
 20
196.5736459164397
 30
0.0
 40
5.0
 41
0.0
 71
     5
 72
     1
  1
\A1;78
  7
SUNPOU
1001
ACAD
1000
MTEXTBEGIN
1070
    73
1070
     1
1070
    44
1040
1.0
1070
    74
1070
     0
1000
MTEXTEND
1000
MTEXTBEGIN
1070
    73
1070
     1
1070
    44
1040
1.0
1070
    74
1070
     0
1000
MTEXTEND
  0
POINT
  5
236F
330
13F1
100
AcDbEntity
  8
DEFPOINTS
 62
     0
100
AcDbPoint
 10
309.5105014744855
 20
245.0995769544495
 30
0.0
  0
POINT
  5
2370
330
13F1
100
AcDbEntity
  8
DEFPOINTS
 62
     0
100
AcDbPoint
 10
231.5105014744855
 20
192.0736459164397
 30
0.0
  0
POINT
  5
2371
330
13F1
100
AcDbEntity
  8
DEFPOINTS
 62
     0
100
AcDbPoint
 10
231.5105014744855
 20
192.0736459164397
 30
0.0
  0
ENDBLK
  5
13FC
330
13F1
100
AcDbEntity
  8
0
100
AcDbBlockEnd
  0
BLOCK
  5
1408
330
13FE
100
AcDbEntity
  8
0
100
AcDbBlockBegin
  2
*D18
 70
     1
 10
0.0
 20
0.0
 30
0.0
  3
*D18
  1

  0
LINE
  5
2360
330
13FE
100
AcDbEntity
  8
SUNPOU
100
AcDbLine
 10
231.5105014744855
 20
195.0736459164397
 30
0.0
 11
231.5105014744855
 21
194.0736459164397
 31
0.0
  0
LINE
  5
2361
330
13FE
100
AcDbEntity
  8
SUNPOU
100
AcDbLine
 10
186.5105014744855
 20
195.0736459164397
 30
0.0
 11
186.5105014744855
 21
194.0736459164397
 31
0.0
  0
LINE
  5
2362
330
13FE
100
AcDbEntity
  8
SUNPOU
100
AcDbLine
 10
226.5105014744855
 20
192.0736459164397
 30
0.0
 11
191.5105014744855
 21
192.0736459164397
 31
0.0
  0
INSERT
  5
2363
330
13FE
100
AcDbEntity
  8
SUNPOU
100
AcDbBlockReference
  2
_OPEN30
 10
231.5105014744855
 20
192.0736459164397
 30
0.0
 41
5.0
 42
5.0
 43
5.0
  0
INSERT
  5
2364
330
13FE
100
AcDbEntity
  8
SUNPOU
100
AcDbBlockReference
  2
_OPEN30
 10
186.5105014744855
 20
192.0736459164397
 30
0.0
 41
5.0
 42
5.0
 43
5.0
 50
180.0
  0
MTEXT
  5
2365
330
13FE
100
AcDbEntity
  8
SUNPOU
 62
     6
100
AcDbMText
 10
209.0105014744855
 20
196.5736459164397
 30
0.0
 40
5.0
 41
0.0
 71
     5
 72
     1
  1
\A1;45
  7
SUNPOU
1001
ACAD
1000
MTEXTBEGIN
1070
    73
1070
     1
1070
    44
1040
1.0
1070
    74
1070
     0
1000
MTEXTEND
1000
MTEXTBEGIN
1070
    73
1070
     1
1070
    44
1040
1.0
1070
    74
1070
     0
1000
MTEXTEND
  0
POINT
  5
2366
330
13FE
100
AcDbEntity
  8
DEFPOINTS
 62
     0
100
AcDbPoint
 10
231.5105014744855
 20
192.0736459164397
 30
0.0
  0
POINT
  5
2367
330
13FE
100
AcDbEntity
  8
DEFPOINTS
 62
     0
100
AcDbPoint
 10
186.5105014744855
 20
192.0736459164397
 30
0.0
  0
POINT
  5
2368
330
13FE
100
AcDbEntity
  8
DEFPOINTS
 62
     0
100
AcDbPoint
 10
186.5105014744855
 20
192.0736459164397
 30
0.0
  0
ENDBLK
  5
1409
330
13FE
100
AcDbEntity
  8
0
100
AcDbBlockEnd
  0
BLOCK
  5
1415
330
140B
100
AcDbEntity
  8
0
100
AcDbBlockBegin
  2
*D19
 70
     1
 10
0.0
 20
0.0
 30
0.0
  3
*D19
  1

  0
LINE
  5
2357
330
140B
100
AcDbEntity
  8
SUNPOU
100
AcDbLine
 10
186.5105014744855
 20
195.0736459164397
 30
0.0
 11
186.5105014744855
 21
194.0736459164397
 31
0.0
  0
LINE
  5
2358
330
140B
100
AcDbEntity
  8
SUNPOU
100
AcDbLine
 10
150.5105014744854
 20
242.0995769544495
 30
0.0
 11
150.5105014744854
 21
190.0736459164397
 31
0.0
  0
LINE
  5
2359
330
140B
100
AcDbEntity
  8
SUNPOU
100
AcDbLine
 10
181.5105014744855
 20
192.0736459164397
 30
0.0
 11
155.5105014744854
 21
192.0736459164397
 31
0.0
  0
MTEXT
  5
235A
330
140B
100
AcDbEntity
  8
SUNPOU
 62
     6
100
AcDbMText
 10
171.3623293410751
 20
196.9124872520681
 30
0.0
 40
5.0
 41
0.0
 71
     5
 72
     1
  1
\A1;36
  7
SUNPOU
1001
ACAD
1000
MTEXTBEGIN
1070
    73
1070
     1
1070
    44
1040
1.0
1070
    74
1070
     0
1000
MTEXTEND
1000
MTEXTBEGIN
1070
    73
1070
     1
1070
    44
1040
1.0
1070
    74
1070
     0
1000
MTEXTEND
  0
INSERT
  5
235B
330
140B
100
AcDbEntity
  8
SUNPOU
100
AcDbBlockReference
  2
_OPEN30
 10
186.5105014744855
 20
192.0736459164397
 30
0.0
 41
5.0
 42
5.0
 43
5.0
  0
INSERT
  5
235C
330
140B
100
AcDbEntity
  8
SUNPOU
100
AcDbBlockReference
  2
_OPEN30
 10
150.5105014744854
 20
192.0736459164397
 30
0.0
 41
5.0
 42
5.0
 43
5.0
 50
180.0
  0
POINT
  5
235D
330
140B
100
AcDbEntity
  8
DEFPOINTS
 62
     0
100
AcDbPoint
 10
186.5105014744855
 20
192.0736459164397
 30
0.0
  0
POINT
  5
235E
330
140B
100
AcDbEntity
  8
DEFPOINTS
 62
     0
100
AcDbPoint
 10
150.5105014744854
 20
245.0995769544495
 30
0.0
  0
POINT
  5
235F
330
140B
100
AcDbEntity
  8
DEFPOINTS
 62
     0
100
AcDbPoint
 10
150.5105014744854
 20
192.0736459164397
 30
0.0
  0
ENDBLK
  5
1416
330
140B
100
AcDbEntity
  8
0
100
AcDbBlockEnd
  0
BLOCK
  5
1422
330
1418
100
AcDbEntity
  8
0
100
AcDbBlockBegin
  2
*D20
 70
     1
 10
0.0
 20
0.0
 30
0.0
  3
*D20
  1

  0
LINE
  5
234E
330
1418
100
AcDbEntity
  8
SUNPOU
100
AcDbLine
 10
178.5105014744855
 20
153.5995769544495
 30
0.0
 11
178.5105014744855
 21
146.316718600582
 31
0.0
  0
LINE
  5
234F
330
1418
100
AcDbEntity
  8
SUNPOU
100
AcDbLine
 10
206.5105014744855
 20
152.5995769544494
 30
0.0
 11
206.5105014744855
 21
146.316718600582
 31
0.0
  0
LINE
  5
2350
330
1418
100
AcDbEntity
  8
SUNPOU
100
AcDbLine
 10
183.5105014744855
 20
148.3167186005822
 30
0.0
 11
201.5105014744855
 21
148.3167186005822
 31
0.0
  0
INSERT
  5
2351
330
1418
100
AcDbEntity
  8
SUNPOU
100
AcDbBlockReference
  2
_OPEN30
 10
178.5105014744855
 20
148.3167186005822
 30
0.0
 41
5.0
 42
5.0
 43
5.0
 50
180.0
  0
INSERT
  5
2352
330
1418
100
AcDbEntity
  8
SUNPOU
100
AcDbBlockReference
  2
_OPEN30
 10
206.5105014744855
 20
148.3167186005822
 30
0.0
 41
5.0
 42
5.0
 43
5.0
  0
MTEXT
  5
2353
330
1418
100
AcDbEntity
  8
SUNPOU
 62
     6
100
AcDbMText
 10
192.5105014744855
 20
152.816718600582
 30
0.0
 40
5.0
 41
0.0
 71
     5
 72
     1
  1
\A1;28
  7
SUNPOU
1001
ACAD
1000
MTEXTBEGIN
1070
    73
1070
     1
1070
    44
1040
1.0
1070
    74
1070
     0
1000
MTEXTEND
1000
MTEXTBEGIN
1070
    73
1070
     1
1070
    44
1040
1.0
1070
    74
1070
     0
1000
MTEXTEND
  0
POINT
  5
2354
330
1418
100
AcDbEntity
  8
DEFPOINTS
 62
     0
100
AcDbPoint
 10
178.5105014744855
 20
156.5995769544494
 30
0.0
  0
POINT
  5
2355
330
1418
100
AcDbEntity
  8
DEFPOINTS
 62
     0
100
AcDbPoint
 10
206.5105014744855
 20
155.5995769544495
 30
0.0
  0
POINT
  5
2356
330
1418
100
AcDbEntity
  8
DEFPOINTS
 62
     0
100
AcDbPoint
 10
206.5105014744855
 20
148.3167186005822
 30
0.0
  0
ENDBLK
  5
1423
330
1418
100
AcDbEntity
  8
0
100
AcDbBlockEnd
  0
BLOCK
  5
1431
330
1425
100
AcDbEntity
  8
0
100
AcDbBlockBegin
  2
*D21
 70
     1
 10
0.0
 20
0.0
 30
0.0
  3
*D21
  1

  0
LINE
  5
2343
330
1425
100
AcDbEntity
  8
SUNPOU
100
AcDbLine
 10
206.5105014744855
 20
152.5995769544494
 30
0.0
 11
206.5105014744855
 21
146.316718600582
 31
0.0
  0
LINE
  5
2344
330
1425
100
AcDbEntity
  8
SUNPOU
100
AcDbLine
 10
211.5105014744855
 20
153.5995769544495
 30
0.0
 11
211.5105014744855
 21
146.316718600582
 31
0.0
  0
LINE
  5
2345
330
1425
100
AcDbEntity
  8
SUNPOU
100
AcDbLine
 10
201.5105014744855
 20
148.3167186005822
 30
0.0
 11
196.5105014744855
 21
148.3167186005822
 31
0.0
  0
LINE
  5
2346
330
1425
100
AcDbEntity
  8
SUNPOU
100
AcDbLine
 10
216.5105014744856
 20
148.3167186005822
 30
0.0
 11
221.5105014744855
 21
148.3167186005822
 31
0.0
  0
MTEXT
  5
2347
330
1425
100
AcDbEntity
  8
SUNPOU
 62
     6
100
AcDbMText
 10
209.0851839623451
 20
152.0419595320149
 30
0.0
 40
5.0
 41
0.0
 71
     5
 72
     1
  1
\A1;5
  7
SUNPOU
1001
ACAD
1000
MTEXTBEGIN
1070
    73
1070
     1
1070
    44
1040
1.0
1070
    74
1070
     0
1000
MTEXTEND
1000
MTEXTBEGIN
1070
    73
1070
     1
1070
    44
1040
1.0
1070
    74
1070
     0
1000
MTEXTEND
  0
LINE
  5
2348
330
1425
100
AcDbEntity
  8
SUNPOU
100
AcDbLine
 10
206.5105014744855
 20
148.3167186005822
 30
0.0
 11
211.5105014744855
 21
148.3167186005822
 31
0.0
  0
INSERT
  5
2349
330
1425
100
AcDbEntity
  8
SUNPOU
100
AcDbBlockReference
  2
_OPEN30
 10
206.5105014744855
 20
148.3167186005822
 30
0.0
 41
5.0
 42
5.0
 43
5.0
  0
INSERT
  5
234A
330
1425
100
AcDbEntity
  8
SUNPOU
100
AcDbBlockReference
  2
_OPEN30
 10
211.5105014744855
 20
148.3167186005822
 30
0.0
 41
5.0
 42
5.0
 43
5.0
 50
180.0
  0
POINT
  5
234B
330
1425
100
AcDbEntity
  8
DEFPOINTS
 62
     0
100
AcDbPoint
 10
206.5105014744855
 20
155.5995769544495
 30
0.0
  0
POINT
  5
234C
330
1425
100
AcDbEntity
  8
DEFPOINTS
 62
     0
100
AcDbPoint
 10
211.5105014744855
 20
156.5995769544494
 30
0.0
  0
POINT
  5
234D
330
1425
100
AcDbEntity
  8
DEFPOINTS
 62
     0
100
AcDbPoint
 10
211.5105014744855
 20
148.3167186005822
 30
0.0
  0
ENDBLK
  5
1432
330
1425
100
AcDbEntity
  8
0
100
AcDbBlockEnd
  0
BLOCK
  5
143E
330
1434
100
AcDbEntity
  8
0
100
AcDbBlockBegin
  2
*D22
 70
     1
 10
0.0
 20
0.0
 30
0.0
  3
*D22
  1

  0
LINE
  5
233A
330
1434
100
AcDbEntity
  8
SUNPOU
100
AcDbLine
 10
211.5105014744855
 20
153.5995769544495
 30
0.0
 11
211.5105014744855
 21
146.316718600582
 31
0.0
  0
LINE
  5
233B
330
1434
100
AcDbEntity
  8
SUNPOU
100
AcDbLine
 10
239.5105014744856
 20
153.5995769544495
 30
0.0
 11
239.5105014744856
 21
146.316718600582
 31
0.0
  0
LINE
  5
233C
330
1434
100
AcDbEntity
  8
SUNPOU
100
AcDbLine
 10
216.5105014744856
 20
148.3167186005822
 30
0.0
 11
234.5105014744855
 21
148.3167186005822
 31
0.0
  0
INSERT
  5
233D
330
1434
100
AcDbEntity
  8
SUNPOU
100
AcDbBlockReference
  2
_OPEN30
 10
211.5105014744855
 20
148.3167186005822
 30
0.0
 41
5.0
 42
5.0
 43
5.0
 50
180.0
  0
INSERT
  5
233E
330
1434
100
AcDbEntity
  8
SUNPOU
100
AcDbBlockReference
  2
_OPEN30
 10
239.5105014744856
 20
148.3167186005822
 30
0.0
 41
5.0
 42
5.0
 43
5.0
  0
MTEXT
  5
233F
330
1434
100
AcDbEntity
  8
SUNPOU
 62
     6
100
AcDbMText
 10
225.5105014744855
 20
152.816718600582
 30
0.0
 40
5.0
 41
0.0
 71
     5
 72
     1
  1
\A1;28
  7
SUNPOU
1001
ACAD
1000
MTEXTBEGIN
1070
    73
1070
     1
1070
    44
1040
1.0
1070
    74
1070
     0
1000
MTEXTEND
1000
MTEXTBEGIN
1070
    73
1070
     1
1070
    44
1040
1.0
1070
    74
1070
     0
1000
MTEXTEND
  0
POINT
  5
2340
330
1434
100
AcDbEntity
  8
DEFPOINTS
 62
     0
100
AcDbPoint
 10
211.5105014744855
 20
156.5995769544494
 30
0.0
  0
POINT
  5
2341
330
1434
100
AcDbEntity
  8
DEFPOINTS
 62
     0
100
AcDbPoint
 10
239.5105014744856
 20
156.5995769544494
 30
0.0
  0
POINT
  5
2342
330
1434
100
AcDbEntity
  8
DEFPOINTS
 62
     0
100
AcDbPoint
 10
239.5105014744856
 20
148.3167186005822
 30
0.0
  0
ENDBLK
  5
143F
330
1434
100
AcDbEntity
  8
0
100
AcDbBlockEnd
  0
BLOCK
  5
144D
330
1441
100
AcDbEntity
  8
0
100
AcDbBlockBegin
  2
*D23
 70
     1
 10
0.0
 20
0.0
 30
0.0
  3
*D23
  1

  0
LINE
  5
232F
330
1441
100
AcDbEntity
  8
SUNPOU
100
AcDbLine
 10
186.5105014744855
 20
138.4216599849551
 30
0.0
 11
186.5105014744855
 21
136.5377834022801
 31
0.0
  0
LINE
  5
2330
330
1441
100
AcDbEntity
  8
SUNPOU
100
AcDbLine
 10
198.5105014744855
 20
141.53778340228
 30
0.0
 11
198.5105014744855
 21
140.53778340228
 31
0.0
  0
LINE
  5
2331
330
1441
100
AcDbEntity
  8
SUNPOU
100
AcDbLine
 10
181.5105014744855
 20
138.53778340228
 30
0.0
 11
176.5105014744855
 21
138.53778340228
 31
0.0
  0
LINE
  5
2332
330
1441
100
AcDbEntity
  8
SUNPOU
100
AcDbLine
 10
203.5105014744855
 20
138.53778340228
 30
0.0
 11
208.5105014744855
 21
138.53778340228
 31
0.0
  0
LINE
  5
2333
330
1441
100
AcDbEntity
  8
SUNPOU
100
AcDbLine
 10
186.5105014744855
 20
138.53778340228
 30
0.0
 11
198.5105014744855
 21
138.53778340228
 31
0.0
  0
INSERT
  5
2334
330
1441
100
AcDbEntity
  8
SUNPOU
100
AcDbBlockReference
  2
_OPEN30
 10
186.5105014744855
 20
138.53778340228
 30
0.0
 41
5.0
 42
5.0
 43
5.0
  0
INSERT
  5
2335
330
1441
100
AcDbEntity
  8
SUNPOU
100
AcDbBlockReference
  2
_OPEN30
 10
198.5105014744855
 20
138.53778340228
 30
0.0
 41
5.0
 42
5.0
 43
5.0
 50
180.0
  0
MTEXT
  5
2336
330
1441
100
AcDbEntity
  8
SUNPOU
 62
     6
100
AcDbMText
 10
192.5105014744855
 20
143.0377834022801
 30
0.0
 40
5.0
 41
0.0
 71
     5
 72
     1
  1
\A1;12
  7
SUNPOU
1001
ACAD
1000
MTEXTBEGIN
1070
    73
1070
     1
1070
    44
1040
1.0
1070
    74
1070
     0
1000
MTEXTEND
1000
MTEXTBEGIN
1070
    73
1070
     1
1070
    44
1040
1.0
1070
    74
1070
     0
1000
MTEXTEND
  0
POINT
  5
2337
330
1441
100
AcDbEntity
  8
DEFPOINTS
 62
     0
100
AcDbPoint
 10
186.5105014744855
 20
141.4216599849551
 30
0.0
  0
POINT
  5
2338
330
1441
100
AcDbEntity
  8
DEFPOINTS
 62
     0
100
AcDbPoint
 10
198.5105014744855
 20
138.53778340228
 30
0.0
  0
POINT
  5
2339
330
1441
100
AcDbEntity
  8
DEFPOINTS
 62
     0
100
AcDbPoint
 10
198.5105014744855
 20
138.53778340228
 30
0.0
  0
ENDBLK
  5
144E
330
1441
100
AcDbEntity
  8
0
100
AcDbBlockEnd
  0
BLOCK
  5
145A
330
1450
100
AcDbEntity
  8
0
100
AcDbBlockBegin
  2
*D24
 70
     1
 10
0.0
 20
0.0
 30
0.0
  3
*D24
  1

  0
LINE
  5
2326
330
1450
100
AcDbEntity
  8
SUNPOU
100
AcDbLine
 10
259.5105014744855
 20
258.5995769544495
 30
0.0
 11
267.9051595202847
 21
258.5995769544495
 31
0.0
  0
LINE
  5
2327
330
1450
100
AcDbEntity
  8
SUNPOU
100
AcDbLine
 10
262.9051595202847
 20
243.5995769544494
 30
0.0
 11
263.9051595202847
 21
243.5995769544494
 31
0.0
  0
LINE
  5
2328
330
1450
100
AcDbEntity
  8
SUNPOU
100
AcDbLine
 10
265.9051595202847
 20
253.5995769544495
 30
0.0
 11
265.9051595202847
 21
248.5995769544495
 31
0.0
  0
MTEXT
  5
2329
330
1450
100
AcDbEntity
  8
SUNPOU
 62
     6
100
AcDbMText
 10
271.7639121505071
 20
251.1644869717523
 30
0.0
 40
5.0
 41
0.0
 71
     5
 72
     1
  1
\A1;15
  7
SUNPOU
 11
0.0000000000000001
 21
1.0
 31
0.0
1001
ACAD
1000
MTEXTBEGIN
1070
    73
1070
     1
1070
    44
1040
1.0
1070
    74
1070
     0
1000
MTEXTEND
1000
MTEXTBEGIN
1070
    73
1070
     1
1070
    44
1040
1.0
1070
    74
1070
     0
1000
MTEXTEND
  0
INSERT
  5
232A
330
1450
100
AcDbEntity
  8
SUNPOU
100
AcDbBlockReference
  2
_OPEN30
 10
265.9051595202847
 20
258.5995769544495
 30
0.0
 41
5.0
 42
5.0
 43
5.0
 50
90.0
  0
INSERT
  5
232B
330
1450
100
AcDbEntity
  8
SUNPOU
100
AcDbBlockReference
  2
_OPEN30
 10
265.9051595202847
 20
243.5995769544494
 30
0.0
 41
5.0
 42
5.0
 43
5.0
 50
270.0
  0
POINT
  5
232C
330
1450
100
AcDbEntity
  8
DEFPOINTS
 62
     0
100
AcDbPoint
 10
256.5105014744855
 20
258.5995769544495
 30
0.0
  0
POINT
  5
232D
330
1450
100
AcDbEntity
  8
DEFPOINTS
 62
     0
100
AcDbPoint
 10
265.9051595202847
 20
243.5995769544494
 30
0.0
  0
POINT
  5
232E
330
1450
100
AcDbEntity
  8
DEFPOINTS
 62
     0
100
AcDbPoint
 10
265.9051595202847
 20
243.5995769544494
 30
0.0
  0
ENDBLK
  5
145B
330
1450
100
AcDbEntity
  8
0
100
AcDbBlockEnd
  0
BLOCK
  5
1467
330
145D
100
AcDbEntity
  8
0
100
AcDbBlockBegin
  2
*D25
 70
     1
 10
0.0
 20
0.0
 30
0.0
  3
*D25
  1

  0
LINE
  5
231D
330
145D
100
AcDbEntity
  8
SUNPOU
100
AcDbLine
 10
311.0105014744855
 20
243.5995769544495
 30
0.0
 11
334.4210121970927
 21
243.5995769544494
 31
0.0
  0
LINE
  5
231E
330
145D
100
AcDbEntity
  8
SUNPOU
100
AcDbLine
 10
275.5104964744853
 20
265.5995469544496
 30
0.0
 11
334.4210121970927
 21
265.5995469544496
 31
0.0
  0
LINE
  5
231F
330
145D
100
AcDbEntity
  8
SUNPOU
100
AcDbLine
 10
332.4210121970927
 20
248.5995769544496
 30
0.0
 11
332.4210121970927
 21
260.5995469544495
 31
0.0
  0
INSERT
  5
2320
330
145D
100
AcDbEntity
  8
SUNPOU
100
AcDbBlockReference
  2
_OPEN30
 10
332.4210121970927
 20
243.5995769544494
 30
0.0
 41
5.0
 42
5.0
 43
5.0
 50
270.0
  0
INSERT
  5
2321
330
145D
100
AcDbEntity
  8
SUNPOU
100
AcDbBlockReference
  2
_OPEN30
 10
332.4210121970927
 20
265.5995469544496
 30
0.0
 41
5.0
 42
5.0
 43
5.0
 50
90.0
  0
MTEXT
  5
2322
330
145D
100
AcDbEntity
  8
SUNPOU
 62
     6
100
AcDbMText
 10
327.9210121970927
 20
254.5995619544495
 30
0.0
 40
5.0
 41
0.0
 71
     5
 72
     1
  1
\A1;22
  7
SUNPOU
 11
0.0000000000000001
 21
1.0
 31
0.0
1001
ACAD
1000
MTEXTBEGIN
1070
    73
1070
     1
1070
    44
1040
1.0
1070
    74
1070
     0
1000
MTEXTEND
1000
MTEXTBEGIN
1070
    73
1070
     1
1070
    44
1040
1.0
1070
    74
1070
     0
1000
MTEXTEND
  0
POINT
  5
2323
330
145D
100
AcDbEntity
  8
DEFPOINTS
 62
     0
100
AcDbPoint
 10
308.0105014744855
 20
243.5995769544495
 30
0.0
  0
POINT
  5
2324
330
145D
100
AcDbEntity
  8
DEFPOINTS
 62
     0
100
AcDbPoint
 10
272.5104964744853
 20
265.5995469544496
 30
0.0
  0
POINT
  5
2325
330
145D
100
AcDbEntity
  8
DEFPOINTS
 62
     0
100
AcDbPoint
 10
332.4210121970927
 20
265.5995469544496
 30
0.0
  0
ENDBLK
  5
1468
330
145D
100
AcDbEntity
  8
0
100
AcDbBlockEnd
  0
BLOCK
  5
1474
330
146A
100
AcDbEntity
  8
0
100
AcDbBlockBegin
  2
*D26
 70
     1
 10
0.0
 20
0.0
 30
0.0
  3
*D26
  1

  0
LINE
  5
2314
330
146A
100
AcDbEntity
  8
SUNPOU
100
AcDbLine
 10
275.5104964744853
 20
265.5995469544496
 30
0.0
 11
334.4210121970927
 21
265.5995469544496
 31
0.0
  0
LINE
  5
2315
330
146A
100
AcDbEntity
  8
SUNPOU
100
AcDbLine
 10
240.5105014744855
 20
345.5995536213379
 30
0.0
 11
334.4210121970927
 21
345.5995536213379
 31
0.0
  0
LINE
  5
2316
330
146A
100
AcDbEntity
  8
SUNPOU
100
AcDbLine
 10
332.4210121970927
 20
270.5995469544495
 30
0.0
 11
332.4210121970927
 21
340.5995536213379
 31
0.0
  0
INSERT
  5
2317
330
146A
100
AcDbEntity
  8
SUNPOU
100
AcDbBlockReference
  2
_OPEN30
 10
332.4210121970927
 20
265.5995469544496
 30
0.0
 41
5.0
 42
5.0
 43
5.0
 50
270.0
  0
INSERT
  5
2318
330
146A
100
AcDbEntity
  8
SUNPOU
100
AcDbBlockReference
  2
_OPEN30
 10
332.4210121970927
 20
345.5995536213379
 30
0.0
 41
5.0
 42
5.0
 43
5.0
 50
90.0
  0
MTEXT
  5
2319
330
146A
100
AcDbEntity
  8
SUNPOU
 62
     6
100
AcDbMText
 10
327.9210121970927
 20
305.5995502878938
 30
0.0
 40
5.0
 41
0.0
 71
     5
 72
     1
  1
\A1;80
  7
SUNPOU
 11
0.0000000000000001
 21
1.0
 31
0.0
1001
ACAD
1000
MTEXTBEGIN
1070
    73
1070
     1
1070
    44
1040
1.0
1070
    74
1070
     0
1000
MTEXTEND
1000
MTEXTBEGIN
1070
    73
1070
     1
1070
    44
1040
1.0
1070
    74
1070
     0
1000
MTEXTEND
  0
POINT
  5
231A
330
146A
100
AcDbEntity
  8
DEFPOINTS
 62
     0
100
AcDbPoint
 10
272.5104964744853
 20
265.5995469544496
 30
0.0
  0
POINT
  5
231B
330
146A
100
AcDbEntity
  8
DEFPOINTS
 62
     0
100
AcDbPoint
 10
237.5105014744855
 20
345.5995536213379
 30
0.0
  0
POINT
  5
231C
330
146A
100
AcDbEntity
  8
DEFPOINTS
 62
     0
100
AcDbPoint
 10
332.4210121970927
 20
345.5995536213379
 30
0.0
  0
ENDBLK
  5
1475
330
146A
100
AcDbEntity
  8
0
100
AcDbBlockEnd
  0
BLOCK
  5
1481
330
1477
100
AcDbEntity
  8
0
100
AcDbBlockBegin
  2
*D27
 70
     1
 10
0.0
 20
0.0
 30
0.0
  3
*D27
  1

  0
LINE
  5
230B
330
1477
100
AcDbEntity
  8
SUNPOU
100
AcDbLine
 10
240.5105014744855
 20
345.5995536213379
 30
0.0
 11
334.4210121970927
 21
345.5995536213379
 31
0.0
  0
LINE
  5
230C
330
1477
100
AcDbEntity
  8
SUNPOU
100
AcDbLine
 10
294.9308669100019
 20
369.5995869544495
 30
0.0
 11
334.4210121970927
 21
369.5995869544495
 31
0.0
  0
LINE
  5
230D
330
1477
100
AcDbEntity
  8
SUNPOU
100
AcDbLine
 10
332.4210121970927
 20
350.5995536213379
 30
0.0
 11
332.4210121970927
 21
364.5995869544496
 31
0.0
  0
INSERT
  5
230E
330
1477
100
AcDbEntity
  8
SUNPOU
100
AcDbBlockReference
  2
_OPEN30
 10
332.4210121970927
 20
345.5995536213379
 30
0.0
 41
5.0
 42
5.0
 43
5.0
 50
270.0
  0
INSERT
  5
230F
330
1477
100
AcDbEntity
  8
SUNPOU
100
AcDbBlockReference
  2
_OPEN30
 10
332.4210121970927
 20
369.5995869544495
 30
0.0
 41
5.0
 42
5.0
 43
5.0
 50
90.0
  0
MTEXT
  5
2310
330
1477
100
AcDbEntity
  8
SUNPOU
 62
     6
100
AcDbMText
 10
327.9210121970927
 20
357.5995702878937
 30
0.0
 40
5.0
 41
0.0
 71
     5
 72
     1
  1
\A1;24
  7
SUNPOU
 11
0.0000000000000001
 21
1.0
 31
0.0
1001
ACAD
1000
MTEXTBEGIN
1070
    73
1070
     1
1070
    44
1040
1.0
1070
    74
1070
     0
1000
MTEXTEND
1000
MTEXTBEGIN
1070
    73
1070
     1
1070
    44
1040
1.0
1070
    74
1070
     0
1000
MTEXTEND
  0
POINT
  5
2311
330
1477
100
AcDbEntity
  8
DEFPOINTS
 62
     0
100
AcDbPoint
 10
237.5105014744855
 20
345.5995536213379
 30
0.0
  0
POINT
  5
2312
330
1477
100
AcDbEntity
  8
DEFPOINTS
 62
     0
100
AcDbPoint
 10
291.9308669100018
 20
369.5995869544495
 30
0.0
  0
POINT
  5
2313
330
1477
100
AcDbEntity
  8
DEFPOINTS
 62
     0
100
AcDbPoint
 10
332.4210121970927
 20
369.5995869544495
 30
0.0
  0
ENDBLK
  5
1482
330
1477
100
AcDbEntity
  8
0
100
AcDbBlockEnd
  0
BLOCK
  5
148E
330
1484
100
AcDbEntity
  8
0
100
AcDbBlockBegin
  2
*D28
 70
     1
 10
0.0
 20
0.0
 30
0.0
  3
*D28
  1

  0
LINE
  5
2302
330
1484
100
AcDbEntity
  8
SUNPOU
100
AcDbLine
 10
307.5105014744853
 20
463.5995769544494
 30
0.0
 11
342.2151725009033
 21
463.5995769544494
 31
0.0
  0
LINE
  5
2303
330
1484
100
AcDbEntity
  8
SUNPOU
100
AcDbLine
 10
240.5105014744855
 20
345.5995536213379
 30
0.0
 11
342.2151725009033
 21
345.5995536213379
 31
0.0
  0
LINE
  5
2304
330
1484
100
AcDbEntity
  8
SUNPOU
100
AcDbLine
 10
340.2151725009033
 20
458.5995769544494
 30
0.0
 11
340.2151725009033
 21
350.5995536213379
 31
0.0
  0
INSERT
  5
2305
330
1484
100
AcDbEntity
  8
SUNPOU
100
AcDbBlockReference
  2
_OPEN30
 10
340.2151725009033
 20
463.5995769544494
 30
0.0
 41
5.0
 42
5.0
 43
5.0
 50
90.0
  0
INSERT
  5
2306
330
1484
100
AcDbEntity
  8
SUNPOU
100
AcDbBlockReference
  2
_OPEN30
 10
340.2151725009033
 20
345.5995536213379
 30
0.0
 41
5.0
 42
5.0
 43
5.0
 50
270.0
  0
MTEXT
  5
2307
330
1484
100
AcDbEntity
  8
SUNPOU
 62
     6
100
AcDbMText
 10
335.7151725009031
 20
404.5995652878938
 30
0.0
 40
5.0
 41
0.0
 71
     5
 72
     1
  1
\A1;118
  7
SUNPOU
 11
0.0000000000000001
 21
1.0
 31
0.0
1001
ACAD
1000
MTEXTBEGIN
1070
    73
1070
     1
1070
    44
1040
1.0
1070
    74
1070
     0
1000
MTEXTEND
1000
MTEXTBEGIN
1070
    73
1070
     1
1070
    44
1040
1.0
1070
    74
1070
     0
1000
MTEXTEND
  0
POINT
  5
2308
330
1484
100
AcDbEntity
  8
DEFPOINTS
 62
     0
100
AcDbPoint
 10
304.5105014744853
 20
463.5995769544494
 30
0.0
  0
POINT
  5
2309
330
1484
100
AcDbEntity
  8
DEFPOINTS
 62
     0
100
AcDbPoint
 10
237.5105014744855
 20
345.5995536213379
 30
0.0
  0
POINT
  5
230A
330
1484
100
AcDbEntity
  8
DEFPOINTS
 62
     0
100
AcDbPoint
 10
340.2151725009033
 20
345.5995536213379
 30
0.0
  0
ENDBLK
  5
148F
330
1484
100
AcDbEntity
  8
0
100
AcDbBlockEnd
  0
BLOCK
  5
149B
330
1491
100
AcDbEntity
  8
0
100
AcDbBlockBegin
  2
*D29
 70
     1
 10
0.0
 20
0.0
 30
0.0
  3
*D29
  1

  0
LINE
  5
22F9
330
1491
100
AcDbEntity
  8
SUNPOU
100
AcDbLine
 10
310.5105014744853
 20
463.5995769544494
 30
0.0
 11
354.0024693989831
 21
463.5995769544494
 31
0.0
  0
LINE
  5
22FA
330
1491
100
AcDbEntity
  8
SUNPOU
100
AcDbLine
 10
310.5105014744856
 20
243.5995769544495
 30
0.0
 11
354.002469398983
 21
243.5995769544494
 31
0.0
  0
LINE
  5
22FB
330
1491
100
AcDbEntity
  8
SUNPOU
100
AcDbLine
 10
352.0024693989832
 20
458.5995769544494
 30
0.0
 11
352.002469398983
 21
248.5995769544496
 31
0.0
  0
INSERT
  5
22FC
330
1491
100
AcDbEntity
  8
SUNPOU
100
AcDbBlockReference
  2
_OPEN30
 10
352.0024693989832
 20
463.5995769544494
 30
0.0
 41
5.0
 42
5.0
 43
5.0
 50
90.0
  0
INSERT
  5
22FD
330
1491
100
AcDbEntity
  8
SUNPOU
100
AcDbBlockReference
  2
_OPEN30
 10
352.002469398983
 20
243.5995769544494
 30
0.0
 41
5.0
 42
5.0
 43
5.0
 50
270.0
  0
MTEXT
  5
22FE
330
1491
100
AcDbEntity
  8
SUNPOU
 62
     6
100
AcDbMText
 10
347.502469398983
 20
353.5995769544496
 30
0.0
 40
5.0
 41
0.0
 71
     5
 72
     1
  1
\A1;220
  7
SUNPOU
 11
0.0000000000000001
 21
1.0
 31
0.0
1001
ACAD
1000
MTEXTBEGIN
1070
    73
1070
     1
1070
    44
1040
1.0
1070
    74
1070
     0
1000
MTEXTEND
1000
MTEXTBEGIN
1070
    73
1070
     1
1070
    44
1040
1.0
1070
    74
1070
     0
1000
MTEXTEND
  0
POINT
  5
22FF
330
1491
100
AcDbEntity
  8
DEFPOINTS
 62
     0
100
AcDbPoint
 10
307.5105014744853
 20
463.5995769544494
 30
0.0
  0
POINT
  5
2300
330
1491
100
AcDbEntity
  8
DEFPOINTS
 62
     0
100
AcDbPoint
 10
307.5105014744856
 20
243.5995769544495
 30
0.0
  0
POINT
  5
2301
330
1491
100
AcDbEntity
  8
DEFPOINTS
 62
     0
100
AcDbPoint
 10
352.002469398983
 20
243.5995769544494
 30
0.0
  0
ENDBLK
  5
149C
330
1491
100
AcDbEntity
  8
0
100
AcDbBlockEnd
  0
BLOCK
  5
14AA
330
149E
100
AcDbEntity
  8
0
100
AcDbBlockBegin
  2
*D30
 70
     1
 10
0.0
 20
0.0
 30
0.0
  3
*D30
  1

  0
LINE
  5
22EE
330
149E
100
AcDbEntity
  8
SUNPOU
100
AcDbLine
 10
312.5105014744852
 20
573.9444480092495
 30
0.0
 11
312.5105014744852
 21
572.9444480092495
 31
0.0
  0
LINE
  5
22EF
330
149E
100
AcDbEntity
  8
SUNPOU
100
AcDbLine
 10
309.5105014744853
 20
560.0995769544494
 30
0.0
 11
309.5105014744853
 21
572.9444480092495
 31
0.0
  0
LINE
  5
22F0
330
149E
100
AcDbEntity
  8
SUNPOU
100
AcDbLine
 10
317.5105014744853
 20
570.9444480092495
 30
0.0
 11
322.5105014744853
 21
570.9444480092495
 31
0.0
  0
LINE
  5
22F1
330
149E
100
AcDbEntity
  8
SUNPOU
100
AcDbLine
 10
304.5105014744851
 20
570.9444480092495
 30
0.0
 11
299.5105014744853
 21
570.9444480092495
 31
0.0
  0
MTEXT
  5
22F2
330
149E
100
AcDbEntity
  8
SUNPOU
 62
     6
100
AcDbMText
 10
317.757825614713
 20
575.1777469861754
 30
0.0
 40
5.0
 41
0.0
 71
     5
 72
     1
  1
\A1;3
  7
SUNPOU
1001
ACAD
1000
MTEXTBEGIN
1070
    73
1070
     1
1070
    44
1040
1.0
1070
    74
1070
     0
1000
MTEXTEND
1000
MTEXTBEGIN
1070
    73
1070
     1
1070
    44
1040
1.0
1070
    74
1070
     0
1000
MTEXTEND
  0
LINE
  5
22F3
330
149E
100
AcDbEntity
  8
SUNPOU
100
AcDbLine
 10
312.5105014744852
 20
570.9444480092495
 30
0.0
 11
309.5105014744853
 21
570.9444480092495
 31
0.0
  0
INSERT
  5
22F4
330
149E
100
AcDbEntity
  8
SUNPOU
100
AcDbBlockReference
  2
_OPEN30
 10
312.5105014744852
 20
570.9444480092495
 30
0.0
 41
5.0
 42
5.0
 43
5.0
 50
180.0
  0
INSERT
  5
22F5
330
149E
100
AcDbEntity
  8
SUNPOU
100
AcDbBlockReference
  2
_OPEN30
 10
309.5105014744853
 20
570.9444480092495
 30
0.0
 41
5.0
 42
5.0
 43
5.0
  0
POINT
  5
22F6
330
149E
100
AcDbEntity
  8
DEFPOINTS
 62
     0
100
AcDbPoint
 10
312.5105014744852
 20
570.9444480092495
 30
0.0
  0
POINT
  5
22F7
330
149E
100
AcDbEntity
  8
DEFPOINTS
 62
     0
100
AcDbPoint
 10
309.5105014744853
 20
557.0995769544493
 30
0.0
  0
POINT
  5
22F8
330
149E
100
AcDbEntity
  8
DEFPOINTS
 62
     0
100
AcDbPoint
 10
309.5105014744853
 20
570.9444480092495
 30
0.0
  0
ENDBLK
  5
14AB
330
149E
100
AcDbEntity
  8
0
100
AcDbBlockEnd
  0
BLOCK
  5
14C4
330
14BA
100
AcDbEntity
  8
0
100
AcDbBlockBegin
  2
*D31
 70
     1
 10
0.0
 20
0.0
 30
0.0
  3
*D31
  1

  0
LINE
  5
22E5
330
14BA
100
AcDbEntity
  8
SUNPOU
100
AcDbLine
 10
309.5105014744853
 20
560.0995769544494
 30
0.0
 11
309.5105014744853
 21
572.9444480092495
 31
0.0
  0
LINE
  5
22E6
330
14BA
100
AcDbEntity
  8
SUNPOU
100
AcDbLine
 10
150.5105014744851
 20
539.7995769544494
 30
0.0
 11
150.5105014744851
 21
572.9444480092495
 31
0.0
  0
LINE
  5
22E7
330
14BA
100
AcDbEntity
  8
SUNPOU
100
AcDbLine
 10
304.5105014744851
 20
570.9444480092495
 30
0.0
 11
155.5105014744853
 21
570.9444480092495
 31
0.0
  0
INSERT
  5
22E8
330
14BA
100
AcDbEntity
  8
SUNPOU
100
AcDbBlockReference
  2
_OPEN30
 10
309.5105014744853
 20
570.9444480092495
 30
0.0
 41
5.0
 42
5.0
 43
5.0
  0
INSERT
  5
22E9
330
14BA
100
AcDbEntity
  8
SUNPOU
100
AcDbBlockReference
  2
_OPEN30
 10
150.5105014744851
 20
570.9444480092495
 30
0.0
 41
5.0
 42
5.0
 43
5.0
 50
180.0
  0
MTEXT
  5
22EA
330
14BA
100
AcDbEntity
  8
SUNPOU
 62
     6
100
AcDbMText
 10
230.0105014744853
 20
575.4444480092493
 30
0.0
 40
5.0
 41
0.0
 71
     5
 72
     1
  1
\A1;159
  7
SUNPOU
1001
ACAD
1000
MTEXTBEGIN
1070
    73
1070
     1
1070
    44
1040
1.0
1070
    74
1070
     0
1000
MTEXTEND
1000
MTEXTBEGIN
1070
    73
1070
     1
1070
    44
1040
1.0
1070
    74
1070
     0
1000
MTEXTEND
  0
POINT
  5
22EB
330
14BA
100
AcDbEntity
  8
DEFPOINTS
 62
     0
100
AcDbPoint
 10
309.5105014744853
 20
557.0995769544493
 30
0.0
  0
POINT
  5
22EC
330
14BA
100
AcDbEntity
  8
DEFPOINTS
 62
     0
100
AcDbPoint
 10
150.5105014744851
 20
536.7995769544494
 30
0.0
  0
POINT
  5
22ED
330
14BA
100
AcDbEntity
  8
DEFPOINTS
 62
     0
100
AcDbPoint
 10
150.5105014744851
 20
570.9444480092495
 30
0.0
  0
ENDBLK
  5
14C5
330
14BA
100
AcDbEntity
  8
0
100
AcDbBlockEnd
  0
BLOCK
  5
14E2
330
14D6
100
AcDbEntity
  8
0
100
AcDbBlockBegin
  2
*D32
 70
     1
 10
0.0
 20
0.0
 30
0.0
  3
*D32
  1

  0
LINE
  5
22DA
330
14D6
100
AcDbEntity
  8
SUNPOU
100
AcDbLine
 10
150.5105014744851
 20
539.7995769544494
 30
0.0
 11
150.5105014744851
 21
572.9444480092495
 31
0.0
  0
LINE
  5
22DB
330
14D6
100
AcDbEntity
  8
SUNPOU
100
AcDbLine
 10
147.510501474485
 20
573.9444480092495
 30
0.0
 11
147.510501474485
 21
572.9444480092495
 31
0.0
  0
LINE
  5
22DC
330
14D6
100
AcDbEntity
  8
SUNPOU
100
AcDbLine
 10
155.5105014744853
 20
570.9444480092495
 30
0.0
 11
160.5105014744851
 21
570.9444480092495
 31
0.0
  0
LINE
  5
22DD
330
14D6
100
AcDbEntity
  8
SUNPOU
100
AcDbLine
 10
142.510501474485
 20
570.9444480092495
 30
0.0
 11
137.510501474485
 21
570.9444480092495
 31
0.0
  0
MTEXT
  5
22DE
330
14D6
100
AcDbEntity
  8
SUNPOU
 62
     6
100
AcDbMText
 10
141.5939871738705
 20
575.5606093229735
 30
0.0
 40
5.0
 41
0.0
 71
     5
 72
     1
  1
\A1;3
  7
SUNPOU
1001
ACAD
1000
MTEXTBEGIN
1070
    73
1070
     1
1070
    44
1040
1.0
1070
    74
1070
     0
1000
MTEXTEND
1000
MTEXTBEGIN
1070
    73
1070
     1
1070
    44
1040
1.0
1070
    74
1070
     0
1000
MTEXTEND
  0
LINE
  5
22DF
330
14D6
100
AcDbEntity
  8
SUNPOU
100
AcDbLine
 10
150.5105014744851
 20
570.9444480092495
 30
0.0
 11
147.510501474485
 21
570.9444480092495
 31
0.0
  0
INSERT
  5
22E0
330
14D6
100
AcDbEntity
  8
SUNPOU
100
AcDbBlockReference
  2
_OPEN30
 10
150.5105014744851
 20
570.9444480092495
 30
0.0
 41
5.0
 42
5.0
 43
5.0
 50
180.0
  0
INSERT
  5
22E1
330
14D6
100
AcDbEntity
  8
SUNPOU
100
AcDbBlockReference
  2
_OPEN30
 10
147.510501474485
 20
570.9444480092495
 30
0.0
 41
5.0
 42
5.0
 43
5.0
  0
POINT
  5
22E2
330
14D6
100
AcDbEntity
  8
DEFPOINTS
 62
     0
100
AcDbPoint
 10
150.5105014744851
 20
536.7995769544494
 30
0.0
  0
POINT
  5
22E3
330
14D6
100
AcDbEntity
  8
DEFPOINTS
 62
     0
100
AcDbPoint
 10
147.510501474485
 20
570.9444480092495
 30
0.0
  0
POINT
  5
22E4
330
14D6
100
AcDbEntity
  8
DEFPOINTS
 62
     0
100
AcDbPoint
 10
147.510501474485
 20
570.9444480092495
 30
0.0
  0
ENDBLK
  5
14E3
330
14D6
100
AcDbEntity
  8
0
100
AcDbBlockEnd
  0
BLOCK
  5
14EF
330
14E5
100
AcDbEntity
  8
0
100
AcDbBlockBegin
  2
*D33
 70
     1
 10
0.0
 20
0.0
 30
0.0
  3
*D33
  1

  0
LINE
  5
22D1
330
14E5
100
AcDbEntity
  8
SUNPOU
100
AcDbLine
 10
231.5105014744855
 20
408.1045320177413
 30
0.0
 11
231.5105014744855
 21
456.9871189361661
 31
0.0
  0
LINE
  5
22D2
330
14E5
100
AcDbEntity
  8
SUNPOU
100
AcDbLine
 10
266.0105014744853
 20
457.9871189361661
 30
0.0
 11
266.0105014744853
 21
456.9871189361661
 31
0.0
  0
LINE
  5
22D3
330
14E5
100
AcDbEntity
  8
SUNPOU
100
AcDbLine
 10
236.5105014744855
 20
454.9871189361661
 30
0.0
 11
261.0105014744854
 21
454.9871189361661
 31
0.0
  0
INSERT
  5
22D4
330
14E5
100
AcDbEntity
  8
SUNPOU
100
AcDbBlockReference
  2
_OPEN30
 10
231.5105014744855
 20
454.9871189361661
 30
0.0
 41
5.0
 42
5.0
 43
5.0
 50
180.0
  0
INSERT
  5
22D5
330
14E5
100
AcDbEntity
  8
SUNPOU
100
AcDbBlockReference
  2
_OPEN30
 10
266.0105014744853
 20
454.9871189361661
 30
0.0
 41
5.0
 42
5.0
 43
5.0
  0
MTEXT
  5
22D6
330
14E5
100
AcDbEntity
  8
SUNPOU
 62
     6
100
AcDbMText
 10
248.7605014744854
 20
459.4871189361661
 30
0.0
 40
5.0
 41
0.0
 71
     5
 72
     1
  1
\A1;34.5
  7
SUNPOU
1001
ACAD
1000
MTEXTBEGIN
1070
    73
1070
     1
1070
    44
1040
1.0
1070
    74
1070
     0
1000
MTEXTEND
1000
MTEXTBEGIN
1070
    73
1070
     1
1070
    44
1040
1.0
1070
    74
1070
     0
1000
MTEXTEND
  0
POINT
  5
22D7
330
14E5
100
AcDbEntity
  8
DEFPOINTS
 62
     0
100
AcDbPoint
 10
231.5105014744855
 20
405.1045320177411
 30
0.0
  0
POINT
  5
22D8
330
14E5
100
AcDbEntity
  8
DEFPOINTS
 62
     0
100
AcDbPoint
 10
266.0105014744853
 20
454.9871189361661
 30
0.0
  0
POINT
  5
22D9
330
14E5
100
AcDbEntity
  8
DEFPOINTS
 62
     0
100
AcDbPoint
 10
266.0105014744853
 20
454.9871189361661
 30
0.0
  0
ENDBLK
  5
14F0
330
14E5
100
AcDbEntity
  8
0
100
AcDbBlockEnd
  0
BLOCK
  5
14FC
330
14F2
100
AcDbEntity
  8
0
100
AcDbBlockBegin
  2
*D34
 70
     1
 10
0.0
 20
0.0
 30
0.0
  3
*D34
  1

  0
LINE
  5
22C8
330
14F2
100
AcDbEntity
  8
SUNPOU
100
AcDbLine
 10
266.0105014744853
 20
457.9871189361661
 30
0.0
 11
266.0105014744853
 21
456.9871189361661
 31
0.0
  0
LINE
  5
22C9
330
14F2
100
AcDbEntity
  8
SUNPOU
100
AcDbLine
 10
309.5105014744853
 20
457.9871189361661
 30
0.0
 11
309.5105014744853
 21
456.9871189361661
 31
0.0
  0
LINE
  5
22CA
330
14F2
100
AcDbEntity
  8
SUNPOU
100
AcDbLine
 10
271.0105014744854
 20
454.9871189361661
 30
0.0
 11
304.5105014744852
 21
454.9871189361661
 31
0.0
  0
MTEXT
  5
22CB
330
14F2
100
AcDbEntity
  8
SUNPOU
 62
     6
100
AcDbMText
 10
291.2792246254321
 20
459.4871189361661
 30
0.0
 40
5.0
 41
0.0
 71
     5
 72
     1
  1
\A1;43.5
  7
SUNPOU
1001
ACAD
1000
MTEXTBEGIN
1070
    73
1070
     1
1070
    44
1040
1.0
1070
    74
1070
     0
1000
MTEXTEND
1000
MTEXTBEGIN
1070
    73
1070
     1
1070
    44
1040
1.0
1070
    74
1070
     0
1000
MTEXTEND
  0
INSERT
  5
22CC
330
14F2
100
AcDbEntity
  8
SUNPOU
100
AcDbBlockReference
  2
_OPEN30
 10
266.0105014744853
 20
454.9871189361661
 30
0.0
 41
5.0
 42
5.0
 43
5.0
 50
180.0
  0
INSERT
  5
22CD
330
14F2
100
AcDbEntity
  8
SUNPOU
100
AcDbBlockReference
  2
_OPEN30
 10
309.5105014744853
 20
454.9871189361661
 30
0.0
 41
5.0
 42
5.0
 43
5.0
  0
POINT
  5
22CE
330
14F2
100
AcDbEntity
  8
DEFPOINTS
 62
     0
100
AcDbPoint
 10
266.0105014744853
 20
454.9871189361661
 30
0.0
  0
POINT
  5
22CF
330
14F2
100
AcDbEntity
  8
DEFPOINTS
 62
     0
100
AcDbPoint
 10
309.5105014744853
 20
454.9871189361661
 30
0.0
  0
POINT
  5
22D0
330
14F2
100
AcDbEntity
  8
DEFPOINTS
 62
     0
100
AcDbPoint
 10
309.5105014744853
 20
454.9871189361661
 30
0.0
  0
ENDBLK
  5
14FD
330
14F2
100
AcDbEntity
  8
0
100
AcDbBlockEnd
  0
BLOCK
  5
150B
330
14FF
100
AcDbEntity
  8
0
100
AcDbBlockBegin
  2
*D35
 70
     1
 10
0.0
 20
0.0
 30
0.0
  3
*D35
  1

  0
LINE
  5
22BD
330
14FF
100
AcDbEntity
  8
SUNPOU
100
AcDbLine
 10
272.5104964744853
 20
391.5391449668723
 30
0.0
 11
272.5104964744853
 21
390.5391449668723
 31
0.0
  0
LINE
  5
22BE
330
14FF
100
AcDbEntity
  8
SUNPOU
100
AcDbLine
 10
263.5104964744853
 20
391.5391449668723
 30
0.0
 11
263.5104964744853
 21
390.5391449668723
 31
0.0
  0
LINE
  5
22BF
330
14FF
100
AcDbEntity
  8
SUNPOU
100
AcDbLine
 10
277.5104964744853
 20
388.5391449668723
 30
0.0
 11
282.5104964744852
 21
388.5391449668723
 31
0.0
  0
LINE
  5
22C0
330
14FF
100
AcDbEntity
  8
SUNPOU
100
AcDbLine
 10
258.5104964744853
 20
388.5391449668723
 30
0.0
 11
253.5104964744851
 21
388.5391449668723
 31
0.0
  0
LINE
  5
22C1
330
14FF
100
AcDbEntity
  8
SUNPOU
100
AcDbLine
 10
272.5104964744853
 20
388.5391449668723
 30
0.0
 11
263.5104964744853
 21
388.5391449668723
 31
0.0
  0
INSERT
  5
22C2
330
14FF
100
AcDbEntity
  8
SUNPOU
100
AcDbBlockReference
  2
_OPEN30
 10
272.5104964744853
 20
388.5391449668723
 30
0.0
 41
5.0
 42
5.0
 43
5.0
 50
180.0
  0
INSERT
  5
22C3
330
14FF
100
AcDbEntity
  8
SUNPOU
100
AcDbBlockReference
  2
_OPEN30
 10
263.5104964744853
 20
388.5391449668723
 30
0.0
 41
5.0
 42
5.0
 43
5.0
  0
MTEXT
  5
22C4
330
14FF
100
AcDbEntity
  8
SUNPOU
 62
     6
100
AcDbMText
 10
268.0104964744852
 20
393.0391449668723
 30
0.0
 40
5.0
 41
0.0
 71
     5
 72
     1
  1
\A1;9
  7
SUNPOU
1001
ACAD
1000
MTEXTBEGIN
1070
    73
1070
     1
1070
    44
1040
1.0
1070
    74
1070
     0
1000
MTEXTEND
1000
MTEXTBEGIN
1070
    73
1070
     1
1070
    44
1040
1.0
1070
    74
1070
     0
1000
MTEXTEND
  0
POINT
  5
22C5
330
14FF
100
AcDbEntity
  8
DEFPOINTS
 62
     0
100
AcDbPoint
 10
272.5104964744853
 20
388.5391449668723
 30
0.0
  0
POINT
  5
22C6
330
14FF
100
AcDbEntity
  8
DEFPOINTS
 62
     0
100
AcDbPoint
 10
263.5104964744853
 20
388.5391449668723
 30
0.0
  0
POINT
  5
22C7
330
14FF
100
AcDbEntity
  8
DEFPOINTS
 62
     0
100
AcDbPoint
 10
263.5104964744853
 20
388.5391449668723
 30
0.0
  0
ENDBLK
  5
150C
330
14FF
100
AcDbEntity
  8
0
100
AcDbBlockEnd
  0
BLOCK
  5
1518
330
150E
100
AcDbEntity
  8
0
100
AcDbBlockBegin
  2
*D36
 70
     1
 10
0.0
 20
0.0
 30
0.0
  3
*D36
  1

  0
LINE
  5
22B4
330
150E
100
AcDbEntity
  8
SUNPOU
100
AcDbLine
 10
263.5104964744853
 20
391.5391449668723
 30
0.0
 11
263.5104964744853
 21
390.5391449668723
 31
0.0
  0
LINE
  5
22B5
330
150E
100
AcDbEntity
  8
SUNPOU
100
AcDbLine
 10
231.5105014744854
 20
391.5391449668723
 30
0.0
 11
231.5105014744854
 21
390.5391449668723
 31
0.0
  0
LINE
  5
22B6
330
150E
100
AcDbEntity
  8
SUNPOU
100
AcDbLine
 10
258.5104964744853
 20
388.5391449668723
 30
0.0
 11
236.5105014744854
 21
388.5391449668723
 31
0.0
  0
MTEXT
  5
22B7
330
150E
100
AcDbEntity
  8
SUNPOU
 62
     6
100
AcDbMText
 10
250.1966832768944
 20
393.8267653689969
 30
0.0
 40
5.0
 41
0.0
 71
     5
 72
     1
  1
\A1;32
  7
SUNPOU
1001
ACAD
1000
MTEXTBEGIN
1070
    73
1070
     1
1070
    44
1040
1.0
1070
    74
1070
     0
1000
MTEXTEND
1000
MTEXTBEGIN
1070
    73
1070
     1
1070
    44
1040
1.0
1070
    74
1070
     0
1000
MTEXTEND
  0
INSERT
  5
22B8
330
150E
100
AcDbEntity
  8
SUNPOU
100
AcDbBlockReference
  2
_OPEN30
 10
263.5104964744853
 20
388.5391449668723
 30
0.0
 41
5.0
 42
5.0
 43
5.0
  0
INSERT
  5
22B9
330
150E
100
AcDbEntity
  8
SUNPOU
100
AcDbBlockReference
  2
_OPEN30
 10
231.5105014744854
 20
388.5391449668723
 30
0.0
 41
5.0
 42
5.0
 43
5.0
 50
180.0
  0
POINT
  5
22BA
330
150E
100
AcDbEntity
  8
DEFPOINTS
 62
     0
100
AcDbPoint
 10
263.5104964744853
 20
388.5391449668723
 30
0.0
  0
POINT
  5
22BB
330
150E
100
AcDbEntity
  8
DEFPOINTS
 62
     0
100
AcDbPoint
 10
231.5105014744854
 20
388.5391449668723
 30
0.0
  0
POINT
  5
22BC
330
150E
100
AcDbEntity
  8
DEFPOINTS
 62
     0
100
AcDbPoint
 10
231.5105014744854
 20
388.5391449668723
 30
0.0
  0
ENDBLK
  5
1519
330
150E
100
AcDbEntity
  8
0
100
AcDbBlockEnd
  0
BLOCK
  5
1525
330
151B
100
AcDbEntity
  8
0
100
AcDbBlockBegin
  2
*D37
 70
     1
 10
0.0
 20
0.0
 30
0.0
  3
*D37
  1

  0
LINE
  5
22AB
330
151B
100
AcDbEntity
  8
SUNPOU
100
AcDbLine
 10
231.5105014744854
 20
391.5391449668723
 30
0.0
 11
231.5105014744854
 21
390.5391449668723
 31
0.0
  0
LINE
  5
22AC
330
151B
100
AcDbEntity
  8
SUNPOU
100
AcDbLine
 10
168.5105014744855
 20
391.5391449668723
 30
0.0
 11
168.5105014744855
 21
390.5391449668723
 31
0.0
  0
LINE
  5
22AD
330
151B
100
AcDbEntity
  8
SUNPOU
100
AcDbLine
 10
226.5105014744853
 20
388.5391449668723
 30
0.0
 11
173.5105014744855
 21
388.5391449668723
 31
0.0
  0
INSERT
  5
22AE
330
151B
100
AcDbEntity
  8
SUNPOU
100
AcDbBlockReference
  2
_OPEN30
 10
231.5105014744854
 20
388.5391449668723
 30
0.0
 41
5.0
 42
5.0
 43
5.0
  0
INSERT
  5
22AF
330
151B
100
AcDbEntity
  8
SUNPOU
100
AcDbBlockReference
  2
_OPEN30
 10
168.5105014744855
 20
388.5391449668723
 30
0.0
 41
5.0
 42
5.0
 43
5.0
 50
180.0
  0
MTEXT
  5
22B0
330
151B
100
AcDbEntity
  8
SUNPOU
 62
     6
100
AcDbMText
 10
200.0105014744854
 20
393.0391449668723
 30
0.0
 40
5.0
 41
0.0
 71
     5
 72
     1
  1
\A1;63
  7
SUNPOU
1001
ACAD
1000
MTEXTBEGIN
1070
    73
1070
     1
1070
    44
1040
1.0
1070
    74
1070
     0
1000
MTEXTEND
1000
MTEXTBEGIN
1070
    73
1070
     1
1070
    44
1040
1.0
1070
    74
1070
     0
1000
MTEXTEND
  0
POINT
  5
22B1
330
151B
100
AcDbEntity
  8
DEFPOINTS
 62
     0
100
AcDbPoint
 10
231.5105014744854
 20
388.5391449668723
 30
0.0
  0
POINT
  5
22B2
330
151B
100
AcDbEntity
  8
DEFPOINTS
 62
     0
100
AcDbPoint
 10
168.5105014744855
 20
388.5391449668722
 30
0.0
  0
POINT
  5
22B3
330
151B
100
AcDbEntity
  8
DEFPOINTS
 62
     0
100
AcDbPoint
 10
168.5105014744855
 20
388.5391449668723
 30
0.0
  0
ENDBLK
  5
1526
330
151B
100
AcDbEntity
  8
0
100
AcDbBlockEnd
  0
BLOCK
  5
1543
330
1537
100
AcDbEntity
  8
0
100
AcDbBlockBegin
  2
*D38
 70
     1
 10
0.0
 20
0.0
 30
0.0
  3
*D38
  1

  0
LINE
  5
22A2
330
1537
100
AcDbEntity
  8
SUNPOU
100
AcDbLine
 10
168.5105014744855
 20
391.5391449668723
 30
0.0
 11
168.5105014744855
 21
390.5391449668723
 31
0.0
  0
LINE
  5
22A3
330
1537
100
AcDbEntity
  8
SUNPOU
100
AcDbLine
 10
150.5105014744853
 20
391.5391449668723
 30
0.0
 11
150.5105014744853
 21
390.5391449668723
 31
0.0
  0
LINE
  5
22A4
330
1537
100
AcDbEntity
  8
SUNPOU
100
AcDbLine
 10
163.5105014744854
 20
388.5391449668723
 30
0.0
 11
155.5105014744853
 21
388.5391449668723
 31
0.0
  0
MTEXT
  5
22A5
330
1537
100
AcDbEntity
  8
SUNPOU
 62
     6
100
AcDbMText
 10
157.1959104108332
 20
393.7971959108616
 30
0.0
 40
5.0
 41
0.0
 71
     5
 72
     1
  1
\A1;18
  7
SUNPOU
1001
ACAD
1000
MTEXTBEGIN
1070
    73
1070
     1
1070
    44
1040
1.0
1070
    74
1070
     0
1000
MTEXTEND
1000
MTEXTBEGIN
1070
    73
1070
     1
1070
    44
1040
1.0
1070
    74
1070
     0
1000
MTEXTEND
  0
INSERT
  5
22A6
330
1537
100
AcDbEntity
  8
SUNPOU
100
AcDbBlockReference
  2
_OPEN30
 10
168.5105014744855
 20
388.5391449668723
 30
0.0
 41
5.0
 42
5.0
 43
5.0
  0
INSERT
  5
22A7
330
1537
100
AcDbEntity
  8
SUNPOU
100
AcDbBlockReference
  2
_OPEN30
 10
150.5105014744853
 20
388.5391449668723
 30
0.0
 41
5.0
 42
5.0
 43
5.0
 50
180.0
  0
POINT
  5
22A8
330
1537
100
AcDbEntity
  8
DEFPOINTS
 62
     0
100
AcDbPoint
 10
168.5105014744855
 20
388.5391449668723
 30
0.0
  0
POINT
  5
22A9
330
1537
100
AcDbEntity
  8
DEFPOINTS
 62
     0
100
AcDbPoint
 10
150.5105014744853
 20
388.5391449668723
 30
0.0
  0
POINT
  5
22AA
330
1537
100
AcDbEntity
  8
DEFPOINTS
 62
     0
100
AcDbPoint
 10
150.5105014744853
 20
388.5391449668723
 30
0.0
  0
ENDBLK
  5
1544
330
1537
100
AcDbEntity
  8
0
100
AcDbBlockEnd
  0
BLOCK
  5
1550
330
1546
100
AcDbEntity
  8
0
100
AcDbBlockBegin
  2
*D39
 70
     1
 10
0.0
 20
0.0
 30
0.0
  3
*D39
  1

  0
LINE
  5
2299
330
1546
100
AcDbEntity
  8
SUNPOU
100
AcDbLine
 10
215.5105064744855
 20
400.5995869544494
 30
0.0
 11
205.1038525062745
 21
400.5995869544494
 31
0.0
  0
LINE
  5
229A
330
1546
100
AcDbEntity
  8
SUNPOU
100
AcDbLine
 10
215.5105064744855
 20
338.5995969544496
 30
0.0
 11
205.1038525062745
 21
338.5995969544496
 31
0.0
  0
LINE
  5
229B
330
1546
100
AcDbEntity
  8
SUNPOU
100
AcDbLine
 10
207.1038525062745
 20
395.5995869544494
 30
0.0
 11
207.1038525062745
 21
343.5995969544496
 31
0.0
  0
INSERT
  5
229C
330
1546
100
AcDbEntity
  8
SUNPOU
100
AcDbBlockReference
  2
_OPEN30
 10
207.1038525062745
 20
400.5995869544494
 30
0.0
 41
5.0
 42
5.0
 43
5.0
 50
90.0
  0
INSERT
  5
229D
330
1546
100
AcDbEntity
  8
SUNPOU
100
AcDbBlockReference
  2
_OPEN30
 10
207.1038525062745
 20
338.5995969544496
 30
0.0
 41
5.0
 42
5.0
 43
5.0
 50
270.0
  0
MTEXT
  5
229E
330
1546
100
AcDbEntity
  8
SUNPOU
 62
     6
100
AcDbMText
 10
202.6038525062744
 20
369.5995919544496
 30
0.0
 40
5.0
 41
0.0
 71
     5
 72
     1
  1
\A1;62
  7
SUNPOU
 11
0.0000000000000001
 21
1.0
 31
0.0
1001
ACAD
1000
MTEXTBEGIN
1070
    73
1070
     1
1070
    44
1040
1.0
1070
    74
1070
     0
1000
MTEXTEND
1000
MTEXTBEGIN
1070
    73
1070
     1
1070
    44
1040
1.0
1070
    74
1070
     0
1000
MTEXTEND
  0
POINT
  5
229F
330
1546
100
AcDbEntity
  8
DEFPOINTS
 62
     0
100
AcDbPoint
 10
218.5105064744855
 20
400.5995869544494
 30
0.0
  0
POINT
  5
22A0
330
1546
100
AcDbEntity
  8
DEFPOINTS
 62
     0
100
AcDbPoint
 10
218.5105064744855
 20
338.5995969544496
 30
0.0
  0
POINT
  5
22A1
330
1546
100
AcDbEntity
  8
DEFPOINTS
 62
     0
100
AcDbPoint
 10
207.1038525062745
 20
338.5995969544496
 30
0.0
  0
ENDBLK
  5
1551
330
1546
100
AcDbEntity
  8
0
100
AcDbBlockEnd
  0
BLOCK
  5
155D
330
1553
100
AcDbEntity
  8
0
100
AcDbBlockBegin
  2
*D40
 70
     1
 10
0.0
 20
0.0
 30
0.0
  3
*D40
  1

  0
LINE
  5
2290
330
1553
100
AcDbEntity
  8
SUNPOU
100
AcDbLine
 10
183.5105014744854
 20
357.5995769544494
 30
0.0
 11
196.3282381649291
 21
357.5995769544494
 31
0.0
  0
LINE
  5
2291
330
1553
100
AcDbEntity
  8
SUNPOU
100
AcDbLine
 10
191.328238164929
 20
317.5995769544495
 30
0.0
 11
192.328238164929
 21
317.5995769544495
 31
0.0
  0
LINE
  5
2292
330
1553
100
AcDbEntity
  8
SUNPOU
100
AcDbLine
 10
194.3282381649291
 20
352.5995769544494
 30
0.0
 11
194.3282381649291
 21
322.5995769544494
 31
0.0
  0
INSERT
  5
2293
330
1553
100
AcDbEntity
  8
SUNPOU
100
AcDbBlockReference
  2
_OPEN30
 10
194.3282381649291
 20
357.5995769544494
 30
0.0
 41
5.0
 42
5.0
 43
5.0
 50
90.0
  0
INSERT
  5
2294
330
1553
100
AcDbEntity
  8
SUNPOU
100
AcDbBlockReference
  2
_OPEN30
 10
194.328238164929
 20
317.5995769544495
 30
0.0
 41
5.0
 42
5.0
 43
5.0
 50
270.0
  0
MTEXT
  5
2295
330
1553
100
AcDbEntity
  8
SUNPOU
 62
     6
100
AcDbMText
 10
189.828238164929
 20
337.5995769544496
 30
0.0
 40
5.0
 41
0.0
 71
     5
 72
     1
  1
\A1;40
  7
SUNPOU
 11
0.0000000000000001
 21
1.0
 31
0.0
1001
ACAD
1000
MTEXTBEGIN
1070
    73
1070
     1
1070
    44
1040
1.0
1070
    74
1070
     0
1000
MTEXTEND
1000
MTEXTBEGIN
1070
    73
1070
     1
1070
    44
1040
1.0
1070
    74
1070
     0
1000
MTEXTEND
  0
POINT
  5
2296
330
1553
100
AcDbEntity
  8
DEFPOINTS
 62
     0
100
AcDbPoint
 10
180.5105014744855
 20
357.5995769544494
 30
0.0
  0
POINT
  5
2297
330
1553
100
AcDbEntity
  8
DEFPOINTS
 62
     0
100
AcDbPoint
 10
194.328238164929
 20
317.5995769544495
 30
0.0
  0
POINT
  5
2298
330
1553
100
AcDbEntity
  8
DEFPOINTS
 62
     0
100
AcDbPoint
 10
194.328238164929
 20
317.5995769544495
 30
0.0
  0
ENDBLK
  5
155E
330
1553
100
AcDbEntity
  8
0
100
AcDbBlockEnd
  0
BLOCK
  5
156C
330
1560
100
AcDbEntity
  8
0
100
AcDbBlockBegin
  2
*D41
 70
     1
 10
0.0
 20
0.0
 30
0.0
  3
*D41
  1

  0
LINE
  5
2285
330
1560
100
AcDbEntity
  8
SUNPOU
100
AcDbLine
 10
191.328238164929
 20
317.5995769544495
 30
0.0
 11
192.328238164929
 21
317.5995769544495
 31
0.0
  0
LINE
  5
2286
330
1560
100
AcDbEntity
  8
SUNPOU
100
AcDbLine
 10
191.328238164929
 20
314.5995769544494
 30
0.0
 11
192.328238164929
 21
314.5995769544494
 31
0.0
  0
LINE
  5
2287
330
1560
100
AcDbEntity
  8
SUNPOU
100
AcDbLine
 10
194.3282381649291
 20
322.5995769544494
 30
0.0
 11
194.3282381649291
 21
327.5995769544495
 31
0.0
  0
LINE
  5
2288
330
1560
100
AcDbEntity
  8
SUNPOU
100
AcDbLine
 10
194.328238164929
 20
309.5995769544495
 30
0.0
 11
194.328238164929
 21
304.5995769544495
 31
0.0
  0
MTEXT
  5
2289
330
1560
100
AcDbEntity
  8
SUNPOU
 62
     6
100
AcDbMText
 10
189.5070926070351
 20
311.1910697650968
 30
0.0
 40
5.0
 41
0.0
 71
     5
 72
     1
  1
\A1;3
  7
SUNPOU
 11
0.0000000000000001
 21
1.0
 31
0.0
1001
ACAD
1000
MTEXTBEGIN
1070
    73
1070
     1
1070
    44
1040
1.0
1070
    74
1070
     0
1000
MTEXTEND
1000
MTEXTBEGIN
1070
    73
1070
     1
1070
    44
1040
1.0
1070
    74
1070
     0
1000
MTEXTEND
  0
LINE
  5
228A
330
1560
100
AcDbEntity
  8
SUNPOU
100
AcDbLine
 10
194.328238164929
 20
317.5995769544495
 30
0.0
 11
194.328238164929
 21
314.5995769544494
 31
0.0
  0
INSERT
  5
228B
330
1560
100
AcDbEntity
  8
SUNPOU
100
AcDbBlockReference
  2
_OPEN30
 10
194.328238164929
 20
317.5995769544495
 30
0.0
 41
5.0
 42
5.0
 43
5.0
 50
270.0
  0
INSERT
  5
228C
330
1560
100
AcDbEntity
  8
SUNPOU
100
AcDbBlockReference
  2
_OPEN30
 10
194.328238164929
 20
314.5995769544494
 30
0.0
 41
5.0
 42
5.0
 43
5.0
 50
90.0
  0
POINT
  5
228D
330
1560
100
AcDbEntity
  8
DEFPOINTS
 62
     0
100
AcDbPoint
 10
194.328238164929
 20
317.5995769544495
 30
0.0
  0
POINT
  5
228E
330
1560
100
AcDbEntity
  8
DEFPOINTS
 62
     0
100
AcDbPoint
 10
194.328238164929
 20
314.5995769544494
 30
0.0
  0
POINT
  5
228F
330
1560
100
AcDbEntity
  8
DEFPOINTS
 62
     0
100
AcDbPoint
 10
194.328238164929
 20
314.5995769544494
 30
0.0
  0
ENDBLK
  5
156D
330
1560
100
AcDbEntity
  8
0
100
AcDbBlockEnd
  0
BLOCK
  5
1630
330
1626
100
AcDbEntity
  8
0
100
AcDbBlockBegin
  2
*D42
 70
     1
 10
0.0
 20
0.0
 30
0.0
  3
*D42
  1

  0
LINE
  5
227C
330
1626
100
AcDbEntity
  8
SUNPOU
100
AcDbLine
 10
221.5105014744855
 20
68.84694148812309
 30
0.0
 11
221.5105014744855
 21
55.368088491138
 31
0.0
  0
LINE
  5
227D
330
1626
100
AcDbEntity
  8
SUNPOU
100
AcDbLine
 10
241.5105014744856
 20
68.84694148812309
 30
0.0
 11
241.5105014744856
 21
55.368088491138
 31
0.0
  0
LINE
  5
227E
330
1626
100
AcDbEntity
  8
SUNPOU
100
AcDbLine
 10
226.5105014744855
 20
57.36808849113799
 30
0.0
 11
236.5105014744855
 21
57.36808849113799
 31
0.0
  0
MTEXT
  5
227F
330
1626
100
AcDbEntity
  8
SUNPOU
 62
     6
100
AcDbMText
 10
231.5105014744855
 20
64.06299246248114
 30
0.0
 40
5.0
 41
0.0
 71
     5
 72
     1
  1
\A1;20
  7
SUNPOU
1001
ACAD
1000
MTEXTBEGIN
1070
    73
1070
     1
1070
    44
1040
1.0
1070
    74
1070
     0
1000
MTEXTEND
1000
MTEXTBEGIN
1070
    73
1070
     1
1070
    44
1040
1.0
1070
    74
1070
     0
1000
MTEXTEND
  0
INSERT
  5
2280
330
1626
100
AcDbEntity
  8
SUNPOU
100
AcDbBlockReference
  2
_OPEN30
 10
221.5105014744855
 20
57.36808849113799
 30
0.0
 41
5.0
 42
5.0
 43
5.0
 50
180.0
  0
INSERT
  5
2281
330
1626
100
AcDbEntity
  8
SUNPOU
100
AcDbBlockReference
  2
_OPEN30
 10
241.5105014744856
 20
57.36808849113799
 30
0.0
 41
5.0
 42
5.0
 43
5.0
  0
POINT
  5
2282
330
1626
100
AcDbEntity
  8
DEFPOINTS
 62
     0
100
AcDbPoint
 10
221.5105014744855
 20
71.84694148812309
 30
0.0
  0
POINT
  5
2283
330
1626
100
AcDbEntity
  8
DEFPOINTS
 62
     0
100
AcDbPoint
 10
241.5105014744856
 20
71.84694148812309
 30
0.0
  0
POINT
  5
2284
330
1626
100
AcDbEntity
  8
DEFPOINTS
 62
     0
100
AcDbPoint
 10
241.5105014744856
 20
57.36808849113799
 30
0.0
  0
ENDBLK
  5
1631
330
1626
100
AcDbEntity
  8
0
100
AcDbBlockEnd
  0
BLOCK
  5
1F9A
330
1F92
100
AcDbEntity
  8
0
100
AcDbBlockBegin
  2
*D43
 70
     1
 10
0.0
 20
0.0
 30
0.0
  3
*D43
  1

  0
LINE
  5
2274
330
1F92
100
AcDbEntity
  8
SUNPOU
100
AcDbLine
 10
257.7287494585553
 20
498.2943621164006
 30
0.0
 11
261.7840121843711
 21
501.2192286474768
 31
0.0
  0
LINE
  5
2275
330
1F92
100
AcDbEntity
  8
SUNPOU
100
AcDbLine
 10
225.2866476520296
 20
474.8954298677912
 30
0.0
 11
221.2313849262139
 21
471.970563336715
 31
0.0
  0
MTEXT
  5
2276
330
1F92
100
AcDbEntity
  8
SUNPOU
 62
     6
100
AcDbMText
 10
237.7965790309958
 20
483.9182434486396
 30
0.0
 40
5.0
 41
0.0
 71
     5
 72
     1
  1
\A1;\U+220530\P両端
  7
SUNPOU
 11
0.8110525451631469
 21
0.5849733062152338
 31
0.0
1001
ACAD
1000
MTEXTBEGIN
1070
    73
1070
     1
1070
    44
1040
1.0
1070
    74
1070
     0
1000
MTEXTEND
1000
MTEXTBEGIN
1070
    73
1070
     1
1070
    44
1040
1.0
1070
    74
1070
     0
1000
MTEXTEND
  0
LINE
  5
2277
330
1F92
100
AcDbEntity
  8
SUNPOU
100
AcDbLine
 10
253.6734867327397
 20
495.3694955853244
 30
0.0
 11
229.3419103778453
 21
477.8202963988674
 31
0.0
  0
INSERT
  5
2278
330
1F92
100
AcDbEntity
  8
SUNPOU
100
AcDbBlockReference
  2
_OPEN30
 10
253.6734867327397
 20
495.3694955853244
 30
0.0
 41
5.0
 42
5.0
 43
5.0
 50
215.8011042406251
  0
INSERT
  5
2279
330
1F92
100
AcDbEntity
  8
SUNPOU
100
AcDbBlockReference
  2
_OPEN30
 10
229.3419103778453
 20
477.8202963988674
 30
0.0
 41
5.0
 42
5.0
 43
5.0
 50
35.80110424062517
  0
POINT
  5
227A
330
1F92
100
AcDbEntity
  8
DEFPOINTS
 62
     0
100
AcDbPoint
 10
229.3419103778453
 20
477.8202963988674
 30
0.0
  0
POINT
  5
227B
330
1F92
100
AcDbEntity
  8
DEFPOINTS
 62
     0
100
AcDbPoint
 10
253.6734867327397
 20
495.3694955853244
 30
0.0
  0
ENDBLK
  5
1F9B
330
1F92
100
AcDbEntity
  8
0
100
AcDbBlockEnd
  0
BLOCK
  5
2019
330
200F
100
AcDbEntity
  8
0
100
AcDbBlockBegin
  2
*D44
 70
     1
 10
0.0
 20
0.0
 30
0.0
  3
*D44
  1

  0
LINE
  5
226B
330
200F
100
AcDbEntity
  8
SUNPOU
100
AcDbLine
 10
314.0105014744857
 20
243.5995769544494
 30
0.0
 11
329.6910191146448
 21
243.5995769544494
 31
0.0
  0
LINE
  5
226C
330
200F
100
AcDbEntity
  8
SUNPOU
100
AcDbLine
 10
305.7266998297937
 20
173.5995769544494
 30
0.0
 11
329.6910191146448
 21
173.5995769544494
 31
0.0
  0
LINE
  5
226D
330
200F
100
AcDbEntity
  8
SUNPOU
100
AcDbLine
 10
327.6910191146447
 20
238.5995769544494
 30
0.0
 11
327.6910191146447
 21
178.5995769544495
 31
0.0
  0
INSERT
  5
226E
330
200F
100
AcDbEntity
  8
SUNPOU
100
AcDbBlockReference
  2
_OPEN30
 10
327.6910191146447
 20
243.5995769544494
 30
0.0
 41
5.0
 42
5.0
 43
5.0
 50
90.0
  0
INSERT
  5
226F
330
200F
100
AcDbEntity
  8
SUNPOU
100
AcDbBlockReference
  2
_OPEN30
 10
327.6910191146447
 20
173.5995769544494
 30
0.0
 41
5.0
 42
5.0
 43
5.0
 50
270.0
  0
MTEXT
  5
2270
330
200F
100
AcDbEntity
  8
SUNPOU
 62
     6
100
AcDbMText
 10
323.1910191146448
 20
208.5995769544495
 30
0.0
 40
5.0
 41
0.0
 71
     5
 72
     1
  1
\A1;70
  7
SUNPOU
 11
0.0000000000000001
 21
1.0
 31
0.0
1001
ACAD
1000
MTEXTBEGIN
1070
    73
1070
     1
1070
    44
1040
1.0
1070
    74
1070
     0
1000
MTEXTEND
1000
MTEXTBEGIN
1070
    73
1070
     1
1070
    44
1040
1.0
1070
    74
1070
     0
1000
MTEXTEND
  0
POINT
  5
2271
330
200F
100
AcDbEntity
  8
DEFPOINTS
 62
     0
100
AcDbPoint
 10
311.0105014744856
 20
243.5995769544494
 30
0.0
  0
POINT
  5
2272
330
200F
100
AcDbEntity
  8
DEFPOINTS
 62
     0
100
AcDbPoint
 10
302.7266998297936
 20
173.5995769544494
 30
0.0
  0
POINT
  5
2273
330
200F
100
AcDbEntity
  8
DEFPOINTS
 62
     0
100
AcDbPoint
 10
327.6910191146447
 20
173.5995769544494
 30
0.0
  0
ENDBLK
  5
201A
330
200F
100
AcDbEntity
  8
0
100
AcDbBlockEnd
  0
BLOCK
  5
242A
330
2420
100
AcDbEntity
  8
0
100
AcDbBlockBegin
  2
*D45
 70
     1
 10
0.0
 20
0.0
 30
0.0
  3
*D45
  1

  0
LINE
  5
2421
330
2420
100
AcDbEntity
  8
SUNPOU
100
AcDbLine
 10
168.5105014744854
 20
529.5815879929496
 30
0.0
 11
168.5105014744854
 21
528.6887252734698
 31
0.0
  0
LINE
  5
2422
330
2420
100
AcDbEntity
  8
SUNPOU
100
AcDbLine
 10
302.5105014744853
 20
513.5995769544495
 30
0.0
 11
302.5105014744853
 21
528.6887252734698
 31
0.0
  0
LINE
  5
2423
330
2420
100
AcDbEntity
  8
SUNPOU
100
AcDbLine
 10
173.5105014744854
 20
526.6887252734696
 30
0.0
 11
297.5105014744853
 21
526.6887252734696
 31
0.0
  0
INSERT
  5
2424
330
2420
100
AcDbEntity
  8
SUNPOU
100
AcDbBlockReference
  2
_OPEN30
 10
168.5105014744854
 20
526.6887252734696
 30
0.0
 41
5.0
 42
5.0
 43
5.0
 50
180.0
  0
INSERT
  5
2425
330
2420
100
AcDbEntity
  8
SUNPOU
100
AcDbBlockReference
  2
_OPEN30
 10
302.5105014744853
 20
526.6887252734696
 30
0.0
 41
5.0
 42
5.0
 43
5.0
  0
MTEXT
  5
2426
330
2420
100
AcDbEntity
  8
SUNPOU
 62
     6
100
AcDbMText
 10
235.5105014744854
 20
531.1887252734698
 30
0.0
 40
5.0
 41
0.0
 71
     5
 72
     1
  1
\A1;134
  7
SUNPOU
1001
ACAD
1000
MTEXTBEGIN
1070
    73
1070
     1
1070
    44
1040
1.0
1070
    74
1070
     0
1000
MTEXTEND
1000
MTEXTBEGIN
1070
    73
1070
     1
1070
    44
1040
1.0
1070
    74
1070
     0
1000
MTEXTEND
  0
POINT
  5
2427
330
2420
100
AcDbEntity
  8
DEFPOINTS
 62
     0
100
AcDbPoint
 10
168.5105014744854
 20
526.5815879929496
 30
0.0
  0
POINT
  5
2428
330
2420
100
AcDbEntity
  8
DEFPOINTS
 62
     0
100
AcDbPoint
 10
302.5105014744853
 20
510.5995769544493
 30
0.0
  0
POINT
  5
2429
330
2420
100
AcDbEntity
  8
DEFPOINTS
 62
     0
100
AcDbPoint
 10
302.5105014744853
 20
526.6887252734696
 30
0.0
  0
ENDBLK
  5
242B
330
2420
100
AcDbEntity
  8
0
100
AcDbBlockEnd
  0
ENDSEC
  0
SECTION
  2
ENTITIES
  0
ARC
  5
5BE
330
A
100
AcDbEntity
  8
02
100
AcDbCircle
 10
199.8105014744851
 20
310.0995769544494
 30
0.0
 40
4.5
100
AcDbArc
 50
0.0000000000000579
 51
90.00000000000005
  0
ARC
  5
5C0
330
A
100
AcDbEntity
  8
02
100
AcDbCircle
 10
166.8105014744853
 20
321.0995769544495
 30
0.0
 40
6.5
100
AcDbArc
 50
180.0
 51
270.0
  0
ARC
  5
5C2
330
A
100
AcDbEntity
  8
02
100
AcDbCircle
 10
155.8105014744853
 20
354.0995769544491
 30
0.0
 40
4.5
100
AcDbArc
 50
0.0000000000000579
 51
90.00000000000005
  0
ARC
  5
5C5
330
A
100
AcDbEntity
  8
02
100
AcDbCircle
 10
199.8105014744855
 20
535.2995769544494
 30
0.0
 40
4.499999999999886
100
AcDbArc
 50
269.9999999999996
 51
0.0000000000014475
  0
ARC
  5
5C7
330
A
100
AcDbEntity
  8
02
100
AcDbCircle
 10
166.810501474485
 20
524.2995769544494
 30
0.0
 40
6.5
100
AcDbArc
 50
90.00000000000005
 51
179.9999999999999
  0
ARC
  5
5C9
330
A
100
AcDbEntity
  8
02
100
AcDbCircle
 10
155.810501474485
 20
491.2995769544493
 30
0.0
 40
4.5
100
AcDbArc
 50
269.9999999999999
 51
359.9999999999998
  0
ARC
  5
5D8
330
A
100
AcDbEntity
  8
03
100
AcDbCircle
 10
213.0105014744855
 20
95.34694148812315
 30
0.0
 40
1.5
100
AcDbArc
 50
90.00000000000005
 51
179.9999999999999
  0
ARC
  5
5DA
330
A
100
AcDbEntity
  8
03
100
AcDbCircle
 10
250.0105014744856
 20
95.34694148812315
 30
0.0
 40
1.5
100
AcDbArc
 50
0.0000000000001088
 51
90.00000000000005
  0
ARC
  5
5DC
330
A
100
AcDbEntity
  8
03
100
AcDbCircle
 10
220.0105014744855
 20
95.34694148812315
 30
0.0
 40
1.5
100
AcDbArc
 50
0.000000000000007
 51
90.00000000000005
  0
ARC
  5
5DE
330
A
100
AcDbEntity
  8
03
100
AcDbCircle
 10
243.0105014744855
 20
95.34694148812315
 30
0.0
 40
1.5
100
AcDbArc
 50
90.00000000000005
 51
180.0
  0
ARC
  5
5E6
330
A
100
AcDbEntity
  8
03
100
AcDbCircle
 10
241.5105014744856
 20
71.84694148812305
 30
0.0
 40
1.5
100
AcDbArc
 50
270.0
 51
0.0000000000000579
  0
ARC
  5
5E7
330
A
100
AcDbEntity
  8
03
100
AcDbCircle
 10
221.5105014744855
 20
71.84694148812305
 30
0.0
 40
1.5
100
AcDbArc
 50
180.0
 51
270.0
  0
CIRCLE
  5
5F6
330
A
100
AcDbEntity
  8
03
100
AcDbCircle
 10
283.3105014744853
 20
562.5995769544495
 30
0.0
 40
2.0
  0
CIRCLE
  5
5F7
330
A
100
AcDbEntity
  8
03
100
AcDbCircle
 10
283.3105014744853
 20
562.5995769544495
 30
0.0
 40
3.0
  0
ARC
  5
5FB
330
A
100
AcDbEntity
  8
03
100
AcDbCircle
 10
152.0105014744854
 20
245.0995769544494
 30
0.0
 40
1.5
100
AcDbArc
 50
179.9999999999999
 51
270.0
  0
ARC
  5
5FD
330
A
100
AcDbEntity
  8
03
100
AcDbCircle
 10
154.3105014744853
 20
247.3995769544495
 30
0.0
 40
2.299999999999998
100
AcDbArc
 50
179.9999999999999
 51
270.0
  0
ARC
  5
5FF
330
A
100
AcDbEntity
  8
03
100
AcDbCircle
 10
152.010501474485
 20
539.0995769544494
 30
0.0
 40
1.5
100
AcDbArc
 50
90.00000000000005
 51
179.9999999999999
  0
ARC
  5
602
330
A
100
AcDbEntity
  8
03
100
AcDbCircle
 10
193.3105014744853
 20
557.0995769544493
 30
0.0
 40
1.5
100
AcDbArc
 50
90.00000000000005
 51
180.0000000000001
  0
ARC
  5
605
330
A
100
AcDbEntity
  8
03
100
AcDbCircle
 10
155.3105014744853
 20
557.0995769544496
 30
0.0
 40
1.5
100
AcDbArc
 50
90.00000000000005
 51
180.0
  0
ARC
  5
607
330
A
100
AcDbEntity
  8
03
100
AcDbCircle
 10
174.3105014744853
 20
557.0995769544493
 30
0.0
 40
1.5
100
AcDbArc
 50
359.9999999999998
 51
90.00000000000005
  0
ARC
  5
60C
330
A
100
AcDbEntity
  8
03
100
AcDbCircle
 10
191.7105014744853
 20
540.6995769544494
 30
0.0
 40
1.6
100
AcDbArc
 50
270.0
 51
0.0000000000001088
  0
ARC
  5
60F
330
A
100
AcDbEntity
  8
03
100
AcDbCircle
 10
280.3105014744853
 20
557.0995769544493
 30
0.0
 40
1.5
100
AcDbArc
 50
0.000000000000007
 51
90.00000000000005
  0
ARC
  5
613
330
A
100
AcDbEntity
  8
03
100
AcDbCircle
 10
281.8105014744853
 20
543.5995769544494
 30
0.0
 40
1.5
100
AcDbArc
 50
180.0000000000001
 51
270.0
  0
ARC
  5
616
330
A
100
AcDbEntity
  8
03
100
AcDbCircle
 10
286.3105014744852
 20
557.0995769544493
 30
0.0
 40
1.5
100
AcDbArc
 50
90.00000000000005
 51
180.0000000000001
  0
ARC
  5
61B
330
A
100
AcDbEntity
  8
03
100
AcDbCircle
 10
308.0105014744853
 20
557.0995769544493
 30
0.0
 40
1.5
100
AcDbArc
 50
0.000000000000007
 51
90.00000000000005
  0
ARC
  5
61D
330
A
100
AcDbEntity
  8
03
100
AcDbCircle
 10
308.0105014744855
 20
245.0995769544495
 30
0.0
 40
1.5
100
AcDbArc
 50
270.0
 51
0.000000000000007
  0
ARC
  5
628
330
A
100
AcDbEntity
  8
04
100
AcDbCircle
 10
186.0105014744855
 20
335.0995769544494
 30
0.0
 40
8.5
100
AcDbArc
 50
179.9999999999999
 51
270.0
  0
ARC
  5
629
330
A
100
AcDbEntity
  8
04
100
AcDbCircle
 10
171.5105014744854
 20
386.5995769544494
 30
0.0
 40
6.0
100
AcDbArc
 50
0.000000000000007
 51
90.00000000000005
  0
ARC
  5
62B
330
A
100
AcDbEntity
  8
04
100
AcDbCircle
 10
237.5105014744855
 20
320.5995769544494
 30
0.0
 40
6.0
100
AcDbArc
 50
0.000000000000007
 51
90.00000000000005
  0
ARC
  5
62D
330
A
100
AcDbEntity
  8
03
100
AcDbCircle
 10
154.310501474485
 20
536.7995769544494
 30
0.0
 40
2.299999999999998
100
AcDbArc
 50
90.00000000000005
 51
179.9999999999999
  0
ARC
  5
630
330
A
100
AcDbEntity
  8
03
100
AcDbCircle
 10
278.0105014744854
 20
539.0995769544494
 30
0.0
 40
2.299999999999998
100
AcDbArc
 50
270.0
 51
0.0000000000000579
  0
ARC
  5
635
330
A
100
AcDbEntity
  8
03
100
AcDbCircle
 10
205.0105014744855
 20
245.0995769544495
 30
0.0
 40
1.5
100
AcDbArc
 50
270.0
 51
0.000000000000007
  0
ARC
  5
637
330
A
100
AcDbEntity
  8
03
100
AcDbCircle
 10
258.0105014744855
 20
245.0995769544495
 30
0.0
 40
1.5
100
AcDbArc
 50
179.9999999999999
 51
270.0
  0
ARC
  5
639
330
A
100
AcDbEntity
  8
03
100
AcDbCircle
 10
202.7105014744855
 20
247.3995769544495
 30
0.0
 40
2.299999999999998
100
AcDbArc
 50
270.0
 51
0.000000000000007
  0
ARC
  5
662
330
A
100
AcDbEntity
  8
KAKURE
100
AcDbCircle
 10
243.0105014744855
 20
70.34694148812315
 30
0.0
 40
2.299999999999998
100
AcDbArc
 50
270.0
 51
359.9999999999998
  0
ARC
  5
664
330
A
100
AcDbEntity
  8
KAKURE
100
AcDbCircle
 10
220.0105014744857
 20
70.34694148812315
 30
0.0
 40
2.299999999999998
100
AcDbArc
 50
179.9999999999999
 51
270.0
  0
ARC
  5
6D6
330
A
100
AcDbEntity
  8
06
100
AcDbCircle
 10
299.5105014744853
 20
510.5995769544493
 30
0.0
 40
3.0
100
AcDbArc
 50
359.9999970323707
 51
90.00000000000005
  0
ARC
  5
6D7
330
A
100
AcDbEntity
  8
06
100
AcDbCircle
 10
299.5105014744853
 20
416.5995769544487
 30
0.0
 40
3.000000000000003
100
AcDbArc
 50
270.0000002056802
 51
359.9999970323689
  0
LINE
  5
A7A
330
A
100
AcDbEntity
  8
06
100
AcDbLine
 10
274.0105014744854
 20
418.5995769544494
 30
0.0
 11
258.0105014744854
 21
418.5995769544494
 31
0.0
  0
LINE
  5
A7B
330
A
100
AcDbEntity
  8
06
100
AcDbLine
 10
270.5105014744854
 20
429.6355782896164
 30
0.0
 11
261.5105014744854
 21
429.6355782896164
 31
0.0
  0
LINE
  5
A7C
330
A
100
AcDbEntity
  8
06
100
AcDbLine
 10
274.0105014744854
 20
508.5995769544494
 30
0.0
 11
258.0105014744854
 21
508.5995769544494
 31
0.0
  0
LINE
  5
A7D
330
A
100
AcDbEntity
  8
06
100
AcDbLine
 10
270.5105014744854
 20
497.5635756192826
 30
0.0
 11
261.5105014744854
 21
497.5635756192826
 31
0.0
  0
ARC
  5
BC5
330
A
100
AcDbEntity
  8
SOUZOU
100
AcDbCircle
 10
281.5105014744851
 20
398.0995769544496
 30
0.0
 40
3.0
100
AcDbArc
 50
0.0000000000000579
 51
90.00000000000005
  0
ARC
  5
BCC
330
A
100
AcDbEntity
  8
SOUZOU
100
AcDbCircle
 10
282.2105014744851
 20
488.2635756192824
 30
0.0
 40
2.299999999999998
100
AcDbArc
 50
0.000000000000007
 51
90.00000000000005
  0
LINE
  5
BCF
330
A
100
AcDbEntity
  8
CHUSIN
100
AcDbLine
 10
266.0105014744853
 20
407.0916887227292
 30
0.0
 11
266.0105014744853
 21
519.5797036144211
 31
0.0
  0
LINE
  5
BD4
330
A
100
AcDbEntity
  8
06
100
AcDbLine
 10
208.5105014744854
 20
413.5995769544486
 30
0.0
 11
299.5105014852548
 21
413.5995769544487
 31
0.0
  0
LINE
  5
BD5
330
A
100
AcDbEntity
  8
06
100
AcDbLine
 10
299.5105014744853
 20
513.5995769544495
 30
0.0
 11
208.5105014744854
 21
513.5995769544495
 31
0.0
  0
LINE
  5
BE9
330
A
100
AcDbEntity
  8
06
100
AcDbLine
 10
181.5105014744854
 20
405.5995769544494
 30
0.0
 11
171.4105014744851
 21
405.5995769544494
 31
0.0
  0
LINE
  5
BEF
330
A
100
AcDbEntity
  8
06
100
AcDbLine
 10
184.5105014744854
 20
405.5995769544494
 30
0.0
 11
197.5105014744854
 21
405.5995769544494
 31
0.0
  0
LINE
  5
BF0
330
A
100
AcDbEntity
  8
06
100
AcDbLine
 10
181.5105014744854
 20
404.5995769544494
 30
0.0
 11
184.5105014744854
 21
404.5995769544494
 31
0.0
  0
LINE
  5
BF1
330
A
100
AcDbEntity
  8
06
100
AcDbLine
 10
197.5105014744854
 20
404.5995769544494
 30
0.0
 11
202.5105014744854
 21
404.5995769544494
 31
0.0
  0
LINE
  5
BF5
330
A
100
AcDbEntity
  8
06
100
AcDbLine
 10
176.5105014744854
 20
405.5995769544486
 30
0.0
 11
171.5105014744854
 21
405.5995769544494
 31
0.0
  0
LINE
  5
C0B
330
A
100
AcDbEntity
  8
06
100
AcDbLine
 10
197.5105014744854
 20
522.5995769544494
 30
0.0
 11
202.5105014744854
 21
522.5995769544494
 31
0.0
  0
LINE
  5
C0C
330
A
100
AcDbEntity
  8
06
100
AcDbLine
 10
181.5105014744854
 20
521.5995769544495
 30
0.0
 11
171.5105014744854
 21
521.5995769544495
 31
0.0
  0
LINE
  5
C0D
330
A
100
AcDbEntity
  8
06
100
AcDbLine
 10
184.5105014744854
 20
521.5995769544495
 30
0.0
 11
197.5105014744854
 21
521.5995769544495
 31
0.0
  0
LINE
  5
C0E
330
A
100
AcDbEntity
  8
06
100
AcDbLine
 10
184.5105014744854
 20
522.5995769544494
 30
0.0
 11
181.5105014744854
 21
522.5995769544494
 31
0.0
  0
LINE
  5
C16
330
A
100
AcDbEntity
  8
CHUSIN
100
AcDbLine
 10
313.3936979921351
 20
463.5995769544494
 30
0.0
 11
156.5105014744855
 21
463.5995769544494
 31
0.0
  0
LINE
  5
C19
330
A
100
AcDbEntity
  8
06
100
AcDbLine
 10
302.5105014744853
 20
416.5995767990638
 30
0.0
 11
302.5105014744853
 21
510.5995769544493
 31
0.0
  0
LINE
  5
C1A
330
A
100
AcDbEntity
  8
06
100
AcDbLine
 10
171.5105014744854
 20
522.0995769544495
 30
0.0
 11
168.5105014744854
 21
522.0995769544495
 31
0.0
  0
LINE
  5
C1B
330
A
100
AcDbEntity
  8
06
100
AcDbLine
 10
208.5105014744854
 20
522.0995769544495
 30
0.0
 11
202.5105014744854
 21
522.0995769544495
 31
0.0
  0
LINE
  5
C1C
330
A
100
AcDbEntity
  8
06
100
AcDbLine
 10
202.5105014744854
 20
405.0995769544496
 30
0.0
 11
208.5105014744854
 21
405.0995769544496
 31
0.0
  0
LINE
  5
C1D
330
A
100
AcDbEntity
  8
06
100
AcDbLine
 10
168.5105014744854
 20
405.0995769544496
 30
0.0
 11
171.5105014744854
 21
405.0995769544496
 31
0.0
  0
LINE
  5
C1E
330
A
100
AcDbEntity
  8
06
100
AcDbLine
 10
208.5105014744854
 20
405.0995769544496
 30
0.0
 11
208.5105014744854
 21
522.0995769544495
 31
0.0
  0
LINE
  5
C21
330
A
100
AcDbEntity
  8
06
100
AcDbLine
 10
168.5105014744854
 20
522.0995769544495
 30
0.0
 11
168.5105014744854
 21
405.0995769544496
 31
0.0
  0
LINE
  5
C25
330
A
100
AcDbEntity
  8
03
100
AcDbLine
 10
186.5105014744855
 20
126.8469414881229
 30
0.0
 11
186.5105014744855
 21
156.5995769544494
 31
0.0
  0
LINE
  5
C26
330
A
100
AcDbEntity
  8
03
100
AcDbLine
 10
198.5105014744855
 20
156.5995769544494
 30
0.0
 11
198.5105014744855
 21
126.8469414881229
 31
0.0
  0
LINE
  5
C27
330
A
100
AcDbEntity
  8
03
100
AcDbLine
 10
231.5105014744855
 20
126.8469414881229
 30
0.0
 11
231.5105014744855
 21
156.5995769544494
 31
0.0
  0
LINE
  5
C28
330
A
100
AcDbEntity
  8
03
100
AcDbLine
 10
219.5105014744855
 20
156.5995769544494
 30
0.0
 11
219.5105014744855
 21
126.8469414881229
 31
0.0
  0
LINE
  5
C2B
330
A
100
AcDbEntity
  8
04
100
AcDbLine
 10
225.5105014744855
 20
326.5995769544494
 30
0.0
 11
237.5105014744855
 21
345.5995769544494
 31
0.0
  0
LINE
  5
C2C
330
A
100
AcDbEntity
  8
04
100
AcDbLine
 10
237.5105014744855
 20
326.5995769544494
 30
0.0
 11
225.5105014744855
 21
345.5995769544494
 31
0.0
  0
LINE
  5
C33
330
A
100
AcDbEntity
  8
CHUSIN
100
AcDbLine
 10
187.8105014744853
 20
357.5995769544494
 30
0.0
 11
147.8105014744854
 21
357.5995769544494
 31
0.0
  0
LINE
  5
C34
330
A
100
AcDbEntity
  8
CHUSIN
 48
0.3
100
AcDbLine
 10
275.3105014744853
 20
562.5995769544495
 30
0.0
 11
290.3105014744852
 21
562.5995769544495
 31
0.0
  0
LINE
  5
C35
330
A
100
AcDbEntity
  8
CHUSIN
 48
0.3
100
AcDbLine
 10
283.3105014744853
 20
567.0995769544497
 30
0.0
 11
283.3105014744853
 21
547.0995769544497
 31
0.0
  0
LINE
  5
C36
330
A
100
AcDbEntity
  8
CHUSIN
100
AcDbLine
 10
231.5105014744854
 20
400.8893279937248
 30
0.0
 11
231.5105014744855
 21
80.32748889070315
 31
0.0
  0
LINE
  5
C37
330
A
100
AcDbEntity
  8
CHUSIN
100
AcDbLine
 10
186.5105014744855
 20
243.5995769544494
 30
0.0
 11
186.5105014744855
 21
86.14478240146489
 31
0.0
  0
LINE
  5
C38
330
A
100
AcDbEntity
  8
CHUSIN
100
AcDbLine
 10
184.5105014744855
 20
263.5995769544495
 30
0.0
 11
184.5105014744855
 21
218.5995769544494
 31
0.0
  0
LINE
  5
C3A
330
A
100
AcDbEntity
  8
CHUSIN
100
AcDbLine
 10
211.5105014744855
 20
369.5995769544494
 30
0.0
 11
281.5105014744853
 21
369.5995769544494
 31
0.0
  0
LINE
  5
C3B
330
A
100
AcDbEntity
  8
KAKURE
100
AcDbLine
 10
312.5105014744855
 20
96.8469414881231
 30
0.0
 11
312.5105014744855
 21
66.84694148812309
 31
0.0
  0
LINE
  5
C3C
330
A
100
AcDbEntity
  8
KAKURE
100
AcDbLine
 10
147.8105014744856
 20
66.84694148812315
 30
0.0
 11
147.8105014744856
 21
96.8469414881231
 31
0.0
  0
LINE
  5
C3D
330
A
100
AcDbEntity
  8
KAKURE
100
AcDbLine
 10
312.5105014744855
 20
66.84694148812309
 30
0.0
 11
251.3882004627351
 21
66.84694148812315
 31
0.0
  0
LINE
  5
C3E
330
A
100
AcDbEntity
  8
KAKURE
100
AcDbLine
 10
147.8105014744856
 20
66.84694148812315
 30
0.0
 11
158.499407769681
 21
66.84694148812315
 31
0.0
  0
LINE
  5
C3F
330
A
100
AcDbEntity
  8
KAKURE
100
AcDbLine
 10
217.7105014744856
 20
70.3469414881232
 30
0.0
 11
217.7105014744856
 21
95.34694148812315
 31
0.0
  0
LINE
  5
C40
330
A
100
AcDbEntity
  8
KAKURE
100
AcDbLine
 10
245.3105014744854
 20
70.34694148812315
 30
0.0
 11
245.3105014744854
 21
95.34694148812315
 31
0.0
  0
LINE
  5
C41
330
A
100
AcDbEntity
  8
KAKURE
100
AcDbLine
 10
243.0105014744855
 20
68.04694148812314
 30
0.0
 11
220.0105014744855
 21
68.04694148812321
 31
0.0
  0
LINE
  5
C44
330
A
100
AcDbEntity
  8
SOUZOU
100
AcDbLine
 10
209.0105014744855
 20
73.84694148812309
 30
0.0
 11
209.0105014744855
 21
46.84694148812314
 31
0.0
  0
LINE
  5
C45
330
A
100
AcDbEntity
  8
SOUZOU
100
AcDbLine
 10
164.0105014744855
 20
73.84694148812309
 30
0.0
 11
164.0105014744855
 21
46.84694148812314
 31
0.0
  0
LINE
  5
C49
330
A
100
AcDbEntity
  8
SOUZOU
100
AcDbLine
 10
161.5105014744855
 20
96.8469414881231
 30
0.0
 11
161.5105014744855
 21
73.84694148812309
 31
0.0
  0
LINE
  5
C4A
330
A
100
AcDbEntity
  8
SOUZOU
100
AcDbLine
 10
211.5105014744855
 20
96.8469414881231
 30
0.0
 11
211.5105014744855
 21
73.84694148812316
 31
0.0
  0
LINE
  5
C4B
330
A
100
AcDbEntity
  8
03
100
AcDbLine
 10
211.5105014744855
 20
239.5995769544494
 30
0.0
 11
251.5105014744855
 21
239.5995769544494
 31
0.0
  0
LINE
  5
C4C
330
A
100
AcDbEntity
  8
06
100
AcDbLine
 10
258.0105014744854
 20
418.5995769544494
 30
0.0
 11
261.5105014744854
 21
429.6355782896164
 31
0.0
  0
LINE
  5
C4D
330
A
100
AcDbEntity
  8
06
100
AcDbLine
 10
274.0105014744854
 20
418.5995769544494
 30
0.0
 11
270.5105014744854
 21
429.6355782896164
 31
0.0
  0
LINE
  5
C4F
330
A
100
AcDbEntity
  8
06
100
AcDbLine
 10
258.0105014744854
 20
508.5995769544494
 30
0.0
 11
261.5105014744854
 21
497.5635756192826
 31
0.0
  0
LINE
  5
C50
330
A
100
AcDbEntity
  8
06
100
AcDbLine
 10
274.0105014744854
 20
508.5995769544494
 30
0.0
 11
270.5105014744854
 21
497.5635756192826
 31
0.0
  0
LINE
  5
C51
330
A
100
AcDbEntity
  8
02
100
AcDbLine
 10
162.5105014744854
 20
333.7995769544493
 30
0.0
 11
162.5105014744854
 21
316.5071919531673
 31
0.0
  0
LINE
  5
C52
330
A
100
AcDbEntity
  8
02
100
AcDbLine
 10
162.5105014744853
 20
529.1739999972312
 30
0.0
 11
162.5105014744853
 21
511.7995769544494
 31
0.0
  0
LINE
  5
C53
330
A
100
AcDbEntity
  8
02
100
AcDbLine
 10
166.6105014744853
 20
511.7995769544494
 30
0.0
 11
166.6105014744854
 21
333.7995769544495
 31
0.0
  0
LINE
  5
C54
330
A
100
AcDbEntity
  8
02
100
AcDbLine
 10
166.6105014744854
 20
333.7995769544495
 30
0.0
 11
160.6105014744854
 21
333.7995769544493
 31
0.0
  0
LINE
  5
C55
330
A
100
AcDbEntity
  8
03
100
AcDbLine
 10
178.5105014744855
 20
156.5995769544494
 30
0.0
 11
166.5105014744854
 21
191.5995769544495
 31
0.0
  0
LINE
  5
C56
330
A
100
AcDbEntity
  8
03
100
AcDbLine
 10
206.5105014744855
 20
156.5995769544494
 30
0.0
 11
178.5105014744855
 21
156.5995769544494
 31
0.0
  0
LINE
  5
C57
330
A
100
AcDbEntity
  8
03
100
AcDbLine
 10
239.5105014744856
 20
156.5995769544494
 30
0.0
 11
251.5105014744855
 21
191.5995769544495
 31
0.0
  0
LINE
  5
C58
330
A
100
AcDbEntity
  8
03
100
AcDbLine
 10
211.5105014744855
 20
156.5995769544494
 30
0.0
 11
239.5105014744856
 21
156.5995769544494
 31
0.0
  0
LINE
  5
C59
330
A
100
AcDbEntity
  8
03
100
AcDbLine
 10
166.5105014744854
 20
239.5995769544494
 30
0.0
 11
166.5105014744854
 21
191.5995769544495
 31
0.0
  0
LINE
  5
C5A
330
A
100
AcDbEntity
  8
03
100
AcDbLine
 10
206.5105014744855
 20
239.5995769544494
 30
0.0
 11
206.5105014744855
 21
199.5406758254771
 31
0.0
  0
LINE
  5
C5B
330
A
100
AcDbEntity
  8
03
100
AcDbLine
 10
211.5105014744855
 20
239.5995769544494
 30
0.0
 11
211.5105014744855
 21
199.5406758254771
 31
0.0
  0
LINE
  5
C5C
330
A
100
AcDbEntity
  8
03
100
AcDbLine
 10
251.5105014744855
 20
239.5995769544494
 30
0.0
 11
251.5105014744855
 21
191.5995769544495
 31
0.0
  0
LINE
  5
C5D
330
A
100
AcDbEntity
  8
03
100
AcDbLine
 10
258.0105014744855
 20
258.5995769544495
 30
0.0
 11
256.5105014744855
 21
258.5995769544495
 31
0.0
  0
LINE
  5
C5E
330
A
100
AcDbEntity
  8
03
100
AcDbLine
 10
258.0105014744855
 20
245.0995769544495
 30
0.0
 11
258.0105014744855
 21
258.5995769544495
 31
0.0
  0
LINE
  5
C5F
330
A
100
AcDbEntity
  8
03
100
AcDbLine
 10
206.5105014744855
 20
258.5995769544495
 30
0.0
 11
202.7105014744855
 21
258.5995769544495
 31
0.0
  0
LINE
  5
C60
330
A
100
AcDbEntity
  8
03
100
AcDbLine
 10
202.7105014744855
 20
247.3995769544495
 30
0.0
 11
202.7105014744855
 21
258.5995769544495
 31
0.0
  0
LINE
  5
C61
330
A
100
AcDbEntity
  8
03
100
AcDbLine
 10
205.0105014744855
 20
245.0995769544495
 30
0.0
 11
205.0105014744855
 21
258.5995769544495
 31
0.0
  0
LINE
  5
C62
330
A
100
AcDbEntity
  8
03
100
AcDbLine
 10
256.5105014744855
 20
245.0995769544495
 30
0.0
 11
256.5105014744855
 21
258.5995769544495
 31
0.0
  0
LINE
  5
C63
330
A
100
AcDbEntity
  8
03
100
AcDbLine
 10
206.5105014744855
 20
245.0995769544495
 30
0.0
 11
206.5105014744855
 21
258.5995769544495
 31
0.0
  0
LINE
  5
C64
330
A
100
AcDbEntity
  8
03
100
AcDbLine
 10
202.7105014744855
 20
247.3995769544495
 30
0.0
 11
154.3105014744853
 21
247.3995769544495
 31
0.0
  0
LINE
  5
C65
330
A
100
AcDbEntity
  8
03
100
AcDbLine
 10
278.0105014744854
 20
557.0995769544493
 30
0.0
 11
278.0105014744854
 21
539.0995769544494
 31
0.0
  0
LINE
  5
C66
330
A
100
AcDbEntity
  8
03
100
AcDbLine
 10
154.3105014744853
 20
247.3995769544495
 30
0.0
 11
154.3105014744851
 21
536.7995769544494
 31
0.0
  0
LINE
  5
C67
330
A
100
AcDbEntity
  8
03
100
AcDbLine
 10
278.0105014744854
 20
536.7995769544494
 30
0.0
 11
154.3105014744851
 21
536.7995769544494
 31
0.0
  0
LINE
  5
C68
330
A
100
AcDbEntity
  8
03
100
AcDbLine
 10
280.3105014744853
 20
557.0995769544493
 30
0.0
 11
280.3105014744853
 21
539.0995769544494
 31
0.0
  0
LINE
  5
C69
330
A
100
AcDbEntity
  8
03
100
AcDbLine
 10
152.0105014744851
 20
539.0995769544494
 30
0.0
 11
278.0105014744854
 21
539.0995769544494
 31
0.0
  0
LINE
  5
C6A
330
A
100
AcDbEntity
  8
04
100
AcDbLine
 10
243.5105014744855
 20
320.5995769544494
 30
0.0
 11
243.5105014744855
 21
317.5995769544495
 31
0.0
  0
LINE
  5
C6B
330
A
100
AcDbEntity
  8
04
100
AcDbLine
 10
177.5105014744854
 20
386.5995769544494
 30
0.0
 11
177.5105014744855
 21
335.0995769544494
 31
0.0
  0
LINE
  5
C6C
330
A
100
AcDbEntity
  8
04
100
AcDbLine
 10
168.5105014744854
 20
392.5995769544494
 30
0.0
 11
171.5105014744854
 21
392.5995769544494
 31
0.0
  0
LINE
  5
C6D
330
A
100
AcDbEntity
  8
04
100
AcDbLine
 10
243.5105014744855
 20
317.5995769544495
 30
0.0
 11
168.5105014744855
 21
317.5995769544493
 31
0.0
  0
LINE
  5
C6E
330
A
100
AcDbEntity
  8
04
100
AcDbLine
 10
237.5105014744855
 20
326.5995769544494
 30
0.0
 11
185.3105014744853
 21
326.5995769544494
 31
0.0
  0
LINE
  5
C6F
330
A
100
AcDbEntity
  8
03
100
AcDbLine
 10
312.5105014744855
 20
121.846941488123
 30
0.0
 11
312.5105014744855
 21
96.8469414881231
 31
0.0
  0
LINE
  5
C70
330
A
100
AcDbEntity
  8
03
100
AcDbLine
 10
312.5105014744852
 20
580.9127935404553
 30
0.0
 11
312.5105014744855
 21
126.8469414881229
 31
0.0
  0
LINE
  5
C71
330
A
100
AcDbEntity
  8
03
100
AcDbLine
 10
147.5105014744855
 20
126.8469414881229
 30
0.0
 11
147.510501474485
 21
580.9127935404553
 31
0.0
  0
LINE
  5
C72
330
A
100
AcDbEntity
  8
03
100
AcDbLine
 10
147.8105014744856
 20
96.8469414881231
 30
0.0
 11
147.8105014744856
 21
121.846941488123
 31
0.0
  0
LINE
  5
C73
330
A
100
AcDbEntity
  8
03
100
AcDbLine
 10
308.0105014744855
 20
245.0995769544495
 30
0.0
 11
308.0105014744853
 21
557.0995769544493
 31
0.0
  0
LINE
  5
C74
330
A
100
AcDbEntity
  8
03
100
AcDbLine
 10
258.0105014744855
 20
245.0995769544495
 30
0.0
 11
308.0105014744855
 21
245.0995769544495
 31
0.0
  0
LINE
  5
C75
330
A
100
AcDbEntity
  8
03
100
AcDbLine
 10
308.0105014744855
 20
243.5995769544495
 30
0.0
 11
258.0105014744855
 21
243.5995769544494
 31
0.0
  0
LINE
  5
C76
330
A
100
AcDbEntity
  8
03
100
AcDbLine
 10
309.5105014744853
 20
557.0995769544493
 30
0.0
 11
309.5105014744853
 21
245.0995769544495
 31
0.0
  0
LINE
  5
C77
330
A
100
AcDbEntity
  8
02
100
AcDbLine
 10
168.5105014744854
 20
530.7995769544494
 30
0.0
 11
168.5105014744855
 21
314.5995769544494
 31
0.0
  0
LINE
  5
C78
330
A
100
AcDbEntity
  8
03
100
AcDbLine
 10
286.3105014744852
 20
557.0995769544493
 30
0.0
 11
308.0105014744853
 21
557.0995769544493
 31
0.0
  0
LINE
  5
C79
330
A
100
AcDbEntity
  8
03
100
AcDbLine
 10
286.3105014744852
 20
557.0995769544493
 30
0.0
 11
286.3105014744852
 21
543.5995769544494
 31
0.0
  0
LINE
  5
C7A
330
A
100
AcDbEntity
  8
03
100
AcDbLine
 10
284.8105014744853
 20
557.0995769544493
 30
0.0
 11
284.8105014744853
 21
543.5995769544494
 31
0.0
  0
LINE
  5
C7B
330
A
100
AcDbEntity
  8
03
100
AcDbLine
 10
286.3105014744852
 20
558.5995769544495
 30
0.0
 11
308.0105014744853
 21
558.5995769544495
 31
0.0
  0
LINE
  5
C7C
330
A
100
AcDbEntity
  8
03
100
AcDbLine
 10
296.8105014744853
 20
542.0995769544495
 30
0.0
 11
281.8105014744853
 21
542.0995769544495
 31
0.0
  0
LINE
  5
C7D
330
A
100
AcDbEntity
  8
03
100
AcDbLine
 10
296.8105014744853
 20
543.5995769544494
 30
0.0
 11
296.8105014744853
 21
542.0995769544495
 31
0.0
  0
LINE
  5
C7E
330
A
100
AcDbEntity
  8
03
100
AcDbLine
 10
281.8105014744853
 20
543.5995769544494
 30
0.0
 11
296.8105014744853
 21
543.5995769544494
 31
0.0
  0
LINE
  5
C7F
330
A
100
AcDbEntity
  8
03
100
AcDbLine
 10
281.8105014744853
 20
557.0995769544493
 30
0.0
 11
281.8105014744853
 21
543.5995769544494
 31
0.0
  0
LINE
  5
C80
330
A
100
AcDbEntity
  8
03
100
AcDbLine
 10
193.3105014744853
 20
557.0995769544493
 30
0.0
 11
280.3105014744853
 21
557.0995769544493
 31
0.0
  0
LINE
  5
C81
330
A
100
AcDbEntity
  8
03
100
AcDbLine
 10
193.3105014744853
 20
540.6995769544494
 30
0.0
 11
193.3105014744853
 21
557.0995769544493
 31
0.0
  0
LINE
  5
C82
330
A
100
AcDbEntity
  8
03
100
AcDbLine
 10
155.3105014744853
 20
557.0995769544493
 30
0.0
 11
155.3105014744853
 21
540.5995769544495
 31
0.0
  0
LINE
  5
C83
330
A
100
AcDbEntity
  8
03
100
AcDbLine
 10
174.3105014744853
 20
557.0995769544497
 30
0.0
 11
155.3105014744853
 21
557.0995769544493
 31
0.0
  0
LINE
  5
C84
330
A
100
AcDbEntity
  8
03
100
AcDbLine
 10
174.3105014744853
 20
540.5995769544495
 30
0.0
 11
174.3105014744853
 21
557.0995769544497
 31
0.0
  0
LINE
  5
C85
330
A
100
AcDbEntity
  8
03
100
AcDbLine
 10
175.8105014744853
 20
557.0995769544493
 30
0.0
 11
175.8105014744853
 21
540.5995769544495
 31
0.0
  0
LINE
  5
C86
330
A
100
AcDbEntity
  8
03
100
AcDbLine
 10
155.3105014744853
 20
558.5995769544495
 30
0.0
 11
174.3105014744853
 21
558.5995769544495
 31
0.0
  0
LINE
  5
C87
330
A
100
AcDbEntity
  8
03
100
AcDbLine
 10
153.8105014744853
 20
540.5995769544495
 30
0.0
 11
153.8105014744853
 21
557.0995769544496
 31
0.0
  0
LINE
  5
C88
330
A
100
AcDbEntity
  8
03
100
AcDbLine
 10
193.3105014744853
 20
558.5995769544495
 30
0.0
 11
280.3105014744853
 21
558.5995769544495
 31
0.0
  0
LINE
  5
C89
330
A
100
AcDbEntity
  8
03
100
AcDbLine
 10
191.8105014744853
 20
540.5995769544495
 30
0.0
 11
191.8105014744853
 21
557.0995769544493
 31
0.0
  0
LINE
  5
C8A
330
A
100
AcDbEntity
  8
03
100
AcDbLine
 10
152.0105014744851
 20
540.5995769544495
 30
0.0
 11
191.8105014744853
 21
540.5995769544495
 31
0.0
  0
LINE
  5
C8B
330
A
100
AcDbEntity
  8
03
100
AcDbLine
 10
205.0105014744855
 20
245.0995769544495
 30
0.0
 11
152.0105014744854
 21
245.0995769544495
 31
0.0
  0
LINE
  5
C8C
330
A
100
AcDbEntity
  8
03
100
AcDbLine
 10
152.0105014744854
 20
243.5995769544494
 30
0.0
 11
205.0105014744855
 21
243.5995769544494
 31
0.0
  0
LINE
  5
C8D
330
A
100
AcDbEntity
  8
03
100
AcDbLine
 10
152.0105014744854
 20
245.0995769544495
 30
0.0
 11
152.0105014744851
 21
539.0995769544494
 31
0.0
  0
LINE
  5
C8E
330
A
100
AcDbEntity
  8
03
100
AcDbLine
 10
150.5105014744854
 20
245.0995769544495
 30
0.0
 11
150.5105014744851
 21
539.0995769544494
 31
0.0
  0
LINE
  5
C8F
330
A
100
AcDbEntity
  8
03
100
AcDbLine
 10
174.0105014744855
 20
106.8469414881231
 30
0.0
 11
174.0105014744855
 21
96.8469414881231
 31
0.0
  0
LINE
  5
C90
330
A
100
AcDbEntity
  8
03
100
AcDbLine
 10
199.0105014744855
 20
96.8469414881231
 30
0.0
 11
199.0105014744855
 21
106.8469414881231
 31
0.0
  0
LINE
  5
C91
330
A
100
AcDbEntity
  8
03
100
AcDbLine
 10
225.5105014744855
 20
81.8469414881231
 30
0.0
 11
225.5105014744855
 21
84.84694148812309
 31
0.0
  0
LINE
  5
C92
330
A
100
AcDbEntity
  8
03
100
AcDbLine
 10
237.5105014744856
 20
81.8469414881231
 30
0.0
 11
225.5105014744855
 21
81.8469414881231
 31
0.0
  0
LINE
  5
C93
330
A
100
AcDbEntity
  8
03
100
AcDbLine
 10
237.5105014744856
 20
84.84694148812309
 30
0.0
 11
237.5105014744856
 21
81.8469414881231
 31
0.0
  0
LINE
  5
C95
330
A
100
AcDbEntity
  8
03
100
AcDbLine
 10
222.5105014744855
 20
84.84694148812309
 30
0.0
 11
222.5105014744855
 21
104.8469414881231
 31
0.0
  0
LINE
  5
C97
330
A
100
AcDbEntity
  8
03
100
AcDbLine
 10
240.5105014744855
 20
104.8469414881231
 30
0.0
 11
240.5105014744855
 21
84.84694148812309
 31
0.0
  0
LINE
  5
C98
330
A
100
AcDbEntity
  8
03
100
AcDbLine
 10
215.5105014744855
 20
104.8469414881231
 30
0.0
 11
215.5105014744855
 21
106.8469414881231
 31
0.0
  0
LINE
  5
C9A
330
A
100
AcDbEntity
  8
03
100
AcDbLine
 10
247.5105014744855
 20
106.8469414881231
 30
0.0
 11
247.5105014744855
 21
104.8469414881231
 31
0.0
  0
LINE
  5
C9B
330
A
100
AcDbEntity
  8
03
100
AcDbLine
 10
250.0105014744856
 20
81.8469414881231
 30
0.0
 11
251.5105014744855
 21
81.8469414881231
 31
0.0
  0
LINE
  5
C9C
330
A
100
AcDbEntity
  8
03
100
AcDbLine
 10
213.0105014744855
 20
81.8469414881231
 30
0.0
 11
211.5105014744855
 21
81.8469414881231
 31
0.0
  0
LINE
  5
C9D
330
A
100
AcDbEntity
  8
03
100
AcDbLine
 10
243.0105014744855
 20
70.3469414881231
 30
0.0
 11
220.0105014744855
 21
70.3469414881231
 31
0.0
  0
LINE
  5
C9E
330
A
100
AcDbEntity
  8
03
100
AcDbLine
 10
250.0105014744856
 20
95.34694148812315
 30
0.0
 11
250.0105014744856
 21
81.8469414881231
 31
0.0
  0
LINE
  5
C9F
330
A
100
AcDbEntity
  8
03
100
AcDbLine
 10
213.0105014744855
 20
95.34694148812315
 30
0.0
 11
213.0105014744855
 21
81.8469414881231
 31
0.0
  0
LINE
  5
CA0
330
A
100
AcDbEntity
  8
03
100
AcDbLine
 10
220.0105014744855
 20
95.34694148812315
 30
0.0
 11
213.0105014744855
 21
95.34694148812315
 31
0.0
  0
LINE
  5
CA1
330
A
100
AcDbEntity
  8
03
100
AcDbLine
 10
250.0105014744856
 20
95.34694148812315
 30
0.0
 11
243.0105014744855
 21
95.34694148812315
 31
0.0
  0
LINE
  5
CA2
330
A
100
AcDbEntity
  8
03
100
AcDbLine
 10
243.0105014744855
 20
70.3469414881231
 30
0.0
 11
243.0105014744855
 21
95.34694148812315
 31
0.0
  0
LINE
  5
CA3
330
A
100
AcDbEntity
  8
03
100
AcDbLine
 10
220.0105014744855
 20
70.3469414881231
 30
0.0
 11
220.0105014744855
 21
95.34694148812315
 31
0.0
  0
LINE
  5
CA4
330
A
100
AcDbEntity
  8
03
100
AcDbLine
 10
241.5105014744856
 20
71.84694148812309
 30
0.0
 11
241.5105014744856
 21
95.34694148812315
 31
0.0
  0
LINE
  5
CA5
330
A
100
AcDbEntity
  8
03
100
AcDbLine
 10
221.5105014744855
 20
71.84694148812309
 30
0.0
 11
221.5105014744855
 21
95.34694148812315
 31
0.0
  0
LINE
  5
CA6
330
A
100
AcDbEntity
  8
03
100
AcDbLine
 10
243.0105014744855
 20
96.8469414881231
 30
0.0
 11
250.0105014744856
 21
96.8469414881231
 31
0.0
  0
LINE
  5
CA7
330
A
100
AcDbEntity
  8
03
100
AcDbLine
 10
213.0105014744855
 20
96.8469414881231
 30
0.0
 11
220.0105014744855
 21
96.8469414881231
 31
0.0
  0
LINE
  5
CA8
330
A
100
AcDbEntity
  8
03
100
AcDbLine
 10
241.5105014744856
 20
71.84694148812309
 30
0.0
 11
221.5105014744855
 21
71.84694148812309
 31
0.0
  0
LINE
  5
CA9
330
A
100
AcDbEntity
  8
03
100
AcDbLine
 10
251.5105014744855
 20
95.34694148812315
 30
0.0
 11
251.5105014744855
 21
81.84694148812303
 31
0.0
  0
LINE
  5
CAC
330
A
100
AcDbEntity
  8
04
100
AcDbLine
 10
237.5105014744855
 20
326.5995769544494
 30
0.0
 11
237.5105014744855
 21
345.5995769544494
 31
0.0
  0
LINE
  5
CAD
330
A
100
AcDbEntity
  8
04
100
AcDbLine
 10
225.5105014744855
 20
345.5995769544494
 30
0.0
 11
237.5105014744855
 21
345.5995769544494
 31
0.0
  0
LINE
  5
CAE
330
A
100
AcDbEntity
  8
04
100
AcDbLine
 10
225.5105014744855
 20
326.5995769544494
 30
0.0
 11
225.5105014744855
 21
345.5995769544494
 31
0.0
  0
LINE
  5
CB0
330
A
100
AcDbEntity
  8
03
100
AcDbLine
 10
136.2035718239059
 20
121.846941488123
 30
0.0
 11
328.1797783941371
 21
121.846941488123
 31
0.0
  0
LINE
  5
CB1
330
A
100
AcDbEntity
  8
03
100
AcDbLine
 10
136.2035718239059
 20
126.8469414881229
 30
0.0
 11
328.1797783941371
 21
126.8469414881229
 31
0.0
  0
LINE
  5
CB2
330
A
100
AcDbEntity
  8
04
100
AcDbLine
 10
225.5105014744855
 20
345.5995769544494
 30
0.0
 11
237.5105014744855
 21
345.5995769544494
 31
0.0
  0
LINE
  5
CB3
330
A
100
AcDbEntity
  8
02
100
AcDbLine
 10
166.6105014744853
 20
511.7995769544494
 30
0.0
 11
160.6105014744853
 21
511.7995769544494
 31
0.0
  0
LINE
  5
CB4
330
A
100
AcDbEntity
  8
02
100
AcDbLine
 10
160.3105014744854
 20
350.5995769544493
 30
0.0
 11
160.3105014744849
 21
491.9995769544494
 31
0.0
  0
LINE
  5
CB5
330
A
100
AcDbEntity
  8
02
100
AcDbLine
 10
155.8105014744851
 20
486.7995769544493
 30
0.0
 11
154.3105014744851
 21
486.7995769544494
 31
0.0
  0
LINE
  5
CB6
330
A
100
AcDbEntity
  8
02
100
AcDbLine
 10
160.3105014744853
 20
524.2995769544494
 30
0.0
 11
160.3105014744853
 21
491.2995769544493
 31
0.0
  0
LINE
  5
CB7
330
A
100
AcDbEntity
  8
02
100
AcDbLine
 10
199.8105014744854
 20
530.7995769544494
 30
0.0
 11
166.8105014744851
 21
530.7995769544494
 31
0.0
  0
LINE
  5
CB8
330
A
100
AcDbEntity
  8
02
100
AcDbLine
 10
204.3105014744851
 20
536.7995769544494
 30
0.0
 11
204.3105014744853
 21
535.2995769544494
 31
0.0
  0
LINE
  5
CB9
330
A
100
AcDbEntity
  8
02
100
AcDbLine
 10
155.8105014744853
 20
358.5995769544491
 30
0.0
 11
154.3105014744853
 21
358.5995769544494
 31
0.0
  0
LINE
  5
CBA
330
A
100
AcDbEntity
  8
02
100
AcDbLine
 10
160.3105014744854
 20
321.0995769544495
 30
0.0
 11
160.3105014744854
 21
354.0995769544493
 31
0.0
  0
LINE
  5
CBB
330
A
100
AcDbEntity
  8
02
100
AcDbLine
 10
199.8105014744851
 20
314.5995769544494
 30
0.0
 11
166.8105014744853
 21
314.5995769544494
 31
0.0
  0
LINE
  5
CBC
330
A
100
AcDbEntity
  8
02
100
AcDbLine
 10
204.3105014744853
 20
310.0995769544494
 30
0.0
 11
204.3105014744853
 21
308.5995769544495
 31
0.0
  0
LINE
  5
CBD
330
A
100
AcDbEntity
  8
02
100
AcDbLine
 10
154.3105014744853
 20
308.5995769544495
 30
0.0
 11
204.3105014744853
 21
308.5995769544495
 31
0.0
  0
LINE
  5
CBE
330
A
100
AcDbEntity
  8
03
100
AcDbLine
 10
70.77396879769183
 20
96.84694148812289
 30
0.0
 11
211.5105014744855
 21
96.8469414881231
 31
0.0
  0
LINE
  5
CBF
330
A
100
AcDbEntity
  8
03
100
AcDbLine
 10
206.5105014744855
 20
239.5995769544494
 30
0.0
 11
166.5105014744854
 21
239.5995769544494
 31
0.0
  0
LINE
  5
CC0
330
A
100
AcDbEntity
  8
03
100
AcDbLine
 10
206.5105014744858
 20
106.8469414881231
 30
0.0
 11
206.5105014744858
 21
121.846941488123
 31
0.0
  0
LINE
  5
CC2
330
A
100
AcDbEntity
  8
03
100
AcDbLine
 10
166.5105014744858
 20
121.846941488123
 30
0.0
 11
166.5105014744858
 21
106.8469414881229
 31
0.0
  0
LINE
  5
CC3
330
A
100
AcDbEntity
  8
03
100
AcDbLine
 10
251.5105014744857
 20
106.8469414881231
 30
0.0
 11
251.5105014744857
 21
121.846941488123
 31
0.0
  0
LINE
  5
CC5
330
A
100
AcDbEntity
  8
03
100
AcDbLine
 10
211.5105014744858
 20
121.846941488123
 30
0.0
 11
211.5105014744858
 21
106.8469414881231
 31
0.0
  0
LINE
  5
CC6
330
A
100
AcDbEntity
  8
03
100
AcDbLine
 10
250.0105014744856
 20
96.8469414881231
 30
0.0
 11
372.7708288199853
 21
96.84694148812321
 31
0.0
  0
LINE
  5
CC7
330
A
100
AcDbEntity
  8
03
100
AcDbLine
 10
205.8105014744854
 20
239.5995769544494
 30
0.0
 11
166.5105014744854
 21
239.5995769544494
 31
0.0
  0
LINE
  5
CC9
330
A
100
AcDbEntity
  8
03
100
AcDbLine
 10
251.5105014744855
 20
106.8469414881231
 30
0.0
 11
251.5105014744855
 21
121.846941488123
 31
0.0
  0
LINE
  5
CCB
330
A
100
AcDbEntity
  8
03
100
AcDbLine
 10
211.5105014744855
 20
121.846941488123
 30
0.0
 11
211.5105014744855
 21
106.8469414881231
 31
0.0
  0
LINE
  5
CCC
330
A
100
AcDbEntity
  8
SOUZOU
100
AcDbLine
 10
281.5105014744853
 20
487.5635756192826
 30
0.0
 11
281.5105014744855
 21
340.5635756192825
 31
0.0
  0
LINE
  5
CCD
330
A
100
AcDbEntity
  8
SOUZOU
100
AcDbLine
 10
244.5105014744854
 20
487.5635756192826
 30
0.0
 11
281.5105014744853
 21
487.5635756192826
 31
0.0
  0
LINE
  5
CCE
330
A
100
AcDbEntity
  8
SOUZOU
100
AcDbLine
 10
244.5105014744854
 20
490.5635756192826
 30
0.0
 11
282.2105014744851
 21
490.5635756192826
 31
0.0
  0
LINE
  5
CCF
330
A
100
AcDbEntity
  8
SOUZOU
100
AcDbLine
 10
284.5105014744855
 20
340.5635756192825
 30
0.0
 11
281.5105014744851
 21
340.5635756192825
 31
0.0
  0
LINE
  5
CD0
330
A
100
AcDbEntity
  8
SOUZOU
100
AcDbLine
 10
284.5105014744853
 20
488.2635756192824
 30
0.0
 11
284.5105014744855
 21
340.5635756192825
 31
0.0
  0
LINE
  5
CD1
330
A
100
AcDbEntity
  8
SOUZOU
100
AcDbLine
 10
244.5105014744854
 20
487.5635756192826
 30
0.0
 11
244.5105014744854
 21
490.5635756192826
 31
0.0
  0
LINE
  5
CD2
330
A
100
AcDbEntity
  8
SOUZOU
100
AcDbLine
 10
284.5105014744853
 20
336.0995769544496
 30
0.0
 11
284.5105014744853
 21
398.0995769544498
 31
0.0
  0
LINE
  5
CD3
330
A
100
AcDbEntity
  8
SOUZOU
100
AcDbLine
 10
281.5105014744851
 20
336.0995769544496
 30
0.0
 11
284.5105014744853
 21
336.0995769544496
 31
0.0
  0
LINE
  5
CD4
330
A
100
AcDbEntity
  8
SOUZOU
100
AcDbLine
 10
281.5105014744851
 20
398.0995769544496
 30
0.0
 11
281.5105014744851
 21
336.0995769544496
 31
0.0
  0
LINE
  5
CD5
330
A
100
AcDbEntity
  8
SOUZOU
100
AcDbLine
 10
244.510501474485
 20
401.0995769544496
 30
0.0
 11
244.510501474485
 21
398.0995769544496
 31
0.0
  0
LINE
  5
CD6
330
A
100
AcDbEntity
  8
SOUZOU
100
AcDbLine
 10
244.510501474485
 20
398.0995769544496
 30
0.0
 11
281.5105014744851
 21
398.0995769544496
 31
0.0
  0
LINE
  5
CD7
330
A
100
AcDbEntity
  8
SOUZOU
100
AcDbLine
 10
281.5105014744851
 20
401.0995769544496
 30
0.0
 11
244.510501474485
 21
401.0995769544496
 31
0.0
  0
ARC
  5
D3E
330
A
100
AcDbEntity
  8
04
100
AcDbCircle
 10
249.0104964744852
 20
280.0995469544495
 30
0.0
 40
6.5
100
AcDbArc
 50
270.0
 51
0.000000000000007
  0
ARC
  5
D43
330
A
100
AcDbEntity
  8
04
100
AcDbCircle
 10
260.0104964744853
 20
311.0995469544496
 30
0.0
 40
4.5
100
AcDbArc
 50
90.00000000000005
 51
180.0
  0
ARC
  5
D44
330
A
100
AcDbEntity
  8
04
100
AcDbCircle
 10
218.0104964744852
 20
269.0995469544495
 30
0.0
 40
4.5
100
AcDbArc
 50
90.00000000000005
 51
180.0
  0
LINE
  5
D66
330
A
100
AcDbEntity
  8
04
100
AcDbLine
 10
219.0604864744853
 20
239.5995869544494
 30
0.0
 11
243.9605064744853
 21
239.5995869544494
 31
0.0
  0
LINE
  5
D68
330
A
100
AcDbEntity
  8
04
100
AcDbLine
 10
213.5105164744851
 20
296.5995829544493
 30
0.0
 11
249.5105064744851
 21
296.5995829544493
 31
0.0
  0
LINE
  5
D69
330
A
100
AcDbEntity
  8
04
100
AcDbLine
 10
251.5105064744851
 20
294.5995819544494
 30
0.0
 11
249.5105064744851
 21
296.5995829544493
 31
0.0
  0
LINE
  5
D6A
330
A
100
AcDbEntity
  8
04
100
AcDbLine
 10
251.5105064744851
 20
294.5995819544494
 30
0.0
 11
251.5105064744851
 21
284.5995869544493
 31
0.0
  0
LINE
  5
D6B
330
A
100
AcDbEntity
  8
04
100
AcDbLine
 10
211.5105064744851
 20
294.5995819544494
 30
0.0
 11
213.5105164744851
 21
296.5995829544493
 31
0.0
  0
LINE
  5
D6C
330
A
100
AcDbEntity
  8
04
100
AcDbLine
 10
211.5105064744851
 20
284.5995869544493
 30
0.0
 11
211.5105064744851
 21
294.5995819544494
 31
0.0
  0
LINE
  5
D6F
330
A
100
AcDbEntity
  8
04
100
AcDbLine
 10
263.5104964744853
 20
265.5995469544496
 30
0.0
 11
272.5104964744853
 21
265.5995469544496
 31
0.0
  0
LINE
  5
D70
330
A
100
AcDbEntity
  8
04
100
AcDbLine
 10
263.5104964744853
 20
397.5995869544494
 30
0.0
 11
272.5104964744853
 21
397.5995869544494
 31
0.0
  0
LINE
  5
D71
330
A
100
AcDbEntity
  8
04
100
AcDbLine
 10
272.5104964744853
 20
397.5995869544494
 30
0.0
 11
272.5104964744853
 21
265.5995469544496
 31
0.0
  0
LINE
  5
D72
330
A
100
AcDbEntity
  8
04
100
AcDbLine
 10
263.5104964744853
 20
397.5995869544494
 30
0.0
 11
263.5104964744853
 21
265.5995939544495
 31
0.0
  0
LINE
  5
D78
330
A
100
AcDbEntity
  8
03
100
AcDbLine
 10
209.5104964744851
 20
265.5995469544496
 30
0.0
 11
253.5104964744851
 21
265.5995469544496
 31
0.0
  0
LINE
  5
D79
330
A
100
AcDbEntity
  8
03
100
AcDbLine
 10
253.5104964744851
 20
253.5995769544494
 30
0.0
 11
253.5104964744851
 21
265.5995469544496
 31
0.0
  0
LINE
  5
D7A
330
A
100
AcDbEntity
  8
03
100
AcDbLine
 10
209.5104964744851
 20
253.5995769544494
 30
0.0
 11
209.5104964744851
 21
265.5995469544496
 31
0.0
  0
LINE
  5
D7C
330
A
100
AcDbEntity
  8
CHUSIN
100
AcDbLine
 10
231.5104964744853
 20
281.4663369544495
 30
0.0
 11
231.5104964744853
 21
249.9879269544496
 31
0.0
  0
LINE
  5
D7D
330
A
100
AcDbEntity
  8
CHUSIN
100
AcDbLine
 10
231.5105014744855
 20
405.1045320177411
 30
0.0
 11
231.5105014744855
 21
334.6332012805316
 31
0.0
  0
LINE
  5
D81
330
A
100
AcDbEntity
  8
CHUSIN
100
AcDbLine
 10
255.0655621409458
 20
369.5995869544495
 30
0.0
 11
291.9308669100018
 21
369.5995869544495
 31
0.0
  0
LINE
  5
1206
330
A
100
AcDbEntity
  8
04
100
AcDbLine
 10
263.5104964744853
 20
265.5995469544496
 30
0.0
 11
263.5104964744853
 21
315.5995469544496
 31
0.0
  0
LINE
  5
1207
330
A
100
AcDbEntity
  8
04
100
AcDbLine
 10
213.5104964744853
 20
269.0995469544495
 30
0.0
 11
213.5104964744853
 21
265.5995469544496
 31
0.0
  0
LINE
  5
1208
330
A
100
AcDbEntity
  8
04
100
AcDbLine
 10
263.5104964744853
 20
315.5995469544496
 30
0.0
 11
260.0104964744853
 21
315.5995469544496
 31
0.0
  0
LINE
  5
1209
330
A
100
AcDbEntity
  8
04
100
AcDbLine
 10
213.5104964744853
 20
265.5995469544496
 30
0.0
 11
263.5104964744853
 21
265.5995469544496
 31
0.0
  0
LINE
  5
120A
330
A
100
AcDbEntity
  8
04
100
AcDbLine
 10
249.0104964744851
 20
273.5995469544495
 30
0.0
 11
218.0104964744851
 21
273.5995469544495
 31
0.0
  0
LINE
  5
120B
330
A
100
AcDbEntity
  8
04
100
AcDbLine
 10
255.5104964744851
 20
311.0995469544496
 30
0.0
 11
255.5104964744851
 21
280.0995469544495
 31
0.0
  0
LINE
  5
120C
330
A
100
AcDbEntity
  8
04
100
AcDbLine
 10
244.5105064744854
 20
384.5995869544494
 30
0.0
 11
263.5104964744854
 21
384.5995869544494
 31
0.0
  0
LINE
  5
120F
330
A
100
AcDbEntity
  8
04
100
AcDbLine
 10
263.5104964744854
 20
354.5995769544497
 30
0.0
 11
244.5105064744854
 21
354.5995769544494
 31
0.0
  0
LINE
  5
1215
330
A
100
AcDbEntity
  8
04
100
AcDbLine
 10
237.5104964744854
 20
393.5996069544496
 30
0.0
 11
239.0105064744854
 21
400.5995869544494
 31
0.0
  0
LINE
  5
1216
330
A
100
AcDbEntity
  8
04
100
AcDbLine
 10
225.5105064744855
 20
393.5996069544496
 30
0.0
 11
224.0105064744855
 21
400.5995869544494
 31
0.0
  0
LINE
  5
1217
330
A
100
AcDbEntity
  8
04
100
AcDbLine
 10
237.5104964744854
 20
345.5995769544494
 30
0.0
 11
239.0105064744854
 21
338.5995969544495
 31
0.0
  0
LINE
  5
1218
330
A
100
AcDbEntity
  8
04
100
AcDbLine
 10
225.5105064744855
 20
345.5995769544494
 30
0.0
 11
224.0105064744855
 21
338.5995969544496
 31
0.0
  0
LINE
  5
1219
330
A
100
AcDbEntity
  8
04
100
AcDbLine
 10
237.5104964744854
 20
393.5996069544496
 30
0.0
 11
225.5105064744855
 21
393.5996069544496
 31
0.0
  0
LINE
  5
121A
330
A
100
AcDbEntity
  8
04
100
AcDbLine
 10
225.5105064744855
 20
345.5995769544494
 30
0.0
 11
237.5104964744854
 21
345.5995769544494
 31
0.0
  0
LINE
  5
121B
330
A
100
AcDbEntity
  8
04
100
AcDbLine
 10
239.0105064744854
 20
400.5995869544494
 30
0.0
 11
244.5105064744854
 21
400.5995869544494
 31
0.0
  0
LINE
  5
121C
330
A
100
AcDbEntity
  8
04
100
AcDbLine
 10
218.5105064744855
 20
400.5995869544494
 30
0.0
 11
224.0105064744855
 21
400.5995869544494
 31
0.0
  0
LINE
  5
121D
330
A
100
AcDbEntity
  8
04
100
AcDbLine
 10
239.0105064744854
 20
338.5995969544495
 30
0.0
 11
244.5105064744854
 21
338.5995969544496
 31
0.0
  0
LINE
  5
121E
330
A
100
AcDbEntity
  8
04
100
AcDbLine
 10
218.5105064744855
 20
338.5995969544496
 30
0.0
 11
224.0105064744855
 21
338.5995969544496
 31
0.0
  0
LINE
  5
121F
330
A
100
AcDbEntity
  8
04
100
AcDbLine
 10
218.5105064744855
 20
338.5995969544496
 30
0.0
 11
218.5105064744855
 21
400.5995869544494
 31
0.0
  0
LINE
  5
1220
330
A
100
AcDbEntity
  8
04
100
AcDbLine
 10
244.5105064744854
 20
338.5995969544496
 30
0.0
 11
244.5105064744854
 21
400.5995869544494
 31
0.0
  0
LINE
  5
1222
330
A
100
AcDbEntity
  8
04
100
AcDbLine
 10
272.5104964744853
 20
384.5995869544494
 30
0.0
 11
275.5104964744853
 21
384.5995869544494
 31
0.0
  0
LINE
  5
1223
330
A
100
AcDbEntity
  8
04
100
AcDbLine
 10
272.5104964744853
 20
354.5995869544495
 30
0.0
 11
272.5104964744853
 21
384.5995869544494
 31
0.0
  0
LINE
  5
1224
330
A
100
AcDbEntity
  8
04
100
AcDbLine
 10
275.5104964744853
 20
354.5995869544495
 30
0.0
 11
272.5104964744853
 21
354.5995869544495
 31
0.0
  0
LINE
  5
1228
330
A
100
AcDbEntity
  8
04
100
AcDbLine
 10
275.5104964744853
 20
383.5995869544494
 30
0.0
 11
279.5104964744853
 21
383.5995869544494
 31
0.0
  0
LINE
  5
1229
330
A
100
AcDbEntity
  8
04
100
AcDbLine
 10
279.5104964744853
 20
355.5995869544496
 30
0.0
 11
275.5104964744853
 21
355.5995869544496
 31
0.0
  0
LINE
  5
122B
330
A
100
AcDbEntity
  8
04
100
AcDbLine
 10
280.8672696070809
 20
355.7495869544496
 30
0.0
 11
288.1537233418896
 21
355.7495869544496
 31
0.0
  0
LINE
  5
122C
330
A
100
AcDbEntity
  8
04
100
AcDbLine
 10
289.5104964744853
 20
379.9854853393118
 30
0.0
 11
289.5104964744853
 21
359.2136885695874
 31
0.0
  0
LINE
  5
122E
330
A
100
AcDbEntity
  8
04
100
AcDbLine
 10
280.8672696070809
 20
383.4495869544496
 30
0.0
 11
288.1537233418896
 21
383.4495869544496
 31
0.0
  0
LINE
  5
123A
330
A
100
AcDbEntity
  8
CHUSIN
100
AcDbLine
 10
231.5104964744853
 20
241.5995269544495
 30
0.0
 11
231.5104964744854
 21
211.5005269544496
 31
0.0
  0
LINE
  5
1248
330
A
100
AcDbEntity
  8
03
100
AcDbLine
 10
216.5104664744851
 20
239.5995469544495
 30
0.0
 11
246.5104964744853
 21
239.5995469544495
 31
0.0
  0
LINE
  5
1252
330
A
100
AcDbEntity
  8
04
100
AcDbLine
 10
247.5104964744853
 20
239.5995469544494
 30
0.0
 11
247.5104964744853
 21
245.5995469544494
 31
0.0
  0
LINE
  5
1253
330
A
100
AcDbEntity
  8
04
100
AcDbLine
 10
215.5104964744853
 20
245.5995469544494
 30
0.0
 11
215.5104964744853
 21
239.5995469544494
 31
0.0
  0
LINE
  5
1254
330
A
100
AcDbEntity
  8
04
100
AcDbLine
 10
247.5104964744853
 20
245.5995469544494
 30
0.0
 11
215.5104964744853
 21
245.5995469544494
 31
0.0
  0
LINE
  5
1255
330
A
100
AcDbEntity
  8
04
100
AcDbLine
 10
215.5104964744853
 20
239.5995469544494
 30
0.0
 11
247.5104964744853
 21
239.5995469544494
 31
0.0
  0
LINE
  5
1262
330
A
100
AcDbEntity
  8
04
100
AcDbLine
 10
252.5105064744851
 20
273.5995869544494
 30
0.0
 11
252.5105064744851
 21
284.5995869544493
 31
0.0
  0
LINE
  5
1263
330
A
100
AcDbEntity
  8
04
100
AcDbLine
 10
210.5105064744853
 20
284.5995869544493
 30
0.0
 11
210.5105064744853
 21
273.5995869544494
 31
0.0
  0
LINE
  5
1265
330
A
100
AcDbEntity
  8
04
100
AcDbLine
 10
210.5105064744853
 20
273.5995869544494
 30
0.0
 11
252.5105064744851
 21
273.5995869544494
 31
0.0
  0
LINE
  5
1266
330
A
100
AcDbEntity
  8
04
100
AcDbLine
 10
210.5104864744853
 20
253.5995769544494
 30
0.0
 11
210.5104864744853
 21
245.5995469544494
 31
0.0
  0
LINE
  5
1267
330
A
100
AcDbEntity
  8
04
100
AcDbLine
 10
252.5104864744853
 20
245.5995469544494
 30
0.0
 11
252.5104864744853
 21
253.5995769544494
 31
0.0
  0
LINE
  5
1268
330
A
100
AcDbEntity
  8
04
100
AcDbLine
 10
210.5104864744853
 20
245.5995469544494
 30
0.0
 11
252.5104864744853
 21
245.5995469544494
 31
0.0
  0
POLYLINE
  5
128E
330
A
100
AcDbEntity
  8
DEFPOINTS
100
AcDb2dPolyline
 66
     1
 10
0.0
 20
0.0
 30
0.0
 70
     1
  0
VERTEX
  5
24D1
330
128E
100
AcDbEntity
  8
DEFPOINTS
100
AcDbVertex
100
AcDb2dVertex
 10
0.0
 20
0.0
 30
0.0
  0
VERTEX
  5
24D2
330
128E
100
AcDbEntity
  8
DEFPOINTS
100
AcDbVertex
100
AcDb2dVertex
 10
420.0
 20
0.0
 30
0.0
  0
VERTEX
  5
24D3
330
128E
100
AcDbEntity
  8
DEFPOINTS
100
AcDbVertex
100
AcDb2dVertex
 10
420.0
 20
594.0
 30
0.0
  0
VERTEX
  5
24D4
330
128E
100
AcDbEntity
  8
DEFPOINTS
100
AcDbVertex
100
AcDb2dVertex
 10
0.0
 20
594.0
 30
0.0
  0
SEQEND
  5
24D5
330
128E
100
AcDbEntity
  8
DEFPOINTS
  0
POLYLINE
  5
12D5
330
A
100
AcDbEntity
  8
SAISEN
100
AcDb2dPolyline
 66
     1
 10
0.0
 20
0.0
 30
0.0
 70
     1
  0
VERTEX
  5
24D6
330
12D5
100
AcDbEntity
  8
SAISEN
100
AcDbVertex
100
AcDb2dVertex
 10
349.9975648284768
 20
157.7803355889525
 30
0.0
  0
VERTEX
  5
24D7
330
12D5
100
AcDbEntity
  8
SAISEN
100
AcDbVertex
100
AcDb2dVertex
 10
359.9975648284768
 20
157.7803355889525
 30
0.0
  0
VERTEX
  5
24D8
330
12D5
100
AcDbEntity
  8
SAISEN
100
AcDbVertex
100
AcDb2dVertex
 10
359.9975648284768
 20
187.7803355889525
 30
0.0
  0
VERTEX
  5
24D9
330
12D5
100
AcDbEntity
  8
SAISEN
100
AcDbVertex
100
AcDb2dVertex
 10
349.9975648284768
 20
187.7803355889525
 30
0.0
  0
SEQEND
  5
24DA
330
12D5
100
AcDbEntity
  8
SAISEN
  0
MTEXT
  5
12D6
330
A
100
AcDbEntity
  8
MOJI
100
AcDbMText
 10
354.9975648284768
 20
172.7803355889526
 30
0.0
 40
6.0
 41
10.0
 71
     5
 72
     1
  1
内\P\P部
  7
0_8
1001
ACAD
1000
MTEXTBEGIN
1070
    73
1070
     1
1070
    44
1040
1.0
1070
    74
1070
     0
1000
MTEXTEND
1000
MTEXTBEGIN
1070
    73
1070
     1
1070
    44
1040
1.0
1070
    74
1070
     0
1000
MTEXTEND
  0
MTEXT
  5
12DD
330
A
100
AcDbEntity
  8
MOJI
100
AcDbMText
 10
62.00483741749462
 20
172.7803355889526
 30
0.0
 40
6.0
 41
10.0
 71
     5
 72
     1
  1
外\P\P部
  7
0_8
1001
ACAD
1000
MTEXTBEGIN
1070
    73
1070
     1
1070
    44
1040
1.0
1070
    74
1070
     0
1000
MTEXTEND
1000
MTEXTBEGIN
1070
    73
1070
     1
1070
    44
1040
1.0
1070
    74
1070
     0
1000
MTEXTEND
  0
POLYLINE
  5
12DE
330
A
100
AcDbEntity
  8
SAISEN
100
AcDb2dPolyline
 66
     1
 10
0.0
 20
0.0
 30
0.0
 70
     1
  0
VERTEX
  5
24DB
330
12DE
100
AcDbEntity
  8
SAISEN
100
AcDbVertex
100
AcDb2dVertex
 10
57.00483741749462
 20
157.7803355889525
 30
0.0
  0
VERTEX
  5
24DC
330
12DE
100
AcDbEntity
  8
SAISEN
100
AcDbVertex
100
AcDb2dVertex
 10
67.00483741749462
 20
157.7803355889525
 30
0.0
  0
VERTEX
  5
24DD
330
12DE
100
AcDbEntity
  8
SAISEN
100
AcDbVertex
100
AcDb2dVertex
 10
67.00483741749462
 20
187.7803355889525
 30
0.0
  0
VERTEX
  5
24DE
330
12DE
100
AcDbEntity
  8
SAISEN
100
AcDbVertex
100
AcDb2dVertex
 10
57.00483741749462
 20
187.7803355889525
 30
0.0
  0
SEQEND
  5
24DF
330
12DE
100
AcDbEntity
  8
SAISEN
  0
DIMENSION
  5
12EE
330
A
100
AcDbEntity
  8
SUNPOU
100
AcDbDimension
  2
*D1
 10
97.02462597209969
 20
540.5995769544492
 30
0.0
 11
92.52462597209959
 21
549.5995769544495
 31
0.0
 70
    32
  3
SUNPOU_2
100
AcDbAlignedDimension
 13
155.3105014744853
 23
558.5995769544496
 33
0.0
 14
152.010501474485
 24
540.5995769544492
 34
0.0
 50
90.0
100
AcDbRotatedDimension
1001
ACAD
1000
DSTYLE
1002
{
1070
   271
1070
     1
1002
}
  0
DIMENSION
  5
12FB
330
A
100
AcDbEntity
  8
SUNPOU
100
AcDbDimension
  2
*D2
 10
97.02462597209965
 20
308.5995769544495
 30
0.0
 11
92.52462597209959
 21
424.5995769544494
 31
0.0
 70
    32
  3
SUNPOU_2
100
AcDbAlignedDimension
 13
152.010501474485
 23
540.5995769544492
 33
0.0
 14
154.3105014744853
 24
308.5995769544495
 34
0.0
 50
90.0
100
AcDbRotatedDimension
1001
ACAD
1000
DSTYLE
1002
{
1070
   271
1070
     1
1002
}
  0
DIMENSION
  5
1308
330
A
100
AcDbEntity
  8
SUNPOU
100
AcDbDimension
  2
*D3
 10
97.02462597209965
 20
243.5995769544494
 30
0.0
 11
92.52462597209959
 21
276.0995769544495
 31
0.0
 70
    32
  3
SUNPOU_2
100
AcDbAlignedDimension
 13
154.3105014744853
 23
308.5995769544495
 33
0.0
 14
154.3105014744853
 24
243.5995769544494
 34
0.0
 50
90.0
100
AcDbRotatedDimension
1001
ACAD
1000
DSTYLE
1002
{
1070
   271
1070
     1
1002
}
  0
DIMENSION
  5
1315
330
A
100
AcDbEntity
  8
SUNPOU
100
AcDbDimension
  2
*D4
 10
97.02462597209965
 20
239.5995769544494
 30
0.0
 11
89.52462597209956
 21
241.5995769544494
 31
0.0
 70
    32
  3
SUNPOU_2
100
AcDbAlignedDimension
 13
154.3105014744853
 23
243.5995769544494
 33
0.0
 14
166.5105014744854
 24
239.5995769544494
 34
0.0
 50
90.0
100
AcDbRotatedDimension
1001
ACAD
1000
DSTYLE
1002
{
1070
   271
1070
     1
1002
}
  0
DIMENSION
  5
1324
330
A
100
AcDbEntity
  8
SUNPOU
100
AcDbDimension
  2
*D5
 10
97.02462597209958
 20
106.8469414881229
 30
0.0
 11
92.52462597209959
 21
173.2232592212862
 31
0.0
 70
    32
  1
DH=2134
  3
SUNPOU_2
100
AcDbAlignedDimension
 13
166.5105014744854
 23
239.5995769544494
 33
0.0
 14
166.5105014744858
 24
106.8469414881229
 34
0.0
 50
90.0
100
AcDbRotatedDimension
1001
ACAD
1000
DSTYLE
1002
{
1070
   271
1070
     1
1002
}
  0
DIMENSION
  5
1331
330
A
100
AcDbEntity
  8
SUNPOU
100
AcDbDimension
  2
*D6
 10
97.02462597209958
 20
96.8469414881229
 30
0.0
 11
92.52462597209957
 21
101.8469414881228
 31
0.0
 70
    32
  3
SUNPOU_2
100
AcDbAlignedDimension
 13
166.5105014744858
 23
106.8469414881229
 33
0.0
 14
97.02462597209986
 24
96.8469414881229
 34
0.0
 50
90.0
100
AcDbRotatedDimension
1001
ACAD
1000
DSTYLE
1002
{
1070
   271
1070
     1
1002
}
  0
DIMENSION
  5
134D
330
A
100
AcDbEntity
  8
SUNPOU
100
AcDbDimension
  2
*D7
 10
87.0984812158222
 20
243.5995769544494
 30
0.0
 11
82.59848121582214
 21
170.223259221286
 31
0.0
 70
    32
  1
H=2148
  3
SUNPOU_2
100
AcDbAlignedDimension
 13
87.09848121582217
 23
96.84694148812289
 33
0.0
 14
152.0105014744854
 24
243.5995769544494
 34
0.0
 50
90.0
100
AcDbRotatedDimension
1001
ACAD
1000
DSTYLE
1002
{
1070
   271
1070
     1
1002
}
  0
DIMENSION
  5
135A
330
A
100
AcDbEntity
  8
SUNPOU
100
AcDbDimension
  2
*D8
 10
87.09848121582226
 20
558.5995769544495
 30
0.0
 11
82.59848121582217
 21
401.0995769544494
 31
0.0
 70
    32
  3
SUNPOU_2
100
AcDbAlignedDimension
 13
152.0105014744854
 23
243.5995769544494
 33
0.0
 14
155.3105014744853
 24
558.5995769544495
 34
0.0
 50
90.0
100
AcDbRotatedDimension
1001
ACAD
1000
DSTYLE
1002
{
1070
   271
1070
     1
1002
}
  0
DIMENSION
  5
1374
330
A
100
AcDbEntity
  8
SUNPOU
100
AcDbDimension
  2
*D9
 10
186.5105014744855
 20
224.4605734426749
 30
0.0
 11
179.0911054696166
 21
228.9982016701506
 31
0.0
 70
   160
  3
SUNPOU_2
100
AcDbAlignedDimension
 13
184.5105014744855
 23
224.4605734426749
 33
0.0
 14
186.5105014744855
 24
224.4605734426749
 34
0.0
100
AcDbRotatedDimension
1001
ACAD
1000
DSTYLE
1002
{
1070
   271
1070
     1
1002
}
  0
DIMENSION
  5
1383
330
A
100
AcDbEntity
  8
SUNPOU
100
AcDbDimension
  2
*D10
 10
231.5105014744855
 20
210.2445680519113
 30
0.0
 11
191.0105014744854
 21
214.7445680519113
 31
0.0
 70
    32
  3
SUNPOU_2
100
AcDbAlignedDimension
 13
150.5105014744854
 23
210.2445680519116
 33
0.0
 14
231.5105014744855
 24
210.2445680519113
 34
0.0
100
AcDbRotatedDimension
1001
ACAD
1000
DSTYLE
1002
{
1070
   271
1070
     1
1002
}
  0
DIMENSION
  5
1390
330
A
100
AcDbEntity
  8
SUNPOU
100
AcDbDimension
  2
*D11
 10
166.5105014744854
 20
202.7151314619134
 30
0.0
 11
158.5105014744854
 21
207.2151314619134
 31
0.0
 70
    32
  3
SUNPOU_2
100
AcDbAlignedDimension
 13
150.5105014744854
 23
202.7151314619134
 33
0.0
 14
166.5105014744854
 24
202.7151314619134
 34
0.0
100
AcDbRotatedDimension
1001
ACAD
1000
DSTYLE
1002
{
1070
   271
1070
     1
1002
}
  0
DIMENSION
  5
139D
330
A
100
AcDbEntity
  8
SUNPOU
100
AcDbDimension
  2
*D12
 10
206.5105014744855
 20
202.7151314619134
 30
0.0
 11
190.5015694688113
 21
206.637172494211
 31
0.0
 70
   160
  3
SUNPOU_2
100
AcDbAlignedDimension
 13
166.5105014744854
 23
202.7151314619134
 33
0.0
 14
206.5105014744855
 24
202.7151314619135
 34
0.0
100
AcDbRotatedDimension
1001
ACAD
1000
DSTYLE
1002
{
1070
   271
1070
     1
1002
}
  0
DIMENSION
  5
13AA
330
A
100
AcDbEntity
  8
SUNPOU
100
AcDbDimension
  2
*D13
 10
211.5105014744855
 20
202.7151314619134
 30
0.0
 11
208.9278960877859
 21
206.9388371269723
 31
0.0
 70
   160
  3
SUNPOU_2
100
AcDbAlignedDimension
 13
206.5105014744855
 23
202.7151314619135
 33
0.0
 14
211.5105014744855
 24
202.7151314619134
 34
0.0
100
AcDbRotatedDimension
1001
ACAD
1000
DSTYLE
1002
{
1070
   271
1070
     1
1002
}
  0
DIMENSION
  5
13B9
330
A
100
AcDbEntity
  8
SUNPOU
100
AcDbDimension
  2
*D14
 10
251.5105014744855
 20
202.7151314619134
 30
0.0
 11
235.5009447190186
 21
207.2151314619134
 31
0.0
 70
   160
  3
SUNPOU_2
100
AcDbAlignedDimension
 13
211.5105014744855
 23
202.7151314619134
 33
0.0
 14
251.5105014744855
 24
202.7151314619134
 34
0.0
100
AcDbRotatedDimension
1001
ACAD
1000
DSTYLE
1002
{
1070
   271
1070
     1
1002
}
  0
DIMENSION
  5
13C6
330
A
100
AcDbEntity
  8
SUNPOU
100
AcDbDimension
  2
*D15
 10
256.5105014744855
 20
202.7151314619134
 30
0.0
 11
254.0105014744855
 21
207.2280871477254
 31
0.0
 70
   160
  3
SUNPOU_2
100
AcDbAlignedDimension
 13
251.5105014744855
 23
202.7151314619134
 33
0.0
 14
256.5105014744855
 24
245.0995769544495
 34
0.0
100
AcDbRotatedDimension
1001
ACAD
1000
DSTYLE
1002
{
1070
   271
1070
     1
1002
}
  0
DIMENSION
  5
13D5
330
A
100
AcDbEntity
  8
SUNPOU
100
AcDbDimension
  2
*D16
 10
309.5105014744855
 20
202.7151314619134
 30
0.0
 11
283.0105014744855
 21
207.2151314619134
 31
0.0
 70
    32
  3
SUNPOU_2
100
AcDbAlignedDimension
 13
256.5105014744855
 23
245.0995769544495
 33
0.0
 14
309.5105014744855
 24
245.0995769544495
 34
0.0
100
AcDbRotatedDimension
1001
ACAD
1000
DSTYLE
1002
{
1070
   271
1070
     1
1002
}
  0
DIMENSION
  5
13F0
330
A
100
AcDbEntity
  8
SUNPOU
100
AcDbDimension
  2
*D17
 10
231.5105014744855
 20
192.0736459164397
 30
0.0
 11
270.5105014744855
 21
196.5736459164397
 31
0.0
 70
    32
  3
SUNPOU_2
100
AcDbAlignedDimension
 13
309.5105014744855
 23
245.0995769544495
 33
0.0
 14
231.5105014744855
 24
192.0736459164397
 34
0.0
100
AcDbRotatedDimension
1001
ACAD
1000
DSTYLE
1002
{
1070
   271
1070
     1
1002
}
  0
DIMENSION
  5
13FD
330
A
100
AcDbEntity
  8
SUNPOU
100
AcDbDimension
  2
*D18
 10
186.5105014744855
 20
192.0736459164397
 30
0.0
 11
209.0105014744855
 21
196.5736459164397
 31
0.0
 70
    32
  3
SUNPOU_2
100
AcDbAlignedDimension
 13
231.5105014744855
 23
192.0736459164397
 33
0.0
 14
186.5105014744855
 24
192.0736459164397
 34
0.0
100
AcDbRotatedDimension
1001
ACAD
1000
DSTYLE
1002
{
1070
   271
1070
     1
1002
}
  0
DIMENSION
  5
140A
330
A
100
AcDbEntity
  8
SUNPOU
100
AcDbDimension
  2
*D19
 10
150.5105014744854
 20
192.0736459164397
 30
0.0
 11
171.3623293410751
 21
196.9124872520681
 31
0.0
 70
   160
  3
SUNPOU_2
100
AcDbAlignedDimension
 13
186.5105014744855
 23
192.0736459164397
 33
0.0
 14
150.5105014744854
 24
245.0995769544495
 34
0.0
100
AcDbRotatedDimension
1001
ACAD
1000
DSTYLE
1002
{
1070
   271
1070
     1
1002
}
  0
DIMENSION
  5
1417
330
A
100
AcDbEntity
  8
SUNPOU
100
AcDbDimension
  2
*D20
 10
206.5105014744855
 20
148.3167186005822
 30
0.0
 11
192.5105014744855
 21
152.816718600582
 31
0.0
 70
    32
  3
SUNPOU_2
100
AcDbAlignedDimension
 13
178.5105014744855
 23
156.5995769544494
 33
0.0
 14
206.5105014744855
 24
155.5995769544495
 34
0.0
100
AcDbRotatedDimension
1001
ACAD
1000
DSTYLE
1002
{
1070
   271
1070
     1
1002
}
  0
DIMENSION
  5
1424
330
A
100
AcDbEntity
  8
SUNPOU
100
AcDbDimension
  2
*D21
 10
211.5105014744855
 20
148.3167186005822
 30
0.0
 11
209.0851839623451
 21
152.0419595320149
 31
0.0
 70
   160
  3
SUNPOU_2
100
AcDbAlignedDimension
 13
206.5105014744855
 23
155.5995769544495
 33
0.0
 14
211.5105014744855
 24
156.5995769544494
 34
0.0
100
AcDbRotatedDimension
1001
ACAD
1000
DSTYLE
1002
{
1070
   271
1070
     1
1002
}
  0
DIMENSION
  5
1433
330
A
100
AcDbEntity
  8
SUNPOU
100
AcDbDimension
  2
*D22
 10
239.5105014744856
 20
148.3167186005822
 30
0.0
 11
225.5105014744855
 21
152.816718600582
 31
0.0
 70
    32
  3
SUNPOU_2
100
AcDbAlignedDimension
 13
211.5105014744855
 23
156.5995769544494
 33
0.0
 14
239.5105014744856
 24
156.5995769544494
 34
0.0
100
AcDbRotatedDimension
1001
ACAD
1000
DSTYLE
1002
{
1070
   271
1070
     1
1002
}
  0
DIMENSION
  5
1440
330
A
100
AcDbEntity
  8
SUNPOU
100
AcDbDimension
  2
*D23
 10
198.5105014744855
 20
138.53778340228
 30
0.0
 11
192.5105014744855
 21
143.0377834022801
 31
0.0
 70
    32
  3
SUNPOU_2
100
AcDbAlignedDimension
 13
186.5105014744855
 23
141.4216599849551
 33
0.0
 14
198.5105014744855
 24
138.53778340228
 34
0.0
100
AcDbRotatedDimension
1001
ACAD
1000
DSTYLE
1002
{
1070
   271
1070
     1
1002
}
  0
DIMENSION
  5
144F
330
A
100
AcDbEntity
  8
SUNPOU
100
AcDbDimension
  2
*D24
 10
265.9051595202847
 20
243.5995769544494
 30
0.0
 11
271.7639121505071
 21
251.1644869717523
 31
0.0
 70
   160
  3
SUNPOU_2
100
AcDbAlignedDimension
 13
256.5105014744855
 23
258.5995769544495
 33
0.0
 14
265.9051595202847
 24
243.5995769544494
 34
0.0
 50
90.0
100
AcDbRotatedDimension
1001
ACAD
1000
DSTYLE
1002
{
1070
   271
1070
     1
1002
}
  0
DIMENSION
  5
145C
330
A
100
AcDbEntity
  8
SUNPOU
100
AcDbDimension
  2
*D25
 10
332.4210121970927
 20
265.5995469544496
 30
0.0
 11
327.9210121970927
 21
254.5995619544495
 31
0.0
 70
    32
  3
SUNPOU_2
100
AcDbAlignedDimension
 13
308.0105014744855
 23
243.5995769544495
 33
0.0
 14
272.5104964744853
 24
265.5995469544496
 34
0.0
 50
90.0
100
AcDbRotatedDimension
1001
ACAD
1000
DSTYLE
1002
{
1070
   271
1070
     1
1002
}
  0
DIMENSION
  5
1469
330
A
100
AcDbEntity
  8
SUNPOU
100
AcDbDimension
  2
*D26
 10
332.4210121970927
 20
345.5995536213379
 30
0.0
 11
327.9210121970927
 21
305.5995502878938
 31
0.0
 70
    32
  3
SUNPOU_2
100
AcDbAlignedDimension
 13
272.5104964744853
 23
265.5995469544496
 33
0.0
 14
237.5105014744855
 24
345.5995536213379
 34
0.0
 50
90.0
100
AcDbRotatedDimension
1001
ACAD
1000
DSTYLE
1002
{
1070
   271
1070
     1
1002
}
  0
DIMENSION
  5
1476
330
A
100
AcDbEntity
  8
SUNPOU
100
AcDbDimension
  2
*D27
 10
332.4210121970927
 20
369.5995869544495
 30
0.0
 11
327.9210121970927
 21
357.5995702878937
 31
0.0
 70
    32
  3
SUNPOU_2
100
AcDbAlignedDimension
 13
237.5105014744855
 23
345.5995536213379
 33
0.0
 14
291.9308669100018
 24
369.5995869544495
 34
0.0
 50
90.0
100
AcDbRotatedDimension
1001
ACAD
1000
DSTYLE
1002
{
1070
   271
1070
     1
1002
}
  0
DIMENSION
  5
1483
330
A
100
AcDbEntity
  8
SUNPOU
100
AcDbDimension
  2
*D28
 10
340.2151725009033
 20
345.5995536213379
 30
0.0
 11
335.7151725009031
 21
404.5995652878938
 31
0.0
 70
    32
  3
SUNPOU_2
100
AcDbAlignedDimension
 13
304.5105014744853
 23
463.5995769544494
 33
0.0
 14
237.5105014744855
 24
345.5995536213379
 34
0.0
 50
90.0
100
AcDbRotatedDimension
1001
ACAD
1000
DSTYLE
1002
{
1070
   271
1070
     1
1002
}
  0
DIMENSION
  5
1490
330
A
100
AcDbEntity
  8
SUNPOU
100
AcDbDimension
  2
*D29
 10
352.002469398983
 20
243.5995769544494
 30
0.0
 11
347.502469398983
 21
353.5995769544496
 31
0.0
 70
    32
  3
SUNPOU_2
100
AcDbAlignedDimension
 13
307.5105014744853
 23
463.5995769544494
 33
0.0
 14
307.5105014744856
 24
243.5995769544495
 34
0.0
 50
90.0
100
AcDbRotatedDimension
1001
ACAD
1000
DSTYLE
1002
{
1070
   271
1070
     1
1002
}
  0
DIMENSION
  5
149D
330
A
100
AcDbEntity
  8
SUNPOU
100
AcDbDimension
  2
*D30
 10
309.5105014744853
 20
570.9444480092495
 30
0.0
 11
317.757825614713
 21
575.1777469861754
 31
0.0
 70
   160
  3
SUNPOU_2
100
AcDbAlignedDimension
 13
312.5105014744852
 23
570.9444480092495
 33
0.0
 14
309.5105014744853
 24
557.0995769544493
 34
0.0
100
AcDbRotatedDimension
1001
ACAD
1000
DSTYLE
1002
{
1070
   271
1070
     1
1002
}
  0
DIMENSION
  5
14B9
330
A
100
AcDbEntity
  8
SUNPOU
100
AcDbDimension
  2
*D31
 10
150.5105014744851
 20
570.9444480092495
 30
0.0
 11
230.0105014744853
 21
575.4444480092493
 31
0.0
 70
    32
  3
SUNPOU_2
100
AcDbAlignedDimension
 13
309.5105014744853
 23
557.0995769544493
 33
0.0
 14
150.5105014744851
 24
536.7995769544494
 34
0.0
100
AcDbRotatedDimension
1001
ACAD
1000
DSTYLE
1002
{
1070
   271
1070
     1
1002
}
  0
DIMENSION
  5
14D5
330
A
100
AcDbEntity
  8
SUNPOU
100
AcDbDimension
  2
*D32
 10
147.510501474485
 20
570.9444480092495
 30
0.0
 11
141.5939871738705
 21
575.5606093229735
 31
0.0
 70
   160
  3
SUNPOU_2
100
AcDbAlignedDimension
 13
150.5105014744851
 23
536.7995769544494
 33
0.0
 14
147.510501474485
 24
570.9444480092495
 34
0.0
100
AcDbRotatedDimension
1001
ACAD
1000
DSTYLE
1002
{
1070
   271
1070
     1
1002
}
  0
DIMENSION
  5
14E4
330
A
100
AcDbEntity
  8
SUNPOU
100
AcDbDimension
  2
*D33
 10
266.0105014744853
 20
454.9871189361661
 30
0.0
 11
248.7605014744854
 21
459.4871189361661
 31
0.0
 70
    32
  3
SUNPOU_2
100
AcDbAlignedDimension
 13
231.5105014744855
 23
405.1045320177411
 33
0.0
 14
266.0105014744853
 24
454.9871189361661
 34
0.0
100
AcDbRotatedDimension
1001
ACAD
1000
DSTYLE
1002
{
1070
   271
1070
     1
1002
}
  0
DIMENSION
  5
14F1
330
A
100
AcDbEntity
  8
SUNPOU
100
AcDbDimension
  2
*D34
 10
309.5105014744853
 20
454.9871189361661
 30
0.0
 11
291.2792246254321
 21
459.4871189361661
 31
0.0
 70
   160
  3
SUNPOU_2
100
AcDbAlignedDimension
 13
266.0105014744853
 23
454.9871189361661
 33
0.0
 14
309.5105014744853
 24
454.9871189361661
 34
0.0
100
AcDbRotatedDimension
1001
ACAD
1000
DSTYLE
1002
{
1070
   271
1070
     1
1002
}
  0
DIMENSION
  5
14FE
330
A
100
AcDbEntity
  8
SUNPOU
100
AcDbDimension
  2
*D35
 10
263.5104964744853
 20
388.5391449668723
 30
0.0
 11
268.0104964744852
 21
393.0391449668723
 31
0.0
 70
    32
  3
SUNPOU_2
100
AcDbAlignedDimension
 13
272.5104964744853
 23
388.5391449668723
 33
0.0
 14
263.5104964744853
 24
388.5391449668723
 34
0.0
100
AcDbRotatedDimension
1001
ACAD
1000
DSTYLE
1002
{
1070
   271
1070
     1
1002
}
  0
DIMENSION
  5
150D
330
A
100
AcDbEntity
  8
SUNPOU
100
AcDbDimension
  2
*D36
 10
231.5105014744854
 20
388.5391449668723
 30
0.0
 11
250.1966832768944
 21
393.8267653689969
 31
0.0
 70
   160
  3
SUNPOU_2
100
AcDbAlignedDimension
 13
263.5104964744853
 23
388.5391449668723
 33
0.0
 14
231.5105014744854
 24
388.5391449668723
 34
0.0
100
AcDbRotatedDimension
1001
ACAD
1000
DSTYLE
1002
{
1070
   271
1070
     1
1002
}
  0
DIMENSION
  5
151A
330
A
100
AcDbEntity
  8
SUNPOU
100
AcDbDimension
  2
*D37
 10
168.5105014744855
 20
388.5391449668723
 30
0.0
 11
200.0105014744854
 21
393.0391449668723
 31
0.0
 70
    32
  3
SUNPOU_2
100
AcDbAlignedDimension
 13
231.5105014744854
 23
388.5391449668723
 33
0.0
 14
168.5105014744855
 24
388.5391449668722
 34
0.0
100
AcDbRotatedDimension
1001
ACAD
1000
DSTYLE
1002
{
1070
   271
1070
     1
1002
}
  0
DIMENSION
  5
1536
330
A
100
AcDbEntity
  8
SUNPOU
100
AcDbDimension
  2
*D38
 10
150.5105014744853
 20
388.5391449668723
 30
0.0
 11
157.1959104108332
 21
393.7971959108616
 31
0.0
 70
   160
  3
SUNPOU_2
100
AcDbAlignedDimension
 13
168.5105014744855
 23
388.5391449668723
 33
0.0
 14
150.5105014744853
 24
388.5391449668723
 34
0.0
100
AcDbRotatedDimension
1001
ACAD
1000
DSTYLE
1002
{
1070
   271
1070
     1
1002
}
  0
DIMENSION
  5
1545
330
A
100
AcDbEntity
  8
SUNPOU
100
AcDbDimension
  2
*D39
 10
207.1038525062745
 20
338.5995969544496
 30
0.0
 11
202.6038525062744
 21
369.5995919544496
 31
0.0
 70
    32
  3
SUNPOU_2
100
AcDbAlignedDimension
 13
218.5105064744855
 23
400.5995869544494
 33
0.0
 14
218.5105064744855
 24
338.5995969544496
 34
0.0
 50
90.0
100
AcDbRotatedDimension
1001
ACAD
1000
DSTYLE
1002
{
1070
   271
1070
     1
1002
}
  0
DIMENSION
  5
1552
330
A
100
AcDbEntity
  8
SUNPOU
100
AcDbDimension
  2
*D40
 10
194.328238164929
 20
317.5995769544495
 30
0.0
 11
189.828238164929
 21
337.5995769544496
 31
0.0
 70
    32
  3
SUNPOU_2
100
AcDbAlignedDimension
 13
180.5105014744855
 23
357.5995769544494
 33
0.0
 14
194.328238164929
 24
317.5995769544495
 34
0.0
 50
90.0
100
AcDbRotatedDimension
1001
ACAD
1000
DSTYLE
1002
{
1070
   271
1070
     1
1002
}
  0
DIMENSION
  5
155F
330
A
100
AcDbEntity
  8
SUNPOU
100
AcDbDimension
  2
*D41
 10
194.328238164929
 20
314.5995769544494
 30
0.0
 11
189.5070926070351
 21
311.1910697650968
 31
0.0
 70
   160
  3
SUNPOU_2
100
AcDbAlignedDimension
 13
194.328238164929
 23
317.5995769544495
 33
0.0
 14
194.328238164929
 24
314.5995769544494
 34
0.0
 50
90.0
100
AcDbRotatedDimension
1001
ACAD
1000
DSTYLE
1002
{
1070
   271
1070
     1
1002
}
  0
DIMENSION
  5
1625
330
A
100
AcDbEntity
  8
SUNPOU
100
AcDbDimension
  2
*D42
 10
241.5105014744856
 20
57.36808849113799
 30
0.0
 11
231.5105014744855
 21
64.06299246248114
 31
0.0
 70
   160
  3
SUNPOU_2
100
AcDbAlignedDimension
 13
221.5105014744855
 23
71.84694148812309
 33
0.0
 14
241.5105014744856
 24
71.84694148812309
 34
0.0
100
AcDbRotatedDimension
1001
ACAD
1000
DSTYLE
1002
{
1070
   271
1070
     1
1002
}
  0
LINE
  5
16D3
330
A
100
AcDbEntity
  8
03
100
AcDbLine
 10
206.5105014744855
 20
193.2204759928588
 30
0.0
 11
206.5105014744855
 21
156.5995769544494
 31
0.0
  0
LINE
  5
16D4
330
A
100
AcDbEntity
  8
03
100
AcDbLine
 10
211.5105014744855
 20
193.2204759928588
 30
0.0
 11
211.5105014744855
 21
156.5995769544494
 31
0.0
  0
LINE
  5
1AA1
330
A
100
AcDbEntity
  8
CHUSIN
100
AcDbLine
 10
186.5105014744855
 20
78.95642294353752
 30
0.0
 11
186.5105014744855
 21
56.58912597014619
 31
0.0
  0
LINE
  5
1B0C
330
A
100
AcDbEntity
  8
06
100
AcDbLine
 10
181.5105014744854
 20
522.5995769544494
 30
0.0
 11
181.5105014744854
 21
521.5995769544495
 31
0.0
  0
LINE
  5
1B0D
330
A
100
AcDbEntity
  8
06
100
AcDbLine
 10
184.5105014744854
 20
522.5995769544494
 30
0.0
 11
184.5105014744854
 21
521.5995769544495
 31
0.0
  0
LINE
  5
1B0E
330
A
100
AcDbEntity
  8
06
100
AcDbLine
 10
197.5105014744854
 20
522.5995769544494
 30
0.0
 11
197.5105014744854
 21
521.5995769544495
 31
0.0
  0
LINE
  5
1B0F
330
A
100
AcDbEntity
  8
06
100
AcDbLine
 10
202.5105014744854
 20
522.5995769544494
 30
0.0
 11
202.5105014744854
 21
522.0995769544495
 31
0.0
  0
LINE
  5
1B10
330
A
100
AcDbEntity
  8
06
100
AcDbLine
 10
202.5105014744854
 20
404.5995769544494
 30
0.0
 11
202.5105014744854
 21
405.0995769544496
 31
0.0
  0
LINE
  5
1B11
330
A
100
AcDbEntity
  8
06
100
AcDbLine
 10
197.5105014744854
 20
404.5995769544494
 30
0.0
 11
197.5105014744854
 21
405.5995769544494
 31
0.0
  0
LINE
  5
1B12
330
A
100
AcDbEntity
  8
06
100
AcDbLine
 10
184.5105014744854
 20
404.5995769544494
 30
0.0
 11
184.5105014744854
 21
405.5995769544494
 31
0.0
  0
LINE
  5
1B13
330
A
100
AcDbEntity
  8
06
100
AcDbLine
 10
181.5105014744854
 20
404.5995769544494
 30
0.0
 11
181.5105014744854
 21
405.5995769544494
 31
0.0
  0
LINE
  5
1B14
330
A
100
AcDbEntity
  8
06
100
AcDbLine
 10
171.5105014744854
 20
405.0995769544496
 30
0.0
 11
171.5105014744854
 21
405.5995769544494
 31
0.0
  0
LINE
  5
1B20
330
A
100
AcDbEntity
  8
04
100
AcDbLine
 10
280.8672696070809
 20
383.4495869544496
 30
0.0
 11
279.5104964744853
 21
379.9854853393118
 31
0.0
  0
LINE
  5
1B21
330
A
100
AcDbEntity
  8
04
100
AcDbLine
 10
280.8672696070809
 20
355.7495869544496
 30
0.0
 11
279.5104964744854
 21
359.2136885695873
 31
0.0
  0
LINE
  5
1B22
330
A
100
AcDbEntity
  8
04
100
AcDbLine
 10
289.5104964744853
 20
359.2136885695874
 30
0.0
 11
288.1537233418898
 21
355.7495869544496
 31
0.0
  0
LINE
  5
1B23
330
A
100
AcDbEntity
  8
04
100
AcDbLine
 10
288.1537233418896
 20
383.4495869544496
 30
0.0
 11
289.5104964744853
 21
379.9854853393118
 31
0.0
  0
LINE
  5
1B25
330
A
100
AcDbEntity
  8
04
100
AcDbLine
 10
275.5104964744853
 20
384.5995869544494
 30
0.0
 11
275.5104964744853
 21
383.5995869544494
 31
0.0
  0
LINE
  5
1B26
330
A
100
AcDbEntity
  8
04
100
AcDbLine
 10
279.5104964744853
 20
383.5995869544494
 30
0.0
 11
279.5104964744853
 21
379.9854853393118
 31
0.0
  0
LINE
  5
1B27
330
A
100
AcDbEntity
  8
04
100
AcDbLine
 10
275.5104964744853
 20
354.5995869544495
 30
0.0
 11
275.5104964744853
 21
355.5995869544496
 31
0.0
  0
LINE
  5
1B28
330
A
100
AcDbEntity
  8
04
100
AcDbLine
 10
279.5104964744853
 20
355.5995869544496
 30
0.0
 11
279.5104964744854
 21
359.2136885695873
 31
0.0
  0
LINE
  5
1B29
330
A
100
AcDbEntity
  8
04
100
AcDbLine
 10
210.5105064744853
 20
284.5995869544493
 30
0.0
 11
211.5105064744851
 21
284.5995869544493
 31
0.0
  0
LINE
  5
1B2A
330
A
100
AcDbEntity
  8
04
100
AcDbLine
 10
252.5105064744851
 20
284.5995869544493
 30
0.0
 11
252.5105064744851
 21
284.5995869544493
 31
0.0
  0
LINE
  5
1B2B
330
A
100
AcDbEntity
  8
04
100
AcDbLine
 10
252.5105064744851
 20
284.5995869544493
 30
0.0
 11
251.5105064744851
 21
284.5995869544493
 31
0.0
  0
LINE
  5
1B2C
330
A
100
AcDbEntity
  8
03
100
AcDbLine
 10
209.5104964744851
 20
253.5995769544494
 30
0.0
 11
210.5104864744853
 21
253.5995769544494
 31
0.0
  0
LINE
  5
1B2D
330
A
100
AcDbEntity
  8
03
100
AcDbLine
 10
253.5104964744851
 20
253.5995769544494
 30
0.0
 11
252.5104864744853
 21
253.5995769544494
 31
0.0
  0
LINE
  5
1B30
330
A
100
AcDbEntity
  8
03
100
AcDbLine
 10
222.5105014744855
 20
84.84694148812309
 30
0.0
 11
225.5105014744855
 21
84.84694148812309
 31
0.0
  0
LINE
  5
1B31
330
A
100
AcDbEntity
  8
03
100
AcDbLine
 10
237.5105014744856
 20
84.84694148812309
 30
0.0
 11
240.5105014744855
 21
84.84694148812309
 31
0.0
  0
LINE
  5
1B32
330
A
100
AcDbEntity
  8
03
100
AcDbLine
 10
215.5105014744855
 20
104.8469414881231
 30
0.0
 11
222.5105014744855
 21
104.8469414881229
 31
0.0
  0
LINE
  5
1B33
330
A
100
AcDbEntity
  8
03
100
AcDbLine
 10
247.5105014744855
 20
104.8469414881231
 30
0.0
 11
240.5105014744855
 21
104.8469414881229
 31
0.0
  0
LINE
  5
1B34
330
A
100
AcDbEntity
  8
03
100
AcDbLine
 10
211.5105014744858
 20
106.8469414881231
 30
0.0
 11
215.5105014744855
 21
106.8469414881231
 31
0.0
  0
LINE
  5
1B35
330
A
100
AcDbEntity
  8
03
100
AcDbLine
 10
251.5105014744857
 20
106.8469414881231
 30
0.0
 11
247.5105014744855
 21
106.8469414881231
 31
0.0
  0
LINE
  5
1B36
330
A
100
AcDbEntity
  8
03
100
AcDbLine
 10
166.5105014744858
 20
106.8469414881229
 30
0.0
 11
174.0105014744855
 21
106.8469414881229
 31
0.0
  0
LINE
  5
1B37
330
A
100
AcDbEntity
  8
03
100
AcDbLine
 10
206.5105014744858
 20
106.8469414881231
 30
0.0
 11
199.0105014744855
 21
106.8469414881229
 31
0.0
  0
LINE
  5
1B39
330
A
100
AcDbEntity
  8
SOUZOU
100
AcDbLine
 10
161.5105014744855
 20
73.84694148812309
 30
0.0
 11
164.0105014744855
 21
73.84694148812309
 31
0.0
  0
LINE
  5
1B3A
330
A
100
AcDbEntity
  8
SOUZOU
100
AcDbLine
 10
211.5105014744855
 20
73.84694148812316
 30
0.0
 11
209.0105014744855
 21
73.84694148812309
 31
0.0
  0
MTEXT
  5
1ED9
330
A
100
AcDbEntity
  8
MOJI
100
AcDbMText
 10
368.134737700501
 20
102.3786689549517
 30
0.0
 40
5.0
 41
0.0
 71
     5
 72
     1
  1
F.L
  7
0_8
1001
ACAD
1000
MTEXTBEGIN
1070
    73
1070
     1
1070
    44
1040
1.0
1070
    74
1070
     0
1000
MTEXTEND
1000
MTEXTBEGIN
1070
    73
1070
     1
1070
    44
1040
1.0
1070
    74
1070
     0
1000
MTEXTEND
  0
MTEXT
  5
1EDF
330
A
100
AcDbEntity
  8
MOJI
100
AcDbMText
 10
186.4141355324924
 20
83.20376419035531
 30
0.0
 40
6.0
 41
0.0
 71
     5
 72
     1
  1
フロアヒンジ
  7
0_8
1001
ACAD
1000
MTEXTBEGIN
1070
    73
1070
     1
1070
    44
1040
1.0
1070
    74
1070
     0
1000
MTEXTEND
1000
MTEXTBEGIN
1070
    73
1070
     1
1070
    44
1040
1.0
1070
    74
1070
     0
1000
MTEXTEND
  0
LINE
  5
1F6D
330
A
100
AcDbEntity
  8
04
100
AcDbLine
 10
189.0105014744855
 20
350.2533155985054
 30
0.0
 11
189.0105014744855
 21
364.9458383103935
 31
0.0
  0
LINE
  5
1F6E
330
A
100
AcDbEntity
  8
04
100
AcDbLine
 10
177.5105014744855
 20
347.0995769544494
 30
0.0
 11
177.5105014744855
 21
368.0995769544494
 31
0.0
  0
LINE
  5
1F71
330
A
100
AcDbEntity
  8
04
100
AcDbLine
 10
182.0105014744854
 20
367.3995769544494
 30
0.0
 11
188.1156085572415
 21
367.3995769544494
 31
0.0
  0
LINE
  5
1F73
330
A
100
AcDbEntity
  8
04
100
AcDbLine
 10
177.5105014744855
 20
368.0995769544494
 30
0.0
 11
179.5105014744855
 21
368.0995769544494
 31
0.0
  0
LINE
  5
1F74
330
A
100
AcDbEntity
  8
04
100
AcDbLine
 10
179.5105014744855
 20
366.7995769544494
 30
0.0
 11
182.0105014744854
 21
366.7995769544494
 31
0.0
  0
LINE
  5
1F76
330
A
100
AcDbEntity
  8
04
100
AcDbLine
 10
182.0105014744854
 20
347.7995769544494
 30
0.0
 11
188.1156085572415
 21
347.7995769544494
 31
0.0
  0
LINE
  5
1F7A
330
A
100
AcDbEntity
  8
04
100
AcDbLine
 10
179.5105014744855
 20
348.3995769544494
 30
0.0
 11
182.0105014744854
 21
348.3995769544494
 31
0.0
  0
LINE
  5
1F7B
330
A
100
AcDbEntity
  8
04
100
AcDbLine
 10
177.5105014744855
 20
347.0995769544494
 30
0.0
 11
179.5105014744855
 21
347.0995769544494
 31
0.0
  0
ARC
  5
1F7C
330
A
100
AcDbEntity
  8
04
100
AcDbCircle
 10
185.1990584877219
 20
350.2533155985056
 30
0.0
 40
3.811442986763551
100
AcDbArc
 50
319.9255796616156
 51
359.9999999999973
  0
ARC
  5
1F7D
330
A
100
AcDbEntity
  8
04
100
AcDbCircle
 10
185.1990584877214
 20
364.9458383103932
 30
0.0
 40
3.811442986764035
100
AcDbArc
 50
0.0000000000059815
 51
40.07442033838298
  0
LINE
  5
1F7F
330
A
100
AcDbEntity
  8
04
100
AcDbLine
 10
179.5105014744855
 20
368.0995769544494
 30
0.0
 11
179.5105014744855
 21
366.7995769544494
 31
0.0
  0
LINE
  5
1F80
330
A
100
AcDbEntity
  8
04
100
AcDbLine
 10
182.0105014744854
 20
367.3995769544494
 30
0.0
 11
182.0105014744854
 21
366.7995769544494
 31
0.0
  0
LINE
  5
1F81
330
A
100
AcDbEntity
  8
04
100
AcDbLine
 10
182.0105014744854
 20
348.3995769544494
 30
0.0
 11
182.0105014744854
 21
347.7995769544494
 31
0.0
  0
LINE
  5
1F83
330
A
100
AcDbEntity
  8
04
100
AcDbLine
 10
179.5105014744855
 20
348.3995769544494
 30
0.0
 11
179.5105014744855
 21
347.0995769544494
 31
0.0
  0
LEADER
  5
1F84
330
A
100
AcDbEntity
  8
HIKIDASI
100
AcDbLeader
  3
SUNPOU_2
 73
     0
 75
     1
 40
13.33333333333333
 41
48.53333333333331
 76
     3
 10
230.058010328908
 20
328.2993575807653
 30
0.0
 10
210.8469201815136
 20
296.9329927020721
 30
0.0
 10
205.8469201815136
 20
296.9329927020721
 30
0.0
340
1F85
213
-4.991557728846146
223
9.052425350302428
233
0.0
1001
ACAD
1000
DSTYLE
1002
{
1070
     5
1000
OPEN30
1070
    77
1070
     1
1070
   147
1040
1.0
1070
   342
1005
4E
1002
}
1000
LEANOF
1010
-4.991557728846146
1020
9.052425350302428
1030
0.0
1000
LEANOF
1010
-4.991557728846146
1020
9.052425350302428
1030
0.0
  0
MTEXT
  5
1F85
330
A
100
AcDbEntity
  8
HIKIDASI
100
AcDbMText
 10
160.3051445770265
 20
289.8805673517697
 30
0.0
 40
5.0
 41
0.0
 71
     7
 72
     1
  1
FB-19×12(磨き鋼)\P(サッシ工事)
  7
SUNPOU
1001
ACAD
1000
MTEXTBEGIN
1070
    73
1070
     1
1070
    44
1040
1.0
1070
    74
1070
     0
1000
MTEXTEND
1000
MTEXTBEGIN
1070
    73
1070
     1
1070
    44
1040
1.0
1070
    74
1070
     0
1000
MTEXTEND
  0
LEADER
  5
1F86
330
A
100
AcDbEntity
  8
HIKIDASI
100
AcDbLeader
  3
SUNPOU_2
 73
     0
 75
     1
 40
13.33333333333333
 41
28.0
 76
     3
 10
174.601836718512
 20
325.6609526827567
 30
0.0
 10
142.139161206086
 20
356.4986041700453
 30
0.0
 10
137.1391612060861
 20
356.4986041700453
 30
0.0
340
1F87
213
-0.2180305023807705
223
8.714903829353715
233
0.0
1001
ACAD
1000
DSTYLE
1002
{
1070
     5
1000
OPEN30
1070
    77
1070
     1
1070
   147
1040
1.0
1070
   342
1005
4E
1002
}
1000
LEANOF
1010
-0.2180305023807705
1020
8.714903829353715
1030
0.0
1000
LEANOF
1010
-0.2180305023807705
1020
8.714903829353715
1030
0.0
  0
MTEXT
  5
1F87
330
A
100
AcDbEntity
  8
HIKIDASI
100
AcDbMText
 10
107.3571917084668
 20
349.7837003406916
 30
0.0
 40
5.0
 41
0.0
 71
     7
 72
     1
  1
L-75×9\P(サッシ工事)
  7
SUNPOU
1001
ACAD
1000
MTEXTBEGIN
1070
    73
1070
     1
1070
    44
1040
1.0
1070
    74
1070
     0
1000
MTEXTEND
1000
MTEXTBEGIN
1070
    73
1070
     1
1070
    44
1040
1.0
1070
    74
1070
     0
1000
MTEXTEND
  0
LEADER
  5
1F8A
330
A
100
AcDbEntity
  8
HIKIDASI
100
AcDbLeader
  3
SUNPOU_2
 73
     0
 75
     1
 40
13.33333333333333
 41
28.0
 76
     3
 10
166.6105014744854
 20
362.5995769544494
 30
0.0
 10
145.39121327896
 20
384.0752289095661
 30
0.0
 10
140.3912132789599
 20
384.0752289095661
 30
0.0
340
1F8B
1001
ACAD
1000
DSTYLE
1002
{
1070
     5
1000
OPEN30
1070
    77
1070
     1
1070
   147
1040
1.0
1070
   342
1005
4E
1002
}
1000
LEANOF
1010
0.0
1020
0.0
1030
0.0
1000
LEANOF
1010
0.0
1020
0.0
1030
0.0
  0
MTEXT
  5
1F8B
330
A
100
AcDbEntity
  8
HIKIDASI
100
AcDbMText
 10
110.39121327896
 20
386.0752289095661
 30
0.0
 40
5.0
 41
0.0
 71
     7
 72
     1
  1
M10タップ\P(サッシ工事)
  7
SUNPOU
1001
ACAD
1000
MTEXTBEGIN
1070
    73
1070
     1
1070
    44
1040
1.0
1070
    74
1070
     0
1000
MTEXTEND
1000
MTEXTBEGIN
1070
    73
1070
     1
1070
    44
1040
1.0
1070
    74
1070
     0
1000
MTEXTEND
  0
LEADER
  5
1F8C
330
A
100
AcDbEntity
  8
HIKIDASI
100
AcDbLeader
  3
SUNPOU_2
 73
     0
 75
     1
 40
5.0
 41
26.79999999999999
 76
     3
 10
162.8920138116955
 20
469.2579006289673
 30
0.0
 10
146.6804298326583
 20
485.3758268234096
 30
0.0
 10
141.6804298326583
 20
485.3758268234096
 30
0.0
340
1F8D
1001
ACAD
1000
DSTYLE
1002
{
1070
     5
1000
OPEN30
1070
    77
1070
     1
1070
   147
1040
1.0
1070
   342
1005
4E
1002
}
1000
LEANOF
1010
0.0
1020
0.0
1030
0.0
1000
LEANOF
1010
0.0
1020
0.0
1030
0.0
  0
MTEXT
  5
1F8D
330
A
100
AcDbEntity
  8
HIKIDASI
100
AcDbMText
 10
112.8804298326582
 20
487.3758268234096
 30
0.0
 40
5.0
 41
0.0
 71
     7
 72
     1
  1
FB-6×50
  7
SUNPOU
1001
ACAD
1000
MTEXTBEGIN
1070
    73
1070
     1
1070
    44
1040
1.0
1070
    74
1070
     0
1000
MTEXTEND
1000
MTEXTBEGIN
1070
    73
1070
     1
1070
    44
1040
1.0
1070
    74
1070
     0
1000
MTEXTEND
  0
LEADER
  5
1F8E
330
A
100
AcDbEntity
  8
HIKIDASI
100
AcDbLeader
  3
SUNPOU_2
 73
     0
 75
     1
 40
5.0
 41
34.93333333333333
 76
     3
 10
156.9284262453557
 20
527.1445003018198
 30
0.0
 10
146.4844764316339
 20
509.0769101936155
 30
0.0
 10
141.4844764316339
 20
509.0769101936155
 30
0.0
340
1F8F
1001
ACAD
1000
DSTYLE
1002
{
1070
     5
1000
OPEN30
1070
    77
1070
     1
1070
   147
1040
1.0
1070
   342
1005
4E
1002
}
1000
LEANOF
1010
0.0
1020
0.0
1030
0.0
1000
LEANOF
1010
0.0
1020
0.0
1030
0.0
  0
MTEXT
  5
1F8F
330
A
100
AcDbEntity
  8
HIKIDASI
100
AcDbMText
 10
104.5511430983005
 20
511.0769101936153
 30
0.0
 40
5.0
 41
0.0
 71
     7
 72
     1
  1
L-50×50×6
  7
SUNPOU
1001
ACAD
1000
MTEXTBEGIN
1070
    73
1070
     1
1070
    44
1040
1.0
1070
    74
1070
     0
1000
MTEXTEND
1000
MTEXTBEGIN
1070
    73
1070
     1
1070
    44
1040
1.0
1070
    74
1070
     0
1000
MTEXTEND
  0
CIRCLE
  5
1F90
330
A
100
AcDbEntity
  8
KAKURE
100
AcDbCircle
 10
241.5076985552923
 20
486.5948959920959
 30
0.0
 40
15.0
  0
DIMENSION
  5
1F91
330
A
100
AcDbEntity
  8
SUNPOU
100
AcDbDimension
  2
*D43
 10
253.6734867327397
 20
495.3694955853244
 30
0.0
 11
237.7965790309958
 21
483.9182434486396
 31
0.0
 70
   163
  1
<>\P両端
  3
SUNPOU_2
100
AcDbDiametricDimension
 15
229.3419103778453
 25
477.8202963988674
 35
0.0
 40
0.0
1001
ACAD
1000
DSTYLE
1002
{
1070
   288
1070
     1
1002
}
  0
LINE
  5
2009
330
A
100
AcDbEntity
  8
CHUSIN
 48
0.3
100
AcDbLine
 10
284.5105014744855
 20
183.8947052116497
 30
0.0
 11
284.5105014744855
 21
161.1329411263995
 31
0.0
  0
CIRCLE
  5
200A
330
A
100
AcDbEntity
  8
03
100
AcDbCircle
 10
284.5105014744855
 20
173.5995769544494
 30
0.0
 40
6.0
  0
LINE
  5
200C
330
A
100
AcDbEntity
  8
CHUSIN
 48
0.3
100
AcDbLine
 10
302.7266998297936
 20
173.5995769544494
 30
0.0
 11
276.1337477301946
 21
173.5995769544494
 31
0.0
  0
DIMENSION
  5
200E
330
A
100
AcDbEntity
  8
SUNPOU
100
AcDbDimension
  2
*D44
 10
327.6910191146447
 20
173.5995769544494
 30
0.0
 11
323.1910191146448
 21
208.5995769544495
 31
0.0
 70
    32
  3
SUNPOU_2
100
AcDbAlignedDimension
 13
311.0105014744856
 23
243.5995769544494
 33
0.0
 14
302.7266998297936
 24
173.5995769544494
 34
0.0
 50
90.0
100
AcDbRotatedDimension
1001
ACAD
1000
DSTYLE
1002
{
1070
   271
1070
     1
1002
}
  0
MTEXT
  5
2035
330
A
100
AcDbEntity
  8
HIKIDASI
100
AcDbMText
 10
338.1170601014721
 20
143.5742099509334
 30
0.0
 40
5.0
 41
0.0
 71
     9
 72
     1
  1
補助光電スイッチ\P取付穴φ12
  7
SUNPOU
1001
ACAD
1000
MTEXTBEGIN
1070
    73
1070
     1
1070
    44
1040
1.0
1070
    74
1070
     0
1000
MTEXTEND
1000
MTEXTBEGIN
1070
    73
1070
     1
1070
    44
1040
1.0
1070
    74
1070
     0
1000
MTEXTEND
  0
LEADER
  5
2036
330
A
100
AcDbEntity
  8
HIKIDASI
100
AcDbLeader
  3
SUNPOU_2
 73
     0
 74
     0
 75
     1
 40
13.33333333333333
 41
37.06666666666665
 76
     3
 10
287.9200286621239
 20
168.6624599458346
 30
0.0
 10
300.2938297450711
 20
150.6131884493985
 30
0.0
 10
305.2938297450712
 20
150.6131884493985
 30
0.0
340
2035
211
1.0
221
0.0000000000000031
231
0.0
210
0.0
220
0.0
230
-1.0
213
6.243436310265765
223
5.038978498465328
233
0.0
1001
ACAD
1000
DSTYLE
1002
{
1070
     5
1000
OPEN30
1070
    77
1070
     1
1070
   147
1040
1.0
1070
   342
1005
4E
1002
}
1000
LEANOF
1010
6.243436310265765
1020
5.038978498465328
1030
0.0
1000
LEANOF
1010
6.243436310265765
1020
5.038978498465328
1030
0.0
  0
LINE
  5
2062
330
A
100
AcDbEntity
  8
CHUSIN
 48
0.5
100
AcDbLine
 10
281.5105014744851
 20
397.0997895640728
 30
0.0
 11
276.6504235141494
 21
383.5995869544494
 31
0.0
  0
LINE
  5
2063
330
A
100
AcDbEntity
  8
CHUSIN
 48
0.5
100
AcDbLine
 10
272.5104914744851
 20
397.0997895640728
 30
0.0
 11
277.3705554879559
 21
383.5995869544494
 31
0.0
  0
LINE
  5
2064
330
A
100
AcDbEntity
  8
04
100
AcDbLine
 10
272.5104964744853
 20
397.0997495640728
 30
0.0
 11
281.5105014744853
 21
397.0997495640728
 31
0.0
  0
LEADER
  5
2065
330
A
100
AcDbEntity
  8
HIKIDASI
100
AcDbLeader
  3
SUNPOU_2
 73
     0
 74
     0
 75
     1
 40
13.33333333333333
 41
52.26666666666666
 76
     3
 10
250.0105014744856
 20
96.84694148812315
 30
0.0
 10
252.3891192444856
 20
110.8076622880133
 30
0.0
 10
257.3891192444857
 20
110.8076622880133
 30
0.0
340
2066
213
0.0
223
8.845306838718443
233
0.0
1001
ACAD
1000
DSTYLE
1002
{
1070
     5
1000
OPEN30
1070
    77
1070
     1
1070
   147
1040
1.0
1070
   342
1005
4E
1002
}
1000
LEANOF
1010
0.0
1020
8.845306838718443
1030
0.0
1000
LEANOF
1010
0.0
1020
8.845306838718443
1030
0.0
  0
MTEXT
  5
2066
330
A
100
AcDbEntity
  8
HIKIDASI
100
AcDbMText
 10
285.5224525778189
 20
110.6290221159614
 30
0.0
 40
5.0
 41
0.0
 71
     5
 72
     1
  1
ステンレスガイドレール\P(サッシ工事)
  7
SUNPOU
1001
ACAD
1000
MTEXTBEGIN
1070
    73
1070
     1
1070
    44
1040
1.0
1070
    74
1070
     0
1000
MTEXTEND
1000
MTEXTBEGIN
1070
    73
1070
     1
1070
    44
1040
1.0
1070
    74
1070
     0
1000
MTEXTEND
  0
MTEXT
  5
2067
330
A
100
AcDbEntity
  8
MOJI
100
AcDbMText
 10
186.5105014744855
 20
62.9059232770135
 30
0.0
 40
6.0
 41
0.0
 71
     5
 72
     1
  1
S-2A\P(サッシ工事)
  7
0_8
1001
ACAD
1000
MTEXTBEGIN
1070
    73
1070
     1
1070
    44
1040
1.0
1070
    74
1070
     0
1000
MTEXTEND
1000
MTEXTBEGIN
1070
    73
1070
     1
1070
    44
1040
1.0
1070
    74
1070
     0
1000
MTEXTEND
  0
LEADER
  5
206F
330
A
100
AcDbEntity
  8
HIKIDASI
100
AcDbLeader
  3
SUNPOU_2
 76
     2
 10
165.8255792429795
 20
519.6478033672847
 30
0.0
 10
146.6804298326583
 20
485.3758268234096
 30
0.0
1001
ACAD
1000
DSTYLE
1002
{
1070
     5
1000
OPEN30
1070
    77
1070
     1
1070
   147
1040
1.0
1070
   342
1005
4E
1002
}
1000
LEANOF
1010
0.0
1020
0.0
1030
0.0
1000
LEANOF
1010
0.0
1020
0.0
1030
0.0
  0
DIMENSION
  5
241F
330
A
100
AcDbEntity
  8
SUNPOU
100
AcDbDimension
  2
*D45
 10
302.5105014744853
 20
526.6887252734696
 30
0.0
 11
235.5105014744854
 21
531.1887252734698
 31
0.0
 70
    32
  3
SUNPOU_2
100
AcDbAlignedDimension
 13
168.5105014744854
 23
526.5815879929496
 33
0.0
 14
302.5105014744853
 24
510.5995769544493
 34
0.0
100
AcDbRotatedDimension
  0
MTEXT
  5
247F
330
A
100
AcDbEntity
  8
MOJI
100
AcDbMText
 10
310.9999999999966
 20
29.00000000000023
 30
0.0
 40
7.0
 41
50.0
 71
     5
 72
     1
  1
図番１４－５
  7
0_80
1001
ACAD
1000
MTEXTBEGIN
1070
    73
1070
     1
1070
    44
1040
1.0
1070
    74
1070
     0
1000
MTEXTEND
1000
MTEXTBEGIN
1070
    73
1070
     1
1070
    44
1040
1.0
1070
    74
1070
     0
1000
MTEXTEND
  0
MTEXT
  5
2480
330
A
100
AcDbEntity
  8
MOJI
100
AcDbMText
 10
360.9999999999968
 20
28.5
 30
0.0
 40
7.0
 41
49.99999999999994
 71
     5
 72
     1
  1
たて断面図　
  7
0_80
1001
ACAD
1000
MTEXTBEGIN
1070
    73
1070
     1
1070
    44
1040
1.0
1070
    74
1070
     0
1000
MTEXTEND
1000
MTEXTBEGIN
1070
    73
1070
     1
1070
    44
1040
1.0
1070
    74
1070
     0
1000
MTEXTEND
  0
MTEXT
  5
2481
330
A
100
AcDbEntity
  8
MOJI
100
AcDbMText
 10
255.9999999999997
 20
29.0
 30
0.0
 40
7.0
 41
60.0
 71
     5
 72
     1
  1
片引き又は両引き
  7
0_8
1001
ACAD
1000
MTEXTBEGIN
1070
    73
1070
     1
1070
    44
1040
1.0
1070
    74
1070
     0
1000
MTEXTEND
1000
MTEXTBEGIN
1070
    73
1070
     1
1070
    44
1040
1.0
1070
    74
1070
     0
1000
MTEXTEND
  0
MTEXT
  5
2482
330
A
100
AcDbEntity
  8
MOJI
100
AcDbMText
 10
185.9999999999969
 20
29.0
 30
0.0
 40
7.0
 41
80.0
 71
     5
 72
     1
  1
ＴＦ－１２００Ｓ\PＴＦ－１２００Ｄ
  7
0_8
1001
ACAD
1000
MTEXTBEGIN
1070
    73
1070
     1
1070
    44
1040
1.0
1070
    74
1070
     0
1000
MTEXTEND
1000
MTEXTBEGIN
1070
    73
1070
     1
1070
    44
1040
1.0
1070
    74
1070
     0
1000
MTEXTEND
  0
POLYLINE
  5
2483
330
A
100
AcDbEntity
  8
SAISEN
100
AcDb2dPolyline
 66
     1
 10
0.0
 20
0.0
 30
0.0
 70
     1
  0
VERTEX
  5
24E0
330
2483
100
AcDbEntity
  8
SAISEN
100
AcDbVertex
100
AcDb2dVertex
 10
35.99999999999693
 20
17.0
 30
0.0
  0
VERTEX
  5
24E1
330
2483
100
AcDbEntity
  8
SAISEN
100
AcDbVertex
100
AcDb2dVertex
 10
385.9999999999968
 20
17.0
 30
0.0
  0
VERTEX
  5
24E2
330
2483
100
AcDbEntity
  8
SAISEN
100
AcDbVertex
100
AcDb2dVertex
 10
385.9999999999968
 20
41.00000000000022
 30
0.0
  0
VERTEX
  5
24E3
330
2483
100
AcDbEntity
  8
SAISEN
100
AcDbVertex
100
AcDb2dVertex
 10
35.99999999999693
 20
41.00000000000022
 30
0.0
  0
SEQEND
  5
24E4
330
2483
100
AcDbEntity
  8
SAISEN
  0
MTEXT
  5
2484
330
A
100
AcDbEntity
  8
MOJI
100
AcDbMText
 10
90.99999999999694
 20
29.0
 30
0.0
 40
7.0
 41
110.0
 71
     5
 72
     1
  1
フルオープナー(強化ガラスドア)
  7
0_8
1001
ACAD
1000
MTEXTBEGIN
1070
    73
1070
     1
1070
    44
1040
1.0
1070
    74
1070
     0
1000
MTEXTEND
1000
MTEXTBEGIN
1070
    73
1070
     1
1070
    44
1040
1.0
1070
    74
1070
     0
1000
MTEXTEND
  0
LINE
  5
2485
330
A
100
AcDbEntity
  8
SAISEN
100
AcDbLine
 10
145.9999999999969
 20
41.00000000000022
 30
0.0
 11
145.9999999999969
 21
17.0
 31
0.0
  0
LINE
  5
2486
330
A
100
AcDbEntity
  8
SAISEN
100
AcDbLine
 10
225.9999999999969
 20
41.00000000000022
 30
0.0
 11
225.9999999999969
 21
17.0
 31
0.0
  0
LINE
  5
2487
330
A
100
AcDbEntity
  8
SAISEN
100
AcDbLine
 10
285.9999999999968
 20
41.00000000000022
 30
0.0
 11
285.9999999999968
 21
17.0
 31
0.0
  0
CIRCLE
  5
2490
330
A
100
AcDbEntity
  8
SAISEN
100
AcDbCircle
 10
393.4084529813917
 20
49.54302641223165
 30
0.0
 40
5.0
  0
TEXT
  5
2491
330
A
100
AcDbEntity
  8
MOJI
100
AcDbText
 10
390.3596339421755
 20
45.27151320611595
 30
0.0
 40
8.0
  1
Ｓ
 41
0.8
  7
0_8
 11
390.3596339421755
 21
53.27151320611595
 31
0.0
100
AcDbText
 73
     3
  0
VIEWPORT
  5
12E2
102
{ACAD_XDICTIONARY
360
24C1
102
}
330
B
100
AcDbEntity
 67
     1
  8
0
100
AcDbViewport
 10
198.0508299538852
 20
285.1874487354477
 30
0.0
 40
1080.347564134148
 41
628.3535021666721
 68
     1
 69
     1
1001
ACAD
1000
MVIEW
1002
{
1070
    16
1010
0.0
1020
0.0
1030
0.0
1010
0.0
1020
0.0
1030
1.0
1040
0.0
1040
628.3535021666721
1040
198.0508299538852
1040
285.1874487354477
1040
50.0
1040
0.0
1040
0.0
1070
     0
1070
   100
1070
     1
1070
     1
1070
     0
1070
     0
1070
     0
1070
     0
1040
0.0
1040
0.0
1040
0.0
1040
10.0
1040
10.0
1040
10.0
1040
10.0
1070
     0
1002
{
1002
}
1002
}
  0
VIEWPORT
  5
24A9
102
{ACAD_XDICTIONARY
360
24C7
102
}
330
B
100
AcDbEntity
 67
     1
  8
DEFPOINTS
100
AcDbViewport
 10
198.0508309076477
 20
285.1874477816852
 30
0.0
 40
396.4883172119752
 41
570.409736121624
 68
     2
 69
     2
1001
ACAD
1000
MVIEW
1002
{
1070
    16
1010
0.0
1020
0.0
1030
0.0
1010
0.0
1020
0.0
1030
1.0
1040
0.0
1040
570.409736121624
1040
210.0
1040
297.0
1040
50.0
1040
0.0
1040
0.0
1070
     0
1070
   100
1070
     1
1070
     1
1070
     0
1070
     0
1070
     0
1070
     0
1040
0.0
1040
0.0
1040
0.0
1040
1.0
1040
1.0
1040
0.0
1040
0.0
1070
     0
1002
{
1002
}
1002
}
  0
ENDSEC
  0
SECTION
  2
OBJECTS
  0
DICTIONARY
  5
19
330
0
100
AcDbDictionary
  3
ACAD_COLOR
350
2463
  3
ACAD_GROUP
350
1A
  3
ACAD_LAYOUT
350
71C
  3
ACAD_MATERIAL
350
2462
  3
ACAD_MLINESTYLE
350
1B
  3
ACAD_PLOTSETTINGS
350
71D
  3
ACADDIM
350
1F89
  3
ASE_INDEX_DICTIONARY
350
246B
  3
DWGPROPS
350
24BD
1001
ACAD
1000
TREAT_AS_HARD
1070
     0
1000
TREAT_AS_HARD
1070
     0
  0
DICTIONARY
  5
1B04
330
2
100
AcDbDictionary
  3
ACAD_LAYERFILTERS
350
1B05
  3
ACAD_LAYERSTATES
350
240E
1001
ACAD
1000
TREAT_AS_HARD
1070
     1
1000
TREAT_AS_HARD
1070
     1
  0
DICTIONARY
  5
2441
330
A
100
AcDbDictionary
  3
ACAD_LAYOUTSELFREF
350
24CF
1001
ACAD
1000
TREAT_AS_HARD
1070
     1
  0
DICTIONARY
  5
2443
330
B
100
AcDbDictionary
  3
ACAD_LAYOUTSELFREF
350
24D0
1001
ACAD
1000
TREAT_AS_HARD
1070
     1
  0
DICTIONARY
  5
24C1
330
12E2
100
AcDbDictionary
  3
ACAD_XREC_ROUNDTRIP
350
24C2
1001
ACAD
1000
TREAT_AS_HARD
1070
     1
  0
DICTIONARY
  5
24C7
330
24A9
100
AcDbDictionary
  3
ACAD_XREC_ROUNDTRIP
350
24C8
1001
ACAD
1000
TREAT_AS_HARD
1070
     1
  0
DICTIONARY
  5
2463
102
{ACAD_REACTORS
330
19
102
}
330
19
100
AcDbDictionary
1001
ACAD
1000
TREAT_AS_HARD
1070
     0
  0
DICTIONARY
  5
1A
102
{ACAD_REACTORS
330
19
102
}
330
19
100
AcDbDictionary
1001
ACAD
1000
TREAT_AS_HARD
1070
     0
1000
TREAT_AS_HARD
1070
     0
  0
DICTIONARY
  5
71C
102
{ACAD_REACTORS
330
19
102
}
330
19
100
AcDbDictionary
1001
ACAD
1000
TREAT_AS_HARD
1070
     0
1000
TREAT_AS_HARD
1070
     0
  0
DICTIONARY
  5
2462
102
{ACAD_REACTORS
330
19
102
}
330
19
100
AcDbDictionary
1001
ACAD
1000
TREAT_AS_HARD
1070
     0
  0
DICTIONARY
  5
1B
102
{ACAD_REACTORS
330
19
102
}
330
19
100
AcDbDictionary
  3
STANDARD
350
1C
1001
ACAD
1000
TREAT_AS_HARD
1070
     0
1000
TREAT_AS_HARD
1070
     0
  0
DICTIONARY
  5
71D
102
{ACAD_REACTORS
330
19
102
}
330
19
100
AcDbDictionary
1001
ACAD
1000
TREAT_AS_HARD
1070
     0
1000
TREAT_AS_HARD
1070
     0
  0
XRECORD
  5
1F89
102
{ACAD_REACTORS
330
19
102
}
330
19
100
AcDbXrecord
 90
   990106
  3
OPEN30
 60
     0
 61
     0
 62
     4
 63
     4
 64
     1
 65
     0
 66
     0
 67
     3
 68
     0
 69
     1
 70
     0
 71
     0
 72
     0
 40
0.0
170
     2
340
2066
  0
DICTIONARY
  5
246B
102
{ACAD_REACTORS
330
19
102
}
330
19
100
AcDbDictionary
  3
ASEBLOCKHIERARCHYINDEXRECORD
350
246D
1001
DCO15
1040
1508735967.484
1001
ACAD
1000
TREAT_AS_HARD
1070
     0
  0
XRECORD
  5
24BD
102
{ACAD_REACTORS
330
19
102
}
330
19
100
AcDbXrecord
  1
DWGPROPS COOKIE
  2

  3

  4

  6

  7

  8

  9

300
=
301
=
302
=
303
=
304
=
305
=
306
=
307
=
308
=
309
=
 40
0.5484008217592593
 41
2444972.375
 42
2453265.770522095
  1

 90
        0
  0
DICTIONARY
  5
1B05
102
{ACAD_REACTORS
330
1B04
102
}
330
1B04
100
AcDbDictionary
  3
HIHYOJI
350
1B07
  3
TUIKA
350
1B06
1001
ACAD
1000
TREAT_AS_HARD
1070
     1
1000
TREAT_AS_HARD
1070
     0
  0
DICTIONARY
  5
240E
102
{ACAD_REACTORS
330
1B04
102
}
330
1B04
100
AcDbDictionary
1001
ACAD
1000
TREAT_AS_HARD
1070
     0
1000
TREAT_AS_HARD
1070
     0
  0
XRECORD
  5
24CF
102
{ACAD_REACTORS
330
2441
102
}
330
2441
100
AcDbXrecord
340
A
  0
XRECORD
  5
24D0
102
{ACAD_REACTORS
330
2443
102
}
330
2443
100
AcDbXrecord
340
B
  0
XRECORD
  5
24C2
102
{ACAD_REACTORS
330
24C1
102
}
330
24C1
100
AcDbXrecord
102
SHADEPLOT
 70
     0
  0
XRECORD
  5
24C8
102
{ACAD_REACTORS
330
24C7
102
}
330
24C7
100
AcDbXrecord
102
SHADEPLOT
 70
     0
  0
MLINESTYLE
  5
1C
102
{ACAD_REACTORS
330
1B
102
}
330
1B
100
AcDbMlineStyle
  2
STANDARD
 70
     0
  3

 62
     0
 51
90.0
 52
90.0
 71
     2
 49
0.5
 62
   256
  6
BYLAYER
 49
-0.5
 62
   256
  6
BYLAYER
  0
XRECORD
  5
246D
102
{ACAD_REACTORS
330
246B
102
}
330
246B
100
AcDbXrecord
330
2407
330
2408
330
23FE
330
23FF
330
23F5
330
23F6
330
23ED
330
23EE
330
23E1
330
23E2
330
23D8
330
23D9
330
23CD
330
23CE
330
23C4
330
23C5
330
23BC
330
23BD
330
23B0
330
23B1
330
23A8
330
23A7
330
23A0
330
239F
330
2395
330
2396
330
238A
330
238B
330
2381
330
2382
330
2375
330
2376
330
236C
330
236D
330
2363
330
2364
330
235B
330
235C
330
2351
330
2352
330
2349
330
234A
330
233D
330
233E
330
2334
330
2335
330
232A
330
232B
330
2320
330
2321
330
2318
330
2317
330
230E
330
230F
330
2305
330
2306
330
22FC
330
22FD
330
22F4
330
22F5
330
22E8
330
22E9
330
22E0
330
22E1
330
22D4
330
22D5
330
22CC
330
22CD
330
22C2
330
22C3
330
22B8
330
22B9
330
22AE
330
22AF
330
22A6
330
22A7
330
229C
330
229D
330
2293
330
2294
330
228B
330
228C
330
2280
330
2281
330
2278
330
2279
330
226E
330
226F
330
2424
330
2425
  0
XRECORD
  5
1B07
102
{ACAD_REACTORS
330
1B05
102
}
330
1B05
100
AcDbXrecord
  1
hihyoji
  1
*_h,08,09
  1
*
  1
*
 70
     0
  1
*
  1
*
  0
XRECORD
  5
1B06
102
{ACAD_REACTORS
330
1B05
102
}
330
1B05
100
AcDbXrecord
  1
tuika
  1
*_t
  1
*
  1
*
 70
     0
  1
*
  1
*
  0
ENDSEC
  0
EOF
