  0
SECTION
  2
HEADER
  9
$ACADVER
  1
AC1012
  9
$DWGCODEPAGE
  3
dos932
  9
$INSBASE
 10
0.0
 20
0.0
 30
0.0
  9
$EXTMIN
 10
0.0
 20
0.0
 30
0.0
  9
$EXTMAX
 10
420.0
 20
594.0
 30
0.0
  9
$LIMMIN
 10
0.0
 20
0.0
  9
$LIMMAX
 10
420.0
 20
594.0
  9
$ORTHOMODE
 70
     1
  9
$REGENMODE
 70
     1
  9
$FILLMODE
 70
     1
  9
$QTEXTMODE
 70
     0
  9
$MIRRTEXT
 70
     1
  9
$DRAGMODE
 70
     2
  9
$LTSCALE
 40
1.0
  9
$OSMODE
 70
    37
  9
$ATTMODE
 70
     1
  9
$TEXTSIZE
 40
2.5
  9
$TRACEWID
 40
0.05
  9
$TEXTSTYLE
  7
0_8
  9
$CLAYER
  8
DEFPOINTS
  9
$CELTYPE
  6
BYLAYER
  9
$CECOLOR
 62
   256
  9
$CELTSCALE
 40
1.0
  9
$DELOBJ
 70
     1
  9
$DISPSILH
 70
     0
  9
$DIMSCALE
 40
2.0
  9
$DIMASZ
 40
2.5
  9
$DIMEXO
 40
1.5
  9
$DIMDLI
 40
0.0
  9
$DIMRND
 40
0.0
  9
$DIMDLE
 40
0.0
  9
$DIMEXE
 40
1.0
  9
$DIMTP
 40
0.0
  9
$DIMTM
 40
0.0
  9
$DIMTXT
 40
2.5
  9
$DIMCEN
 40
0.0
  9
$DIMTSZ
 40
0.0
  9
$DIMTOL
 70
     0
  9
$DIMLIM
 70
     0
  9
$DIMTIH
 70
     0
  9
$DIMTOH
 70
     0
  9
$DIMSE1
 70
     0
  9
$DIMSE2
 70
     0
  9
$DIMTAD
 70
     1
  9
$DIMZIN
 70
     8
  9
$DIMBLK
  1
OPEN30
  9
$DIMASO
 70
     1
  9
$DIMSHO
 70
     1
  9
$DIMPOST
  1

  9
$DIMAPOST
  1

  9
$DIMALT
 70
     0
  9
$DIMALTD
 70
     2
  9
$DIMALTF
 40
25.4
  9
$DIMLFAC
 40
1.0
  9
$DIMTOFL
 70
     1
  9
$DIMTVP
 40
0.0
  9
$DIMTIX
 70
     0
  9
$DIMSOXD
 70
     0
  9
$DIMSAH
 70
     0
  9
$DIMBLK1
  1

  9
$DIMBLK2
  1

  9
$DIMSTYLE
  2
SUNPOU_2
  9
$DIMCLRD
 70
   256
  9
$DIMCLRE
 70
   256
  9
$DIMCLRT
 70
     6
  9
$DIMTFAC
 40
1.0
  9
$DIMGAP
 40
1.0
  9
$DIMJUST
 70
     0
  9
$DIMSD1
 70
     0
  9
$DIMSD2
 70
     0
  9
$DIMTOLJ
 70
     1
  9
$DIMTZIN
 70
     0
  9
$DIMALTZ
 70
     0
  9
$DIMALTTZ
 70
     0
  9
$DIMFIT
 70
     3
  9
$DIMUPT
 70
     0
  9
$DIMUNIT
 70
     2
  9
$DIMDEC
 70
     1
  9
$DIMTDEC
 70
     1
  9
$DIMALTU
 70
     2
  9
$DIMALTTD
 70
     2
  9
$DIMTXSTY
  7
SUNPOU
  9
$DIMAUNIT
 70
     0
  9
$LUNITS
 70
     2
  9
$LUPREC
 70
     4
  9
$SKETCHINC
 40
0.1
  9
$FILLETRAD
 40
0.0
  9
$AUNITS
 70
     0
  9
$AUPREC
 70
     0
  9
$MENU
  1
acad
  9
$ELEVATION
 40
0.0
  9
$PELEVATION
 40
0.0
  9
$THICKNESS
 40
0.0
  9
$LIMCHECK
 70
     0
  9
$BLIPMODE
 70
     0
  9
$CHAMFERA
 40
0.0
  9
$CHAMFERB
 40
0.0
  9
$CHAMFERC
 40
0.0
  9
$CHAMFERD
 40
0.0
  9
$SKPOLY
 70
     0
  9
$TDCREATE
 40
2444972.375000000
  9
$TDUPDATE
 40
2453266.404588576
  9
$TDINDWG
 40
0.5055669329
  9
$TDUSRTIMER
 40
0.5055669329
  9
$USRTIMER
 70
     1
  9
$ANGBASE
 50
0.0
  9
$ANGDIR
 70
     0
  9
$PDMODE
 70
     0
  9
$PDSIZE
 40
1.0
  9
$PLINEWID
 40
0.0
  9
$COORDS
 70
     1
  9
$SPLFRAME
 70
     0
  9
$SPLINETYPE
 70
     6
  9
$SPLINESEGS
 70
     8
  9
$ATTDIA
 70
     0
  9
$ATTREQ
 70
     1
  9
$HANDLING
 70
-16383
  9
$HANDSEED
  5
36C6
  9
$SURFTAB1
 70
     6
  9
$SURFTAB2
 70
     6
  9
$SURFTYPE
 70
     6
  9
$SURFU
 70
     6
  9
$SURFV
 70
     6
  9
$UCSNAME
  2

  9
$UCSORG
 10
0.0
 20
0.0
 30
0.0
  9
$UCSXDIR
 10
1.0
 20
0.0
 30
0.0
  9
$UCSYDIR
 10
0.0
 20
1.0
 30
0.0
  9
$PUCSNAME
  2

  9
$PUCSORG
 10
0.0
 20
0.0
 30
0.0
  9
$PUCSXDIR
 10
1.0
 20
0.0
 30
0.0
  9
$PUCSYDIR
 10
0.0
 20
1.0
 30
0.0
  9
$USERI1
 70
     0
  9
$USERI2
 70
     0
  9
$USERI3
 70
     0
  9
$USERI4
 70
     0
  9
$USERI5
 70
     0
  9
$USERR1
 40
0.0
  9
$USERR2
 40
0.0
  9
$USERR3
 40
0.0
  9
$USERR4
 40
0.0
  9
$USERR5
 40
0.0
  9
$WORLDVIEW
 70
     1
  9
$SHADEDGE
 70
     3
  9
$SHADEDIF
 70
    70
  9
$TILEMODE
 70
     1
  9
$MAXACTVP
 70
    16
  9
$PINSBASE
 10
0.0
 20
0.0
 30
0.0
  9
$PLIMCHECK
 70
     0
  9
$PEXTMIN
 10
-0.2055473772918503
 20
-0.0174202791267817
 30
-0.0015258207003583
  9
$PEXTMAX
 10
396.3139079836237
 20
570.3923158424973
 30
0.0000000349246037
  9
$PLIMMIN
 10
-11.94191342824454
 20
-11.76600219398141
  9
$PLIMMAX
 10
408.0435733360149
 20
582.1408996648768
  9
$UNITMODE
 70
     0
  9
$VISRETAIN
 70
     0
  9
$PLINEGEN
 70
     1
  9
$PSLTSCALE
 70
     0
  9
$TREEDEPTH
 70
  3020
  9
$PICKSTYLE
 70
     1
  9
$CMLSTYLE
  2
STANDARD
  9
$CMLJUST
 70
     0
  9
$CMLSCALE
 40
1.0
  9
$SAVEIMAGES
 70
     1
  0
ENDSEC
  0
SECTION
  2
CLASSES
  0
CLASS
  1
LWPOLYLINE
  2
AcDbPolyline
  3
AutoCAD 2000
 90
    32768
280
     0
281
     1
  0
CLASS
  1
IMAGE
  2
AcDbRasterImage
  3
ISM
 90
    32895
280
     0
281
     1
  0
CLASS
  1
OLE2FRAME
  2
AcDbOle2Frame
  3
AutoCAD 2000
 90
    32768
280
     0
281
     1
  0
CLASS
  1
HATCH
  2
AcDbHatch
  3
AutoCAD 2000
 90
    32768
280
     0
281
     1
  0
CLASS
  1
DICTIONARYVAR
  2
AcDbDictionaryVar
  3
AutoCAD 2000
 90
    32768
280
     0
281
     0
  0
CLASS
  1
RASTERVARIABLES
  2
AcDbRasterVariables
  3
ISM
 90
    32768
280
     0
281
     0
  0
CLASS
  1
IMAGEDEF
  2
AcDbRasterImageDef
  3
ISM
 90
    32768
280
     0
281
     0
  0
CLASS
  1
IMAGEDEF_REACTOR
  2
AcDbRasterImageDefReactor
  3
ISM
 90
    32769
280
     0
281
     0
  0
CLASS
  1
IDBUFFER
  2
AcDbIdBuffer
  3
AutoCAD 2000
 90
    32768
280
     0
281
     0
  0
CLASS
  1
SPATIAL_FILTER
  2
AcDbSpatialFilter
  3
AutoCAD 2000
 90
    32768
280
     0
281
     0
  0
CLASS
  1
XRECORD
  2
AcDbXrecord
  3
AutoCAD 2000
 90
    32768
280
     0
281
     0
  0
CLASS
  1
SORTENTSTABLE
  2
AcDbSortentsTable
  3
AutoCAD 2000
 90
    32768
280
     0
281
     0
  0
CLASS
  1
LAYER_INDEX
  2
AcDbLayerIndex
  3
AutoCAD 2000
 90
    32768
280
     0
281
     0
  0
CLASS
  1
SPATIAL_INDEX
  2
AcDbSpatialIndex
  3
AutoCAD 2000
 90
    32768
280
     0
281
     0
  0
CLASS
  1
OBJECT_PTR
  2
CAseDLPNTableRecord
  3
ASE-LPNTableRecord
 90
    32769
280
     0
281
     0
  0
CLASS
  1
LAYOUT
  2
AcDbLayout
  3
AutoCAD 2000
 90
    32768
280
     0
281
     0
  0
CLASS
  1
PLOTSETTINGS
  2
AcDbPlotSettings
  3
AutoCAD 2000
 90
    32768
280
     0
281
     0
  0
CLASS
  1
ACDBDICTIONARYWDFLT
  2
AcDbDictionaryWithDefault
  3
AutoCAD 2000
 90
    32768
280
     0
281
     0
  0
CLASS
  1
ACDBPLACEHOLDER
  2
AcDbPlaceHolder
  3
AutoCAD 2000
 90
    32768
280
     0
281
     0
  0
CLASS
  1
VBA_PROJECT
  2
AcDbVbaProject
  3
acad
 90
    32768
280
     0
281
     0
  0
CLASS
  1
WIPEOUT
  2
AcDbWipeout
  3
"WipeOut|Product Desc: Object Enabler for WipeOut entity^I^I^I^I^I^I|Company: Autodesk, Inc.^I^I^I^I^I^I|WEB Address: www.autodesk.com"
 90
    32895
280
     0
281
     1
  0
CLASS
  1
WIPEOUTVARIABLES
  2
AcDbWipeoutVariables
  3
"WipeOut|Product Desc:     WipeOut Dbx Application|Company:          Autodesk, Inc.|WEB Address:      www.autodesk.com"
 90
    32768
280
     0
281
     0
  0
CLASS
  1
RTEXT
  2
RText
  3
RText|AutoCAD Express Tool|expresstools@autodesk.com
 90
    32768
280
     0
281
     1
  0
CLASS
  1
ARCALIGNEDTEXT
  2
AcDbArcAlignedText
  3
ATEXT|AutoCAD Express Tool|expresstools@autodesk.com
 90
    32768
280
     0
281
     1
  0
CLASS
  1
LONG_TRANSACTION
  2
AcDbLongTransaction
  3
AutoCAD 2000
 90
    32768
280
     0
281
     0
  0
CLASS
  1
LWPOLYLINE
  2
AcDbPolyline
  3
AutoCAD 2000
 90
    32768
280
     0
281
     1
  0
CLASS
  1
HATCH
  2
AcDbHatch
  3
AutoCAD 2000
 90
    32768
280
     0
281
     1
  0
CLASS
  1
XRECORD
  2
AcDbXrecord
  3
AutoCAD 2000
 90
    32768
280
     0
281
     0
  0
CLASS
  1
LONG_TRANSACTION
  2
AcDbLongTransaction
  3
AutoCAD 2000
 90
    32768
280
     0
281
     0
  0
CLASS
  1
LWPOLYLINE
  2
AcDbPolyline
  3
AutoCAD 2000
 90
    32768
280
     0
281
     1
  0
CLASS
  1
HATCH
  2
AcDbHatch
  3
AutoCAD 2000
 90
    32768
280
     0
281
     1
  0
CLASS
  1
XRECORD
  2
AcDbXrecord
  3
AutoCAD 2000
 90
    32768
280
     0
281
     0
  0
ENDSEC
  0
SECTION
  2
TABLES
  0
TABLE
  2
VPORT
  5
7
330
0
100
AcDbSymbolTable
 70
     2
  0
VPORT
  5
36AB
330
7
100
AcDbSymbolTableRecord
100
AcDbViewportTableRecord
  2
*ACTIVE
 70
     0
 10
0.0
 20
0.0
 11
1.0
 21
1.0
 12
229.3150518830378
 22
297.000001383014
 13
0.0
 23
0.0
 14
1.0
 24
1.0
 15
0.0
 25
0.0
 16
0.0
 26
0.0
 36
1.0
 17
0.0
 27
0.0
 37
0.0
 40
601.1422005003538
 41
1.780442804428044
 42
50.0
 43
0.0
 44
0.0
 50
0.0
 51
0.0
 71
     0
 72
   100
 73
     1
 74
     1
 75
     0
 76
     0
 77
     0
 78
     0
  0
ENDTAB
  0
TABLE
  2
LTYPE
  5
4
330
0
100
AcDbSymbolTable
 70
     4
  0
LTYPE
  5
11
330
4
100
AcDbSymbolTableRecord
100
AcDbLinetypeTableRecord
  2
BYBLOCK
 70
     0
  3

 72
    65
 73
     0
 40
0.0
  0
LTYPE
  5
12
330
4
100
AcDbSymbolTableRecord
100
AcDbLinetypeTableRecord
  2
BYLAYER
 70
     0
  3

 72
    65
 73
     0
 40
0.0
  0
LTYPE
  5
13
330
4
100
AcDbSymbolTableRecord
100
AcDbLinetypeTableRecord
  2
CONTINUOUS
 70
     0
  3
Solid line
 72
    65
 73
     0
 40
0.0
  0
LTYPE
  5
679
330
4
100
AcDbSymbolTableRecord
100
AcDbLinetypeTableRecord
  2
CENTER2
 70
     0
  3
Center (.5x) ___ _ ___ _ ___ _ ___ _ ___ _ ___
 72
    65
 73
     4
 40
28.57499999999999
 49
19.05
 74
     0
 49
-3.174999999999998
 74
     0
 49
3.174999999999998
 74
     0
 49
-3.174999999999998
 74
     0
  0
LTYPE
  5
67C
330
4
100
AcDbSymbolTableRecord
100
AcDbLinetypeTableRecord
  2
DASHED2
 70
     0
  3
Dashed (.5x) _ _ _ _ _ _ _ _ _ _ _ _ _ _ _ _ _
 72
    65
 73
     2
 40
9.524999999999996
 49
6.349999999999998
 74
     0
 49
-3.174999999999998
 74
     0
  0
LTYPE
  5
67F
330
4
100
AcDbSymbolTableRecord
100
AcDbLinetypeTableRecord
  2
PHANTOM2
 70
     0
  3
Phantom (.5x) ___ _ _ ___ _ _ ___ _ _ ___ _ _
 72
    65
 73
     6
 40
31.75
 49
15.875
 74
     0
 49
-3.174999999999998
 74
     0
 49
3.174999999999998
 74
     0
 49
-3.174999999999998
 74
     0
 49
3.174999999999998
 74
     0
 49
-3.174999999999998
 74
     0
  0
ENDTAB
  0
TABLE
  2
LAYER
  5
2
102
{ACAD_XDICTIONARY
360
D30
102
}
330
0
100
AcDbSymbolTable
 70
    13
  0
LAYER
  5
14
330
2
100
AcDbSymbolTableRecord
100
AcDbLayerTableRecord
  2
0
 70
     0
 62
     7
  6
CONTINUOUS
  0
LAYER
  5
39
330
2
100
AcDbSymbolTableRecord
100
AcDbLayerTableRecord
  2
DEFPOINTS
 70
     0
 62
     7
  6
CONTINUOUS
  0
LAYER
  5
673
330
2
100
AcDbSymbolTableRecord
100
AcDbLayerTableRecord
  2
03
 70
     0
 62
     3
  6
CONTINUOUS
  0
LAYER
  5
674
330
2
100
AcDbSymbolTableRecord
100
AcDbLayerTableRecord
  2
04
 70
     0
 62
     4
  6
CONTINUOUS
  0
LAYER
  5
678
330
2
100
AcDbSymbolTableRecord
100
AcDbLayerTableRecord
  2
CHUSIN
 70
     0
 62
     6
  6
CENTER2
  0
LAYER
  5
67B
330
2
100
AcDbSymbolTableRecord
100
AcDbLayerTableRecord
  2
KAKURE
 70
     0
 62
     6
  6
DASHED2
  0
LAYER
  5
67D
330
2
100
AcDbSymbolTableRecord
100
AcDbLayerTableRecord
  2
MOJI
 70
     0
 62
     3
  6
CONTINUOUS
  0
LAYER
  5
67E
330
2
100
AcDbSymbolTableRecord
100
AcDbLayerTableRecord
  2
SOUZOU
 70
     0
 62
     6
  6
PHANTOM2
  0
LAYER
  5
680
330
2
100
AcDbSymbolTableRecord
100
AcDbLayerTableRecord
  2
SUNPOU
 70
     0
 62
     6
  6
CONTINUOUS
  0
LAYER
  5
11FF
330
2
100
AcDbSymbolTableRecord
100
AcDbLayerTableRecord
  2
SAISEN
 70
     0
 62
     3
  6
CONTINUOUS
  0
LAYER
  5
35A9
330
2
100
AcDbSymbolTableRecord
100
AcDbLayerTableRecord
  2
02
 70
     0
 62
     2
  6
CONTINUOUS
  0
LAYER
  5
35AA
330
2
100
AcDbSymbolTableRecord
100
AcDbLayerTableRecord
  2
06
 70
     0
 62
     6
  6
CONTINUOUS
  0
LAYER
  5
35C1
330
2
100
AcDbSymbolTableRecord
100
AcDbLayerTableRecord
  2
HIKIDASI
 70
     0
 62
     6
  6
CONTINUOUS
  0
ENDTAB
  0
TABLE
  2
STYLE
  5
3
330
0
100
AcDbSymbolTable
 70
     4
  0
STYLE
  5
17
330
3
100
AcDbSymbolTableRecord
100
AcDbTextStyleTableRecord
  2
STANDARD
 70
     0
 40
0.0
 41
0.8
 50
0.0
 71
     0
 42
3.0
  3
txt.shx
  4
bigfont.shx
  0
STYLE
  5
682
330
3
100
AcDbSymbolTableRecord
100
AcDbTextStyleTableRecord
  2
SUNPOU
 70
     0
 40
0.0
 41
0.8
 50
0.0
 71
     0
 42
0.2
  3
txt.shx
  4
extfont.shx
  0
STYLE
  5
689
330
3
100
AcDbSymbolTableRecord
100
AcDbTextStyleTableRecord
  2
0_8
 70
     0
 40
0.0
 41
0.8
 50
0.0
 71
     0
 42
2.5
  3
txt.shx
  4
extfont.shx
  0
STYLE
  5
364B
330
3
100
AcDbSymbolTableRecord
100
AcDbTextStyleTableRecord
  2
0_80
 70
     0
 40
0.0
 41
0.8
 50
0.0
 71
     0
 42
5.0
  3
txt.shx
  4
extfont.shx
  0
ENDTAB
  0
TABLE
  2
VIEW
  5
5
330
0
100
AcDbSymbolTable
 70
     2
  0
VIEW
  5
3E
330
5
100
AcDbSymbolTableRecord
100
AcDbViewTableRecord
  2
QQQQ
 70
     0
 40
350.1879603399431
 10
-32.90506943413054
 20
5.779036827195482
 41
450.0199953622178
 11
0.0
 21
0.0
 31
1.0
 12
100.0
 22
100.0
 32
0.0
 42
50.0
 43
0.0
 44
0.0
 50
0.0
 71
     0
  0
VIEW
  5
6CD
330
5
100
AcDbSymbolTableRecord
100
AcDbViewTableRecord
  2
OLE1
 70
     1
 40
371.0934867798812
 10
117.1124967064444
 20
168.3375030052004
 41
480.6413795562298
 11
0.0
 21
0.0
 31
1.0
 12
0.0
 22
0.0
 32
0.0
 42
50.0
 43
0.0
 44
0.0
 50
0.0
 71
     0
  0
ENDTAB
  0
TABLE
  2
UCS
  5
6
330
0
100
AcDbSymbolTable
 70
     0
  0
ENDTAB
  0
TABLE
  2
APPID
  5
8
330
0
100
AcDbSymbolTable
 70
     3
  0
APPID
  5
16
330
8
100
AcDbSymbolTableRecord
100
AcDbRegAppTableRecord
  2
ACAD
 70
     0
  0
APPID
  5
360C
330
8
100
AcDbSymbolTableRecord
100
AcDbRegAppTableRecord
  2
CONTENTBLOCKICON
 70
     0
  0
APPID
  5
3670
330
8
100
AcDbSymbolTableRecord
100
AcDbRegAppTableRecord
  2
DCO15
 70
     0
  0
ENDTAB
  0
TABLE
  2
DIMSTYLE
  5
9
330
0
100
AcDbSymbolTable
 70
     2
  0
DIMSTYLE
105
18
330
9
100
AcDbSymbolTableRecord
100
AcDbDimStyleTableRecord
  2
STANDARD
 70
     0
  3

  4

  5

  6

  7

 40
1.0
 41
0.18
 42
0.0625
 43
0.38
 44
0.18
 45
0.0
 46
0.0
 47
0.0
 48
0.0
140
0.18
141
0.09
142
0.0
143
25.4
144
1.0
145
0.0
146
1.0
147
0.09
 71
     0
 72
     0
 73
     1
 74
     1
 75
     0
 76
     0
 77
     0
 78
     0
170
     0
171
     2
172
     0
173
     0
174
     0
175
     0
176
     0
177
     0
178
     0
270
     2
271
     4
272
     4
273
     2
274
     2
340
17
275
     0
280
     0
281
     0
282
     0
283
     1
284
     0
285
     0
286
     0
287
     3
288
     0
  0
DIMSTYLE
105
681
102
{ACAD_REACTORS
330
6EA
330
71C
330
72B
330
738
330
747
330
754
330
770
330
77D
330
7A8
330
7B7
330
7C4
330
7D1
330
7DE
330
7EB
330
7F8
330
805
330
812
330
82C
330
81F
330
2D23
330
3388
330
3395
330
33A4
330
33B3
330
34E5
330
34F3
102
}
330
9
100
AcDbSymbolTableRecord
100
AcDbDimStyleTableRecord
  2
SUNPOU_2
 70
     0
  3

  4

  5
OPEN30
  6

  7

 40
2.0
 41
2.5
 42
1.5
 43
0.0
 44
1.0
 45
0.0
 46
0.0
 47
0.0
 48
0.0
140
2.5
141
0.0
142
0.0
143
25.4
144
1.0
145
0.0
146
1.0
147
1.0
 71
     0
 72
     0
 73
     0
 74
     0
 75
     0
 76
     0
 77
     1
 78
     8
170
     0
171
     2
172
     1
173
     0
174
     0
175
     0
176
   256
177
   256
178
     6
270
     2
271
     1
272
     1
273
     2
274
     2
340
682
275
     0
280
     0
281
     0
282
     0
283
     1
284
     0
285
     0
286
     0
287
     3
288
     0
  0
ENDTAB
  0
TABLE
  2
BLOCK_RECORD
  5
1
330
0
100
AcDbSymbolTable
 70
    28
  0
BLOCK_RECORD
  5
A
102
{ACAD_XDICTIONARY
360
3608
102
}
330
1
100
AcDbSymbolTableRecord
100
AcDbBlockTableRecord
  2
*MODEL_SPACE
  0
BLOCK_RECORD
  5
B
102
{ACAD_XDICTIONARY
360
360A
102
}
330
1
100
AcDbSymbolTableRecord
100
AcDbBlockTableRecord
  2
*PAPER_SPACE
  0
BLOCK_RECORD
  5
683
330
1
100
AcDbSymbolTableRecord
100
AcDbBlockTableRecord
  2
_OPEN30
1001
CONTENTBLOCKICON
1071
        0
1004
2800000020000000200000000100080000000000000400000000000000000000000000000000000000000000000080000080000000808000800000008000800080800000C0C0C000C0DCC000F0CAA6000020400000206000002080000020A0000020C0000020E00000400000004020000040400000406000004080000040A0
1004
000040C0000040E00000600000006020000060400000606000006080000060A0000060C0000060E00000800000008020000080400000806000008080000080A0000080C0000080E00000A0000000A0200000A0400000A0600000A0800000A0A00000A0C00000A0E00000C0000000C0200000C0400000C0600000C0800000C0
1004
A00000C0C00000C0E00000E0000000E0200000E0400000E0600000E0800000E0A00000E0C00000E0E00040000000400020004000400040006000400080004000A0004000C0004000E00040200000402020004020400040206000402080004020A0004020C0004020E000404000004040200040404000404060004040800040
1004
40A0004040C0004040E00040600000406020004060400040606000406080004060A0004060C0004060E00040800000408020004080400040806000408080004080A0004080C0004080E00040A0000040A0200040A0400040A0600040A0800040A0A00040A0C00040A0E00040C0000040C0200040C0400040C0600040C08000
1004
40C0A00040C0C00040C0E00040E0000040E0200040E0400040E0600040E0800040E0A00040E0C00040E0E00080000000800020008000400080006000800080008000A0008000C0008000E00080200000802020008020400080206000802080008020A0008020C0008020E00080400000804020008040400080406000804080
1004
008040A0008040C0008040E00080600000806020008060400080606000806080008060A0008060C0008060E00080800000808020008080400080806000808080008080A0008080C0008080E00080A0000080A0200080A0400080A0600080A0800080A0A00080A0C00080A0E00080C0000080C0200080C0400080C0600080C0
1004
800080C0A00080C0C00080C0E00080E0000080E0200080E0400080E0600080E0800080E0A00080E0C00080E0E000C0000000C0002000C0004000C0006000C0008000C000A000C000C000C000E000C0200000C0202000C0204000C0206000C0208000C020A000C020C000C020E000C0400000C0402000C0404000C0406000C0
1004
408000C040A000C040C000C040E000C0600000C0602000C0604000C0606000C0608000C060A000C060C000C060E000C0800000C0802000C0804000C0806000C0808000C080A000C080C000C080E000C0A00000C0A02000C0A04000C0A06000C0A08000C0A0A000C0A0C000C0A0E000C0C00000C0C02000C0C04000C0C06000
1004
C0C08000C0C0A000F0FBFF00A4A0A000808080000000FF0000FF000000FFFF00FF000000FF00FF00FFFF0000FFFFFF0000000000000000000000000000000000000000000000000000000000000000000000000000000000000000000000000000000000000000000000000000000000000000000000000000000000000000
1004
00000000000000000000000000000000000000000000000000000000000000000000000000000000000000000000000000000000000000000000000000000000000000000000000000000000000000000000000000000000000000000000000000000000000000000000000000000000000000000000000000000000000000
1004
000000000000000000000000000000000000000000000000000000000000000000000000000000000000000000000000000000FFFF0000000000000000000000000000000000000000000000000000000000000000FFFFFFFF0000000000000000000000000000000000000000000000000000000000000000FFFFFFFF0000
1004
000000000000000000000000000000000000000000000000000000000000FFFFFF0000000000000000000000000000000000000000000000000000000000000000FFFFFFFF0000000000000000000000000000000000000000000000000000000000000000FFFFFF0000000000000000000000000000000000000000000000
1004
000000000000000000FFFFFFFF0000000000000000000000000000000000000000000000000000000000000000FFFFFFFF00000000FFFFFFFFFFFFFFFFFFFFFFFFFFFFFFFFFFFFFFFFFFFFFFFFFFFFFFFFFFFF00000000000000000000000000000000000000000000000000FFFFFFFF000000000000000000000000000000
1004
000000000000000000FFFFFFFF000000000000000000000000000000000000000000000000FFFFFFFF000000000000000000000000000000000000000000000000FFFFFFFF000000000000000000000000000000000000000000000000FFFFFFFF000000000000000000000000000000000000000000000000FFFFFFFF0000
1004
0000000000000000000000000000000000000000000000FFFFFF0000000000000000000000000000000000000000000000000000000000000000000000000000000000000000000000000000000000000000000000000000000000000000000000000000000000000000000000000000000000000000000000000000000000
1004
00000000000000000000000000000000000000000000000000000000000000000000000000000000000000000000000000000000000000000000000000000000000000000000000000000000000000000000000000000000000000000000000000000000000000000000000000000000000000000000000000000000000000
1004
0000000000000000000000000000000000000000000000000000000000000000000000000000000000000000000000000000000000000000
  0
BLOCK_RECORD
  5
6EB
330
1
100
AcDbSymbolTableRecord
100
AcDbBlockTableRecord
  2
*D1
  0
BLOCK_RECORD
  5
71D
330
1
100
AcDbSymbolTableRecord
100
AcDbBlockTableRecord
  2
*D2
  0
BLOCK_RECORD
  5
72C
330
1
100
AcDbSymbolTableRecord
100
AcDbBlockTableRecord
  2
*D3
  0
BLOCK_RECORD
  5
739
330
1
100
AcDbSymbolTableRecord
100
AcDbBlockTableRecord
  2
*D4
  0
BLOCK_RECORD
  5
748
330
1
100
AcDbSymbolTableRecord
100
AcDbBlockTableRecord
  2
*D5
  0
BLOCK_RECORD
  5
755
330
1
100
AcDbSymbolTableRecord
100
AcDbBlockTableRecord
  2
*D6
  0
BLOCK_RECORD
  5
771
330
1
100
AcDbSymbolTableRecord
100
AcDbBlockTableRecord
  2
*D7
  0
BLOCK_RECORD
  5
77E
330
1
100
AcDbSymbolTableRecord
100
AcDbBlockTableRecord
  2
*D8
  0
BLOCK_RECORD
  5
7A9
330
1
100
AcDbSymbolTableRecord
100
AcDbBlockTableRecord
  2
*D9
  0
BLOCK_RECORD
  5
7B8
330
1
100
AcDbSymbolTableRecord
100
AcDbBlockTableRecord
  2
*D10
  0
BLOCK_RECORD
  5
7C5
330
1
100
AcDbSymbolTableRecord
100
AcDbBlockTableRecord
  2
*D11
  0
BLOCK_RECORD
  5
7D2
330
1
100
AcDbSymbolTableRecord
100
AcDbBlockTableRecord
  2
*D12
  0
BLOCK_RECORD
  5
7DF
330
1
100
AcDbSymbolTableRecord
100
AcDbBlockTableRecord
  2
*D13
  0
BLOCK_RECORD
  5
7EC
330
1
100
AcDbSymbolTableRecord
100
AcDbBlockTableRecord
  2
*D14
  0
BLOCK_RECORD
  5
7F9
330
1
100
AcDbSymbolTableRecord
100
AcDbBlockTableRecord
  2
*D15
  0
BLOCK_RECORD
  5
806
330
1
100
AcDbSymbolTableRecord
100
AcDbBlockTableRecord
  2
*D16
  0
BLOCK_RECORD
  5
813
330
1
100
AcDbSymbolTableRecord
100
AcDbBlockTableRecord
  2
*D17
  0
BLOCK_RECORD
  5
820
330
1
100
AcDbSymbolTableRecord
100
AcDbBlockTableRecord
  2
*D18
  0
BLOCK_RECORD
  5
82D
330
1
100
AcDbSymbolTableRecord
100
AcDbBlockTableRecord
  2
*D19
  0
BLOCK_RECORD
  5
2D24
330
1
100
AcDbSymbolTableRecord
100
AcDbBlockTableRecord
  2
*D20
  0
BLOCK_RECORD
  5
3389
330
1
100
AcDbSymbolTableRecord
100
AcDbBlockTableRecord
  2
*D21
  0
BLOCK_RECORD
  5
3396
330
1
100
AcDbSymbolTableRecord
100
AcDbBlockTableRecord
  2
*D22
  0
BLOCK_RECORD
  5
33A5
330
1
100
AcDbSymbolTableRecord
100
AcDbBlockTableRecord
  2
*D23
  0
BLOCK_RECORD
  5
33B4
330
1
100
AcDbSymbolTableRecord
100
AcDbBlockTableRecord
  2
*D24
  0
BLOCK_RECORD
  5
343D
330
1
100
AcDbSymbolTableRecord
100
AcDbBlockTableRecord
  2
_DOTSMALL
  0
BLOCK_RECORD
  5
34E6
330
1
100
AcDbSymbolTableRecord
100
AcDbBlockTableRecord
  2
*D26
  0
BLOCK_RECORD
  5
34F4
330
1
100
AcDbSymbolTableRecord
100
AcDbBlockTableRecord
  2
*D27
  0
ENDTAB
  0
ENDSEC
  0
SECTION
  2
BLOCKS
  0
BLOCK
  5
D
330
A
100
AcDbEntity
  8
0
100
AcDbBlockBegin
  2
*MODEL_SPACE
 70
     0
 10
0.0
 20
0.0
 30
0.0
  3
*MODEL_SPACE
  1

  0
ENDBLK
  5
E
330
A
100
AcDbEntity
  8
0
100
AcDbBlockEnd
  0
BLOCK
  5
F
330
B
100
AcDbEntity
 67
     1
  8
0
100
AcDbBlockBegin
  2
*PAPER_SPACE
 70
     0
 10
0.0
 20
0.0
 30
0.0
  3
*PAPER_SPACE
  1

  0
ENDBLK
  5
10
330
B
100
AcDbEntity
 67
     1
  8
0
100
AcDbBlockEnd
  0
BLOCK
  5
687
330
683
100
AcDbEntity
  8
0
100
AcDbBlockBegin
  2
_OPEN30
 70
     0
 10
0.0
 20
0.0
 30
0.0
  3
_OPEN30
  1

  0
LINE
  5
684
330
683
100
AcDbEntity
  8
0
  6
BYBLOCK
 62
     0
100
AcDbLine
 10
-1.0
 20
0.26794919
 30
0.0
 11
0.0
 21
0.0
 31
0.0
  0
LINE
  5
685
330
683
100
AcDbEntity
  8
0
  6
BYBLOCK
 62
     0
100
AcDbLine
 10
0.0
 20
0.0
 30
0.0
 11
-1.0
 21
-0.26794919
 31
0.0
  0
LINE
  5
686
330
683
100
AcDbEntity
  8
0
  6
BYBLOCK
 62
     0
100
AcDbLine
 10
0.0
 20
0.0
 30
0.0
 11
-1.0
 21
0.0
 31
0.0
  0
ENDBLK
  5
688
330
683
100
AcDbEntity
  8
0
100
AcDbBlockEnd
  0
BLOCK
  5
6F5
330
6EB
100
AcDbEntity
  8
0
100
AcDbBlockBegin
  2
*D1
 70
     1
 10
0.0
 20
0.0
 30
0.0
  3
*D1
  1

  0
LINE
  5
32FD
330
6EB
100
AcDbEntity
  8
SUNPOU
100
AcDbLine
 10
105.148700034012
 20
139.2398590533781
 30
0.0
 11
105.148700034012
 21
122.0704255139512
 31
0.0
  0
LINE
  5
32FE
330
6EB
100
AcDbEntity
  8
SUNPOU
100
AcDbLine
 10
155.1487000340119
 20
140.739859053378
 30
0.0
 11
155.1487000340119
 21
122.0704255139512
 31
0.0
  0
LINE
  5
32FF
330
6EB
100
AcDbEntity
  8
SUNPOU
100
AcDbLine
 10
110.148700034012
 20
124.0704255139511
 30
0.0
 11
150.1487000340119
 21
124.0704255139511
 31
0.0
  0
INSERT
  5
3300
330
6EB
100
AcDbEntity
  8
SUNPOU
100
AcDbBlockReference
  2
_OPEN30
 10
105.148700034012
 20
124.0704255139511
 30
0.0
 41
5.0
 42
5.0
 43
5.0
 50
180.0
  0
INSERT
  5
3301
330
6EB
100
AcDbEntity
  8
SUNPOU
100
AcDbBlockReference
  2
_OPEN30
 10
155.1487000340119
 20
124.0704255139511
 30
0.0
 41
5.0
 42
5.0
 43
5.0
  0
MTEXT
  5
3302
330
6EB
100
AcDbEntity
  8
SUNPOU
 62
     6
100
AcDbMText
 10
130.1487000340119
 20
128.5704255139511
 30
0.0
 40
5.0
 41
0.0
 71
     5
 72
     1
  1
\A1;50
  7
SUNPOU
1001
ACAD
1000
MTEXTBEGIN
1070
    73
1070
     1
1070
    44
1040
1.0
1070
    74
1070
     0
1000
MTEXTEND
1000
MTEXTBEGIN
1070
    73
1070
     1
1070
    44
1040
1.0
1070
    74
1070
     0
1000
MTEXTEND
  0
POINT
  5
3303
330
6EB
100
AcDbEntity
  8
DEFPOINTS
 62
     0
100
AcDbPoint
 10
105.148700034012
 20
142.2398590533781
 30
0.0
  0
POINT
  5
3304
330
6EB
100
AcDbEntity
  8
DEFPOINTS
 62
     0
100
AcDbPoint
 10
155.1487000340119
 20
143.739859053378
 30
0.0
  0
POINT
  5
3305
330
6EB
100
AcDbEntity
  8
DEFPOINTS
 62
     0
100
AcDbPoint
 10
155.1487000340119
 20
124.0704255139511
 30
0.0
  0
ENDBLK
  5
6F6
330
6EB
100
AcDbEntity
  8
0
100
AcDbBlockEnd
  0
BLOCK
  5
729
330
71D
100
AcDbEntity
  8
0
100
AcDbBlockBegin
  2
*D2
 70
     1
 10
0.0
 20
0.0
 30
0.0
  3
*D2
  1

  0
LINE
  5
355C
330
71D
100
AcDbEntity
  8
SUNPOU
100
AcDbLine
 10
155.1487000340119
 20
140.739859053378
 30
0.0
 11
155.1487000340119
 21
122.0704255139512
 31
0.0
  0
LINE
  5
355D
330
71D
100
AcDbEntity
  8
SUNPOU
100
AcDbLine
 10
160.148700034012
 20
127.0704255139512
 30
0.0
 11
160.148700034012
 21
126.0704255139512
 31
0.0
  0
LINE
  5
355E
330
71D
100
AcDbEntity
  8
SUNPOU
100
AcDbLine
 10
150.1487000340119
 20
124.0704255139511
 30
0.0
 11
145.1487000340119
 21
124.0704255139511
 31
0.0
  0
LINE
  5
355F
330
71D
100
AcDbEntity
  8
SUNPOU
100
AcDbLine
 10
165.148700034012
 20
124.0704255139511
 30
0.0
 11
170.1487000340119
 21
124.0704255139511
 31
0.0
  0
MTEXT
  5
3560
330
71D
100
AcDbEntity
  8
SUNPOU
 62
     6
100
AcDbMText
 10
157.71738126226
 20
129.5584930193225
 30
0.0
 40
5.0
 41
0.0
 71
     5
 72
     1
  1
\A1;5
  7
SUNPOU
1001
ACAD
1000
MTEXTBEGIN
1070
    73
1070
     1
1070
    44
1040
1.0
1070
    74
1070
     0
1000
MTEXTEND
1000
MTEXTBEGIN
1070
    73
1070
     1
1070
    44
1040
1.0
1070
    74
1070
     0
1000
MTEXTEND
  0
LINE
  5
3561
330
71D
100
AcDbEntity
  8
SUNPOU
100
AcDbLine
 10
155.1487000340119
 20
124.0704255139511
 30
0.0
 11
160.148700034012
 21
124.0704255139511
 31
0.0
  0
INSERT
  5
3562
330
71D
100
AcDbEntity
  8
SUNPOU
100
AcDbBlockReference
  2
_OPEN30
 10
155.1487000340119
 20
124.0704255139511
 30
0.0
 41
5.0
 42
5.0
 43
5.0
  0
INSERT
  5
3563
330
71D
100
AcDbEntity
  8
SUNPOU
100
AcDbBlockReference
  2
_OPEN30
 10
160.148700034012
 20
124.0704255139511
 30
0.0
 41
5.0
 42
5.0
 43
5.0
 50
180.0
  0
POINT
  5
3564
330
71D
100
AcDbEntity
  8
DEFPOINTS
 62
     0
100
AcDbPoint
 10
155.1487000340119
 20
143.739859053378
 30
0.0
  0
POINT
  5
3565
330
71D
100
AcDbEntity
  8
DEFPOINTS
 62
     0
100
AcDbPoint
 10
160.148700034012
 20
124.0704255139511
 30
0.0
  0
POINT
  5
3566
330
71D
100
AcDbEntity
  8
DEFPOINTS
 62
     0
100
AcDbPoint
 10
160.148700034012
 20
124.0704255139511
 30
0.0
  0
ENDBLK
  5
72A
330
71D
100
AcDbEntity
  8
0
100
AcDbBlockEnd
  0
BLOCK
  5
736
330
72C
100
AcDbEntity
  8
0
100
AcDbBlockBegin
  2
*D3
 70
     1
 10
0.0
 20
0.0
 30
0.0
  3
*D3
  1

  0
LINE
  5
3306
330
72C
100
AcDbEntity
  8
SUNPOU
100
AcDbLine
 10
160.148700034012
 20
127.0704255139512
 30
0.0
 11
160.148700034012
 21
126.0704255139512
 31
0.0
  0
LINE
  5
3307
330
72C
100
AcDbEntity
  8
SUNPOU
100
AcDbLine
 10
200.1487000340119
 20
127.0704255139512
 30
0.0
 11
200.1487000340119
 21
126.0704255139512
 31
0.0
  0
LINE
  5
3308
330
72C
100
AcDbEntity
  8
SUNPOU
100
AcDbLine
 10
165.148700034012
 20
124.0704255139511
 30
0.0
 11
195.1487000340119
 21
124.0704255139511
 31
0.0
  0
INSERT
  5
3309
330
72C
100
AcDbEntity
  8
SUNPOU
100
AcDbBlockReference
  2
_OPEN30
 10
160.148700034012
 20
124.0704255139511
 30
0.0
 41
5.0
 42
5.0
 43
5.0
 50
180.0
  0
INSERT
  5
330A
330
72C
100
AcDbEntity
  8
SUNPOU
100
AcDbBlockReference
  2
_OPEN30
 10
200.1487000340119
 20
124.0704255139511
 30
0.0
 41
5.0
 42
5.0
 43
5.0
  0
MTEXT
  5
330B
330
72C
100
AcDbEntity
  8
SUNPOU
 62
     6
100
AcDbMText
 10
180.1487000340119
 20
128.5704255139511
 30
0.0
 40
5.0
 41
0.0
 71
     5
 72
     1
  1
\A1;40
  7
SUNPOU
1001
ACAD
1000
MTEXTBEGIN
1070
    73
1070
     1
1070
    44
1040
1.0
1070
    74
1070
     0
1000
MTEXTEND
1000
MTEXTBEGIN
1070
    73
1070
     1
1070
    44
1040
1.0
1070
    74
1070
     0
1000
MTEXTEND
  0
POINT
  5
330C
330
72C
100
AcDbEntity
  8
DEFPOINTS
 62
     0
100
AcDbPoint
 10
160.148700034012
 20
124.0704255139511
 30
0.0
  0
POINT
  5
330D
330
72C
100
AcDbEntity
  8
DEFPOINTS
 62
     0
100
AcDbPoint
 10
200.1487000340119
 20
124.0704255139511
 30
0.0
  0
POINT
  5
330E
330
72C
100
AcDbEntity
  8
DEFPOINTS
 62
     0
100
AcDbPoint
 10
200.1487000340119
 20
124.0704255139511
 30
0.0
  0
ENDBLK
  5
737
330
72C
100
AcDbEntity
  8
0
100
AcDbBlockEnd
  0
BLOCK
  5
745
330
739
100
AcDbEntity
  8
0
100
AcDbBlockBegin
  2
*D4
 70
     1
 10
0.0
 20
0.0
 30
0.0
  3
*D4
  1

  0
LINE
  5
34C1
330
739
100
AcDbEntity
  8
SUNPOU
100
AcDbLine
 10
200.1487000340119
 20
127.0704255139512
 30
0.0
 11
200.1487000340119
 21
126.0704255139512
 31
0.0
  0
LINE
  5
34C2
330
739
100
AcDbEntity
  8
SUNPOU
100
AcDbLine
 10
205.1487000340119
 20
127.0704255139512
 30
0.0
 11
205.1487000340119
 21
126.0704255139512
 31
0.0
  0
LINE
  5
34C3
330
739
100
AcDbEntity
  8
SUNPOU
100
AcDbLine
 10
195.1487000340119
 20
124.0704255139511
 30
0.0
 11
190.148700034012
 21
124.0704255139511
 31
0.0
  0
LINE
  5
34C4
330
739
100
AcDbEntity
  8
SUNPOU
100
AcDbLine
 10
210.148700034012
 20
124.0704255139511
 30
0.0
 11
215.1487000340119
 21
124.0704255139511
 31
0.0
  0
MTEXT
  5
34C5
330
739
100
AcDbEntity
  8
SUNPOU
 62
     6
100
AcDbMText
 10
202.6004778034457
 20
128.976780080938
 30
0.0
 40
5.0
 41
0.0
 71
     5
 72
     1
  1
\A1;5
  7
SUNPOU
1001
ACAD
1000
MTEXTBEGIN
1070
    73
1070
     1
1070
    44
1040
1.0
1070
    74
1070
     0
1000
MTEXTEND
1000
MTEXTBEGIN
1070
    73
1070
     1
1070
    44
1040
1.0
1070
    74
1070
     0
1000
MTEXTEND
  0
LINE
  5
34C6
330
739
100
AcDbEntity
  8
SUNPOU
100
AcDbLine
 10
200.1487000340119
 20
124.0704255139511
 30
0.0
 11
205.1487000340119
 21
124.0704255139511
 31
0.0
  0
INSERT
  5
34C7
330
739
100
AcDbEntity
  8
SUNPOU
100
AcDbBlockReference
  2
_OPEN30
 10
200.1487000340119
 20
124.0704255139511
 30
0.0
 41
5.0
 42
5.0
 43
5.0
  0
INSERT
  5
34C8
330
739
100
AcDbEntity
  8
SUNPOU
100
AcDbBlockReference
  2
_OPEN30
 10
205.1487000340119
 20
124.0704255139511
 30
0.0
 41
5.0
 42
5.0
 43
5.0
 50
180.0
  0
POINT
  5
34C9
330
739
100
AcDbEntity
  8
DEFPOINTS
 62
     0
100
AcDbPoint
 10
200.1487000340119
 20
124.0704255139511
 30
0.0
  0
POINT
  5
34CA
330
739
100
AcDbEntity
  8
DEFPOINTS
 62
     0
100
AcDbPoint
 10
205.1487000340119
 20
124.0704255139511
 30
0.0
  0
POINT
  5
34CB
330
739
100
AcDbEntity
  8
DEFPOINTS
 62
     0
100
AcDbPoint
 10
205.1487000340119
 20
124.0704255139511
 30
0.0
  0
ENDBLK
  5
746
330
739
100
AcDbEntity
  8
0
100
AcDbBlockEnd
  0
BLOCK
  5
752
330
748
100
AcDbEntity
  8
0
100
AcDbBlockBegin
  2
*D5
 70
     1
 10
0.0
 20
0.0
 30
0.0
  3
*D5
  1

  0
LINE
  5
3361
330
748
100
AcDbEntity
  8
SUNPOU
100
AcDbLine
 10
205.1487000340119
 20
127.0704255139512
 30
0.0
 11
205.1487000340119
 21
126.0704255139512
 31
0.0
  0
LINE
  5
3362
330
748
100
AcDbEntity
  8
SUNPOU
100
AcDbLine
 10
245.148700034012
 20
127.0704255139512
 30
0.0
 11
245.148700034012
 21
126.0704255139512
 31
0.0
  0
LINE
  5
3363
330
748
100
AcDbEntity
  8
SUNPOU
100
AcDbLine
 10
210.148700034012
 20
124.0704255139511
 30
0.0
 11
240.1487000340119
 21
124.0704255139511
 31
0.0
  0
INSERT
  5
3364
330
748
100
AcDbEntity
  8
SUNPOU
100
AcDbBlockReference
  2
_OPEN30
 10
205.1487000340119
 20
124.0704255139511
 30
0.0
 41
5.0
 42
5.0
 43
5.0
 50
180.0
  0
INSERT
  5
3365
330
748
100
AcDbEntity
  8
SUNPOU
100
AcDbBlockReference
  2
_OPEN30
 10
245.148700034012
 20
124.0704255139511
 30
0.0
 41
5.0
 42
5.0
 43
5.0
  0
MTEXT
  5
3366
330
748
100
AcDbEntity
  8
SUNPOU
 62
     6
100
AcDbMText
 10
225.1487000340119
 20
128.5704255139511
 30
0.0
 40
5.0
 41
0.0
 71
     5
 72
     1
  1
\A1;40
  7
SUNPOU
1001
ACAD
1000
MTEXTBEGIN
1070
    73
1070
     1
1070
    44
1040
1.0
1070
    74
1070
     0
1000
MTEXTEND
1000
MTEXTBEGIN
1070
    73
1070
     1
1070
    44
1040
1.0
1070
    74
1070
     0
1000
MTEXTEND
  0
POINT
  5
3367
330
748
100
AcDbEntity
  8
DEFPOINTS
 62
     0
100
AcDbPoint
 10
205.1487000340119
 20
124.0704255139511
 30
0.0
  0
POINT
  5
3368
330
748
100
AcDbEntity
  8
DEFPOINTS
 62
     0
100
AcDbPoint
 10
245.148700034012
 20
124.0704255139511
 30
0.0
  0
POINT
  5
3369
330
748
100
AcDbEntity
  8
DEFPOINTS
 62
     0
100
AcDbPoint
 10
245.148700034012
 20
124.0704255139511
 30
0.0
  0
ENDBLK
  5
753
330
748
100
AcDbEntity
  8
0
100
AcDbBlockEnd
  0
BLOCK
  5
761
330
755
100
AcDbEntity
  8
0
100
AcDbBlockBegin
  2
*D6
 70
     1
 10
0.0
 20
0.0
 30
0.0
  3
*D6
  1

  0
LINE
  5
336A
330
755
100
AcDbEntity
  8
SUNPOU
100
AcDbLine
 10
245.148700034012
 20
127.0704255139512
 30
0.0
 11
245.148700034012
 21
126.0704255139512
 31
0.0
  0
LINE
  5
336B
330
755
100
AcDbEntity
  8
SUNPOU
100
AcDbLine
 10
250.1487000340121
 20
140.739859053378
 30
0.0
 11
250.1487000340121
 21
122.0704255139512
 31
0.0
  0
LINE
  5
336C
330
755
100
AcDbEntity
  8
SUNPOU
100
AcDbLine
 10
240.1487000340119
 20
124.0704255139511
 30
0.0
 11
235.148700034012
 21
124.0704255139511
 31
0.0
  0
LINE
  5
336D
330
755
100
AcDbEntity
  8
SUNPOU
100
AcDbLine
 10
255.1487000340121
 20
124.0704255139511
 30
0.0
 11
260.148700034012
 21
124.0704255139511
 31
0.0
  0
MTEXT
  5
336E
330
755
100
AcDbEntity
  8
SUNPOU
 62
     6
100
AcDbMText
 10
247.648700034012
 20
111.5704255139511
 30
0.0
 40
5.0
 41
0.0
 71
     5
 72
     1
  1
\A1;5
  7
SUNPOU
1001
ACAD
1000
MTEXTBEGIN
1070
    73
1070
     1
1070
    44
1040
1.0
1070
    74
1070
     0
1000
MTEXTEND
1000
MTEXTBEGIN
1070
    73
1070
     1
1070
    44
1040
1.0
1070
    74
1070
     0
1000
MTEXTEND
  0
LINE
  5
336F
330
755
100
AcDbEntity
  8
SUNPOU
100
AcDbLine
 10
245.148700034012
 20
124.0704255139511
 30
0.0
 11
250.1487000340121
 21
124.0704255139511
 31
0.0
  0
INSERT
  5
3370
330
755
100
AcDbEntity
  8
SUNPOU
100
AcDbBlockReference
  2
_OPEN30
 10
245.148700034012
 20
124.0704255139511
 30
0.0
 41
5.0
 42
5.0
 43
5.0
  0
INSERT
  5
3371
330
755
100
AcDbEntity
  8
SUNPOU
100
AcDbBlockReference
  2
_OPEN30
 10
250.1487000340121
 20
124.0704255139511
 30
0.0
 41
5.0
 42
5.0
 43
5.0
 50
180.0
  0
POINT
  5
3372
330
755
100
AcDbEntity
  8
DEFPOINTS
 62
     0
100
AcDbPoint
 10
245.148700034012
 20
124.0704255139511
 30
0.0
  0
POINT
  5
3373
330
755
100
AcDbEntity
  8
DEFPOINTS
 62
     0
100
AcDbPoint
 10
250.1487000340121
 20
143.739859053378
 30
0.0
  0
POINT
  5
3374
330
755
100
AcDbEntity
  8
DEFPOINTS
 62
     0
100
AcDbPoint
 10
250.1487000340121
 20
124.0704255139511
 30
0.0
  0
ENDBLK
  5
762
330
755
100
AcDbEntity
  8
0
100
AcDbBlockEnd
  0
BLOCK
  5
77B
330
771
100
AcDbEntity
  8
0
100
AcDbBlockBegin
  2
*D7
 70
     1
 10
0.0
 20
0.0
 30
0.0
  3
*D7
  1

  0
LINE
  5
3573
330
771
100
AcDbEntity
  8
SUNPOU
100
AcDbLine
 10
349.1487000340122
 20
138.2535522173907
 30
0.0
 11
349.1487000340122
 21
93.25719377985242
 31
0.0
  0
LINE
  5
3574
330
771
100
AcDbEntity
  8
SUNPOU
100
AcDbLine
 10
99.1487000340121
 20
104.4791126531749
 30
0.0
 11
99.1487000340121
 21
93.25719377985242
 31
0.0
  0
LINE
  5
3575
330
771
100
AcDbEntity
  8
SUNPOU
100
AcDbLine
 10
344.1487000340122
 20
95.25719377985241
 30
0.0
 11
104.1487000340119
 21
95.25719377985241
 31
0.0
  0
INSERT
  5
3576
330
771
100
AcDbEntity
  8
SUNPOU
100
AcDbBlockReference
  2
_OPEN30
 10
349.1487000340122
 20
95.25719377985241
 30
0.0
 41
5.0
 42
5.0
 43
5.0
  0
INSERT
  5
3577
330
771
100
AcDbEntity
  8
SUNPOU
100
AcDbBlockReference
  2
_OPEN30
 10
99.1487000340121
 20
95.25719377985241
 30
0.0
 41
5.0
 42
5.0
 43
5.0
 50
180.0
  0
MTEXT
  5
3578
330
771
100
AcDbEntity
  8
SUNPOU
 62
     6
100
AcDbMText
 10
224.1487000340121
 20
99.75719377985242
 30
0.0
 40
5.0
 41
0.0
 71
     5
 72
     1
  1
\A1;250
  7
SUNPOU
1001
ACAD
1000
MTEXTBEGIN
1070
    73
1070
     1
1070
    44
1040
1.0
1070
    74
1070
     0
1000
MTEXTEND
1000
MTEXTBEGIN
1070
    73
1070
     1
1070
    44
1040
1.0
1070
    74
1070
     0
1000
MTEXTEND
  0
POINT
  5
3579
330
771
100
AcDbEntity
  8
DEFPOINTS
 62
     0
100
AcDbPoint
 10
349.1487000340122
 20
141.2535522173906
 30
0.0
  0
POINT
  5
357A
330
771
100
AcDbEntity
  8
DEFPOINTS
 62
     0
100
AcDbPoint
 10
99.1487000340121
 20
107.4791126531749
 30
0.0
  0
POINT
  5
357B
330
771
100
AcDbEntity
  8
DEFPOINTS
 62
     0
100
AcDbPoint
 10
99.1487000340121
 20
95.25719377985241
 30
0.0
  0
ENDBLK
  5
77C
330
771
100
AcDbEntity
  8
0
100
AcDbBlockEnd
  0
BLOCK
  5
788
330
77E
100
AcDbEntity
  8
0
100
AcDbBlockBegin
  2
*D8
 70
     1
 10
0.0
 20
0.0
 30
0.0
  3
*D8
  1

  0
LINE
  5
34AD
330
77E
100
AcDbEntity
  8
SUNPOU
100
AcDbLine
 10
180.1487000340119
 20
111.9080856860687
 30
0.0
 11
180.1487000340119
 21
110.9080856860687
 31
0.0
  0
LINE
  5
34AE
330
77E
100
AcDbEntity
  8
SUNPOU
100
AcDbLine
 10
225.1487000340119
 20
111.3080856860687
 30
0.0
 11
225.1487000340119
 21
110.9080856860687
 31
0.0
  0
LINE
  5
34AF
330
77E
100
AcDbEntity
  8
SUNPOU
100
AcDbLine
 10
185.1487000340119
 20
108.9080856860687
 30
0.0
 11
220.148700034012
 21
108.9080856860687
 31
0.0
  0
MTEXT
  5
34B0
330
77E
100
AcDbEntity
  8
SUNPOU
 62
     6
100
AcDbMText
 10
208.8628477404518
 20
113.4829305943241
 30
0.0
 40
5.0
 41
0.0
 71
     5
 72
     1
  1
\A1;45
  7
SUNPOU
1001
ACAD
1000
MTEXTBEGIN
1070
    73
1070
     1
1070
    44
1040
1.0
1070
    74
1070
     0
1000
MTEXTEND
1000
MTEXTBEGIN
1070
    73
1070
     1
1070
    44
1040
1.0
1070
    74
1070
     0
1000
MTEXTEND
  0
INSERT
  5
34B1
330
77E
100
AcDbEntity
  8
SUNPOU
100
AcDbBlockReference
  2
_OPEN30
 10
180.1487000340119
 20
108.9080856860687
 30
0.0
 41
5.0
 42
5.0
 43
5.0
 50
180.0
  0
INSERT
  5
34B2
330
77E
100
AcDbEntity
  8
SUNPOU
100
AcDbBlockReference
  2
_OPEN30
 10
225.1487000340119
 20
108.9080856860687
 30
0.0
 41
5.0
 42
5.0
 43
5.0
  0
POINT
  5
34B3
330
77E
100
AcDbEntity
  8
DEFPOINTS
 62
     0
100
AcDbPoint
 10
180.1487000340119
 20
108.9080856860687
 30
0.0
  0
POINT
  5
34B4
330
77E
100
AcDbEntity
  8
DEFPOINTS
 62
     0
100
AcDbPoint
 10
225.1487000340119
 20
108.3080856860687
 30
0.0
  0
POINT
  5
34B5
330
77E
100
AcDbEntity
  8
DEFPOINTS
 62
     0
100
AcDbPoint
 10
225.1487000340119
 20
108.9080856860687
 30
0.0
  0
ENDBLK
  5
789
330
77E
100
AcDbEntity
  8
0
100
AcDbBlockEnd
  0
BLOCK
  5
7B5
330
7A9
100
AcDbEntity
  8
0
100
AcDbBlockBegin
  2
*D9
 70
     1
 10
0.0
 20
0.0
 30
0.0
  3
*D9
  1

  0
LINE
  5
33D4
330
7A9
100
AcDbEntity
  8
SUNPOU
100
AcDbLine
 10
254.6487000340121
 20
152.2398590533779
 30
0.0
 11
263.5679094639484
 21
152.2398590533779
 31
0.0
  0
LINE
  5
33D5
330
7A9
100
AcDbEntity
  8
SUNPOU
100
AcDbLine
 10
261.0516648366818
 20
142.2398590533781
 30
0.0
 11
263.5679094639484
 21
142.2398590533781
 31
0.0
  0
LINE
  5
33D6
330
7A9
100
AcDbEntity
  8
SUNPOU
100
AcDbLine
 10
261.5679094639484
 20
157.2398590533779
 30
0.0
 11
261.5679094639484
 21
162.2398590533779
 31
0.0
  0
LINE
  5
33D7
330
7A9
100
AcDbEntity
  8
SUNPOU
100
AcDbLine
 10
261.5679094639484
 20
137.2398590533779
 30
0.0
 11
261.5679094639484
 21
132.2398590533779
 31
0.0
  0
LINE
  5
33D8
330
7A9
100
AcDbEntity
  8
SUNPOU
100
AcDbLine
 10
261.5679094639484
 20
152.2398590533779
 30
0.0
 11
261.5679094639484
 21
142.2398590533781
 31
0.0
  0
INSERT
  5
33D9
330
7A9
100
AcDbEntity
  8
SUNPOU
100
AcDbBlockReference
  2
_OPEN30
 10
261.5679094639484
 20
152.2398590533779
 30
0.0
 41
5.0
 42
5.0
 43
5.0
 50
270.0
  0
INSERT
  5
33DA
330
7A9
100
AcDbEntity
  8
SUNPOU
100
AcDbBlockReference
  2
_OPEN30
 10
261.5679094639484
 20
142.2398590533781
 30
0.0
 41
5.0
 42
5.0
 43
5.0
 50
90.0
  0
MTEXT
  5
33DB
330
7A9
100
AcDbEntity
  8
SUNPOU
 62
     6
100
AcDbMText
 10
257.0679094639483
 20
147.2398590533781
 30
0.0
 40
5.0
 41
0.0
 71
     5
 72
     1
  1
\A1;10
  7
SUNPOU
 11
0.0000000000000001
 21
1.0
 31
0.0
1001
ACAD
1000
MTEXTBEGIN
1070
    73
1070
     1
1070
    44
1040
1.0
1070
    74
1070
     0
1000
MTEXTEND
1000
MTEXTBEGIN
1070
    73
1070
     1
1070
    44
1040
1.0
1070
    74
1070
     0
1000
MTEXTEND
  0
POINT
  5
33DC
330
7A9
100
AcDbEntity
  8
DEFPOINTS
 62
     0
100
AcDbPoint
 10
251.648700034012
 20
152.2398590533779
 30
0.0
  0
POINT
  5
33DD
330
7A9
100
AcDbEntity
  8
DEFPOINTS
 62
     0
100
AcDbPoint
 10
258.0516648366818
 20
142.2398590533781
 30
0.0
  0
POINT
  5
33DE
330
7A9
100
AcDbEntity
  8
DEFPOINTS
 62
     0
100
AcDbPoint
 10
261.5679094639484
 20
142.2398590533781
 30
0.0
  0
ENDBLK
  5
7B6
330
7A9
100
AcDbEntity
  8
0
100
AcDbBlockEnd
  0
BLOCK
  5
7C2
330
7B8
100
AcDbEntity
  8
0
100
AcDbBlockBegin
  2
*D10
 70
     1
 10
0.0
 20
0.0
 30
0.0
  3
*D10
  1

  0
LINE
  5
3238
330
7B8
100
AcDbEntity
  8
SUNPOU
100
AcDbLine
 10
100.648700034012
 20
142.2398590533781
 30
0.0
 11
74.81073969406875
 21
142.2398590533781
 31
0.0
  0
LINE
  5
3239
330
7B8
100
AcDbEntity
  8
SUNPOU
100
AcDbLine
 10
100.648700034012
 20
522.2398590533781
 30
0.0
 11
74.81073969406882
 21
522.2398590533781
 31
0.0
  0
LINE
  5
323A
330
7B8
100
AcDbEntity
  8
SUNPOU
100
AcDbLine
 10
76.81073969406874
 20
147.2398590533781
 30
0.0
 11
76.81073969406881
 21
517.2398590533781
 31
0.0
  0
INSERT
  5
323B
330
7B8
100
AcDbEntity
  8
SUNPOU
100
AcDbBlockReference
  2
_OPEN30
 10
76.81073969406874
 20
142.2398590533781
 30
0.0
 41
5.0
 42
5.0
 43
5.0
 50
270.0
  0
INSERT
  5
323C
330
7B8
100
AcDbEntity
  8
SUNPOU
100
AcDbBlockReference
  2
_OPEN30
 10
76.81073969406881
 20
522.2398590533781
 30
0.0
 41
5.0
 42
5.0
 43
5.0
 50
90.0
  0
MTEXT
  5
323D
330
7B8
100
AcDbEntity
  8
SUNPOU
 62
     6
100
AcDbMText
 10
72.3107396940687
 20
332.2398590533781
 30
0.0
 40
5.0
 41
0.0
 71
     5
 72
     1
  1
\A1;380
  7
SUNPOU
 11
0.0000000000000001
 21
1.0
 31
0.0
1001
ACAD
1000
MTEXTBEGIN
1070
    73
1070
     1
1070
    44
1040
1.0
1070
    74
1070
     0
1000
MTEXTEND
1000
MTEXTBEGIN
1070
    73
1070
     1
1070
    44
1040
1.0
1070
    74
1070
     0
1000
MTEXTEND
  0
POINT
  5
323E
330
7B8
100
AcDbEntity
  8
DEFPOINTS
 62
     0
100
AcDbPoint
 10
103.6487000340119
 20
142.2398590533781
 30
0.0
  0
POINT
  5
323F
330
7B8
100
AcDbEntity
  8
DEFPOINTS
 62
     0
100
AcDbPoint
 10
103.6487000340119
 20
522.2398590533781
 30
0.0
  0
POINT
  5
3240
330
7B8
100
AcDbEntity
  8
DEFPOINTS
 62
     0
100
AcDbPoint
 10
76.81073969406881
 20
522.2398590533781
 30
0.0
  0
ENDBLK
  5
7C3
330
7B8
100
AcDbEntity
  8
0
100
AcDbBlockEnd
  0
BLOCK
  5
7CF
330
7C5
100
AcDbEntity
  8
0
100
AcDbBlockBegin
  2
*D11
 70
     1
 10
0.0
 20
0.0
 30
0.0
  3
*D11
  1

  0
LINE
  5
3241
330
7C5
100
AcDbEntity
  8
SUNPOU
100
AcDbLine
 10
178.7487000340119
 20
327.2398590533781
 30
0.0
 11
86.36881334845966
 21
327.2398590533781
 31
0.0
  0
LINE
  5
3242
330
7C5
100
AcDbEntity
  8
SUNPOU
100
AcDbLine
 10
136.7487000340119
 20
207.2398590533781
 30
0.0
 11
86.36881334845964
 21
207.2398590533781
 31
0.0
  0
LINE
  5
3243
330
7C5
100
AcDbEntity
  8
SUNPOU
100
AcDbLine
 10
88.36881334845967
 20
322.2398590533781
 30
0.0
 11
88.36881334845964
 21
212.239859053378
 31
0.0
  0
INSERT
  5
3244
330
7C5
100
AcDbEntity
  8
SUNPOU
100
AcDbBlockReference
  2
_OPEN30
 10
88.36881334845967
 20
327.2398590533781
 30
0.0
 41
5.0
 42
5.0
 43
5.0
 50
90.0
  0
INSERT
  5
3245
330
7C5
100
AcDbEntity
  8
SUNPOU
100
AcDbBlockReference
  2
_OPEN30
 10
88.36881334845964
 20
207.2398590533781
 30
0.0
 41
5.0
 42
5.0
 43
5.0
 50
270.0
  0
MTEXT
  5
3246
330
7C5
100
AcDbEntity
  8
SUNPOU
 62
     6
100
AcDbMText
 10
83.86881334845961
 20
267.239859053378
 30
0.0
 40
5.0
 41
0.0
 71
     5
 72
     1
  1
\A1;120
  7
SUNPOU
 11
0.0000000000000001
 21
1.0
 31
0.0
1001
ACAD
1000
MTEXTBEGIN
1070
    73
1070
     1
1070
    44
1040
1.0
1070
    74
1070
     0
1000
MTEXTEND
1000
MTEXTBEGIN
1070
    73
1070
     1
1070
    44
1040
1.0
1070
    74
1070
     0
1000
MTEXTEND
  0
POINT
  5
3247
330
7C5
100
AcDbEntity
  8
DEFPOINTS
 62
     0
100
AcDbPoint
 10
181.7487000340119
 20
327.2398590533781
 30
0.0
  0
POINT
  5
3248
330
7C5
100
AcDbEntity
  8
DEFPOINTS
 62
     0
100
AcDbPoint
 10
139.7487000340119
 20
207.2398590533781
 30
0.0
  0
POINT
  5
3249
330
7C5
100
AcDbEntity
  8
DEFPOINTS
 62
     0
100
AcDbPoint
 10
88.36881334845964
 20
207.2398590533781
 30
0.0
  0
ENDBLK
  5
7D0
330
7C5
100
AcDbEntity
  8
0
100
AcDbBlockEnd
  0
BLOCK
  5
7DC
330
7D2
100
AcDbEntity
  8
0
100
AcDbBlockBegin
  2
*D12
 70
     1
 10
0.0
 20
0.0
 30
0.0
  3
*D12
  1

  0
LINE
  5
324A
330
7D2
100
AcDbEntity
  8
SUNPOU
100
AcDbLine
 10
136.7487000340119
 20
207.2398590533781
 30
0.0
 11
86.36881334845964
 21
207.2398590533781
 31
0.0
  0
LINE
  5
324B
330
7D2
100
AcDbEntity
  8
SUNPOU
100
AcDbLine
 10
100.648700034012
 20
142.2398590533781
 30
0.0
 11
86.36881334845963
 21
142.2398590533781
 31
0.0
  0
LINE
  5
324C
330
7D2
100
AcDbEntity
  8
SUNPOU
100
AcDbLine
 10
88.36881334845964
 20
202.239859053378
 30
0.0
 11
88.36881334845962
 21
147.2398590533781
 31
0.0
  0
INSERT
  5
324D
330
7D2
100
AcDbEntity
  8
SUNPOU
100
AcDbBlockReference
  2
_OPEN30
 10
88.36881334845964
 20
207.2398590533781
 30
0.0
 41
5.0
 42
5.0
 43
5.0
 50
90.0
  0
INSERT
  5
324E
330
7D2
100
AcDbEntity
  8
SUNPOU
100
AcDbBlockReference
  2
_OPEN30
 10
88.36881334845962
 20
142.2398590533781
 30
0.0
 41
5.0
 42
5.0
 43
5.0
 50
270.0
  0
MTEXT
  5
324F
330
7D2
100
AcDbEntity
  8
SUNPOU
 62
     6
100
AcDbMText
 10
83.86881334845961
 20
174.739859053378
 30
0.0
 40
5.0
 41
0.0
 71
     5
 72
     1
  1
\A1;65
  7
SUNPOU
 11
0.0000000000000001
 21
1.0
 31
0.0
1001
ACAD
1000
MTEXTBEGIN
1070
    73
1070
     1
1070
    44
1040
1.0
1070
    74
1070
     0
1000
MTEXTEND
1000
MTEXTBEGIN
1070
    73
1070
     1
1070
    44
1040
1.0
1070
    74
1070
     0
1000
MTEXTEND
  0
POINT
  5
3250
330
7D2
100
AcDbEntity
  8
DEFPOINTS
 62
     0
100
AcDbPoint
 10
139.7487000340119
 20
207.2398590533781
 30
0.0
  0
POINT
  5
3251
330
7D2
100
AcDbEntity
  8
DEFPOINTS
 62
     0
100
AcDbPoint
 10
103.6487000340119
 20
142.2398590533781
 30
0.0
  0
POINT
  5
3252
330
7D2
100
AcDbEntity
  8
DEFPOINTS
 62
     0
100
AcDbPoint
 10
88.36881334845962
 20
142.2398590533781
 30
0.0
  0
ENDBLK
  5
7DD
330
7D2
100
AcDbEntity
  8
0
100
AcDbBlockEnd
  0
BLOCK
  5
7E9
330
7DF
100
AcDbEntity
  8
0
100
AcDbBlockBegin
  2
*D13
 70
     1
 10
0.0
 20
0.0
 30
0.0
  3
*D13
  1

  0
LINE
  5
33E8
330
7DF
100
AcDbEntity
  8
SUNPOU
100
AcDbLine
 10
140.9955447071688
 20
247.2398590533781
 30
0.0
 11
125.3135415102044
 21
247.2398590533781
 31
0.0
  0
LINE
  5
33E9
330
7DF
100
AcDbEntity
  8
SUNPOU
100
AcDbLine
 10
124.3135415102043
 20
207.2398590533781
 30
0.0
 11
125.3135415102043
 21
207.2398590533781
 31
0.0
  0
LINE
  5
33EA
330
7DF
100
AcDbEntity
  8
SUNPOU
100
AcDbLine
 10
127.3135415102044
 20
242.239859053378
 30
0.0
 11
127.3135415102043
 21
212.239859053378
 31
0.0
  0
INSERT
  5
33EB
330
7DF
100
AcDbEntity
  8
SUNPOU
100
AcDbBlockReference
  2
_OPEN30
 10
127.3135415102044
 20
247.2398590533781
 30
0.0
 41
5.0
 42
5.0
 43
5.0
 50
90.0
  0
INSERT
  5
33EC
330
7DF
100
AcDbEntity
  8
SUNPOU
100
AcDbBlockReference
  2
_OPEN30
 10
127.3135415102043
 20
207.2398590533781
 30
0.0
 41
5.0
 42
5.0
 43
5.0
 50
270.0
  0
MTEXT
  5
33ED
330
7DF
100
AcDbEntity
  8
SUNPOU
 62
     6
100
AcDbMText
 10
122.8135415102043
 20
227.239859053378
 30
0.0
 40
5.0
 41
0.0
 71
     5
 72
     1
  1
\A1;40
  7
SUNPOU
 11
0.0000000000000001
 21
1.0
 31
0.0
1001
ACAD
1000
MTEXTBEGIN
1070
    73
1070
     1
1070
    44
1040
1.0
1070
    74
1070
     0
1000
MTEXTEND
1000
MTEXTBEGIN
1070
    73
1070
     1
1070
    44
1040
1.0
1070
    74
1070
     0
1000
MTEXTEND
  0
POINT
  5
33EE
330
7DF
100
AcDbEntity
  8
DEFPOINTS
 62
     0
100
AcDbPoint
 10
143.9955447071688
 20
247.2398590533781
 30
0.0
  0
POINT
  5
33EF
330
7DF
100
AcDbEntity
  8
DEFPOINTS
 62
     0
100
AcDbPoint
 10
127.3135415102043
 20
207.2398590533781
 30
0.0
  0
POINT
  5
33F0
330
7DF
100
AcDbEntity
  8
DEFPOINTS
 62
     0
100
AcDbPoint
 10
127.3135415102043
 20
207.2398590533781
 30
0.0
  0
ENDBLK
  5
7EA
330
7DF
100
AcDbEntity
  8
0
100
AcDbBlockEnd
  0
BLOCK
  5
7F6
330
7EC
100
AcDbEntity
  8
0
100
AcDbBlockBegin
  2
*D14
 70
     1
 10
0.0
 20
0.0
 30
0.0
  3
*D14
  1

  0
LINE
  5
340C
330
7EC
100
AcDbEntity
  8
SUNPOU
100
AcDbLine
 10
153.148700034012
 20
259.3395398160609
 30
0.0
 11
153.148700034012
 21
278.7218411981135
 31
0.0
  0
LINE
  5
340D
330
7EC
100
AcDbEntity
  8
SUNPOU
100
AcDbLine
 10
180.1487000340121
 20
253.2398590533781
 30
0.0
 11
180.1487000340121
 21
278.7218411981135
 31
0.0
  0
LINE
  5
340E
330
7EC
100
AcDbEntity
  8
SUNPOU
100
AcDbLine
 10
158.148700034012
 20
276.7218411981135
 30
0.0
 11
175.1487000340121
 21
276.7218411981135
 31
0.0
  0
MTEXT
  5
340F
330
7EC
100
AcDbEntity
  8
SUNPOU
 62
     6
100
AcDbMText
 10
172.5703548492034
 20
282.0668144055374
 30
0.0
 40
5.0
 41
0.0
 71
     5
 72
     1
  1
\A1;27
  7
SUNPOU
1001
ACAD
1000
MTEXTBEGIN
1070
    73
1070
     1
1070
    44
1040
1.0
1070
    74
1070
     0
1000
MTEXTEND
1000
MTEXTBEGIN
1070
    73
1070
     1
1070
    44
1040
1.0
1070
    74
1070
     0
1000
MTEXTEND
  0
INSERT
  5
3410
330
7EC
100
AcDbEntity
  8
SUNPOU
100
AcDbBlockReference
  2
_OPEN30
 10
153.148700034012
 20
276.7218411981135
 30
0.0
 41
5.0
 42
5.0
 43
5.0
 50
180.0
  0
INSERT
  5
3411
330
7EC
100
AcDbEntity
  8
SUNPOU
100
AcDbBlockReference
  2
_OPEN30
 10
180.1487000340121
 20
276.7218411981135
 30
0.0
 41
5.0
 42
5.0
 43
5.0
  0
POINT
  5
3412
330
7EC
100
AcDbEntity
  8
DEFPOINTS
 62
     0
100
AcDbPoint
 10
153.148700034012
 20
256.339539816061
 30
0.0
  0
POINT
  5
3413
330
7EC
100
AcDbEntity
  8
DEFPOINTS
 62
     0
100
AcDbPoint
 10
180.1487000340121
 20
250.239859053378
 30
0.0
  0
POINT
  5
3414
330
7EC
100
AcDbEntity
  8
DEFPOINTS
 62
     0
100
AcDbPoint
 10
180.1487000340121
 20
276.7218411981135
 30
0.0
  0
ENDBLK
  5
7F7
330
7EC
100
AcDbEntity
  8
0
100
AcDbBlockEnd
  0
BLOCK
  5
803
330
7F9
100
AcDbEntity
  8
0
100
AcDbBlockBegin
  2
*D15
 70
     1
 10
0.0
 20
0.0
 30
0.0
  3
*D15
  1

  0
LINE
  5
33DF
330
7F9
100
AcDbEntity
  8
SUNPOU
100
AcDbLine
 10
156.148700034012
 20
297.2398590533781
 30
0.0
 11
125.3135415102043
 21
297.2398590533781
 31
0.0
  0
LINE
  5
33E0
330
7F9
100
AcDbEntity
  8
SUNPOU
100
AcDbLine
 10
124.3135415102043
 20
327.2398590533781
 30
0.0
 11
125.3135415102043
 21
327.2398590533781
 31
0.0
  0
LINE
  5
33E1
330
7F9
100
AcDbEntity
  8
SUNPOU
100
AcDbLine
 10
127.3135415102043
 20
302.2398590533781
 30
0.0
 11
127.3135415102043
 21
322.2398590533781
 31
0.0
  0
INSERT
  5
33E2
330
7F9
100
AcDbEntity
  8
SUNPOU
100
AcDbBlockReference
  2
_OPEN30
 10
127.3135415102043
 20
297.2398590533781
 30
0.0
 41
5.0
 42
5.0
 43
5.0
 50
270.0
  0
INSERT
  5
33E3
330
7F9
100
AcDbEntity
  8
SUNPOU
100
AcDbBlockReference
  2
_OPEN30
 10
127.3135415102043
 20
327.2398590533781
 30
0.0
 41
5.0
 42
5.0
 43
5.0
 50
90.0
  0
MTEXT
  5
33E4
330
7F9
100
AcDbEntity
  8
SUNPOU
 62
     6
100
AcDbMText
 10
122.8135415102043
 20
312.2398590533781
 30
0.0
 40
5.0
 41
0.0
 71
     5
 72
     1
  1
\A1;30
  7
SUNPOU
 11
0.0000000000000001
 21
1.0
 31
0.0
1001
ACAD
1000
MTEXTBEGIN
1070
    73
1070
     1
1070
    44
1040
1.0
1070
    74
1070
     0
1000
MTEXTEND
1000
MTEXTBEGIN
1070
    73
1070
     1
1070
    44
1040
1.0
1070
    74
1070
     0
1000
MTEXTEND
  0
POINT
  5
33E5
330
7F9
100
AcDbEntity
  8
DEFPOINTS
 62
     0
100
AcDbPoint
 10
159.148700034012
 20
297.2398590533781
 30
0.0
  0
POINT
  5
33E6
330
7F9
100
AcDbEntity
  8
DEFPOINTS
 62
     0
100
AcDbPoint
 10
127.3135415102043
 20
327.2398590533781
 30
0.0
  0
POINT
  5
33E7
330
7F9
100
AcDbEntity
  8
DEFPOINTS
 62
     0
100
AcDbPoint
 10
127.3135415102043
 20
327.2398590533781
 30
0.0
  0
ENDBLK
  5
804
330
7F9
100
AcDbEntity
  8
0
100
AcDbBlockEnd
  0
BLOCK
  5
810
330
806
100
AcDbEntity
  8
0
100
AcDbBlockBegin
  2
*D16
 70
     1
 10
0.0
 20
0.0
 30
0.0
  3
*D16
  1

  0
LINE
  5
3434
330
806
100
AcDbEntity
  8
SUNPOU
100
AcDbLine
 10
153.148700034012
 20
377.6284751106853
 30
0.0
 11
153.148700034012
 21
381.7051510555531
 31
0.0
  0
LINE
  5
3435
330
806
100
AcDbEntity
  8
SUNPOU
100
AcDbLine
 10
198.1487000340121
 20
382.7051510555529
 30
0.0
 11
198.1487000340121
 21
381.7051510555531
 31
0.0
  0
LINE
  5
3436
330
806
100
AcDbEntity
  8
SUNPOU
100
AcDbLine
 10
158.148700034012
 20
379.7051510555529
 30
0.0
 11
193.1487000340121
 21
379.7051510555529
 31
0.0
  0
MTEXT
  5
3437
330
806
100
AcDbEntity
  8
SUNPOU
 62
     6
100
AcDbMText
 10
178.6963492314967
 20
385.7398590533782
 30
0.0
 40
5.0
 41
0.0
 71
     5
 72
     1
  1
\A1;45
  7
SUNPOU
1001
ACAD
1000
MTEXTBEGIN
1070
    73
1070
     1
1070
    44
1040
1.0
1070
    74
1070
     0
1000
MTEXTEND
1000
MTEXTBEGIN
1070
    73
1070
     1
1070
    44
1040
1.0
1070
    74
1070
     0
1000
MTEXTEND
  0
INSERT
  5
3438
330
806
100
AcDbEntity
  8
SUNPOU
100
AcDbBlockReference
  2
_OPEN30
 10
153.148700034012
 20
379.7051510555529
 30
0.0
 41
5.0
 42
5.0
 43
5.0
 50
180.0
  0
INSERT
  5
3439
330
806
100
AcDbEntity
  8
SUNPOU
100
AcDbBlockReference
  2
_OPEN30
 10
198.1487000340121
 20
379.7051510555529
 30
0.0
 41
5.0
 42
5.0
 43
5.0
  0
POINT
  5
343A
330
806
100
AcDbEntity
  8
DEFPOINTS
 62
     0
100
AcDbPoint
 10
153.148700034012
 20
374.6284751106853
 30
0.0
  0
POINT
  5
343B
330
806
100
AcDbEntity
  8
DEFPOINTS
 62
     0
100
AcDbPoint
 10
198.1487000340121
 20
379.7051510555529
 30
0.0
  0
POINT
  5
343C
330
806
100
AcDbEntity
  8
DEFPOINTS
 62
     0
100
AcDbPoint
 10
198.1487000340121
 20
379.7051510555529
 30
0.0
  0
ENDBLK
  5
811
330
806
100
AcDbEntity
  8
0
100
AcDbBlockEnd
  0
BLOCK
  5
81D
330
813
100
AcDbEntity
  8
0
100
AcDbBlockBegin
  2
*D17
 70
     1
 10
0.0
 20
0.0
 30
0.0
  3
*D17
  1

  0
LINE
  5
342B
330
813
100
AcDbEntity
  8
SUNPOU
100
AcDbLine
 10
198.1487000340121
 20
377.6284751106853
 30
0.0
 11
198.1487000340121
 21
381.7818270004206
 31
0.0
  0
LINE
  5
342C
330
813
100
AcDbEntity
  8
SUNPOU
100
AcDbLine
 10
225.1487000340121
 20
370.2398590533779
 30
0.0
 11
225.1487000340121
 21
381.7818270004206
 31
0.0
  0
LINE
  5
342D
330
813
100
AcDbEntity
  8
SUNPOU
100
AcDbLine
 10
203.1487000340121
 20
379.7818270004206
 30
0.0
 11
220.1487000340121
 21
379.7818270004206
 31
0.0
  0
MTEXT
  5
342E
330
813
100
AcDbEntity
  8
SUNPOU
 62
     6
100
AcDbMText
 10
214.5622966685903
 20
385.5660669353334
 30
0.0
 40
5.0
 41
0.0
 71
     5
 72
     1
  1
\A1;27
  7
SUNPOU
1001
ACAD
1000
MTEXTBEGIN
1070
    73
1070
     1
1070
    44
1040
1.0
1070
    74
1070
     0
1000
MTEXTEND
1000
MTEXTBEGIN
1070
    73
1070
     1
1070
    44
1040
1.0
1070
    74
1070
     0
1000
MTEXTEND
  0
INSERT
  5
342F
330
813
100
AcDbEntity
  8
SUNPOU
100
AcDbBlockReference
  2
_OPEN30
 10
198.1487000340121
 20
379.7818270004206
 30
0.0
 41
5.0
 42
5.0
 43
5.0
 50
180.0
  0
INSERT
  5
3430
330
813
100
AcDbEntity
  8
SUNPOU
100
AcDbBlockReference
  2
_OPEN30
 10
225.1487000340121
 20
379.7818270004206
 30
0.0
 41
5.0
 42
5.0
 43
5.0
  0
POINT
  5
3431
330
813
100
AcDbEntity
  8
DEFPOINTS
 62
     0
100
AcDbPoint
 10
198.1487000340121
 20
374.6284751106853
 30
0.0
  0
POINT
  5
3432
330
813
100
AcDbEntity
  8
DEFPOINTS
 62
     0
100
AcDbPoint
 10
225.1487000340121
 20
367.2398590533779
 30
0.0
  0
POINT
  5
3433
330
813
100
AcDbEntity
  8
DEFPOINTS
 62
     0
100
AcDbPoint
 10
225.1487000340121
 20
379.7818270004206
 30
0.0
  0
ENDBLK
  5
81E
330
813
100
AcDbEntity
  8
0
100
AcDbBlockEnd
  0
BLOCK
  5
82A
330
820
100
AcDbEntity
  8
0
100
AcDbBlockBegin
  2
*D18
 70
     1
 10
0.0
 20
0.0
 30
0.0
  3
*D18
  1

  0
LINE
  5
3403
330
820
100
AcDbEntity
  8
SUNPOU
100
AcDbLine
 10
153.148700034012
 20
483.3217588070033
 30
0.0
 11
153.148700034012
 21
492.5061448839392
 31
0.0
  0
LINE
  5
3404
330
820
100
AcDbEntity
  8
SUNPOU
100
AcDbLine
 10
167.148700034012
 20
493.5061448839392
 30
0.0
 11
167.148700034012
 21
492.5061448839392
 31
0.0
  0
LINE
  5
3405
330
820
100
AcDbEntity
  8
SUNPOU
100
AcDbLine
 10
158.148700034012
 20
490.5061448839392
 30
0.0
 11
162.148700034012
 21
490.5061448839392
 31
0.0
  0
MTEXT
  5
3406
330
820
100
AcDbEntity
  8
SUNPOU
 62
     6
100
AcDbMText
 10
157.872473615064
 20
497.2886402016889
 30
0.0
 40
5.0
 41
0.0
 71
     5
 72
     1
  1
\A1;14
  7
SUNPOU
1001
ACAD
1000
MTEXTBEGIN
1070
    73
1070
     1
1070
    44
1040
1.0
1070
    74
1070
     0
1000
MTEXTEND
1000
MTEXTBEGIN
1070
    73
1070
     1
1070
    44
1040
1.0
1070
    74
1070
     0
1000
MTEXTEND
  0
INSERT
  5
3407
330
820
100
AcDbEntity
  8
SUNPOU
100
AcDbBlockReference
  2
_OPEN30
 10
153.148700034012
 20
490.5061448839392
 30
0.0
 41
5.0
 42
5.0
 43
5.0
 50
180.0
  0
INSERT
  5
3408
330
820
100
AcDbEntity
  8
SUNPOU
100
AcDbBlockReference
  2
_OPEN30
 10
167.148700034012
 20
490.5061448839392
 30
0.0
 41
5.0
 42
5.0
 43
5.0
  0
POINT
  5
3409
330
820
100
AcDbEntity
  8
DEFPOINTS
 62
     0
100
AcDbPoint
 10
153.148700034012
 20
480.3217588070033
 30
0.0
  0
POINT
  5
340A
330
820
100
AcDbEntity
  8
DEFPOINTS
 62
     0
100
AcDbPoint
 10
167.148700034012
 20
490.5061448839392
 30
0.0
  0
POINT
  5
340B
330
820
100
AcDbEntity
  8
DEFPOINTS
 62
     0
100
AcDbPoint
 10
167.148700034012
 20
490.5061448839392
 30
0.0
  0
ENDBLK
  5
82B
330
820
100
AcDbEntity
  8
0
100
AcDbBlockEnd
  0
BLOCK
  5
837
330
82D
100
AcDbEntity
  8
0
100
AcDbBlockBegin
  2
*D19
 70
     1
 10
0.0
 20
0.0
 30
0.0
  3
*D19
  1

  0
LINE
  5
33FA
330
82D
100
AcDbEntity
  8
SUNPOU
100
AcDbLine
 10
167.148700034012
 20
493.5061448839392
 30
0.0
 11
167.148700034012
 21
492.5061448839392
 31
0.0
  0
LINE
  5
33FB
330
82D
100
AcDbEntity
  8
SUNPOU
100
AcDbLine
 10
332.1487000340121
 20
444.285859053378
 30
0.0
 11
332.1487000340121
 21
492.5061448839392
 31
0.0
  0
LINE
  5
33FC
330
82D
100
AcDbEntity
  8
SUNPOU
100
AcDbLine
 10
172.1487000340121
 20
490.5061448839392
 30
0.0
 11
327.1487000340121
 21
490.5061448839392
 31
0.0
  0
INSERT
  5
33FD
330
82D
100
AcDbEntity
  8
SUNPOU
100
AcDbBlockReference
  2
_OPEN30
 10
167.148700034012
 20
490.5061448839392
 30
0.0
 41
5.0
 42
5.0
 43
5.0
 50
180.0
  0
INSERT
  5
33FE
330
82D
100
AcDbEntity
  8
SUNPOU
100
AcDbBlockReference
  2
_OPEN30
 10
332.1487000340121
 20
490.5061448839392
 30
0.0
 41
5.0
 42
5.0
 43
5.0
  0
MTEXT
  5
33FF
330
82D
100
AcDbEntity
  8
SUNPOU
 62
     6
100
AcDbMText
 10
249.648700034012
 20
495.0061448839392
 30
0.0
 40
5.0
 41
0.0
 71
     5
 72
     1
  1
\A1;165(SOV-400KDC)
  7
SUNPOU
1001
ACAD
1000
MTEXTBEGIN
1070
    73
1070
     1
1070
    44
1040
1.0
1070
    74
1070
     0
1000
MTEXTEND
1000
MTEXTBEGIN
1070
    73
1070
     1
1070
    44
1040
1.0
1070
    74
1070
     0
1000
MTEXTEND
  0
POINT
  5
3400
330
82D
100
AcDbEntity
  8
DEFPOINTS
 62
     0
100
AcDbPoint
 10
167.148700034012
 20
490.5061448839392
 30
0.0
  0
POINT
  5
3401
330
82D
100
AcDbEntity
  8
DEFPOINTS
 62
     0
100
AcDbPoint
 10
332.1487000340121
 20
441.285859053378
 30
0.0
  0
POINT
  5
3402
330
82D
100
AcDbEntity
  8
DEFPOINTS
 62
     0
100
AcDbPoint
 10
332.1487000340121
 20
490.5061448839392
 30
0.0
  0
ENDBLK
  5
838
330
82D
100
AcDbEntity
  8
0
100
AcDbBlockEnd
  0
BLOCK
  5
2D2E
330
2D24
100
AcDbEntity
  8
0
100
AcDbBlockBegin
  2
*D20
 70
     1
 10
0.0
 20
0.0
 30
0.0
  3
*D20
  1

  0
LINE
  5
33F1
330
2D24
100
AcDbEntity
  8
SUNPOU
100
AcDbLine
 10
167.148700034012
 20
476.3084724292157
 30
0.0
 11
167.148700034012
 21
474.6502832545664
 31
0.0
  0
LINE
  5
33F2
330
2D24
100
AcDbEntity
  8
SUNPOU
100
AcDbLine
 10
322.148700034012
 20
429.3508590533781
 30
0.0
 11
322.148700034012
 21
478.6502832545664
 31
0.0
  0
LINE
  5
33F3
330
2D24
100
AcDbEntity
  8
SUNPOU
100
AcDbLine
 10
172.1487000340121
 20
476.6502832545667
 30
0.0
 11
317.1487000340119
 21
476.6502832545667
 31
0.0
  0
INSERT
  5
33F4
330
2D24
100
AcDbEntity
  8
SUNPOU
100
AcDbBlockReference
  2
_OPEN30
 10
167.148700034012
 20
476.6502832545667
 30
0.0
 41
5.0
 42
5.0
 43
5.0
 50
180.0
  0
INSERT
  5
33F5
330
2D24
100
AcDbEntity
  8
SUNPOU
100
AcDbBlockReference
  2
_OPEN30
 10
322.148700034012
 20
476.6502832545667
 30
0.0
 41
5.0
 42
5.0
 43
5.0
  0
MTEXT
  5
33F6
330
2D24
100
AcDbEntity
  8
SUNPOU
 62
     6
100
AcDbMText
 10
244.6487000340119
 20
481.1502832545667
 30
0.0
 40
5.0
 41
0.0
 71
     5
 72
     1
  1
\A1;155(SOV-300KDC)
  7
SUNPOU
1001
ACAD
1000
MTEXTBEGIN
1070
    73
1070
     1
1070
    44
1040
1.0
1070
    74
1070
     0
1000
MTEXTEND
1000
MTEXTBEGIN
1070
    73
1070
     1
1070
    44
1040
1.0
1070
    74
1070
     0
1000
MTEXTEND
  0
POINT
  5
33F7
330
2D24
100
AcDbEntity
  8
DEFPOINTS
 62
     0
100
AcDbPoint
 10
167.148700034012
 20
479.3084724292158
 30
0.0
  0
POINT
  5
33F8
330
2D24
100
AcDbEntity
  8
DEFPOINTS
 62
     0
100
AcDbPoint
 10
322.148700034012
 20
426.3508590533779
 30
0.0
  0
POINT
  5
33F9
330
2D24
100
AcDbEntity
  8
DEFPOINTS
 62
     0
100
AcDbPoint
 10
322.148700034012
 20
476.6502832545667
 30
0.0
  0
ENDBLK
  5
2D2F
330
2D24
100
AcDbEntity
  8
0
100
AcDbBlockEnd
  0
BLOCK
  5
3393
330
3389
100
AcDbEntity
  8
0
100
AcDbBlockBegin
  2
*D21
 70
     1
 10
0.0
 20
0.0
 30
0.0
  3
*D21
  1

  0
LINE
  5
3599
330
3389
100
AcDbEntity
  8
SUNPOU
100
AcDbLine
 10
250.1487000340121
 20
140.739859053378
 30
0.0
 11
250.1487000340121
 21
122.0704255139512
 31
0.0
  0
LINE
  5
359A
330
3389
100
AcDbEntity
  8
SUNPOU
100
AcDbLine
 10
346.1487000340122
 20
140.7398590533779
 30
0.0
 11
346.1487000340122
 21
122.0704255139512
 31
0.0
  0
LINE
  5
359B
330
3389
100
AcDbEntity
  8
SUNPOU
100
AcDbLine
 10
255.1487000340121
 20
124.0704255139511
 30
0.0
 11
341.1487000340121
 21
124.0704255139511
 31
0.0
  0
INSERT
  5
359C
330
3389
100
AcDbEntity
  8
SUNPOU
100
AcDbBlockReference
  2
_OPEN30
 10
250.1487000340121
 20
124.0704255139511
 30
0.0
 41
5.0
 42
5.0
 43
5.0
 50
180.0
  0
INSERT
  5
359D
330
3389
100
AcDbEntity
  8
SUNPOU
100
AcDbBlockReference
  2
_OPEN30
 10
346.1487000340122
 20
124.0704255139511
 30
0.0
 41
5.0
 42
5.0
 43
5.0
  0
MTEXT
  5
359E
330
3389
100
AcDbEntity
  8
SUNPOU
 62
     6
100
AcDbMText
 10
298.1487000340121
 20
128.5704255139511
 30
0.0
 40
5.0
 41
0.0
 71
     5
 72
     1
  1
\A1;96
  7
SUNPOU
1001
ACAD
1000
MTEXTBEGIN
1070
    73
1070
     1
1070
    44
1040
1.0
1070
    74
1070
     0
1000
MTEXTEND
1000
MTEXTBEGIN
1070
    73
1070
     1
1070
    44
1040
1.0
1070
    74
1070
     0
1000
MTEXTEND
  0
POINT
  5
359F
330
3389
100
AcDbEntity
  8
DEFPOINTS
 62
     0
100
AcDbPoint
 10
250.1487000340121
 20
143.739859053378
 30
0.0
  0
POINT
  5
35A0
330
3389
100
AcDbEntity
  8
DEFPOINTS
 62
     0
100
AcDbPoint
 10
346.1487000340122
 20
143.7398590533779
 30
0.0
  0
POINT
  5
35A1
330
3389
100
AcDbEntity
  8
DEFPOINTS
 62
     0
100
AcDbPoint
 10
346.1487000340122
 20
124.0704255139511
 30
0.0
  0
ENDBLK
  5
3394
330
3389
100
AcDbEntity
  8
0
100
AcDbBlockEnd
  0
BLOCK
  5
33A2
330
3396
100
AcDbEntity
  8
0
100
AcDbBlockBegin
  2
*D22
 70
     1
 10
0.0
 20
0.0
 30
0.0
  3
*D22
  1

  0
LINE
  5
358E
330
3396
100
AcDbEntity
  8
SUNPOU
100
AcDbLine
 10
346.1487000340122
 20
140.7398590533779
 30
0.0
 11
346.1487000340122
 21
122.0704255139512
 31
0.0
  0
LINE
  5
358F
330
3396
100
AcDbEntity
  8
SUNPOU
100
AcDbLine
 10
349.1487000340122
 20
138.2535522173907
 30
0.0
 11
349.1487000340122
 21
122.0704255139512
 31
0.0
  0
LINE
  5
3590
330
3396
100
AcDbEntity
  8
SUNPOU
100
AcDbLine
 10
341.1487000340121
 20
124.0704255139511
 30
0.0
 11
336.1487000340121
 21
124.0704255139511
 31
0.0
  0
LINE
  5
3591
330
3396
100
AcDbEntity
  8
SUNPOU
100
AcDbLine
 10
354.1487000340122
 20
124.0704255139511
 30
0.0
 11
359.1487000340122
 21
124.0704255139511
 31
0.0
  0
MTEXT
  5
3592
330
3396
100
AcDbEntity
  8
SUNPOU
 62
     6
100
AcDbMText
 10
344.8453113124291
 20
117.3620557080764
 30
0.0
 40
5.0
 41
0.0
 71
     5
 72
     1
  1
\A1;3
  7
SUNPOU
1001
ACAD
1000
MTEXTBEGIN
1070
    73
1070
     1
1070
    44
1040
1.0
1070
    74
1070
     0
1000
MTEXTEND
1000
MTEXTBEGIN
1070
    73
1070
     1
1070
    44
1040
1.0
1070
    74
1070
     0
1000
MTEXTEND
  0
LINE
  5
3593
330
3396
100
AcDbEntity
  8
SUNPOU
100
AcDbLine
 10
346.1487000340122
 20
124.0704255139511
 30
0.0
 11
349.1487000340122
 21
124.0704255139511
 31
0.0
  0
INSERT
  5
3594
330
3396
100
AcDbEntity
  8
SUNPOU
100
AcDbBlockReference
  2
_OPEN30
 10
346.1487000340122
 20
124.0704255139511
 30
0.0
 41
5.0
 42
5.0
 43
5.0
  0
INSERT
  5
3595
330
3396
100
AcDbEntity
  8
SUNPOU
100
AcDbBlockReference
  2
_OPEN30
 10
349.1487000340122
 20
124.0704255139511
 30
0.0
 41
5.0
 42
5.0
 43
5.0
 50
180.0
  0
POINT
  5
3596
330
3396
100
AcDbEntity
  8
DEFPOINTS
 62
     0
100
AcDbPoint
 10
346.1487000340122
 20
143.7398590533779
 30
0.0
  0
POINT
  5
3597
330
3396
100
AcDbEntity
  8
DEFPOINTS
 62
     0
100
AcDbPoint
 10
349.1487000340122
 20
141.2535522173906
 30
0.0
  0
POINT
  5
3598
330
3396
100
AcDbEntity
  8
DEFPOINTS
 62
     0
100
AcDbPoint
 10
349.1487000340122
 20
124.0704255139511
 30
0.0
  0
ENDBLK
  5
33A3
330
3396
100
AcDbEntity
  8
0
100
AcDbBlockEnd
  0
BLOCK
  5
33B1
330
33A5
100
AcDbEntity
  8
0
100
AcDbBlockBegin
  2
*D23
 70
     1
 10
0.0
 20
0.0
 30
0.0
  3
*D23
  1

  0
LINE
  5
3621
330
33A5
100
AcDbEntity
  8
SUNPOU
100
AcDbLine
 10
105.148700034012
 20
127.0704255139512
 30
0.0
 11
105.148700034012
 21
126.0704255139512
 31
0.0
  0
LINE
  5
3622
330
33A5
100
AcDbEntity
  8
SUNPOU
100
AcDbLine
 10
102.1487000340119
 20
140.739859053378
 30
0.0
 11
102.1487000340119
 21
122.0704255139512
 31
0.0
  0
LINE
  5
3623
330
33A5
100
AcDbEntity
  8
SUNPOU
100
AcDbLine
 10
110.148700034012
 20
124.0704255139511
 30
0.0
 11
115.148700034012
 21
124.0704255139511
 31
0.0
  0
LINE
  5
3624
330
33A5
100
AcDbEntity
  8
SUNPOU
100
AcDbLine
 10
102.1487000340119
 20
124.0704255139511
 30
0.0
 11
97.14870003401205
 21
124.0704255139511
 31
0.0
  0
MTEXT
  5
3625
330
33A5
100
AcDbEntity
  8
SUNPOU
 62
     6
100
AcDbMText
 10
103.4340702697627
 20
117.7850114788677
 30
0.0
 40
5.0
 41
0.0
 71
     5
 72
     1
  1
\A1;3
  7
SUNPOU
1001
ACAD
1000
MTEXTBEGIN
1070
    73
1070
     1
1070
    44
1040
1.0
1070
    74
1070
     0
1000
MTEXTEND
1000
MTEXTBEGIN
1070
    73
1070
     1
1070
    44
1040
1.0
1070
    74
1070
     0
1000
MTEXTEND
  0
LINE
  5
3626
330
33A5
100
AcDbEntity
  8
SUNPOU
100
AcDbLine
 10
105.148700034012
 20
124.0704255139511
 30
0.0
 11
102.1487000340119
 21
124.0704255139511
 31
0.0
  0
INSERT
  5
3627
330
33A5
100
AcDbEntity
  8
SUNPOU
100
AcDbBlockReference
  2
_OPEN30
 10
105.148700034012
 20
124.0704255139511
 30
0.0
 41
5.0
 42
5.0
 43
5.0
 50
180.0
  0
INSERT
  5
3628
330
33A5
100
AcDbEntity
  8
SUNPOU
100
AcDbBlockReference
  2
_DOTSMALL
 10
102.1487000340119
 20
124.0704255139511
 30
0.0
 41
5.0
 42
5.0
 43
5.0
  0
POINT
  5
3629
330
33A5
100
AcDbEntity
  8
DEFPOINTS
 62
     0
100
AcDbPoint
 10
105.148700034012
 20
124.0704255139511
 30
0.0
  0
POINT
  5
362A
330
33A5
100
AcDbEntity
  8
DEFPOINTS
 62
     0
100
AcDbPoint
 10
102.1487000340119
 20
143.739859053378
 30
0.0
  0
POINT
  5
362B
330
33A5
100
AcDbEntity
  8
DEFPOINTS
 62
     0
100
AcDbPoint
 10
102.1487000340119
 20
124.0704255139511
 30
0.0
  0
ENDBLK
  5
33B2
330
33A5
100
AcDbEntity
  8
0
100
AcDbBlockEnd
  0
BLOCK
  5
33C0
330
33B4
100
AcDbEntity
  8
0
100
AcDbBlockBegin
  2
*D24
 70
     1
 10
0.0
 20
0.0
 30
0.0
  3
*D24
  1

  0
LINE
  5
362C
330
33B4
100
AcDbEntity
  8
SUNPOU
100
AcDbLine
 10
102.1487000340119
 20
140.739859053378
 30
0.0
 11
102.1487000340119
 21
122.0704255139512
 31
0.0
  0
LINE
  5
362D
330
33B4
100
AcDbEntity
  8
SUNPOU
100
AcDbLine
 10
99.14870003401212
 20
127.0704255139512
 30
0.0
 11
99.14870003401212
 21
126.0704255139512
 31
0.0
  0
LINE
  5
362E
330
33B4
100
AcDbEntity
  8
SUNPOU
100
AcDbLine
 10
102.1487000340119
 20
124.0704255139511
 30
0.0
 11
107.148700034012
 21
124.0704255139511
 31
0.0
  0
LINE
  5
362F
330
33B4
100
AcDbEntity
  8
SUNPOU
100
AcDbLine
 10
94.1487000340121
 20
124.0704255139511
 30
0.0
 11
89.1487000340121
 21
124.0704255139511
 31
0.0
  0
MTEXT
  5
3630
330
33B4
100
AcDbEntity
  8
SUNPOU
 62
     6
100
AcDbMText
 10
91.652950428027
 20
128.2655966259329
 30
0.0
 40
5.0
 41
0.0
 71
     5
 72
     1
  1
\A1;3
  7
SUNPOU
1001
ACAD
1000
MTEXTBEGIN
1070
    73
1070
     1
1070
    44
1040
1.0
1070
    74
1070
     0
1000
MTEXTEND
1000
MTEXTBEGIN
1070
    73
1070
     1
1070
    44
1040
1.0
1070
    74
1070
     0
1000
MTEXTEND
  0
LINE
  5
3631
330
33B4
100
AcDbEntity
  8
SUNPOU
100
AcDbLine
 10
102.1487000340119
 20
124.0704255139511
 30
0.0
 11
99.14870003401212
 21
124.0704255139511
 31
0.0
  0
INSERT
  5
3632
330
33B4
100
AcDbEntity
  8
SUNPOU
100
AcDbBlockReference
  2
_DOTSMALL
 10
102.1487000340119
 20
124.0704255139511
 30
0.0
 41
5.0
 42
5.0
 43
5.0
 50
180.0
  0
INSERT
  5
3633
330
33B4
100
AcDbEntity
  8
SUNPOU
100
AcDbBlockReference
  2
_OPEN30
 10
99.14870003401212
 20
124.0704255139511
 30
0.0
 41
5.0
 42
5.0
 43
5.0
  0
POINT
  5
3634
330
33B4
100
AcDbEntity
  8
DEFPOINTS
 62
     0
100
AcDbPoint
 10
102.1487000340119
 20
143.739859053378
 30
0.0
  0
POINT
  5
3635
330
33B4
100
AcDbEntity
  8
DEFPOINTS
 62
     0
100
AcDbPoint
 10
99.14870003401212
 20
124.0704255139511
 30
0.0
  0
POINT
  5
3636
330
33B4
100
AcDbEntity
  8
DEFPOINTS
 62
     0
100
AcDbPoint
 10
99.14870003401212
 20
124.0704255139511
 30
0.0
  0
ENDBLK
  5
33C1
330
33B4
100
AcDbEntity
  8
0
100
AcDbBlockEnd
  0
BLOCK
  5
343F
330
343D
100
AcDbEntity
  8
0
100
AcDbBlockBegin
  2
_DOTSMALL
 70
     0
 10
0.0
 20
0.0
 30
0.0
  3
_DOTSMALL
  1

  0
POLYLINE
  5
343E
330
343D
100
AcDbEntity
  8
0
  6
BYBLOCK
 62
     0
100
AcDb2dPolyline
 66
     1
 10
0.0
 20
0.0
 30
0.0
 70
     1
 40
0.5
 41
0.5
  0
VERTEX
  5
36BE
330
343E
100
AcDbEntity
  8
0
  6
BYBLOCK
 62
     0
100
AcDbVertex
100
AcDb2dVertex
 10
-0.0625
 20
0.0
 30
0.0
 42
1.0
  0
VERTEX
  5
36BF
330
343E
100
AcDbEntity
  8
0
  6
BYBLOCK
 62
     0
100
AcDbVertex
100
AcDb2dVertex
 10
0.0625
 20
0.0
 30
0.0
 42
1.0
  0
SEQEND
  5
36C0
330
343E
100
AcDbEntity
  8
0
  6
BYBLOCK
 62
     0
  0
ENDBLK
  5
3440
330
343D
100
AcDbEntity
  8
0
100
AcDbBlockEnd
  0
BLOCK
  5
34F0
330
34E6
100
AcDbEntity
  8
0
100
AcDbBlockBegin
  2
*D26
 70
     1
 10
0.0
 20
0.0
 30
0.0
  3
*D26
  1

  0
LINE
  5
3585
330
34E6
100
AcDbEntity
  8
SUNPOU
100
AcDbLine
 10
337.6281756423058
 20
453.2398590533779
 30
0.0
 11
386.6245431905312
 21
453.2398590533779
 31
0.0
  0
LINE
  5
3586
330
34E6
100
AcDbEntity
  8
SUNPOU
100
AcDbLine
 10
337.6281756423058
 20
173.2398590533781
 30
0.0
 11
386.6245431905311
 21
173.2398590533781
 31
0.0
  0
LINE
  5
3587
330
34E6
100
AcDbEntity
  8
SUNPOU
100
AcDbLine
 10
384.6245431905313
 20
448.2398590533779
 30
0.0
 11
384.6245431905313
 21
178.239859053378
 31
0.0
  0
INSERT
  5
3588
330
34E6
100
AcDbEntity
  8
SUNPOU
100
AcDbBlockReference
  2
_OPEN30
 10
384.6245431905313
 20
453.2398590533779
 30
0.0
 41
5.0
 42
5.0
 43
5.0
 50
90.0
  0
INSERT
  5
3589
330
34E6
100
AcDbEntity
  8
SUNPOU
100
AcDbBlockReference
  2
_OPEN30
 10
384.6245431905313
 20
173.2398590533781
 30
0.0
 41
5.0
 42
5.0
 43
5.0
 50
270.0
  0
MTEXT
  5
358A
330
34E6
100
AcDbEntity
  8
SUNPOU
 62
     6
100
AcDbMText
 10
380.1245431905311
 20
313.2398590533781
 30
0.0
 40
5.0
 41
0.0
 71
     5
 72
     1
  1
\A1;280(SOV-300KDC)
  7
SUNPOU
 11
0.0000000000000001
 21
1.0
 31
0.0
1001
ACAD
1000
MTEXTBEGIN
1070
    73
1070
     1
1070
    44
1040
1.0
1070
    74
1070
     0
1000
MTEXTEND
1000
MTEXTBEGIN
1070
    73
1070
     1
1070
    44
1040
1.0
1070
    74
1070
     0
1000
MTEXTEND
  0
POINT
  5
358B
330
34E6
100
AcDbEntity
  8
DEFPOINTS
 62
     0
100
AcDbPoint
 10
334.6281756423058
 20
453.2398590533779
 30
0.0
  0
POINT
  5
358C
330
34E6
100
AcDbEntity
  8
DEFPOINTS
 62
     0
100
AcDbPoint
 10
334.6281756423058
 20
173.2398590533781
 30
0.0
  0
POINT
  5
358D
330
34E6
100
AcDbEntity
  8
DEFPOINTS
 62
     0
100
AcDbPoint
 10
384.6245431905313
 20
173.2398590533781
 30
0.0
  0
ENDBLK
  5
34F1
330
34E6
100
AcDbEntity
  8
0
100
AcDbBlockEnd
  0
BLOCK
  5
34FE
330
34F4
100
AcDbEntity
  8
0
100
AcDbBlockBegin
  2
*D27
 70
     1
 10
0.0
 20
0.0
 30
0.0
  3
*D27
  1

  0
LINE
  5
357C
330
34F4
100
AcDbEntity
  8
SUNPOU
100
AcDbLine
 10
337.6281756423058
 20
469.2398590533778
 30
0.0
 11
402.3409004093318
 21
469.2398590533778
 31
0.0
  0
LINE
  5
357D
330
34F4
100
AcDbEntity
  8
SUNPOU
100
AcDbLine
 10
337.6281756423058
 20
169.2398590533779
 30
0.0
 11
402.3409004093318
 21
169.2398590533779
 31
0.0
  0
LINE
  5
357E
330
34F4
100
AcDbEntity
  8
SUNPOU
100
AcDbLine
 10
400.3409004093319
 20
464.2398590533778
 30
0.0
 11
400.3409004093319
 21
174.2398590533779
 31
0.0
  0
INSERT
  5
357F
330
34F4
100
AcDbEntity
  8
SUNPOU
100
AcDbBlockReference
  2
_OPEN30
 10
400.3409004093319
 20
469.2398590533778
 30
0.0
 41
5.0
 42
5.0
 43
5.0
 50
90.0
  0
INSERT
  5
3580
330
34F4
100
AcDbEntity
  8
SUNPOU
100
AcDbBlockReference
  2
_OPEN30
 10
400.3409004093319
 20
169.2398590533779
 30
0.0
 41
5.0
 42
5.0
 43
5.0
 50
270.0
  0
MTEXT
  5
3581
330
34F4
100
AcDbEntity
  8
SUNPOU
 62
     6
100
AcDbMText
 10
395.8409004093318
 20
319.2398590533779
 30
0.0
 40
5.0
 41
0.0
 71
     5
 72
     1
  1
\A1;300(SOV-400KDC)
  7
SUNPOU
 11
0.0000000000000001
 21
1.0
 31
0.0
1001
ACAD
1000
MTEXTBEGIN
1070
    73
1070
     1
1070
    44
1040
1.0
1070
    74
1070
     0
1000
MTEXTEND
1000
MTEXTBEGIN
1070
    73
1070
     1
1070
    44
1040
1.0
1070
    74
1070
     0
1000
MTEXTEND
  0
POINT
  5
3582
330
34F4
100
AcDbEntity
  8
DEFPOINTS
 62
     0
100
AcDbPoint
 10
334.6281756423058
 20
469.2398590533778
 30
0.0
  0
POINT
  5
3583
330
34F4
100
AcDbEntity
  8
DEFPOINTS
 62
     0
100
AcDbPoint
 10
334.6281756423058
 20
169.2398590533779
 30
0.0
  0
POINT
  5
3584
330
34F4
100
AcDbEntity
  8
DEFPOINTS
 62
     0
100
AcDbPoint
 10
400.3409004093319
 20
169.2398590533779
 30
0.0
  0
ENDBLK
  5
34FF
330
34F4
100
AcDbEntity
  8
0
100
AcDbBlockEnd
  0
ENDSEC
  0
SECTION
  2
ENTITIES
  0
ARC
  5
48
330
A
100
AcDbEntity
  8
03
100
AcDbCircle
 10
103.648700034012
 20
143.739859053378
 30
0.0
 40
1.5
100
AcDbArc
 50
179.9999999999999
 51
270.0
  0
ARC
  5
4A
330
A
100
AcDbEntity
  8
03
100
AcDbCircle
 10
251.648700034012
 20
143.739859053378
 30
0.0
 40
1.5
100
AcDbArc
 50
179.9999999999995
 51
270.0
  0
ARC
  5
4B
330
A
100
AcDbEntity
  8
03
100
AcDbCircle
 10
344.6487000340121
 20
143.7398590533779
 30
0.0
 40
1.5
100
AcDbArc
 50
270.0
 51
359.9999999999998
  0
ARC
  5
4D
330
A
100
AcDbEntity
  8
03
100
AcDbCircle
 10
344.6487000340122
 20
492.739859053378
 30
0.0
 40
1.5
100
AcDbArc
 50
359.9999999999998
 51
89.99999999999978
  0
ARC
  5
4F
330
A
100
AcDbEntity
  8
03
100
AcDbCircle
 10
344.648700034012
 20
520.739859053378
 30
0.0
 40
1.5
100
AcDbArc
 50
359.9999999999998
 51
89.99999999999978
  0
ARC
  5
51
330
A
100
AcDbEntity
  8
02
100
AcDbCircle
 10
147.148700034012
 20
502.7398590533779
 30
0.0
 40
6.0
100
AcDbArc
 50
359.9999999999998
 51
89.99999999999978
  0
ARC
  5
52
330
A
100
AcDbEntity
  8
02
100
AcDbCircle
 10
147.1487000340118
 20
169.2398590533781
 30
0.0
 40
6.0
100
AcDbArc
 50
270.0
 51
359.9999999999998
  0
ARC
  5
55
330
A
100
AcDbEntity
  8
02
100
AcDbCircle
 10
159.148700034012
 20
303.2398590533781
 30
0.0
 40
6.0
100
AcDbArc
 50
179.9999999999999
 51
270.0
  0
ARC
  5
56
330
A
100
AcDbEntity
  8
02
100
AcDbCircle
 10
192.1487000340121
 20
303.2398590533781
 30
0.0
 40
6.0
100
AcDbArc
 50
270.0
 51
359.9999999999998
  0
ARC
  5
58
330
A
100
AcDbEntity
  8
02
100
AcDbCircle
 10
192.1487000340121
 20
502.7398590533779
 30
0.0
 40
6.0
100
AcDbArc
 50
359.9999999999998
 51
89.99999999999978
  0
ARC
  5
5D
330
A
100
AcDbEntity
  8
03
100
AcDbCircle
 10
103.648700034012
 20
520.7398590533781
 30
0.0
 40
1.5
100
AcDbArc
 50
89.99999999999996
 51
179.9999999999999
  0
ARC
  5
60
330
A
100
AcDbEntity
  8
03
100
AcDbCircle
 10
344.6487000340121
 20
498.7398590533781
 30
0.0
 40
1.5
100
AcDbArc
 50
270.0
 51
0.0000000000001908
  0
ARC
  5
64
330
A
100
AcDbEntity
  8
03
100
AcDbCircle
 10
331.1487000340121
 20
497.2398590533781
 30
0.0
 40
1.5
100
AcDbArc
 50
89.99999999999978
 51
179.9999999999995
  0
ARC
  5
75
330
A
100
AcDbEntity
  8
03
100
AcDbCircle
 10
153.648700034012
 20
143.739859053378
 30
0.0
 40
1.5
100
AcDbArc
 50
270.0
 51
0.0
  0
ARC
  5
78
330
A
100
AcDbEntity
  8
03
100
AcDbCircle
 10
105.148700034012
 20
155.7398590533781
 30
0.0
 40
1.5
100
AcDbArc
 50
89.99999999999996
 51
179.9999999999998
  0
ARC
  5
7A
330
A
100
AcDbEntity
  8
02
100
AcDbCircle
 10
149.1487000340119
 20
158.7398590533781
 30
0.0
 40
4.5
100
AcDbArc
 50
359.9999999999998
 51
89.99999999999978
  0
ARC
  5
7C
330
A
100
AcDbEntity
  8
02
100
AcDbCircle
 10
116.148700034012
 20
169.739859053378
 30
0.0
 40
6.5
100
AcDbArc
 50
179.9999999999995
 51
270.0
  0
ARC
  5
7E
330
A
100
AcDbEntity
  8
02
100
AcDbCircle
 10
105.148700034012
 20
202.739859053378
 30
0.0
 40
4.5
100
AcDbArc
 50
359.9999999999998
 51
89.99999999999978
  0
ARC
  5
84
330
A
100
AcDbEntity
  8
02
100
AcDbCircle
 10
105.148700034012
 20
475.2398590533778
 30
0.0
 40
4.5
100
AcDbArc
 50
270.0
 51
359.9999999999998
  0
ARC
  5
86
330
A
100
AcDbEntity
  8
02
100
AcDbCircle
 10
116.148700034012
 20
508.2398590533781
 30
0.0
 40
6.5
100
AcDbArc
 50
89.99999999999978
 51
179.9999999999995
  0
ARC
  5
88
330
A
100
AcDbEntity
  8
02
100
AcDbCircle
 10
149.148700034012
 20
519.239859053378
 30
0.0
 40
4.5
100
AcDbArc
 50
270.0
 51
359.9999999999998
  0
ARC
  5
93
330
A
100
AcDbEntity
  8
02
100
AcDbCircle
 10
326.648700034012
 20
483.7398590533781
 30
0.0
 40
3.0
100
AcDbArc
 50
179.9999999999995
 51
270.0
  0
ARC
  5
95
330
A
100
AcDbEntity
  8
02
100
AcDbCircle
 10
319.1487000340121
 20
510.239859053378
 30
0.0
 40
4.5
100
AcDbArc
 50
359.9999999999998
 51
89.99999999999978
  0
ARC
  5
97
330
A
100
AcDbEntity
  8
02
100
AcDbCircle
 10
292.6487000340118
 20
517.739859053378
 30
0.0
 40
3.0
100
AcDbArc
 50
179.9999999999995
 51
270.0
  0
ARC
  5
FB
330
A
100
AcDbEntity
  8
03
100
AcDbCircle
 10
152.148700034012
 20
155.7398590533781
 30
0.0
 40
1.5
100
AcDbArc
 50
0.0
 51
89.99999999999996
  0
CIRCLE
  5
100
330
A
100
AcDbEntity
  8
03
100
AcDbCircle
 10
349.1487000340121
 20
495.7398590533781
 30
0.0
 40
2.0
  0
ARC
  5
121
330
A
100
AcDbEntity
  8
04
100
AcDbCircle
 10
154.1487000340119
 20
184.2398590533781
 30
0.0
 40
1.0
100
AcDbArc
 50
179.9999997943197
 51
269.9999996914799
  0
ARC
  5
123
330
A
100
AcDbEntity
  8
04
100
AcDbCircle
 10
154.148700034012
 20
216.2398590533781
 30
0.0
 40
1.0
100
AcDbArc
 50
89.99999989715989
 51
179.9999997943197
  0
ARC
  5
125
330
A
100
AcDbEntity
  8
04
100
AcDbCircle
 10
158.148700034012
 20
216.2398590533781
 30
0.0
 40
1.0
100
AcDbArc
 50
359.9999999999998
 51
89.99999989715989
  0
ARC
  5
127
330
A
100
AcDbEntity
  8
04
100
AcDbCircle
 10
165.148700034012
 20
195.239859053378
 30
0.0
 40
6.0
100
AcDbArc
 50
179.9999997943197
 51
269.9999996914799
  0
ARC
  5
146
330
A
100
AcDbEntity
  8
04
100
AcDbCircle
 10
220.6487000340121
 20
211.2398590533779
 30
0.0
 40
3.0
100
AcDbArc
 50
29.99999999999987
 51
149.9999999999997
  0
ARC
  5
149
330
A
100
AcDbEntity
  8
04
100
AcDbCircle
 10
220.6487000340121
 20
277.239859053378
 30
0.0
 40
3.0
100
AcDbArc
 50
209.9999999999995
 51
329.9999999999998
  0
CIRCLE
  5
14C
330
A
100
AcDbEntity
  8
04
100
AcDbCircle
 10
220.6487000340121
 20
275.7398590533781
 30
0.0
 40
1.5
  0
CIRCLE
  5
14D
330
A
100
AcDbEntity
  8
04
100
AcDbCircle
 10
220.6487000340121
 20
212.7398590533779
 30
0.0
 40
1.5
  0
ARC
  5
14F
330
A
100
AcDbEntity
  8
04
100
AcDbCircle
 10
176.1487000340121
 20
196.2398590533781
 30
0.0
 40
1.0
100
AcDbArc
 50
89.99999989715989
 51
179.9999997943197
  0
ARC
  5
150
330
A
100
AcDbEntity
  8
04
100
AcDbCircle
 10
184.1487000340121
 20
196.2398590533781
 30
0.0
 40
1.0
100
AcDbArc
 50
359.9999999999998
 51
89.99999989715989
  0
ARC
  5
152
330
A
100
AcDbEntity
  8
04
100
AcDbCircle
 10
184.1487000340121
 20
193.2398590533781
 30
0.0
 40
1.0
100
AcDbArc
 50
269.9999996914799
 51
359.9999995886402
  0
ARC
  5
154
330
A
100
AcDbEntity
  8
04
100
AcDbCircle
 10
182.1487000340121
 20
191.2398590533781
 30
0.0
 40
1.0
100
AcDbArc
 50
89.99999989715989
 51
179.9999997943197
  0
ARC
  5
156
330
A
100
AcDbEntity
  8
04
100
AcDbCircle
 10
182.148700034012
 20
188.2398590533781
 30
0.0
 40
1.0
100
AcDbArc
 50
179.9999997943197
 51
269.9999996914799
  0
ARC
  5
158
330
A
100
AcDbEntity
  8
04
100
AcDbCircle
 10
184.1487000340119
 20
186.2398590533779
 30
0.0
 40
1.0
100
AcDbArc
 50
359.9999999999998
 51
89.99999989715989
  0
ARC
  5
15A
330
A
100
AcDbEntity
  8
04
100
AcDbCircle
 10
184.1487000340119
 20
184.2398590533781
 30
0.0
 40
1.0
100
AcDbArc
 50
269.9999996914799
 51
359.9999995886402
  0
ARC
  5
15B
330
A
100
AcDbEntity
  8
04
100
AcDbCircle
 10
172.1487000340121
 20
192.2398590533781
 30
0.0
 40
3.0
100
AcDbArc
 50
269.9999996914799
 51
359.9999995886402
  0
ARC
  5
15F
330
A
100
AcDbEntity
  8
04
100
AcDbCircle
 10
168.648700034012
 20
264.2398590533781
 30
0.0
 40
3.0
100
AcDbArc
 50
179.9999999999995
 51
270.0
  0
ARC
  5
161
330
A
100
AcDbEntity
  8
04
100
AcDbCircle
 10
196.1487000340119
 20
256.7398590533779
 30
0.0
 40
4.5
100
AcDbArc
 50
359.9999999999998
 51
89.99999999999978
  0
ARC
  5
163
330
A
100
AcDbEntity
  8
04
100
AcDbCircle
 10
203.648700034012
 20
229.239859053378
 30
0.0
 40
3.0
100
AcDbArc
 50
179.9999999999995
 51
270.0
  0
ARC
  5
179
330
A
100
AcDbEntity
  8
04
100
AcDbCircle
 10
192.6487000340119
 20
165.239859053378
 30
0.0
 40
4.0
100
AcDbArc
 50
269.9999996914799
 51
359.9999995886402
  0
ARC
  5
1C2
330
A
100
AcDbEntity
  8
04
100
AcDbCircle
 10
221.1487000340121
 20
316.2398590533779
 30
0.0
 40
1.0
100
AcDbArc
 50
89.99999989715989
 51
179.9999997943197
  0
ARC
  5
1C3
330
A
100
AcDbEntity
  8
04
100
AcDbCircle
 10
229.1487000340121
 20
316.2398590533779
 30
0.0
 40
1.0
100
AcDbArc
 50
359.9999999999998
 51
89.99999989715989
  0
ARC
  5
1C5
330
A
100
AcDbEntity
  8
04
100
AcDbCircle
 10
229.1487000340121
 20
313.2398590533779
 30
0.0
 40
1.0
100
AcDbArc
 50
269.9999996914799
 51
359.9999995886402
  0
ARC
  5
1C7
330
A
100
AcDbEntity
  8
04
100
AcDbCircle
 10
227.1487000340121
 20
311.2398590533779
 30
0.0
 40
1.0
100
AcDbArc
 50
89.99999989715989
 51
179.9999997943197
  0
ARC
  5
1C9
330
A
100
AcDbEntity
  8
04
100
AcDbCircle
 10
227.1487000340121
 20
308.239859053378
 30
0.0
 40
1.0
100
AcDbArc
 50
179.9999997943197
 51
269.9999996914799
  0
ARC
  5
1CB
330
A
100
AcDbEntity
  8
04
100
AcDbCircle
 10
229.1487000340121
 20
306.239859053378
 30
0.0
 40
1.0
100
AcDbArc
 50
359.9999999999998
 51
89.99999989715989
  0
ARC
  5
1CD
330
A
100
AcDbEntity
  8
04
100
AcDbCircle
 10
229.1487000340121
 20
304.239859053378
 30
0.0
 40
1.0
100
AcDbArc
 50
269.9999996914799
 51
359.9999995886402
  0
ARC
  5
1CF
330
A
100
AcDbEntity
  8
04
100
AcDbCircle
 10
199.1487000340119
 20
304.2398590533781
 30
0.0
 40
1.0
100
AcDbArc
 50
179.9999997943197
 51
269.9999996914799
  0
ARC
  5
1D1
330
A
100
AcDbEntity
  8
04
100
AcDbCircle
 10
199.1487000340121
 20
336.2398590533781
 30
0.0
 40
1.0
100
AcDbArc
 50
89.99999989715989
 51
179.9999997943197
  0
ARC
  5
1D3
330
A
100
AcDbEntity
  8
04
100
AcDbCircle
 10
203.1487000340121
 20
336.2398590533781
 30
0.0
 40
1.0
100
AcDbArc
 50
359.9999999999998
 51
89.99999989715989
  0
ARC
  5
1D5
330
A
100
AcDbEntity
  8
04
100
AcDbCircle
 10
210.148700034012
 20
315.2398590533781
 30
0.0
 40
6.0
100
AcDbArc
 50
179.9999997943197
 51
269.9999996914799
  0
ARC
  5
1D7
330
A
100
AcDbEntity
  8
04
100
AcDbCircle
 10
217.1487000340121
 20
312.2398590533781
 30
0.0
 40
3.0
100
AcDbArc
 50
269.9999996914799
 51
359.9999995886402
  0
ARC
  5
203
330
A
100
AcDbEntity
  8
04
100
AcDbCircle
 10
237.6487000340121
 20
165.2398590533779
 30
0.0
 40
4.0
100
AcDbArc
 50
269.9999996914799
 51
359.9999995886402
  0
ARC
  5
273
330
A
100
AcDbEntity
  8
04
100
AcDbCircle
 10
238.6487000340121
 20
298.7398590533779
 30
0.0
 40
3.0
100
AcDbArc
 50
270.0
 51
359.9999999999998
  0
ARC
  5
30D
330
A
100
AcDbEntity
  8
KAKURE
100
AcDbCircle
 10
153.148700034012
 20
286.7398590533781
 30
0.0
 40
4.5
100
AcDbArc
 50
89.99999999999989
 51
179.9999999999995
  0
ARC
  5
32A
330
A
100
AcDbEntity
  8
04
100
AcDbCircle
 10
214.148700034012
 20
286.7398590533779
 30
0.0
 40
4.5
100
AcDbArc
 50
359.9999999999998
 51
89.99999999999978
  0
ARC
  5
34C
330
A
100
AcDbEntity
  8
SOUZOU
100
AcDbCircle
 10
161.148700034012
 20
508.7398590533781
 30
0.0
 40
6.0
100
AcDbArc
 50
359.9999999999998
 51
89.99999999999978
  0
ARC
  5
398
330
A
100
AcDbEntity
  8
SOUZOU
100
AcDbCircle
 10
161.148700034012
 20
169.2398590533781
 30
0.0
 40
6.0
100
AcDbArc
 50
270.0
 51
0.0
  0
LINE
  5
3A7
330
A
100
AcDbEntity
  8
SOUZOU
100
AcDbLine
 10
161.148700034012
 20
163.2398590533781
 30
0.0
 11
147.1487000340118
 21
163.2398590533781
 31
0.0
  0
LINE
  5
3A8
330
A
100
AcDbEntity
  8
SOUZOU
100
AcDbLine
 10
161.148700034012
 20
169.2398590533781
 30
0.0
 11
147.148700034012
 21
169.2398590533781
 31
0.0
  0
LINE
  5
3C5
330
A
100
AcDbEntity
  8
06
100
AcDbLine
 10
281.1487000340118
 20
212.2398590533779
 30
0.0
 11
277.6804133884009
 21
223.2398590533779
 31
0.0
  0
LINE
  5
3C6
330
A
100
AcDbEntity
  8
06
100
AcDbLine
 10
265.1487000340118
 20
212.2398590533779
 30
0.0
 11
281.1487000340118
 21
212.2398590533779
 31
0.0
  0
LINE
  5
3C7
330
A
100
AcDbEntity
  8
06
100
AcDbLine
 10
268.6169866796229
 20
223.2398590533779
 30
0.0
 11
265.1487000340118
 21
212.2398590533779
 31
0.0
  0
LINE
  5
3C8
330
A
100
AcDbEntity
  8
06
100
AcDbLine
 10
277.6804133884009
 20
223.2398590533779
 30
0.0
 11
268.6169866796229
 21
223.2398590533779
 31
0.0
  0
LINE
  5
3D9
330
A
100
AcDbEntity
  8
06
100
AcDbLine
 10
281.148700034012
 20
302.239859053378
 30
0.0
 11
277.6804133884009
 21
291.2398590533781
 31
0.0
  0
LINE
  5
3DA
330
A
100
AcDbEntity
  8
06
100
AcDbLine
 10
265.1487000340119
 20
302.239859053378
 30
0.0
 11
281.148700034012
 21
302.239859053378
 31
0.0
  0
LINE
  5
3DB
330
A
100
AcDbEntity
  8
06
100
AcDbLine
 10
268.6169866796229
 20
291.2398590533781
 30
0.0
 11
265.1487000340119
 21
302.239859053378
 31
0.0
  0
LINE
  5
3DC
330
A
100
AcDbEntity
  8
06
100
AcDbLine
 10
277.6804133884009
 20
291.2398590533781
 30
0.0
 11
268.6169866796229
 21
291.2398590533781
 31
0.0
  0
LINE
  5
3DD
330
A
100
AcDbEntity
  8
SOUZOU
100
AcDbLine
 10
161.148700034012
 20
508.7398590533781
 30
0.0
 11
161.148700034012
 21
304.2398590533781
 31
0.0
  0
LINE
  5
3F2
330
A
100
AcDbEntity
  8
SOUZOU
100
AcDbLine
 10
167.148700034012
 20
508.7398590533781
 30
0.0
 11
167.148700034012
 21
362.482174383774
 31
0.0
  0
LINE
  5
3F3
330
A
100
AcDbEntity
  8
CHUSIN
100
AcDbLine
 10
273.1487000340119
 20
307.2398590533781
 30
0.0
 11
273.1487000340119
 21
207.2398590533779
 31
0.0
  0
LINE
  5
3F4
330
A
100
AcDbEntity
  8
CHUSIN
100
AcDbLine
 10
307.2558792027805
 20
257.2398590533779
 30
0.0
 11
184.3413074304961
 21
257.2398590533781
 31
0.0
  0
LINE
  5
3F6
330
A
100
AcDbEntity
  8
04
100
AcDbLine
 10
161.148700034012
 20
239.5398590056943
 30
0.0
 11
159.148700034012
 21
239.5398590056943
 31
0.0
  0
LINE
  5
3F7
330
A
100
AcDbEntity
  8
04
100
AcDbLine
 10
159.148700034012
 20
254.9398598163175
 30
0.0
 11
161.148700034012
 21
254.9398598163175
 31
0.0
  0
LINE
  5
3FA
330
A
100
AcDbEntity
  8
04
100
AcDbLine
 10
166.648700034012
 20
240.9398591010618
 30
0.0
 11
166.648700034012
 21
253.5398582904385
 31
0.0
  0
LINE
  5
3FB
330
A
100
AcDbEntity
  8
04
100
AcDbLine
 10
165.9486992710726
 20
239.7298590629147
 30
0.0
 11
166.648700034012
 21
240.9398591010618
 31
0.0
  0
LINE
  5
3FC
330
A
100
AcDbEntity
  8
04
100
AcDbLine
 10
165.9486992710726
 20
254.7498592822599
 30
0.0
 11
166.648700034012
 21
253.5398582904385
 31
0.0
  0
LINE
  5
3FD
330
A
100
AcDbEntity
  8
04
100
AcDbLine
 10
161.148700034012
 20
239.7298590629147
 30
0.0
 11
165.9486992710726
 21
239.7298590629147
 31
0.0
  0
LINE
  5
3FE
330
A
100
AcDbEntity
  8
04
100
AcDbLine
 10
161.148700034012
 20
254.7498592822599
 30
0.0
 11
165.9486992710726
 21
254.7498592822599
 31
0.0
  0
LINE
  5
400
330
A
100
AcDbEntity
  8
04
100
AcDbLine
 10
153.148700034012
 20
272.2398590533781
 30
0.0
 11
159.148700034012
 21
272.2398590533781
 31
0.0
  0
LINE
  5
401
330
A
100
AcDbEntity
  8
04
100
AcDbLine
 10
159.1487000340119
 20
222.2398590533781
 30
0.0
 11
153.148700034012
 21
222.2398590533781
 31
0.0
  0
LINE
  5
404
330
A
100
AcDbEntity
  8
04
100
AcDbLine
 10
232.1487000340121
 20
276.3398594348476
 30
0.0
 11
232.1487000340121
 21
286.1398605792568
 31
0.0
  0
LINE
  5
405
330
A
100
AcDbEntity
  8
04
100
AcDbLine
 10
231.8022873753207
 20
275.7398590533779
 30
0.0
 11
232.1487000340121
 21
276.3398594348476
 31
0.0
  0
LINE
  5
406
330
A
100
AcDbEntity
  8
04
100
AcDbLine
 10
231.6443817967074
 20
287.0133575885341
 30
0.0
 11
232.1487000340121
 21
286.1398605792568
 31
0.0
  0
LINE
  5
407
330
A
100
AcDbEntity
  8
04
100
AcDbLine
 10
227.1487000340121
 20
287.0133575885343
 30
0.0
 11
231.6443817967074
 21
287.0133575885341
 31
0.0
  0
LINE
  5
409
330
A
100
AcDbEntity
  8
04
100
AcDbLine
 10
159.148700034012
 20
272.2398590533781
 30
0.0
 11
159.1487000340119
 21
222.2398590533781
 31
0.0
  0
LINE
  5
40A
330
A
100
AcDbEntity
  8
04
100
AcDbLine
 10
214.148700034012
 20
286.7398590533779
 30
0.0
 11
153.148700034012
 21
286.7398590533781
 31
0.0
  0
LINE
  5
40B
330
A
100
AcDbEntity
  8
04
100
AcDbLine
 10
214.148700034012
 20
282.4981893025756
 30
0.0
 11
214.148700034012
 21
286.7398590533779
 31
0.0
  0
LINE
  5
40C
330
A
100
AcDbEntity
  8
04
100
AcDbLine
 10
218.6487000340121
 20
286.7398590533779
 30
0.0
 11
218.6487000340121
 21
275.0037910758782
 31
0.0
  0
LINE
  5
40D
330
A
100
AcDbEntity
  8
04
100
AcDbLine
 10
153.148700034012
 20
291.2398590533781
 30
0.0
 11
214.148700034012
 21
291.2398590533779
 31
0.0
  0
LINE
  5
410
330
A
100
AcDbEntity
  8
04
100
AcDbLine
 10
232.1487000340121
 20
265.3398594348476
 30
0.0
 11
232.1487000340121
 21
275.1398586719082
 31
0.0
  0
LINE
  5
411
330
A
100
AcDbEntity
  8
04
100
AcDbLine
 10
231.6443817967074
 20
264.4663586108729
 30
0.0
 11
232.1487000340121
 21
265.3398594348476
 31
0.0
  0
LINE
  5
412
330
A
100
AcDbEntity
  8
04
100
AcDbLine
 10
231.6443817967074
 20
276.0133594958828
 30
0.0
 11
232.1487000340121
 21
275.1398586719082
 31
0.0
  0
LINE
  5
413
330
A
100
AcDbEntity
  8
04
100
AcDbLine
 10
230.648700034012
 20
264.4663586108729
 30
0.0
 11
231.6443817967074
 21
264.4663586108729
 31
0.0
  0
LINE
  5
414
330
A
100
AcDbEntity
  8
04
100
AcDbLine
 10
230.648700034012
 20
276.0133594958828
 30
0.0
 11
231.6443817967074
 21
276.0133594958828
 31
0.0
  0
LINE
  5
415
330
A
100
AcDbEntity
  8
04
100
AcDbLine
 10
222.648700034012
 20
289.2398590533779
 30
0.0
 11
222.648700034012
 21
275.0037910758782
 31
0.0
  0
LINE
  5
416
330
A
100
AcDbEntity
  8
04
100
AcDbLine
 10
227.1487000340121
 20
289.2398590533779
 30
0.0
 11
222.648700034012
 21
289.2398590533779
 31
0.0
  0
LINE
  5
417
330
A
100
AcDbEntity
  8
04
100
AcDbLine
 10
227.1487000340121
 20
282.4981893025756
 30
0.0
 11
227.1487000340121
 21
289.2398590533779
 31
0.0
  0
LINE
  5
419
330
A
100
AcDbEntity
  8
04
100
AcDbLine
 10
218.6487000340121
 20
284.2398590533779
 30
0.0
 11
222.648700034012
 21
284.2398590533779
 31
0.0
  0
LINE
  5
41B
330
A
100
AcDbEntity
  8
04
100
AcDbLine
 10
218.6487000340121
 20
278.2398590533779
 30
0.0
 11
222.648700034012
 21
278.2398590533779
 31
0.0
  0
LINE
  5
41C
330
A
100
AcDbEntity
  8
CHUSIN
 48
0.3
100
AcDbLine
 10
168.252620101388
 20
247.2398590533779
 30
0.0
 11
143.9955447071688
 21
247.2398590533781
 31
0.0
  0
LINE
  5
421
330
A
100
AcDbEntity
  8
KAKURE
100
AcDbLine
 10
148.648700034012
 20
232.2398590533781
 30
0.0
 11
153.148700034012
 21
232.2398590533781
 31
0.0
  0
LINE
  5
422
330
A
100
AcDbEntity
  8
KAKURE
100
AcDbLine
 10
148.648700034012
 20
286.7398590533781
 30
0.0
 11
148.648700034012
 21
232.2398590533781
 31
0.0
  0
LINE
  5
432
330
A
100
AcDbEntity
  8
CHUSIN
 48
0.3
100
AcDbLine
 10
349.1487000340122
 20
490.7398590533779
 30
0.0
 11
349.1487000340122
 21
500.739859053378
 31
0.0
  0
LINE
  5
433
330
A
100
AcDbEntity
  8
CHUSIN
 48
0.3
100
AcDbLine
 10
344.1487000340123
 20
495.7398590533779
 30
0.0
 11
354.1487000340122
 21
495.7398590533779
 31
0.0
  0
LINE
  5
4D4
330
A
100
AcDbEntity
  8
CHUSIN
100
AcDbLine
 10
225.1487000340121
 20
105.9832754527888
 30
0.0
 11
225.1487000340121
 21
125.1708073560545
 31
0.0
  0
LINE
  5
4D9
330
A
100
AcDbEntity
  8
CHUSIN
100
AcDbLine
 10
212.6087721462665
 20
342.2398590533779
 30
0.0
 11
265.02616132471
 21
342.2398590533779
 31
0.0
  0
LINE
  5
4DA
330
A
100
AcDbEntity
  8
CHUSIN
100
AcDbLine
 10
225.1487000340121
 20
307.2398590533779
 30
0.0
 11
225.1487000340121
 21
379.7818270004206
 31
0.0
  0
LINE
  5
4ED
330
A
100
AcDbEntity
  8
04
100
AcDbLine
 10
229.1487000340121
 20
300.7398590533779
 30
0.0
 11
229.1487000340121
 21
298.7398590533779
 31
0.0
  0
LINE
  5
4EE
330
A
100
AcDbEntity
  8
04
100
AcDbLine
 10
221.1487000340121
 20
300.7398590533779
 30
0.0
 11
229.1487000340121
 21
300.7398590533779
 31
0.0
  0
LINE
  5
4EF
330
A
100
AcDbEntity
  8
04
100
AcDbLine
 10
221.1487000340121
 20
298.7398590533779
 30
0.0
 11
221.1487000340121
 21
300.7398590533779
 31
0.0
  0
LINE
  5
4F0
330
A
100
AcDbEntity
  8
04
100
AcDbLine
 10
238.6487000340121
 20
320.739859053378
 30
0.0
 11
241.6487000340121
 21
320.739859053378
 31
0.0
  0
LINE
  5
4F1
330
A
100
AcDbEntity
  8
04
100
AcDbLine
 10
238.6487000340121
 20
298.7398590533779
 30
0.0
 11
238.6487000340121
 21
320.739859053378
 31
0.0
  0
LINE
  5
4F2
330
A
100
AcDbEntity
  8
04
100
AcDbLine
 10
216.6487000340121
 20
298.7398590533779
 30
0.0
 11
238.6487000340121
 21
298.7398590533779
 31
0.0
  0
LINE
  5
4F3
330
A
100
AcDbEntity
  8
04
100
AcDbLine
 10
216.6487000340121
 20
295.7398590533779
 30
0.0
 11
216.6487000340121
 21
298.7398590533779
 31
0.0
  0
LINE
  5
4F4
330
A
100
AcDbEntity
  8
04
100
AcDbLine
 10
238.6487000340121
 20
295.7398590533779
 30
0.0
 11
216.6487000340121
 21
295.7398590533779
 31
0.0
  0
LINE
  5
4F6
330
A
100
AcDbEntity
  8
04
100
AcDbLine
 10
249.648700034012
 20
330.2398590533779
 30
0.0
 11
247.648700034012
 21
330.2398590533779
 31
0.0
  0
LINE
  5
4F8
330
A
100
AcDbEntity
  8
04
100
AcDbLine
 10
247.648700034012
 20
354.239859053378
 30
0.0
 11
249.648700034012
 21
354.239859053378
 31
0.0
  0
LINE
  5
4FB
330
A
100
AcDbEntity
  8
04
100
AcDbLine
 10
261.6487000340121
 20
333.239859053378
 30
0.0
 11
261.6487000340121
 21
351.2398590533779
 31
0.0
  0
LINE
  5
4FC
330
A
100
AcDbEntity
  8
04
100
AcDbLine
 10
260.5115226065121
 20
331.2702090533779
 30
0.0
 11
261.6487000340121
 21
333.239859053378
 31
0.0
  0
LINE
  5
4FD
330
A
100
AcDbEntity
  8
04
100
AcDbLine
 10
260.5115226065121
 20
353.209509053378
 30
0.0
 11
261.6487000340121
 21
351.2398590533779
 31
0.0
  0
LINE
  5
4FE
330
A
100
AcDbEntity
  8
04
100
AcDbLine
 10
249.648700034012
 20
331.2702090533779
 30
0.0
 11
260.5115226065121
 21
331.2702090533779
 31
0.0
  0
LINE
  5
4FF
330
A
100
AcDbEntity
  8
04
100
AcDbLine
 10
249.648700034012
 20
353.209509053378
 30
0.0
 11
260.5115226065121
 21
353.209509053378
 31
0.0
  0
LINE
  5
505
330
A
100
AcDbEntity
  8
04
100
AcDbLine
 10
230.648700034012
 20
229.7398590533779
 30
0.0
 11
241.6487000340121
 21
229.7398590533779
 31
0.0
  0
LINE
  5
506
330
A
100
AcDbEntity
  8
04
100
AcDbLine
 10
210.148700034012
 20
229.7398590533779
 30
0.0
 11
210.6487000340121
 21
229.7398590533779
 31
0.0
  0
LINE
  5
507
330
A
100
AcDbEntity
  8
04
100
AcDbLine
 10
230.648700034012
 20
232.7398590533779
 30
0.0
 11
241.6487000340121
 21
232.7398590533779
 31
0.0
  0
LINE
  5
508
330
A
100
AcDbEntity
  8
04
100
AcDbLine
 10
236.6487000340121
 20
251.7398590533781
 30
0.0
 11
236.6487000340121
 21
232.7398590533781
 31
0.0
  0
LINE
  5
509
330
A
100
AcDbEntity
  8
04
100
AcDbLine
 10
232.1487000340121
 20
197.7398590533779
 30
0.0
 11
232.1487000340121
 21
229.7398590533779
 31
0.0
  0
LINE
  5
50A
330
A
100
AcDbEntity
  8
04
100
AcDbLine
 10
210.148700034012
 20
197.7398590533779
 30
0.0
 11
232.1487000340121
 21
197.7398590533779
 31
0.0
  0
LINE
  5
50B
330
A
100
AcDbEntity
  8
04
100
AcDbLine
 10
210.148700034012
 20
229.7398590533779
 30
0.0
 11
210.148700034012
 21
197.7398590533779
 31
0.0
  0
LINE
  5
519
330
A
100
AcDbEntity
  8
04
100
AcDbLine
 10
249.1487000340121
 20
358.239859053378
 30
0.0
 11
247.648700034012
 21
358.239859053378
 31
0.0
  0
LINE
  5
51B
330
A
100
AcDbEntity
  8
04
100
AcDbLine
 10
247.648700034012
 20
370.2398590533779
 30
0.0
 11
249.1487000340121
 21
370.2398590533779
 31
0.0
  0
LINE
  5
51E
330
A
100
AcDbEntity
  8
04
100
AcDbLine
 10
254.6487000340121
 20
359.3398590533778
 30
0.0
 11
254.6487000340122
 21
369.139859053378
 31
0.0
  0
LINE
  5
51F
330
A
100
AcDbEntity
  8
04
100
AcDbLine
 10
254.144384809012
 20
358.4663590533779
 30
0.0
 11
254.6487000340121
 21
359.3398590533778
 31
0.0
  0
LINE
  5
520
330
A
100
AcDbEntity
  8
04
100
AcDbLine
 10
254.1443848090121
 20
370.013359053378
 30
0.0
 11
254.6487000340122
 21
369.139859053378
 31
0.0
  0
LINE
  5
521
330
A
100
AcDbEntity
  8
04
100
AcDbLine
 10
249.1487000340121
 20
358.4663590533779
 30
0.0
 11
254.144384809012
 21
358.4663590533779
 31
0.0
  0
LINE
  5
522
330
A
100
AcDbEntity
  8
04
100
AcDbLine
 10
249.1487000340121
 20
370.013359053378
 30
0.0
 11
254.1443848090121
 21
370.013359053378
 31
0.0
  0
LINE
  5
524
330
A
100
AcDbEntity
  8
04
100
AcDbLine
 10
247.648700034012
 20
202.9398598163175
 30
0.0
 11
249.648700034012
 21
202.9398598163175
 31
0.0
  0
LINE
  5
527
330
A
100
AcDbEntity
  8
04
100
AcDbLine
 10
255.1487000340121
 20
188.9398591010618
 30
0.0
 11
255.1487000340121
 21
201.5398582904385
 31
0.0
  0
LINE
  5
528
330
A
100
AcDbEntity
  8
04
100
AcDbLine
 10
255.0329972433333
 20
188.7398587745662
 30
0.0
 11
255.1487000340121
 21
188.9398591010618
 31
0.0
  0
LINE
  5
529
330
A
100
AcDbEntity
  8
04
100
AcDbLine
 10
254.4486992710725
 20
202.7498592822599
 30
0.0
 11
255.1487000340121
 21
201.5398582904385
 31
0.0
  0
LINE
  5
52A
330
A
100
AcDbEntity
  8
04
100
AcDbLine
 10
249.648700034012
 20
202.7498592822599
 30
0.0
 11
254.4486992710725
 21
202.7498592822599
 31
0.0
  0
LINE
  5
52C
330
A
100
AcDbEntity
  8
04
100
AcDbLine
 10
249.648700034012
 20
174.5398590056943
 30
0.0
 11
247.648700034012
 21
174.5398590056943
 31
0.0
  0
LINE
  5
52D
330
A
100
AcDbEntity
  8
04
100
AcDbLine
 10
247.648700034012
 20
189.9398598163174
 30
0.0
 11
249.648700034012
 21
189.9398598163174
 31
0.0
  0
LINE
  5
530
330
A
100
AcDbEntity
  8
04
100
AcDbLine
 10
255.148700034012
 20
175.9398591010618
 30
0.0
 11
255.1487000340121
 21
188.5398582904386
 31
0.0
  0
LINE
  5
531
330
A
100
AcDbEntity
  8
04
100
AcDbLine
 10
254.4486992710725
 20
174.7298590629148
 30
0.0
 11
255.148700034012
 21
175.9398591010618
 31
0.0
  0
LINE
  5
532
330
A
100
AcDbEntity
  8
04
100
AcDbLine
 10
254.4486992710725
 20
189.7498592822599
 30
0.0
 11
255.1487000340121
 21
188.5398582904386
 31
0.0
  0
LINE
  5
533
330
A
100
AcDbEntity
  8
04
100
AcDbLine
 10
249.648700034012
 20
174.7298590629148
 30
0.0
 11
254.4486992710725
 21
174.7298590629148
 31
0.0
  0
LINE
  5
534
330
A
100
AcDbEntity
  8
04
100
AcDbLine
 10
249.648700034012
 20
189.7498592822599
 30
0.0
 11
254.4486992710725
 21
189.7498592822599
 31
0.0
  0
LINE
  5
536
330
A
100
AcDbEntity
  8
04
100
AcDbLine
 10
232.8487000816958
 20
168.8398594348478
 30
0.0
 11
232.8487000816958
 21
166.8398594348478
 31
0.0
  0
LINE
  5
537
330
A
100
AcDbEntity
  8
04
100
AcDbLine
 10
217.4486992710725
 20
166.8398594348479
 30
0.0
 11
217.4486992710725
 21
168.8398594348478
 31
0.0
  0
LINE
  5
538
330
A
100
AcDbEntity
  8
04
100
AcDbLine
 10
233.6487000340121
 20
166.8398594348478
 30
0.0
 11
233.6487000340121
 21
165.239859053378
 31
0.0
  0
LINE
  5
53A
330
A
100
AcDbEntity
  8
04
100
AcDbLine
 10
216.6487000340121
 20
165.239859053378
 30
0.0
 11
216.6487000340121
 21
166.8398594348479
 31
0.0
  0
LINE
  5
53D
330
A
100
AcDbEntity
  8
04
100
AcDbLine
 10
231.4486999863283
 20
174.3398594348477
 30
0.0
 11
218.8487007969514
 21
174.3398594348477
 31
0.0
  0
LINE
  5
53E
330
A
100
AcDbEntity
  8
04
100
AcDbLine
 10
232.6587000244753
 20
173.6398586719084
 30
0.0
 11
231.4486999863283
 21
174.3398594348477
 31
0.0
  0
LINE
  5
53F
330
A
100
AcDbEntity
  8
04
100
AcDbLine
 10
217.6386998051301
 20
173.6398586719084
 30
0.0
 11
218.8487007969514
 21
174.3398594348477
 31
0.0
  0
LINE
  5
540
330
A
100
AcDbEntity
  8
04
100
AcDbLine
 10
232.6587000244753
 20
168.8398594348478
 30
0.0
 11
232.6587000244753
 21
173.6398586719084
 31
0.0
  0
LINE
  5
541
330
A
100
AcDbEntity
  8
04
100
AcDbLine
 10
217.6386998051301
 20
168.8398594348478
 30
0.0
 11
217.6386998051301
 21
173.6398586719084
 31
0.0
  0
LINE
  5
543
330
A
100
AcDbEntity
  8
04
100
AcDbLine
 10
236.6487000340121
 20
251.7398590533781
 30
0.0
 11
241.6487000340121
 21
251.7398590533781
 31
0.0
  0
LINE
  5
544
330
A
100
AcDbEntity
  8
04
100
AcDbLine
 10
241.6487000340121
 20
232.7398590533781
 30
0.0
 11
236.6487000340121
 21
232.7398590533781
 31
0.0
  0
LINE
  5
545
330
A
100
AcDbEntity
  8
04
100
AcDbLine
 10
235.148700034012
 20
331.239859053378
 30
0.0
 11
241.6487000340121
 21
331.239859053378
 31
0.0
  0
LINE
  5
548
330
A
100
AcDbEntity
  8
04
100
AcDbLine
 10
241.6487000340121
 20
353.2398590533779
 30
0.0
 11
235.148700034012
 21
353.2398590533779
 31
0.0
  0
LINE
  5
549
330
A
100
AcDbEntity
  8
04
100
AcDbLine
 10
236.6487000340121
 20
354.7398590533779
 30
0.0
 11
241.6487000340121
 21
354.7398590533779
 31
0.0
  0
LINE
  5
54A
330
A
100
AcDbEntity
  8
04
100
AcDbLine
 10
236.6487000340121
 20
373.7398590533779
 30
0.0
 11
236.6487000340121
 21
354.7398590533779
 31
0.0
  0
LINE
  5
54B
330
A
100
AcDbEntity
  8
04
100
AcDbLine
 10
241.6487000340121
 20
373.7398590533779
 30
0.0
 11
236.6487000340121
 21
373.7398590533779
 31
0.0
  0
LINE
  5
54C
330
A
100
AcDbEntity
  8
04
100
AcDbLine
 10
237.6487000340121
 20
203.2398590533781
 30
0.0
 11
241.6487000340121
 21
203.2398590533781
 31
0.0
  0
LINE
  5
54D
330
A
100
AcDbEntity
  8
04
100
AcDbLine
 10
237.6487000340121
 20
165.239859053378
 30
0.0
 11
237.6487000340121
 21
203.2398590533781
 31
0.0
  0
LINE
  5
54E
330
A
100
AcDbEntity
  8
04
100
AcDbLine
 10
213.6487000340121
 20
165.239859053378
 30
0.0
 11
237.6487000340121
 21
165.239859053378
 31
0.0
  0
LINE
  5
54F
330
A
100
AcDbEntity
  8
04
100
AcDbLine
 10
213.6487000340121
 20
161.239859053378
 30
0.0
 11
213.6487000340121
 21
165.239859053378
 31
0.0
  0
LINE
  5
550
330
A
100
AcDbEntity
  8
04
100
AcDbLine
 10
237.6487000340121
 20
161.239859053378
 30
0.0
 11
213.6487000340121
 21
161.239859053378
 31
0.0
  0
LINE
  5
551
330
A
100
AcDbEntity
  8
04
100
AcDbLine
 10
247.648700034012
 20
373.2398590533779
 30
0.0
 11
241.6487000340121
 21
373.2398590533779
 31
0.0
  0
LINE
  5
552
330
A
100
AcDbEntity
  8
04
100
AcDbLine
 10
247.648700034012
 20
172.2398590533781
 30
0.0
 11
247.648700034012
 21
373.2398590533779
 31
0.0
  0
LINE
  5
553
330
A
100
AcDbEntity
  8
04
100
AcDbLine
 10
241.6487000340121
 20
172.2398590533781
 30
0.0
 11
247.648700034012
 21
172.2398590533781
 31
0.0
  0
LINE
  5
554
330
A
100
AcDbEntity
  8
04
100
AcDbLine
 10
241.6487000340121
 20
373.7398590533779
 30
0.0
 11
241.6487000340121
 21
165.2398590246597
 31
0.0
  0
LINE
  5
556
330
A
100
AcDbEntity
  8
04
100
AcDbLine
 10
235.148700034012
 20
312.239859053378
 30
0.0
 11
231.4887001865999
 21
312.239859053378
 31
0.0
  0
LINE
  5
557
330
A
100
AcDbEntity
  8
04
100
AcDbLine
 10
235.148700034012
 20
372.2398590533779
 30
0.0
 11
235.148700034012
 21
312.239859053378
 31
0.0
  0
LINE
  5
558
330
A
100
AcDbEntity
  8
04
100
AcDbLine
 10
230.1487000340121
 20
317.2398590533779
 30
0.0
 11
231.4887001865999
 21
312.239859053378
 31
0.0
  0
LINE
  5
559
330
A
100
AcDbEntity
  8
04
100
AcDbLine
 10
230.1487000340121
 20
317.2398590533779
 30
0.0
 11
220.1487000340121
 21
317.2398590533779
 31
0.0
  0
LINE
  5
55C
330
A
100
AcDbEntity
  8
04
100
AcDbLine
 10
215.1487000340121
 20
312.2398590533781
 30
0.0
 11
218.8086998814241
 21
312.2398590533781
 31
0.0
  0
LINE
  5
55D
330
A
100
AcDbEntity
  8
04
100
AcDbLine
 10
215.1487000340121
 20
372.2398590533781
 30
0.0
 11
215.1487000340121
 21
312.2398590533781
 31
0.0
  0
LINE
  5
55E
330
A
100
AcDbEntity
  8
04
100
AcDbLine
 10
220.1487000340121
 20
317.2398590533779
 30
0.0
 11
218.8086998814241
 21
312.2398590533781
 31
0.0
  0
LINE
  5
560
330
A
100
AcDbEntity
  8
04
100
AcDbLine
 10
235.148700034012
 20
372.2398590533779
 30
0.0
 11
231.4887001865999
 21
372.2398590533779
 31
0.0
  0
LINE
  5
561
330
A
100
AcDbEntity
  8
04
100
AcDbLine
 10
230.1487000340121
 20
367.2398590533779
 30
0.0
 11
231.4887001865999
 21
372.2398590533779
 31
0.0
  0
LINE
  5
562
330
A
100
AcDbEntity
  8
04
100
AcDbLine
 10
230.1487000340121
 20
367.2398590533779
 30
0.0
 11
220.1487000340121
 21
367.2398590533779
 31
0.0
  0
LINE
  5
563
330
A
100
AcDbEntity
  8
04
100
AcDbLine
 10
215.1487000340121
 20
372.2398590533781
 30
0.0
 11
218.8086998814241
 21
372.2398590533781
 31
0.0
  0
LINE
  5
564
330
A
100
AcDbEntity
  8
04
100
AcDbLine
 10
220.1487000340121
 20
367.2398590533779
 30
0.0
 11
218.8086998814241
 21
372.2398590533781
 31
0.0
  0
LINE
  5
565
330
A
100
AcDbEntity
  8
04
100
AcDbLine
 10
207.7487004154817
 20
319.5398590056943
 30
0.0
 11
205.7487004154817
 21
319.5398590056943
 31
0.0
  0
LINE
  5
566
330
A
100
AcDbEntity
  8
04
100
AcDbLine
 10
205.7487004154817
 20
334.9398598163176
 30
0.0
 11
207.7487004154817
 21
334.9398598163176
 31
0.0
  0
LINE
  5
567
330
A
100
AcDbEntity
  8
04
100
AcDbLine
 10
205.7487004154817
 20
318.7398590533781
 30
0.0
 11
204.1487000340121
 21
318.7398590533781
 31
0.0
  0
LINE
  5
569
330
A
100
AcDbEntity
  8
04
100
AcDbLine
 10
204.1487000340121
 20
335.7398590533781
 30
0.0
 11
205.7487004154817
 21
335.7398590533781
 31
0.0
  0
LINE
  5
572
330
A
100
AcDbEntity
  8
04
100
AcDbLine
 10
213.2487004154818
 20
320.9398591010618
 30
0.0
 11
213.2487004154818
 21
333.5398582904387
 31
0.0
  0
LINE
  5
573
330
A
100
AcDbEntity
  8
04
100
AcDbLine
 10
212.5486996525423
 20
319.7298590629149
 30
0.0
 11
213.2487004154818
 21
320.9398591010618
 31
0.0
  0
LINE
  5
574
330
A
100
AcDbEntity
  8
04
100
AcDbLine
 10
212.5486996525423
 20
334.7498592822598
 30
0.0
 11
213.2487004154818
 21
333.5398582904387
 31
0.0
  0
LINE
  5
575
330
A
100
AcDbEntity
  8
04
100
AcDbLine
 10
207.7487004154817
 20
319.7298590629149
 30
0.0
 11
212.5486996525423
 21
319.7298590629149
 31
0.0
  0
LINE
  5
576
330
A
100
AcDbEntity
  8
04
100
AcDbLine
 10
207.7487004154817
 20
334.7498592822598
 30
0.0
 11
212.5486996525423
 21
334.7498592822598
 31
0.0
  0
LINE
  5
578
330
A
100
AcDbEntity
  8
04
100
AcDbLine
 10
220.1487000340121
 20
312.239859053378
 30
0.0
 11
220.1487000340121
 21
316.2398590533779
 31
0.0
  0
LINE
  5
579
330
A
100
AcDbEntity
  8
04
100
AcDbLine
 10
210.148700034012
 20
309.2398590533781
 30
0.0
 11
217.1487000340121
 21
309.2398590533781
 31
0.0
  0
LINE
  5
57A
330
A
100
AcDbEntity
  8
04
100
AcDbLine
 10
204.1487000340121
 20
336.2398590533781
 30
0.0
 11
204.1487000340121
 21
315.2398590533781
 31
0.0
  0
LINE
  5
57B
330
A
100
AcDbEntity
  8
04
100
AcDbLine
 10
199.1487000340121
 20
337.2398590533781
 30
0.0
 11
203.1487000340121
 21
337.2398590533781
 31
0.0
  0
LINE
  5
57C
330
A
100
AcDbEntity
  8
04
100
AcDbLine
 10
198.1487000340121
 20
304.2398590533781
 30
0.0
 11
198.1487000340121
 21
336.2398590533781
 31
0.0
  0
LINE
  5
57D
330
A
100
AcDbEntity
  8
04
100
AcDbLine
 10
229.1487000340121
 20
303.2398590533779
 30
0.0
 11
199.1487000340121
 21
303.2398590533781
 31
0.0
  0
LINE
  5
57E
330
A
100
AcDbEntity
  8
04
100
AcDbLine
 10
230.1487000340121
 20
306.239859053378
 30
0.0
 11
230.1487000340121
 21
304.239859053378
 31
0.0
  0
LINE
  5
57F
330
A
100
AcDbEntity
  8
04
100
AcDbLine
 10
227.1487000340121
 20
307.2398590533779
 30
0.0
 11
229.1487000340121
 21
307.2398590533779
 31
0.0
  0
LINE
  5
580
330
A
100
AcDbEntity
  8
04
100
AcDbLine
 10
226.1487000340121
 20
311.2398590533779
 30
0.0
 11
226.1487000340121
 21
308.239859053378
 31
0.0
  0
LINE
  5
581
330
A
100
AcDbEntity
  8
04
100
AcDbLine
 10
229.1487000340121
 20
312.239859053378
 30
0.0
 11
227.1487000340121
 21
312.239859053378
 31
0.0
  0
LINE
  5
582
330
A
100
AcDbEntity
  8
04
100
AcDbLine
 10
230.1487000340121
 20
316.2398590533779
 30
0.0
 11
230.1487000340121
 21
313.2398590533779
 31
0.0
  0
LINE
  5
583
330
A
100
AcDbEntity
  8
04
100
AcDbLine
 10
221.1487000340121
 20
317.2398590533779
 30
0.0
 11
229.1487000340121
 21
317.2398590533779
 31
0.0
  0
LINE
  5
584
330
A
100
AcDbEntity
  8
04
100
AcDbLine
 10
231.1487000340121
 20
236.7398590533781
 30
0.0
 11
230.648700034012
 21
236.7398590533781
 31
0.0
  0
LINE
  5
585
330
A
100
AcDbEntity
  8
04
100
AcDbLine
 10
231.1487000340121
 20
251.7398590533781
 30
0.0
 11
231.1487000340121
 21
236.7398590533781
 31
0.0
  0
LINE
  5
586
330
A
100
AcDbEntity
  8
04
100
AcDbLine
 10
231.1487000340121
 20
251.7398590533781
 30
0.0
 11
230.648700034012
 21
251.7398590533781
 31
0.0
  0
LINE
  5
58F
330
A
100
AcDbEntity
  8
04
100
AcDbLine
 10
205.648700034012
 20
233.239859053378
 30
0.0
 11
210.6487000340121
 21
233.239859053378
 31
0.0
  0
LINE
  5
592
330
A
100
AcDbEntity
  8
04
100
AcDbLine
 10
210.6487000340121
 20
255.2398590533779
 30
0.0
 11
205.648700034012
 21
255.2398590533781
 31
0.0
  0
LINE
  5
5B6
330
A
100
AcDbEntity
  8
04
100
AcDbLine
 10
190.1487000340121
 20
211.2398590533781
 30
0.0
 11
196.6487000340121
 21
211.2398590533781
 31
0.0
  0
LINE
  5
5B9
330
A
100
AcDbEntity
  8
04
100
AcDbLine
 10
196.6487000340121
 20
233.239859053378
 30
0.0
 11
190.1487000340121
 21
233.239859053378
 31
0.0
  0
LINE
  5
5BA
330
A
100
AcDbEntity
  8
04
100
AcDbLine
 10
191.6487000340121
 20
234.7398590533781
 30
0.0
 11
196.6487000340121
 21
234.7398590533781
 31
0.0
  0
LINE
  5
5BB
330
A
100
AcDbEntity
  8
04
100
AcDbLine
 10
191.6487000340121
 20
253.7398590533781
 30
0.0
 11
191.6487000340121
 21
234.7398590533781
 31
0.0
  0
LINE
  5
5BC
330
A
100
AcDbEntity
  8
04
100
AcDbLine
 10
196.6487000340121
 20
253.7398590533781
 30
0.0
 11
191.6487000340121
 21
253.7398590533781
 31
0.0
  0
LINE
  5
5BD
330
A
100
AcDbEntity
  8
04
100
AcDbLine
 10
192.6487000340121
 20
203.2398590533781
 30
0.0
 11
196.6487000340121
 21
203.2398590533781
 31
0.0
  0
LINE
  5
5BE
330
A
100
AcDbEntity
  8
04
100
AcDbLine
 10
192.6487000340119
 20
165.239859053378
 30
0.0
 11
192.6487000340121
 21
203.2398590533781
 31
0.0
  0
LINE
  5
5BF
330
A
100
AcDbEntity
  8
04
100
AcDbLine
 10
168.648700034012
 20
165.2398590533781
 30
0.0
 11
192.6487000340119
 21
165.239859053378
 31
0.0
  0
LINE
  5
5C0
330
A
100
AcDbEntity
  8
04
100
AcDbLine
 10
168.648700034012
 20
161.2398590533781
 30
0.0
 11
168.648700034012
 21
165.2398590533781
 31
0.0
  0
LINE
  5
5C1
330
A
100
AcDbEntity
  8
04
100
AcDbLine
 10
192.6487000340119
 20
161.239859053378
 30
0.0
 11
168.648700034012
 21
161.2398590533781
 31
0.0
  0
LINE
  5
5C2
330
A
100
AcDbEntity
  8
04
100
AcDbLine
 10
200.6487000340121
 20
253.2398590533781
 30
0.0
 11
196.6487000340121
 21
253.2398590533781
 31
0.0
  0
LINE
  5
5C3
330
A
100
AcDbEntity
  8
04
100
AcDbLine
 10
200.6487000340118
 20
172.2398590533781
 30
0.0
 11
200.6487000340121
 21
253.2398590533781
 31
0.0
  0
LINE
  5
5C4
330
A
100
AcDbEntity
  8
04
100
AcDbLine
 10
196.6487000340119
 20
172.2398590533781
 30
0.0
 11
200.6487000340118
 21
172.2398590533781
 31
0.0
  0
LINE
  5
5C5
330
A
100
AcDbEntity
  8
04
100
AcDbLine
 10
196.6487000340121
 20
253.7398590533781
 30
0.0
 11
196.6487000340119
 21
165.239859053378
 31
0.0
  0
LINE
  5
5C7
330
A
100
AcDbEntity
  8
04
100
AcDbLine
 10
190.148700034012
 20
192.2398590533781
 30
0.0
 11
186.4887001865998
 21
192.2398590533781
 31
0.0
  0
LINE
  5
5C8
330
A
100
AcDbEntity
  8
04
100
AcDbLine
 10
190.1487000340121
 20
252.239859053378
 30
0.0
 11
190.148700034012
 21
192.2398590533781
 31
0.0
  0
LINE
  5
5C9
330
A
100
AcDbEntity
  8
04
100
AcDbLine
 10
185.1487000340119
 20
197.2398590533781
 30
0.0
 11
186.4887001865998
 21
192.2398590533781
 31
0.0
  0
LINE
  5
5CA
330
A
100
AcDbEntity
  8
04
100
AcDbLine
 10
185.1487000340119
 20
197.2398590533781
 30
0.0
 11
175.1487000340121
 21
197.2398590533781
 31
0.0
  0
LINE
  5
5CD
330
A
100
AcDbEntity
  8
04
100
AcDbLine
 10
170.148700034012
 20
192.2398590533781
 30
0.0
 11
173.8086998814241
 21
192.2398590533781
 31
0.0
  0
LINE
  5
5CE
330
A
100
AcDbEntity
  8
04
100
AcDbLine
 10
170.148700034012
 20
252.239859053378
 30
0.0
 11
170.148700034012
 21
192.2398590533781
 31
0.0
  0
LINE
  5
5CF
330
A
100
AcDbEntity
  8
04
100
AcDbLine
 10
175.1487000340121
 20
197.2398590533781
 30
0.0
 11
173.8086998814241
 21
192.2398590533781
 31
0.0
  0
LINE
  5
5D1
330
A
100
AcDbEntity
  8
04
100
AcDbLine
 10
190.1487000340121
 20
252.239859053378
 30
0.0
 11
186.4887001866
 21
252.239859053378
 31
0.0
  0
LINE
  5
5D2
330
A
100
AcDbEntity
  8
04
100
AcDbLine
 10
185.1487000340121
 20
247.2398590533781
 30
0.0
 11
186.4887001866
 21
252.239859053378
 31
0.0
  0
LINE
  5
5D3
330
A
100
AcDbEntity
  8
04
100
AcDbLine
 10
185.1487000340121
 20
247.2398590533781
 30
0.0
 11
175.1487000340121
 21
247.2398590533781
 31
0.0
  0
LINE
  5
5D4
330
A
100
AcDbEntity
  8
04
100
AcDbLine
 10
170.148700034012
 20
252.239859053378
 30
0.0
 11
173.8086998814242
 21
252.239859053378
 31
0.0
  0
LINE
  5
5D5
330
A
100
AcDbEntity
  8
04
100
AcDbLine
 10
175.1487000340121
 20
247.2398590533781
 30
0.0
 11
173.8086998814242
 21
252.239859053378
 31
0.0
  0
LINE
  5
5D6
330
A
100
AcDbEntity
  8
04
100
AcDbLine
 10
203.648700034012
 20
226.2398590533781
 30
0.0
 11
205.648700034012
 21
226.2398590533781
 31
0.0
  0
LINE
  5
5D7
330
A
100
AcDbEntity
  8
04
100
AcDbLine
 10
200.6487000340121
 20
256.739859053378
 30
0.0
 11
200.6487000340121
 21
229.239859053378
 31
0.0
  0
LINE
  5
5D8
330
A
100
AcDbEntity
  8
04
100
AcDbLine
 10
168.648700034012
 20
261.2398590533781
 30
0.0
 11
196.1487000340119
 21
261.2398590533781
 31
0.0
  0
LINE
  5
5D9
330
A
100
AcDbEntity
  8
04
100
AcDbLine
 10
165.648700034012
 20
266.2398590533781
 30
0.0
 11
165.648700034012
 21
264.2398590533781
 31
0.0
  0
LINE
  5
5DA
330
A
100
AcDbEntity
  8
04
100
AcDbLine
 10
205.648700034012
 20
266.2398590533781
 30
0.0
 11
165.648700034012
 21
266.2398590533781
 31
0.0
  0
LINE
  5
5DB
330
A
100
AcDbEntity
  8
04
100
AcDbLine
 10
175.1487000340121
 20
192.2398590533781
 30
0.0
 11
175.1487000340121
 21
196.2398590533781
 31
0.0
  0
LINE
  5
5DC
330
A
100
AcDbEntity
  8
04
100
AcDbLine
 10
185.1487000340119
 20
186.2398590533779
 30
0.0
 11
185.1487000340119
 21
184.2398590533781
 31
0.0
  0
LINE
  5
5DD
330
A
100
AcDbEntity
  8
04
100
AcDbLine
 10
182.148700034012
 20
187.2398590533779
 30
0.0
 11
184.1487000340119
 21
187.2398590533779
 31
0.0
  0
LINE
  5
5DE
330
A
100
AcDbEntity
  8
04
100
AcDbLine
 10
181.148700034012
 20
191.2398590533781
 30
0.0
 11
181.148700034012
 21
188.2398590533781
 31
0.0
  0
LINE
  5
5DF
330
A
100
AcDbEntity
  8
04
100
AcDbLine
 10
184.1487000340119
 20
192.2398590533781
 30
0.0
 11
182.148700034012
 21
192.2398590533781
 31
0.0
  0
LINE
  5
5E0
330
A
100
AcDbEntity
  8
04
100
AcDbLine
 10
185.1487000340121
 20
196.2398590533781
 30
0.0
 11
185.1487000340121
 21
193.2398590533781
 31
0.0
  0
LINE
  5
5E1
330
A
100
AcDbEntity
  8
04
100
AcDbLine
 10
176.1487000340121
 20
197.2398590533781
 30
0.0
 11
184.1487000340121
 21
197.2398590533781
 31
0.0
  0
LINE
  5
5E2
330
A
100
AcDbEntity
  8
04
100
AcDbLine
 10
218.0506238226586
 20
275.7398590533781
 30
0.0
 11
213.7204968037365
 21
283.2398590533779
 31
0.0
  0
LINE
  5
5E3
330
A
100
AcDbEntity
  8
04
100
AcDbLine
 10
223.2467762453655
 20
275.7398590533781
 30
0.0
 11
227.5769032642876
 21
283.2398590533779
 31
0.0
  0
LINE
  5
5E4
330
A
100
AcDbEntity
  8
04
100
AcDbLine
 10
218.0506238226586
 20
212.7398590533779
 30
0.0
 11
213.7204968037365
 21
205.2398590533781
 31
0.0
  0
LINE
  5
5E5
330
A
100
AcDbEntity
  8
04
100
AcDbLine
 10
223.2467762453655
 20
212.7398590533779
 30
0.0
 11
227.5769032642875
 21
205.2398590533781
 31
0.0
  0
LINE
  5
5E6
330
A
100
AcDbEntity
  8
04
100
AcDbLine
 10
213.7204968037365
 20
205.2398590533781
 30
0.0
 11
210.6487000340121
 21
205.2398590533781
 31
0.0
  0
LINE
  5
5E7
330
A
100
AcDbEntity
  8
04
100
AcDbLine
 10
230.648700034012
 20
205.2398590533781
 30
0.0
 11
227.5769032642875
 21
205.2398590533781
 31
0.0
  0
LINE
  5
5E8
330
A
100
AcDbEntity
  8
04
100
AcDbLine
 10
230.648700034012
 20
283.2398590533781
 30
0.0
 11
230.648700034012
 21
205.2398590533781
 31
0.0
  0
LINE
  5
5E9
330
A
100
AcDbEntity
  8
04
100
AcDbLine
 10
227.5769032642876
 20
283.2398590533781
 30
0.0
 11
230.648700034012
 21
283.2398590533781
 31
0.0
  0
LINE
  5
5EA
330
A
100
AcDbEntity
  8
04
100
AcDbLine
 10
210.6487000340121
 20
283.2398590533781
 30
0.0
 11
213.7204968037365
 21
283.2398590533781
 31
0.0
  0
LINE
  5
5EB
330
A
100
AcDbEntity
  8
04
100
AcDbLine
 10
210.6487000340121
 20
205.2398590533781
 30
0.0
 11
210.6487000340121
 21
283.2398590533781
 31
0.0
  0
LINE
  5
5EC
330
A
100
AcDbEntity
  8
04
100
AcDbLine
 10
205.648700034012
 20
226.2398590533781
 30
0.0
 11
205.648700034012
 21
266.2398590533781
 31
0.0
  0
LINE
  5
5ED
330
A
100
AcDbEntity
  8
04
100
AcDbLine
 10
162.7487004154818
 20
199.5398590056943
 30
0.0
 11
160.7487004154818
 21
199.5398590056943
 31
0.0
  0
LINE
  5
5EE
330
A
100
AcDbEntity
  8
04
100
AcDbLine
 10
160.7487004154818
 20
214.9398598163176
 30
0.0
 11
162.7487004154818
 21
214.9398598163176
 31
0.0
  0
LINE
  5
5EF
330
A
100
AcDbEntity
  8
04
100
AcDbLine
 10
160.7487004154818
 20
198.739859053378
 30
0.0
 11
159.148700034012
 21
198.739859053378
 31
0.0
  0
LINE
  5
5F1
330
A
100
AcDbEntity
  8
04
100
AcDbLine
 10
159.148700034012
 20
215.7398590533781
 30
0.0
 11
160.7487004154818
 21
215.7398590533781
 31
0.0
  0
LINE
  5
5FA
330
A
100
AcDbEntity
  8
04
100
AcDbLine
 10
168.2487004154818
 20
200.9398591010618
 30
0.0
 11
168.2487004154818
 21
213.5398582904386
 31
0.0
  0
LINE
  5
5FB
330
A
100
AcDbEntity
  8
04
100
AcDbLine
 10
167.5486996525423
 20
199.7298590629148
 30
0.0
 11
168.2487004154818
 21
200.9398591010618
 31
0.0
  0
LINE
  5
5FC
330
A
100
AcDbEntity
  8
04
100
AcDbLine
 10
167.5486996525423
 20
214.7498592822599
 30
0.0
 11
168.2487004154818
 21
213.5398582904386
 31
0.0
  0
LINE
  5
5FD
330
A
100
AcDbEntity
  8
04
100
AcDbLine
 10
162.7487004154818
 20
199.7298590629148
 30
0.0
 11
167.5486996525423
 21
199.7298590629148
 31
0.0
  0
LINE
  5
5FE
330
A
100
AcDbEntity
  8
04
100
AcDbLine
 10
162.7487004154818
 20
214.7498592822599
 30
0.0
 11
167.5486996525423
 21
214.7498592822599
 31
0.0
  0
LINE
  5
600
330
A
100
AcDbEntity
  8
04
100
AcDbLine
 10
165.148700034012
 20
189.2398590533781
 30
0.0
 11
172.1487000340121
 21
189.2398590533781
 31
0.0
  0
LINE
  5
601
330
A
100
AcDbEntity
  8
04
100
AcDbLine
 10
159.148700034012
 20
216.2398590533781
 30
0.0
 11
159.148700034012
 21
195.239859053378
 31
0.0
  0
LINE
  5
602
330
A
100
AcDbEntity
  8
04
100
AcDbLine
 10
154.148700034012
 20
217.239859053378
 30
0.0
 11
158.148700034012
 21
217.239859053378
 31
0.0
  0
LINE
  5
603
330
A
100
AcDbEntity
  8
04
100
AcDbLine
 10
153.148700034012
 20
183.2398590533781
 30
0.0
 11
153.148700034012
 21
217.239859053378
 31
0.0
  0
LINE
  5
604
330
A
100
AcDbEntity
  8
04
100
AcDbLine
 10
184.1487000340119
 20
183.2398590533781
 30
0.0
 11
154.1487000340119
 21
183.2398590533781
 31
0.0
  0
LINE
  5
621
330
A
100
AcDbEntity
  8
CHUSIN
100
AcDbLine
 10
180.1487000340119
 20
105.9832754527888
 30
0.0
 11
180.1487000340119
 21
125.1708073560545
 31
0.0
  0
LINE
  5
622
330
A
100
AcDbEntity
  8
CHUSIN
100
AcDbLine
 10
220.6487000340121
 20
288.3356907775801
 30
0.0
 11
220.6487000340121
 21
207.9462479014873
 31
0.0
  0
LINE
  5
623
330
A
100
AcDbEntity
  8
CHUSIN
100
AcDbLine
 10
167.4031879846504
 20
222.2398590533781
 30
0.0
 11
204.4106476658479
 21
222.2398590533781
 31
0.0
  0
LINE
  5
624
330
A
100
AcDbEntity
  8
CHUSIN
100
AcDbLine
 10
180.1487000340119
 20
187.239859053378
 30
0.0
 11
180.1487000340121
 21
250.239859053378
 31
0.0
  0
LINE
  5
626
330
A
100
AcDbEntity
  8
CHUSIN
 48
0.3
100
AcDbLine
 10
224.5835825085546
 20
212.7398590533779
 30
0.0
 11
216.6711791289862
 21
212.7398590533779
 31
0.0
  0
LINE
  5
627
330
A
100
AcDbEntity
  8
CHUSIN
100
AcDbLine
 10
189.6687004917756
 20
244.239859053378
 30
0.0
 11
233.0550946439192
 21
244.2398590533779
 31
0.0
  0
LINE
  5
628
330
A
100
AcDbEntity
  8
CHUSIN
100
AcDbLine
 10
125.0339225882437
 20
207.2398590533781
 30
0.0
 11
172.0707497837113
 21
207.2398590533781
 31
0.0
  0
LINE
  5
629
330
A
100
AcDbEntity
  8
02
100
AcDbLine
 10
117.148700034012
 20
508.7398590533781
 30
0.0
 11
117.148700034012
 21
514.739859053378
 31
0.0
  0
LINE
  5
62A
330
A
100
AcDbEntity
  8
03
100
AcDbLine
 10
105.148700034012
 20
155.7398590533781
 30
0.0
 11
105.148700034012
 21
143.739859053378
 31
0.0
  0
LINE
  5
62B
330
A
100
AcDbEntity
  8
03
100
AcDbLine
 10
152.1487000340119
 20
155.7398590533781
 30
0.0
 11
105.148700034012
 21
155.7398590533781
 31
0.0
  0
LINE
  5
62C
330
A
100
AcDbEntity
  8
03
100
AcDbLine
 10
152.148700034012
 20
143.739859053378
 30
0.0
 11
152.1487000340119
 21
155.7398590533781
 31
0.0
  0
LINE
  5
62D
330
A
100
AcDbEntity
  8
03
100
AcDbLine
 10
153.648700034012
 20
143.739859053378
 30
0.0
 11
103.648700034012
 21
143.739859053378
 31
0.0
  0
LINE
  5
62E
330
A
100
AcDbEntity
  8
03
100
AcDbLine
 10
153.648700034012
 20
155.7398590533781
 30
0.0
 11
153.648700034012
 21
143.739859053378
 31
0.0
  0
LINE
  5
62F
330
A
100
AcDbEntity
  8
03
100
AcDbLine
 10
155.148700034012
 20
155.7398590533781
 30
0.0
 11
153.648700034012
 21
155.7398590533781
 31
0.0
  0
LINE
  5
630
330
A
100
AcDbEntity
  8
02
100
AcDbLine
 10
159.148700034012
 20
322.2398590533781
 30
0.0
 11
153.148700034012
 21
322.2398590533781
 31
0.0
  0
LINE
  5
631
330
A
100
AcDbEntity
  8
02
100
AcDbLine
 10
159.148700034012
 20
303.2398590533781
 30
0.0
 11
159.148700034012
 21
322.2398590533781
 31
0.0
  0
LINE
  5
632
330
A
100
AcDbEntity
  8
02
100
AcDbLine
 10
163.148700034012
 20
508.7398590533781
 30
0.0
 11
163.148700034012
 21
502.7398590533781
 31
0.0
  0
LINE
  5
633
330
A
100
AcDbEntity
  8
02
100
AcDbLine
 10
314.6487000340119
 20
508.7398590533778
 30
0.0
 11
117.148700034012
 21
508.7398590533781
 31
0.0
  0
LINE
  5
634
330
A
100
AcDbEntity
  8
02
100
AcDbLine
 10
314.6487000340119
 20
514.739859053378
 30
0.0
 11
314.6487000340119
 21
508.7398590533779
 31
0.0
  0
LINE
  5
635
330
A
100
AcDbEntity
  8
02
100
AcDbLine
 10
289.6487000340119
 20
517.739859053378
 30
0.0
 11
289.6487000340121
 21
520.7398590533781
 31
0.0
  0
LINE
  5
636
330
A
100
AcDbEntity
  8
02
100
AcDbLine
 10
319.1487000340121
 20
514.739859053378
 30
0.0
 11
292.6487000340118
 21
514.739859053378
 31
0.0
  0
LINE
  5
637
330
A
100
AcDbEntity
  8
02
100
AcDbLine
 10
323.6487000340121
 20
483.7398590533781
 30
0.0
 11
323.6487000340121
 21
510.239859053378
 31
0.0
  0
LINE
  5
638
330
A
100
AcDbEntity
  8
03
100
AcDbLine
 10
329.6487000340121
 20
480.739859053378
 30
0.0
 11
330.648700034012
 21
480.7398590533781
 31
0.0
  0
LINE
  5
639
330
A
100
AcDbEntity
  8
02
100
AcDbLine
 10
329.6487000340121
 20
520.739859053378
 30
0.0
 11
329.6487000340121
 21
480.739859053378
 31
0.0
  0
LINE
  5
63A
330
A
100
AcDbEntity
  8
02
100
AcDbLine
 10
109.6487000340121
 20
500.7398590533778
 30
0.0
 11
115.648700034012
 21
500.7398590533778
 31
0.0
  0
LINE
  5
63B
330
A
100
AcDbEntity
  8
02
100
AcDbLine
 10
109.6487000340121
 20
177.239859053378
 30
0.0
 11
109.6487000340121
 21
500.7398590533778
 31
0.0
  0
LINE
  5
63C
330
A
100
AcDbEntity
  8
02
100
AcDbLine
 10
115.648700034012
 20
177.239859053378
 30
0.0
 11
109.6487000340121
 21
177.239859053378
 31
0.0
  0
LINE
  5
63D
330
A
100
AcDbEntity
  8
02
100
AcDbLine
 10
115.648700034012
 20
500.7398590533778
 30
0.0
 11
115.648700034012
 21
177.239859053378
 31
0.0
  0
LINE
  5
63E
330
A
100
AcDbEntity
  8
02
100
AcDbLine
 10
120.1487000340121
 20
502.7398590533781
 30
0.0
 11
147.148700034012
 21
502.7398590533781
 31
0.0
  0
LINE
  5
63F
330
A
100
AcDbEntity
  8
02
100
AcDbLine
 10
120.1487000340121
 20
508.7398590533781
 30
0.0
 11
120.1487000340121
 21
502.7398590533781
 31
0.0
  0
LINE
  5
640
330
A
100
AcDbEntity
  8
02
100
AcDbLine
 10
314.6487000340119
 20
514.739859053378
 30
0.0
 11
117.148700034012
 21
514.739859053378
 31
0.0
  0
LINE
  5
641
330
A
100
AcDbEntity
  8
02
100
AcDbLine
 10
153.648700034012
 20
519.2398590533781
 30
0.0
 11
153.648700034012
 21
520.7398590533781
 31
0.0
  0
LINE
  5
642
330
A
100
AcDbEntity
  8
02
100
AcDbLine
 10
116.148700034012
 20
514.7398590533781
 30
0.0
 11
149.148700034012
 21
514.739859053378
 31
0.0
  0
LINE
  5
643
330
A
100
AcDbEntity
  8
02
100
AcDbLine
 10
109.6487000340121
 20
475.2398590533778
 30
0.0
 11
109.6487000340121
 21
508.2398590533781
 31
0.0
  0
LINE
  5
644
330
A
100
AcDbEntity
  8
02
100
AcDbLine
 10
103.648700034012
 20
470.7398590533781
 30
0.0
 11
105.148700034012
 21
470.7398590533777
 31
0.0
  0
LINE
  5
645
330
A
100
AcDbEntity
  8
02
100
AcDbLine
 10
120.1487000340121
 20
169.2398590533781
 30
0.0
 11
147.148700034012
 21
169.2398590533781
 31
0.0
  0
LINE
  5
646
330
A
100
AcDbEntity
  8
02
100
AcDbLine
 10
120.1487000340121
 20
163.2398590533781
 30
0.0
 11
120.1487000340121
 21
169.2398590533781
 31
0.0
  0
LINE
  5
647
330
A
100
AcDbEntity
  8
02
100
AcDbLine
 10
120.1487000340121
 20
163.2398590533781
 30
0.0
 11
149.148700034012
 21
163.2398590533781
 31
0.0
  0
LINE
  5
648
330
A
100
AcDbEntity
  8
02
100
AcDbLine
 10
105.148700034012
 20
207.2398590533781
 30
0.0
 11
103.648700034012
 21
207.2398590533781
 31
0.0
  0
LINE
  5
649
330
A
100
AcDbEntity
  8
02
100
AcDbLine
 10
109.6487000340121
 20
169.739859053378
 30
0.0
 11
109.6487000340121
 21
202.739859053378
 31
0.0
  0
LINE
  5
64A
330
A
100
AcDbEntity
  8
02
100
AcDbLine
 10
144.148700034012
 20
163.2398590533781
 30
0.0
 11
116.148700034012
 21
163.2398590533781
 31
0.0
  0
LINE
  5
64B
330
A
100
AcDbEntity
  8
02
100
AcDbLine
 10
153.648700034012
 20
157.239859053378
 30
0.0
 11
153.648700034012
 21
158.7398590533781
 31
0.0
  0
LINE
  5
64C
330
A
100
AcDbEntity
  8
03
100
AcDbLine
 10
103.648700034012
 20
143.739859053378
 30
0.0
 11
103.648700034012
 21
520.7398590533781
 31
0.0
  0
LINE
  5
64D
330
A
100
AcDbEntity
  8
02
100
AcDbLine
 10
153.648700034012
 20
157.239859053378
 30
0.0
 11
103.648700034012
 21
157.239859053378
 31
0.0
  0
LINE
  5
64E
330
A
100
AcDbEntity
  8
03
100
AcDbLine
 10
155.148700034012
 20
143.739859053378
 30
0.0
 11
155.148700034012
 21
155.7398590533781
 31
0.0
  0
LINE
  5
64F
330
A
100
AcDbEntity
  8
03
100
AcDbLine
 10
245.1487000340121
 20
152.239859053378
 30
0.0
 11
245.1487000340117
 21
53.90826459709677
 31
0.0
  0
LINE
  5
650
330
A
100
AcDbEntity
  8
03
100
AcDbLine
 10
205.1487000340121
 20
152.239859053378
 30
0.0
 11
245.1487000340121
 21
152.239859053378
 31
0.0
  0
LINE
  5
651
330
A
100
AcDbEntity
  8
03
100
AcDbLine
 10
205.1487000340116
 20
53.90826459709679
 30
0.0
 11
205.1487000340121
 21
152.239859053378
 31
0.0
  0
LINE
  5
652
330
A
100
AcDbEntity
  8
03
100
AcDbLine
 10
200.1487000340121
 20
152.239859053378
 30
0.0
 11
200.1487000340116
 21
53.90826459709679
 31
0.0
  0
LINE
  5
653
330
A
100
AcDbEntity
  8
03
100
AcDbLine
 10
160.148700034012
 20
152.239859053378
 30
0.0
 11
200.1487000340121
 21
152.239859053378
 31
0.0
  0
LINE
  5
654
330
A
100
AcDbEntity
  8
03
100
AcDbLine
 10
160.148700034012
 20
152.239859053378
 30
0.0
 11
160.1487000340116
 21
53.90826459709682
 31
0.0
  0
LINE
  5
655
330
A
100
AcDbEntity
  8
03
100
AcDbLine
 10
250.1487000340121
 20
152.2398590533779
 30
0.0
 11
250.1487000340121
 21
143.739859053378
 31
0.0
  0
LINE
  5
656
330
A
100
AcDbEntity
  8
03
100
AcDbLine
 10
251.648700034012
 20
152.2398590533779
 30
0.0
 11
250.1487000340121
 21
152.2398590533779
 31
0.0
  0
LINE
  5
657
330
A
100
AcDbEntity
  8
03
100
AcDbLine
 10
251.648700034012
 20
143.7398590533779
 30
0.0
 11
251.648700034012
 21
152.2398590533779
 31
0.0
  0
LINE
  5
658
330
A
100
AcDbEntity
  8
03
100
AcDbLine
 10
344.6487000340121
 20
143.7398590533779
 30
0.0
 11
251.648700034012
 21
143.7398590533779
 31
0.0
  0
LINE
  5
659
330
A
100
AcDbEntity
  8
03
100
AcDbLine
 10
344.6487000340122
 20
492.739859053378
 30
0.0
 11
344.6487000340122
 21
143.7398590533779
 31
0.0
  0
LINE
  5
65A
330
A
100
AcDbEntity
  8
03
100
AcDbLine
 10
333.1487000340122
 20
492.739859053378
 30
0.0
 11
344.6487000340122
 21
492.739859053378
 31
0.0
  0
LINE
  5
65B
330
A
100
AcDbEntity
  8
03
100
AcDbLine
 10
333.1487000340122
 20
494.2398590533779
 30
0.0
 11
333.1487000340122
 21
492.739859053378
 31
0.0
  0
LINE
  5
65C
330
A
100
AcDbEntity
  8
03
100
AcDbLine
 10
344.6487000340122
 20
494.2398590533779
 30
0.0
 11
333.1487000340122
 21
494.2398590533779
 31
0.0
  0
LINE
  5
65D
330
A
100
AcDbEntity
  8
03
100
AcDbLine
 10
331.1487000340121
 20
498.7398590533781
 30
0.0
 11
344.6487000340121
 21
498.7398590533779
 31
0.0
  0
LINE
  5
65E
330
A
100
AcDbEntity
  8
03
100
AcDbLine
 10
329.6487000340121
 20
480.739859053378
 30
0.0
 11
329.6487000340121
 21
497.2398590533781
 31
0.0
  0
LINE
  5
65F
330
A
100
AcDbEntity
  8
03
100
AcDbLine
 10
331.1487000340121
 20
480.739859053378
 30
0.0
 11
329.6487000340121
 21
480.739859053378
 31
0.0
  0
LINE
  5
660
330
A
100
AcDbEntity
  8
03
100
AcDbLine
 10
331.1487000340121
 20
497.239859053378
 30
0.0
 11
331.1487000340121
 21
480.739859053378
 31
0.0
  0
LINE
  5
661
330
A
100
AcDbEntity
  8
03
100
AcDbLine
 10
344.6487000340121
 20
497.2398590533781
 30
0.0
 11
331.1487000340121
 21
497.239859053378
 31
0.0
  0
LINE
  5
662
330
A
100
AcDbEntity
  8
03
100
AcDbLine
 10
344.6487000340121
 20
520.739859053378
 30
0.0
 11
344.6487000340121
 21
498.7398590533779
 31
0.0
  0
LINE
  5
663
330
A
100
AcDbEntity
  8
03
100
AcDbLine
 10
103.6487000340119
 20
522.2398590533781
 30
0.0
 11
344.6487000340121
 21
522.239859053378
 31
0.0
  0
LINE
  5
664
330
A
100
AcDbEntity
  8
02
100
AcDbLine
 10
192.1487000340121
 20
303.2398590533781
 30
0.0
 11
159.148700034012
 21
303.2398590533781
 31
0.0
  0
LINE
  5
665
330
A
100
AcDbEntity
  8
02
100
AcDbLine
 10
192.1487000340121
 20
502.7398590533781
 30
0.0
 11
192.1487000340121
 21
303.2398590533781
 31
0.0
  0
LINE
  5
666
330
A
100
AcDbEntity
  8
02
100
AcDbLine
 10
163.148700034012
 20
502.7398590533781
 30
0.0
 11
192.1487000340121
 21
502.7398590533781
 31
0.0
  0
LINE
  5
667
330
A
100
AcDbEntity
  8
02
100
AcDbLine
 10
198.1487000340121
 20
303.2398590533781
 30
0.0
 11
198.1487000340121
 21
502.7398590533781
 31
0.0
  0
LINE
  5
668
330
A
100
AcDbEntity
  8
02
100
AcDbLine
 10
159.148700034012
 20
297.2398590533781
 30
0.0
 11
192.1487000340121
 21
297.2398590533781
 31
0.0
  0
LINE
  5
669
330
A
100
AcDbEntity
  8
02
100
AcDbLine
 10
147.148700034012
 20
169.2398590533781
 30
0.0
 11
147.148700034012
 21
502.7398590533781
 31
0.0
  0
LINE
  5
66A
330
A
100
AcDbEntity
  8
02
100
AcDbLine
 10
153.148700034012
 20
502.7398590533781
 30
0.0
 11
153.148700034012
 21
169.2398590533781
 31
0.0
  0
LINE
  5
66B
330
A
100
AcDbEntity
  8
03
100
AcDbLine
 10
346.1487000340121
 20
498.7398590533781
 30
0.0
 11
346.1487000340118
 21
520.739859053378
 31
0.0
  0
LINE
  5
66C
330
A
100
AcDbEntity
  8
03
100
AcDbLine
 10
346.1487000340122
 20
143.7398590533779
 30
0.0
 11
346.1487000340123
 21
492.739859053378
 31
0.0
  0
LINE
  5
66D
330
A
100
AcDbEntity
  8
03
100
AcDbLine
 10
251.648700034012
 20
142.2398590533781
 30
0.0
 11
344.6487000340121
 21
142.2398590533781
 31
0.0
  0
LINE
  5
66E
330
A
100
AcDbEntity
  8
03
100
AcDbLine
 10
103.648700034012
 20
142.2398590533781
 30
0.0
 11
153.648700034012
 21
142.2398590533781
 31
0.0
  0
LINE
  5
66F
330
A
100
AcDbEntity
  8
03
100
AcDbLine
 10
102.148700034012
 20
520.7398590533781
 30
0.0
 11
102.148700034012
 21
143.739859053378
 31
0.0
  0
LINE
  5
670
330
A
100
AcDbEntity
  8
03
100
AcDbLine
 10
344.6487000340121
 20
520.739859053378
 30
0.0
 11
103.648700034012
 21
520.7398590533781
 31
0.0
  0
DIMENSION
  5
6EA
330
A
100
AcDbEntity
  8
SUNPOU
100
AcDbDimension
  2
*D1
 10
155.1487000340119
 20
124.0704255139511
 30
0.0
 11
130.1487000340119
 21
128.5704255139511
 31
0.0
 70
    32
  3
SUNPOU_2
100
AcDbAlignedDimension
 13
105.148700034012
 23
142.2398590533781
 33
0.0
 14
155.1487000340119
 24
143.739859053378
 34
0.0
100
AcDbRotatedDimension
1001
ACAD
1000
DSTYLE
1002
{
1070
   271
1070
     1
1002
}
  0
DIMENSION
  5
71C
330
A
100
AcDbEntity
  8
SUNPOU
100
AcDbDimension
  2
*D2
 10
160.148700034012
 20
124.0704255139511
 30
0.0
 11
157.71738126226
 21
129.5584930193225
 31
0.0
 70
   160
  3
SUNPOU_2
100
AcDbAlignedDimension
 13
155.1487000340119
 23
143.739859053378
 33
0.0
 14
160.148700034012
 24
124.0704255139511
 34
0.0
100
AcDbRotatedDimension
1001
ACAD
1000
DSTYLE
1002
{
1070
   271
1070
     1
1002
}
  0
DIMENSION
  5
72B
330
A
100
AcDbEntity
  8
SUNPOU
100
AcDbDimension
  2
*D3
 10
200.1487000340119
 20
124.0704255139511
 30
0.0
 11
180.1487000340119
 21
128.5704255139511
 31
0.0
 70
    32
  3
SUNPOU_2
100
AcDbAlignedDimension
 13
160.148700034012
 23
124.0704255139511
 33
0.0
 14
200.1487000340119
 24
124.0704255139511
 34
0.0
100
AcDbRotatedDimension
1001
ACAD
1000
DSTYLE
1002
{
1070
   271
1070
     1
1002
}
  0
DIMENSION
  5
738
330
A
100
AcDbEntity
  8
SUNPOU
100
AcDbDimension
  2
*D4
 10
205.1487000340119
 20
124.0704255139511
 30
0.0
 11
202.6004778034457
 21
128.976780080938
 31
0.0
 70
   160
  3
SUNPOU_2
100
AcDbAlignedDimension
 13
200.1487000340119
 23
124.0704255139511
 33
0.0
 14
205.1487000340119
 24
124.0704255139511
 34
0.0
100
AcDbRotatedDimension
1001
ACAD
1000
DSTYLE
1002
{
1070
   271
1070
     1
1002
}
  0
DIMENSION
  5
747
330
A
100
AcDbEntity
  8
SUNPOU
100
AcDbDimension
  2
*D5
 10
245.148700034012
 20
124.0704255139511
 30
0.0
 11
225.1487000340119
 21
128.5704255139511
 31
0.0
 70
    32
  3
SUNPOU_2
100
AcDbAlignedDimension
 13
205.1487000340119
 23
124.0704255139511
 33
0.0
 14
245.148700034012
 24
124.0704255139511
 34
0.0
100
AcDbRotatedDimension
1001
ACAD
1000
DSTYLE
1002
{
1070
   271
1070
     1
1002
}
  0
DIMENSION
  5
754
330
A
100
AcDbEntity
  8
SUNPOU
100
AcDbDimension
  2
*D6
 10
250.1487000340121
 20
124.0704255139511
 30
0.0
 11
247.648700034012
 21
111.5704255139511
 31
0.0
 70
    32
  3
SUNPOU_2
100
AcDbAlignedDimension
 13
245.148700034012
 23
124.0704255139511
 33
0.0
 14
250.1487000340121
 24
143.739859053378
 34
0.0
100
AcDbRotatedDimension
1001
ACAD
1000
DSTYLE
1002
{
1070
   271
1070
     1
1002
}
  0
DIMENSION
  5
770
330
A
100
AcDbEntity
  8
SUNPOU
100
AcDbDimension
  2
*D7
 10
99.1487000340121
 20
95.25719377985241
 30
0.0
 11
224.1487000340121
 21
99.75719377985242
 31
0.0
 70
    32
  3
SUNPOU_2
100
AcDbAlignedDimension
 13
349.1487000340122
 23
141.2535522173906
 33
0.0
 14
99.1487000340121
 24
107.4791126531749
 34
0.0
100
AcDbRotatedDimension
1001
ACAD
1000
DSTYLE
1002
{
1070
   271
1070
     1
1002
}
  0
DIMENSION
  5
77D
330
A
100
AcDbEntity
  8
SUNPOU
100
AcDbDimension
  2
*D8
 10
225.1487000340119
 20
108.9080856860687
 30
0.0
 11
208.8628477404518
 21
113.4829305943241
 31
0.0
 70
   160
  3
SUNPOU_2
100
AcDbAlignedDimension
 13
180.1487000340119
 23
108.9080856860687
 33
0.0
 14
225.1487000340119
 24
108.3080856860687
 34
0.0
100
AcDbRotatedDimension
1001
ACAD
1000
DSTYLE
1002
{
1070
   271
1070
     1
1002
}
  0
DIMENSION
  5
7A8
330
A
100
AcDbEntity
  8
SUNPOU
100
AcDbDimension
  2
*D9
 10
261.5679094639484
 20
142.2398590533781
 30
0.0
 11
257.0679094639483
 21
147.2398590533781
 31
0.0
 70
    32
  3
SUNPOU_2
100
AcDbAlignedDimension
 13
251.648700034012
 23
152.2398590533779
 33
0.0
 14
258.0516648366818
 24
142.2398590533781
 34
0.0
 50
90.0
100
AcDbRotatedDimension
1001
ACAD
1000
DSTYLE
1002
{
1070
   271
1070
     1
1002
}
  0
DIMENSION
  5
7B7
330
A
100
AcDbEntity
  8
SUNPOU
100
AcDbDimension
  2
*D10
 10
76.81073969406881
 20
522.2398590533781
 30
0.0
 11
72.3107396940687
 21
332.2398590533781
 31
0.0
 70
    32
  3
SUNPOU_2
100
AcDbAlignedDimension
 13
103.6487000340119
 23
142.2398590533781
 33
0.0
 14
103.6487000340119
 24
522.2398590533781
 34
0.0
 50
90.0
100
AcDbRotatedDimension
1001
ACAD
1000
DSTYLE
1002
{
1070
   271
1070
     1
1002
}
  0
DIMENSION
  5
7C4
330
A
100
AcDbEntity
  8
SUNPOU
100
AcDbDimension
  2
*D11
 10
88.36881334845964
 20
207.2398590533781
 30
0.0
 11
83.86881334845961
 21
267.239859053378
 31
0.0
 70
    32
  3
SUNPOU_2
100
AcDbAlignedDimension
 13
181.7487000340119
 23
327.2398590533781
 33
0.0
 14
139.7487000340119
 24
207.2398590533781
 34
0.0
 50
90.0
100
AcDbRotatedDimension
1001
ACAD
1000
DSTYLE
1002
{
1070
   271
1070
     1
1002
}
  0
DIMENSION
  5
7D1
330
A
100
AcDbEntity
  8
SUNPOU
100
AcDbDimension
  2
*D12
 10
88.36881334845962
 20
142.2398590533781
 30
0.0
 11
83.86881334845961
 21
174.739859053378
 31
0.0
 70
    32
  3
SUNPOU_2
100
AcDbAlignedDimension
 13
139.7487000340119
 23
207.2398590533781
 33
0.0
 14
103.6487000340119
 24
142.2398590533781
 34
0.0
 50
90.0
100
AcDbRotatedDimension
1001
ACAD
1000
DSTYLE
1002
{
1070
   271
1070
     1
1002
}
  0
DIMENSION
  5
7DE
330
A
100
AcDbEntity
  8
SUNPOU
100
AcDbDimension
  2
*D13
 10
127.3135415102043
 20
207.2398590533781
 30
0.0
 11
122.8135415102043
 21
227.239859053378
 31
0.0
 70
    32
  3
SUNPOU_2
100
AcDbAlignedDimension
 13
143.9955447071688
 23
247.2398590533781
 33
0.0
 14
127.3135415102043
 24
207.2398590533781
 34
0.0
 50
90.0
100
AcDbRotatedDimension
1001
ACAD
1000
DSTYLE
1002
{
1070
   271
1070
     1
1002
}
  0
DIMENSION
  5
7EB
330
A
100
AcDbEntity
  8
SUNPOU
100
AcDbDimension
  2
*D14
 10
180.1487000340121
 20
276.7218411981135
 30
0.0
 11
172.5703548492034
 21
282.0668144055374
 31
0.0
 70
   160
  3
SUNPOU_2
100
AcDbAlignedDimension
 13
153.148700034012
 23
256.339539816061
 33
0.0
 14
180.1487000340121
 24
250.239859053378
 34
0.0
100
AcDbRotatedDimension
1001
ACAD
1000
DSTYLE
1002
{
1070
   271
1070
     1
1002
}
  0
DIMENSION
  5
7F8
330
A
100
AcDbEntity
  8
SUNPOU
100
AcDbDimension
  2
*D15
 10
127.3135415102043
 20
327.2398590533781
 30
0.0
 11
122.8135415102043
 21
312.2398590533781
 31
0.0
 70
    32
  3
SUNPOU_2
100
AcDbAlignedDimension
 13
159.148700034012
 23
297.2398590533781
 33
0.0
 14
127.3135415102043
 24
327.2398590533781
 34
0.0
 50
90.0
100
AcDbRotatedDimension
1001
ACAD
1000
DSTYLE
1002
{
1070
   271
1070
     1
1002
}
  0
DIMENSION
  5
805
330
A
100
AcDbEntity
  8
SUNPOU
100
AcDbDimension
  2
*D16
 10
198.1487000340121
 20
379.7051510555529
 30
0.0
 11
178.6963492314967
 21
385.7398590533782
 31
0.0
 70
   160
  3
SUNPOU_2
100
AcDbAlignedDimension
 13
153.148700034012
 23
374.6284751106853
 33
0.0
 14
198.1487000340121
 24
379.7051510555529
 34
0.0
100
AcDbRotatedDimension
1001
ACAD
1000
DSTYLE
1002
{
1070
   271
1070
     1
1002
}
  0
DIMENSION
  5
812
330
A
100
AcDbEntity
  8
SUNPOU
100
AcDbDimension
  2
*D17
 10
225.1487000340121
 20
379.7818270004206
 30
0.0
 11
214.5622966685903
 21
385.5660669353334
 31
0.0
 70
   160
  3
SUNPOU_2
100
AcDbAlignedDimension
 13
198.1487000340121
 23
374.6284751106853
 33
0.0
 14
225.1487000340121
 24
367.2398590533779
 34
0.0
100
AcDbRotatedDimension
1001
ACAD
1000
DSTYLE
1002
{
1070
   271
1070
     1
1002
}
  0
DIMENSION
  5
81F
330
A
100
AcDbEntity
  8
SUNPOU
100
AcDbDimension
  2
*D18
 10
167.148700034012
 20
490.5061448839392
 30
0.0
 11
157.872473615064
 21
497.2886402016889
 31
0.0
 70
   160
  3
SUNPOU_2
100
AcDbAlignedDimension
 13
153.148700034012
 23
480.3217588070033
 33
0.0
 14
167.148700034012
 24
490.5061448839392
 34
0.0
100
AcDbRotatedDimension
1001
ACAD
1000
DSTYLE
1002
{
1070
   271
1070
     1
1002
}
  0
DIMENSION
  5
82C
330
A
100
AcDbEntity
  8
SUNPOU
100
AcDbDimension
  2
*D19
 10
332.1487000340121
 20
490.5061448839392
 30
0.0
 11
249.648700034012
 21
495.0061448839392
 31
0.0
 70
    32
  1
<>(SOV-400KDC)
  3
SUNPOU_2
100
AcDbAlignedDimension
 13
167.148700034012
 23
490.5061448839392
 33
0.0
 14
332.1487000340121
 24
441.285859053378
 34
0.0
100
AcDbRotatedDimension
1001
ACAD
1000
DSTYLE
1002
{
1070
   271
1070
     1
1002
}
  0
LINE
  5
9DA
330
A
100
AcDbEntity
  8
CHUSIN
100
AcDbLine
 10
180.1487000340119
 20
130.164561543323
 30
0.0
 11
180.1487000340121
 21
175.3630161582171
 31
0.0
  0
LINE
  5
9DB
330
A
100
AcDbEntity
  8
CHUSIN
100
AcDbLine
 10
225.1487000340121
 20
130.164561543323
 30
0.0
 11
225.1487000340121
 21
175.3630161582171
 31
0.0
  0
LINE
  5
D38
330
A
100
AcDbEntity
  8
04
  6
CONTINUOUS
100
AcDbLine
 10
249.1487000340121
 20
370.2398590533779
 30
0.0
 11
249.1487000340121
 21
370.013359053378
 31
0.0
  0
LINE
  5
D39
330
A
100
AcDbEntity
  8
04
  6
CONTINUOUS
100
AcDbLine
 10
249.1487000340121
 20
358.239859053378
 30
0.0
 11
249.1487000340121
 21
358.4663590533779
 31
0.0
  0
LINE
  5
D3D
330
A
100
AcDbEntity
  8
04
100
AcDbLine
 10
254.144384809012
 20
306.4663590533779
 30
0.0
 11
254.6487000340121
 21
307.3398590533778
 31
0.0
  0
LINE
  5
D3E
330
A
100
AcDbEntity
  8
04
100
AcDbLine
 10
249.1487000340121
 20
306.4663590533779
 30
0.0
 11
254.144384809012
 21
306.4663590533779
 31
0.0
  0
LINE
  5
D3F
330
A
100
AcDbEntity
  8
04
  6
CONTINUOUS
100
AcDbLine
 10
249.1487000340121
 20
306.239859053378
 30
0.0
 11
249.1487000340121
 21
306.4663590533779
 31
0.0
  0
LINE
  5
D40
330
A
100
AcDbEntity
  8
04
100
AcDbLine
 10
249.1487000340121
 20
306.239859053378
 30
0.0
 11
247.648700034012
 21
306.239859053378
 31
0.0
  0
LINE
  5
D42
330
A
100
AcDbEntity
  8
04
100
AcDbLine
 10
249.1487000340121
 20
318.013359053378
 30
0.0
 11
254.1443848090121
 21
318.013359053378
 31
0.0
  0
LINE
  5
D43
330
A
100
AcDbEntity
  8
04
  6
CONTINUOUS
100
AcDbLine
 10
249.1487000340121
 20
318.2398590533779
 30
0.0
 11
249.1487000340121
 21
318.013359053378
 31
0.0
  0
LINE
  5
D44
330
A
100
AcDbEntity
  8
04
100
AcDbLine
 10
247.648700034012
 20
318.2398590533779
 30
0.0
 11
249.1487000340121
 21
318.2398590533779
 31
0.0
  0
LINE
  5
D46
330
A
100
AcDbEntity
  8
04
100
AcDbLine
 10
254.6487000340121
 20
307.3398590533778
 30
0.0
 11
254.6487000340122
 21
317.139859053378
 31
0.0
  0
LINE
  5
D4A
330
A
100
AcDbEntity
  8
04
100
AcDbLine
 10
254.1443848090121
 20
318.013359053378
 30
0.0
 11
254.6487000340122
 21
317.139859053378
 31
0.0
  0
LINE
  5
D4B
330
A
100
AcDbEntity
  8
04
  6
CONTINUOUS
100
AcDbLine
 10
249.648700034012
 20
354.239859053378
 30
0.0
 11
249.648700034012
 21
353.209509053378
 31
0.0
  0
LINE
  5
D4C
330
A
100
AcDbEntity
  8
04
  6
CONTINUOUS
100
AcDbLine
 10
249.648700034012
 20
330.2398590533779
 30
0.0
 11
249.648700034012
 21
331.2702090533779
 31
0.0
  0
LINE
  5
D4D
330
A
100
AcDbEntity
  8
04
  6
CONTINUOUS
100
AcDbLine
 10
205.7487004154817
 20
335.7398590533781
 30
0.0
 11
205.7487004154817
 21
334.9398598163176
 31
0.0
  0
LINE
  5
D4E
330
A
100
AcDbEntity
  8
04
  6
CONTINUOUS
100
AcDbLine
 10
207.7487004154817
 20
334.9398598163176
 30
0.0
 11
207.7487004154817
 21
334.7498592822598
 31
0.0
  0
LINE
  5
D4F
330
A
100
AcDbEntity
  8
04
  6
CONTINUOUS
100
AcDbLine
 10
207.7487004154817
 20
319.5398590056943
 30
0.0
 11
207.7487004154817
 21
319.7298590629149
 31
0.0
  0
LINE
  5
D50
330
A
100
AcDbEntity
  8
04
  6
CONTINUOUS
100
AcDbLine
 10
205.7487004154817
 20
318.7398590533781
 30
0.0
 11
205.7487004154817
 21
319.5398590056943
 31
0.0
  0
LINE
  5
D52
330
A
100
AcDbEntity
  8
04
100
AcDbLine
 10
254.6487000340121
 20
237.3398590533779
 30
0.0
 11
254.6487000340122
 21
247.1398590533779
 31
0.0
  0
LINE
  5
D55
330
A
100
AcDbEntity
  8
04
100
AcDbLine
 10
249.1487000340121
 20
236.4663590533779
 30
0.0
 11
254.144384809012
 21
236.4663590533779
 31
0.0
  0
LINE
  5
D56
330
A
100
AcDbEntity
  8
04
100
AcDbLine
 10
249.1487000340121
 20
236.2398590533781
 30
0.0
 11
247.648700034012
 21
236.2398590533781
 31
0.0
  0
LINE
  5
D57
330
A
100
AcDbEntity
  8
04
  6
CONTINUOUS
100
AcDbLine
 10
249.1487000340121
 20
236.2398590533781
 30
0.0
 11
249.1487000340121
 21
236.4663590533779
 31
0.0
  0
LINE
  5
D59
330
A
100
AcDbEntity
  8
04
100
AcDbLine
 10
254.144384809012
 20
236.4663590533779
 30
0.0
 11
254.6487000340121
 21
237.3398590533779
 31
0.0
  0
LINE
  5
D5B
330
A
100
AcDbEntity
  8
04
100
AcDbLine
 10
249.1487000340121
 20
248.0133590533781
 30
0.0
 11
254.1443848090121
 21
248.0133590533781
 31
0.0
  0
LINE
  5
D5D
330
A
100
AcDbEntity
  8
04
  6
CONTINUOUS
100
AcDbLine
 10
249.1487000340121
 20
248.2398590533779
 30
0.0
 11
249.1487000340121
 21
248.0133590533781
 31
0.0
  0
LINE
  5
D5E
330
A
100
AcDbEntity
  8
04
100
AcDbLine
 10
247.648700034012
 20
248.2398590533779
 30
0.0
 11
249.1487000340121
 21
248.2398590533779
 31
0.0
  0
LINE
  5
D60
330
A
100
AcDbEntity
  8
04
100
AcDbLine
 10
254.1443848090121
 20
248.0133590533781
 30
0.0
 11
254.6487000340122
 21
247.1398590533779
 31
0.0
  0
LINE
  5
D62
330
A
100
AcDbEntity
  8
04
  6
CONTINUOUS
100
AcDbLine
 10
249.648700034012
 20
202.9398598163175
 30
0.0
 11
249.648700034012
 21
202.7498592822599
 31
0.0
  0
LINE
  5
D63
330
A
100
AcDbEntity
  8
04
  6
CONTINUOUS
100
AcDbLine
 10
249.648700034012
 20
189.9398598163174
 30
0.0
 11
249.648700034012
 21
189.7498592822599
 31
0.0
  0
LINE
  5
D64
330
A
100
AcDbEntity
  8
04
  6
CONTINUOUS
100
AcDbLine
 10
249.648700034012
 20
174.5398590056943
 30
0.0
 11
249.648700034012
 21
174.7298590629148
 31
0.0
  0
LINE
  5
D68
330
A
100
AcDbEntity
  8
04
100
AcDbLine
 10
208.148700034012
 20
188.9398591010619
 30
0.0
 11
208.148700034012
 21
201.5398582904387
 31
0.0
  0
LINE
  5
D6B
330
A
100
AcDbEntity
  8
04
100
AcDbLine
 10
208.148700034012
 20
175.9398591010619
 30
0.0
 11
208.148700034012
 21
188.5398582904387
 31
0.0
  0
LINE
  5
D6C
330
A
100
AcDbEntity
  8
04
100
AcDbLine
 10
202.6487000340118
 20
174.5398590056945
 30
0.0
 11
200.6487000340118
 21
174.5398590056945
 31
0.0
  0
LINE
  5
D6E
330
A
100
AcDbEntity
  8
04
100
AcDbLine
 10
202.6487000340118
 20
174.7298590629149
 30
0.0
 11
207.4486992710725
 21
174.7298590629149
 31
0.0
  0
LINE
  5
D6F
330
A
100
AcDbEntity
  8
04
  6
CONTINUOUS
100
AcDbLine
 10
202.6487000340118
 20
174.5398590056945
 30
0.0
 11
202.6487000340118
 21
174.7298590629149
 31
0.0
  0
LINE
  5
D71
330
A
100
AcDbEntity
  8
04
100
AcDbLine
 10
207.4486992710725
 20
174.7298590629149
 30
0.0
 11
208.148700034012
 21
175.9398591010619
 31
0.0
  0
LINE
  5
D73
330
A
100
AcDbEntity
  8
04
100
AcDbLine
 10
200.6487000340118
 20
189.9398598163175
 30
0.0
 11
202.6487000340118
 21
189.9398598163175
 31
0.0
  0
LINE
  5
D77
330
A
100
AcDbEntity
  8
04
100
AcDbLine
 10
202.6487000340118
 20
189.74985928226
 30
0.0
 11
207.4486992710725
 21
189.74985928226
 31
0.0
  0
LINE
  5
D78
330
A
100
AcDbEntity
  8
04
  6
CONTINUOUS
100
AcDbLine
 10
202.6487000340118
 20
189.9398598163175
 30
0.0
 11
202.6487000340121
 21
189.74985928226
 31
0.0
  0
LINE
  5
D7A
330
A
100
AcDbEntity
  8
04
100
AcDbLine
 10
207.4486992710725
 20
189.74985928226
 30
0.0
 11
208.148700034012
 21
188.5398582904387
 31
0.0
  0
LINE
  5
D7B
330
A
100
AcDbEntity
  8
04
100
AcDbLine
 10
208.0329972433331
 20
188.7398587745664
 30
0.0
 11
208.148700034012
 21
188.9398591010619
 31
0.0
  0
LINE
  5
D7C
330
A
100
AcDbEntity
  8
04
100
AcDbLine
 10
200.6487000340121
 20
202.9398598163175
 30
0.0
 11
202.6487000340118
 21
202.9398598163175
 31
0.0
  0
LINE
  5
D7E
330
A
100
AcDbEntity
  8
04
100
AcDbLine
 10
202.6487000340118
 20
202.74985928226
 30
0.0
 11
207.4486992710725
 21
202.74985928226
 31
0.0
  0
LINE
  5
D7F
330
A
100
AcDbEntity
  8
04
  6
CONTINUOUS
100
AcDbLine
 10
202.6487000340118
 20
202.9398598163175
 30
0.0
 11
202.6487000340118
 21
202.74985928226
 31
0.0
  0
LINE
  5
D81
330
A
100
AcDbEntity
  8
04
100
AcDbLine
 10
207.4486992710725
 20
202.74985928226
 30
0.0
 11
208.148700034012
 21
201.5398582904387
 31
0.0
  0
LINE
  5
D82
330
A
100
AcDbEntity
  8
04
  6
CONTINUOUS
100
AcDbLine
 10
217.4486992710725
 20
168.8398594348478
 30
0.0
 11
217.6386998051301
 21
168.8398594348478
 31
0.0
  0
LINE
  5
D83
330
A
100
AcDbEntity
  8
04
  6
CONTINUOUS
100
AcDbLine
 10
216.6487000340121
 20
166.8398594348479
 30
0.0
 11
217.4486992710725
 21
166.8398594348479
 31
0.0
  0
LINE
  5
D84
330
A
100
AcDbEntity
  8
04
  6
CONTINUOUS
100
AcDbLine
 10
232.8487000816958
 20
168.8398594348478
 30
0.0
 11
232.6587000244753
 21
168.8398594348478
 31
0.0
  0
LINE
  5
D85
330
A
100
AcDbEntity
  8
04
  6
CONTINUOUS
100
AcDbLine
 10
233.6487000340121
 20
166.8398594348478
 30
0.0
 11
232.8487000816958
 21
166.8398594348478
 31
0.0
  0
LINE
  5
D89
330
A
100
AcDbEntity
  8
04
100
AcDbLine
 10
186.4486999863284
 20
174.3398594348477
 30
0.0
 11
173.8487007969514
 21
174.3398594348479
 31
0.0
  0
LINE
  5
D8A
330
A
100
AcDbEntity
  8
04
100
AcDbLine
 10
172.6386998051301
 20
168.8398594348479
 30
0.0
 11
172.6386998051301
 21
173.6398586719084
 31
0.0
  0
LINE
  5
D8B
330
A
100
AcDbEntity
  8
04
  6
CONTINUOUS
100
AcDbLine
 10
171.648700034012
 20
166.8398594348479
 30
0.0
 11
172.4486992710725
 21
166.8398594348479
 31
0.0
  0
LINE
  5
D8C
330
A
100
AcDbEntity
  8
04
  6
CONTINUOUS
100
AcDbLine
 10
172.4486992710725
 20
168.8398594348479
 30
0.0
 11
172.6386998051301
 21
168.8398594348479
 31
0.0
  0
LINE
  5
D8D
330
A
100
AcDbEntity
  8
04
100
AcDbLine
 10
171.648700034012
 20
165.2398590533781
 30
0.0
 11
171.648700034012
 21
166.8398594348479
 31
0.0
  0
LINE
  5
D8E
330
A
100
AcDbEntity
  8
04
100
AcDbLine
 10
172.4486992710725
 20
166.8398594348479
 30
0.0
 11
172.4486992710725
 21
168.8398594348479
 31
0.0
  0
LINE
  5
D8F
330
A
100
AcDbEntity
  8
04
100
AcDbLine
 10
172.6386998051301
 20
173.6398586719084
 30
0.0
 11
173.8487007969514
 21
174.3398594348479
 31
0.0
  0
LINE
  5
D91
330
A
100
AcDbEntity
  8
04
100
AcDbLine
 10
187.6587000244753
 20
173.6398586719084
 30
0.0
 11
186.4486999863284
 21
174.3398594348477
 31
0.0
  0
LINE
  5
D96
330
A
100
AcDbEntity
  8
04
100
AcDbLine
 10
187.6587000244753
 20
168.8398594348478
 30
0.0
 11
187.6587000244753
 21
173.6398586719084
 31
0.0
  0
LINE
  5
D97
330
A
100
AcDbEntity
  8
04
  6
CONTINUOUS
100
AcDbLine
 10
188.6487000340121
 20
166.8398594348478
 30
0.0
 11
187.8487000816958
 21
166.8398594348478
 31
0.0
  0
LINE
  5
D98
330
A
100
AcDbEntity
  8
04
  6
CONTINUOUS
100
AcDbLine
 10
187.8487000816958
 20
168.8398594348478
 30
0.0
 11
187.6587000244753
 21
168.8398594348478
 31
0.0
  0
LINE
  5
D99
330
A
100
AcDbEntity
  8
04
100
AcDbLine
 10
188.6487000340121
 20
166.8398594348478
 30
0.0
 11
188.6487000340121
 21
165.239859053378
 31
0.0
  0
LINE
  5
D9A
330
A
100
AcDbEntity
  8
04
100
AcDbLine
 10
187.8487000816958
 20
168.8398594348478
 30
0.0
 11
187.8487000816958
 21
166.8398594348478
 31
0.0
  0
LINE
  5
D9C
330
A
100
AcDbEntity
  8
04
  6
CONTINUOUS
100
AcDbLine
 10
161.148700034012
 20
254.9398598163175
 30
0.0
 11
161.148700034012
 21
254.7498592822599
 31
0.0
  0
LINE
  5
D9D
330
A
100
AcDbEntity
  8
04
  6
CONTINUOUS
100
AcDbLine
 10
161.148700034012
 20
239.5398590056943
 30
0.0
 11
161.148700034012
 21
239.7298590629147
 31
0.0
  0
LINE
  5
D9E
330
A
100
AcDbEntity
  8
04
  6
CONTINUOUS
100
AcDbLine
 10
160.7487004154818
 20
215.7398590533781
 30
0.0
 11
160.7487004154818
 21
214.9398598163176
 31
0.0
  0
LINE
  5
D9F
330
A
100
AcDbEntity
  8
04
  6
CONTINUOUS
100
AcDbLine
 10
162.7487004154818
 20
214.9398598163176
 30
0.0
 11
162.7487004154818
 21
214.7498592822599
 31
0.0
  0
LINE
  5
DA0
330
A
100
AcDbEntity
  8
04
  6
CONTINUOUS
100
AcDbLine
 10
162.7487004154818
 20
199.5398590056943
 30
0.0
 11
162.7487004154818
 21
199.7298590629148
 31
0.0
  0
LINE
  5
DA1
330
A
100
AcDbEntity
  8
04
  6
CONTINUOUS
100
AcDbLine
 10
160.7487004154818
 20
198.739859053378
 30
0.0
 11
160.7487004154818
 21
199.5398590056943
 31
0.0
  0
MTEXT
  5
11FE
330
A
100
AcDbEntity
  8
MOJI
100
AcDbMText
 10
234.5564637793394
 20
253.8517179910691
 30
0.0
 40
5.0
 41
0.0
 71
     1
 72
     1
  1
ワイヤー固定金具
  7
0_8
 11
0.0000000000000001
 21
1.0
 31
0.0
1001
ACAD
1000
MTEXTBEGIN
1070
    73
1070
     1
1070
    44
1040
1.0
1070
    74
1070
     0
1000
MTEXTEND
1000
MTEXTBEGIN
1070
    73
1070
     1
1070
    44
1040
1.0
1070
    74
1070
     0
1000
MTEXTEND
  0
LINE
  5
2574
330
A
100
AcDbEntity
  8
SOUZOU
100
AcDbLine
 10
167.148700034012
 20
469.2398590533778
 30
0.0
 11
232.1487000340121
 21
469.2398590533778
 31
0.0
  0
LINE
  5
2575
330
A
100
AcDbEntity
  8
SOUZOU
100
AcDbLine
 10
232.1487000340121
 20
469.2398590533778
 30
0.0
 11
232.1487000340121
 21
441.285859053378
 31
0.0
  0
LINE
  5
2576
330
A
100
AcDbEntity
  8
SOUZOU
100
AcDbLine
 10
232.1487000340121
 20
441.285859053378
 30
0.0
 11
332.1487000340121
 21
441.285859053378
 31
0.0
  0
LINE
  5
2577
330
A
100
AcDbEntity
  8
SOUZOU
100
AcDbLine
 10
332.1487000340121
 20
441.285859053378
 30
0.0
 11
332.1487000340121
 21
341.285859053378
 31
0.0
  0
LINE
  5
2578
330
A
100
AcDbEntity
  8
SOUZOU
100
AcDbLine
 10
332.1487000340121
 20
341.285859053378
 30
0.0
 11
267.9220451299269
 21
341.285859053378
 31
0.0
  0
LINE
  5
257A
330
A
100
AcDbEntity
  8
CHUSIN
100
AcDbLine
 10
184.748700034012
 20
327.2398590533781
 30
0.0
 11
217.035271440588
 21
327.2398590533781
 31
0.0
  0
LINE
  5
2D1E
330
A
100
AcDbEntity
  8
SOUZOU
100
AcDbLine
 10
267.3048298975518
 20
326.3508590533779
 30
0.0
 11
322.1487000340121
 21
326.3508590533779
 31
0.0
  0
LINE
  5
2D1F
330
A
100
AcDbEntity
  8
SOUZOU
100
AcDbLine
 10
322.1487000340121
 20
426.3508590533779
 30
0.0
 11
322.1487000340121
 21
326.3508590533779
 31
0.0
  0
LINE
  5
2D20
330
A
100
AcDbEntity
  8
SOUZOU
100
AcDbLine
 10
322.1487000340121
 20
426.3508590533779
 30
0.0
 11
232.1487000340119
 21
426.3508590533779
 31
0.0
  0
LINE
  5
2D21
330
A
100
AcDbEntity
  8
SOUZOU
100
AcDbLine
 10
167.148700034012
 20
453.2398590533781
 30
0.0
 11
232.1487000340121
 21
453.2398590533779
 31
0.0
  0
LINE
  5
2D22
330
A
100
AcDbEntity
  8
SOUZOU
100
AcDbLine
 10
232.1487000340121
 20
453.2398590533779
 30
0.0
 11
232.1487000340119
 21
426.3508590533779
 31
0.0
  0
DIMENSION
  5
2D23
330
A
100
AcDbEntity
  8
SUNPOU
100
AcDbDimension
  2
*D20
 10
322.148700034012
 20
476.6502832545667
 30
0.0
 11
244.6487000340119
 21
481.1502832545667
 31
0.0
 70
    32
  1
<>(SOV-300KDC)
  3
SUNPOU_2
100
AcDbAlignedDimension
 13
167.148700034012
 23
479.3084724292158
 33
0.0
 14
322.148700034012
 24
426.3508590533779
 34
0.0
100
AcDbRotatedDimension
  0
POLYLINE
  5
2D4C
330
A
100
AcDbEntity
  8
DEFPOINTS
100
AcDb2dPolyline
 66
     1
 10
0.0
 20
0.0
 30
0.0
 70
     1
  0
VERTEX
  5
36AF
330
2D4C
100
AcDbEntity
  8
DEFPOINTS
100
AcDbVertex
100
AcDb2dVertex
 10
0.0
 20
0.0
 30
0.0
  0
VERTEX
  5
36B0
330
2D4C
100
AcDbEntity
  8
DEFPOINTS
100
AcDbVertex
100
AcDb2dVertex
 10
420.0
 20
0.0
 30
0.0
  0
VERTEX
  5
36B1
330
2D4C
100
AcDbEntity
  8
DEFPOINTS
100
AcDbVertex
100
AcDb2dVertex
 10
420.0
 20
594.0
 30
0.0
  0
VERTEX
  5
36B2
330
2D4C
100
AcDbEntity
  8
DEFPOINTS
100
AcDbVertex
100
AcDb2dVertex
 10
0.0
 20
594.0
 30
0.0
  0
SEQEND
  5
36B3
330
2D4C
100
AcDbEntity
  8
DEFPOINTS
  0
POLYLINE
  5
2FF9
330
A
100
AcDbEntity
  8
SAISEN
100
AcDb2dPolyline
 66
     1
 10
0.0
 20
0.0
 30
0.0
 70
     1
  0
VERTEX
  5
36B4
330
2FF9
100
AcDbEntity
  8
SAISEN
100
AcDbVertex
100
AcDb2dVertex
 10
70.74371498316577
 20
105.262789337733
 30
0.0
  0
VERTEX
  5
36B5
330
2FF9
100
AcDbEntity
  8
SAISEN
100
AcDbVertex
100
AcDb2dVertex
 10
80.74371498316578
 20
105.262789337733
 30
0.0
  0
VERTEX
  5
36B6
330
2FF9
100
AcDbEntity
  8
SAISEN
100
AcDbVertex
100
AcDb2dVertex
 10
80.74371498316578
 20
135.262789337733
 30
0.0
  0
VERTEX
  5
36B7
330
2FF9
100
AcDbEntity
  8
SAISEN
100
AcDbVertex
100
AcDb2dVertex
 10
70.74371498316577
 20
135.262789337733
 30
0.0
  0
SEQEND
  5
36B8
330
2FF9
100
AcDbEntity
  8
SAISEN
  0
MTEXT
  5
2FFA
330
A
100
AcDbEntity
  8
MOJI
100
AcDbMText
 10
75.74371498316577
 20
120.262789337733
 30
0.0
 40
6.0
 41
10.0
 71
     5
 72
     1
  1
外\P\P部
  7
0_8
1001
ACAD
1000
MTEXTBEGIN
1070
    73
1070
     1
1070
    44
1040
1.0
1070
    74
1070
     0
1000
MTEXTEND
1000
MTEXTBEGIN
1070
    73
1070
     1
1070
    44
1040
1.0
1070
    74
1070
     0
1000
MTEXTEND
  0
POLYLINE
  5
2FFB
330
A
100
AcDbEntity
  8
SAISEN
100
AcDb2dPolyline
 66
     1
 10
0.0
 20
0.0
 30
0.0
 70
     1
  0
VERTEX
  5
36B9
330
2FFB
100
AcDbEntity
  8
SAISEN
100
AcDbVertex
100
AcDb2dVertex
 10
360.8835543443611
 20
105.262789337733
 30
0.0
  0
VERTEX
  5
36BA
330
2FFB
100
AcDbEntity
  8
SAISEN
100
AcDbVertex
100
AcDb2dVertex
 10
370.8835543443609
 20
105.262789337733
 30
0.0
  0
VERTEX
  5
36BB
330
2FFB
100
AcDbEntity
  8
SAISEN
100
AcDbVertex
100
AcDb2dVertex
 10
370.8835543443609
 20
135.262789337733
 30
0.0
  0
VERTEX
  5
36BC
330
2FFB
100
AcDbEntity
  8
SAISEN
100
AcDbVertex
100
AcDb2dVertex
 10
360.8835543443611
 20
135.262789337733
 30
0.0
  0
SEQEND
  5
36BD
330
2FFB
100
AcDbEntity
  8
SAISEN
  0
MTEXT
  5
2FFC
330
A
100
AcDbEntity
  8
MOJI
100
AcDbMText
 10
365.8835543443609
 20
120.262789337733
 30
0.0
 40
6.0
 41
10.0
 71
     5
 72
     1
  1
内\P\P部
  7
0_8
1001
ACAD
1000
MTEXTBEGIN
1070
    73
1070
     1
1070
    44
1040
1.0
1070
    74
1070
     0
1000
MTEXTEND
1000
MTEXTBEGIN
1070
    73
1070
     1
1070
    44
1040
1.0
1070
    74
1070
     0
1000
MTEXTEND
  0
LINE
  5
32BB
330
A
100
AcDbEntity
  8
03
100
AcDbLine
 10
99.14870003401212
 20
562.2398590533781
 30
0.0
 11
99.14870003401212
 21
53.90826459709682
 31
0.0
  0
LINE
  5
32BC
330
A
100
AcDbEntity
  8
03
100
AcDbLine
 10
105.148700034012
 20
142.2398590533781
 30
0.0
 11
105.148700034012
 21
53.90826459709682
 31
0.0
  0
LINE
  5
32BD
330
A
100
AcDbEntity
  8
03
100
AcDbLine
 10
155.1487000340119
 20
143.739859053378
 30
0.0
 11
155.148700034012
 21
53.90826459709682
 31
0.0
  0
LINE
  5
32BF
330
A
100
AcDbEntity
  8
03
100
AcDbLine
 10
349.1487000340122
 20
53.90826459709677
 30
0.0
 11
349.1487000340124
 21
562.239859053378
 31
0.0
  0
DIMENSION
  5
3388
330
A
100
AcDbEntity
  8
SUNPOU
100
AcDbDimension
  2
*D21
 10
346.1487000340122
 20
124.0704255139511
 30
0.0
 11
298.1487000340121
 21
128.5704255139511
 31
0.0
 70
    32
  3
SUNPOU_2
100
AcDbAlignedDimension
 13
250.1487000340121
 23
143.739859053378
 33
0.0
 14
346.1487000340122
 24
143.7398590533779
 34
0.0
100
AcDbRotatedDimension
  0
DIMENSION
  5
3395
330
A
100
AcDbEntity
  8
SUNPOU
100
AcDbDimension
  2
*D22
 10
349.1487000340122
 20
124.0704255139511
 30
0.0
 11
344.8453113124291
 21
117.3620557080764
 31
0.0
 70
   160
  3
SUNPOU_2
100
AcDbAlignedDimension
 13
346.1487000340122
 23
143.7398590533779
 33
0.0
 14
349.1487000340122
 24
141.2535522173906
 34
0.0
100
AcDbRotatedDimension
  0
DIMENSION
  5
33A4
330
A
100
AcDbEntity
  8
SUNPOU
100
AcDbDimension
  2
*D23
 10
102.1487000340119
 20
124.0704255139511
 30
0.0
 11
103.4340702697627
 21
117.7850114788677
 31
0.0
 70
   160
  3
SUNPOU_2
100
AcDbAlignedDimension
 13
105.148700034012
 23
124.0704255139511
 33
0.0
 14
102.1487000340119
 24
143.739859053378
 34
0.0
100
AcDbRotatedDimension
1001
ACAD
1000
DSTYLE
1002
{
1070
     6
1000
OPEN30
1070
     5
1000

1070
   173
1070
     1
1070
     7
1000
DOTSMALL
1002
}
  0
DIMENSION
  5
33B3
330
A
100
AcDbEntity
  8
SUNPOU
100
AcDbDimension
  2
*D24
 10
99.14870003401212
 20
124.0704255139511
 30
0.0
 11
91.652950428027
 21
128.2655966259329
 31
0.0
 70
   160
  3
SUNPOU_2
100
AcDbAlignedDimension
 13
102.1487000340119
 23
143.739859053378
 33
0.0
 14
99.14870003401212
 24
124.0704255139511
 34
0.0
100
AcDbRotatedDimension
1001
ACAD
1000
DSTYLE
1002
{
1070
     6
1000
DOTSMALL
1070
     5
1000

1070
   173
1070
     1
1070
     7
1000
OPEN30
1002
}
  0
LINE
  5
34E4
330
A
100
AcDbEntity
  8
SOUZOU
100
AcDbLine
 10
167.148700034012
 20
173.2398590533781
 30
0.0
 11
171.6914290375433
 21
173.2398590533781
 31
0.0
  0
DIMENSION
  5
34E5
330
A
100
AcDbEntity
  8
SUNPOU
100
AcDbDimension
  2
*D26
 10
384.6245431905313
 20
173.2398590533781
 30
0.0
 11
380.1245431905311
 21
313.2398590533781
 31
0.0
 70
    32
  1
<>(SOV-300KDC)
  3
SUNPOU_2
100
AcDbAlignedDimension
 13
334.6281756423058
 23
453.2398590533779
 33
0.0
 14
334.6281756423058
 24
173.2398590533781
 34
0.0
 50
90.0
100
AcDbRotatedDimension
  0
DIMENSION
  5
34F3
330
A
100
AcDbEntity
  8
SUNPOU
100
AcDbDimension
  2
*D27
 10
400.3409004093319
 20
169.2398590533779
 30
0.0
 11
395.8409004093318
 21
319.2398590533779
 31
0.0
 70
    32
  1
<>(SOV-400KDC)
  3
SUNPOU_2
100
AcDbAlignedDimension
 13
334.6281756423058
 23
469.2398590533778
 33
0.0
 14
334.6281756423058
 24
169.2398590533779
 34
0.0
 50
90.0
100
AcDbRotatedDimension
  0
LINE
  5
3501
330
A
100
AcDbEntity
  8
SOUZOU
100
AcDbLine
 10
232.1487000340121
 20
195.6384622964765
 30
0.0
 11
232.1487000340121
 21
176.2210681732671
 31
0.0
  0
LINE
  5
3502
330
A
100
AcDbEntity
  8
SOUZOU
100
AcDbLine
 10
202.6487000340118
 20
173.2398590533781
 30
0.0
 11
216.151080991267
 21
173.2398590533781
 31
0.0
  0
LINE
  5
3503
330
A
100
AcDbEntity
  8
SOUZOU
100
AcDbLine
 10
202.6487000340122
 20
169.2398590533779
 30
0.0
 11
216.1510809912672
 21
169.2398590533779
 31
0.0
  0
LINE
  5
3504
330
A
100
AcDbEntity
  8
SOUZOU
100
AcDbLine
 10
167.1487000340123
 20
169.2398590533779
 30
0.0
 11
171.6914290375436
 21
169.2398590533779
 31
0.0
  0
LINE
  5
35A2
330
A
100
AcDbEntity
  8
02
100
AcDbLine
 10
326.648700034012
 20
480.7398590533781
 30
0.0
 11
329.6487000340121
 21
480.739859053378
 31
0.0
  0
LINE
  5
35B5
330
A
100
AcDbEntity
  8
KAKURE
100
AcDbLine
 10
153.148700034012
 20
251.2398590533779
 30
0.0
 11
147.148700034012
 21
251.2398590533779
 31
0.0
  0
LINE
  5
35B6
330
A
100
AcDbEntity
  8
KAKURE
100
AcDbLine
 10
153.148700034012
 20
250.4898590533779
 30
0.0
 11
147.148700034012
 21
250.4898590533779
 31
0.0
  0
LINE
  5
35B7
330
A
100
AcDbEntity
  8
KAKURE
100
AcDbLine
 10
153.148700034012
 20
243.9898590533779
 30
0.0
 11
147.148700034012
 21
243.9898590533779
 31
0.0
  0
LINE
  5
35B8
330
A
100
AcDbEntity
  8
KAKURE
100
AcDbLine
 10
153.148700034012
 20
243.2398590533779
 30
0.0
 11
147.148700034012
 21
243.2398590533779
 31
0.0
  0
LINE
  5
35B9
330
A
100
AcDbEntity
  8
KAKURE
100
AcDbLine
 10
153.148700034012
 20
211.2398590533781
 30
0.0
 11
147.148700034012
 21
211.2398590533781
 31
0.0
  0
LINE
  5
35BA
330
A
100
AcDbEntity
  8
KAKURE
100
AcDbLine
 10
153.148700034012
 20
210.489859053378
 30
0.0
 11
147.148700034012
 21
210.489859053378
 31
0.0
  0
LINE
  5
35BB
330
A
100
AcDbEntity
  8
KAKURE
100
AcDbLine
 10
153.148700034012
 20
203.989859053378
 30
0.0
 11
147.148700034012
 21
203.989859053378
 31
0.0
  0
LINE
  5
35BC
330
A
100
AcDbEntity
  8
KAKURE
100
AcDbLine
 10
153.148700034012
 20
203.2398590533781
 30
0.0
 11
147.148700034012
 21
203.2398590533781
 31
0.0
  0
LINE
  5
35BD
330
A
100
AcDbEntity
  8
KAKURE
100
AcDbLine
 10
198.1487000340121
 20
331.2398590533781
 30
0.0
 11
192.1487000340121
 21
331.2398590533781
 31
0.0
  0
LINE
  5
35BE
330
A
100
AcDbEntity
  8
KAKURE
100
AcDbLine
 10
198.1487000340121
 20
330.4898590533781
 30
0.0
 11
192.1487000340121
 21
330.4898590533781
 31
0.0
  0
LINE
  5
35BF
330
A
100
AcDbEntity
  8
KAKURE
100
AcDbLine
 10
198.1487000340121
 20
323.9898590533781
 30
0.0
 11
192.1487000340121
 21
323.9898590533781
 31
0.0
  0
LINE
  5
35C0
330
A
100
AcDbEntity
  8
KAKURE
100
AcDbLine
 10
192.1487000340121
 20
323.2398590533781
 30
0.0
 11
198.1487000340121
 21
323.2398590533781
 31
0.0
  0
LEADER
  5
35CA
330
A
100
AcDbEntity
  8
HIKIDASI
100
AcDbLeader
  3
SUNPOU_2
 73
     0
 75
     1
 40
13.33333333333333
 41
28.0
 76
     3
 10
194.8347272187632
 20
331.4977688680411
 30
0.0
 10
197.148700034012
 20
352.7174900542476
 30
0.0
 10
192.1487000340121
 20
352.7174900542476
 30
0.0
340
35CB
213
0.3408562188620579
223
8.306356890610116
233
0.0
1001
ACAD
1000
DSTYLE
1002
{
1070
     5
1000
OPEN30
1070
    77
1070
     1
1070
   147
1040
1.0
1070
   342
1005
683
1002
}
1000
LEANOF
1010
0.3408562188620579
1020
8.306356890610116
1030
0.0
1000
LEANOF
1010
0.3408562188620579
1020
8.306356890610116
1030
0.0
  0
MTEXT
  5
35CB
330
A
100
AcDbEntity
  8
HIKIDASI
 62
     6
100
AcDbMText
 10
175.80784381515
 20
353.0777998303041
 30
0.0
 40
5.0
 41
0.0
 71
     5
 72
     1
  1
M8タップ\P(サッシ工事)
  7
SUNPOU
1001
ACAD
1000
MTEXTBEGIN
1070
    73
1070
     1
1070
    44
1040
1.0
1070
    74
1070
     0
1000
MTEXTEND
1000
MTEXTBEGIN
1070
    73
1070
     1
1070
    44
1040
1.0
1070
    74
1070
     0
1000
MTEXTEND
  0
LEADER
  5
35CC
330
A
100
AcDbEntity
  8
HIKIDASI
100
AcDbLeader
  3
SUNPOU_2
 73
     0
 75
     1
 40
13.33333333333333
 41
28.0
 76
     3
 10
148.5896196607905
 20
203.2398590533781
 30
0.0
 10
152.148700034012
 20
185.1126381048842
 30
0.0
 10
147.148700034012
 20
185.1126381048842
 30
0.0
340
35CD
213
-0.700520916573595
223
8.519036489026206
233
0.0
1001
ACAD
1000
DSTYLE
1002
{
1070
     5
1000
OPEN30
1070
    77
1070
     1
1070
   147
1040
1.0
1070
   342
1005
683
1002
}
1000
LEANOF
1010
-0.700520916573595
1020
8.519036489026206
1030
0.0
1000
LEANOF
1010
-0.700520916573595
1020
8.519036489026206
1030
0.0
  0
MTEXT
  5
35CD
330
A
100
AcDbEntity
  8
HIKIDASI
 62
     6
100
AcDbMText
 10
131.8492209505857
 20
185.2602682825247
 30
0.0
 40
5.0
 41
0.0
 71
     5
 72
     1
  1
M8タップ\P(サッシ工事)
  7
SUNPOU
1001
ACAD
1000
MTEXTBEGIN
1070
    73
1070
     1
1070
    44
1040
1.0
1070
    74
1070
     0
1000
MTEXTEND
1000
MTEXTBEGIN
1070
    73
1070
     1
1070
    44
1040
1.0
1070
    74
1070
     0
1000
MTEXTEND
  0
LINE
  5
35D8
330
A
100
AcDbEntity
  8
04
100
AcDbLine
 10
167.6487000340119
 20
161.239859053378
 30
0.0
 11
167.6487000340119
 21
152.239859053378
 31
0.0
  0
LINE
  5
35D9
330
A
100
AcDbEntity
  8
04
100
AcDbLine
 10
192.6487000340119
 20
161.239859053378
 30
0.0
 11
167.6487000340119
 21
161.239859053378
 31
0.0
  0
LINE
  5
35DA
330
A
100
AcDbEntity
  8
04
100
AcDbLine
 10
192.6487000124731
 20
161.239859053378
 30
0.0
 11
192.6487000124731
 21
152.239859053378
 31
0.0
  0
LINE
  5
35DB
330
A
100
AcDbEntity
  8
04
100
AcDbLine
 10
237.6487000340119
 20
161.239859053378
 30
0.0
 11
212.6487000340119
 21
161.239859053378
 31
0.0
  0
LINE
  5
35DC
330
A
100
AcDbEntity
  8
04
100
AcDbLine
 10
212.6487000340119
 20
161.239859053378
 30
0.0
 11
212.6487000340119
 21
152.2398590533779
 31
0.0
  0
LINE
  5
35DD
330
A
100
AcDbEntity
  8
04
100
AcDbLine
 10
237.6487000124731
 20
161.239859053378
 30
0.0
 11
237.6487000124731
 21
152.2398590533779
 31
0.0
  0
LINE
  5
35ED
330
A
100
AcDbEntity
  8
SOUZOU
100
AcDbLine
 10
161.148700034012
 20
197.4528958357248
 30
0.0
 11
161.148700034012
 21
193.43940068936
 31
0.0
  0
LINE
  5
35EE
330
A
100
AcDbEntity
  8
SOUZOU
100
AcDbLine
 10
167.148700034012
 20
198.1157691577898
 30
0.0
 11
167.148700034012
 21
191.6281554639016
 31
0.0
  0
LINE
  5
35EF
330
A
100
AcDbEntity
  8
SOUZOU
100
AcDbLine
 10
167.148700034012
 20
260.0435115860615
 30
0.0
 11
167.148700034012
 21
216.8560261514191
 31
0.0
  0
LINE
  5
35F0
330
A
100
AcDbEntity
  8
SOUZOU
100
AcDbLine
 10
161.148700034012
 20
237.7237599230811
 30
0.0
 11
161.148700034012
 21
217.1466233968108
 31
0.0
  0
LINE
  5
35F1
330
A
100
AcDbEntity
  8
SOUZOU
100
AcDbLine
 10
161.148700034012
 20
284.5533991791586
 30
0.0
 11
161.148700034012
 21
256.3505523281461
 31
0.0
  0
LINE
  5
35F2
330
A
100
AcDbEntity
  8
SOUZOU
100
AcDbLine
 10
167.148700034012
 20
284.6160863178218
 30
0.0
 11
167.148700034012
 21
267.2299319703286
 31
0.0
  0
LINE
  5
35F5
330
A
100
AcDbEntity
  8
SOUZOU
100
AcDbLine
 10
161.148700034012
 20
296.177270803543
 30
0.0
 11
161.148700034012
 21
292.9807053022232
 31
0.0
  0
LINE
  5
35F6
330
A
100
AcDbEntity
  8
SOUZOU
100
AcDbLine
 10
167.1487000340119
 20
296.3525269602373
 30
0.0
 11
167.1487000340119
 21
292.8354073791918
 31
0.0
  0
LINE
  5
35F7
330
A
100
AcDbEntity
  8
SOUZOU
100
AcDbLine
 10
161.148700034012
 20
181.1420040508819
 30
0.0
 11
161.148700034012
 21
169.2398590533781
 31
0.0
  0
LINE
  5
35F8
330
A
100
AcDbEntity
  8
SOUZOU
100
AcDbLine
 10
167.148700034012
 20
181.4279891080276
 30
0.0
 11
167.148700034012
 21
169.2398590533781
 31
0.0
  0
LINE
  5
35FA
330
A
100
AcDbEntity
  8
SOUZOU
100
AcDbLine
 10
167.148700034012
 20
342.7063887732582
 30
0.0
 11
167.1487000340119
 21
304.2398590533781
 31
0.0
  0
MTEXT
  5
365B
330
A
100
AcDbEntity
  8
MOJI
100
AcDbMText
 10
360.9999999999968
 20
28.5
 30
0.0
 40
7.0
 41
49.99999999999994
 71
     5
 72
     1
  1
たて断面図　
  7
0_80
1001
ACAD
1000
MTEXTBEGIN
1070
    73
1070
     1
1070
    44
1040
1.0
1070
    74
1070
     0
1000
MTEXTEND
1000
MTEXTBEGIN
1070
    73
1070
     1
1070
    44
1040
1.0
1070
    74
1070
     0
1000
MTEXTEND
  0
MTEXT
  5
365C
330
A
100
AcDbEntity
  8
MOJI
100
AcDbMText
 10
310.9999999999967
 20
29.00000000000023
 30
0.0
 40
7.0
 41
50.0
 71
     5
 72
     1
  1
図番１６－２
  7
0_80
1001
ACAD
1000
MTEXTBEGIN
1070
    73
1070
     1
1070
    44
1040
1.0
1070
    74
1070
     0
1000
MTEXTEND
1000
MTEXTBEGIN
1070
    73
1070
     1
1070
    44
1040
1.0
1070
    74
1070
     0
1000
MTEXTEND
  0
POLYLINE
  5
365D
330
A
100
AcDbEntity
  8
SAISEN
100
AcDb2dPolyline
 66
     1
 10
0.0
 20
0.0
 30
0.0
 70
     1
  0
VERTEX
  5
36C1
330
365D
100
AcDbEntity
  8
SAISEN
100
AcDbVertex
100
AcDb2dVertex
 10
35.99999999999698
 20
17.0
 30
0.0
  0
VERTEX
  5
36C2
330
365D
100
AcDbEntity
  8
SAISEN
100
AcDbVertex
100
AcDb2dVertex
 10
385.999999999997
 20
17.0
 30
0.0
  0
VERTEX
  5
36C3
330
365D
100
AcDbEntity
  8
SAISEN
100
AcDbVertex
100
AcDb2dVertex
 10
385.999999999997
 20
41.00000000000022
 30
0.0
  0
VERTEX
  5
36C4
330
365D
100
AcDbEntity
  8
SAISEN
100
AcDbVertex
100
AcDb2dVertex
 10
35.99999999999698
 20
41.00000000000022
 30
0.0
  0
SEQEND
  5
36C5
330
365D
100
AcDbEntity
  8
SAISEN
  0
MTEXT
  5
365E
330
A
100
AcDbEntity
  8
MOJI
100
AcDbMText
 10
90.99999999999701
 20
29.0
 30
0.0
 40
7.0
 41
110.0
 71
     5
 72
     1
  1
ダブルスライド･ドア納り\P(重量タイプ)
  7
0_8
1001
ACAD
1000
MTEXTBEGIN
1070
    73
1070
     1
1070
    44
1040
1.0
1070
    74
1070
     0
1000
MTEXTEND
1000
MTEXTBEGIN
1070
    73
1070
     1
1070
    44
1040
1.0
1070
    74
1070
     0
1000
MTEXTEND
  0
LINE
  5
365F
330
A
100
AcDbEntity
  8
SAISEN
100
AcDbLine
 10
145.9999999999969
 20
41.00000000000022
 30
0.0
 11
145.9999999999969
 21
17.0
 31
0.0
  0
MTEXT
  5
3660
330
A
100
AcDbEntity
  8
MOJI
100
AcDbMText
 10
185.9999999999969
 20
29.0
 30
0.0
 40
7.0
 41
80.0
 71
     5
 72
     1
  1
ＳＯＶ－３００ＫＤＣ\PＳＯＶ－４００ＫＤＣ
  7
0_8
1001
ACAD
1000
MTEXTBEGIN
1070
    73
1070
     1
1070
    44
1040
1.0
1070
    74
1070
     0
1000
MTEXTEND
1000
MTEXTBEGIN
1070
    73
1070
     1
1070
    44
1040
1.0
1070
    74
1070
     0
1000
MTEXTEND
  0
MTEXT
  5
3661
330
A
100
AcDbEntity
  8
MOJI
100
AcDbMText
 10
255.9999999999999
 20
29.0
 30
0.0
 40
7.0
 41
60.0
 71
     5
 72
     1
  1
２重両引き
  7
0_8
1001
ACAD
1000
MTEXTBEGIN
1070
    73
1070
     1
1070
    44
1040
1.0
1070
    74
1070
     0
1000
MTEXTEND
1000
MTEXTBEGIN
1070
    73
1070
     1
1070
    44
1040
1.0
1070
    74
1070
     0
1000
MTEXTEND
  0
LINE
  5
3662
330
A
100
AcDbEntity
  8
SAISEN
100
AcDbLine
 10
225.999999999997
 20
41.00000000000022
 30
0.0
 11
225.999999999997
 21
17.0
 31
0.0
  0
LINE
  5
3663
330
A
100
AcDbEntity
  8
SAISEN
100
AcDbLine
 10
285.999999999997
 20
41.00000000000022
 30
0.0
 11
285.999999999997
 21
17.0
 31
0.0
  0
CIRCLE
  5
366C
330
A
100
AcDbEntity
  8
SAISEN
100
AcDbCircle
 10
392.0976380784293
 20
49.54302641223165
 30
0.0
 40
5.0
  0
TEXT
  5
366D
330
A
100
AcDbEntity
  8
MOJI
100
AcDbText
 10
389.0488190392131
 20
45.27151320611595
 30
0.0
 40
8.0
  1
Ｓ
 41
0.8
  7
0_8
 11
389.0488190392131
 21
53.27151320611595
 31
0.0
100
AcDbText
 73
     3
  0
VIEWPORT
  5
6BD
102
{ACAD_XDICTIONARY
360
369E
102
}
330
B
100
AcDbEntity
 67
     1
  8
0
100
AcDbViewport
 10
198.0508299538852
 20
285.1874487354477
 30
0.0
 40
1080.347564134148
 41
628.3535021666721
 68
     1
 69
     1
1001
ACAD
1000
MVIEW
1002
{
1070
    16
1010
0.0
1020
0.0
1030
0.0
1010
0.0
1020
0.0
1030
1.0
1040
0.0
1040
628.3535021666721
1040
198.0508299538852
1040
285.1874487354477
1040
50.0
1040
0.0
1040
0.0
1070
     0
1070
   100
1070
     1
1070
     1
1070
     0
1070
     0
1070
     0
1070
     0
1040
0.0
1040
0.0
1040
0.0
1040
10.0
1040
10.0
1040
10.0
1040
10.0
1070
     0
1002
{
1002
}
1002
}
  0
VIEWPORT
  5
3688
102
{ACAD_XDICTIONARY
360
36A4
102
}
330
B
100
AcDbEntity
 67
     1
  8
DEFPOINTS
100
AcDbViewport
 10
198.0508309076477
 20
285.1874477816852
 30
0.0
 40
396.4883172119752
 41
570.409736121624
 68
     2
 69
     2
1001
ACAD
1000
MVIEW
1002
{
1070
    16
1010
0.0
1020
0.0
1030
0.0
1010
0.0
1020
0.0
1030
1.0
1040
0.0
1040
570.409736121624
1040
210.0
1040
297.0
1040
50.0
1040
0.0
1040
0.0
1070
     0
1070
   100
1070
     1
1070
     1
1070
     0
1070
     0
1070
     0
1070
     0
1040
0.0
1040
0.0
1040
0.0
1040
1.0
1040
1.0
1040
0.0
1040
0.0
1070
     0
1002
{
1002
}
1002
}
  0
ENDSEC
  0
SECTION
  2
OBJECTS
  0
DICTIONARY
  5
19
330
0
100
AcDbDictionary
  3
ACAD_COLOR
350
3644
  3
ACAD_GROUP
350
1A
  3
ACAD_LAYOUT
350
3A0
  3
ACAD_MATERIAL
350
3643
  3
ACAD_MLINESTYLE
350
1B
  3
ACAD_PLOTSETTINGS
350
3A1
  3
ACADDIM
350
3387
  3
ASE_INDEX_DICTIONARY
350
366F
1001
ACAD
1000
TREAT_AS_HARD
1070
     0
1000
TREAT_AS_HARD
1070
     0
  0
DICTIONARY
  5
D30
330
2
100
AcDbDictionary
  3
ACAD_LAYERFILTERS
350
D31
  3
ACAD_LAYERSTATES
350
35AC
1001
ACAD
1000
TREAT_AS_HARD
1070
     1
1000
TREAT_AS_HARD
1070
     1
  0
DICTIONARY
  5
3608
330
A
100
AcDbDictionary
  3
ACAD_LAYOUTSELFREF
350
36AC
1001
ACAD
1000
TREAT_AS_HARD
1070
     1
  0
DICTIONARY
  5
360A
330
B
100
AcDbDictionary
  3
ACAD_LAYOUTSELFREF
350
36AD
1001
ACAD
1000
TREAT_AS_HARD
1070
     1
  0
DICTIONARY
  5
369E
330
6BD
100
AcDbDictionary
  3
ACAD_XREC_ROUNDTRIP
350
369F
1001
ACAD
1000
TREAT_AS_HARD
1070
     1
  0
DICTIONARY
  5
36A4
330
3688
100
AcDbDictionary
  3
ACAD_XREC_ROUNDTRIP
350
36A5
1001
ACAD
1000
TREAT_AS_HARD
1070
     1
  0
DICTIONARY
  5
3644
102
{ACAD_REACTORS
330
19
102
}
330
19
100
AcDbDictionary
1001
ACAD
1000
TREAT_AS_HARD
1070
     0
  0
DICTIONARY
  5
1A
102
{ACAD_REACTORS
330
19
102
}
330
19
100
AcDbDictionary
1001
ACAD
1000
TREAT_AS_HARD
1070
     0
1000
TREAT_AS_HARD
1070
     0
  0
DICTIONARY
  5
3A0
102
{ACAD_REACTORS
330
19
102
}
330
19
100
AcDbDictionary
1001
ACAD
1000
TREAT_AS_HARD
1070
     0
1000
TREAT_AS_HARD
1070
     0
  0
DICTIONARY
  5
3643
102
{ACAD_REACTORS
330
19
102
}
330
19
100
AcDbDictionary
1001
ACAD
1000
TREAT_AS_HARD
1070
     0
  0
DICTIONARY
  5
1B
102
{ACAD_REACTORS
330
19
102
}
330
19
100
AcDbDictionary
  3
STANDARD
350
1C
1001
ACAD
1000
TREAT_AS_HARD
1070
     0
1000
TREAT_AS_HARD
1070
     0
  0
DICTIONARY
  5
3A1
102
{ACAD_REACTORS
330
19
102
}
330
19
100
AcDbDictionary
1001
ACAD
1000
TREAT_AS_HARD
1070
     0
1000
TREAT_AS_HARD
1070
     0
  0
XRECORD
  5
3387
102
{ACAD_REACTORS
330
19
102
}
330
19
100
AcDbXrecord
 90
   990106
  3

 60
     0
 61
     0
 62
     1
 63
     3
 64
     0
 65
     0
 66
     0
 67
     3
 68
     1
 69
     0
 70
     0
 71
     0
 72
     0
 40
0.0
170
     0
  0
DICTIONARY
  5
366F
102
{ACAD_REACTORS
330
19
102
}
330
19
100
AcDbDictionary
  3
ASEBLOCKHIERARCHYINDEXRECORD
350
3671
1001
DCO15
1040
1508736804.625
1001
ACAD
1000
TREAT_AS_HARD
1070
     0
  0
DICTIONARY
  5
D31
102
{ACAD_REACTORS
330
D30
102
}
330
D30
100
AcDbDictionary
  3
HIHYOJI
350
D32
1001
ACAD
1000
TREAT_AS_HARD
1070
     1
1000
TREAT_AS_HARD
1070
     0
  0
DICTIONARY
  5
35AC
102
{ACAD_REACTORS
330
D30
102
}
330
D30
100
AcDbDictionary
1001
ACAD
1000
TREAT_AS_HARD
1070
     0
1000
TREAT_AS_HARD
1070
     0
  0
XRECORD
  5
36AC
102
{ACAD_REACTORS
330
3608
102
}
330
3608
100
AcDbXrecord
340
A
  0
XRECORD
  5
36AD
102
{ACAD_REACTORS
330
360A
102
}
330
360A
100
AcDbXrecord
340
B
  0
XRECORD
  5
369F
102
{ACAD_REACTORS
330
369E
102
}
330
369E
100
AcDbXrecord
102
SHADEPLOT
 70
     0
  0
XRECORD
  5
36A5
102
{ACAD_REACTORS
330
36A4
102
}
330
36A4
100
AcDbXrecord
102
SHADEPLOT
 70
     0
  0
MLINESTYLE
  5
1C
102
{ACAD_REACTORS
330
1B
102
}
330
1B
100
AcDbMlineStyle
  2
STANDARD
 70
     0
  3

 62
     0
 51
90.0
 52
90.0
 71
     2
 49
0.5
 62
   256
  6
BYLAYER
 49
-0.5
 62
   256
  6
BYLAYER
  0
XRECORD
  5
3671
102
{ACAD_REACTORS
330
366F
102
}
330
366F
100
AcDbXrecord
330
3300
330
3301
330
3562
330
3563
330
3309
330
330A
330
34C7
330
34C8
330
3364
330
3365
330
3370
330
3371
330
3576
330
3577
330
34B1
330
34B2
330
33D9
330
33DA
330
323B
330
323C
330
3244
330
3245
330
324D
330
324E
330
33EB
330
33EC
330
3410
330
3411
330
33E2
330
33E3
330
3438
330
3439
330
3430
330
342F
330
3408
330
3407
330
33FD
330
33FE
330
33F4
330
33F5
330
359C
330
359D
330
3594
330
3595
330
3627
330
3628
330
3632
330
3633
330
3588
330
3589
330
357F
330
3580
  0
XRECORD
  5
D32
102
{ACAD_REACTORS
330
D31
102
}
330
D31
100
AcDbXrecord
  1
hihyoji
  1
08,09,*_h
  1
*
  1
*
 70
     0
  1
*
  1
*
  0
ENDSEC
  0
EOF
