  0
SECTION
  2
HEADER
  9
$ACADVER
  1
AC1012
  9
$DWGCODEPAGE
  3
dos932
  9
$INSBASE
 10
0.0
 20
0.0
 30
0.0
  9
$EXTMIN
 10
0.0
 20
0.0
 30
0.0
  9
$EXTMAX
 10
420.0
 20
594.0
 30
0.0
  9
$LIMMIN
 10
0.0
 20
0.0
  9
$LIMMAX
 10
420.0
 20
594.0
  9
$ORTHOMODE
 70
     0
  9
$REGENMODE
 70
     1
  9
$FILLMODE
 70
     1
  9
$QTEXTMODE
 70
     0
  9
$MIRRTEXT
 70
     1
  9
$DRAGMODE
 70
     2
  9
$LTSCALE
 40
1.0
  9
$OSMODE
 70
    37
  9
$ATTMODE
 70
     1
  9
$TEXTSIZE
 40
7.0
  9
$TRACEWID
 40
0.05
  9
$TEXTSTYLE
  7
STANDARD
  9
$CLAYER
  8
DEFPOINTS
  9
$CELTYPE
  6
BYLAYER
  9
$CECOLOR
 62
   256
  9
$CELTSCALE
 40
1.0
  9
$DELOBJ
 70
     1
  9
$DISPSILH
 70
     0
  9
$DIMSCALE
 40
2.0
  9
$DIMASZ
 40
2.5
  9
$DIMEXO
 40
1.5
  9
$DIMDLI
 40
0.0
  9
$DIMRND
 40
0.0
  9
$DIMDLE
 40
0.0
  9
$DIMEXE
 40
1.0
  9
$DIMTP
 40
0.0
  9
$DIMTM
 40
0.0
  9
$DIMTXT
 40
2.5
  9
$DIMCEN
 40
0.0
  9
$DIMTSZ
 40
0.0
  9
$DIMTOL
 70
     0
  9
$DIMLIM
 70
     0
  9
$DIMTIH
 70
     0
  9
$DIMTOH
 70
     0
  9
$DIMSE1
 70
     0
  9
$DIMSE2
 70
     0
  9
$DIMTAD
 70
     1
  9
$DIMZIN
 70
     8
  9
$DIMBLK
  1
OPEN30
  9
$DIMASO
 70
     1
  9
$DIMSHO
 70
     1
  9
$DIMPOST
  1

  9
$DIMAPOST
  1

  9
$DIMALT
 70
     0
  9
$DIMALTD
 70
     2
  9
$DIMALTF
 40
25.4
  9
$DIMLFAC
 40
1.0
  9
$DIMTOFL
 70
     1
  9
$DIMTVP
 40
0.0
  9
$DIMTIX
 70
     0
  9
$DIMSOXD
 70
     0
  9
$DIMSAH
 70
     0
  9
$DIMBLK1
  1

  9
$DIMBLK2
  1

  9
$DIMSTYLE
  2
SUNPOU_2
  9
$DIMCLRD
 70
   256
  9
$DIMCLRE
 70
   256
  9
$DIMCLRT
 70
     6
  9
$DIMTFAC
 40
1.0
  9
$DIMGAP
 40
1.0
  9
$DIMJUST
 70
     0
  9
$DIMSD1
 70
     0
  9
$DIMSD2
 70
     0
  9
$DIMTOLJ
 70
     1
  9
$DIMTZIN
 70
     0
  9
$DIMALTZ
 70
     0
  9
$DIMALTTZ
 70
     0
  9
$DIMFIT
 70
     3
  9
$DIMUPT
 70
     0
  9
$DIMUNIT
 70
     2
  9
$DIMDEC
 70
     1
  9
$DIMTDEC
 70
     1
  9
$DIMALTU
 70
     2
  9
$DIMALTTD
 70
     2
  9
$DIMTXSTY
  7
SUNPOU
  9
$DIMAUNIT
 70
     0
  9
$LUNITS
 70
     2
  9
$LUPREC
 70
     4
  9
$SKETCHINC
 40
0.1
  9
$FILLETRAD
 40
0.0
  9
$AUNITS
 70
     0
  9
$AUPREC
 70
     0
  9
$MENU
  1
acad
  9
$ELEVATION
 40
0.0
  9
$PELEVATION
 40
0.0
  9
$THICKNESS
 40
0.0
  9
$LIMCHECK
 70
     0
  9
$BLIPMODE
 70
     0
  9
$CHAMFERA
 40
0.0
  9
$CHAMFERB
 40
0.0
  9
$CHAMFERC
 40
0.0
  9
$CHAMFERD
 40
0.0
  9
$SKPOLY
 70
     0
  9
$TDCREATE
 40
2444972.375000000
  9
$TDUPDATE
 40
2453266.404221099
  9
$TDINDWG
 40
0.5228065394
  9
$TDUSRTIMER
 40
0.5228063542
  9
$USRTIMER
 70
     1
  9
$ANGBASE
 50
0.0
  9
$ANGDIR
 70
     0
  9
$PDMODE
 70
     0
  9
$PDSIZE
 40
1.0
  9
$PLINEWID
 40
0.0
  9
$COORDS
 70
     1
  9
$SPLFRAME
 70
     0
  9
$SPLINETYPE
 70
     6
  9
$SPLINESEGS
 70
     8
  9
$ATTDIA
 70
     0
  9
$ATTREQ
 70
     1
  9
$HANDLING
 70
-16383
  9
$HANDSEED
  5
397A
  9
$SURFTAB1
 70
     6
  9
$SURFTAB2
 70
     6
  9
$SURFTYPE
 70
     6
  9
$SURFU
 70
     6
  9
$SURFV
 70
     6
  9
$UCSNAME
  2

  9
$UCSORG
 10
0.0
 20
0.0
 30
0.0
  9
$UCSXDIR
 10
1.0
 20
0.0
 30
0.0
  9
$UCSYDIR
 10
0.0
 20
1.0
 30
0.0
  9
$PUCSNAME
  2

  9
$PUCSORG
 10
0.0
 20
0.0
 30
0.0
  9
$PUCSXDIR
 10
1.0
 20
0.0
 30
0.0
  9
$PUCSYDIR
 10
0.0
 20
1.0
 30
0.0
  9
$USERI1
 70
     0
  9
$USERI2
 70
     0
  9
$USERI3
 70
     0
  9
$USERI4
 70
     0
  9
$USERI5
 70
     0
  9
$USERR1
 40
0.0
  9
$USERR2
 40
0.0
  9
$USERR3
 40
0.0
  9
$USERR4
 40
0.0
  9
$USERR5
 40
0.0
  9
$WORLDVIEW
 70
     1
  9
$SHADEDGE
 70
     3
  9
$SHADEDIF
 70
    70
  9
$TILEMODE
 70
     1
  9
$MAXACTVP
 70
    16
  9
$PINSBASE
 10
0.0
 20
0.0
 30
0.0
  9
$PLIMCHECK
 70
     0
  9
$PEXTMIN
 10
-0.1933276983398855
 20
-0.0174202791267817
 30
-0.0015258207003583
  9
$PEXTMAX
 10
396.2949895136353
 20
570.3923158424973
 30
0.0000000349246037
  9
$PLIMMIN
 10
-11.94191342824454
 20
-11.76600219398141
  9
$PLIMMAX
 10
408.0435733360149
 20
582.1408996648768
  9
$UNITMODE
 70
     0
  9
$VISRETAIN
 70
     0
  9
$PLINEGEN
 70
     1
  9
$PSLTSCALE
 70
     0
  9
$TREEDEPTH
 70
  3020
  9
$PICKSTYLE
 70
     1
  9
$CMLSTYLE
  2
STANDARD
  9
$CMLJUST
 70
     0
  9
$CMLSCALE
 40
1.0
  9
$SAVEIMAGES
 70
     1
  0
ENDSEC
  0
SECTION
  2
CLASSES
  0
CLASS
  1
LWPOLYLINE
  2
AcDbPolyline
  3
AutoCAD 2000
 90
    32768
280
     0
281
     1
  0
CLASS
  1
IMAGE
  2
AcDbRasterImage
  3
ISM
 90
    32895
280
     0
281
     1
  0
CLASS
  1
OLE2FRAME
  2
AcDbOle2Frame
  3
AutoCAD 2000
 90
    32768
280
     0
281
     1
  0
CLASS
  1
HATCH
  2
AcDbHatch
  3
AutoCAD 2000
 90
    32768
280
     0
281
     1
  0
CLASS
  1
DICTIONARYVAR
  2
AcDbDictionaryVar
  3
AutoCAD 2000
 90
    32768
280
     0
281
     0
  0
CLASS
  1
RASTERVARIABLES
  2
AcDbRasterVariables
  3
ISM
 90
    32768
280
     0
281
     0
  0
CLASS
  1
IMAGEDEF
  2
AcDbRasterImageDef
  3
ISM
 90
    32768
280
     0
281
     0
  0
CLASS
  1
IMAGEDEF_REACTOR
  2
AcDbRasterImageDefReactor
  3
ISM
 90
    32769
280
     0
281
     0
  0
CLASS
  1
IDBUFFER
  2
AcDbIdBuffer
  3
AutoCAD 2000
 90
    32768
280
     0
281
     0
  0
CLASS
  1
SPATIAL_FILTER
  2
AcDbSpatialFilter
  3
AutoCAD 2000
 90
    32768
280
     0
281
     0
  0
CLASS
  1
XRECORD
  2
AcDbXrecord
  3
AutoCAD 2000
 90
    32768
280
     0
281
     0
  0
CLASS
  1
SORTENTSTABLE
  2
AcDbSortentsTable
  3
AutoCAD 2000
 90
    32768
280
     0
281
     0
  0
CLASS
  1
LAYER_INDEX
  2
AcDbLayerIndex
  3
AutoCAD 2000
 90
    32768
280
     0
281
     0
  0
CLASS
  1
SPATIAL_INDEX
  2
AcDbSpatialIndex
  3
AutoCAD 2000
 90
    32768
280
     0
281
     0
  0
CLASS
  1
OBJECT_PTR
  2
CAseDLPNTableRecord
  3
ASE-LPNTableRecord
 90
    32769
280
     0
281
     0
  0
CLASS
  1
LAYOUT
  2
AcDbLayout
  3
AutoCAD 2000
 90
    32768
280
     0
281
     0
  0
CLASS
  1
PLOTSETTINGS
  2
AcDbPlotSettings
  3
AutoCAD 2000
 90
    32768
280
     0
281
     0
  0
CLASS
  1
ACDBDICTIONARYWDFLT
  2
AcDbDictionaryWithDefault
  3
AutoCAD 2000
 90
    32768
280
     0
281
     0
  0
CLASS
  1
ACDBPLACEHOLDER
  2
AcDbPlaceHolder
  3
AutoCAD 2000
 90
    32768
280
     0
281
     0
  0
CLASS
  1
VBA_PROJECT
  2
AcDbVbaProject
  3
acad
 90
    32768
280
     0
281
     0
  0
CLASS
  1
WIPEOUT
  2
AcDbWipeout
  3
"WipeOut|Product Desc: Object Enabler for WipeOut entity^I^I^I^I^I^I|Company: Autodesk, Inc.^I^I^I^I^I^I|WEB Address: www.autodesk.com"
 90
    32895
280
     0
281
     1
  0
CLASS
  1
WIPEOUTVARIABLES
  2
AcDbWipeoutVariables
  3
"WipeOut|Product Desc:     WipeOut Dbx Application|Company:          Autodesk, Inc.|WEB Address:      www.autodesk.com"
 90
    32768
280
     0
281
     0
  0
CLASS
  1
RTEXT
  2
RText
  3
RText|AutoCAD Express Tool|expresstools@autodesk.com
 90
    32768
280
     0
281
     1
  0
CLASS
  1
ARCALIGNEDTEXT
  2
AcDbArcAlignedText
  3
ATEXT|AutoCAD Express Tool|expresstools@autodesk.com
 90
    32768
280
     0
281
     1
  0
CLASS
  1
LONG_TRANSACTION
  2
AcDbLongTransaction
  3
AutoCAD 2000
 90
    32768
280
     0
281
     0
  0
CLASS
  1
LWPOLYLINE
  2
AcDbPolyline
  3
AutoCAD 2000
 90
    32768
280
     0
281
     1
  0
CLASS
  1
HATCH
  2
AcDbHatch
  3
AutoCAD 2000
 90
    32768
280
     0
281
     1
  0
CLASS
  1
XRECORD
  2
AcDbXrecord
  3
AutoCAD 2000
 90
    32768
280
     0
281
     0
  0
CLASS
  1
LONG_TRANSACTION
  2
AcDbLongTransaction
  3
AutoCAD 2000
 90
    32768
280
     0
281
     0
  0
CLASS
  1
LWPOLYLINE
  2
AcDbPolyline
  3
AutoCAD 2000
 90
    32768
280
     0
281
     1
  0
CLASS
  1
HATCH
  2
AcDbHatch
  3
AutoCAD 2000
 90
    32768
280
     0
281
     1
  0
CLASS
  1
XRECORD
  2
AcDbXrecord
  3
AutoCAD 2000
 90
    32768
280
     0
281
     0
  0
ENDSEC
  0
SECTION
  2
TABLES
  0
TABLE
  2
VPORT
  5
7
330
0
100
AcDbSymbolTable
 70
     2
  0
VPORT
  5
3962
330
7
100
AcDbSymbolTableRecord
100
AcDbViewportTableRecord
  2
*ACTIVE
 70
     0
 10
0.0
 20
0.0
 11
1.0
 21
1.0
 12
229.3173928824145
 22
297.000001383014
 13
0.0
 23
0.0
 14
1.0
 24
1.0
 15
0.0
 25
0.0
 16
0.0
 26
0.0
 36
1.0
 17
0.0
 27
0.0
 37
0.0
 40
600.9463810161394
 41
1.780442804428044
 42
50.0
 43
0.0
 44
0.0
 50
0.0
 51
0.0
 71
     0
 72
   100
 73
     1
 74
     1
 75
     0
 76
     0
 77
     0
 78
     0
  0
ENDTAB
  0
TABLE
  2
LTYPE
  5
4
330
0
100
AcDbSymbolTable
 70
     3
  0
LTYPE
  5
11
330
4
100
AcDbSymbolTableRecord
100
AcDbLinetypeTableRecord
  2
BYBLOCK
 70
     0
  3

 72
    65
 73
     0
 40
0.0
  0
LTYPE
  5
12
330
4
100
AcDbSymbolTableRecord
100
AcDbLinetypeTableRecord
  2
BYLAYER
 70
     0
  3

 72
    65
 73
     0
 40
0.0
  0
LTYPE
  5
13
330
4
100
AcDbSymbolTableRecord
100
AcDbLinetypeTableRecord
  2
CONTINUOUS
 70
     0
  3
Solid line
 72
    65
 73
     0
 40
0.0
  0
LTYPE
  5
21
330
4
100
AcDbSymbolTableRecord
100
AcDbLinetypeTableRecord
  2
DASHED2
 70
     0
  3
CADPAC LINETYPE
 72
    65
 73
     2
 40
13.365
 49
8.91
 74
     0
 49
-4.455
 74
     0
  0
LTYPE
  5
2953
330
4
100
AcDbSymbolTableRecord
100
AcDbLinetypeTableRecord
  2
CENTER2
 70
     0
  3
Center (.5x) ___ _ ___ _ ___ _ ___ _ ___ _ ___
 72
    65
 73
     4
 40
28.57499999999999
 49
19.05
 74
     0
 49
-3.174999999999998
 74
     0
 49
3.174999999999998
 74
     0
 49
-3.174999999999998
 74
     0
  0
ENDTAB
  0
TABLE
  2
LAYER
  5
2
102
{ACAD_XDICTIONARY
360
2F72
102
}
330
0
100
AcDbSymbolTable
 70
    12
  0
LAYER
  5
14
330
2
100
AcDbSymbolTableRecord
100
AcDbLayerTableRecord
  2
0
 70
     0
 62
     7
  6
CONTINUOUS
  0
LAYER
  5
292F
330
2
100
AcDbSymbolTableRecord
100
AcDbLayerTableRecord
  2
06
 70
     0
 62
     6
  6
CONTINUOUS
  0
LAYER
  5
2930
330
2
100
AcDbSymbolTableRecord
100
AcDbLayerTableRecord
  2
MOJI
 70
     0
 62
     3
  6
CONTINUOUS
  0
LAYER
  5
294B
330
2
100
AcDbSymbolTableRecord
100
AcDbLayerTableRecord
  2
DEFPOINTS
 70
     0
 62
     7
  6
CONTINUOUS
  0
LAYER
  5
294D
330
2
100
AcDbSymbolTableRecord
100
AcDbLayerTableRecord
  2
02
 70
     0
 62
     2
  6
CONTINUOUS
  0
LAYER
  5
294E
330
2
100
AcDbSymbolTableRecord
100
AcDbLayerTableRecord
  2
03
 70
     0
 62
     3
  6
CONTINUOUS
  0
LAYER
  5
294F
330
2
100
AcDbSymbolTableRecord
100
AcDbLayerTableRecord
  2
04
 70
     0
 62
     4
  6
CONTINUOUS
  0
LAYER
  5
2952
330
2
100
AcDbSymbolTableRecord
100
AcDbLayerTableRecord
  2
CHUSIN
 70
     0
 62
     6
  6
CENTER2
  0
LAYER
  5
2954
330
2
100
AcDbSymbolTableRecord
100
AcDbLayerTableRecord
  2
HIKIDASI
 70
     0
 62
     6
  6
CONTINUOUS
  0
LAYER
  5
2955
330
2
100
AcDbSymbolTableRecord
100
AcDbLayerTableRecord
  2
KAKURE
 70
     0
 62
     6
  6
DASHED2
  0
LAYER
  5
2958
330
2
100
AcDbSymbolTableRecord
100
AcDbLayerTableRecord
  2
SUNPOU
 70
     0
 62
     6
  6
CONTINUOUS
  0
LAYER
  5
36E9
330
2
100
AcDbSymbolTableRecord
100
AcDbLayerTableRecord
  2
SAISEN
 70
     0
 62
     3
  6
CONTINUOUS
  0
ENDTAB
  0
TABLE
  2
STYLE
  5
3
330
0
100
AcDbSymbolTable
 70
     4
  0
STYLE
  5
17
330
3
100
AcDbSymbolTableRecord
100
AcDbTextStyleTableRecord
  2
STANDARD
 70
     0
 40
0.0
 41
0.9
 50
0.0
 71
     0
 42
7.0
  3
txt.shx
  4
bigfont.shx
  0
STYLE
  5
2933
330
3
100
AcDbSymbolTableRecord
100
AcDbTextStyleTableRecord
  2
0_8
 70
     0
 40
0.0
 41
0.8
 50
0.0
 71
     0
 42
2.5
  3
txt.shx
  4
extfont.shx
  0
STYLE
  5
295A
330
3
100
AcDbSymbolTableRecord
100
AcDbTextStyleTableRecord
  2
SUNPOU
 70
     0
 40
0.0
 41
0.8
 50
0.0
 71
     0
 42
0.2
  3
txt.shx
  4
extfont.shx
  0
STYLE
  5
3902
330
3
100
AcDbSymbolTableRecord
100
AcDbTextStyleTableRecord
  2
0_80
 70
     0
 40
0.0
 41
0.8
 50
0.0
 71
     0
 42
5.0
  3
txt.shx
  4
extfont.shx
  0
ENDTAB
  0
TABLE
  2
VIEW
  5
5
330
0
100
AcDbSymbolTable
 70
     1
  0
VIEW
  5
3F
330
5
100
AcDbSymbolTableRecord
100
AcDbViewTableRecord
  2
QQQQ
 70
     0
 40
650.552175
 10
2.444999398393064
 20
0.6675000000000182
 41
433.7014514925236
 11
0.0
 21
0.0
 31
1.0
 12
100.0
 22
100.0
 32
0.0
 42
50.0
 43
0.0
 44
0.0
 50
0.0
 71
     0
  0
ENDTAB
  0
TABLE
  2
UCS
  5
6
330
0
100
AcDbSymbolTable
 70
     0
  0
ENDTAB
  0
TABLE
  2
APPID
  5
8
330
0
100
AcDbSymbolTable
 70
     3
  0
APPID
  5
16
330
8
100
AcDbSymbolTableRecord
100
AcDbRegAppTableRecord
  2
ACAD
 70
     0
  0
APPID
  5
38D9
330
8
100
AcDbSymbolTableRecord
100
AcDbRegAppTableRecord
  2
CONTENTBLOCKICON
 70
     0
  0
APPID
  5
3927
330
8
100
AcDbSymbolTableRecord
100
AcDbRegAppTableRecord
  2
DCO15
 70
     0
  0
ENDTAB
  0
TABLE
  2
DIMSTYLE
  5
9
330
0
100
AcDbSymbolTable
 70
     2
  0
DIMSTYLE
105
18
330
9
100
AcDbSymbolTableRecord
100
AcDbDimStyleTableRecord
  2
STANDARD
 70
     0
  3

  4

  5

  6

  7

 40
1.0
 41
0.18
 42
0.0625
 43
0.38
 44
0.18
 45
0.0
 46
0.0
 47
0.0
 48
0.0
140
0.18
141
0.09
142
0.0
143
25.4
144
1.0
145
0.0
146
1.0
147
0.09
 71
     0
 72
     0
 73
     1
 74
     1
 75
     0
 76
     0
 77
     0
 78
     0
170
     0
171
     2
172
     0
173
     0
174
     0
175
     0
176
     0
177
     0
178
     0
270
     2
271
     4
272
     4
273
     2
274
     2
340
17
275
     0
280
     0
281
     0
282
     0
283
     1
284
     0
285
     0
286
     0
287
     3
288
     0
  0
DIMSTYLE
105
2959
102
{ACAD_REACTORS
330
2982
330
298F
330
299C
330
29A9
330
29B6
330
29C5
330
29D2
330
29DF
330
2A3F
330
2A4C
330
2A59
330
2A66
330
2A73
330
2A80
330
2A8D
330
2A9A
330
2AA7
330
2AB4
330
2AC1
330
2AD0
330
2ADD
330
2AEC
330
2AF9
330
2B18
330
2B32
330
2B3F
330
2B5E
330
2B6D
330
3755
102
}
330
9
100
AcDbSymbolTableRecord
100
AcDbDimStyleTableRecord
  2
SUNPOU_2
 70
     0
  3

  4

  5
OPEN30
  6

  7

 40
2.0
 41
2.5
 42
1.5
 43
0.0
 44
1.0
 45
0.0
 46
0.0
 47
0.0
 48
0.0
140
2.5
141
0.0
142
0.0
143
25.4
144
1.0
145
0.0
146
1.0
147
1.0
 71
     0
 72
     0
 73
     0
 74
     0
 75
     0
 76
     0
 77
     1
 78
     8
170
     0
171
     2
172
     1
173
     0
174
     0
175
     0
176
   256
177
   256
178
     6
270
     2
271
     1
272
     1
273
     2
274
     2
340
295A
275
     0
280
     0
281
     0
282
     0
283
     1
284
     0
285
     0
286
     0
287
     3
288
     0
  0
ENDTAB
  0
TABLE
  2
BLOCK_RECORD
  5
1
330
0
100
AcDbSymbolTable
 70
    31
  0
BLOCK_RECORD
  5
A
102
{ACAD_XDICTIONARY
360
38CB
102
}
330
1
100
AcDbSymbolTableRecord
100
AcDbBlockTableRecord
  2
*MODEL_SPACE
  0
BLOCK_RECORD
  5
B
102
{ACAD_XDICTIONARY
360
38CD
102
}
330
1
100
AcDbSymbolTableRecord
100
AcDbBlockTableRecord
  2
*PAPER_SPACE
  0
BLOCK_RECORD
  5
295B
330
1
100
AcDbSymbolTableRecord
100
AcDbBlockTableRecord
  2
_OPEN30
1001
CONTENTBLOCKICON
1071
        0
1004
2800000020000000200000000100080000000000000400000000000000000000000000000000000000000000000080000080000000808000800000008000800080800000C0C0C000C0DCC000F0CAA6000020400000206000002080000020A0000020C0000020E00000400000004020000040400000406000004080000040A0
1004
000040C0000040E00000600000006020000060400000606000006080000060A0000060C0000060E00000800000008020000080400000806000008080000080A0000080C0000080E00000A0000000A0200000A0400000A0600000A0800000A0A00000A0C00000A0E00000C0000000C0200000C0400000C0600000C0800000C0
1004
A00000C0C00000C0E00000E0000000E0200000E0400000E0600000E0800000E0A00000E0C00000E0E00040000000400020004000400040006000400080004000A0004000C0004000E00040200000402020004020400040206000402080004020A0004020C0004020E000404000004040200040404000404060004040800040
1004
40A0004040C0004040E00040600000406020004060400040606000406080004060A0004060C0004060E00040800000408020004080400040806000408080004080A0004080C0004080E00040A0000040A0200040A0400040A0600040A0800040A0A00040A0C00040A0E00040C0000040C0200040C0400040C0600040C08000
1004
40C0A00040C0C00040C0E00040E0000040E0200040E0400040E0600040E0800040E0A00040E0C00040E0E00080000000800020008000400080006000800080008000A0008000C0008000E00080200000802020008020400080206000802080008020A0008020C0008020E00080400000804020008040400080406000804080
1004
008040A0008040C0008040E00080600000806020008060400080606000806080008060A0008060C0008060E00080800000808020008080400080806000808080008080A0008080C0008080E00080A0000080A0200080A0400080A0600080A0800080A0A00080A0C00080A0E00080C0000080C0200080C0400080C0600080C0
1004
800080C0A00080C0C00080C0E00080E0000080E0200080E0400080E0600080E0800080E0A00080E0C00080E0E000C0000000C0002000C0004000C0006000C0008000C000A000C000C000C000E000C0200000C0202000C0204000C0206000C0208000C020A000C020C000C020E000C0400000C0402000C0404000C0406000C0
1004
408000C040A000C040C000C040E000C0600000C0602000C0604000C0606000C0608000C060A000C060C000C060E000C0800000C0802000C0804000C0806000C0808000C080A000C080C000C080E000C0A00000C0A02000C0A04000C0A06000C0A08000C0A0A000C0A0C000C0A0E000C0C00000C0C02000C0C04000C0C06000
1004
C0C08000C0C0A000F0FBFF00A4A0A000808080000000FF0000FF000000FFFF00FF000000FF00FF00FFFF0000FFFFFF0000000000000000000000000000000000000000000000000000000000000000000000000000000000000000000000000000000000000000000000000000000000000000000000000000000000000000
1004
00000000000000000000000000000000000000000000000000000000000000000000000000000000000000000000000000000000000000000000000000000000000000000000000000000000000000000000000000000000000000000000000000000000000000000000000000000000000000000000000000000000000000
1004
000000000000000000000000000000000000000000000000000000000000000000000000000000000000000000000000000000FFFF0000000000000000000000000000000000000000000000000000000000000000FFFFFFFF0000000000000000000000000000000000000000000000000000000000000000FFFFFFFF0000
1004
000000000000000000000000000000000000000000000000000000000000FFFFFF0000000000000000000000000000000000000000000000000000000000000000FFFFFFFF0000000000000000000000000000000000000000000000000000000000000000FFFFFF0000000000000000000000000000000000000000000000
1004
000000000000000000FFFFFFFF0000000000000000000000000000000000000000000000000000000000000000FFFFFFFF00000000FFFFFFFFFFFFFFFFFFFFFFFFFFFFFFFFFFFFFFFFFFFFFFFFFFFFFFFFFFFF00000000000000000000000000000000000000000000000000FFFFFFFF000000000000000000000000000000
1004
000000000000000000FFFFFFFF000000000000000000000000000000000000000000000000FFFFFFFF000000000000000000000000000000000000000000000000FFFFFFFF000000000000000000000000000000000000000000000000FFFFFFFF000000000000000000000000000000000000000000000000FFFFFFFF0000
1004
0000000000000000000000000000000000000000000000FFFFFF0000000000000000000000000000000000000000000000000000000000000000000000000000000000000000000000000000000000000000000000000000000000000000000000000000000000000000000000000000000000000000000000000000000000
1004
00000000000000000000000000000000000000000000000000000000000000000000000000000000000000000000000000000000000000000000000000000000000000000000000000000000000000000000000000000000000000000000000000000000000000000000000000000000000000000000000000000000000000
1004
0000000000000000000000000000000000000000000000000000000000000000000000000000000000000000000000000000000000000000
  0
BLOCK_RECORD
  5
2983
330
1
100
AcDbSymbolTableRecord
100
AcDbBlockTableRecord
  2
*D1
  0
BLOCK_RECORD
  5
2990
330
1
100
AcDbSymbolTableRecord
100
AcDbBlockTableRecord
  2
*D2
  0
BLOCK_RECORD
  5
299D
330
1
100
AcDbSymbolTableRecord
100
AcDbBlockTableRecord
  2
*D3
  0
BLOCK_RECORD
  5
29AA
330
1
100
AcDbSymbolTableRecord
100
AcDbBlockTableRecord
  2
*D4
  0
BLOCK_RECORD
  5
29B7
330
1
100
AcDbSymbolTableRecord
100
AcDbBlockTableRecord
  2
*D5
  0
BLOCK_RECORD
  5
29C6
330
1
100
AcDbSymbolTableRecord
100
AcDbBlockTableRecord
  2
*D6
  0
BLOCK_RECORD
  5
29D3
330
1
100
AcDbSymbolTableRecord
100
AcDbBlockTableRecord
  2
*D7
  0
BLOCK_RECORD
  5
29E0
330
1
100
AcDbSymbolTableRecord
100
AcDbBlockTableRecord
  2
*D8
  0
BLOCK_RECORD
  5
2A40
330
1
100
AcDbSymbolTableRecord
100
AcDbBlockTableRecord
  2
*D9
  0
BLOCK_RECORD
  5
2A4D
330
1
100
AcDbSymbolTableRecord
100
AcDbBlockTableRecord
  2
*D10
  0
BLOCK_RECORD
  5
2A5A
330
1
100
AcDbSymbolTableRecord
100
AcDbBlockTableRecord
  2
*D11
  0
BLOCK_RECORD
  5
2A67
330
1
100
AcDbSymbolTableRecord
100
AcDbBlockTableRecord
  2
*D12
  0
BLOCK_RECORD
  5
2A74
330
1
100
AcDbSymbolTableRecord
100
AcDbBlockTableRecord
  2
*D13
  0
BLOCK_RECORD
  5
2A81
330
1
100
AcDbSymbolTableRecord
100
AcDbBlockTableRecord
  2
*D14
  0
BLOCK_RECORD
  5
2A8E
330
1
100
AcDbSymbolTableRecord
100
AcDbBlockTableRecord
  2
*D15
  0
BLOCK_RECORD
  5
2A9B
330
1
100
AcDbSymbolTableRecord
100
AcDbBlockTableRecord
  2
*D16
  0
BLOCK_RECORD
  5
2AA8
330
1
100
AcDbSymbolTableRecord
100
AcDbBlockTableRecord
  2
*D17
  0
BLOCK_RECORD
  5
2AB5
330
1
100
AcDbSymbolTableRecord
100
AcDbBlockTableRecord
  2
*D18
  0
BLOCK_RECORD
  5
2AC2
330
1
100
AcDbSymbolTableRecord
100
AcDbBlockTableRecord
  2
*D19
  0
BLOCK_RECORD
  5
2AD1
330
1
100
AcDbSymbolTableRecord
100
AcDbBlockTableRecord
  2
*D20
  0
BLOCK_RECORD
  5
2ADE
330
1
100
AcDbSymbolTableRecord
100
AcDbBlockTableRecord
  2
*D21
  0
BLOCK_RECORD
  5
2AED
330
1
100
AcDbSymbolTableRecord
100
AcDbBlockTableRecord
  2
*D22
  0
BLOCK_RECORD
  5
2AFA
330
1
100
AcDbSymbolTableRecord
100
AcDbBlockTableRecord
  2
*D23
  0
BLOCK_RECORD
  5
2B19
330
1
100
AcDbSymbolTableRecord
100
AcDbBlockTableRecord
  2
*D24
  0
BLOCK_RECORD
  5
2B33
330
1
100
AcDbSymbolTableRecord
100
AcDbBlockTableRecord
  2
*D25
  0
BLOCK_RECORD
  5
2B40
330
1
100
AcDbSymbolTableRecord
100
AcDbBlockTableRecord
  2
*D26
  0
BLOCK_RECORD
  5
2B5F
330
1
100
AcDbSymbolTableRecord
100
AcDbBlockTableRecord
  2
*D27
  0
BLOCK_RECORD
  5
2B6E
330
1
100
AcDbSymbolTableRecord
100
AcDbBlockTableRecord
  2
*D28
  0
BLOCK_RECORD
  5
3756
330
1
100
AcDbSymbolTableRecord
100
AcDbBlockTableRecord
  2
*D29
  0
BLOCK_RECORD
  5
38E4
330
1
100
AcDbSymbolTableRecord
100
AcDbBlockTableRecord
  2
*X30
  0
ENDTAB
  0
ENDSEC
  0
SECTION
  2
BLOCKS
  0
BLOCK
  5
D
330
A
100
AcDbEntity
  8
0
100
AcDbBlockBegin
  2
*MODEL_SPACE
 70
     0
 10
0.0
 20
0.0
 30
0.0
  3
*MODEL_SPACE
  1

  0
ENDBLK
  5
E
330
A
100
AcDbEntity
  8
0
100
AcDbBlockEnd
  0
BLOCK
  5
F
330
B
100
AcDbEntity
 67
     1
  8
0
100
AcDbBlockBegin
  2
*PAPER_SPACE
 70
     0
 10
0.0
 20
0.0
 30
0.0
  3
*PAPER_SPACE
  1

  0
ENDBLK
  5
10
330
B
100
AcDbEntity
 67
     1
  8
0
100
AcDbBlockEnd
  0
BLOCK
  5
295F
330
295B
100
AcDbEntity
  8
0
100
AcDbBlockBegin
  2
_OPEN30
 70
     0
 10
0.0
 20
0.0
 30
0.0
  3
_OPEN30
  1

  0
LINE
  5
295C
330
295B
100
AcDbEntity
  8
0
  6
BYBLOCK
 62
     0
100
AcDbLine
 10
-1.0
 20
0.26794919
 30
0.0
 11
0.0
 21
0.0
 31
0.0
  0
LINE
  5
295D
330
295B
100
AcDbEntity
  8
0
  6
BYBLOCK
 62
     0
100
AcDbLine
 10
0.0
 20
0.0
 30
0.0
 11
-1.0
 21
-0.26794919
 31
0.0
  0
LINE
  5
295E
330
295B
100
AcDbEntity
  8
0
  6
BYBLOCK
 62
     0
100
AcDbLine
 10
0.0
 20
0.0
 30
0.0
 11
-1.0
 21
0.0
 31
0.0
  0
ENDBLK
  5
2960
330
295B
100
AcDbEntity
  8
0
100
AcDbBlockEnd
  0
BLOCK
  5
298D
330
2983
100
AcDbEntity
  8
0
100
AcDbBlockBegin
  2
*D1
 70
     1
 10
0.0
 20
0.0
 30
0.0
  3
*D1
  1

  0
LINE
  5
2E61
330
2983
100
AcDbEntity
  8
SUNPOU
100
AcDbLine
 10
160.7823835813301
 20
478.5557338114267
 30
0.0
 11
160.7823835813301
 21
526.5758015864982
 31
0.0
  0
LINE
  5
2E62
330
2983
100
AcDbEntity
  8
SUNPOU
100
AcDbLine
 10
350.7823835813303
 20
477.0557338114267
 30
0.0
 11
350.7823835813303
 21
526.5758015864982
 31
0.0
  0
LINE
  5
2E63
330
2983
100
AcDbEntity
  8
SUNPOU
100
AcDbLine
 10
165.7823835813301
 20
524.575801586498
 30
0.0
 11
345.7823835813303
 21
524.575801586498
 31
0.0
  0
INSERT
  5
2E64
330
2983
100
AcDbEntity
  8
SUNPOU
100
AcDbBlockReference
  2
_OPEN30
 10
160.7823835813301
 20
524.575801586498
 30
0.0
 41
5.0
 42
5.0
 43
5.0
 50
180.0
  0
INSERT
  5
2E65
330
2983
100
AcDbEntity
  8
SUNPOU
100
AcDbBlockReference
  2
_OPEN30
 10
350.7823835813303
 20
524.575801586498
 30
0.0
 41
5.0
 42
5.0
 43
5.0
  0
MTEXT
  5
2E66
330
2983
100
AcDbEntity
  8
SUNPOU
 62
     6
100
AcDbMText
 10
255.7823835813301
 20
529.075801586498
 30
0.0
 40
5.0
 41
0.0
 71
     5
 72
     1
  1
\A1;190
  7
SUNPOU
1001
ACAD
1000
MTEXTBEGIN
1070
    73
1070
     1
1070
    44
1040
1.0
1070
    74
1070
     0
1000
MTEXTEND
1000
MTEXTBEGIN
1070
    73
1070
     1
1070
    44
1040
1.0
1070
    74
1070
     0
1000
MTEXTEND
  0
POINT
  5
2E67
330
2983
100
AcDbEntity
  8
DEFPOINTS
 62
     0
100
AcDbPoint
 10
160.7823835813301
 20
475.5557338114266
 30
0.0
  0
POINT
  5
2E68
330
2983
100
AcDbEntity
  8
DEFPOINTS
 62
     0
100
AcDbPoint
 10
350.7823835813303
 20
474.0557338114267
 30
0.0
  0
POINT
  5
2E69
330
2983
100
AcDbEntity
  8
DEFPOINTS
 62
     0
100
AcDbPoint
 10
350.7823835813303
 20
524.575801586498
 30
0.0
  0
ENDBLK
  5
298E
330
2983
100
AcDbEntity
  8
0
100
AcDbBlockEnd
  0
BLOCK
  5
299A
330
2990
100
AcDbEntity
  8
0
100
AcDbBlockBegin
  2
*D2
 70
     1
 10
0.0
 20
0.0
 30
0.0
  3
*D2
  1

  0
LINE
  5
2EDF
330
2990
100
AcDbEntity
  8
SUNPOU
100
AcDbLine
 10
160.7823835813301
 20
514.9950539427408
 30
0.0
 11
160.7823835813301
 21
513.9950539427408
 31
0.0
  0
LINE
  5
2EE0
330
2990
100
AcDbEntity
  8
SUNPOU
100
AcDbLine
 10
177.7823835813301
 20
477.5557338114267
 30
0.0
 11
177.7823835813301
 21
513.9950539427408
 31
0.0
  0
LINE
  5
2EE1
330
2990
100
AcDbEntity
  8
SUNPOU
100
AcDbLine
 10
165.7823835813301
 20
511.9950539427408
 30
0.0
 11
172.7823835813301
 21
511.9950539427408
 31
0.0
  0
INSERT
  5
2EE2
330
2990
100
AcDbEntity
  8
SUNPOU
100
AcDbBlockReference
  2
_OPEN30
 10
160.7823835813301
 20
511.9950539427408
 30
0.0
 41
5.0
 42
5.0
 43
5.0
 50
180.0
  0
INSERT
  5
2EE3
330
2990
100
AcDbEntity
  8
SUNPOU
100
AcDbBlockReference
  2
_OPEN30
 10
177.7823835813301
 20
511.9950539427408
 30
0.0
 41
5.0
 42
5.0
 43
5.0
  0
MTEXT
  5
2EE4
330
2990
100
AcDbEntity
  8
SUNPOU
 62
     6
100
AcDbMText
 10
169.2823835813301
 20
516.4950539427407
 30
0.0
 40
5.0
 41
0.0
 71
     5
 72
     1
  1
\A1;17
  7
SUNPOU
1001
ACAD
1000
MTEXTBEGIN
1070
    73
1070
     1
1070
    44
1040
1.0
1070
    74
1070
     0
1000
MTEXTEND
1000
MTEXTBEGIN
1070
    73
1070
     1
1070
    44
1040
1.0
1070
    74
1070
     0
1000
MTEXTEND
  0
POINT
  5
2EE5
330
2990
100
AcDbEntity
  8
DEFPOINTS
 62
     0
100
AcDbPoint
 10
160.7823835813301
 20
511.9950539427408
 30
0.0
  0
POINT
  5
2EE6
330
2990
100
AcDbEntity
  8
DEFPOINTS
 62
     0
100
AcDbPoint
 10
177.7823835813301
 20
474.5557338114267
 30
0.0
  0
POINT
  5
2EE7
330
2990
100
AcDbEntity
  8
DEFPOINTS
 62
     0
100
AcDbPoint
 10
177.7823835813301
 20
511.9950539427408
 30
0.0
  0
ENDBLK
  5
299B
330
2990
100
AcDbEntity
  8
0
100
AcDbBlockEnd
  0
BLOCK
  5
29A7
330
299D
100
AcDbEntity
  8
0
100
AcDbBlockBegin
  2
*D3
 70
     1
 10
0.0
 20
0.0
 30
0.0
  3
*D3
  1

  0
LINE
  5
2ED6
330
299D
100
AcDbEntity
  8
SUNPOU
100
AcDbLine
 10
177.7823835813301
 20
477.5557338114267
 30
0.0
 11
177.7823835813301
 21
513.9950539427408
 31
0.0
  0
LINE
  5
2ED7
330
299D
100
AcDbEntity
  8
SUNPOU
100
AcDbLine
 10
208.7823835813301
 20
450.8557338114268
 30
0.0
 11
208.7823835813301
 21
513.9950539427408
 31
0.0
  0
LINE
  5
2ED8
330
299D
100
AcDbEntity
  8
SUNPOU
100
AcDbLine
 10
182.7823835813301
 20
511.9950539427408
 30
0.0
 11
203.7823835813301
 21
511.9950539427408
 31
0.0
  0
INSERT
  5
2ED9
330
299D
100
AcDbEntity
  8
SUNPOU
100
AcDbBlockReference
  2
_OPEN30
 10
177.7823835813301
 20
511.9950539427408
 30
0.0
 41
5.0
 42
5.0
 43
5.0
 50
180.0
  0
INSERT
  5
2EDA
330
299D
100
AcDbEntity
  8
SUNPOU
100
AcDbBlockReference
  2
_OPEN30
 10
208.7823835813301
 20
511.9950539427408
 30
0.0
 41
5.0
 42
5.0
 43
5.0
  0
MTEXT
  5
2EDB
330
299D
100
AcDbEntity
  8
SUNPOU
 62
     6
100
AcDbMText
 10
193.2823835813301
 20
516.4950539427407
 30
0.0
 40
5.0
 41
0.0
 71
     5
 72
     1
  1
\A1;31
  7
SUNPOU
1001
ACAD
1000
MTEXTBEGIN
1070
    73
1070
     1
1070
    44
1040
1.0
1070
    74
1070
     0
1000
MTEXTEND
1000
MTEXTBEGIN
1070
    73
1070
     1
1070
    44
1040
1.0
1070
    74
1070
     0
1000
MTEXTEND
  0
POINT
  5
2EDC
330
299D
100
AcDbEntity
  8
DEFPOINTS
 62
     0
100
AcDbPoint
 10
177.7823835813301
 20
474.5557338114267
 30
0.0
  0
POINT
  5
2EDD
330
299D
100
AcDbEntity
  8
DEFPOINTS
 62
     0
100
AcDbPoint
 10
208.7823835813301
 20
447.8557338114268
 30
0.0
  0
POINT
  5
2EDE
330
299D
100
AcDbEntity
  8
DEFPOINTS
 62
     0
100
AcDbPoint
 10
208.7823835813301
 20
511.9950539427408
 30
0.0
  0
ENDBLK
  5
29A8
330
299D
100
AcDbEntity
  8
0
100
AcDbBlockEnd
  0
BLOCK
  5
29B4
330
29AA
100
AcDbEntity
  8
0
100
AcDbBlockBegin
  2
*D4
 70
     1
 10
0.0
 20
0.0
 30
0.0
  3
*D4
  1

  0
LINE
  5
2E58
330
29AA
100
AcDbEntity
  8
SUNPOU
100
AcDbLine
 10
208.7823835813301
 20
450.8557338114268
 30
0.0
 11
208.7823835813301
 21
513.9950539427408
 31
0.0
  0
LINE
  5
2E59
330
29AA
100
AcDbEntity
  8
SUNPOU
100
AcDbLine
 10
342.7823835813303
 20
437.0557338114267
 30
0.0
 11
342.7823835813303
 21
513.9950539427408
 31
0.0
  0
LINE
  5
2E5A
330
29AA
100
AcDbEntity
  8
SUNPOU
100
AcDbLine
 10
213.7823835813303
 20
511.9950539427408
 30
0.0
 11
337.7823835813301
 21
511.9950539427408
 31
0.0
  0
INSERT
  5
2E5B
330
29AA
100
AcDbEntity
  8
SUNPOU
100
AcDbBlockReference
  2
_OPEN30
 10
208.7823835813301
 20
511.9950539427408
 30
0.0
 41
5.0
 42
5.0
 43
5.0
 50
180.0
  0
INSERT
  5
2E5C
330
29AA
100
AcDbEntity
  8
SUNPOU
100
AcDbBlockReference
  2
_OPEN30
 10
342.7823835813303
 20
511.9950539427408
 30
0.0
 41
5.0
 42
5.0
 43
5.0
  0
MTEXT
  5
2E5D
330
29AA
100
AcDbEntity
  8
SUNPOU
 62
     6
100
AcDbMText
 10
275.7823835813303
 20
516.4950539427407
 30
0.0
 40
5.0
 41
0.0
 71
     5
 72
     1
  1
\A1;134
  7
SUNPOU
1001
ACAD
1000
MTEXTBEGIN
1070
    73
1070
     1
1070
    44
1040
1.0
1070
    74
1070
     0
1000
MTEXTEND
1000
MTEXTBEGIN
1070
    73
1070
     1
1070
    44
1040
1.0
1070
    74
1070
     0
1000
MTEXTEND
  0
POINT
  5
2E5E
330
29AA
100
AcDbEntity
  8
DEFPOINTS
 62
     0
100
AcDbPoint
 10
208.7823835813301
 20
447.8557338114268
 30
0.0
  0
POINT
  5
2E5F
330
29AA
100
AcDbEntity
  8
DEFPOINTS
 62
     0
100
AcDbPoint
 10
342.7823835813303
 20
434.0557338114266
 30
0.0
  0
POINT
  5
2E60
330
29AA
100
AcDbEntity
  8
DEFPOINTS
 62
     0
100
AcDbPoint
 10
342.7823835813303
 20
511.9950539427408
 30
0.0
  0
ENDBLK
  5
29B5
330
29AA
100
AcDbEntity
  8
0
100
AcDbBlockEnd
  0
BLOCK
  5
29C3
330
29B7
100
AcDbEntity
  8
0
100
AcDbBlockBegin
  2
*D5
 70
     1
 10
0.0
 20
0.0
 30
0.0
  3
*D5
  1

  0
LINE
  5
2F4A
330
29B7
100
AcDbEntity
  8
SUNPOU
100
AcDbLine
 10
342.7823835813303
 20
437.0557338114267
 30
0.0
 11
342.7823835813303
 21
513.9950539427408
 31
0.0
  0
LINE
  5
2F4B
330
29B7
100
AcDbEntity
  8
SUNPOU
100
AcDbLine
 10
350.7823835813303
 20
514.9950539427408
 30
0.0
 11
350.7823835813303
 21
513.9950539427408
 31
0.0
  0
LINE
  5
2F4C
330
29B7
100
AcDbEntity
  8
SUNPOU
100
AcDbLine
 10
337.7823835813301
 20
511.9950539427408
 30
0.0
 11
332.7823835813301
 21
511.9950539427408
 31
0.0
  0
LINE
  5
2F4D
330
29B7
100
AcDbEntity
  8
SUNPOU
100
AcDbLine
 10
355.7823835813303
 20
511.9950539427408
 30
0.0
 11
360.7823835813303
 21
511.9950539427408
 31
0.0
  0
LINE
  5
2F4E
330
29B7
100
AcDbEntity
  8
SUNPOU
100
AcDbLine
 10
342.7823835813303
 20
511.9950539427408
 30
0.0
 11
350.7823835813303
 21
511.9950539427408
 31
0.0
  0
INSERT
  5
2F4F
330
29B7
100
AcDbEntity
  8
SUNPOU
100
AcDbBlockReference
  2
_OPEN30
 10
342.7823835813303
 20
511.9950539427408
 30
0.0
 41
5.0
 42
5.0
 43
5.0
  0
INSERT
  5
2F50
330
29B7
100
AcDbEntity
  8
SUNPOU
100
AcDbBlockReference
  2
_OPEN30
 10
350.7823835813303
 20
511.9950539427408
 30
0.0
 41
5.0
 42
5.0
 43
5.0
 50
180.0
  0
MTEXT
  5
2F51
330
29B7
100
AcDbEntity
  8
SUNPOU
 62
     6
100
AcDbMText
 10
346.7823835813303
 20
516.4950539427407
 30
0.0
 40
5.0
 41
0.0
 71
     5
 72
     1
  1
\A1;8
  7
SUNPOU
1001
ACAD
1000
MTEXTBEGIN
1070
    73
1070
     1
1070
    44
1040
1.0
1070
    74
1070
     0
1000
MTEXTEND
1000
MTEXTBEGIN
1070
    73
1070
     1
1070
    44
1040
1.0
1070
    74
1070
     0
1000
MTEXTEND
  0
POINT
  5
2F52
330
29B7
100
AcDbEntity
  8
DEFPOINTS
 62
     0
100
AcDbPoint
 10
342.7823835813303
 20
434.0557338114266
 30
0.0
  0
POINT
  5
2F53
330
29B7
100
AcDbEntity
  8
DEFPOINTS
 62
     0
100
AcDbPoint
 10
350.7823835813303
 20
511.9950539427408
 30
0.0
  0
POINT
  5
2F54
330
29B7
100
AcDbEntity
  8
DEFPOINTS
 62
     0
100
AcDbPoint
 10
350.7823835813303
 20
511.9950539427408
 30
0.0
  0
ENDBLK
  5
29C4
330
29B7
100
AcDbEntity
  8
0
100
AcDbBlockEnd
  0
BLOCK
  5
29D0
330
29C6
100
AcDbEntity
  8
0
100
AcDbBlockBegin
  2
*D6
 70
     1
 10
0.0
 20
0.0
 30
0.0
  3
*D6
  1

  0
LINE
  5
2E8E
330
29C6
100
AcDbEntity
  8
SUNPOU
100
AcDbLine
 10
177.7823835813301
 20
488.896991886191
 30
0.0
 11
177.7823835813301
 21
487.896991886191
 31
0.0
  0
LINE
  5
2E8F
330
29C6
100
AcDbEntity
  8
SUNPOU
100
AcDbLine
 10
231.7823835813303
 20
444.8557338114268
 30
0.0
 11
231.7823835813303
 21
487.896991886191
 31
0.0
  0
LINE
  5
2E90
330
29C6
100
AcDbEntity
  8
SUNPOU
100
AcDbLine
 10
182.7823835813301
 20
485.8969918861911
 30
0.0
 11
226.7823835813302
 21
485.8969918861911
 31
0.0
  0
INSERT
  5
2E91
330
29C6
100
AcDbEntity
  8
SUNPOU
100
AcDbBlockReference
  2
_OPEN30
 10
177.7823835813301
 20
485.8969918861911
 30
0.0
 41
5.0
 42
5.0
 43
5.0
 50
180.0
  0
INSERT
  5
2E92
330
29C6
100
AcDbEntity
  8
SUNPOU
100
AcDbBlockReference
  2
_OPEN30
 10
231.7823835813303
 20
485.8969918861911
 30
0.0
 41
5.0
 42
5.0
 43
5.0
  0
MTEXT
  5
2E93
330
29C6
100
AcDbEntity
  8
SUNPOU
 62
     6
100
AcDbMText
 10
204.7823835813301
 20
490.3969918861911
 30
0.0
 40
5.0
 41
0.0
 71
     5
 72
     1
  1
\A1;54
  7
SUNPOU
1001
ACAD
1000
MTEXTBEGIN
1070
    73
1070
     1
1070
    44
1040
1.0
1070
    74
1070
     0
1000
MTEXTEND
1000
MTEXTBEGIN
1070
    73
1070
     1
1070
    44
1040
1.0
1070
    74
1070
     0
1000
MTEXTEND
  0
POINT
  5
2E94
330
29C6
100
AcDbEntity
  8
DEFPOINTS
 62
     0
100
AcDbPoint
 10
177.7823835813301
 20
485.8969918861911
 30
0.0
  0
POINT
  5
2E95
330
29C6
100
AcDbEntity
  8
DEFPOINTS
 62
     0
100
AcDbPoint
 10
231.7823835813303
 20
441.8557338114267
 30
0.0
  0
POINT
  5
2E96
330
29C6
100
AcDbEntity
  8
DEFPOINTS
 62
     0
100
AcDbPoint
 10
231.7823835813303
 20
485.8969918861911
 30
0.0
  0
ENDBLK
  5
29D1
330
29C6
100
AcDbEntity
  8
0
100
AcDbBlockEnd
  0
BLOCK
  5
29DD
330
29D3
100
AcDbEntity
  8
0
100
AcDbBlockBegin
  2
*D7
 70
     1
 10
0.0
 20
0.0
 30
0.0
  3
*D7
  1

  0
LINE
  5
2F55
330
29D3
100
AcDbEntity
  8
SUNPOU
100
AcDbLine
 10
231.7823835813303
 20
444.8557338114268
 30
0.0
 11
231.7823835813303
 21
487.896991886191
 31
0.0
  0
LINE
  5
2F56
330
29D3
100
AcDbEntity
  8
SUNPOU
100
AcDbLine
 10
258.7823835813301
 20
410.1245529497964
 30
0.0
 11
258.7823835813301
 21
487.896991886191
 31
0.0
  0
LINE
  5
2F57
330
29D3
100
AcDbEntity
  8
SUNPOU
100
AcDbLine
 10
236.7823835813303
 20
485.8969918861911
 30
0.0
 11
253.7823835813302
 21
485.8969918861911
 31
0.0
  0
INSERT
  5
2F58
330
29D3
100
AcDbEntity
  8
SUNPOU
100
AcDbBlockReference
  2
_OPEN30
 10
231.7823835813303
 20
485.8969918861911
 30
0.0
 41
5.0
 42
5.0
 43
5.0
 50
180.0
  0
INSERT
  5
2F59
330
29D3
100
AcDbEntity
  8
SUNPOU
100
AcDbBlockReference
  2
_OPEN30
 10
258.7823835813301
 20
485.8969918861911
 30
0.0
 41
5.0
 42
5.0
 43
5.0
  0
MTEXT
  5
2F5A
330
29D3
100
AcDbEntity
  8
SUNPOU
 62
     6
100
AcDbMText
 10
245.2823835813301
 20
490.3969918861911
 30
0.0
 40
5.0
 41
0.0
 71
     5
 72
     1
  1
\A1;27
  7
SUNPOU
1001
ACAD
1000
MTEXTBEGIN
1070
    73
1070
     1
1070
    44
1040
1.0
1070
    74
1070
     0
1000
MTEXTEND
1000
MTEXTBEGIN
1070
    73
1070
     1
1070
    44
1040
1.0
1070
    74
1070
     0
1000
MTEXTEND
  0
POINT
  5
2F5B
330
29D3
100
AcDbEntity
  8
DEFPOINTS
 62
     0
100
AcDbPoint
 10
231.7823835813303
 20
441.8557338114267
 30
0.0
  0
POINT
  5
2F5C
330
29D3
100
AcDbEntity
  8
DEFPOINTS
 62
     0
100
AcDbPoint
 10
258.7823835813301
 20
407.1245529497963
 30
0.0
  0
POINT
  5
2F5D
330
29D3
100
AcDbEntity
  8
DEFPOINTS
 62
     0
100
AcDbPoint
 10
258.7823835813301
 20
485.8969918861911
 30
0.0
  0
ENDBLK
  5
29DE
330
29D3
100
AcDbEntity
  8
0
100
AcDbBlockEnd
  0
BLOCK
  5
29EA
330
29E0
100
AcDbEntity
  8
0
100
AcDbBlockBegin
  2
*D8
 70
     1
 10
0.0
 20
0.0
 30
0.0
  3
*D8
  1

  0
LINE
  5
2E85
330
29E0
100
AcDbEntity
  8
SUNPOU
100
AcDbLine
 10
208.7823835813301
 20
502.9874292471991
 30
0.0
 11
208.7823835813301
 21
501.9874292471991
 31
0.0
  0
LINE
  5
2E86
330
29E0
100
AcDbEntity
  8
SUNPOU
100
AcDbLine
 10
313.2823835813301
 20
441.1327920782916
 30
0.0
 11
313.2823835813301
 21
501.9874292471991
 31
0.0
  0
LINE
  5
2E87
330
29E0
100
AcDbEntity
  8
SUNPOU
100
AcDbLine
 10
213.7823835813303
 20
499.9874292471991
 30
0.0
 11
308.2823835813301
 21
499.9874292471991
 31
0.0
  0
INSERT
  5
2E88
330
29E0
100
AcDbEntity
  8
SUNPOU
100
AcDbBlockReference
  2
_OPEN30
 10
208.7823835813301
 20
499.9874292471991
 30
0.0
 41
5.0
 42
5.0
 43
5.0
 50
180.0
  0
INSERT
  5
2E89
330
29E0
100
AcDbEntity
  8
SUNPOU
100
AcDbBlockReference
  2
_OPEN30
 10
313.2823835813301
 20
499.9874292471991
 30
0.0
 41
5.0
 42
5.0
 43
5.0
  0
MTEXT
  5
2E8A
330
29E0
100
AcDbEntity
  8
SUNPOU
 62
     6
100
AcDbMText
 10
261.0323835813301
 20
504.4874292471991
 30
0.0
 40
5.0
 41
0.0
 71
     5
 72
     1
  1
\A1;104.5
  7
SUNPOU
1001
ACAD
1000
MTEXTBEGIN
1070
    73
1070
     1
1070
    44
1040
1.0
1070
    74
1070
     0
1000
MTEXTEND
1000
MTEXTBEGIN
1070
    73
1070
     1
1070
    44
1040
1.0
1070
    74
1070
     0
1000
MTEXTEND
  0
POINT
  5
2E8B
330
29E0
100
AcDbEntity
  8
DEFPOINTS
 62
     0
100
AcDbPoint
 10
208.7823835813301
 20
499.9874292471991
 30
0.0
  0
POINT
  5
2E8C
330
29E0
100
AcDbEntity
  8
DEFPOINTS
 62
     0
100
AcDbPoint
 10
313.2823835813301
 20
438.1327920782917
 30
0.0
  0
POINT
  5
2E8D
330
29E0
100
AcDbEntity
  8
DEFPOINTS
 62
     0
100
AcDbPoint
 10
313.2823835813301
 20
499.9874292471991
 30
0.0
  0
ENDBLK
  5
29EB
330
29E0
100
AcDbEntity
  8
0
100
AcDbBlockEnd
  0
BLOCK
  5
2A4A
330
2A40
100
AcDbEntity
  8
0
100
AcDbBlockBegin
  2
*D9
 70
     1
 10
0.0
 20
0.0
 30
0.0
  3
*D9
  1

  0
LINE
  5
2EA9
330
2A40
100
AcDbEntity
  8
SUNPOU
100
AcDbLine
 10
158.2823835813301
 20
476.0557338114266
 30
0.0
 11
60.2889492913801
 21
476.0557338114268
 31
0.0
  0
LINE
  5
2EAA
330
2A40
100
AcDbEntity
  8
SUNPOU
100
AcDbLine
 10
158.2823835813301
 20
226.0557338114267
 30
0.0
 11
60.28894929138004
 21
226.0557338114268
 31
0.0
  0
LINE
  5
2EAB
330
2A40
100
AcDbEntity
  8
SUNPOU
100
AcDbLine
 10
62.2889492913801
 20
471.0557338114268
 30
0.0
 11
62.28894929138004
 21
231.0557338114267
 31
0.0
  0
INSERT
  5
2EAC
330
2A40
100
AcDbEntity
  8
SUNPOU
100
AcDbBlockReference
  2
_OPEN30
 10
62.2889492913801
 20
476.0557338114268
 30
0.0
 41
5.0
 42
5.0
 43
5.0
 50
90.0
  0
INSERT
  5
2EAD
330
2A40
100
AcDbEntity
  8
SUNPOU
100
AcDbBlockReference
  2
_OPEN30
 10
62.28894929138004
 20
226.0557338114268
 30
0.0
 41
5.0
 42
5.0
 43
5.0
 50
270.0
  0
MTEXT
  5
2EAE
330
2A40
100
AcDbEntity
  8
SUNPOU
 62
     6
100
AcDbMText
 10
57.78894929138001
 20
351.0557338114268
 30
0.0
 40
5.0
 41
0.0
 71
     5
 72
     1
  1
\A1;250
  7
SUNPOU
 11
0.0000000000000001
 21
1.0
 31
0.0
1001
ACAD
1000
MTEXTBEGIN
1070
    73
1070
     1
1070
    44
1040
1.0
1070
    74
1070
     0
1000
MTEXTEND
1000
MTEXTBEGIN
1070
    73
1070
     1
1070
    44
1040
1.0
1070
    74
1070
     0
1000
MTEXTEND
  0
POINT
  5
2EAF
330
2A40
100
AcDbEntity
  8
DEFPOINTS
 62
     0
100
AcDbPoint
 10
161.2823835813301
 20
476.0557338114266
 30
0.0
  0
POINT
  5
2EB0
330
2A40
100
AcDbEntity
  8
DEFPOINTS
 62
     0
100
AcDbPoint
 10
161.2823835813301
 20
226.0557338114267
 30
0.0
  0
POINT
  5
2EB1
330
2A40
100
AcDbEntity
  8
DEFPOINTS
 62
     0
100
AcDbPoint
 10
62.28894929138004
 20
226.0557338114268
 30
0.0
  0
ENDBLK
  5
2A4B
330
2A40
100
AcDbEntity
  8
0
100
AcDbBlockEnd
  0
BLOCK
  5
2A57
330
2A4D
100
AcDbEntity
  8
0
100
AcDbBlockBegin
  2
*D10
 70
     1
 10
0.0
 20
0.0
 30
0.0
  3
*D10
  1

  0
LINE
  5
2EA0
330
2A4D
100
AcDbEntity
  8
SUNPOU
100
AcDbLine
 10
73.37938665238823
 20
226.0557338114267
 30
0.0
 11
74.37938665238822
 21
226.0557338114267
 31
0.0
  0
LINE
  5
2EA1
330
2A4D
100
AcDbEntity
  8
SUNPOU
100
AcDbLine
 10
174.7823835813301
 20
321.0557338114266
 30
0.0
 11
74.37938665238823
 21
321.0557338114268
 31
0.0
  0
LINE
  5
2EA2
330
2A4D
100
AcDbEntity
  8
SUNPOU
100
AcDbLine
 10
76.37938665238822
 20
231.0557338114267
 30
0.0
 11
76.37938665238824
 21
316.0557338114268
 31
0.0
  0
INSERT
  5
2EA3
330
2A4D
100
AcDbEntity
  8
SUNPOU
100
AcDbBlockReference
  2
_OPEN30
 10
76.37938665238822
 20
226.0557338114267
 30
0.0
 41
5.0
 42
5.0
 43
5.0
 50
270.0
  0
INSERT
  5
2EA4
330
2A4D
100
AcDbEntity
  8
SUNPOU
100
AcDbBlockReference
  2
_OPEN30
 10
76.37938665238824
 20
321.0557338114268
 30
0.0
 41
5.0
 42
5.0
 43
5.0
 50
90.0
  0
MTEXT
  5
2EA5
330
2A4D
100
AcDbEntity
  8
SUNPOU
 62
     6
100
AcDbMText
 10
71.87938665238817
 20
273.5557338114268
 30
0.0
 40
5.0
 41
0.0
 71
     5
 72
     1
  1
\A1;95
  7
SUNPOU
 11
0.0000000000000001
 21
1.0
 31
0.0
1001
ACAD
1000
MTEXTBEGIN
1070
    73
1070
     1
1070
    44
1040
1.0
1070
    74
1070
     0
1000
MTEXTEND
1000
MTEXTBEGIN
1070
    73
1070
     1
1070
    44
1040
1.0
1070
    74
1070
     0
1000
MTEXTEND
  0
POINT
  5
2EA6
330
2A4D
100
AcDbEntity
  8
DEFPOINTS
 62
     0
100
AcDbPoint
 10
76.37938665238824
 20
226.0557338114267
 30
0.0
  0
POINT
  5
2EA7
330
2A4D
100
AcDbEntity
  8
DEFPOINTS
 62
     0
100
AcDbPoint
 10
177.7823835813301
 20
321.0557338114266
 30
0.0
  0
POINT
  5
2EA8
330
2A4D
100
AcDbEntity
  8
DEFPOINTS
 62
     0
100
AcDbPoint
 10
76.37938665238824
 20
321.0557338114268
 30
0.0
  0
ENDBLK
  5
2A58
330
2A4D
100
AcDbEntity
  8
0
100
AcDbBlockEnd
  0
BLOCK
  5
2A64
330
2A5A
100
AcDbEntity
  8
0
100
AcDbBlockBegin
  2
*D11
 70
     1
 10
0.0
 20
0.0
 30
0.0
  3
*D11
  1

  0
LINE
  5
2ECD
330
2A5A
100
AcDbEntity
  8
SUNPOU
100
AcDbLine
 10
174.7823835813301
 20
321.0557338114266
 30
0.0
 11
74.37938665238823
 21
321.0557338114268
 31
0.0
  0
LINE
  5
2ECE
330
2A5A
100
AcDbEntity
  8
SUNPOU
100
AcDbLine
 10
174.7823835813301
 20
371.0557338114266
 30
0.0
 11
74.37938665238823
 21
371.0557338114266
 31
0.0
  0
LINE
  5
2ECF
330
2A5A
100
AcDbEntity
  8
SUNPOU
100
AcDbLine
 10
76.37938665238824
 20
326.0557338114268
 30
0.0
 11
76.37938665238825
 21
366.0557338114267
 31
0.0
  0
INSERT
  5
2ED0
330
2A5A
100
AcDbEntity
  8
SUNPOU
100
AcDbBlockReference
  2
_OPEN30
 10
76.37938665238824
 20
321.0557338114268
 30
0.0
 41
5.0
 42
5.0
 43
5.0
 50
270.0
  0
INSERT
  5
2ED1
330
2A5A
100
AcDbEntity
  8
SUNPOU
100
AcDbBlockReference
  2
_OPEN30
 10
76.37938665238825
 20
371.0557338114266
 30
0.0
 41
5.0
 42
5.0
 43
5.0
 50
90.0
  0
MTEXT
  5
2ED2
330
2A5A
100
AcDbEntity
  8
SUNPOU
 62
     6
100
AcDbMText
 10
71.87938665238817
 20
346.0557338114266
 30
0.0
 40
5.0
 41
0.0
 71
     5
 72
     1
  1
\A1;50
  7
SUNPOU
 11
0.0000000000000001
 21
1.0
 31
0.0
1001
ACAD
1000
MTEXTBEGIN
1070
    73
1070
     1
1070
    44
1040
1.0
1070
    74
1070
     0
1000
MTEXTEND
1000
MTEXTBEGIN
1070
    73
1070
     1
1070
    44
1040
1.0
1070
    74
1070
     0
1000
MTEXTEND
  0
POINT
  5
2ED3
330
2A5A
100
AcDbEntity
  8
DEFPOINTS
 62
     0
100
AcDbPoint
 10
177.7823835813301
 20
321.0557338114266
 30
0.0
  0
POINT
  5
2ED4
330
2A5A
100
AcDbEntity
  8
DEFPOINTS
 62
     0
100
AcDbPoint
 10
177.7823835813301
 20
371.0557338114266
 30
0.0
  0
POINT
  5
2ED5
330
2A5A
100
AcDbEntity
  8
DEFPOINTS
 62
     0
100
AcDbPoint
 10
76.37938665238825
 20
371.0557338114266
 30
0.0
  0
ENDBLK
  5
2A65
330
2A5A
100
AcDbEntity
  8
0
100
AcDbBlockEnd
  0
BLOCK
  5
2A71
330
2A67
100
AcDbEntity
  8
0
100
AcDbBlockBegin
  2
*D12
 70
     1
 10
0.0
 20
0.0
 30
0.0
  3
*D12
  1

  0
LINE
  5
2E7C
330
2A67
100
AcDbEntity
  8
SUNPOU
100
AcDbLine
 10
88.86069555845621
 20
321.0557338114266
 30
0.0
 11
89.86069555845622
 21
321.0557338114266
 31
0.0
  0
LINE
  5
2E7D
330
2A67
100
AcDbEntity
  8
SUNPOU
100
AcDbLine
 10
213.8348473569596
 20
354.0557338114266
 30
0.0
 11
89.86069555845622
 21
354.0557338114268
 31
0.0
  0
LINE
  5
2E7E
330
2A67
100
AcDbEntity
  8
SUNPOU
100
AcDbLine
 10
91.86069555845621
 20
326.0557338114267
 30
0.0
 11
91.86069555845621
 21
349.0557338114268
 31
0.0
  0
INSERT
  5
2E7F
330
2A67
100
AcDbEntity
  8
SUNPOU
100
AcDbBlockReference
  2
_OPEN30
 10
91.86069555845621
 20
321.0557338114266
 30
0.0
 41
5.0
 42
5.0
 43
5.0
 50
270.0
  0
INSERT
  5
2E80
330
2A67
100
AcDbEntity
  8
SUNPOU
100
AcDbBlockReference
  2
_OPEN30
 10
91.86069555845621
 20
354.0557338114268
 30
0.0
 41
5.0
 42
5.0
 43
5.0
 50
90.0
  0
MTEXT
  5
2E81
330
2A67
100
AcDbEntity
  8
SUNPOU
 62
     6
100
AcDbMText
 10
87.36069555845615
 20
337.5557338114266
 30
0.0
 40
5.0
 41
0.0
 71
     5
 72
     1
  1
\A1;33
  7
SUNPOU
 11
0.0000000000000001
 21
1.0
 31
0.0
1001
ACAD
1000
MTEXTBEGIN
1070
    73
1070
     1
1070
    44
1040
1.0
1070
    74
1070
     0
1000
MTEXTEND
1000
MTEXTBEGIN
1070
    73
1070
     1
1070
    44
1040
1.0
1070
    74
1070
     0
1000
MTEXTEND
  0
POINT
  5
2E82
330
2A67
100
AcDbEntity
  8
DEFPOINTS
 62
     0
100
AcDbPoint
 10
91.86069555845621
 20
321.0557338114266
 30
0.0
  0
POINT
  5
2E83
330
2A67
100
AcDbEntity
  8
DEFPOINTS
 62
     0
100
AcDbPoint
 10
216.8348473569596
 20
354.0557338114266
 30
0.0
  0
POINT
  5
2E84
330
2A67
100
AcDbEntity
  8
DEFPOINTS
 62
     0
100
AcDbPoint
 10
91.86069555845621
 20
354.0557338114268
 30
0.0
  0
ENDBLK
  5
2A72
330
2A67
100
AcDbEntity
  8
0
100
AcDbBlockEnd
  0
BLOCK
  5
2A7E
330
2A74
100
AcDbEntity
  8
0
100
AcDbBlockBegin
  2
*D13
 70
     1
 10
0.0
 20
0.0
 30
0.0
  3
*D13
  1

  0
LINE
  5
2E73
330
2A74
100
AcDbEntity
  8
SUNPOU
100
AcDbLine
 10
213.8348473569596
 20
354.0557338114266
 30
0.0
 11
89.86069555845622
 21
354.0557338114268
 31
0.0
  0
LINE
  5
2E74
330
2A74
100
AcDbEntity
  8
SUNPOU
100
AcDbLine
 10
168.7823835813301
 20
384.0557338114267
 30
0.0
 11
89.86069555845622
 21
384.0557338114269
 31
0.0
  0
LINE
  5
2E75
330
2A74
100
AcDbEntity
  8
SUNPOU
100
AcDbLine
 10
91.86069555845621
 20
359.0557338114269
 30
0.0
 11
91.86069555845621
 21
379.0557338114268
 31
0.0
  0
MTEXT
  5
2E76
330
2A74
100
AcDbEntity
  8
SUNPOU
 62
     6
100
AcDbMText
 10
87.36069555845615
 20
365.0435388127823
 30
0.0
 40
5.0
 41
0.0
 71
     5
 72
     1
  1
\A1;30
  7
SUNPOU
 11
0.0000000000000001
 21
1.0
 31
0.0
1001
ACAD
1000
MTEXTBEGIN
1070
    73
1070
     1
1070
    44
1040
1.0
1070
    74
1070
     0
1000
MTEXTEND
1000
MTEXTBEGIN
1070
    73
1070
     1
1070
    44
1040
1.0
1070
    74
1070
     0
1000
MTEXTEND
  0
INSERT
  5
2E77
330
2A74
100
AcDbEntity
  8
SUNPOU
100
AcDbBlockReference
  2
_OPEN30
 10
91.86069555845621
 20
354.0557338114268
 30
0.0
 41
5.0
 42
5.0
 43
5.0
 50
270.0
  0
INSERT
  5
2E78
330
2A74
100
AcDbEntity
  8
SUNPOU
100
AcDbBlockReference
  2
_OPEN30
 10
91.86069555845621
 20
384.0557338114269
 30
0.0
 41
5.0
 42
5.0
 43
5.0
 50
90.0
  0
POINT
  5
2E79
330
2A74
100
AcDbEntity
  8
DEFPOINTS
 62
     0
100
AcDbPoint
 10
216.8348473569596
 20
354.0557338114266
 30
0.0
  0
POINT
  5
2E7A
330
2A74
100
AcDbEntity
  8
DEFPOINTS
 62
     0
100
AcDbPoint
 10
171.7823835813301
 20
384.0557338114267
 30
0.0
  0
POINT
  5
2E7B
330
2A74
100
AcDbEntity
  8
DEFPOINTS
 62
     0
100
AcDbPoint
 10
91.86069555845621
 20
384.0557338114269
 30
0.0
  0
ENDBLK
  5
2A7F
330
2A74
100
AcDbEntity
  8
0
100
AcDbBlockEnd
  0
BLOCK
  5
2A8B
330
2A81
100
AcDbEntity
  8
0
100
AcDbBlockBegin
  2
*D14
 70
     1
 10
0.0
 20
0.0
 30
0.0
  3
*D14
  1

  0
LINE
  5
2EE8
330
2A81
100
AcDbEntity
  8
SUNPOU
100
AcDbLine
 10
168.7823835813301
 20
384.0557338114267
 30
0.0
 11
89.86069555845622
 21
384.0557338114269
 31
0.0
  0
LINE
  5
2EE9
330
2A81
100
AcDbEntity
  8
SUNPOU
100
AcDbLine
 10
168.7823835813301
 20
430.0557338114266
 30
0.0
 11
89.86069555845622
 21
430.0557338114268
 31
0.0
  0
LINE
  5
2EEA
330
2A81
100
AcDbEntity
  8
SUNPOU
100
AcDbLine
 10
91.86069555845621
 20
389.0557338114268
 30
0.0
 11
91.86069555845623
 21
425.0557338114266
 31
0.0
  0
INSERT
  5
2EEB
330
2A81
100
AcDbEntity
  8
SUNPOU
100
AcDbBlockReference
  2
_OPEN30
 10
91.86069555845621
 20
384.0557338114269
 30
0.0
 41
5.0
 42
5.0
 43
5.0
 50
270.0
  0
INSERT
  5
2EEC
330
2A81
100
AcDbEntity
  8
SUNPOU
100
AcDbBlockReference
  2
_OPEN30
 10
91.86069555845623
 20
430.0557338114268
 30
0.0
 41
5.0
 42
5.0
 43
5.0
 50
90.0
  0
MTEXT
  5
2EED
330
2A81
100
AcDbEntity
  8
SUNPOU
 62
     6
100
AcDbMText
 10
87.36069555845615
 20
407.0557338114269
 30
0.0
 40
5.0
 41
0.0
 71
     5
 72
     1
  1
\A1;46
  7
SUNPOU
 11
0.0000000000000001
 21
1.0
 31
0.0
1001
ACAD
1000
MTEXTBEGIN
1070
    73
1070
     1
1070
    44
1040
1.0
1070
    74
1070
     0
1000
MTEXTEND
1000
MTEXTBEGIN
1070
    73
1070
     1
1070
    44
1040
1.0
1070
    74
1070
     0
1000
MTEXTEND
  0
POINT
  5
2EEE
330
2A81
100
AcDbEntity
  8
DEFPOINTS
 62
     0
100
AcDbPoint
 10
171.7823835813301
 20
384.0557338114267
 30
0.0
  0
POINT
  5
2EEF
330
2A81
100
AcDbEntity
  8
DEFPOINTS
 62
     0
100
AcDbPoint
 10
171.7823835813301
 20
430.0557338114266
 30
0.0
  0
POINT
  5
2EF0
330
2A81
100
AcDbEntity
  8
DEFPOINTS
 62
     0
100
AcDbPoint
 10
91.86069555845623
 20
430.0557338114268
 30
0.0
  0
ENDBLK
  5
2A8C
330
2A81
100
AcDbEntity
  8
0
100
AcDbBlockEnd
  0
BLOCK
  5
2A98
330
2A8E
100
AcDbEntity
  8
0
100
AcDbBlockBegin
  2
*D15
 70
     1
 10
0.0
 20
0.0
 30
0.0
  3
*D15
  1

  0
LINE
  5
2EC4
330
2A8E
100
AcDbEntity
  8
SUNPOU
100
AcDbLine
 10
140.3981836448695
 20
226.0557338114267
 30
0.0
 11
141.3981836448695
 21
226.0557338114267
 31
0.0
  0
LINE
  5
2EC5
330
2A8E
100
AcDbEntity
  8
SUNPOU
100
AcDbLine
 10
174.7823835813301
 20
247.8557338114267
 30
0.0
 11
141.3981836448695
 21
247.8557338114267
 31
0.0
  0
LINE
  5
2EC6
330
2A8E
100
AcDbEntity
  8
SUNPOU
100
AcDbLine
 10
143.3981836448695
 20
231.0557338114267
 30
0.0
 11
143.3981836448695
 21
242.8557338114266
 31
0.0
  0
INSERT
  5
2EC7
330
2A8E
100
AcDbEntity
  8
SUNPOU
100
AcDbBlockReference
  2
_OPEN30
 10
143.3981836448695
 20
226.0557338114267
 30
0.0
 41
5.0
 42
5.0
 43
5.0
 50
270.0
  0
INSERT
  5
2EC8
330
2A8E
100
AcDbEntity
  8
SUNPOU
100
AcDbBlockReference
  2
_OPEN30
 10
143.3981836448695
 20
247.8557338114267
 30
0.0
 41
5.0
 42
5.0
 43
5.0
 50
90.0
  0
MTEXT
  5
2EC9
330
2A8E
100
AcDbEntity
  8
SUNPOU
 62
     6
100
AcDbMText
 10
138.8981836448693
 20
236.9557338114268
 30
0.0
 40
5.0
 41
0.0
 71
     5
 72
     1
  1
\A1;22
  7
SUNPOU
 11
0.0000000000000001
 21
1.0
 31
0.0
1001
ACAD
1000
MTEXTBEGIN
1070
    73
1070
     1
1070
    44
1040
1.0
1070
    74
1070
     0
1000
MTEXTEND
1000
MTEXTBEGIN
1070
    73
1070
     1
1070
    44
1040
1.0
1070
    74
1070
     0
1000
MTEXTEND
  0
POINT
  5
2ECA
330
2A8E
100
AcDbEntity
  8
DEFPOINTS
 62
     0
100
AcDbPoint
 10
143.3981836448695
 20
226.0557338114267
 30
0.0
  0
POINT
  5
2ECB
330
2A8E
100
AcDbEntity
  8
DEFPOINTS
 62
     0
100
AcDbPoint
 10
177.7823835813301
 20
247.8557338114267
 30
0.0
  0
POINT
  5
2ECC
330
2A8E
100
AcDbEntity
  8
DEFPOINTS
 62
     0
100
AcDbPoint
 10
143.3981836448695
 20
247.8557338114267
 30
0.0
  0
ENDBLK
  5
2A99
330
2A8E
100
AcDbEntity
  8
0
100
AcDbBlockEnd
  0
BLOCK
  5
2AA5
330
2A9B
100
AcDbEntity
  8
0
100
AcDbBlockBegin
  2
*D16
 70
     1
 10
0.0
 20
0.0
 30
0.0
  3
*D16
  1

  0
LINE
  5
2EBB
330
2A9B
100
AcDbEntity
  8
SUNPOU
100
AcDbLine
 10
174.7823835813301
 20
247.8557338114267
 30
0.0
 11
141.3981836448695
 21
247.8557338114267
 31
0.0
  0
LINE
  5
2EBC
330
2A9B
100
AcDbEntity
  8
SUNPOU
100
AcDbLine
 10
169.4761469085485
 20
273.8557338114267
 30
0.0
 11
141.3981836448695
 21
273.8557338114267
 31
0.0
  0
LINE
  5
2EBD
330
2A9B
100
AcDbEntity
  8
SUNPOU
100
AcDbLine
 10
143.3981836448695
 20
252.8557338114266
 30
0.0
 11
143.3981836448695
 21
268.8557338114267
 31
0.0
  0
INSERT
  5
2EBE
330
2A9B
100
AcDbEntity
  8
SUNPOU
100
AcDbBlockReference
  2
_OPEN30
 10
143.3981836448695
 20
247.8557338114267
 30
0.0
 41
5.0
 42
5.0
 43
5.0
 50
270.0
  0
INSERT
  5
2EBF
330
2A9B
100
AcDbEntity
  8
SUNPOU
100
AcDbBlockReference
  2
_OPEN30
 10
143.3981836448695
 20
273.8557338114267
 30
0.0
 41
5.0
 42
5.0
 43
5.0
 50
90.0
  0
MTEXT
  5
2EC0
330
2A9B
100
AcDbEntity
  8
SUNPOU
 62
     6
100
AcDbMText
 10
138.8981836448693
 20
260.8557338114267
 30
0.0
 40
5.0
 41
0.0
 71
     5
 72
     1
  1
\A1;26
  7
SUNPOU
 11
0.0000000000000001
 21
1.0
 31
0.0
1001
ACAD
1000
MTEXTBEGIN
1070
    73
1070
     1
1070
    44
1040
1.0
1070
    74
1070
     0
1000
MTEXTEND
1000
MTEXTBEGIN
1070
    73
1070
     1
1070
    44
1040
1.0
1070
    74
1070
     0
1000
MTEXTEND
  0
POINT
  5
2EC1
330
2A9B
100
AcDbEntity
  8
DEFPOINTS
 62
     0
100
AcDbPoint
 10
177.7823835813301
 20
247.8557338114267
 30
0.0
  0
POINT
  5
2EC2
330
2A9B
100
AcDbEntity
  8
DEFPOINTS
 62
     0
100
AcDbPoint
 10
172.4761469085485
 20
273.8557338114267
 30
0.0
  0
POINT
  5
2EC3
330
2A9B
100
AcDbEntity
  8
DEFPOINTS
 62
     0
100
AcDbPoint
 10
143.3981836448695
 20
273.8557338114267
 30
0.0
  0
ENDBLK
  5
2AA6
330
2A9B
100
AcDbEntity
  8
0
100
AcDbBlockEnd
  0
BLOCK
  5
2AB2
330
2AA8
100
AcDbEntity
  8
0
100
AcDbBlockBegin
  2
*D17
 70
     1
 10
0.0
 20
0.0
 30
0.0
  3
*D17
  1

  0
LINE
  5
2E97
330
2AA8
100
AcDbEntity
  8
SUNPOU
100
AcDbLine
 10
169.4761469085485
 20
273.8557338114267
 30
0.0
 11
141.3981836448695
 21
273.8557338114267
 31
0.0
  0
LINE
  5
2E98
330
2AA8
100
AcDbEntity
  8
SUNPOU
100
AcDbLine
 10
169.8600735244459
 20
297.8557338114267
 30
0.0
 11
141.3981836448695
 21
297.8557338114267
 31
0.0
  0
LINE
  5
2E99
330
2AA8
100
AcDbEntity
  8
SUNPOU
100
AcDbLine
 10
143.3981836448695
 20
278.8557338114267
 30
0.0
 11
143.3981836448695
 21
292.8557338114267
 31
0.0
  0
INSERT
  5
2E9A
330
2AA8
100
AcDbEntity
  8
SUNPOU
100
AcDbBlockReference
  2
_OPEN30
 10
143.3981836448695
 20
273.8557338114267
 30
0.0
 41
5.0
 42
5.0
 43
5.0
 50
270.0
  0
INSERT
  5
2E9B
330
2AA8
100
AcDbEntity
  8
SUNPOU
100
AcDbBlockReference
  2
_OPEN30
 10
143.3981836448695
 20
297.8557338114267
 30
0.0
 41
5.0
 42
5.0
 43
5.0
 50
90.0
  0
MTEXT
  5
2E9C
330
2AA8
100
AcDbEntity
  8
SUNPOU
 62
     6
100
AcDbMText
 10
138.8981836448693
 20
285.8557338114268
 30
0.0
 40
5.0
 41
0.0
 71
     5
 72
     1
  1
\A1;24
  7
SUNPOU
 11
0.0000000000000001
 21
1.0
 31
0.0
1001
ACAD
1000
MTEXTBEGIN
1070
    73
1070
     1
1070
    44
1040
1.0
1070
    74
1070
     0
1000
MTEXTEND
1000
MTEXTBEGIN
1070
    73
1070
     1
1070
    44
1040
1.0
1070
    74
1070
     0
1000
MTEXTEND
  0
POINT
  5
2E9D
330
2AA8
100
AcDbEntity
  8
DEFPOINTS
 62
     0
100
AcDbPoint
 10
172.4761469085485
 20
273.8557338114267
 30
0.0
  0
POINT
  5
2E9E
330
2AA8
100
AcDbEntity
  8
DEFPOINTS
 62
     0
100
AcDbPoint
 10
172.8600735244459
 20
297.8557338114267
 30
0.0
  0
POINT
  5
2E9F
330
2AA8
100
AcDbEntity
  8
DEFPOINTS
 62
     0
100
AcDbPoint
 10
143.3981836448695
 20
297.8557338114267
 30
0.0
  0
ENDBLK
  5
2AB3
330
2AA8
100
AcDbEntity
  8
0
100
AcDbBlockEnd
  0
BLOCK
  5
2ABF
330
2AB5
100
AcDbEntity
  8
0
100
AcDbBlockBegin
  2
*D18
 70
     1
 10
0.0
 20
0.0
 30
0.0
  3
*D18
  1

  0
LINE
  5
2E6A
330
2AB5
100
AcDbEntity
  8
SUNPOU
100
AcDbLine
 10
160.7823835813301
 20
211.7309026126958
 30
0.0
 11
160.7823835813301
 21
210.7309026126959
 31
0.0
  0
LINE
  5
2E6B
330
2AB5
100
AcDbEntity
  8
SUNPOU
100
AcDbLine
 10
225.7823835813303
 20
211.7309026126958
 30
0.0
 11
225.7823835813303
 21
210.7309026126959
 31
0.0
  0
LINE
  5
2E6C
330
2AB5
100
AcDbEntity
  8
SUNPOU
100
AcDbLine
 10
165.7823835813301
 20
208.7309026126959
 30
0.0
 11
220.7823835813301
 21
208.7309026126959
 31
0.0
  0
INSERT
  5
2E6D
330
2AB5
100
AcDbEntity
  8
SUNPOU
100
AcDbBlockReference
  2
_OPEN30
 10
160.7823835813301
 20
208.7309026126959
 30
0.0
 41
5.0
 42
5.0
 43
5.0
 50
180.0
  0
INSERT
  5
2E6E
330
2AB5
100
AcDbEntity
  8
SUNPOU
100
AcDbBlockReference
  2
_OPEN30
 10
225.7823835813303
 20
208.7309026126959
 30
0.0
 41
5.0
 42
5.0
 43
5.0
  0
MTEXT
  5
2E6F
330
2AB5
100
AcDbEntity
  8
SUNPOU
 62
     6
100
AcDbMText
 10
193.2823835813301
 20
213.2309026126959
 30
0.0
 40
5.0
 41
0.0
 71
     5
 72
     1
  1
\A1;65
  7
SUNPOU
1001
ACAD
1000
MTEXTBEGIN
1070
    73
1070
     1
1070
    44
1040
1.0
1070
    74
1070
     0
1000
MTEXTEND
1000
MTEXTBEGIN
1070
    73
1070
     1
1070
    44
1040
1.0
1070
    74
1070
     0
1000
MTEXTEND
  0
POINT
  5
2E70
330
2AB5
100
AcDbEntity
  8
DEFPOINTS
 62
     0
100
AcDbPoint
 10
160.7823835813301
 20
208.7309026126959
 30
0.0
  0
POINT
  5
2E71
330
2AB5
100
AcDbEntity
  8
DEFPOINTS
 62
     0
100
AcDbPoint
 10
225.7823835813303
 20
208.7309026126959
 30
0.0
  0
POINT
  5
2E72
330
2AB5
100
AcDbEntity
  8
DEFPOINTS
 62
     0
100
AcDbPoint
 10
225.7823835813303
 20
208.7309026126959
 30
0.0
  0
ENDBLK
  5
2AC0
330
2AB5
100
AcDbEntity
  8
0
100
AcDbBlockEnd
  0
BLOCK
  5
2ACE
330
2AC2
100
AcDbEntity
  8
0
100
AcDbBlockBegin
  2
*D19
 70
     1
 10
0.0
 20
0.0
 30
0.0
  3
*D19
  1

  0
LINE
  5
2F3F
330
2AC2
100
AcDbEntity
  8
SUNPOU
100
AcDbLine
 10
225.7823835813303
 20
211.7309026126958
 30
0.0
 11
225.7823835813303
 21
210.7309026126959
 31
0.0
  0
LINE
  5
2F40
330
2AC2
100
AcDbEntity
  8
SUNPOU
100
AcDbLine
 10
232.7823835813301
 20
211.7309026126958
 30
0.0
 11
232.7823835813301
 21
210.7309026126959
 31
0.0
  0
LINE
  5
2F41
330
2AC2
100
AcDbEntity
  8
SUNPOU
100
AcDbLine
 10
220.7823835813301
 20
208.7309026126959
 30
0.0
 11
215.7823835813303
 21
208.7309026126959
 31
0.0
  0
LINE
  5
2F42
330
2AC2
100
AcDbEntity
  8
SUNPOU
100
AcDbLine
 10
237.7823835813301
 20
208.7309026126959
 30
0.0
 11
242.7823835813301
 21
208.7309026126959
 31
0.0
  0
LINE
  5
2F43
330
2AC2
100
AcDbEntity
  8
SUNPOU
100
AcDbLine
 10
225.7823835813303
 20
208.7309026126959
 30
0.0
 11
232.7823835813301
 21
208.7309026126959
 31
0.0
  0
INSERT
  5
2F44
330
2AC2
100
AcDbEntity
  8
SUNPOU
100
AcDbBlockReference
  2
_OPEN30
 10
225.7823835813303
 20
208.7309026126959
 30
0.0
 41
5.0
 42
5.0
 43
5.0
  0
INSERT
  5
2F45
330
2AC2
100
AcDbEntity
  8
SUNPOU
100
AcDbBlockReference
  2
_OPEN30
 10
232.7823835813301
 20
208.7309026126959
 30
0.0
 41
5.0
 42
5.0
 43
5.0
 50
180.0
  0
MTEXT
  5
2F46
330
2AC2
100
AcDbEntity
  8
SUNPOU
 62
     6
100
AcDbMText
 10
229.2823835813301
 20
213.2309026126959
 30
0.0
 40
5.0
 41
0.0
 71
     5
 72
     1
  1
\A1;7
  7
SUNPOU
1001
ACAD
1000
MTEXTBEGIN
1070
    73
1070
     1
1070
    44
1040
1.0
1070
    74
1070
     0
1000
MTEXTEND
1000
MTEXTBEGIN
1070
    73
1070
     1
1070
    44
1040
1.0
1070
    74
1070
     0
1000
MTEXTEND
  0
POINT
  5
2F47
330
2AC2
100
AcDbEntity
  8
DEFPOINTS
 62
     0
100
AcDbPoint
 10
225.7823835813303
 20
208.7309026126959
 30
0.0
  0
POINT
  5
2F48
330
2AC2
100
AcDbEntity
  8
DEFPOINTS
 62
     0
100
AcDbPoint
 10
232.7823835813301
 20
208.7309026126959
 30
0.0
  0
POINT
  5
2F49
330
2AC2
100
AcDbEntity
  8
DEFPOINTS
 62
     0
100
AcDbPoint
 10
232.7823835813301
 20
208.7309026126959
 30
0.0
  0
ENDBLK
  5
2ACF
330
2AC2
100
AcDbEntity
  8
0
100
AcDbBlockEnd
  0
BLOCK
  5
2ADB
330
2AD1
100
AcDbEntity
  8
0
100
AcDbBlockBegin
  2
*D20
 70
     1
 10
0.0
 20
0.0
 30
0.0
  3
*D20
  1

  0
LINE
  5
2F36
330
2AD1
100
AcDbEntity
  8
SUNPOU
100
AcDbLine
 10
232.7823835813301
 20
211.7309026126958
 30
0.0
 11
232.7823835813301
 21
210.7309026126959
 31
0.0
  0
LINE
  5
2F37
330
2AD1
100
AcDbEntity
  8
SUNPOU
100
AcDbLine
 10
274.7823835813302
 20
211.7309026126958
 30
0.0
 11
274.7823835813302
 21
210.7309026126959
 31
0.0
  0
LINE
  5
2F38
330
2AD1
100
AcDbEntity
  8
SUNPOU
100
AcDbLine
 10
237.7823835813301
 20
208.7309026126959
 30
0.0
 11
269.7823835813303
 21
208.7309026126959
 31
0.0
  0
INSERT
  5
2F39
330
2AD1
100
AcDbEntity
  8
SUNPOU
100
AcDbBlockReference
  2
_OPEN30
 10
232.7823835813301
 20
208.7309026126959
 30
0.0
 41
5.0
 42
5.0
 43
5.0
 50
180.0
  0
INSERT
  5
2F3A
330
2AD1
100
AcDbEntity
  8
SUNPOU
100
AcDbBlockReference
  2
_OPEN30
 10
274.7823835813302
 20
208.7309026126959
 30
0.0
 41
5.0
 42
5.0
 43
5.0
  0
MTEXT
  5
2F3B
330
2AD1
100
AcDbEntity
  8
SUNPOU
 62
     6
100
AcDbMText
 10
253.7823835813302
 20
213.2309026126959
 30
0.0
 40
5.0
 41
0.0
 71
     5
 72
     1
  1
\A1;42
  7
SUNPOU
1001
ACAD
1000
MTEXTBEGIN
1070
    73
1070
     1
1070
    44
1040
1.0
1070
    74
1070
     0
1000
MTEXTEND
1000
MTEXTBEGIN
1070
    73
1070
     1
1070
    44
1040
1.0
1070
    74
1070
     0
1000
MTEXTEND
  0
POINT
  5
2F3C
330
2AD1
100
AcDbEntity
  8
DEFPOINTS
 62
     0
100
AcDbPoint
 10
232.7823835813301
 20
208.7309026126959
 30
0.0
  0
POINT
  5
2F3D
330
2AD1
100
AcDbEntity
  8
DEFPOINTS
 62
     0
100
AcDbPoint
 10
274.7823835813302
 20
208.7309026126959
 30
0.0
  0
POINT
  5
2F3E
330
2AD1
100
AcDbEntity
  8
DEFPOINTS
 62
     0
100
AcDbPoint
 10
274.7823835813302
 20
208.7309026126959
 30
0.0
  0
ENDBLK
  5
2ADC
330
2AD1
100
AcDbEntity
  8
0
100
AcDbBlockEnd
  0
BLOCK
  5
2AEA
330
2ADE
100
AcDbEntity
  8
0
100
AcDbBlockBegin
  2
*D21
 70
     1
 10
0.0
 20
0.0
 30
0.0
  3
*D21
  1

  0
LINE
  5
38AA
330
2ADE
100
AcDbEntity
  8
SUNPOU
100
AcDbLine
 10
274.7823835813302
 20
211.7309026126958
 30
0.0
 11
274.7823835813302
 21
210.7309026126959
 31
0.0
  0
LINE
  5
38AB
330
2ADE
100
AcDbEntity
  8
SUNPOU
100
AcDbLine
 10
283.7823835813301
 20
225.0557338114266
 30
0.0
 11
283.7823835813301
 21
206.7309026126959
 31
0.0
  0
LINE
  5
38AC
330
2ADE
100
AcDbEntity
  8
SUNPOU
100
AcDbLine
 10
269.7823835813303
 20
208.7309026126959
 30
0.0
 11
264.7823835813301
 21
208.7309026126959
 31
0.0
  0
LINE
  5
38AD
330
2ADE
100
AcDbEntity
  8
SUNPOU
100
AcDbLine
 10
288.7823835813303
 20
208.7309026126959
 30
0.0
 11
293.7823835813301
 21
208.7309026126959
 31
0.0
  0
MTEXT
  5
38AE
330
2ADE
100
AcDbEntity
  8
SUNPOU
 62
     6
100
AcDbMText
 10
277.9490502479969
 20
213.2309026126959
 30
0.0
 40
5.0
 41
0.0
 71
     5
 72
     1
  1
\A1;9
  7
SUNPOU
1001
ACAD
1000
MTEXTBEGIN
1070
    73
1070
     1
1070
    44
1040
1.0
1070
    74
1070
     0
1000
MTEXTEND
1000
MTEXTBEGIN
1070
    73
1070
     1
1070
    44
1040
1.0
1070
    74
1070
     0
1000
MTEXTEND
  0
LINE
  5
38AF
330
2ADE
100
AcDbEntity
  8
SUNPOU
100
AcDbLine
 10
274.7823835813302
 20
208.7309026126959
 30
0.0
 11
283.7823835813301
 21
208.7309026126959
 31
0.0
  0
INSERT
  5
38B0
330
2ADE
100
AcDbEntity
  8
SUNPOU
100
AcDbBlockReference
  2
_OPEN30
 10
274.7823835813302
 20
208.7309026126959
 30
0.0
 41
5.0
 42
5.0
 43
5.0
  0
INSERT
  5
38B1
330
2ADE
100
AcDbEntity
  8
SUNPOU
100
AcDbBlockReference
  2
_OPEN30
 10
283.7823835813301
 20
208.7309026126959
 30
0.0
 41
5.0
 42
5.0
 43
5.0
 50
180.0
  0
POINT
  5
38B2
330
2ADE
100
AcDbEntity
  8
DEFPOINTS
 62
     0
100
AcDbPoint
 10
274.7823835813302
 20
208.7309026126959
 30
0.0
  0
POINT
  5
38B3
330
2ADE
100
AcDbEntity
  8
DEFPOINTS
 62
     0
100
AcDbPoint
 10
283.7823835813301
 20
228.0557338114267
 30
0.0
  0
POINT
  5
38B4
330
2ADE
100
AcDbEntity
  8
DEFPOINTS
 62
     0
100
AcDbPoint
 10
283.7823835813301
 20
208.7309026126959
 30
0.0
  0
ENDBLK
  5
2AEB
330
2ADE
100
AcDbEntity
  8
0
100
AcDbBlockEnd
  0
BLOCK
  5
2AF7
330
2AED
100
AcDbEntity
  8
0
100
AcDbBlockBegin
  2
*D22
 70
     1
 10
0.0
 20
0.0
 30
0.0
  3
*D22
  1

  0
LINE
  5
2EFC
330
2AED
100
AcDbEntity
  8
SUNPOU
100
AcDbLine
 10
283.7823835813301
 20
225.0557338114266
 30
0.0
 11
283.7823835813301
 21
206.7309026126959
 31
0.0
  0
LINE
  5
2EFD
330
2AED
100
AcDbEntity
  8
SUNPOU
100
AcDbLine
 10
350.7823835813303
 20
225.0557338114266
 30
0.0
 11
350.7823835813303
 21
206.7309026126959
 31
0.0
  0
LINE
  5
2EFE
330
2AED
100
AcDbEntity
  8
SUNPOU
100
AcDbLine
 10
288.7823835813303
 20
208.7309026126959
 30
0.0
 11
345.7823835813303
 21
208.7309026126959
 31
0.0
  0
INSERT
  5
2EFF
330
2AED
100
AcDbEntity
  8
SUNPOU
100
AcDbBlockReference
  2
_OPEN30
 10
283.7823835813301
 20
208.7309026126959
 30
0.0
 41
5.0
 42
5.0
 43
5.0
 50
180.0
  0
INSERT
  5
2F00
330
2AED
100
AcDbEntity
  8
SUNPOU
100
AcDbBlockReference
  2
_OPEN30
 10
350.7823835813303
 20
208.7309026126959
 30
0.0
 41
5.0
 42
5.0
 43
5.0
  0
MTEXT
  5
2F01
330
2AED
100
AcDbEntity
  8
SUNPOU
 62
     6
100
AcDbMText
 10
317.2823835813303
 20
213.2309026126959
 30
0.0
 40
5.0
 41
0.0
 71
     5
 72
     1
  1
\A1;67
  7
SUNPOU
1001
ACAD
1000
MTEXTBEGIN
1070
    73
1070
     1
1070
    44
1040
1.0
1070
    74
1070
     0
1000
MTEXTEND
1000
MTEXTBEGIN
1070
    73
1070
     1
1070
    44
1040
1.0
1070
    74
1070
     0
1000
MTEXTEND
  0
POINT
  5
2F02
330
2AED
100
AcDbEntity
  8
DEFPOINTS
 62
     0
100
AcDbPoint
 10
283.7823835813301
 20
228.0557338114267
 30
0.0
  0
POINT
  5
2F03
330
2AED
100
AcDbEntity
  8
DEFPOINTS
 62
     0
100
AcDbPoint
 10
350.7823835813303
 20
228.0557338114267
 30
0.0
  0
POINT
  5
2F04
330
2AED
100
AcDbEntity
  8
DEFPOINTS
 62
     0
100
AcDbPoint
 10
350.7823835813303
 20
208.7309026126959
 30
0.0
  0
ENDBLK
  5
2AF8
330
2AED
100
AcDbEntity
  8
0
100
AcDbBlockEnd
  0
BLOCK
  5
2B04
330
2AFA
100
AcDbEntity
  8
0
100
AcDbBlockBegin
  2
*D23
 70
     1
 10
0.0
 20
0.0
 30
0.0
  3
*D23
  1

  0
LINE
  5
2F22
330
2AFA
100
AcDbEntity
  8
SUNPOU
100
AcDbLine
 10
298.2407190346009
 20
226.0557338114267
 30
0.0
 11
299.240719034601
 21
226.0557338114267
 31
0.0
  0
LINE
  5
2F23
330
2AFA
100
AcDbEntity
  8
SUNPOU
100
AcDbLine
 10
277.7823835813303
 20
256.0557338114268
 30
0.0
 11
303.240719034601
 21
256.0557338114268
 31
0.0
  0
LINE
  5
2F24
330
2AFA
100
AcDbEntity
  8
SUNPOU
100
AcDbLine
 10
301.240719034601
 20
231.0557338114267
 30
0.0
 11
301.240719034601
 21
251.0557338114268
 31
0.0
  0
MTEXT
  5
2F25
330
2AFA
100
AcDbEntity
  8
SUNPOU
 62
     6
100
AcDbMText
 10
296.740719034601
 20
241.0557338114268
 30
0.0
 40
5.0
 41
0.0
 71
     5
 72
     1
  1
\A1;25～30
  7
SUNPOU
 11
0.0000000000000001
 21
1.0
 31
0.0
1001
ACAD
1000
MTEXTBEGIN
1070
    73
1070
     1
1070
    44
1040
1.0
1070
    74
1070
     0
1000
MTEXTEND
1000
MTEXTBEGIN
1070
    73
1070
     1
1070
    44
1040
1.0
1070
    74
1070
     0
1000
MTEXTEND
  0
INSERT
  5
2F26
330
2AFA
100
AcDbEntity
  8
SUNPOU
100
AcDbBlockReference
  2
_OPEN30
 10
301.240719034601
 20
226.0557338114267
 30
0.0
 41
5.0
 42
5.0
 43
5.0
 50
270.0
  0
INSERT
  5
2F27
330
2AFA
100
AcDbEntity
  8
SUNPOU
100
AcDbBlockReference
  2
_OPEN30
 10
301.240719034601
 20
256.0557338114268
 30
0.0
 41
5.0
 42
5.0
 43
5.0
 50
90.0
  0
POINT
  5
2F28
330
2AFA
100
AcDbEntity
  8
DEFPOINTS
 62
     0
100
AcDbPoint
 10
301.240719034601
 20
226.0557338114267
 30
0.0
  0
POINT
  5
2F29
330
2AFA
100
AcDbEntity
  8
DEFPOINTS
 62
     0
100
AcDbPoint
 10
274.7823835813302
 20
256.0557338114268
 30
0.0
  0
POINT
  5
2F2A
330
2AFA
100
AcDbEntity
  8
DEFPOINTS
 62
     0
100
AcDbPoint
 10
301.240719034601
 20
256.0557338114268
 30
0.0
  0
ENDBLK
  5
2B05
330
2AFA
100
AcDbEntity
  8
0
100
AcDbBlockEnd
  0
BLOCK
  5
2B25
330
2B19
100
AcDbEntity
  8
0
100
AcDbBlockBegin
  2
*D24
 70
     1
 10
0.0
 20
0.0
 30
0.0
  3
*D24
  1

  0
LINE
  5
2EF1
330
2B19
100
AcDbEntity
  8
SUNPOU
100
AcDbLine
 10
253.7823835813304
 20
288.9802065856705
 30
0.0
 11
253.7823835813304
 21
287.9802065856706
 31
0.0
  0
LINE
  5
2EF2
330
2B19
100
AcDbEntity
  8
SUNPOU
100
AcDbLine
 10
258.7823835813304
 20
288.9802065856705
 30
0.0
 11
258.7823835813304
 21
287.9802065856706
 31
0.0
  0
LINE
  5
2EF3
330
2B19
100
AcDbEntity
  8
SUNPOU
100
AcDbLine
 10
248.7823835813304
 20
285.9802065856706
 30
0.0
 11
243.7823835813304
 21
285.9802065856706
 31
0.0
  0
LINE
  5
2EF4
330
2B19
100
AcDbEntity
  8
SUNPOU
100
AcDbLine
 10
263.7823835813303
 20
285.9802065856706
 30
0.0
 11
268.7823835813304
 21
285.9802065856706
 31
0.0
  0
MTEXT
  5
2EF5
330
2B19
100
AcDbEntity
  8
SUNPOU
 62
     6
100
AcDbMText
 10
256.2823835813304
 20
290.7071531822777
 30
0.0
 40
5.0
 41
0.0
 71
     5
 72
     1
  1
\A1;5
  7
SUNPOU
1001
ACAD
1000
MTEXTBEGIN
1070
    73
1070
     1
1070
    44
1040
1.0
1070
    74
1070
     0
1000
MTEXTEND
1000
MTEXTBEGIN
1070
    73
1070
     1
1070
    44
1040
1.0
1070
    74
1070
     0
1000
MTEXTEND
  0
LINE
  5
2EF6
330
2B19
100
AcDbEntity
  8
SUNPOU
100
AcDbLine
 10
253.7823835813304
 20
285.9802065856706
 30
0.0
 11
258.7823835813304
 21
285.9802065856706
 31
0.0
  0
INSERT
  5
2EF7
330
2B19
100
AcDbEntity
  8
SUNPOU
100
AcDbBlockReference
  2
_OPEN30
 10
253.7823835813304
 20
285.9802065856706
 30
0.0
 41
5.0
 42
5.0
 43
5.0
  0
INSERT
  5
2EF8
330
2B19
100
AcDbEntity
  8
SUNPOU
100
AcDbBlockReference
  2
_OPEN30
 10
258.7823835813304
 20
285.9802065856706
 30
0.0
 41
5.0
 42
5.0
 43
5.0
 50
180.0
  0
POINT
  5
2EF9
330
2B19
100
AcDbEntity
  8
DEFPOINTS
 62
     0
100
AcDbPoint
 10
253.7823835813304
 20
285.9802065856706
 30
0.0
  0
POINT
  5
2EFA
330
2B19
100
AcDbEntity
  8
DEFPOINTS
 62
     0
100
AcDbPoint
 10
258.7823835813304
 20
285.9802065856706
 30
0.0
  0
POINT
  5
2EFB
330
2B19
100
AcDbEntity
  8
DEFPOINTS
 62
     0
100
AcDbPoint
 10
258.7823835813304
 20
285.9802065856706
 30
0.0
  0
ENDBLK
  5
2B26
330
2B19
100
AcDbEntity
  8
0
100
AcDbBlockEnd
  0
BLOCK
  5
2B3D
330
2B33
100
AcDbEntity
  8
0
100
AcDbBlockBegin
  2
*D25
 70
     1
 10
0.0
 20
0.0
 30
0.0
  3
*D25
  1

  0
LINE
  5
2EB2
330
2B33
100
AcDbEntity
  8
SUNPOU
100
AcDbLine
 10
59.28894929138004
 20
226.0557338114267
 30
0.0
 11
60.28894929138004
 21
226.0557338114267
 31
0.0
  0
LINE
  5
2EB3
330
2B33
100
AcDbEntity
  8
SUNPOU
100
AcDbLine
 10
112.7926352788927
 20
103.9846476421444
 30
0.0
 11
60.28894929138001
 21
103.9846476421444
 31
0.0
  0
LINE
  5
2EB4
330
2B33
100
AcDbEntity
  8
SUNPOU
100
AcDbLine
 10
62.28894929138004
 20
221.0557338114266
 30
0.0
 11
62.28894929138
 21
108.9846476421444
 31
0.0
  0
INSERT
  5
2EB5
330
2B33
100
AcDbEntity
  8
SUNPOU
100
AcDbBlockReference
  2
_OPEN30
 10
62.28894929138004
 20
226.0557338114267
 30
0.0
 41
5.0
 42
5.0
 43
5.0
 50
90.0
  0
INSERT
  5
2EB6
330
2B33
100
AcDbEntity
  8
SUNPOU
100
AcDbBlockReference
  2
_OPEN30
 10
62.28894929138
 20
103.9846476421444
 30
0.0
 41
5.0
 42
5.0
 43
5.0
 50
270.0
  0
MTEXT
  5
2EB7
330
2B33
100
AcDbEntity
  8
SUNPOU
 62
     6
100
AcDbMText
 10
57.78894929138001
 20
165.0201907267855
 30
0.0
 40
5.0
 41
0.0
 71
     5
 72
     1
  1
\A1;H
  7
SUNPOU
 11
0.0000000000000001
 21
1.0
 31
0.0
1001
ACAD
1000
MTEXTBEGIN
1070
    73
1070
     1
1070
    44
1040
1.0
1070
    74
1070
     0
1000
MTEXTEND
1000
MTEXTBEGIN
1070
    73
1070
     1
1070
    44
1040
1.0
1070
    74
1070
     0
1000
MTEXTEND
  0
POINT
  5
2EB8
330
2B33
100
AcDbEntity
  8
DEFPOINTS
 62
     0
100
AcDbPoint
 10
62.28894929138004
 20
226.0557338114267
 30
0.0
  0
POINT
  5
2EB9
330
2B33
100
AcDbEntity
  8
DEFPOINTS
 62
     0
100
AcDbPoint
 10
115.7926352788926
 20
103.9846476421444
 30
0.0
  0
POINT
  5
2EBA
330
2B33
100
AcDbEntity
  8
DEFPOINTS
 62
     0
100
AcDbPoint
 10
62.28894929138
 20
103.9846476421444
 30
0.0
  0
ENDBLK
  5
2B3E
330
2B33
100
AcDbEntity
  8
0
100
AcDbBlockEnd
  0
BLOCK
  5
2B4A
330
2B40
100
AcDbEntity
  8
0
100
AcDbBlockBegin
  2
*D26
 70
     1
 10
0.0
 20
0.0
 30
0.0
  3
*D26
  1

  0
LINE
  5
38B5
330
2B40
100
AcDbEntity
  8
SUNPOU
100
AcDbLine
 10
277.7823835813303
 20
256.0557338114268
 30
0.0
 11
310.3983113562808
 21
256.0557338114268
 31
0.0
  0
LINE
  5
38B6
330
2B40
100
AcDbEntity
  8
SUNPOU
100
AcDbLine
 10
282.7823835813303
 20
115.9846476421444
 30
0.0
 11
310.3983113562808
 21
115.9846476421444
 31
0.0
  0
LINE
  5
38B7
330
2B40
100
AcDbEntity
  8
SUNPOU
100
AcDbLine
 10
308.3983113562808
 20
251.0557338114268
 30
0.0
 11
308.3983113562808
 21
120.9846476421444
 31
0.0
  0
INSERT
  5
38B8
330
2B40
100
AcDbEntity
  8
SUNPOU
100
AcDbBlockReference
  2
_OPEN30
 10
308.3983113562808
 20
256.0557338114268
 30
0.0
 41
5.0
 42
5.0
 43
5.0
 50
90.0
  0
INSERT
  5
38B9
330
2B40
100
AcDbEntity
  8
SUNPOU
100
AcDbBlockReference
  2
_OPEN30
 10
308.3983113562808
 20
115.9846476421444
 30
0.0
 41
5.0
 42
5.0
 43
5.0
 50
270.0
  0
MTEXT
  5
38BA
330
2B40
100
AcDbEntity
  8
SUNPOU
 62
     6
100
AcDbMText
 10
303.8983113562808
 20
186.0201907267855
 30
0.0
 40
5.0
 41
0.0
 71
     5
 72
     1
  1
\A1;DH
  7
SUNPOU
 11
0.0000000000000001
 21
1.0
 31
0.0
1001
ACAD
1000
MTEXTBEGIN
1070
    73
1070
     1
1070
    44
1040
1.0
1070
    74
1070
     0
1000
MTEXTEND
1000
MTEXTBEGIN
1070
    73
1070
     1
1070
    44
1040
1.0
1070
    74
1070
     0
1000
MTEXTEND
  0
POINT
  5
38BB
330
2B40
100
AcDbEntity
  8
DEFPOINTS
 62
     0
100
AcDbPoint
 10
274.7823835813302
 20
256.0557338114268
 30
0.0
  0
POINT
  5
38BC
330
2B40
100
AcDbEntity
  8
DEFPOINTS
 62
     0
100
AcDbPoint
 10
279.7823835813303
 20
115.9846476421444
 30
0.0
  0
POINT
  5
38BD
330
2B40
100
AcDbEntity
  8
DEFPOINTS
 62
     0
100
AcDbPoint
 10
308.3983113562808
 20
115.9846476421444
 30
0.0
  0
ENDBLK
  5
2B4B
330
2B40
100
AcDbEntity
  8
0
100
AcDbBlockEnd
  0
BLOCK
  5
2B6B
330
2B5F
100
AcDbEntity
  8
0
100
AcDbBlockBegin
  2
*D27
 70
     1
 10
0.0
 20
0.0
 30
0.0
  3
*D27
  1

  0
LINE
  5
2F0E
330
2B5F
100
AcDbEntity
  8
SUNPOU
100
AcDbLine
 10
305.3983113562808
 20
115.9846476421444
 30
0.0
 11
306.3983113562808
 21
115.9846476421444
 31
0.0
  0
LINE
  5
2F0F
330
2B5F
100
AcDbEntity
  8
SUNPOU
100
AcDbLine
 10
282.2823835813303
 20
106.9846476421444
 30
0.0
 11
310.3983113562808
 21
106.9846476421443
 31
0.0
  0
LINE
  5
2F10
330
2B5F
100
AcDbEntity
  8
SUNPOU
100
AcDbLine
 10
308.3983113562808
 20
120.9846476421444
 30
0.0
 11
308.3983113562808
 21
125.9846476421442
 31
0.0
  0
LINE
  5
2F11
330
2B5F
100
AcDbEntity
  8
SUNPOU
100
AcDbLine
 10
308.3983113562808
 20
101.9846476421442
 30
0.0
 11
308.3983113562808
 21
96.98464764214442
 31
0.0
  0
LINE
  5
2F12
330
2B5F
100
AcDbEntity
  8
SUNPOU
100
AcDbLine
 10
308.3983113562808
 20
115.9846476421444
 30
0.0
 11
308.3983113562808
 21
106.9846476421443
 31
0.0
  0
INSERT
  5
2F13
330
2B5F
100
AcDbEntity
  8
SUNPOU
100
AcDbBlockReference
  2
_OPEN30
 10
308.3983113562808
 20
115.9846476421444
 30
0.0
 41
5.0
 42
5.0
 43
5.0
 50
270.0
  0
INSERT
  5
2F14
330
2B5F
100
AcDbEntity
  8
SUNPOU
100
AcDbBlockReference
  2
_OPEN30
 10
308.3983113562808
 20
106.9846476421443
 30
0.0
 41
5.0
 42
5.0
 43
5.0
 50
90.0
  0
MTEXT
  5
2F15
330
2B5F
100
AcDbEntity
  8
SUNPOU
 62
     6
100
AcDbMText
 10
303.8983113562808
 20
111.4846476421444
 30
0.0
 40
5.0
 41
0.0
 71
     5
 72
     1
  1
\A1;9
  7
SUNPOU
 11
0.0000000000000001
 21
1.0
 31
0.0
1001
ACAD
1000
MTEXTBEGIN
1070
    73
1070
     1
1070
    44
1040
1.0
1070
    74
1070
     0
1000
MTEXTEND
1000
MTEXTBEGIN
1070
    73
1070
     1
1070
    44
1040
1.0
1070
    74
1070
     0
1000
MTEXTEND
  0
POINT
  5
2F16
330
2B5F
100
AcDbEntity
  8
DEFPOINTS
 62
     0
100
AcDbPoint
 10
308.3983113562808
 20
115.9846476421444
 30
0.0
  0
POINT
  5
2F17
330
2B5F
100
AcDbEntity
  8
DEFPOINTS
 62
     0
100
AcDbPoint
 10
279.2823835813301
 20
106.9846476421444
 30
0.0
  0
POINT
  5
2F18
330
2B5F
100
AcDbEntity
  8
DEFPOINTS
 62
     0
100
AcDbPoint
 10
308.3983113562808
 20
106.9846476421443
 30
0.0
  0
ENDBLK
  5
2B6C
330
2B5F
100
AcDbEntity
  8
0
100
AcDbBlockEnd
  0
BLOCK
  5
2B78
330
2B6E
100
AcDbEntity
  8
0
100
AcDbBlockBegin
  2
*D28
 70
     1
 10
0.0
 20
0.0
 30
0.0
  3
*D28
  1

  0
LINE
  5
2F05
330
2B6E
100
AcDbEntity
  8
SUNPOU
100
AcDbLine
 10
282.2823835813303
 20
106.9846476421444
 30
0.0
 11
310.3983113562808
 21
106.9846476421443
 31
0.0
  0
LINE
  5
2F06
330
2B6E
100
AcDbEntity
  8
SUNPOU
100
AcDbLine
 10
283.2823835813302
 20
63.9846476421444
 30
0.0
 11
310.3983113562808
 21
63.98464764214439
 31
0.0
  0
LINE
  5
2F07
330
2B6E
100
AcDbEntity
  8
SUNPOU
100
AcDbLine
 10
308.3983113562808
 20
101.9846476421442
 30
0.0
 11
308.3983113562808
 21
68.98464764214439
 31
0.0
  0
INSERT
  5
2F08
330
2B6E
100
AcDbEntity
  8
SUNPOU
100
AcDbBlockReference
  2
_OPEN30
 10
308.3983113562808
 20
106.9846476421443
 30
0.0
 41
5.0
 42
5.0
 43
5.0
 50
90.0
  0
INSERT
  5
2F09
330
2B6E
100
AcDbEntity
  8
SUNPOU
100
AcDbBlockReference
  2
_OPEN30
 10
308.3983113562808
 20
63.98464764214439
 30
0.0
 41
5.0
 42
5.0
 43
5.0
 50
270.0
  0
MTEXT
  5
2F0A
330
2B6E
100
AcDbEntity
  8
SUNPOU
 62
     6
100
AcDbMText
 10
303.8983113562808
 20
85.48464764214445
 30
0.0
 40
5.0
 41
0.0
 71
     5
 72
     1
  1
\A1;43
  7
SUNPOU
 11
0.0000000000000001
 21
1.0
 31
0.0
1001
ACAD
1000
MTEXTBEGIN
1070
    73
1070
     1
1070
    44
1040
1.0
1070
    74
1070
     0
1000
MTEXTEND
1000
MTEXTBEGIN
1070
    73
1070
     1
1070
    44
1040
1.0
1070
    74
1070
     0
1000
MTEXTEND
  0
POINT
  5
2F0B
330
2B6E
100
AcDbEntity
  8
DEFPOINTS
 62
     0
100
AcDbPoint
 10
279.2823835813301
 20
106.9846476421444
 30
0.0
  0
POINT
  5
2F0C
330
2B6E
100
AcDbEntity
  8
DEFPOINTS
 62
     0
100
AcDbPoint
 10
280.2823835813303
 20
63.9846476421444
 30
0.0
  0
POINT
  5
2F0D
330
2B6E
100
AcDbEntity
  8
DEFPOINTS
 62
     0
100
AcDbPoint
 10
308.3983113562808
 20
63.98464764214439
 30
0.0
  0
ENDBLK
  5
2B79
330
2B6E
100
AcDbEntity
  8
0
100
AcDbBlockEnd
  0
BLOCK
  5
3760
330
3756
100
AcDbEntity
  8
0
100
AcDbBlockBegin
  2
*D29
 70
     1
 10
0.0
 20
0.0
 30
0.0
  3
*D29
  1

  0
LINE
  5
376B
330
3756
100
AcDbEntity
  8
SUNPOU
  6
CONTINUOUS
100
AcDbLine
 10
112.7926352788927
 20
103.9846476421444
 30
0.0
 11
92.22467356344486
 21
103.9846476421444
 31
0.0
  0
LINE
  5
376C
330
3756
100
AcDbEntity
  8
SUNPOU
  6
CONTINUOUS
100
AcDbLine
 10
176.8659200223739
 20
163.5632971679972
 30
0.0
 11
92.22467356344488
 21
163.5632971679972
 31
0.0
  0
LINE
  5
376D
330
3756
100
AcDbEntity
  8
SUNPOU
  6
CONTINUOUS
100
AcDbLine
 10
94.22467356344489
 20
108.9846476421444
 30
0.0
 11
94.22467356344489
 21
158.5632971679972
 31
0.0
  0
INSERT
  5
376E
330
3756
100
AcDbEntity
  8
SUNPOU
  6
CONTINUOUS
100
AcDbBlockReference
  2
_OPEN30
 10
94.22467356344489
 20
103.9846476421444
 30
0.0
 41
5.0
 42
5.0
 43
5.0
 50
270.0
  0
INSERT
  5
376F
330
3756
100
AcDbEntity
  8
SUNPOU
  6
CONTINUOUS
100
AcDbBlockReference
  2
_OPEN30
 10
94.22467356344489
 20
163.5632971679972
 30
0.0
 41
5.0
 42
5.0
 43
5.0
 50
90.0
  0
MTEXT
  5
3770
330
3756
100
AcDbEntity
  8
SUNPOU
  6
CONTINUOUS
 62
     6
100
AcDbMText
 10
89.72467356344486
 20
133.7739724050709
 30
0.0
 40
5.0
 41
0.0
 71
     5
 72
     1
  1
\A1;600
  7
SUNPOU
 11
0.0000000000000001
 21
1.0
 31
0.0
1001
ACAD
1000
MTEXTBEGIN
1070
    73
1070
     1
1070
    44
1040
1.0
1070
    74
1070
     0
1000
MTEXTEND
1000
MTEXTBEGIN
1070
    73
1070
     1
1070
    44
1040
1.0
1070
    74
1070
     0
1000
MTEXTEND
  0
POINT
  5
3771
330
3756
100
AcDbEntity
  8
DEFPOINTS
  6
CONTINUOUS
 62
     0
100
AcDbPoint
 10
115.7926352788926
 20
103.9846476421444
 30
0.0
  0
POINT
  5
3772
330
3756
100
AcDbEntity
  8
DEFPOINTS
  6
CONTINUOUS
 62
     0
100
AcDbPoint
 10
179.8659200223739
 20
163.5632971679972
 30
0.0
  0
POINT
  5
3773
330
3756
100
AcDbEntity
  8
DEFPOINTS
  6
CONTINUOUS
 62
     0
100
AcDbPoint
 10
94.22467356344489
 20
163.5632971679972
 30
0.0
  0
ENDBLK
  5
3761
330
3756
100
AcDbEntity
  8
0
100
AcDbBlockEnd
  0
BLOCK
  5
38EF
330
38E4
100
AcDbEntity
  8
0
100
AcDbBlockBegin
  2
*X30
 70
     1
 10
0.0
 20
0.0
 30
0.0
  3
*X30
  1

  0
LINE
  5
38E5
330
38E4
100
AcDbEntity
  8
0
 62
     0
100
AcDbLine
 10
196.8875790874817
 20
226.0557338114267
 30
0.0
 11
198.0875790874816
 21
227.2557338114267
 31
0.0
  0
LINE
  5
38E6
330
38E4
100
AcDbEntity
  8
0
 62
     0
100
AcDbLine
 10
194.2359286580321
 20
226.0557338114267
 30
0.0
 11
195.4359286580321
 21
227.2557338114267
 31
0.0
  0
LINE
  5
38E7
330
38E4
100
AcDbEntity
  8
0
 62
     0
100
AcDbLine
 10
191.5842782285826
 20
226.0557338114268
 30
0.0
 11
192.7842782285825
 21
227.2557338114267
 31
0.0
  0
LINE
  5
38E8
330
38E4
100
AcDbEntity
  8
0
 62
     0
100
AcDbLine
 10
188.932627799133
 20
226.0557338114268
 30
0.0
 11
190.132627799133
 21
227.2557338114267
 31
0.0
  0
LINE
  5
38E9
330
38E4
100
AcDbEntity
  8
0
 62
     0
100
AcDbLine
 10
187.2823835813301
 20
227.0571400230735
 30
0.0
 11
187.4809783570116
 21
227.2557347987549
 31
0.0
  0
LINE
  5
38EA
330
38E4
100
AcDbEntity
  8
0
 62
     0
100
AcDbLine
 10
198.3260260813347
 20
246.0557338114266
 30
0.0
 11
199.2823835813301
 21
247.012091311422
 31
0.0
  0
LINE
  5
38EB
330
38E4
100
AcDbEntity
  8
0
 62
     0
100
AcDbLine
 10
195.6743756518853
 20
246.0557338114266
 30
0.0
 11
197.4743756518851
 21
247.8557338114267
 31
0.0
  0
LINE
  5
38EC
330
38E4
100
AcDbEntity
  8
0
 62
     0
100
AcDbLine
 10
193.0227252224358
 20
246.0557338114268
 30
0.0
 11
194.8227252224356
 21
247.8557338114267
 31
0.0
  0
LINE
  5
38ED
330
38E4
100
AcDbEntity
  8
0
 62
     0
100
AcDbLine
 10
190.3710747929861
 20
246.0557338114268
 30
0.0
 11
192.1710747929861
 21
247.8557338114267
 31
0.0
  0
LINE
  5
38EE
330
38E4
100
AcDbEntity
  8
0
 62
     0
100
AcDbLine
 10
187.7194243635366
 20
246.0557338114266
 30
0.0
 11
189.5194243635366
 21
247.8557338114268
 31
0.0
  0
ENDBLK
  5
38F0
330
38E4
100
AcDbEntity
  8
0
100
AcDbBlockEnd
  0
ENDSEC
  0
SECTION
  2
ENTITIES
  0
ARC
  5
C63
330
A
100
AcDbEntity
  8
03
100
AcDbCircle
 10
182.0379150919428
 20
490.9539494659786
 30
0.0
 40
15.0
100
AcDbArc
 50
276.6784915489809
 51
298.879189899757
  0
ARC
  5
C64
330
A
100
AcDbEntity
  8
03
100
AcDbCircle
 10
204.526846446816
 20
490.9539494659786
 30
0.0
 40
15.0
100
AcDbArc
 50
241.1208101002427
 51
263.3215084510191
  0
ARC
  5
C66
330
A
100
AcDbEntity
  8
03
100
AcDbCircle
 10
204.526846446816
 20
528.1575181568748
 30
0.0
 40
15.0
100
AcDbArc
 50
96.67849154898087
 51
118.879189899757
  0
ARC
  5
C67
330
A
100
AcDbEntity
  8
03
100
AcDbCircle
 10
182.0379150919428
 20
528.1575181568748
 30
0.0
 40
15.0
100
AcDbArc
 50
61.12081010024287
 51
83.32150845101912
  0
ARC
  5
C6C
330
A
100
AcDbEntity
  8
03
100
AcDbCircle
 10
177.7823835813301
 20
447.8557338114268
 30
0.0
 40
3.2
100
AcDbArc
 50
90.0
 51
180.0
  0
ARC
  5
C72
330
A
100
AcDbEntity
  8
03
100
AcDbCircle
 10
177.7823835813301
 20
251.0557338114267
 30
0.0
 40
3.2
100
AcDbArc
 50
180.0
 51
270.0
  0
ARC
  5
C73
330
A
100
AcDbEntity
  8
03
100
AcDbCircle
 10
213.8823835813302
 20
247.8557338114267
 30
0.0
 40
3.2
100
AcDbArc
 50
0.0
 51
90.0
  0
ARC
  5
C79
330
A
100
AcDbEntity
  8
03
100
AcDbCircle
 10
213.3823835813301
 20
451.0557338114266
 30
0.0
 40
3.2
100
AcDbArc
 50
270.0
 51
0.0
  0
ARC
  5
C7A
330
A
100
AcDbEntity
  8
03
100
AcDbCircle
 10
216.5823835813302
 20
464.6557338114266
 30
0.0
 40
3.2
100
AcDbArc
 50
90.0
 51
180.0
  0
ARC
  5
C99
330
A
100
AcDbEntity
  8
02
100
AcDbCircle
 10
225.7823835813303
 20
441.8557338114267
 30
0.0
 40
6.0
100
AcDbArc
 50
0.0
 51
90.0
  0
ARC
  5
C9A
330
A
100
AcDbEntity
  8
02
100
AcDbCircle
 10
225.7823835813303
 20
327.0557338114266
 30
0.0
 40
6.0
100
AcDbArc
 50
270.0
 51
0.0
  0
CIRCLE
  5
D90
330
A
100
AcDbEntity
  8
03
100
AcDbCircle
 10
282.2823835813303
 20
482.5557338114267
 30
0.0
 40
4.0
  0
ARC
  5
D9F
330
A
100
AcDbEntity
  8
KAKURE
 48
0.3
100
AcDbCircle
 10
225.7823835813301
 20
365.0557338114267
 30
0.0
 40
6.0
100
AcDbArc
 50
0.0
 51
90.0
  0
ARC
  5
DA0
330
A
100
AcDbEntity
  8
KAKURE
100
AcDbCircle
 10
202.7823835813301
 20
327.0557338114266
 30
0.0
 40
6.0
100
AcDbArc
 50
270.0
 51
0.0
  0
ARC
  5
DC5
330
A
100
AcDbEntity
  8
04
100
AcDbCircle
 10
185.7823835813302
 20
283.8557338114267
 30
0.0
 40
4.0
100
AcDbArc
 50
179.9999999999998
 51
269.9999999999997
  0
ARC
  5
DCE
330
A
100
AcDbEntity
  8
06
100
AcDbCircle
 10
185.7823835813302
 20
263.8557338114267
 30
0.0
 40
4.0
100
AcDbArc
 50
179.9999999999998
 51
269.9999999999997
  0
ARC
  5
DFD
330
A
100
AcDbEntity
  8
04
100
AcDbCircle
 10
252.2823835813305
 20
316.8470473859631
 30
0.0
 40
4.0
100
AcDbArc
 50
102.5288077091514
 51
179.9999999999998
  0
ARC
  5
DFF
330
A
100
AcDbEntity
  8
04
100
AcDbCircle
 10
266.2823835813304
 20
279.0557338114266
 30
0.0
 40
2.0
100
AcDbArc
 50
269.9999999999997
 51
0.0000000000000799
  0
ARC
  5
E05
330
A
100
AcDbEntity
  8
04
100
AcDbCircle
 10
237.2823835813305
 20
275.0557338114268
 30
0.0
 40
5.0
100
AcDbArc
 50
179.9999999999998
 51
269.9999999999997
  0
ARC
  5
E07
330
A
100
AcDbEntity
  8
04
100
AcDbCircle
 10
289.2823835813302
 20
275.0557338114268
 30
0.0
 40
5.0
100
AcDbArc
 50
269.9999999999997
 51
0.0000000000000799
  0
ARC
  5
E15
330
A
100
AcDbEntity
  8
04
100
AcDbCircle
 10
275.9915181159527
 20
303.8557338114268
 30
0.0
 40
0.8000000000000001
100
AcDbArc
 50
350.0000000000003
 51
169.9999999999996
  0
ARC
  5
E18
330
A
100
AcDbEntity
  8
04
100
AcDbCircle
 10
280.2915181159525
 20
303.8557338114268
 30
0.0
 40
0.8000000000000001
100
AcDbArc
 50
350.0000000000003
 51
169.9999999999996
  0
ARC
  5
E1A
330
A
100
AcDbEntity
  8
04
100
AcDbCircle
 10
277.520687573505
 20
288.1415729308022
 30
0.0
 40
0.8000000000000001
100
AcDbArc
 50
170.0000000000004
 51
349.9999999999996
  0
ARC
  5
E1C
330
A
100
AcDbEntity
  8
04
100
AcDbCircle
 10
284.0915181159526
 20
303.8557338114268
 30
0.0
 40
0.8000000000000001
100
AcDbArc
 50
350.0000000000003
 51
169.9999999999996
  0
ARC
  5
E1E
330
A
100
AcDbEntity
  8
04
100
AcDbCircle
 10
281.3206875735053
 20
288.1415729308022
 30
0.0
 40
0.8000000000000001
100
AcDbArc
 50
170.0000000000004
 51
349.9999999999996
  0
ARC
  5
E20
330
A
100
AcDbEntity
  8
04
100
AcDbCircle
 10
288.3915181159528
 20
303.8557338114267
 30
0.0
 40
0.8000000000000001
100
AcDbArc
 50
350.0000000000003
 51
169.9999999999996
  0
ARC
  5
E22
330
A
100
AcDbEntity
  8
04
100
AcDbCircle
 10
285.6206875735053
 20
288.1415729308021
 30
0.0
 40
0.8000000000000001
100
AcDbArc
 50
170.0000000000004
 51
349.9999999999996
  0
LINE
  5
105E
330
A
100
AcDbEntity
  8
SAISEN
100
AcDbLine
 10
294.9325407373693
 20
147.3450961921527
 30
0.0
 11
146.4699446851323
 21
147.3450961921527
 31
0.0
  0
LINE
  5
1061
330
A
100
AcDbEntity
  8
03
100
AcDbLine
 10
232.2823835813303
 20
63.9846476421444
 30
0.0
 11
256.2823835813301
 21
63.9846476421444
 31
0.0
  0
LINE
  5
1062
330
A
100
AcDbEntity
  8
03
100
AcDbLine
 10
255.2823835813303
 20
65.9846476421444
 30
0.0
 11
232.2823835813303
 21
65.9846476421444
 31
0.0
  0
LINE
  5
1063
330
A
100
AcDbEntity
  8
03
100
AcDbLine
 10
223.4823835813303
 20
63.9846476421444
 30
0.0
 11
280.2823835813303
 21
63.9846476421444
 31
0.0
  0
LINE
  5
1064
330
A
100
AcDbEntity
  8
03
100
AcDbLine
 10
280.2823835813303
 20
60.78464764214436
 30
0.0
 11
223.4823835813303
 21
60.78464764214436
 31
0.0
  0
LINE
  5
1065
330
A
100
AcDbEntity
  8
03
100
AcDbLine
 10
277.2823835813301
 20
63.9846476421444
 30
0.0
 11
235.2823835813302
 21
63.9846476421444
 31
0.0
  0
LINE
  5
1066
330
A
100
AcDbEntity
  8
03
100
AcDbLine
 10
235.2823835813302
 20
67.18464764214445
 30
0.0
 11
255.2823835813303
 21
67.18464764214445
 31
0.0
  0
LINE
  5
1068
330
A
100
AcDbEntity
  8
03
100
AcDbLine
 10
230.2823835813303
 20
97.98464764214442
 30
0.0
 11
230.2823835813303
 21
105.9846476421444
 31
0.0
  0
LINE
  5
1069
330
A
100
AcDbEntity
  8
03
100
AcDbLine
 10
228.2823835813303
 20
97.98464764214442
 30
0.0
 11
228.2823835813303
 21
104.9846476421444
 31
0.0
  0
LINE
  5
106A
330
A
100
AcDbEntity
  8
03
100
AcDbLine
 10
214.7823835813301
 20
104.9846476421444
 30
0.0
 11
214.7823835813301
 21
79.98464764214441
 31
0.0
  0
LINE
  5
106B
330
A
100
AcDbEntity
  8
03
100
AcDbLine
 10
212.7823835813301
 20
105.9846476421444
 30
0.0
 11
212.7823835813301
 21
78.98464764214441
 31
0.0
  0
LINE
  5
1070
330
A
100
AcDbEntity
  8
03
100
AcDbLine
 10
115.7926352788926
 20
103.9846476421444
 30
0.0
 11
212.7823835813301
 21
103.9846476421444
 31
0.0
  0
LINE
  5
1071
330
A
100
AcDbEntity
  8
03
100
AcDbLine
 10
232.7823835813301
 20
147.3450961921527
 30
0.0
 11
232.7823835813301
 21
121.4846476421444
 31
0.0
  0
LINE
  5
1072
330
A
100
AcDbEntity
  8
03
100
AcDbLine
 10
225.7823835813303
 20
147.3450961921527
 30
0.0
 11
225.7823835813303
 21
106.9846476421444
 31
0.0
  0
LINE
  5
1073
330
A
100
AcDbEntity
  8
03
100
AcDbLine
 10
160.7823835813303
 20
147.3450961921527
 30
0.0
 11
160.7823835813303
 21
103.9846476421444
 31
0.0
  0
LINE
  5
10E5
330
A
100
AcDbEntity
  8
03
100
AcDbLine
 10
229.2823835813301
 20
106.9846476421444
 30
0.0
 11
213.7823835813303
 21
106.9846476421444
 31
0.0
  0
LINE
  5
10E6
330
A
100
AcDbEntity
  8
03
100
AcDbLine
 10
228.2823835813303
 20
104.9846476421444
 30
0.0
 11
214.7823835813301
 21
104.9846476421444
 31
0.0
  0
ARC
  5
10E7
330
A
100
AcDbEntity
  8
03
100
AcDbCircle
 10
213.7823835813303
 20
105.9846476421444
 30
0.0
 40
1.0
100
AcDbArc
 50
89.99999999999998
 51
180.0
  0
ARC
  5
10E8
330
A
100
AcDbEntity
  8
03
100
AcDbCircle
 10
229.2823835813302
 20
105.9846476421444
 30
0.0
 40
1.0
100
AcDbArc
 50
0.0
 51
89.99999999999998
  0
LINE
  5
10EB
330
A
100
AcDbEntity
  8
03
100
AcDbLine
 10
232.2823835813303
 20
65.9846476421444
 30
0.0
 11
232.2823835813303
 21
63.9846476421444
 31
0.0
  0
LINE
  5
10EC
330
A
100
AcDbEntity
  8
03
100
AcDbLine
 10
232.2823835813303
 20
65.9846476421444
 30
0.0
 11
232.2823835813303
 21
63.9846476421444
 31
0.0
  0
LINE
  5
10ED
330
A
100
AcDbEntity
  8
03
100
AcDbLine
 10
235.2823835813302
 20
63.9846476421444
 30
0.0
 11
235.2823835813302
 21
67.18464764214445
 31
0.0
  0
ARC
  5
10EE
330
A
100
AcDbEntity
  8
03
100
AcDbCircle
 10
222.2823835813303
 20
64.98464764214441
 30
0.0
 40
1.0
100
AcDbArc
 50
180.0
 51
270.0
  0
LINE
  5
10F2
330
A
100
AcDbEntity
  8
03
100
AcDbLine
 10
221.0824265852508
 20
81.48468522494818
 30
0.0
 11
218.2824265852505
 21
84.48468522494819
 31
0.0
  0
LINE
  5
10F3
330
A
100
AcDbEntity
  8
03
100
AcDbLine
 10
218.2824265852508
 20
81.48468522494818
 30
0.0
 11
218.2824265852508
 21
99.4846852249482
 31
0.0
  0
ARC
  5
10F5
330
A
100
AcDbEntity
  8
03
100
AcDbCircle
 10
219.2824265852507
 20
90.4846852249482
 30
0.0
 40
9.0
100
AcDbArc
 50
311.8103148957773
 51
333.6075119851534
  0
LINE
  5
10F6
330
A
100
AcDbEntity
  8
03
100
AcDbLine
 10
224.0824265852508
 20
99.4846852249482
 30
0.0
 11
221.0824265852508
 21
99.4846852249482
 31
0.0
  0
LINE
  5
10FA
330
A
100
AcDbEntity
  8
03
100
AcDbLine
 10
224.7824265852508
 20
100.9846852249481
 30
0.0
 11
214.7823835813301
 21
100.9846852249481
 31
0.0
  0
LINE
  5
10FB
330
A
100
AcDbEntity
  8
03
100
AcDbLine
 10
224.0824265852508
 20
99.4846852249482
 30
0.0
 11
218.2824265852508
 21
99.4846852249482
 31
0.0
  0
LINE
  5
10FC
330
A
100
AcDbEntity
  8
03
100
AcDbLine
 10
218.2824265852505
 20
96.48468522494795
 30
0.0
 11
218.2824265852505
 21
84.48468522494795
 31
0.0
  0
LINE
  5
1100
330
A
100
AcDbEntity
  8
03
100
AcDbLine
 10
221.0824265852508
 20
99.4846852249482
 30
0.0
 11
218.2824265852505
 21
96.48468522494795
 31
0.0
  0
ARC
  5
1110
330
A
100
AcDbEntity
  8
03
100
AcDbCircle
 10
223.8603649343429
 20
94.78232654861743
 30
0.0
 40
9.0
100
AcDbArc
 50
292.7748086499578
 51
9.27741619771027
  0
ARC
  5
1111
330
A
100
AcDbEntity
  8
03
100
AcDbCircle
 10
221.6762197554507
 20
95.61249024626377
 30
0.0
 40
9.0
100
AcDbArc
 50
316.6515772390436
 51
2.487740518495352
  0
ARC
  5
1112
330
A
100
AcDbEntity
  8
03
100
AcDbCircle
 10
219.2824265852507
 20
90.4846852249482
 30
0.0
 40
9.0
100
AcDbArc
 50
353.2996351263677
 51
48.18968510422251
  0
LINE
  5
1114
330
A
100
AcDbEntity
  8
03
100
AcDbLine
 10
223.4118891281961
 20
99.4846852249482
 30
0.0
 11
224.0824265852508
 21
98.81414776789348
 31
0.0
  0
LINE
  5
1115
330
A
100
AcDbEntity
  8
03
100
AcDbLine
 10
225.2824265852506
 20
97.48468522494796
 30
0.0
 11
224.0824265852508
 21
97.48468522494796
 31
0.0
  0
LINE
  5
1116
330
A
100
AcDbEntity
  8
03
100
AcDbLine
 10
224.0824265852508
 20
97.48468522494796
 30
0.0
 11
224.0824265852508
 21
99.4846852249482
 31
0.0
  0
LINE
  5
1117
330
A
100
AcDbEntity
  8
03
100
AcDbLine
 10
225.2824265852506
 20
97.48468522494796
 30
0.0
 11
225.2824265852506
 21
97.19288915744757
 31
0.0
  0
LINE
  5
1119
330
A
100
AcDbEntity
  8
03
100
AcDbLine
 10
231.3911577184261
 20
97.00780815922271
 30
0.0
 11
231.4800822807864
 21
97.03330686716014
 31
0.0
  0
LINE
  5
111A
330
A
100
AcDbEntity
  8
03
100
AcDbLine
 10
228.2823835813303
 20
97.98464764214442
 30
0.0
 11
230.2823835813303
 21
97.98464764214442
 31
0.0
  0
LINE
  5
111B
330
A
100
AcDbEntity
  8
03
100
AcDbLine
 10
225.2824265852507
 20
97.48468522494816
 30
0.0
 11
225.2824265852507
 21
100.484685224948
 31
0.0
  0
LINE
  5
111C
330
A
100
AcDbEntity
  8
03
100
AcDbLine
 10
225.2824265852507
 20
97.48468522494816
 30
0.0
 11
224.0824265852508
 21
97.48468522494816
 31
0.0
  0
LINE
  5
111D
330
A
100
AcDbEntity
  8
03
100
AcDbLine
 10
224.0824265852508
 20
97.48468522494816
 30
0.0
 11
224.0824265852508
 21
99.4846852249482
 31
0.0
  0
ARC
  5
111E
330
A
100
AcDbEntity
  8
03
100
AcDbCircle
 10
224.7824265852508
 20
100.484685224948
 30
0.0
 40
0.5
100
AcDbArc
 50
0.0
 51
89.99999999999998
  0
ARC
  5
111F
330
A
100
AcDbEntity
  8
03
100
AcDbCircle
 10
231.7557196366035
 20
96.07204517122161
 30
0.0
 40
1.0
100
AcDbArc
 50
9.277416197716707
 51
108.6511098035336
  0
ARC
  5
1120
330
A
100
AcDbEntity
  8
03
100
AcDbCircle
 10
231.6667950742433
 20
96.04654646328448
 30
0.0
 40
1.0
100
AcDbArc
 50
103.3488901963069
 51
182.4877405184953
  0
LINE
  5
1129
330
A
100
AcDbEntity
  8
03
100
AcDbLine
 10
221.0824265852508
 20
81.48468522494818
 30
0.0
 11
224.0824265852508
 21
81.48468522494818
 31
0.0
  0
LINE
  5
112A
330
A
100
AcDbEntity
  8
03
100
AcDbLine
 10
221.2823835813301
 20
77.98464764214441
 30
0.0
 11
223.2823835813301
 21
77.98464764214441
 31
0.0
  0
LINE
  5
112B
330
A
100
AcDbEntity
  8
03
100
AcDbLine
 10
214.7823835813301
 20
79.98464764214441
 30
0.0
 11
224.2823835813303
 21
79.98464764214441
 31
0.0
  0
LINE
  5
112C
330
A
100
AcDbEntity
  8
03
100
AcDbLine
 10
223.2823835813301
 20
77.98464764214441
 30
0.0
 11
213.7823835813303
 21
77.98464764214441
 31
0.0
  0
LINE
  5
112D
330
A
100
AcDbEntity
  8
03
100
AcDbLine
 10
217.2824265852506
 20
79.98468522494817
 30
0.0
 11
224.7824265852508
 21
79.98468522494817
 31
0.0
  0
LINE
  5
112E
330
A
100
AcDbEntity
  8
03
100
AcDbLine
 10
224.0824265852508
 20
81.48468522494818
 30
0.0
 11
218.2824265852508
 21
81.48468522494818
 31
0.0
  0
LINE
  5
112F
330
A
100
AcDbEntity
  8
03
100
AcDbLine
 10
221.2823835813301
 20
64.98464764214441
 30
0.0
 11
221.2823835813301
 21
77.98464764214441
 31
0.0
  0
ARC
  5
1137
330
A
100
AcDbEntity
  8
03
100
AcDbCircle
 10
213.7823835813303
 20
78.98464764214441
 30
0.0
 40
1.0
100
AcDbArc
 50
180.0
 51
270.0
  0
LINE
  5
1138
330
A
100
AcDbEntity
  8
03
100
AcDbLine
 10
223.2823835813301
 20
77.98464764214441
 30
0.0
 11
223.2823835813301
 21
65.9846476421444
 31
0.0
  0
LINE
  5
1139
330
A
100
AcDbEntity
  8
03
100
AcDbLine
 10
225.2823835813301
 20
78.98464764214441
 30
0.0
 11
225.2823835813301
 21
65.9846476421444
 31
0.0
  0
LINE
  5
113A
330
A
100
AcDbEntity
  8
03
100
AcDbLine
 10
223.2823835813301
 20
77.98464764214441
 30
0.0
 11
223.2823835813301
 21
65.9846476421444
 31
0.0
  0
LINE
  5
113B
330
A
100
AcDbEntity
  8
03
100
AcDbLine
 10
225.2824265852506
 20
83.48468522494817
 30
0.0
 11
224.0824265852508
 21
83.48468522494817
 31
0.0
  0
LINE
  5
113C
330
A
100
AcDbEntity
  8
03
100
AcDbLine
 10
224.0824265852508
 20
81.48468522494818
 30
0.0
 11
224.0824265852508
 21
83.48468522494817
 31
0.0
  0
LINE
  5
113D
330
A
100
AcDbEntity
  8
03
100
AcDbLine
 10
225.2824265852506
 20
83.7764812924488
 30
0.0
 11
225.2824265852506
 21
83.48468522494817
 31
0.0
  0
LINE
  5
113E
330
A
100
AcDbEntity
  8
03
100
AcDbLine
 10
225.2824265852507
 20
83.48468522494817
 30
0.0
 11
224.0824265852508
 21
83.48468522494817
 31
0.0
  0
LINE
  5
113F
330
A
100
AcDbEntity
  8
03
100
AcDbLine
 10
224.0824265852508
 20
83.48468522494817
 30
0.0
 11
224.0824265852508
 21
81.48468522494818
 31
0.0
  0
LINE
  5
1140
330
A
100
AcDbEntity
  8
03
100
AcDbLine
 10
225.2824265852507
 20
80.48468522494818
 30
0.0
 11
225.2824265852507
 21
83.48468522494817
 31
0.0
  0
ARC
  5
1141
330
A
100
AcDbEntity
  8
03
100
AcDbCircle
 10
224.7824265852508
 20
80.48468522494818
 30
0.0
 40
0.5
100
AcDbArc
 50
270.0
 51
0.0
  0
ARC
  5
1142
330
A
100
AcDbEntity
  8
03
100
AcDbCircle
 10
224.2823835813303
 20
78.98464764214441
 30
0.0
 40
1.0
100
AcDbArc
 50
0.0
 51
89.99999999999998
  0
LINE
  5
1144
330
A
100
AcDbEntity
  8
03
100
AcDbLine
 10
223.2823835813301
 20
65.9846476421444
 30
0.0
 11
232.2823835813303
 21
65.9846476421444
 31
0.0
  0
LINE
  5
1145
330
A
100
AcDbEntity
  8
03
100
AcDbLine
 10
223.2823835813301
 20
65.9846476421444
 30
0.0
 11
225.2823835813301
 21
65.9846476421444
 31
0.0
  0
LINE
  5
1146
330
A
100
AcDbEntity
  8
03
100
AcDbLine
 10
232.2823835813303
 20
63.9846476421444
 30
0.0
 11
222.2823835813303
 21
63.9846476421444
 31
0.0
  0
LINE
  5
1147
330
A
100
AcDbEntity
  8
03
100
AcDbLine
 10
223.4823835813303
 20
60.78464764214436
 30
0.0
 11
223.4823835813303
 21
63.9846476421444
 31
0.0
  0
LINE
  5
1149
330
A
100
AcDbEntity
  8
03
100
AcDbLine
 10
255.2823835813303
 20
105.9846476421444
 30
0.0
 11
255.2823835813303
 21
65.9846476421444
 31
0.0
  0
LINE
  5
114A
330
A
100
AcDbEntity
  8
03
100
AcDbLine
 10
257.2823835813303
 20
64.98464764214441
 30
0.0
 11
257.2823835813303
 21
104.9846476421444
 31
0.0
  0
LINE
  5
114C
330
A
100
AcDbEntity
  8
03
100
AcDbLine
 10
278.2823835813303
 20
103.9846476421444
 30
0.0
 11
278.2823835813303
 21
89.98464764214441
 31
0.0
  0
LINE
  5
114D
330
A
100
AcDbEntity
  8
03
100
AcDbLine
 10
276.2823835813303
 20
102.9846476421444
 30
0.0
 11
276.2823835813303
 21
89.98464764214441
 31
0.0
  0
LINE
  5
114E
330
A
100
AcDbEntity
  8
03
100
AcDbLine
 10
280.2823835813303
 20
81.9846476421444
 30
0.0
 11
280.2823835813303
 21
105.9846476421444
 31
0.0
  0
LINE
  5
114F
330
A
100
AcDbEntity
  8
03
100
AcDbLine
 10
278.2823835813303
 20
104.9846476421444
 30
0.0
 11
278.2823835813303
 21
81.9846476421444
 31
0.0
  0
LINE
  5
1150
330
A
100
AcDbEntity
  8
03
100
AcDbLine
 10
280.2823835813303
 20
103.9846476421444
 30
0.0
 11
375.2823835813301
 21
103.9846476421443
 31
0.0
  0
LINE
  5
11C0
330
A
100
AcDbEntity
  8
03
100
AcDbLine
 10
275.2823835813301
 20
106.9846476421444
 30
0.0
 11
256.2823835813301
 21
106.9846476421444
 31
0.0
  0
LINE
  5
11C1
330
A
100
AcDbEntity
  8
03
100
AcDbLine
 10
257.2823835813303
 20
104.9846476421444
 30
0.0
 11
275.2823835813301
 21
104.9846476421444
 31
0.0
  0
ARC
  5
11E0
330
A
100
AcDbEntity
  8
03
100
AcDbCircle
 10
256.2823835813302
 20
105.9846476421443
 30
0.0
 40
1.0
100
AcDbArc
 50
89.99999999999998
 51
180.0
  0
LINE
  5
11E2
330
A
100
AcDbEntity
  8
03
100
AcDbLine
 10
263.2823835813303
 20
104.9846476421444
 30
0.0
 11
277.2823835813301
 21
104.9846476421444
 31
0.0
  0
LINE
  5
11E3
330
A
100
AcDbEntity
  8
03
100
AcDbLine
 10
263.2823835813303
 20
102.9846476421444
 30
0.0
 11
276.2823835813303
 21
102.9846476421444
 31
0.0
  0
LINE
  5
11EA
330
A
100
AcDbEntity
  8
03
100
AcDbLine
 10
263.2823835813303
 20
102.9846476421444
 30
0.0
 11
263.2823835813303
 21
104.9846476421444
 31
0.0
  0
LINE
  5
11EB
330
A
100
AcDbEntity
  8
03
100
AcDbLine
 10
275.2823835813301
 20
106.9846476421444
 30
0.0
 11
275.2823835813301
 21
104.9846476421444
 31
0.0
  0
LINE
  5
11EC
330
A
100
AcDbEntity
  8
03
100
AcDbLine
 10
275.2823835813301
 20
106.9846476421444
 30
0.0
 11
275.2823835813301
 21
104.9846476421444
 31
0.0
  0
LINE
  5
11ED
330
A
100
AcDbEntity
  8
03
100
AcDbLine
 10
275.2823835813301
 20
104.9846476421444
 30
0.0
 11
278.2823835813303
 21
104.9846476421444
 31
0.0
  0
LINE
  5
11EE
330
A
100
AcDbEntity
  8
03
100
AcDbLine
 10
279.2823835813301
 20
106.9846476421444
 30
0.0
 11
275.2823835813301
 21
106.9846476421444
 31
0.0
  0
ARC
  5
11EF
330
A
100
AcDbEntity
  8
03
100
AcDbCircle
 10
279.2823835813302
 20
105.9846476421443
 30
0.0
 40
1.0
100
AcDbArc
 50
0.0
 51
89.99999999999998
  0
ARC
  5
11F0
330
A
100
AcDbEntity
  8
03
100
AcDbCircle
 10
277.2823835813302
 20
103.9846476421443
 30
0.0
 40
1.0
100
AcDbArc
 50
0.0
 51
89.99999999999998
  0
LINE
  5
11F1
330
A
100
AcDbEntity
  8
03
100
AcDbLine
 10
280.2823835813303
 20
89.98464764214441
 30
0.0
 11
280.2823835813303
 21
63.9846476421444
 31
0.0
  0
LINE
  5
11F2
330
A
100
AcDbEntity
  8
03
100
AcDbLine
 10
283.4823835813302
 20
89.98464764214441
 30
0.0
 11
283.4823835813302
 21
63.9846476421444
 31
0.0
  0
LINE
  5
11F3
330
A
100
AcDbEntity
  8
03
100
AcDbLine
 10
277.2823835813301
 20
67.18464764214445
 30
0.0
 11
277.2823835813301
 21
63.9846476421444
 31
0.0
  0
ARC
  5
11F6
330
A
100
AcDbEntity
  8
03
100
AcDbCircle
 10
256.2823835813301
 20
64.98464764214435
 30
0.0
 40
1.0
100
AcDbArc
 50
270.0
 51
0.0
  0
LINE
  5
11F7
330
A
100
AcDbEntity
  8
03
100
AcDbLine
 10
257.2823835813303
 20
67.18464764214445
 30
0.0
 11
277.2823835813301
 21
67.18464764214445
 31
0.0
  0
LINE
  5
11F9
330
A
100
AcDbEntity
  8
03
100
AcDbLine
 10
257.2823835813303
 20
96.18464764214422
 30
0.0
 11
270.7823835813301
 21
96.18464764214422
 31
0.0
  0
LINE
  5
11FD
330
A
100
AcDbEntity
  8
KAKURE
100
AcDbLine
 10
241.7823835813301
 20
96.18464764214422
 30
0.0
 11
241.7823835813301
 21
80.18464764214446
 31
0.0
  0
LINE
  5
11FF
330
A
100
AcDbEntity
  8
KAKURE
 48
0.5
100
AcDbLine
 10
246.7823835813303
 20
98.98464764214441
 30
0.0
 11
246.7823835813303
 21
80.18464764214446
 31
0.0
  0
LINE
  5
1200
330
A
100
AcDbEntity
  8
03
100
AcDbLine
 10
241.7823835813301
 20
80.18464764214446
 30
0.0
 11
241.7823835813301
 21
96.18464764214422
 31
0.0
  0
LINE
  5
1201
330
A
100
AcDbEntity
  8
KAKURE
 48
0.5
100
AcDbLine
 10
246.7823835813303
 20
80.18464764214446
 30
0.0
 11
246.7823835813303
 21
96.18464764214422
 31
0.0
  0
LINE
  5
1202
330
A
100
AcDbEntity
  8
03
100
AcDbLine
 10
241.7823835813301
 20
96.18464764214422
 30
0.0
 11
255.2823835813303
 21
96.18464764214422
 31
0.0
  0
LINE
  5
1209
330
A
100
AcDbEntity
  8
03
100
AcDbLine
 10
237.8472681395491
 20
98.98465947013756
 30
0.0
 11
241.7823835813301
 21
98.98464764214441
 31
0.0
  0
LINE
  5
120A
330
A
100
AcDbEntity
  8
03
100
AcDbLine
 10
241.7823835813301
 20
98.98464764214441
 30
0.0
 11
246.7823835813303
 21
98.98464764214441
 31
0.0
  0
LINE
  5
121B
330
A
100
AcDbEntity
  8
03
100
AcDbLine
 10
248.7823835813303
 20
67.18464764214445
 30
0.0
 11
248.7823835813303
 21
80.18464764214446
 31
0.0
  0
LINE
  5
121E
330
A
100
AcDbEntity
  8
03
100
AcDbLine
 10
241.7823835813301
 20
78.98464764214418
 30
0.0
 11
236.7823835813303
 21
78.98464764214441
 31
0.0
  0
LINE
  5
121F
330
A
100
AcDbEntity
  8
03
100
AcDbLine
 10
246.7823835813303
 20
78.98464764214418
 30
0.0
 11
241.7823835813301
 21
78.98464764214418
 31
0.0
  0
LINE
  5
1220
330
A
100
AcDbEntity
  8
03
100
AcDbLine
 10
246.7823835813303
 20
80.18464764214446
 30
0.0
 11
246.7823835813303
 21
78.98464764214418
 31
0.0
  0
LINE
  5
1230
330
A
100
AcDbEntity
  8
03
100
AcDbLine
 10
270.7823835813301
 20
96.18464764214422
 30
0.0
 11
270.7823835813301
 21
80.18464764214446
 31
0.0
  0
LINE
  5
1233
330
A
100
AcDbEntity
  8
03
100
AcDbLine
 10
280.2823835813303
 20
89.98464764214441
 30
0.0
 11
283.4823835813302
 21
89.98464764214441
 31
0.0
  0
LINE
  5
1234
330
A
100
AcDbEntity
  8
03
100
AcDbLine
 10
278.2823835813303
 20
89.98464764214441
 30
0.0
 11
276.2823835813303
 21
89.98464764214441
 31
0.0
  0
LINE
  5
1239
330
A
100
AcDbEntity
  8
03
100
AcDbLine
 10
263.7823835813303
 20
80.18464764214446
 30
0.0
 11
263.7823835813303
 21
67.18464764214445
 31
0.0
  0
LINE
  5
1242
330
A
100
AcDbEntity
  8
03
100
AcDbLine
 10
280.2823835813303
 20
81.9846476421444
 30
0.0
 11
278.2823835813303
 21
81.9846476421444
 31
0.0
  0
ARC
  5
1245
330
A
100
AcDbEntity
  8
03
100
AcDbCircle
 10
280.2823835813303
 20
63.98464764214435
 30
0.0
 40
3.2
100
AcDbArc
 50
270.0
 51
0.0
  0
LINE
  5
18A6
330
A
100
AcDbEntity
  8
04
100
AcDbLine
 10
242.2823835813303
 20
289.5557338114276
 30
0.0
 11
237.2823835813305
 21
289.5557338114278
 31
0.0
  0
LINE
  5
18A7
330
A
100
AcDbEntity
  8
04
100
AcDbLine
 10
276.957701002313
 20
289.5557338114263
 30
0.0
 11
274.2823835813303
 21
289.5557338114264
 31
0.0
  0
LINE
  5
18A8
330
A
100
AcDbEntity
  8
04
100
AcDbLine
 10
242.1258007782991
 20
302.5557338114267
 30
0.0
 11
237.2823835813305
 21
302.5557338114267
 31
0.0
  0
LINE
  5
18A9
330
A
100
AcDbEntity
  8
04
100
AcDbLine
 10
274.9499517515233
 20
302.5557338114267
 30
0.0
 11
274.2823835813303
 21
302.5557338114267
 31
0.0
  0
LINE
  5
18AA
330
A
100
AcDbEntity
  8
04
100
AcDbLine
 10
242.2823835813303
 20
307.5557338114268
 30
0.0
 11
242.2823835813304
 21
284.5557338114267
 31
0.0
  0
LINE
  5
18AB
330
A
100
AcDbEntity
  8
04
100
AcDbLine
 10
289.2823835813302
 20
302.5557338114267
 30
0.0
 11
288.9746343305404
 21
302.5557338114267
 31
0.0
  0
LINE
  5
18AC
330
A
100
AcDbEntity
  8
04
100
AcDbLine
 10
279.2499517515233
 20
302.5557338114268
 30
0.0
 11
276.5746343305405
 21
302.5557338114267
 31
0.0
  0
LINE
  5
18AD
330
A
100
AcDbEntity
  8
04
100
AcDbLine
 10
283.0499517515231
 20
302.5557338114267
 30
0.0
 11
280.8746343305404
 21
302.5557338114268
 31
0.0
  0
LINE
  5
18AE
330
A
100
AcDbEntity
  8
04
100
AcDbLine
 10
287.3499517515231
 20
302.5557338114268
 30
0.0
 11
284.6746343305403
 21
302.5557338114268
 31
0.0
  0
LINE
  5
18AF
330
A
100
AcDbEntity
  8
04
100
AcDbLine
 10
285.057701002313
 20
289.5557338114264
 30
0.0
 11
282.3823835813303
 21
289.5557338114262
 31
0.0
  0
LINE
  5
18B0
330
A
100
AcDbEntity
  8
04
100
AcDbLine
 10
289.2823835813302
 20
289.555733811427
 30
0.0
 11
286.6823835813304
 21
289.5557338114272
 31
0.0
  0
LINE
  5
18B1
330
A
100
AcDbEntity
  8
04
100
AcDbLine
 10
280.7577010023131
 20
289.5557338114264
 30
0.0
 11
278.5823835813303
 21
289.5557338114264
 31
0.0
  0
LINE
  5
18B3
330
A
100
AcDbEntity
  8
04
100
AcDbLine
 10
294.2823835813303
 20
286.2557338114262
 30
0.0
 11
298.3874906640863
 21
286.2557338114262
 31
0.0
  0
LINE
  5
18B4
330
A
100
AcDbEntity
  8
04
100
AcDbLine
 10
299.2823835813301
 20
303.4019951673704
 30
0.0
 11
299.2823835813301
 21
288.7094724554821
 31
0.0
  0
LINE
  5
18B5
330
A
100
AcDbEntity
  8
04
100
AcDbLine
 10
294.2823835813303
 20
305.8557338114262
 30
0.0
 11
294.2823835813303
 21
286.2557338114262
 31
0.0
  0
LINE
  5
18B7
330
A
100
AcDbEntity
  8
04
100
AcDbLine
 10
294.2823835813303
 20
305.8557338114262
 30
0.0
 11
298.3874906640863
 21
305.8557338114262
 31
0.0
  0
LINE
  5
18B8
330
A
100
AcDbEntity
  8
04
100
AcDbLine
 10
253.7823835813302
 20
344.0557338114267
 30
0.0
 11
263.7823835813303
 21
344.0557338114267
 31
0.0
  0
LINE
  5
18B9
330
A
100
AcDbEntity
  8
04
100
AcDbLine
 10
268.7823835813301
 20
358.0557338114267
 30
0.0
 11
275.2823835813301
 21
358.0557338114267
 31
0.0
  0
LINE
  5
18BB
330
A
100
AcDbEntity
  8
04
100
AcDbLine
 10
268.7823835813301
 20
380.0557338114268
 30
0.0
 11
275.2823835813301
 21
380.0557338114268
 31
0.0
  0
LINE
  5
18BD
330
A
100
AcDbEntity
  8
CHUSIN
100
AcDbLine
 10
305.4711040375496
 20
296.0557338114266
 30
0.0
 11
230.3785121587766
 21
296.0557338114263
 31
0.0
  0
LINE
  5
18C0
330
A
100
AcDbEntity
  8
CHUSIN
100
AcDbLine
 10
243.7823835813301
 20
369.0557338114267
 30
0.0
 11
283.6002707863763
 21
369.0557338114268
 31
0.0
  0
LINE
  5
18C1
330
A
100
AcDbEntity
  8
04
100
AcDbLine
 10
261.2823835813304
 20
277.0557338114266
 30
0.0
 11
266.2823835813304
 21
277.0557338114266
 31
0.0
  0
LINE
  5
18C2
330
A
100
AcDbEntity
  8
04
100
AcDbLine
 10
246.2823835813304
 20
275.0557338114268
 30
0.0
 11
237.2823835813305
 21
275.0557338114268
 31
0.0
  0
LINE
  5
18C3
330
A
100
AcDbEntity
  8
04
100
AcDbLine
 10
289.2823835813302
 20
275.0557338114268
 30
0.0
 11
261.2823835813304
 21
275.0557338114268
 31
0.0
  0
LINE
  5
18CC
330
A
100
AcDbEntity
  8
04
100
AcDbLine
 10
274.2823835813303
 20
284.5557338114267
 30
0.0
 11
268.2823835813301
 21
284.5557338114267
 31
0.0
  0
LINE
  5
18CD
330
A
100
AcDbEntity
  8
04
100
AcDbLine
 10
274.2823835813303
 20
307.5557338114268
 30
0.0
 11
274.2823835813303
 21
284.5557338114267
 31
0.0
  0
LINE
  5
18CE
330
A
100
AcDbEntity
  8
04
100
AcDbLine
 10
268.2823835813301
 20
307.5557338114268
 30
0.0
 11
274.2823835813303
 21
307.5557338114268
 31
0.0
  0
LINE
  5
18CF
330
A
100
AcDbEntity
  8
04
100
AcDbLine
 10
242.2823835813304
 20
284.5557338114267
 30
0.0
 11
248.2823835813301
 21
284.5557338114267
 31
0.0
  0
LINE
  5
18D0
330
A
100
AcDbEntity
  8
04
100
AcDbLine
 10
248.2823835813301
 20
307.5557338114268
 30
0.0
 11
242.2823835813304
 21
307.5557338114268
 31
0.0
  0
LINE
  5
18D1
330
A
100
AcDbEntity
  8
04
100
AcDbLine
 10
268.2823835813301
 20
265.0557338114268
 30
0.0
 11
268.2823835813301
 21
270.0557338114268
 31
0.0
  0
LINE
  5
18D2
330
A
100
AcDbEntity
  8
04
100
AcDbLine
 10
238.2823835813303
 20
265.0557338114268
 30
0.0
 11
268.2823835813301
 21
265.0557338114268
 31
0.0
  0
LINE
  5
18D3
330
A
100
AcDbEntity
  8
04
100
AcDbLine
 10
238.2823835813303
 20
270.0557338114268
 30
0.0
 11
238.2823835813303
 21
265.0557338114268
 31
0.0
  0
LINE
  5
18D4
330
A
100
AcDbEntity
  8
04
100
AcDbLine
 10
237.2823835813305
 20
275.0557338114268
 30
0.0
 11
237.2823835813305
 21
310.0557338114268
 31
0.0
  0
LINE
  5
18D5
330
A
100
AcDbEntity
  8
04
100
AcDbLine
 10
289.2823835813302
 20
310.0557338114268
 30
0.0
 11
289.2823835813302
 21
275.0557338114268
 31
0.0
  0
LINE
  5
18D6
330
A
100
AcDbEntity
  8
04
100
AcDbLine
 10
294.2823835813303
 20
310.0557338114268
 30
0.0
 11
289.2823835813302
 21
310.0557338114268
 31
0.0
  0
LINE
  5
18D7
330
A
100
AcDbEntity
  8
04
100
AcDbLine
 10
294.2823835813303
 20
275.0557338114268
 30
0.0
 11
294.2823835813303
 21
310.0557338114268
 31
0.0
  0
LINE
  5
18D8
330
A
100
AcDbEntity
  8
04
100
AcDbLine
 10
237.2823835813305
 20
270.0557338114268
 30
0.0
 11
289.2823835813302
 21
270.0557338114268
 31
0.0
  0
LINE
  5
18D9
330
A
100
AcDbEntity
  8
04
100
AcDbLine
 10
232.2823835813304
 20
310.0557338114268
 30
0.0
 11
232.2823835813304
 21
275.0557338114268
 31
0.0
  0
LINE
  5
18DA
330
A
100
AcDbEntity
  8
04
100
AcDbLine
 10
237.2823835813305
 20
310.0557338114268
 30
0.0
 11
232.2823835813304
 21
310.0557338114268
 31
0.0
  0
LINE
  5
18DB
330
A
100
AcDbEntity
  8
04
100
AcDbLine
 10
275.2823835813301
 20
315.0557338114268
 30
0.0
 11
275.2823835813301
 21
352.0557338114268
 31
0.0
  0
LINE
  5
18DC
330
A
100
AcDbEntity
  8
04
100
AcDbLine
 10
268.2823835813301
 20
312.0557338114267
 30
0.0
 11
275.2823835813301
 21
315.0557338114268
 31
0.0
  0
LINE
  5
18DD
330
A
100
AcDbEntity
  8
04
100
AcDbLine
 10
268.2823835813301
 20
279.0557338114268
 30
0.0
 11
268.2823835813301
 21
312.0557338114267
 31
0.0
  0
LINE
  5
18DE
330
A
100
AcDbEntity
  8
04
100
AcDbLine
 10
248.2823835813301
 20
316.8470473859631
 30
0.0
 11
248.2823835813301
 21
279.0557338114266
 31
0.0
  0
LINE
  5
18DF
330
A
100
AcDbEntity
  8
04
100
AcDbLine
 10
266.2823835813302
 20
324.0557338114267
 30
0.0
 11
251.4146617500557
 21
320.751795626699
 31
0.0
  0
LINE
  5
18E0
330
A
100
AcDbEntity
  8
04
100
AcDbLine
 10
266.2823835813302
 20
334.0557338114267
 30
0.0
 11
266.2823835813302
 21
324.0557338114267
 31
0.0
  0
LINE
  5
18E1
330
A
100
AcDbEntity
  8
04
100
AcDbLine
 10
269.2823835813303
 20
337.0557338114268
 30
0.0
 11
266.2823835813302
 21
334.0557338114267
 31
0.0
  0
LINE
  5
18E2
330
A
100
AcDbEntity
  8
04
100
AcDbLine
 10
269.28238358133
 20
352.0557338114268
 30
0.0
 11
269.2823835813303
 21
337.0557338114268
 31
0.0
  0
LINE
  5
18E3
330
A
100
AcDbEntity
  8
04
100
AcDbLine
 10
275.2823835813301
 20
352.0557338114268
 30
0.0
 11
269.28238358133
 21
352.0557338114268
 31
0.0
  0
LINE
  5
18E4
330
A
100
AcDbEntity
  8
04
100
AcDbLine
 10
279.28238358133
 20
400.0557338114268
 30
0.0
 11
275.2823835813301
 21
400.0557338114268
 31
0.0
  0
LINE
  5
18E5
330
A
100
AcDbEntity
  8
04
100
AcDbLine
 10
279.2823835813301
 20
319.0557338114267
 30
0.0
 11
279.28238358133
 21
400.0557338114268
 31
0.0
  0
LINE
  5
18E6
330
A
100
AcDbEntity
  8
04
100
AcDbLine
 10
275.2823835813301
 20
319.0557338114267
 30
0.0
 11
279.2823835813301
 21
319.0557338114267
 31
0.0
  0
LINE
  5
18E7
330
A
100
AcDbEntity
  8
04
100
AcDbLine
 10
275.2823835813301
 20
400.0557338114268
 30
0.0
 11
275.2823835813301
 21
319.0557338114267
 31
0.0
  0
LINE
  5
18E8
330
A
100
AcDbEntity
  8
04
100
AcDbLine
 10
252.4426376191745
 20
399.0557338114267
 30
0.0
 11
248.7823835813303
 21
399.0557338114267
 31
0.0
  0
LINE
  5
18EA
330
A
100
AcDbEntity
  8
04
100
AcDbLine
 10
248.7823835813303
 20
339.0557338114267
 30
0.0
 11
252.4426376191745
 21
339.0557338114267
 31
0.0
  0
LINE
  5
18EC
330
A
100
AcDbEntity
  8
04
100
AcDbLine
 10
268.7823835813301
 20
399.0557338114267
 30
0.0
 11
265.1221295434857
 21
399.0557338114267
 31
0.0
  0
LINE
  5
18ED
330
A
100
AcDbEntity
  8
04
100
AcDbLine
 10
253.7823835813302
 20
344.0557338114267
 30
0.0
 11
252.4426376191745
 21
339.0557338114267
 31
0.0
  0
LINE
  5
18EE
330
A
100
AcDbEntity
  8
04
100
AcDbLine
 10
248.7823835813303
 20
339.0557338114267
 30
0.0
 11
248.7823835813303
 21
399.0557338114267
 31
0.0
  0
LINE
  5
18EF
330
A
100
AcDbEntity
  8
04
100
AcDbLine
 10
253.7823835813302
 20
394.0557338114267
 30
0.0
 11
252.4426376191745
 21
399.0557338114267
 31
0.0
  0
LINE
  5
18F0
330
A
100
AcDbEntity
  8
04
100
AcDbLine
 10
263.7823835813303
 20
394.0557338114267
 30
0.0
 11
265.1221295434857
 21
399.0557338114267
 31
0.0
  0
LINE
  5
18F1
330
A
100
AcDbEntity
  8
04
100
AcDbLine
 10
268.7823835813301
 20
339.0557338114267
 30
0.0
 11
268.7823835813301
 21
399.0557338114267
 31
0.0
  0
LINE
  5
18F2
330
A
100
AcDbEntity
  8
04
100
AcDbLine
 10
265.1221295434861
 20
339.0557338114267
 30
0.0
 11
268.7823835813301
 21
339.0557338114267
 31
0.0
  0
LINE
  5
18F3
330
A
100
AcDbEntity
  8
04
100
AcDbLine
 10
263.7823835813303
 20
344.0557338114267
 30
0.0
 11
265.1221295434861
 21
339.0557338114267
 31
0.0
  0
LINE
  5
18F5
330
A
100
AcDbEntity
  8
04
100
AcDbLine
 10
253.7823835813302
 20
394.0557338114267
 30
0.0
 11
263.7823835813303
 21
394.0557338114267
 31
0.0
  0
LINE
  5
18F7
330
A
100
AcDbEntity
  8
03
100
AcDbLine
 10
224.5823835813303
 20
229.8557338114266
 30
0.0
 11
224.5823835813303
 21
227.8557338114266
 31
0.0
  0
LINE
  5
18FA
330
A
100
AcDbEntity
  8
CHUSIN
100
AcDbLine
 10
253.7823835813304
 20
288.9802065856705
 30
0.0
 11
253.7823835813304
 21
114.1265744519504
 31
0.0
  0
LINE
  5
18FE
330
A
100
AcDbEntity
  8
CHUSIN
 48
0.5
100
AcDbLine
 10
193.2823835813301
 20
154.4371593259516
 30
0.0
 11
193.2823835813301
 21
172.6894350100431
 31
0.0
  0
LINE
  5
1901
330
A
100
AcDbEntity
  8
CHUSIN
 48
0.3
100
AcDbLine
 10
172.4761469085485
 20
273.8557338114267
 30
0.0
 11
190.1394202178044
 21
273.8557338114267
 31
0.0
  0
LINE
  5
1903
330
A
100
AcDbEntity
  8
CHUSIN
 48
0.3
100
AcDbLine
 10
172.414036053053
 20
297.8557338114267
 30
0.0
 11
193.3258457201159
 21
297.8557338114267
 31
0.0
  0
LINE
  5
1908
330
A
100
AcDbEntity
  8
CHUSIN
100
AcDbLine
 10
258.7823835813301
 20
407.1245529497963
 30
0.0
 11
258.7823835813304
 21
283.0254468263583
 31
0.0
  0
LINE
  5
1909
330
A
100
AcDbEntity
  8
06
100
AcDbLine
 10
185.7823835813302
 20
263.8557338114267
 30
0.0
 11
185.7823835813302
 21
279.8557338114267
 31
0.0
  0
LINE
  5
190A
330
A
100
AcDbEntity
  8
06
100
AcDbLine
 10
206.7823835813301
 20
263.8557338114267
 30
0.0
 11
185.7823835813302
 21
263.8557338114267
 31
0.0
  0
LINE
  5
190B
330
A
100
AcDbEntity
  8
06
100
AcDbLine
 10
206.7823835813301
 20
259.8557338114267
 30
0.0
 11
206.7823835813301
 21
263.8557338114267
 31
0.0
  0
LINE
  5
190C
330
A
100
AcDbEntity
  8
06
100
AcDbLine
 10
185.7823835813302
 20
259.8557338114267
 30
0.0
 11
206.7823835813301
 21
259.8557338114267
 31
0.0
  0
LINE
  5
190D
330
A
100
AcDbEntity
  8
04
100
AcDbLine
 10
177.7823835813302
 20
257.8557338114267
 30
0.0
 11
181.7823835813301
 21
257.8557338114267
 31
0.0
  0
LINE
  5
190E
330
A
100
AcDbEntity
  8
04
100
AcDbLine
 10
177.7823835813302
 20
307.8557338114267
 30
0.0
 11
177.7823835813302
 21
257.8557338114267
 31
0.0
  0
LINE
  5
190F
330
A
100
AcDbEntity
  8
04
100
AcDbLine
 10
181.7823835813301
 20
307.8557338114267
 30
0.0
 11
177.7823835813302
 21
307.8557338114267
 31
0.0
  0
LINE
  5
1910
330
A
100
AcDbEntity
  8
04
100
AcDbLine
 10
185.7823835813302
 20
309.8557338114267
 30
0.0
 11
181.7823835813301
 21
309.8557338114267
 31
0.0
  0
LINE
  5
1911
330
A
100
AcDbEntity
  8
04
100
AcDbLine
 10
185.7823835813302
 20
283.8557338114267
 30
0.0
 11
185.7823835813302
 21
309.8557338114267
 31
0.0
  0
LINE
  5
1912
330
A
100
AcDbEntity
  8
04
100
AcDbLine
 10
206.7823835813301
 20
283.8557338114267
 30
0.0
 11
185.7823835813302
 21
283.8557338114267
 31
0.0
  0
LINE
  5
1913
330
A
100
AcDbEntity
  8
04
100
AcDbLine
 10
206.7823835813301
 20
279.8557338114267
 30
0.0
 11
206.7823835813301
 21
283.8557338114267
 31
0.0
  0
LINE
  5
1914
330
A
100
AcDbEntity
  8
04
100
AcDbLine
 10
185.7823835813302
 20
279.8557338114267
 30
0.0
 11
206.7823835813301
 21
279.8557338114267
 31
0.0
  0
LINE
  5
1915
330
A
100
AcDbEntity
  8
04
100
AcDbLine
 10
181.7823835813301
 20
309.8557338114267
 30
0.0
 11
181.7823835813301
 21
257.8557338114267
 31
0.0
  0
LINE
  5
1916
330
A
100
AcDbEntity
  8
03
100
AcDbLine
 10
163.0823835813302
 20
451.0557338114266
 30
0.0
 11
165.0823835813303
 21
451.0557338114266
 31
0.0
  0
LINE
  5
1917
330
A
100
AcDbEntity
  8
03
100
AcDbLine
 10
163.0823835813302
 20
251.0557338114267
 30
0.0
 11
165.0823835813303
 21
251.0557338114267
 31
0.0
  0
LINE
  5
1918
330
A
100
AcDbEntity
  8
03
100
AcDbLine
 10
163.0823835813302
 20
451.0557338114266
 30
0.0
 11
163.0823835813302
 21
251.0557338114267
 31
0.0
  0
LINE
  5
1919
330
A
100
AcDbEntity
  8
03
100
AcDbLine
 10
165.0823835813303
 20
251.0557338114267
 30
0.0
 11
165.0823835813303
 21
451.0557338114266
 31
0.0
  0
ARC
  5
19AF
330
A
100
AcDbEntity
  8
03
100
AcDbCircle
 10
219.7823835813303
 20
236.8557338114266
 30
0.0
 40
9.0
100
AcDbArc
 50
26.39248801484479
 51
48.18968510422141
  0
ARC
  5
19B9
330
A
100
AcDbEntity
  8
03
100
AcDbCircle
 10
223.789948545596
 20
232.8213377342293
 30
0.0
 40
9.0
100
AcDbArc
 50
346.7225838022856
 51
63.22519135004123
  0
ARC
  5
19BA
330
A
100
AcDbEntity
  8
03
100
AcDbCircle
 10
221.5532145424067
 20
232.1455545394516
 30
0.0
 40
9.0
100
AcDbArc
 50
353.5122594815026
 51
36.83804761802301
  0
ARC
  5
19BC
330
A
100
AcDbEntity
  8
03
100
AcDbCircle
 10
231.576104337386
 20
230.9840086983799
 30
0.0
 40
1.0
100
AcDbArc
 50
247.3488901964666
 51
346.7225838022851
  0
ARC
  5
19BD
330
A
100
AcDbEntity
  8
03
100
AcDbCircle
 10
219.7823835813303
 20
236.8557338114266
 30
0.0
 40
9.0
100
AcDbArc
 50
311.8103148957786
 51
4.370286312201904
  0
ARC
  5
19C4
330
A
100
AcDbEntity
  8
03
100
AcDbCircle
 10
231.489175090741
 20
231.0156483566458
 30
0.0
 40
1.0
100
AcDbArc
 50
173.5122594815039
 51
252.651109803693
  0
ARC
  5
19DF
330
A
100
AcDbEntity
  8
04
100
AcDbCircle
 10
259.4059952064639
 20
276.2683810589476
 30
0.0
 40
2.887352752479231
100
AcDbArc
 50
49.468605058108
 51
89.99999999999323
  0
ARC
  5
1AC2
330
A
100
AcDbEntity
  8
04
100
AcDbCircle
 10
220.089007908356
 20
307.1877486632355
 30
0.0
 40
2.367985148191197
100
AcDbArc
 50
52.44393355510931
 51
89.99999999999728
  0
ARC
  5
1B04
330
A
100
AcDbEntity
  8
04
100
AcDbCircle
 10
236.7823835813303
 20
363.0557338114267
 30
0.0
 40
1.0
100
AcDbArc
 50
0.0
 51
90.0
  0
ARC
  5
1B05
330
A
100
AcDbEntity
  8
04
100
AcDbCircle
 10
232.7823835813301
 20
363.0557338114267
 30
0.0
 40
1.0
100
AcDbArc
 50
90.0
 51
180.0
  0
ARC
  5
1B07
330
A
100
AcDbEntity
  8
04
100
AcDbCircle
 10
243.7823835813301
 20
342.0557338114267
 30
0.0
 40
6.0
100
AcDbArc
 50
180.0
 51
270.0
  0
ARC
  5
1B08
330
A
100
AcDbEntity
  8
04
100
AcDbCircle
 10
232.7823835813301
 20
331.0557338114267
 30
0.0
 40
1.0
100
AcDbArc
 50
180.0
 51
270.0
  0
ARC
  5
1B0B
330
A
100
AcDbEntity
  8
04
100
AcDbCircle
 10
250.7823835813303
 20
339.0557338114267
 30
0.0
 40
3.0
100
AcDbArc
 50
270.0
 51
0.0
  0
ARC
  5
1B0D
330
A
100
AcDbEntity
  8
04
100
AcDbCircle
 10
254.7823835813303
 20
343.0557338114267
 30
0.0
 40
1.0
100
AcDbArc
 50
90.0
 51
180.0
  0
ARC
  5
1B14
330
A
100
AcDbEntity
  8
04
100
AcDbCircle
 10
260.7823835813301
 20
335.0557338114267
 30
0.0
 40
1.0
100
AcDbArc
 50
180.0
 51
270.0
  0
ARC
  5
1B15
330
A
100
AcDbEntity
  8
04
100
AcDbCircle
 10
260.7823835813301
 20
338.0557338114267
 30
0.0
 40
1.0
100
AcDbArc
 50
90.0
 51
180.0
  0
ARC
  5
1B16
330
A
100
AcDbEntity
  8
04
100
AcDbCircle
 10
262.7823835813301
 20
340.0557338114267
 30
0.0
 40
1.0
100
AcDbArc
 50
270.0
 51
0.0
  0
ARC
  5
1B17
330
A
100
AcDbEntity
  8
04
100
AcDbCircle
 10
262.7823835813301
 20
331.0557338114267
 30
0.0
 40
1.0
100
AcDbArc
 50
270.0
 51
0.0
  0
ARC
  5
1B18
330
A
100
AcDbEntity
  8
04
100
AcDbCircle
 10
262.7823835813301
 20
343.0557338114267
 30
0.0
 40
1.0
100
AcDbArc
 50
0.0
 51
90.0
  0
ARC
  5
1C34
330
A
100
AcDbEntity
  8
03
100
AcDbCircle
 10
166.6823835813303
 20
265.6557338114266
 30
0.0
 40
1.6
100
AcDbArc
 50
180.0
 51
270.0
  0
ARC
  5
1C35
330
A
100
AcDbEntity
  8
03
100
AcDbCircle
 10
166.6823835813303
 20
435.4557338114267
 30
0.0
 40
1.6
100
AcDbArc
 50
90.0
 51
180.0
  0
LINE
  5
1CB9
330
A
100
AcDbEntity
  8
02
100
AcDbLine
 10
225.7823835813301
 20
365.0557338114267
 30
0.0
 11
177.7823835813301
 21
365.0557338114267
 31
0.0
  0
LINE
  5
1CBA
330
A
100
AcDbEntity
  8
02
100
AcDbLine
 10
177.7823835813301
 20
371.0557338114266
 30
0.0
 11
225.7823835813301
 21
371.0557338114266
 31
0.0
  0
LINE
  5
1CBB
330
A
100
AcDbEntity
  8
03
100
AcDbLine
 10
160.7823835813301
 20
226.5557338114267
 30
0.0
 11
160.7823835813301
 21
179.7814981438418
 31
0.0
  0
LINE
  5
1CC2
330
A
100
AcDbEntity
  8
03
100
AcDbLine
 10
225.7823835813303
 20
226.5557338114267
 30
0.0
 11
225.7823835813303
 21
179.7814981438418
 31
0.0
  0
LINE
  5
1CC4
330
A
100
AcDbEntity
  8
03
100
AcDbLine
 10
283.7823835813301
 20
462.5557338114266
 30
0.0
 11
283.7823835813301
 21
478.8476345678787
 31
0.0
  0
LINE
  5
1CC5
330
A
100
AcDbEntity
  8
03
100
AcDbLine
 10
280.7823835813301
 20
462.5557338114266
 30
0.0
 11
283.7823835813301
 21
462.5557338114266
 31
0.0
  0
LINE
  5
1CC6
330
A
100
AcDbEntity
  8
03
100
AcDbLine
 10
280.7823835813301
 20
462.5557338114266
 30
0.0
 11
280.7823835813301
 21
478.8476345678787
 31
0.0
  0
LINE
  5
1CCC
330
A
100
AcDbEntity
  8
03
100
AcDbLine
 10
246.7823835813303
 20
152.3450961921527
 30
0.0
 11
246.7823835813303
 21
174.7814981438418
 31
0.0
  0
LINE
  5
1CCD
330
A
100
AcDbEntity
  8
03
100
AcDbLine
 10
254.7823835813303
 20
174.7814981438418
 30
0.0
 11
254.7823835813303
 21
152.3450961921527
 31
0.0
  0
LINE
  5
1CCF
330
A
100
AcDbEntity
  8
03
100
AcDbLine
 10
232.7823835813301
 20
226.5557338114268
 30
0.0
 11
232.7823835813301
 21
179.7814981438418
 31
0.0
  0
LINE
  5
1CD0
330
A
100
AcDbEntity
  8
04
100
AcDbLine
 10
241.2823835813302
 20
265.0557338114268
 30
0.0
 11
241.2823835813302
 21
254.0557338114268
 31
0.0
  0
LINE
  5
1CD1
330
A
100
AcDbEntity
  8
04
100
AcDbLine
 10
266.2823835813302
 20
254.0557338114268
 30
0.0
 11
266.2823835813302
 21
265.0557338114268
 31
0.0
  0
LINE
  5
1CD2
330
A
100
AcDbEntity
  8
06
100
AcDbLine
 10
220.7823835813302
 20
272.8557338114267
 30
0.0
 11
220.7823835813302
 21
273.4557338114266
 31
0.0
  0
LINE
  5
1CD3
330
A
100
AcDbEntity
  8
06
100
AcDbLine
 10
210.7823835813302
 20
273.4557338114266
 30
0.0
 11
210.7823835813302
 21
272.8557338114267
 31
0.0
  0
LINE
  5
1CD5
330
A
100
AcDbEntity
  8
06
100
AcDbLine
 10
221.2823835813302
 20
269.3557338114267
 30
0.0
 11
221.2823835813302
 21
267.8557338114267
 31
0.0
  0
LINE
  5
1CD6
330
A
100
AcDbEntity
  8
06
100
AcDbLine
 10
210.2823835813302
 20
267.8557338114267
 30
0.0
 11
210.2823835813302
 21
269.3557338114267
 31
0.0
  0
LINE
  5
1CDA
330
A
100
AcDbEntity
  8
06
100
AcDbLine
 10
221.5558835813303
 20
272.3514185864266
 30
0.0
 11
220.6823835813302
 21
272.8557338114267
 31
0.0
  0
LINE
  5
1CDB
330
A
100
AcDbEntity
  8
06
100
AcDbLine
 10
210.0088835813302
 20
272.3514185864266
 30
0.0
 11
210.8823835813301
 21
272.8557338114267
 31
0.0
  0
LINE
  5
1CDC
330
A
100
AcDbEntity
  8
06
100
AcDbLine
 10
221.5558835813303
 20
269.8600490364266
 30
0.0
 11
221.5558835813303
 21
272.3514185864266
 31
0.0
  0
LINE
  5
1CDD
330
A
100
AcDbEntity
  8
06
100
AcDbLine
 10
210.0088835813302
 20
269.8600490364266
 30
0.0
 11
210.0088835813302
 21
272.3514185864266
 31
0.0
  0
LINE
  5
1CDE
330
A
100
AcDbEntity
  8
06
100
AcDbLine
 10
221.5558835813303
 20
269.8600490364266
 30
0.0
 11
220.6823835813302
 21
269.3557338114267
 31
0.0
  0
LINE
  5
1CDF
330
A
100
AcDbEntity
  8
06
100
AcDbLine
 10
210.0088835813302
 20
269.8600490364266
 30
0.0
 11
210.8823835813301
 21
269.3557338114267
 31
0.0
  0
LINE
  5
1CE2
330
A
100
AcDbEntity
  8
06
100
AcDbLine
 10
224.7823835813302
 20
273.4557338114266
 30
0.0
 11
224.7823835813302
 21
283.4557338114267
 31
0.0
  0
LINE
  5
1CE3
330
A
100
AcDbEntity
  8
06
100
AcDbLine
 10
206.7823835813301
 20
273.4557338114266
 30
0.0
 11
224.7823835813302
 21
273.4557338114266
 31
0.0
  0
LINE
  5
1CE4
330
A
100
AcDbEntity
  8
06
100
AcDbLine
 10
206.7823835813301
 20
283.4557338114267
 30
0.0
 11
206.7823835813301
 21
273.4557338114266
 31
0.0
  0
LINE
  5
1CE6
330
A
100
AcDbEntity
  8
04
100
AcDbLine
 10
203.7823835813302
 20
288.8557338114267
 30
0.0
 11
203.7823835813302
 21
287.8557338114267
 31
0.0
  0
LINE
  5
1CE8
330
A
100
AcDbEntity
  8
04
100
AcDbLine
 10
193.7823835813303
 20
287.8557338114267
 30
0.0
 11
193.7823835813303
 21
288.8557338114267
 31
0.0
  0
LINE
  5
1CEB
330
A
100
AcDbEntity
  8
04
100
AcDbLine
 10
202.6823835813302
 20
293.6557338114266
 30
0.0
 11
194.8823835813302
 21
293.6557338114266
 31
0.0
  0
LINE
  5
1CEC
330
A
100
AcDbEntity
  8
04
100
AcDbLine
 10
203.4011835813301
 20
293.2407346314267
 30
0.0
 11
202.6823835813302
 21
293.6557338114266
 31
0.0
  0
LINE
  5
1CED
330
A
100
AcDbEntity
  8
04
100
AcDbLine
 10
194.1635835813302
 20
293.2407346314267
 30
0.0
 11
194.8823835813302
 21
293.6557338114266
 31
0.0
  0
LINE
  5
1CEE
330
A
100
AcDbEntity
  8
04
100
AcDbLine
 10
203.4011835813301
 20
288.8557338114267
 30
0.0
 11
203.4011835813301
 21
293.2407346314267
 31
0.0
  0
LINE
  5
1CEF
330
A
100
AcDbEntity
  8
04
100
AcDbLine
 10
194.1635835813302
 20
288.8557338114267
 30
0.0
 11
194.1635835813302
 21
293.2407346314267
 31
0.0
  0
LINE
  5
1CF2
330
A
100
AcDbEntity
  8
06
100
AcDbLine
 10
203.7823835813301
 20
268.8557338114267
 30
0.0
 11
203.7823835813301
 21
267.8557338114267
 31
0.0
  0
LINE
  5
1CF4
330
A
100
AcDbEntity
  8
06
100
AcDbLine
 10
193.7823835813303
 20
267.8557338114267
 30
0.0
 11
193.7823835813303
 21
268.8557338114267
 31
0.0
  0
LINE
  5
1CF7
330
A
100
AcDbEntity
  8
06
100
AcDbLine
 10
202.6823835813302
 20
273.6557338114268
 30
0.0
 11
194.8823835813302
 21
273.6557338114268
 31
0.0
  0
LINE
  5
1CF8
330
A
100
AcDbEntity
  8
06
100
AcDbLine
 10
203.4011835813301
 20
273.2407346314266
 30
0.0
 11
202.6823835813302
 21
273.6557338114268
 31
0.0
  0
LINE
  5
1CF9
330
A
100
AcDbEntity
  8
06
100
AcDbLine
 10
194.1635835813302
 20
273.2407346314266
 30
0.0
 11
194.8823835813302
 21
273.6557338114268
 31
0.0
  0
LINE
  5
1CFA
330
A
100
AcDbEntity
  8
06
100
AcDbLine
 10
203.4011835813301
 20
268.8557338114267
 30
0.0
 11
203.4011835813301
 21
273.2407346314266
 31
0.0
  0
LINE
  5
1CFB
330
A
100
AcDbEntity
  8
06
100
AcDbLine
 10
194.1635835813302
 20
268.8557338114267
 30
0.0
 11
194.1635835813302
 21
273.2407346314266
 31
0.0
  0
LINE
  5
1CFD
330
A
100
AcDbEntity
  8
06
100
AcDbLine
 10
188.7823835813303
 20
263.8557338114267
 30
0.0
 11
188.7823835813303
 21
267.8557338114267
 31
0.0
  0
LINE
  5
1CFE
330
A
100
AcDbEntity
  8
06
100
AcDbLine
 10
223.7823835813303
 20
263.8557338114267
 30
0.0
 11
188.7823835813303
 21
263.8557338114267
 31
0.0
  0
LINE
  5
1CFF
330
A
100
AcDbEntity
  8
06
100
AcDbLine
 10
223.7823835813303
 20
267.8557338114267
 30
0.0
 11
223.7823835813303
 21
263.8557338114267
 31
0.0
  0
LINE
  5
1D00
330
A
100
AcDbEntity
  8
06
100
AcDbLine
 10
188.7823835813303
 20
267.8557338114267
 30
0.0
 11
223.7823835813303
 21
267.8557338114267
 31
0.0
  0
LINE
  5
1D01
330
A
100
AcDbEntity
  8
04
100
AcDbLine
 10
220.7823835813302
 20
292.8557338114267
 30
0.0
 11
220.7823835813302
 21
293.4557338114266
 31
0.0
  0
LINE
  5
1D02
330
A
100
AcDbEntity
  8
04
100
AcDbLine
 10
210.7823835813302
 20
293.4557338114266
 30
0.0
 11
210.7823835813302
 21
292.8557338114267
 31
0.0
  0
LINE
  5
1D04
330
A
100
AcDbEntity
  8
04
100
AcDbLine
 10
221.2823835813302
 20
289.3557338114267
 30
0.0
 11
221.2823835813302
 21
287.8557338114267
 31
0.0
  0
LINE
  5
1D05
330
A
100
AcDbEntity
  8
04
100
AcDbLine
 10
210.2823835813302
 20
287.8557338114267
 30
0.0
 11
210.2823835813302
 21
289.3557338114267
 31
0.0
  0
LINE
  5
1D09
330
A
100
AcDbEntity
  8
04
100
AcDbLine
 10
221.5558835813303
 20
292.3514185864267
 30
0.0
 11
220.6823835813302
 21
292.8557338114267
 31
0.0
  0
LINE
  5
1D0A
330
A
100
AcDbEntity
  8
04
100
AcDbLine
 10
210.0088835813302
 20
292.3514185864267
 30
0.0
 11
210.8823835813301
 21
292.8557338114267
 31
0.0
  0
LINE
  5
1D0B
330
A
100
AcDbEntity
  8
04
100
AcDbLine
 10
221.5558835813303
 20
289.8600490364266
 30
0.0
 11
221.5558835813303
 21
292.3514185864267
 31
0.0
  0
LINE
  5
1D0C
330
A
100
AcDbEntity
  8
04
100
AcDbLine
 10
210.0088835813302
 20
289.8600490364266
 30
0.0
 11
210.0088835813302
 21
292.3514185864267
 31
0.0
  0
LINE
  5
1D0D
330
A
100
AcDbEntity
  8
04
100
AcDbLine
 10
221.5558835813303
 20
289.8600490364266
 30
0.0
 11
220.6823835813302
 21
289.3557338114267
 31
0.0
  0
LINE
  5
1D0E
330
A
100
AcDbEntity
  8
04
100
AcDbLine
 10
210.0088835813302
 20
289.8600490364266
 30
0.0
 11
210.8823835813301
 21
289.3557338114267
 31
0.0
  0
LINE
  5
1D0F
330
A
100
AcDbEntity
  8
04
100
AcDbLine
 10
221.2823835813302
 20
289.3557338114267
 30
0.0
 11
220.6823835813302
 21
289.3557338114267
 31
0.0
  0
LINE
  5
1D10
330
A
100
AcDbEntity
  8
04
100
AcDbLine
 10
224.7823835813302
 20
303.4557338114266
 30
0.0
 11
206.7823835813301
 21
303.4557338114266
 31
0.0
  0
LINE
  5
1D11
330
A
100
AcDbEntity
  8
04
100
AcDbLine
 10
224.7823835813302
 20
293.4557338114266
 30
0.0
 11
224.7823835813302
 21
303.4557338114266
 31
0.0
  0
LINE
  5
1D12
330
A
100
AcDbEntity
  8
04
100
AcDbLine
 10
206.7823835813301
 20
293.4557338114266
 30
0.0
 11
224.7823835813302
 21
293.4557338114266
 31
0.0
  0
LINE
  5
1D13
330
A
100
AcDbEntity
  8
04
100
AcDbLine
 10
206.7823835813301
 20
303.4557338114266
 30
0.0
 11
206.7823835813301
 21
293.4557338114266
 31
0.0
  0
LINE
  5
1D14
330
A
100
AcDbEntity
  8
04
100
AcDbLine
 10
188.7823835813303
 20
283.8557338114267
 30
0.0
 11
188.7823835813303
 21
287.8557338114267
 31
0.0
  0
LINE
  5
1D15
330
A
100
AcDbEntity
  8
04
100
AcDbLine
 10
223.7823835813303
 20
283.8557338114267
 30
0.0
 11
188.7823835813303
 21
283.8557338114267
 31
0.0
  0
LINE
  5
1D16
330
A
100
AcDbEntity
  8
04
100
AcDbLine
 10
223.7823835813303
 20
287.8557338114267
 30
0.0
 11
223.7823835813303
 21
283.8557338114267
 31
0.0
  0
LINE
  5
1D17
330
A
100
AcDbEntity
  8
04
100
AcDbLine
 10
188.7823835813303
 20
287.8557338114267
 30
0.0
 11
223.7823835813303
 21
287.8557338114267
 31
0.0
  0
LINE
  5
1DA6
330
A
100
AcDbEntity
  8
02
100
AcDbLine
 10
191.7823835813303
 20
441.8557338114267
 30
0.0
 11
225.7823835813303
 21
441.8557338114267
 31
0.0
  0
LINE
  5
1DA7
330
A
100
AcDbEntity
  8
02
100
AcDbLine
 10
191.7823835813303
 20
447.8557338114268
 30
0.0
 11
191.7823835813303
 21
441.8557338114267
 31
0.0
  0
LINE
  5
1DA8
330
A
100
AcDbEntity
  8
02
100
AcDbLine
 10
225.7823835813303
 20
327.0557338114266
 30
0.0
 11
177.7823835813301
 21
327.0557338114266
 31
0.0
  0
LINE
  5
1DA9
330
A
100
AcDbEntity
  8
02
100
AcDbLine
 10
177.7823835813301
 20
321.0557338114266
 30
0.0
 11
225.7823835813303
 21
321.0557338114266
 31
0.0
  0
LINE
  5
1DAA
330
A
100
AcDbEntity
  8
02
100
AcDbLine
 10
225.7823835813303
 20
327.0557338114266
 30
0.0
 11
225.7823835813303
 21
441.8557338114267
 31
0.0
  0
LINE
  5
1DAB
330
A
100
AcDbEntity
  8
02
100
AcDbLine
 10
231.7823835813303
 20
441.8557338114267
 30
0.0
 11
231.7823835813303
 21
327.0557338114266
 31
0.0
  0
LINE
  5
1DAC
330
A
100
AcDbEntity
  8
02
100
AcDbLine
 10
202.7823835813301
 20
327.0557338114266
 30
0.0
 11
202.7823835813301
 21
332.5636180777348
 31
0.0
  0
LINE
  5
1DAD
330
A
100
AcDbEntity
  8
02
100
AcDbLine
 10
208.7823835813301
 20
441.8557338114267
 30
0.0
 11
208.7823835813301
 21
371.0557338114266
 31
0.0
  0
LINE
  5
1DAE
330
A
100
AcDbEntity
  8
03
100
AcDbLine
 10
217.0823835813302
 20
236.8557338114266
 30
0.0
 11
213.8823835813302
 21
240.0557338114267
 31
0.0
  0
LINE
  5
1DAF
330
A
100
AcDbEntity
  8
03
100
AcDbLine
 10
217.0823835813302
 20
239.8557338114267
 30
0.0
 11
213.8823835813302
 21
243.0557338114267
 31
0.0
  0
LINE
  5
1DB0
330
A
100
AcDbEntity
  8
03
100
AcDbLine
 10
189.7823835813303
 20
247.8557338114267
 30
0.0
 11
186.5823835813301
 21
251.0557338114267
 31
0.0
  0
LINE
  5
1DB1
330
A
100
AcDbEntity
  8
03
100
AcDbLine
 10
192.7823835813301
 20
247.8557338114267
 30
0.0
 11
189.5823835813303
 21
251.0557338114267
 31
0.0
  0
LINE
  5
1DB2
330
A
100
AcDbEntity
  8
03
100
AcDbLine
 10
177.7823835813301
 20
264.8557338114268
 30
0.0
 11
174.5823835813303
 21
268.0557338114267
 31
0.0
  0
LINE
  5
1DB3
330
A
100
AcDbEntity
  8
03
100
AcDbLine
 10
177.7823835813301
 20
267.8557338114267
 30
0.0
 11
174.5823835813303
 21
271.0557338114266
 31
0.0
  0
LINE
  5
1DB4
330
A
100
AcDbEntity
  8
03
100
AcDbLine
 10
177.7823835813301
 20
304.8557338114268
 30
0.0
 11
174.5823835813303
 21
308.0557338114267
 31
0.0
  0
LINE
  5
1DB5
330
A
100
AcDbEntity
  8
03
100
AcDbLine
 10
177.7823835813301
 20
307.8557338114267
 30
0.0
 11
174.5823835813303
 21
311.0557338114267
 31
0.0
  0
LINE
  5
1DB6
330
A
100
AcDbEntity
  8
03
100
AcDbLine
 10
177.7823835813301
 20
344.8557338114268
 30
0.0
 11
174.5823835813303
 21
348.0557338114266
 31
0.0
  0
LINE
  5
1DB7
330
A
100
AcDbEntity
  8
03
100
AcDbLine
 10
177.7823835813301
 20
347.8557338114267
 30
0.0
 11
174.5823835813303
 21
351.0557338114267
 31
0.0
  0
LINE
  5
1DB8
330
A
100
AcDbEntity
  8
03
100
AcDbLine
 10
177.7823835813301
 20
387.2020931646886
 30
0.0
 11
174.5823835813303
 21
390.4020931646885
 31
0.0
  0
LINE
  5
1DB9
330
A
100
AcDbEntity
  8
03
100
AcDbLine
 10
177.7823835813301
 20
390.2020931646885
 30
0.0
 11
174.5823835813303
 21
393.4020931646883
 31
0.0
  0
LINE
  5
1DBC
330
A
100
AcDbEntity
  8
03
100
AcDbLine
 10
190.3823835813302
 20
447.8557338114268
 30
0.0
 11
187.1823835813301
 21
451.0557338114266
 31
0.0
  0
LINE
  5
1DBD
330
A
100
AcDbEntity
  8
03
100
AcDbLine
 10
193.3823835813301
 20
447.8557338114268
 30
0.0
 11
190.1823835813303
 21
451.0557338114266
 31
0.0
  0
LINE
  5
1DBE
330
A
100
AcDbEntity
  8
03
100
AcDbLine
 10
216.5823835813302
 20
451.6557338114268
 30
0.0
 11
213.3823835813301
 21
454.8557338114268
 31
0.0
  0
LINE
  5
1DBF
330
A
100
AcDbEntity
  8
03
100
AcDbLine
 10
216.5823835813302
 20
454.6557338114268
 30
0.0
 11
213.3823835813303
 21
457.8557338114268
 31
0.0
  0
LINE
  5
1DC0
330
A
100
AcDbEntity
  8
03
100
AcDbLine
 10
227.5823835813302
 20
464.6557338114266
 30
0.0
 11
224.3823835813301
 21
467.8557338114268
 31
0.0
  0
LINE
  5
1DC1
330
A
100
AcDbEntity
  8
03
100
AcDbLine
 10
230.5823835813301
 20
464.6557338114266
 30
0.0
 11
227.3823835813302
 21
467.8557338114268
 31
0.0
  0
LINE
  5
1DC2
330
A
100
AcDbEntity
  8
03
100
AcDbLine
 10
257.5823835813303
 20
464.6557338114266
 30
0.0
 11
254.3823835813301
 21
467.8557338114268
 31
0.0
  0
LINE
  5
1DC3
330
A
100
AcDbEntity
  8
03
100
AcDbLine
 10
260.5823835813302
 20
464.6557338114266
 30
0.0
 11
257.3823835813303
 21
467.8557338114268
 31
0.0
  0
LINE
  5
1DC4
330
A
100
AcDbEntity
  8
03
100
AcDbLine
 10
270.5823835813303
 20
464.6557338114266
 30
0.0
 11
216.5823835813302
 21
464.6557338114266
 31
0.0
  0
LINE
  5
1DC5
330
A
100
AcDbEntity
  8
03
100
AcDbLine
 10
270.5823835813303
 20
467.8557338114268
 30
0.0
 11
270.5823835813303
 21
464.6557338114266
 31
0.0
  0
LINE
  5
1DC6
330
A
100
AcDbEntity
  8
03
100
AcDbLine
 10
270.5823835813303
 20
467.8557338114268
 30
0.0
 11
216.5823835813302
 21
467.8557338114268
 31
0.0
  0
LINE
  5
1DC7
330
A
100
AcDbEntity
  8
03
100
AcDbLine
 10
213.3823835813301
 20
464.6557338114266
 30
0.0
 11
213.3823835813301
 21
451.0557338114266
 31
0.0
  0
LINE
  5
1DC8
330
A
100
AcDbEntity
  8
03
100
AcDbLine
 10
216.5823835813302
 20
451.0557338114266
 30
0.0
 11
216.5823835813302
 21
464.6557338114266
 31
0.0
  0
LINE
  5
1DC9
330
A
100
AcDbEntity
  8
03
100
AcDbLine
 10
213.8823835813302
 20
234.8557338114266
 30
0.0
 11
217.0823835813302
 21
234.8557338114266
 31
0.0
  0
LINE
  5
1DCA
330
A
100
AcDbEntity
  8
03
100
AcDbLine
 10
213.8823835813302
 20
247.8557338114267
 30
0.0
 11
213.8823835813302
 21
234.8557338114266
 31
0.0
  0
LINE
  5
1DCB
330
A
100
AcDbEntity
  8
03
100
AcDbLine
 10
217.0823835813302
 20
234.8557338114266
 30
0.0
 11
217.0823835813302
 21
247.8557338114267
 31
0.0
  0
LINE
  5
1DCC
330
A
100
AcDbEntity
  8
03
100
AcDbLine
 10
213.8823835813302
 20
251.0557338114267
 30
0.0
 11
177.7823835813301
 21
251.0557338114267
 31
0.0
  0
LINE
  5
1DCD
330
A
100
AcDbEntity
  8
03
100
AcDbLine
 10
177.7823835813301
 20
247.8557338114267
 30
0.0
 11
213.8823835813302
 21
247.8557338114267
 31
0.0
  0
LINE
  5
1DCE
330
A
100
AcDbEntity
  8
03
100
AcDbLine
 10
213.3823835813301
 20
447.8557338114267
 30
0.0
 11
177.7823835813301
 21
447.8557338114268
 31
0.0
  0
LINE
  5
1DCF
330
A
100
AcDbEntity
  8
03
100
AcDbLine
 10
177.7823835813301
 20
451.0557338114266
 30
0.0
 11
213.3823835813301
 21
451.0557338114266
 31
0.0
  0
LINE
  5
1DD0
330
A
100
AcDbEntity
  8
03
100
AcDbLine
 10
174.5823835813303
 20
251.0557338114267
 30
0.0
 11
174.5823835813303
 21
447.8557338114268
 31
0.0
  0
LINE
  5
1DD1
330
A
100
AcDbEntity
  8
03
100
AcDbLine
 10
177.7823835813301
 20
447.8557338114268
 30
0.0
 11
177.7823835813301
 21
251.0557338114267
 31
0.0
  0
LINE
  5
1DD2
330
A
100
AcDbEntity
  8
03
100
AcDbLine
 10
189.2823807693795
 20
550.055714655012
 30
0.0
 11
197.2823807693794
 21
550.055714655012
 31
0.0
  0
LINE
  5
1DD3
330
A
100
AcDbEntity
  8
03
100
AcDbLine
 10
197.2823807693794
 20
550.055714655012
 30
0.0
 11
197.2823807693794
 21
467.0557338114268
 31
0.0
  0
LINE
  5
1DD4
330
A
100
AcDbEntity
  8
03
100
AcDbLine
 10
189.2823807693795
 20
467.0557338114268
 30
0.0
 11
189.2823807693795
 21
550.055714655012
 31
0.0
  0
LINE
  5
1DD5
330
A
100
AcDbEntity
  8
03
100
AcDbLine
 10
187.2823835813303
 20
453.0557338114268
 30
0.0
 11
199.2823835813301
 21
467.0557338114268
 31
0.0
  0
LINE
  5
1DD6
330
A
100
AcDbEntity
  8
03
100
AcDbLine
 10
199.2823835813301
 20
453.0557338114268
 30
0.0
 11
199.2823835813301
 21
467.0557338114268
 31
0.0
  0
LINE
  5
1DD7
330
A
100
AcDbEntity
  8
03
100
AcDbLine
 10
187.2823835813303
 20
467.0557338114268
 30
0.0
 11
187.2823835813303
 21
453.0557338114268
 31
0.0
  0
LINE
  5
1DD8
330
A
100
AcDbEntity
  8
03
100
AcDbLine
 10
199.2823835813301
 20
467.0557338114268
 30
0.0
 11
187.2823835813303
 21
467.0557338114268
 31
0.0
  0
LINE
  5
1DD9
330
A
100
AcDbEntity
  8
03
100
AcDbLine
 10
187.2823835813303
 20
453.0557338114268
 30
0.0
 11
199.2823835813301
 21
453.0557338114268
 31
0.0
  0
LINE
  5
1DDA
330
A
100
AcDbEntity
  8
CHUSIN
100
AcDbLine
 10
193.2823807693795
 20
453.0557338114268
 30
0.0
 11
193.2823807693795
 21
509.1606463852096
 31
0.0
  0
LINE
  5
1ECF
330
A
100
AcDbEntity
  8
03
100
AcDbLine
 10
174.5823835813303
 20
435.4557338114267
 30
0.0
 11
174.5823835813303
 21
437.0557338114267
 31
0.0
  0
LINE
  5
1ED0
330
A
100
AcDbEntity
  8
03
100
AcDbLine
 10
174.5823835813303
 20
264.0557338114267
 30
0.0
 11
174.5823835813303
 21
265.6557338114266
 31
0.0
  0
LINE
  5
1ED1
330
A
100
AcDbEntity
  8
03
100
AcDbLine
 10
166.6823835813303
 20
265.6557338114266
 30
0.0
 11
174.5823835813303
 21
265.6557338114266
 31
0.0
  0
LINE
  5
1ED2
330
A
100
AcDbEntity
  8
03
100
AcDbLine
 10
166.6823835813303
 20
435.4557338114267
 30
0.0
 11
166.6823835813303
 21
265.6557338114266
 31
0.0
  0
LINE
  5
1ED3
330
A
100
AcDbEntity
  8
03
100
AcDbLine
 10
174.5823835813303
 20
435.4557338114267
 30
0.0
 11
166.6823835813303
 21
435.4557338114267
 31
0.0
  0
LINE
  5
1ED4
330
A
100
AcDbEntity
  8
03
100
AcDbLine
 10
165.0823835813303
 20
435.4557338114267
 30
0.0
 11
165.0823835813303
 21
265.6557338114266
 31
0.0
  0
LINE
  5
1ED5
330
A
100
AcDbEntity
  8
03
100
AcDbLine
 10
166.6823835813303
 20
264.0557338114267
 30
0.0
 11
174.5823835813303
 21
264.0557338114267
 31
0.0
  0
LINE
  5
1ED6
330
A
100
AcDbEntity
  8
03
100
AcDbLine
 10
174.5823835813303
 20
437.0557338114267
 30
0.0
 11
166.6823835813303
 21
437.0557338114267
 31
0.0
  0
LINE
  5
1FE9
330
A
100
AcDbEntity
  8
CHUSIN
100
AcDbLine
 10
216.8348473569596
 20
354.0557338114266
 30
0.0
 11
249.0414882755938
 21
354.0557338114266
 31
0.0
  0
LINE
  5
1FEA
330
A
100
AcDbEntity
  8
04
100
AcDbLine
 10
263.7823835813303
 20
334.0557338114267
 30
0.0
 11
263.7823835813303
 21
331.0557338114267
 31
0.0
  0
LINE
  5
1FEB
330
A
100
AcDbEntity
  8
04
100
AcDbLine
 10
259.7823835813303
 20
338.0557338114267
 30
0.0
 11
259.7823835813303
 21
335.0557338114267
 31
0.0
  0
LINE
  5
1FEC
330
A
100
AcDbEntity
  8
04
100
AcDbLine
 10
260.7823835813301
 20
334.0557338114267
 30
0.0
 11
263.7823835813303
 21
334.0557338114267
 31
0.0
  0
LINE
  5
1FED
330
A
100
AcDbEntity
  8
04
100
AcDbLine
 10
262.7823835813301
 20
339.0557338114267
 30
0.0
 11
260.7823835813301
 21
339.0557338114267
 31
0.0
  0
LINE
  5
1FEE
330
A
100
AcDbEntity
  8
04
100
AcDbLine
 10
263.7823835813303
 20
343.0557338114267
 30
0.0
 11
263.7823835813303
 21
340.0557338114267
 31
0.0
  0
LINE
  5
1FEF
330
A
100
AcDbEntity
  8
04
100
AcDbLine
 10
254.7823835813303
 20
344.0557338114267
 30
0.0
 11
262.7823835813301
 21
344.0557338114267
 31
0.0
  0
LINE
  5
1FF0
330
A
100
AcDbEntity
  8
04
100
AcDbLine
 10
253.7823835813302
 20
343.0557338114267
 30
0.0
 11
253.7823835813302
 21
339.0557338114267
 31
0.0
  0
LINE
  5
1FF1
330
A
100
AcDbEntity
  8
04
100
AcDbLine
 10
243.7823835813301
 20
336.0557338114267
 30
0.0
 11
250.7823835813303
 21
336.0557338114267
 31
0.0
  0
LINE
  5
1FF2
330
A
100
AcDbEntity
  8
04
100
AcDbLine
 10
232.7823835813301
 20
330.0557338114267
 30
0.0
 11
262.7823835813301
 21
330.0557338114267
 31
0.0
  0
LINE
  5
1FF3
330
A
100
AcDbEntity
  8
04
100
AcDbLine
 10
231.7823835813303
 20
363.0557338114267
 30
0.0
 11
231.7823835813303
 21
331.0557338114267
 31
0.0
  0
LINE
  5
1FF4
330
A
100
AcDbEntity
  8
04
100
AcDbLine
 10
232.7823835813301
 20
364.0557338114267
 30
0.0
 11
236.7823835813303
 21
364.0557338114267
 31
0.0
  0
LINE
  5
1FF5
330
A
100
AcDbEntity
  8
04
100
AcDbLine
 10
237.7823835813301
 20
363.0557338114267
 30
0.0
 11
237.7823835813301
 21
342.0557338114267
 31
0.0
  0
LINE
  5
200A
330
A
100
AcDbEntity
  8
04
100
AcDbLine
 10
240.9824174052606
 20
346.3557387866266
 30
0.0
 11
239.3823786852828
 21
346.3557415302592
 31
0.0
  0
LINE
  5
200B
330
A
100
AcDbEntity
  8
04
100
AcDbLine
 10
240.9822797078529
 20
361.7557393576658
 30
0.0
 11
239.3823502667189
 21
361.7557420278428
 31
0.0
  0
LINE
  5
200E
330
A
100
AcDbEntity
  8
04
100
AcDbLine
 10
246.4833712587426
 20
347.7557379912833
 30
0.0
 11
246.4834017758581
 21
360.3557443491793
 31
0.0
  0
LINE
  5
200F
330
A
100
AcDbEntity
  8
04
100
AcDbLine
 10
245.7873129222988
 20
346.550185220288
 30
0.0
 11
246.4833407411315
 21
347.7557492383879
 31
0.0
  0
LINE
  5
2010
330
A
100
AcDbEntity
  8
04
100
AcDbLine
 10
245.7874458038815
 20
361.561345763864
 30
0.0
 11
246.4832662914601
 21
360.3557575605754
 31
0.0
  0
LINE
  5
2011
330
A
100
AcDbEntity
  8
04
100
AcDbLine
 10
240.9823215194565
 20
346.550098704987
 30
0.0
 11
245.7873804703714
 21
346.5502327830093
 31
0.0
  0
LINE
  5
2012
330
A
100
AcDbEntity
  8
04
100
AcDbLine
 10
240.9823349987952
 20
361.5612865350442
 30
0.0
 11
245.7873336708606
 21
361.5612899186101
 31
0.0
  0
LINE
  5
2015
330
A
100
AcDbEntity
  8
04
100
AcDbLine
 10
237.7838306152959
 20
345.0557409585873
 30
0.0
 11
239.3823146546171
 21
345.0557274659822
 31
0.0
  0
LINE
  5
2016
330
A
100
AcDbEntity
  8
04
100
AcDbLine
 10
239.3823935397349
 20
363.055741379135
 30
0.0
 11
237.7837855227659
 21
363.0557354913725
 31
0.0
  0
LINE
  5
2023
330
A
100
AcDbEntity
  8
04
100
AcDbLine
 10
222.0323835813303
 20
303.4557338114266
 30
0.0
 11
222.0323835813303
 21
304.0557338114266
 31
0.0
  0
LINE
  5
2024
330
A
100
AcDbEntity
  8
04
100
AcDbLine
 10
209.5323835813303
 20
304.0557338114266
 30
0.0
 11
209.5323835813303
 21
303.4557338114266
 31
0.0
  0
LINE
  5
2028
330
A
100
AcDbEntity
  8
04
100
AcDbLine
 10
221.8823835813303
 20
304.0557338114266
 30
0.0
 11
221.8823835813303
 21
305.5557338114267
 31
0.0
  0
LINE
  5
2029
330
A
100
AcDbEntity
  8
04
100
AcDbLine
 10
209.6823835813301
 20
305.5557338114267
 30
0.0
 11
209.6823835813301
 21
304.0557338114266
 31
0.0
  0
LINE
  5
202B
330
A
100
AcDbEntity
  8
04
100
AcDbLine
 10
210.0323835813302
 20
305.5557338114267
 30
0.0
 11
210.0323835813302
 21
309.0649860826156
 31
0.0
  0
LINE
  5
202C
330
A
100
AcDbEntity
  8
04
100
AcDbLine
 10
220.0890079083563
 20
309.5557338114267
 30
0.0
 11
211.4757592543043
 21
309.5557338114267
 31
0.0
  0
LINE
  5
202E
330
A
100
AcDbEntity
  8
04
100
AcDbLine
 10
221.5323835813303
 20
305.5557338114267
 30
0.0
 11
221.5323835813303
 21
309.0649860826156
 31
0.0
  0
LINE
  5
2085
330
A
100
AcDbEntity
  8
03
100
AcDbLine
 10
232.7823835813301
 20
226.5557338114268
 30
0.0
 11
232.7823835813301
 21
255.5557338114268
 31
0.0
  0
LINE
  5
20AE
330
A
100
AcDbEntity
  8
04
100
AcDbLine
 10
262.2823835813306
 20
270.0557338114268
 30
0.0
 11
262.2823835813306
 21
271.6557338114268
 31
0.0
  0
LINE
  5
20AF
330
A
100
AcDbEntity
  8
04
100
AcDbLine
 10
245.2823835813304
 20
270.0557338114268
 30
0.0
 11
262.2823835813306
 21
270.0557338114268
 31
0.0
  0
LINE
  5
20B0
330
A
100
AcDbEntity
  8
04
100
AcDbLine
 10
245.2823835813304
 20
271.6557338114268
 30
0.0
 11
245.2823835813304
 21
270.0557338114268
 31
0.0
  0
LINE
  5
20B4
330
A
100
AcDbEntity
  8
04
100
AcDbLine
 10
261.4823835813305
 20
271.6557338114268
 30
0.0
 11
261.4823835813305
 21
273.6557338114268
 31
0.0
  0
LINE
  5
20B5
330
A
100
AcDbEntity
  8
04
100
AcDbLine
 10
246.0823835813306
 20
273.6557338114268
 30
0.0
 11
246.0823835813306
 21
271.6557338114268
 31
0.0
  0
LINE
  5
20B7
330
A
100
AcDbEntity
  8
04
100
AcDbLine
 10
246.2823835813304
 20
273.6557338114268
 30
0.0
 11
246.2823835813304
 21
278.4629134883993
 31
0.0
  0
LINE
  5
20B8
330
A
100
AcDbEntity
  8
04
100
AcDbLine
 10
259.4059952064643
 20
279.1557338114269
 30
0.0
 11
248.1587719561968
 21
279.1557338114269
 31
0.0
  0
LINE
  5
20BA
330
A
100
AcDbEntity
  8
04
100
AcDbLine
 10
261.2823835813304
 20
273.6557338114268
 30
0.0
 11
261.2823835813304
 21
278.4629134883993
 31
0.0
  0
LINE
  5
20C8
330
A
100
AcDbEntity
  8
03
100
AcDbLine
 10
224.5823835813303
 20
227.8557338114266
 30
0.0
 11
221.5823835813302
 21
227.8557338114266
 31
0.0
  0
LINE
  5
20C9
330
A
100
AcDbEntity
  8
03
100
AcDbLine
 10
223.9118461242755
 20
227.8557338114266
 30
0.0
 11
224.5823835813303
 21
228.5262712684814
 31
0.0
  0
LINE
  5
20CA
330
A
100
AcDbEntity
  8
03
100
AcDbLine
 10
225.7823835813303
 20
229.8557338114266
 30
0.0
 11
225.7823835813303
 21
230.1475298789273
 31
0.0
  0
LINE
  5
20CB
330
A
100
AcDbEntity
  8
03
100
AcDbLine
 10
225.7823835813303
 20
229.8557338114266
 30
0.0
 11
224.5823835813303
 21
229.8557338114266
 31
0.0
  0
LINE
  5
20CC
330
A
100
AcDbEntity
  8
03
100
AcDbLine
 10
231.1471549474154
 20
230.07595573586
 30
0.0
 11
231.2340841940604
 21
230.0443160775941
 31
0.0
  0
LINE
  5
20CD
330
A
100
AcDbEntity
  8
03
100
AcDbLine
 10
225.7823835813303
 20
243.5639377439259
 30
0.0
 11
225.7823835813303
 21
243.8557338114267
 31
0.0
  0
LINE
  5
20CE
330
A
100
AcDbEntity
  8
03
100
AcDbLine
 10
225.7823835813303
 20
243.8557338114267
 30
0.0
 11
224.5823835813303
 21
243.8557338114267
 31
0.0
  0
LINE
  5
20DF
330
A
100
AcDbEntity
  8
03
100
AcDbLine
 10
221.5823835813302
 20
227.8557338114266
 30
0.0
 11
218.7823835813301
 21
230.8557338114266
 31
0.0
  0
LINE
  5
20E0
330
A
100
AcDbEntity
  8
03
100
AcDbLine
 10
218.7823835813301
 20
230.8557338114266
 30
0.0
 11
218.7823835813301
 21
242.8557338114266
 31
0.0
  0
LINE
  5
20E3
330
A
100
AcDbEntity
  8
03
100
AcDbLine
 10
224.5823835813303
 20
245.8557338114267
 30
0.0
 11
224.5823835813303
 21
243.8557338114267
 31
0.0
  0
LINE
  5
20E4
330
A
100
AcDbEntity
  8
03
100
AcDbLine
 10
221.5823835813302
 20
245.8557338114267
 30
0.0
 11
224.5823835813303
 21
245.8557338114267
 31
0.0
  0
LINE
  5
20E6
330
A
100
AcDbEntity
  8
03
100
AcDbLine
 10
221.5823835813302
 20
245.8557338114267
 30
0.0
 11
218.7823835813301
 21
242.8557338114266
 31
0.0
  0
LINE
  5
21B8
330
A
100
AcDbEntity
  8
04
100
AcDbLine
 10
194.3182819661925
 20
295.0557338114267
 30
0.0
 11
206.7823835813301
 21
295.0557338114267
 31
0.0
  0
LINE
  5
21B9
330
A
100
AcDbEntity
  8
04
100
AcDbLine
 10
194.3182819661925
 20
315.0557338114267
 30
0.0
 11
232.2823835813304
 21
315.0557338114267
 31
0.0
  0
LINE
  5
21BA
330
A
100
AcDbEntity
  8
04
100
AcDbLine
 10
194.3182819661925
 20
295.0557338114267
 30
0.0
 11
194.3182819661925
 21
315.0557338114267
 31
0.0
  0
LINE
  5
21BB
330
A
100
AcDbEntity
  8
06
100
AcDbLine
 10
224.7823835813302
 20
277.0557338114263
 30
0.0
 11
232.2823835813304
 21
277.0557338114266
 31
0.0
  0
LINE
  5
21BC
330
A
100
AcDbEntity
  8
04
100
AcDbLine
 10
232.2823835813304
 20
315.0557338114267
 30
0.0
 11
232.2823835813304
 21
277.0557338114266
 31
0.0
  0
LINE
  5
21BF
330
A
100
AcDbEntity
  8
06
100
AcDbLine
 10
228.2823835813303
 20
294.5557338114267
 30
0.0
 11
228.2823835813303
 21
277.0557338114266
 31
0.0
  0
LINE
  5
21C6
330
A
100
AcDbEntity
  8
06
100
AcDbLine
 10
194.3182819661925
 20
277.0557338114263
 30
0.0
 11
206.7823835813301
 21
277.0557338114263
 31
0.0
  0
LINE
  5
21C7
330
A
100
AcDbEntity
  8
06
100
AcDbLine
 10
194.3182819661925
 20
279.8557338114267
 30
0.0
 11
194.3182819661925
 21
277.0557338114263
 31
0.0
  0
LINE
  5
21C8
330
A
100
AcDbEntity
  8
04
100
AcDbLine
 10
228.2823835813303
 20
315.0557338114263
 30
0.0
 11
232.2823835813303
 21
315.0557338114263
 31
0.0
  0
LINE
  5
21C9
330
A
100
AcDbEntity
  8
04
100
AcDbLine
 10
232.2823835813303
 20
277.0557338114263
 30
0.0
 11
232.2823835813303
 21
315.0557338114263
 31
0.0
  0
LINE
  5
21CC
330
A
100
AcDbEntity
  8
04
100
AcDbLine
 10
228.2823835813303
 20
295.0557338114267
 30
0.0
 11
228.2823835813303
 21
315.0557338114263
 31
0.0
  0
LINE
  5
288E
330
A
100
AcDbEntity
  8
CHUSIN
100
AcDbLine
 10
171.7823835813301
 20
384.0557338114267
 30
0.0
 11
185.095889056524
 21
384.0557338114267
 31
0.0
  0
LINE
  5
288F
330
A
100
AcDbEntity
  8
CHUSIN
100
AcDbLine
 10
189.3985342730533
 20
430.0557338114266
 30
0.0
 11
171.7823835813301
 21
430.0557338114266
 31
0.0
  0
LINE
  5
28C9
330
A
100
AcDbEntity
  8
CHUSIN
100
AcDbLine
 10
199.5763617621838
 20
384.0557338114267
 30
0.0
 11
348.7823835813303
 21
384.0557338114267
 31
0.0
  0
LINE
  5
28CA
330
A
100
AcDbEntity
  8
CHUSIN
100
AcDbLine
 10
313.2823835813301
 20
438.1327920782917
 30
0.0
 11
313.2823835813301
 21
329.4790135194165
 31
0.0
  0
POLYLINE
  5
292E
330
A
100
AcDbEntity
  8
DEFPOINTS
100
AcDb2dPolyline
 66
     1
 10
0.0
 20
0.0
 30
0.0
 70
     1
  0
VERTEX
  5
3965
330
292E
100
AcDbEntity
  8
DEFPOINTS
100
AcDbVertex
100
AcDb2dVertex
 10
0.0
 20
0.0
 30
0.0
  0
VERTEX
  5
3966
330
292E
100
AcDbEntity
  8
DEFPOINTS
100
AcDbVertex
100
AcDb2dVertex
 10
420.0
 20
0.0
 30
0.0
  0
VERTEX
  5
3967
330
292E
100
AcDbEntity
  8
DEFPOINTS
100
AcDbVertex
100
AcDb2dVertex
 10
420.0
 20
594.0
 30
0.0
  0
VERTEX
  5
3968
330
292E
100
AcDbEntity
  8
DEFPOINTS
100
AcDbVertex
100
AcDb2dVertex
 10
0.0
 20
594.0
 30
0.0
  0
SEQEND
  5
3969
330
292E
100
AcDbEntity
  8
DEFPOINTS
  0
LINE
  5
294A
330
A
100
AcDbEntity
  8
SAISEN
100
AcDbLine
 10
294.9325407373693
 20
179.7814981438418
 30
0.0
 11
146.4699446851323
 21
179.7814981438418
 31
0.0
  0
LEADER
  5
2977
330
A
100
AcDbEntity
  8
HIKIDASI
100
AcDbLeader
  3
SUNPOU_2
 73
     0
 74
     0
 75
     1
 40
5.0
 41
21.06666666666666
 76
     3
 10
225.7823835813304
 20
447.8557338114268
 30
0.0
 10
228.6408214240577
 20
457.4781537838263
 30
0.0
 10
233.6408214240576
 20
457.4781537838263
 30
0.0
340
2978
213
0.0
223
1.651054019780075
233
0.0
1001
ACAD
1000
DSTYLE
1002
{
1070
     5
1000
OPEN30
1070
    77
1070
     1
1070
   147
1040
1.0
1070
   342
1005
295B
1002
}
1000
LEANOF
1010
0.0
1020
1.651054019780075
1030
0.0
1000
LEANOF
1010
0.0
1020
1.651054019780075
1030
0.0
  0
MTEXT
  5
2978
330
A
100
AcDbEntity
  8
HIKIDASI
100
AcDbMText
 10
235.6408214240576
 20
457.8270997640463
 30
0.0
 40
5.0
 41
0.0
 71
     7
 72
     1
  1
レールFB
  7
SUNPOU
1001
ACAD
1000
MTEXTBEGIN
1070
    73
1070
     1
1070
    44
1040
1.0
1070
    74
1070
     0
1000
MTEXTEND
1000
MTEXTBEGIN
1070
    73
1070
     1
1070
    44
1040
1.0
1070
    74
1070
     0
1000
MTEXTEND
  0
LEADER
  5
2979
330
A
100
AcDbEntity
  8
HIKIDASI
100
AcDbLeader
  3
SUNPOU_2
 73
     0
 75
     1
 40
13.33333333333333
 41
25.86666666666667
 76
     3
 10
202.7823835813301
 20
387.7128316385515
 30
0.0
 10
156.4383191950124
 20
402.5156512105582
 30
0.0
 10
151.4383191950124
 20
402.5156512105582
 30
0.0
340
297A
213
0.0
223
8.775690617667521
233
0.0
1001
ACAD
1000
DSTYLE
1002
{
1070
     5
1000
OPEN30
1070
    77
1070
     1
1070
   147
1040
1.0
1070
   342
1005
295B
1002
}
1000
LEANOF
1010
0.0
1020
8.775690617667521
1030
0.0
1000
LEANOF
1010
0.0
1020
8.775690617667521
1030
0.0
  0
MTEXT
  5
297A
330
A
100
AcDbEntity
  8
HIKIDASI
100
AcDbMText
 10
123.5716525283456
 20
395.7399605928907
 30
0.0
 40
5.0
 41
0.0
 71
     7
 72
     1
  1
エンジンFB\PプーリFB
  7
SUNPOU
1001
ACAD
1000
MTEXTBEGIN
1070
    73
1070
     1
1070
    44
1040
1.0
1070
    74
1070
     0
1000
MTEXTEND
1000
MTEXTBEGIN
1070
    73
1070
     1
1070
    44
1040
1.0
1070
    74
1070
     0
1000
MTEXTEND
  0
LEADER
  5
297B
330
A
100
AcDbEntity
  8
HIKIDASI
100
AcDbLeader
  3
SUNPOU_2
 73
     0
 40
5.0
 41
35.46666666666665
 76
     2
 10
191.3534415078366
 20
367.3796774733986
 30
0.0
 10
154.5547546498465
 20
357.8392771768826
 30
0.0
340
297C
1001
ACAD
1000
DSTYLE
1002
{
1070
     5
1000
OPEN30
1070
    77
1070
     1
1070
   147
1040
1.0
1070
   342
1005
295B
1002
}
1000
LEANOF
1010
0.0
1020
0.0
1030
0.0
1000
LEANOF
1010
0.0
1020
0.0
1030
0.0
  0
MTEXT
  5
297C
330
A
100
AcDbEntity
  8
HIKIDASI
100
AcDbMText
 10
117.0880879831799
 20
359.8392771768826
 30
0.0
 40
5.0
 41
0.0
 71
     7
 72
     1
  1
コントローラFB
  7
SUNPOU
1001
ACAD
1000
MTEXTBEGIN
1070
    73
1070
     1
1070
    44
1040
1.0
1070
    74
1070
     0
1000
MTEXTEND
1000
MTEXTBEGIN
1070
    73
1070
     1
1070
    44
1040
1.0
1070
    74
1070
     0
1000
MTEXTEND
  0
LEADER
  5
297D
330
A
100
AcDbEntity
  8
HIKIDASI
100
AcDbLeader
  3
SUNPOU_2
 73
     0
 75
     1
 40
5.0
 41
12.26666666666666
 76
     3
 10
206.7823835813301
 20
303.4557338114266
 30
0.0
 10
152.9097795360056
 20
330.5582224273326
 30
0.0
 10
147.9097795360056
 20
330.5582224273326
 30
0.0
340
297E
1001
ACAD
1000
DSTYLE
1002
{
1070
     5
1000
OPEN30
1070
    77
1070
     1
1070
   147
1040
1.0
1070
   342
1005
295B
1002
}
1000
LEANOF
1010
0.0
1020
0.0
1030
0.0
1000
LEANOF
1010
0.0
1020
0.0
1030
0.0
  0
MTEXT
  5
297E
330
A
100
AcDbEntity
  8
HIKIDASI
100
AcDbMText
 10
133.643112869339
 20
332.5582224273326
 30
0.0
 40
5.0
 41
0.0
 71
     7
 72
     1
  1
コロA
  7
SUNPOU
1001
ACAD
1000
MTEXTBEGIN
1070
    73
1070
     1
1070
    44
1040
1.0
1070
    74
1070
     0
1000
MTEXTEND
1000
MTEXTBEGIN
1070
    73
1070
     1
1070
    44
1040
1.0
1070
    74
1070
     0
1000
MTEXTEND
  0
LEADER
  5
2980
330
A
100
AcDbEntity
  8
HIKIDASI
100
AcDbLeader
  3
SUNPOU_2
 73
     0
 75
     1
 40
5.0
 41
12.26666666666667
 76
     3
 10
206.7823835813301
 20
279.8557338114267
 30
0.0
 10
155.2776919701245
 20
309.8384928657527
 30
0.0
 10
150.2776919701245
 20
309.8384928657527
 30
0.0
340
2981
1001
ACAD
1000
DSTYLE
1002
{
1070
     5
1000
OPEN30
1070
    77
1070
     1
1070
   147
1040
1.0
1070
   342
1005
295B
1002
}
1000
LEANOF
1010
0.0
1020
0.0
1030
0.0
1000
LEANOF
1010
0.0
1020
0.0
1030
0.0
  0
MTEXT
  5
2981
330
A
100
AcDbEntity
  8
HIKIDASI
100
AcDbMText
 10
136.0110253034578
 20
311.8384928657527
 30
0.0
 40
5.0
 41
0.0
 71
     7
 72
     1
  1
コロB
  7
SUNPOU
1001
ACAD
1000
MTEXTBEGIN
1070
    73
1070
     1
1070
    44
1040
1.0
1070
    74
1070
     0
1000
MTEXTEND
1000
MTEXTBEGIN
1070
    73
1070
     1
1070
    44
1040
1.0
1070
    74
1070
     0
1000
MTEXTEND
  0
DIMENSION
  5
2982
330
A
100
AcDbEntity
  8
SUNPOU
100
AcDbDimension
  2
*D1
 10
350.7823835813303
 20
524.575801586498
 30
0.0
 11
255.7823835813301
 21
529.075801586498
 31
0.0
 70
    32
  3
SUNPOU_2
100
AcDbAlignedDimension
 13
160.7823835813301
 23
475.5557338114266
 33
0.0
 14
350.7823835813303
 24
474.0557338114267
 34
0.0
100
AcDbRotatedDimension
  0
DIMENSION
  5
298F
330
A
100
AcDbEntity
  8
SUNPOU
100
AcDbDimension
  2
*D2
 10
177.7823835813301
 20
511.9950539427408
 30
0.0
 11
169.2823835813301
 21
516.4950539427407
 31
0.0
 70
    32
  3
SUNPOU_2
100
AcDbAlignedDimension
 13
160.7823835813301
 23
511.9950539427408
 33
0.0
 14
177.7823835813301
 24
474.5557338114267
 34
0.0
100
AcDbRotatedDimension
  0
DIMENSION
  5
299C
330
A
100
AcDbEntity
  8
SUNPOU
100
AcDbDimension
  2
*D3
 10
208.7823835813301
 20
511.9950539427408
 30
0.0
 11
193.2823835813301
 21
516.4950539427407
 31
0.0
 70
    32
  3
SUNPOU_2
100
AcDbAlignedDimension
 13
177.7823835813301
 23
474.5557338114267
 33
0.0
 14
208.7823835813301
 24
447.8557338114268
 34
0.0
100
AcDbRotatedDimension
  0
DIMENSION
  5
29A9
330
A
100
AcDbEntity
  8
SUNPOU
100
AcDbDimension
  2
*D4
 10
342.7823835813303
 20
511.9950539427408
 30
0.0
 11
275.7823835813303
 21
516.4950539427407
 31
0.0
 70
    32
  3
SUNPOU_2
100
AcDbAlignedDimension
 13
208.7823835813301
 23
447.8557338114268
 33
0.0
 14
342.7823835813303
 24
434.0557338114266
 34
0.0
100
AcDbRotatedDimension
  0
DIMENSION
  5
29B6
330
A
100
AcDbEntity
  8
SUNPOU
100
AcDbDimension
  2
*D5
 10
350.7823835813303
 20
511.9950539427408
 30
0.0
 11
346.7823835813303
 21
516.4950539427407
 31
0.0
 70
    32
  3
SUNPOU_2
100
AcDbAlignedDimension
 13
342.7823835813303
 23
434.0557338114266
 33
0.0
 14
350.7823835813303
 24
511.9950539427408
 34
0.0
100
AcDbRotatedDimension
  0
DIMENSION
  5
29C5
330
A
100
AcDbEntity
  8
SUNPOU
100
AcDbDimension
  2
*D6
 10
231.7823835813303
 20
485.8969918861911
 30
0.0
 11
204.7823835813301
 21
490.3969918861911
 31
0.0
 70
    32
  3
SUNPOU_2
100
AcDbAlignedDimension
 13
177.7823835813301
 23
485.8969918861911
 33
0.0
 14
231.7823835813303
 24
441.8557338114267
 34
0.0
100
AcDbRotatedDimension
  0
DIMENSION
  5
29D2
330
A
100
AcDbEntity
  8
SUNPOU
100
AcDbDimension
  2
*D7
 10
258.7823835813301
 20
485.8969918861911
 30
0.0
 11
245.2823835813301
 21
490.3969918861911
 31
0.0
 70
    32
  3
SUNPOU_2
100
AcDbAlignedDimension
 13
231.7823835813303
 23
441.8557338114267
 33
0.0
 14
258.7823835813301
 24
407.1245529497963
 34
0.0
100
AcDbRotatedDimension
  0
DIMENSION
  5
29DF
330
A
100
AcDbEntity
  8
SUNPOU
100
AcDbDimension
  2
*D8
 10
313.2823835813301
 20
499.9874292471991
 30
0.0
 11
261.0323835813301
 21
504.4874292471991
 31
0.0
 70
    32
  3
SUNPOU_2
100
AcDbAlignedDimension
 13
208.7823835813301
 23
499.9874292471991
 33
0.0
 14
313.2823835813301
 24
438.1327920782917
 34
0.0
100
AcDbRotatedDimension
  0
LEADER
  5
2A3B
330
A
100
AcDbEntity
  8
HIKIDASI
100
AcDbLeader
  3
SUNPOU_2
 73
     0
 74
     0
 75
     1
 40
5.0
 41
37.06666666666665
 76
     3
 10
265.7823835813303
 20
88.18464764214434
 30
0.0
 10
292.1214137299356
 20
49.8487011669497
 30
0.0
 10
297.1214137299357
 20
49.8487011669497
 30
0.0
340
2A3C
213
3.027531935796901
223
0.0
233
0.0
1001
ACAD
1000
DSTYLE
1002
{
1070
     5
1000
OPEN30
1070
    77
1070
     1
1070
   147
1040
1.0
1070
   342
1005
295B
1002
}
1000
LEANOF
1010
3.027531935796901
1020
0.0
1030
0.0
1000
LEANOF
1010
3.027531935796901
1020
0.0
1030
0.0
  0
MTEXT
  5
2A3C
330
A
100
AcDbEntity
  8
HIKIDASI
100
AcDbMText
 10
296.0938817941388
 20
51.8487011669497
 30
0.0
 40
5.0
 41
0.0
 71
     7
 72
     1
  1
引き寄せローラー
  7
SUNPOU
1001
ACAD
1000
MTEXTBEGIN
1070
    73
1070
     1
1070
    44
1040
1.0
1070
    74
1070
     0
1000
MTEXTEND
1000
MTEXTBEGIN
1070
    73
1070
     1
1070
    44
1040
1.0
1070
    74
1070
     0
1000
MTEXTEND
  0
LEADER
  5
2A3D
330
A
100
AcDbEntity
  8
HIKIDASI
100
AcDbLeader
  3
SUNPOU_2
 73
     0
 74
     0
 75
     1
 40
5.0
 41
12.26666666666666
 76
     3
 10
241.7823835813297
 20
78.98464764214418
 30
0.0
 10
265.6758758990224
 20
46.16481968153596
 30
0.0
 10
270.6758758990224
 20
46.16481968153596
 30
0.0
340
2A3E
213
4.633333333333325
223
0.0
233
0.0
1001
ACAD
1000
DSTYLE
1002
{
1070
     5
1000
OPEN30
1070
    77
1070
     1
1070
   147
1040
1.0
1070
   342
1005
295B
1002
}
1000
LEANOF
1010
4.633333333333325
1020
0.0
1030
0.0
1000
LEANOF
1010
4.633333333333325
1020
0.0
1030
0.0
  0
MTEXT
  5
2A3E
330
A
100
AcDbEntity
  8
HIKIDASI
100
AcDbMText
 10
268.0425425656892
 20
48.16481968153596
 30
0.0
 40
5.0
 41
0.0
 71
     7
 72
     1
  1
クサビ
  7
SUNPOU
1001
ACAD
1000
MTEXTBEGIN
1070
    73
1070
     1
1070
    44
1040
1.0
1070
    74
1070
     0
1000
MTEXTEND
1000
MTEXTBEGIN
1070
    73
1070
     1
1070
    44
1040
1.0
1070
    74
1070
     0
1000
MTEXTEND
  0
DIMENSION
  5
2A3F
330
A
100
AcDbEntity
  8
SUNPOU
100
AcDbDimension
  2
*D9
 10
62.28894929138004
 20
226.0557338114268
 30
0.0
 11
57.78894929138001
 21
351.0557338114268
 31
0.0
 70
    32
  3
SUNPOU_2
100
AcDbAlignedDimension
 13
161.2823835813301
 23
476.0557338114266
 33
0.0
 14
161.2823835813301
 24
226.0557338114267
 34
0.0
 50
90.0
100
AcDbRotatedDimension
  0
DIMENSION
  5
2A4C
330
A
100
AcDbEntity
  8
SUNPOU
100
AcDbDimension
  2
*D10
 10
76.37938665238824
 20
321.0557338114268
 30
0.0
 11
71.87938665238817
 21
273.5557338114268
 31
0.0
 70
    32
  3
SUNPOU_2
100
AcDbAlignedDimension
 13
76.37938665238824
 23
226.0557338114267
 33
0.0
 14
177.7823835813301
 24
321.0557338114266
 34
0.0
 50
90.0
100
AcDbRotatedDimension
  0
DIMENSION
  5
2A59
330
A
100
AcDbEntity
  8
SUNPOU
100
AcDbDimension
  2
*D11
 10
76.37938665238825
 20
371.0557338114266
 30
0.0
 11
71.87938665238817
 21
346.0557338114266
 31
0.0
 70
    32
  3
SUNPOU_2
100
AcDbAlignedDimension
 13
177.7823835813301
 23
321.0557338114266
 33
0.0
 14
177.7823835813301
 24
371.0557338114266
 34
0.0
 50
90.0
100
AcDbRotatedDimension
  0
DIMENSION
  5
2A66
330
A
100
AcDbEntity
  8
SUNPOU
100
AcDbDimension
  2
*D12
 10
91.86069555845621
 20
354.0557338114268
 30
0.0
 11
87.36069555845615
 21
337.5557338114266
 31
0.0
 70
    32
  3
SUNPOU_2
100
AcDbAlignedDimension
 13
91.86069555845621
 23
321.0557338114266
 33
0.0
 14
216.8348473569596
 24
354.0557338114266
 34
0.0
 50
90.0
100
AcDbRotatedDimension
  0
DIMENSION
  5
2A73
330
A
100
AcDbEntity
  8
SUNPOU
100
AcDbDimension
  2
*D13
 10
91.86069555845621
 20
384.0557338114269
 30
0.0
 11
87.36069555845615
 21
365.0435388127823
 31
0.0
 70
   160
  3
SUNPOU_2
100
AcDbAlignedDimension
 13
216.8348473569596
 23
354.0557338114266
 33
0.0
 14
171.7823835813301
 24
384.0557338114267
 34
0.0
 50
90.0
100
AcDbRotatedDimension
  0
DIMENSION
  5
2A80
330
A
100
AcDbEntity
  8
SUNPOU
100
AcDbDimension
  2
*D14
 10
91.86069555845623
 20
430.0557338114268
 30
0.0
 11
87.36069555845615
 21
407.0557338114269
 31
0.0
 70
    32
  3
SUNPOU_2
100
AcDbAlignedDimension
 13
171.7823835813301
 23
384.0557338114267
 33
0.0
 14
171.7823835813301
 24
430.0557338114266
 34
0.0
 50
90.0
100
AcDbRotatedDimension
  0
DIMENSION
  5
2A8D
330
A
100
AcDbEntity
  8
SUNPOU
100
AcDbDimension
  2
*D15
 10
143.3981836448695
 20
247.8557338114267
 30
0.0
 11
138.8981836448693
 21
236.9557338114268
 31
0.0
 70
    32
  3
SUNPOU_2
100
AcDbAlignedDimension
 13
143.3981836448695
 23
226.0557338114267
 33
0.0
 14
177.7823835813301
 24
247.8557338114267
 34
0.0
 50
90.0
100
AcDbRotatedDimension
1001
ACAD
1000
DSTYLE
1002
{
1070
   271
1070
     0
1002
}
  0
DIMENSION
  5
2A9A
330
A
100
AcDbEntity
  8
SUNPOU
100
AcDbDimension
  2
*D16
 10
143.3981836448695
 20
273.8557338114267
 30
0.0
 11
138.8981836448693
 21
260.8557338114267
 31
0.0
 70
    32
  3
SUNPOU_2
100
AcDbAlignedDimension
 13
177.7823835813301
 23
247.8557338114267
 33
0.0
 14
172.4761469085485
 24
273.8557338114267
 34
0.0
 50
90.0
100
AcDbRotatedDimension
  0
DIMENSION
  5
2AA7
330
A
100
AcDbEntity
  8
SUNPOU
100
AcDbDimension
  2
*D17
 10
143.3981836448695
 20
297.8557338114267
 30
0.0
 11
138.8981836448693
 21
285.8557338114268
 31
0.0
 70
    32
  3
SUNPOU_2
100
AcDbAlignedDimension
 13
172.4761469085485
 23
273.8557338114267
 33
0.0
 14
172.8600735244459
 24
297.8557338114267
 34
0.0
 50
90.0
100
AcDbRotatedDimension
  0
DIMENSION
  5
2AB4
330
A
100
AcDbEntity
  8
SUNPOU
100
AcDbDimension
  2
*D18
 10
225.7823835813303
 20
208.7309026126959
 30
0.0
 11
193.2823835813301
 21
213.2309026126959
 31
0.0
 70
    32
  3
SUNPOU_2
100
AcDbAlignedDimension
 13
160.7823835813301
 23
208.7309026126959
 33
0.0
 14
225.7823835813303
 24
208.7309026126959
 34
0.0
100
AcDbRotatedDimension
  0
DIMENSION
  5
2AC1
330
A
100
AcDbEntity
  8
SUNPOU
100
AcDbDimension
  2
*D19
 10
232.7823835813301
 20
208.7309026126959
 30
0.0
 11
229.2823835813301
 21
213.2309026126959
 31
0.0
 70
    32
  3
SUNPOU_2
100
AcDbAlignedDimension
 13
225.7823835813303
 23
208.7309026126959
 33
0.0
 14
232.7823835813301
 24
208.7309026126959
 34
0.0
100
AcDbRotatedDimension
  0
DIMENSION
  5
2AD0
330
A
100
AcDbEntity
  8
SUNPOU
100
AcDbDimension
  2
*D20
 10
274.7823835813302
 20
208.7309026126959
 30
0.0
 11
253.7823835813302
 21
213.2309026126959
 31
0.0
 70
    32
  3
SUNPOU_2
100
AcDbAlignedDimension
 13
232.7823835813301
 23
208.7309026126959
 33
0.0
 14
274.7823835813302
 24
208.7309026126959
 34
0.0
100
AcDbRotatedDimension
  0
DIMENSION
  5
2ADD
330
A
100
AcDbEntity
  8
SUNPOU
100
AcDbDimension
  2
*D21
 10
283.7823835813301
 20
208.7309026126959
 30
0.0
 11
277.9490502479969
 21
213.2309026126959
 31
0.0
 70
   160
  3
SUNPOU_2
100
AcDbAlignedDimension
 13
274.7823835813302
 23
208.7309026126959
 33
0.0
 14
283.7823835813301
 24
228.0557338114267
 34
0.0
100
AcDbRotatedDimension
  0
DIMENSION
  5
2AEC
330
A
100
AcDbEntity
  8
SUNPOU
100
AcDbDimension
  2
*D22
 10
350.7823835813303
 20
208.7309026126959
 30
0.0
 11
317.2823835813303
 21
213.2309026126959
 31
0.0
 70
    32
  3
SUNPOU_2
100
AcDbAlignedDimension
 13
283.7823835813301
 23
228.0557338114267
 33
0.0
 14
350.7823835813303
 24
228.0557338114267
 34
0.0
100
AcDbRotatedDimension
  0
DIMENSION
  5
2AF9
330
A
100
AcDbEntity
  8
SUNPOU
100
AcDbDimension
  2
*D23
 10
301.240719034601
 20
256.0557338114268
 30
0.0
 11
296.740719034601
 21
241.0557338114268
 31
0.0
 70
   160
  1
25～30
  3
SUNPOU_2
100
AcDbAlignedDimension
 13
301.240719034601
 23
226.0557338114267
 33
0.0
 14
274.7823835813302
 24
256.0557338114268
 34
0.0
 50
90.0
100
AcDbRotatedDimension
  0
DIMENSION
  5
2B18
330
A
100
AcDbEntity
  8
SUNPOU
100
AcDbDimension
  2
*D24
 10
258.7823835813304
 20
285.9802065856706
 30
0.0
 11
256.2823835813304
 21
290.7071531822777
 31
0.0
 70
   160
  3
SUNPOU_2
100
AcDbAlignedDimension
 13
253.7823835813304
 23
285.9802065856706
 33
0.0
 14
258.7823835813304
 24
285.9802065856706
 34
0.0
100
AcDbRotatedDimension
  0
DIMENSION
  5
2B32
330
A
100
AcDbEntity
  8
SUNPOU
100
AcDbDimension
  2
*D25
 10
62.28894929138
 20
103.9846476421444
 30
0.0
 11
57.78894929138001
 21
165.0201907267855
 31
0.0
 70
    32
  1
H
  3
SUNPOU_2
100
AcDbAlignedDimension
 13
62.28894929138004
 23
226.0557338114267
 33
0.0
 14
115.7926352788926
 24
103.9846476421444
 34
0.0
 50
90.0
100
AcDbRotatedDimension
  0
DIMENSION
  5
2B3F
330
A
100
AcDbEntity
  8
SUNPOU
100
AcDbDimension
  2
*D26
 10
308.3983113562808
 20
115.9846476421444
 30
0.0
 11
303.8983113562808
 21
186.0201907267855
 31
0.0
 70
    32
  1
DH
  3
SUNPOU_2
100
AcDbAlignedDimension
 13
274.7823835813302
 23
256.0557338114268
 33
0.0
 14
279.7823835813303
 24
115.9846476421444
 34
0.0
 50
90.0
100
AcDbRotatedDimension
  0
DIMENSION
  5
2B5E
330
A
100
AcDbEntity
  8
SUNPOU
100
AcDbDimension
  2
*D27
 10
308.3983113562808
 20
106.9846476421443
 30
0.0
 11
303.8983113562808
 21
111.4846476421444
 31
0.0
 70
    32
  3
SUNPOU_2
100
AcDbAlignedDimension
 13
308.3983113562808
 23
115.9846476421444
 33
0.0
 14
279.2823835813301
 24
106.9846476421444
 34
0.0
 50
90.0
100
AcDbRotatedDimension
  0
DIMENSION
  5
2B6D
330
A
100
AcDbEntity
  8
SUNPOU
100
AcDbDimension
  2
*D28
 10
308.3983113562808
 20
63.98464764214439
 30
0.0
 11
303.8983113562808
 21
85.48464764214445
 31
0.0
 70
    32
  3
SUNPOU_2
100
AcDbAlignedDimension
 13
279.2823835813301
 23
106.9846476421444
 33
0.0
 14
280.2823835813303
 24
63.9846476421444
 34
0.0
 50
90.0
100
AcDbRotatedDimension
  0
LINE
  5
2B95
330
A
100
AcDbEntity
  8
CHUSIN
100
AcDbLine
 10
193.2823807693795
 20
521.763454371503
 30
0.0
 11
193.2823807693795
 21
570.6497965464926
 31
0.0
  0
MTEXT
  5
2BAC
330
A
100
AcDbEntity
  8
MOJI
100
AcDbMText
 10
365.341629484936
 20
156.8668834227439
 30
0.0
 40
6.0
 41
10.0
 71
     5
 72
     1
  1
内\P\P部
  7
0_8
1001
ACAD
1000
MTEXTBEGIN
1070
    73
1070
     1
1070
    44
1040
1.0
1070
    74
1070
     0
1000
MTEXTEND
1000
MTEXTBEGIN
1070
    73
1070
     1
1070
    44
1040
1.0
1070
    74
1070
     0
1000
MTEXTEND
  0
POLYLINE
  5
2BAD
330
A
100
AcDbEntity
  8
SAISEN
100
AcDb2dPolyline
 66
     1
 10
0.0
 20
0.0
 30
0.0
 70
     1
  0
VERTEX
  5
396B
330
2BAD
100
AcDbEntity
  8
SAISEN
100
AcDbVertex
100
AcDb2dVertex
 10
360.3416294849361
 20
141.866883422744
 30
0.0
  0
VERTEX
  5
396C
330
2BAD
100
AcDbEntity
  8
SAISEN
100
AcDbVertex
100
AcDb2dVertex
 10
370.3416294849361
 20
141.866883422744
 30
0.0
  0
VERTEX
  5
396D
330
2BAD
100
AcDbEntity
  8
SAISEN
100
AcDbVertex
100
AcDb2dVertex
 10
370.3416294849361
 20
171.866883422744
 30
0.0
  0
VERTEX
  5
396E
330
2BAD
100
AcDbEntity
  8
SAISEN
100
AcDbVertex
100
AcDb2dVertex
 10
360.3416294849361
 20
171.866883422744
 30
0.0
  0
SEQEND
  5
396F
330
2BAD
100
AcDbEntity
  8
SAISEN
  0
MTEXT
  5
2BAE
330
A
100
AcDbEntity
  8
MOJI
100
AcDbMText
 10
41.2717855277101
 20
156.8668834227441
 30
0.0
 40
6.0
 41
10.0
 71
     5
 72
     1
  1
外\P\P部
  7
0_8
1001
ACAD
1000
MTEXTBEGIN
1070
    73
1070
     1
1070
    44
1040
1.0
1070
    74
1070
     0
1000
MTEXTEND
1000
MTEXTBEGIN
1070
    73
1070
     1
1070
    44
1040
1.0
1070
    74
1070
     0
1000
MTEXTEND
  0
POLYLINE
  5
2BAF
330
A
100
AcDbEntity
  8
SAISEN
100
AcDb2dPolyline
 66
     1
 10
0.0
 20
0.0
 30
0.0
 70
     1
  0
VERTEX
  5
3970
330
2BAF
100
AcDbEntity
  8
SAISEN
100
AcDbVertex
100
AcDb2dVertex
 10
36.2717855277101
 20
141.8668834227441
 30
0.0
  0
VERTEX
  5
3971
330
2BAF
100
AcDbEntity
  8
SAISEN
100
AcDbVertex
100
AcDb2dVertex
 10
46.2717855277101
 20
141.8668834227441
 30
0.0
  0
VERTEX
  5
3972
330
2BAF
100
AcDbEntity
  8
SAISEN
100
AcDbVertex
100
AcDb2dVertex
 10
46.2717855277101
 20
171.8668834227441
 30
0.0
  0
VERTEX
  5
3973
330
2BAF
100
AcDbEntity
  8
SAISEN
100
AcDbVertex
100
AcDb2dVertex
 10
36.2717855277101
 20
171.8668834227441
 30
0.0
  0
SEQEND
  5
3974
330
2BAF
100
AcDbEntity
  8
SAISEN
  0
LINE
  5
2FFF
330
A
100
AcDbEntity
  8
03
100
AcDbLine
 10
280.2823807693795
 20
543.055714655012
 30
0.0
 11
202.7823807693795
 21
543.055714655012
 31
0.0
  0
LINE
  5
3000
330
A
100
AcDbEntity
  8
03
100
AcDbLine
 10
204.7823807693796
 20
544.8557146550121
 30
0.0
 11
277.9823807693795
 21
544.8557146550121
 31
0.0
  0
LINE
  5
3002
330
A
100
AcDbEntity
  8
03
100
AcDbLine
 10
183.7823807693794
 20
543.055714655012
 30
0.0
 11
161.2823807693795
 21
543.055714655012
 31
0.0
  0
LINE
  5
3004
330
A
100
AcDbEntity
  8
03
100
AcDbLine
 10
160.7823807693795
 20
543.555714655012
 30
0.0
 11
160.7823807693795
 21
572.555714655012
 31
0.0
  0
LINE
  5
3005
330
A
100
AcDbEntity
  8
03
100
AcDbLine
 10
162.5823807693795
 20
545.8557146550121
 30
0.0
 11
162.5823807693795
 21
573.055714655012
 31
0.0
  0
LINE
  5
3006
330
A
100
AcDbEntity
  8
03
100
AcDbLine
 10
163.5823807693795
 20
544.8557146550121
 30
0.0
 11
181.7823807693794
 21
544.8557146550121
 31
0.0
  0
ARC
  5
3007
330
A
100
AcDbEntity
  8
03
100
AcDbCircle
 10
161.2823807693795
 20
543.555714655012
 30
0.0
 40
0.5
100
AcDbArc
 50
180.0
 51
270.0
  0
ARC
  5
3008
330
A
100
AcDbEntity
  8
03
100
AcDbCircle
 10
163.5823807693795
 20
545.8557146550121
 30
0.0
 40
1.0
100
AcDbArc
 50
180.0
 51
270.0
  0
ARC
  5
3011
330
A
100
AcDbEntity
  8
03
100
AcDbCircle
 10
161.2823807693795
 20
572.555714655012
 30
0.0
 40
0.5
100
AcDbArc
 50
90.0
 51
180.0
  0
LINE
  5
3023
330
A
100
AcDbEntity
  8
03
100
AcDbLine
 10
202.2823807693796
 20
563.055714655012
 30
0.0
 11
184.2823807693795
 21
563.055714655012
 31
0.0
  0
LINE
  5
3024
330
A
100
AcDbEntity
  8
03
100
AcDbLine
 10
183.7823807693795
 20
564.8557146550118
 30
0.0
 11
202.7823807693795
 21
564.8557146550123
 31
0.0
  0
LINE
  5
3035
330
A
100
AcDbEntity
  8
03
100
AcDbLine
 10
184.2823807693795
 20
543.555714655012
 30
0.0
 11
184.2823807693795
 21
563.055714655012
 31
0.0
  0
ARC
  5
3038
330
A
100
AcDbEntity
  8
03
100
AcDbCircle
 10
183.7823807693794
 20
543.555714655012
 30
0.0
 40
0.5
100
AcDbArc
 50
270.0
 51
0.0
  0
ARC
  5
3039
330
A
100
AcDbEntity
  8
03
100
AcDbCircle
 10
183.7823807693795
 20
563.855714655012
 30
0.0
 40
1.0
100
AcDbArc
 50
90.0
 51
180.0
  0
LINE
  5
303B
330
A
100
AcDbEntity
  8
03
100
AcDbLine
 10
182.7823807693795
 20
563.855714655012
 30
0.0
 11
182.7823807693794
 21
545.8557146550121
 31
0.0
  0
LINE
  5
303D
330
A
100
AcDbEntity
  8
03
100
AcDbLine
 10
203.7823807693794
 20
545.8557146550121
 30
0.0
 11
203.7823807693794
 21
563.855714655012
 31
0.0
  0
LINE
  5
3040
330
A
100
AcDbEntity
  8
03
100
AcDbLine
 10
202.2823807693796
 20
543.555714655012
 30
0.0
 11
202.2823807693796
 21
563.055714655012
 31
0.0
  0
ARC
  5
3041
330
A
100
AcDbEntity
  8
03
100
AcDbCircle
 10
202.7823807693795
 20
543.555714655012
 30
0.0
 40
0.5
100
AcDbArc
 50
180.0
 51
270.0
  0
ARC
  5
3044
330
A
100
AcDbEntity
  8
03
100
AcDbCircle
 10
204.7823807693796
 20
545.8557146550121
 30
0.0
 40
1.0
100
AcDbArc
 50
180.0
 51
270.0
  0
ARC
  5
3045
330
A
100
AcDbEntity
  8
03
100
AcDbCircle
 10
202.7823807693795
 20
563.855714655012
 30
0.0
 40
1.0
100
AcDbArc
 50
0.0
 51
90.0
  0
LINE
  5
3072
330
A
100
AcDbEntity
  8
03
100
AcDbLine
 10
280.7823807693795
 20
572.555714655012
 30
0.0
 11
280.7823807693795
 21
543.555714655012
 31
0.0
  0
LINE
  5
3073
330
A
100
AcDbEntity
  8
03
100
AcDbLine
 10
278.9823807693796
 20
545.8557146550121
 30
0.0
 11
278.9823807693796
 21
573.055714655012
 31
0.0
  0
ARC
  5
3074
330
A
100
AcDbEntity
  8
03
100
AcDbCircle
 10
280.2823807693795
 20
543.555714655012
 30
0.0
 40
0.5
100
AcDbArc
 50
270.0
 51
0.0
  0
ARC
  5
3075
330
A
100
AcDbEntity
  8
03
100
AcDbCircle
 10
277.9823807693795
 20
545.8557146550121
 30
0.0
 40
1.0
100
AcDbArc
 50
270.0
 51
0.0
  0
ARC
  5
3076
330
A
100
AcDbEntity
  8
03
100
AcDbCircle
 10
280.2823807693795
 20
572.555714655012
 30
0.0
 40
0.5
100
AcDbArc
 50
0.0
 51
90.0
  0
LINE
  5
307D
330
A
100
AcDbEntity
  8
03
100
AcDbLine
 10
278.9823807693796
 20
573.055714655012
 30
0.0
 11
280.2823807693795
 21
573.055714655012
 31
0.0
  0
LINE
  5
31A3
330
A
100
AcDbEntity
  8
03
100
AcDbLine
 10
161.2823835813301
 20
476.0557338114266
 30
0.0
 11
183.7823835813303
 21
476.0557338114266
 31
0.0
  0
LINE
  5
31A4
330
A
100
AcDbEntity
  8
03
100
AcDbLine
 10
177.7823835813301
 20
474.5557338114267
 30
0.0
 11
162.2823835813301
 21
474.5557338114267
 31
0.0
  0
LINE
  5
31A6
330
A
100
AcDbEntity
  8
03
100
AcDbLine
 10
162.2823835813301
 20
453.0557338114267
 30
0.0
 11
202.2823835813301
 21
453.0557338114268
 31
0.0
  0
LINE
  5
31A8
330
A
100
AcDbEntity
  8
03
100
AcDbLine
 10
160.7823835813301
 20
458.0557338114267
 30
0.0
 11
160.7823835813301
 21
475.5557338114266
 31
0.0
  0
LINE
  5
31AB
330
A
100
AcDbEntity
  8
03
100
AcDbLine
 10
165.5823835813301
 20
447.5557338114267
 30
0.0
 11
168.0823835813301
 21
447.5557338114267
 31
0.0
  0
LINE
  5
31AC
330
A
100
AcDbEntity
  8
03
100
AcDbLine
 10
169.0823835813301
 20
438.0557338114266
 30
0.0
 11
165.0823835813302
 21
438.0557338114266
 31
0.0
  0
LINE
  5
31AD
330
A
100
AcDbEntity
  8
03
100
AcDbLine
 10
165.0823835813302
 20
439.5557338114267
 30
0.0
 11
168.0823835813301
 21
439.5557338114267
 31
0.0
  0
LINE
  5
31AF
330
A
100
AcDbEntity
  8
03
100
AcDbLine
 10
160.7823835813301
 20
446.5557338114266
 30
0.0
 11
160.7823835813301
 21
458.0557338114267
 31
0.0
  0
LINE
  5
31B0
330
A
100
AcDbEntity
  8
03
100
AcDbLine
 10
162.7823835813303
 20
448.0557338114267
 30
0.0
 11
162.7823835813303
 21
446.0557338114266
 31
0.0
  0
ARC
  5
31B1
330
A
100
AcDbEntity
  8
03
100
AcDbCircle
 10
165.5823835813301
 20
448.0557338114267
 30
0.0
 40
0.5
100
AcDbArc
 50
180.0
 51
270.0
  0
LINE
  5
31B2
330
A
100
AcDbEntity
  8
03
100
AcDbLine
 10
161.2823835813301
 20
446.0557338114266
 30
0.0
 11
162.7823835813303
 21
446.0557338114266
 31
0.0
  0
ARC
  5
31B3
330
A
100
AcDbEntity
  8
03
100
AcDbCircle
 10
161.2823835813301
 20
446.5557338114266
 30
0.0
 40
0.5
100
AcDbArc
 50
180.0
 51
270.0
  0
LINE
  5
31B4
330
A
100
AcDbEntity
  8
03
100
AcDbLine
 10
165.0823835813302
 20
438.0557338114266
 30
0.0
 11
165.0823835813302
 21
439.5557338114267
 31
0.0
  0
LINE
  5
31C2
330
A
100
AcDbEntity
  8
03
100
AcDbLine
 10
162.7823835813303
 20
448.0557338114267
 30
0.0
 11
162.2823835813301
 21
448.0557338114267
 31
0.0
  0
LINE
  5
31C3
330
A
100
AcDbEntity
  8
03
100
AcDbLine
 10
162.2823835813301
 20
448.0557338114267
 30
0.0
 11
162.2823835813301
 21
451.0557338114266
 31
0.0
  0
LINE
  5
31C4
330
A
100
AcDbEntity
  8
03
100
AcDbLine
 10
165.0823835813302
 20
448.0557338114267
 30
0.0
 11
165.0823835813302
 21
451.0557338114266
 31
0.0
  0
LINE
  5
31C5
330
A
100
AcDbEntity
  8
03
100
AcDbLine
 10
165.0823835813302
 20
451.0557338114266
 30
0.0
 11
162.2823835813301
 21
451.0557338114266
 31
0.0
  0
LINE
  5
31C7
330
A
100
AcDbEntity
  8
03
100
AcDbLine
 10
169.5823835813301
 20
449.0557338114268
 30
0.0
 11
169.5823835813301
 21
438.5557338114266
 31
0.0
  0
LINE
  5
31C8
330
A
100
AcDbEntity
  8
03
100
AcDbLine
 10
168.0823835813301
 20
439.5557338114267
 30
0.0
 11
168.0823835813301
 21
447.5557338114267
 31
0.0
  0
ARC
  5
31C9
330
A
100
AcDbEntity
  8
03
100
AcDbCircle
 10
169.0823835813301
 20
438.5557338114266
 30
0.0
 40
0.5
100
AcDbArc
 50
270.0
 51
0.0
  0
LINE
  5
31CC
330
A
100
AcDbEntity
  8
03
100
AcDbLine
 10
166.5823835813301
 20
449.0557338114268
 30
0.0
 11
169.5823835813301
 21
449.0557338114268
 31
0.0
  0
LINE
  5
31CD
330
A
100
AcDbEntity
  8
03
100
AcDbLine
 10
166.5823835813301
 20
451.0557338114266
 30
0.0
 11
166.5823835813301
 21
449.0557338114268
 31
0.0
  0
LINE
  5
31CF
330
A
100
AcDbEntity
  8
03
100
AcDbLine
 10
162.2823835813301
 20
474.5557338114267
 30
0.0
 11
162.2823835813301
 21
453.0557338114267
 31
0.0
  0
ARC
  5
31D1
330
A
100
AcDbEntity
  8
03
100
AcDbCircle
 10
161.2823835813301
 20
475.5557338114266
 30
0.0
 40
0.5
100
AcDbArc
 50
90.0
 51
180.0
  0
LINE
  5
31D2
330
A
100
AcDbEntity
  8
03
100
AcDbLine
 10
202.7823835813303
 20
451.0557338114266
 30
0.0
 11
166.5823835813301
 21
451.0557338114266
 31
0.0
  0
LINE
  5
31D4
330
A
100
AcDbEntity
  8
03
100
AcDbLine
 10
179.2823835813303
 20
474.5557338114267
 30
0.0
 11
179.2823835813303
 21
453.0557338114268
 31
0.0
  0
LINE
  5
31D5
330
A
100
AcDbEntity
  8
03
100
AcDbLine
 10
177.7823835813301
 20
453.0557338114268
 30
0.0
 11
177.7823835813301
 21
474.5557338114267
 31
0.0
  0
LINE
  5
31E5
330
A
100
AcDbEntity
  8
03
100
AcDbLine
 10
184.2823835813301
 20
474.5557338114267
 30
0.0
 11
179.2823835813303
 21
474.5557338114267
 31
0.0
  0
LINE
  5
31E8
330
A
100
AcDbEntity
  8
03
  6
CONTINUOUS
100
AcDbLine
 10
184.2823835813301
 20
475.5557338114266
 30
0.0
 11
184.2823835813301
 21
474.5557338114267
 31
0.0
  0
ARC
  5
31EB
330
A
100
AcDbEntity
  8
03
100
AcDbCircle
 10
183.7823835813303
 20
475.5557338114266
 30
0.0
 40
0.5
100
AcDbArc
 50
0.0
 51
90.0
  0
LINE
  5
31ED
330
A
100
AcDbEntity
  8
03
100
AcDbLine
 10
203.7823835813301
 20
473.2557338114268
 30
0.0
 11
203.7823835813301
 21
452.0557338114267
 31
0.0
  0
ARC
  5
31F0
330
A
100
AcDbEntity
  8
03
100
AcDbCircle
 10
202.7823835813303
 20
452.0557338114267
 30
0.0
 40
1.0
100
AcDbArc
 50
270.0
 51
0.0
  0
LINE
  5
31F3
330
A
100
AcDbEntity
  8
03
100
AcDbLine
 10
202.2823835813301
 20
453.0557338114268
 30
0.0
 11
202.2823835813301
 21
475.5557338114266
 31
0.0
  0
ARC
  5
31F5
330
A
100
AcDbEntity
  8
03
100
AcDbCircle
 10
202.7823835813303
 20
475.5557338114266
 30
0.0
 40
0.5
100
AcDbArc
 50
90.0
 51
180.0
  0
ARC
  5
31F8
330
A
100
AcDbEntity
  8
03
100
AcDbCircle
 10
204.7823835813303
 20
473.2557338114268
 30
0.0
 40
1.0
100
AcDbArc
 50
90.0
 51
180.0
  0
LINE
  5
3202
330
A
100
AcDbEntity
  8
03
100
AcDbLine
 10
285.7823835813301
 20
476.0557338114266
 30
0.0
 11
348.7823835813303
 21
476.0557338114266
 31
0.0
  0
LINE
  5
3203
330
A
100
AcDbEntity
  8
03
100
AcDbLine
 10
285.7823835813301
 20
474.0557338114268
 30
0.0
 11
348.7823835813303
 21
474.0557338114268
 31
0.0
  0
LINE
  5
3205
330
A
100
AcDbEntity
  8
03
100
AcDbLine
 10
204.7823835813303
 20
474.2557338114266
 30
0.0
 11
278.2823835813303
 21
474.2557338114266
 31
0.0
  0
LINE
  5
3223
330
A
100
AcDbEntity
  8
03
100
AcDbLine
 10
285.7823835813301
 20
456.0557338114267
 30
0.0
 11
285.7823835813301
 21
474.0557338114268
 31
0.0
  0
LINE
  5
3224
330
A
100
AcDbEntity
  8
03
100
AcDbLine
 10
283.7823835813301
 20
456.0557338114267
 30
0.0
 11
283.7823835813301
 21
474.0557338114268
 31
0.0
  0
LINE
  5
3225
330
A
100
AcDbEntity
  8
03
100
AcDbLine
 10
280.7823835813301
 20
475.5557338114266
 30
0.0
 11
280.7823835813301
 21
451.5557338114267
 31
0.0
  0
ARC
  5
3227
330
A
100
AcDbEntity
  8
03
100
AcDbCircle
 10
280.2823835813303
 20
451.5557338114267
 30
0.0
 40
0.5
100
AcDbArc
 50
270.0
 51
0.0
  0
LINE
  5
3231
330
A
100
AcDbEntity
  8
03
100
AcDbLine
 10
280.2823835813303
 20
451.0557338114266
 30
0.0
 11
279.2823835813301
 21
451.0557338114266
 31
0.0
  0
LINE
  5
3235
330
A
100
AcDbEntity
  8
03
100
AcDbLine
 10
283.7823835813301
 20
456.0557338114267
 30
0.0
 11
285.7823835813301
 21
456.0557338114267
 31
0.0
  0
ARC
  5
3236
330
A
100
AcDbEntity
  8
03
100
AcDbCircle
 10
280.2823835813303
 20
475.5557338114266
 30
0.0
 40
0.5
100
AcDbArc
 50
0.0
 51
90.0
  0
LINE
  5
3237
330
A
100
AcDbEntity
  8
03
100
AcDbLine
 10
279.2823835813301
 20
473.2557338114267
 30
0.0
 11
279.2823835813301
 21
451.0557338114266
 31
0.0
  0
ARC
  5
323C
330
A
100
AcDbEntity
  8
03
100
AcDbCircle
 10
278.2823835813303
 20
473.2557338114267
 30
0.0
 40
1.0
100
AcDbArc
 50
0.0
 51
90.0
  0
ARC
  5
323E
330
A
100
AcDbEntity
  8
03
100
AcDbCircle
 10
285.7823835813301
 20
474.0557338114268
 30
0.0
 40
2.0
100
AcDbArc
 50
90.0
 51
180.0
  0
ARC
  5
323F
330
A
100
AcDbEntity
  8
03
100
AcDbCircle
 10
348.7823835813303
 20
474.0557338114268
 30
0.0
 40
2.0
100
AcDbArc
 50
0.0
 51
90.0
  0
LINE
  5
3240
330
A
100
AcDbEntity
  8
03
100
AcDbLine
 10
350.7823835813303
 20
474.0557338114268
 30
0.0
 11
350.7823835813303
 21
228.0557338114267
 31
0.0
  0
LINE
  5
3241
330
A
100
AcDbEntity
  8
03
100
AcDbLine
 10
348.7823835813303
 20
474.0557338114268
 30
0.0
 11
348.7823835813303
 21
228.0557338114267
 31
0.0
  0
ARC
  5
3242
330
A
100
AcDbEntity
  8
03
100
AcDbCircle
 10
348.7823835813303
 20
228.0557338114267
 30
0.0
 40
2.0
100
AcDbArc
 50
270.0
 51
0.0
  0
LINE
  5
3244
330
A
100
AcDbEntity
  8
03
100
AcDbLine
 10
183.7823835813303
 20
226.0557338114267
 30
0.0
 11
161.2823835813301
 21
226.0557338114267
 31
0.0
  0
LINE
  5
3246
330
A
100
AcDbEntity
  8
03
100
AcDbLine
 10
165.0823835813302
 20
264.0557338114267
 30
0.0
 11
174.2823835813303
 21
264.0557338114267
 31
0.0
  0
LINE
  5
3247
330
A
100
AcDbEntity
  8
03
100
AcDbLine
 10
169.5823835813301
 20
262.5557338114266
 30
0.0
 11
174.2823835813303
 21
262.5557338114266
 31
0.0
  0
LINE
  5
3249
330
A
100
AcDbEntity
  8
03
100
AcDbLine
 10
160.7823835813301
 20
226.5557338114267
 30
0.0
 11
160.7823835813301
 21
255.5557338114267
 31
0.0
  0
LINE
  5
324A
330
A
100
AcDbEntity
  8
03
100
AcDbLine
 10
166.5823835813301
 20
250.0557338114266
 30
0.0
 11
166.5823835813301
 21
251.5557338114267
 31
0.0
  0
ARC
  5
324B
330
A
100
AcDbEntity
  8
03
100
AcDbCircle
 10
161.2823835813301
 20
226.5557338114267
 30
0.0
 40
0.5
100
AcDbArc
 50
180.0
 51
270.0
  0
LINE
  5
324C
330
A
100
AcDbEntity
  8
03
100
AcDbLine
 10
163.5823835813301
 20
249.5557338114267
 30
0.0
 11
166.0823835813301
 21
249.5557338114267
 31
0.0
  0
LINE
  5
324D
330
A
100
AcDbEntity
  8
03
100
AcDbLine
 10
163.5823835813301
 20
227.8557338114266
 30
0.0
 11
180.9823835813303
 21
227.8557338114266
 31
0.0
  0
LINE
  5
324E
330
A
100
AcDbEntity
  8
03
100
AcDbLine
 10
162.5823835813301
 20
228.8557338114266
 30
0.0
 11
162.5823835813301
 21
248.5557338114267
 31
0.0
  0
ARC
  5
324F
330
A
100
AcDbEntity
  8
03
100
AcDbCircle
 10
163.5823835813301
 20
228.8557338114266
 30
0.0
 40
1.0
100
AcDbArc
 50
180.0
 51
270.0
  0
ARC
  5
3250
330
A
100
AcDbEntity
  8
03
100
AcDbCircle
 10
163.5823835813301
 20
248.5557338114267
 30
0.0
 40
1.0
100
AcDbArc
 50
90.0
 51
180.0
  0
ARC
  5
3256
330
A
100
AcDbEntity
  8
03
100
AcDbCircle
 10
166.0823835813301
 20
250.0557338114266
 30
0.0
 40
0.5
100
AcDbArc
 50
270.0
 51
0.0
  0
LINE
  5
3257
330
A
100
AcDbEntity
  8
03
100
AcDbLine
 10
165.5823835813301
 20
254.0557338114266
 30
0.0
 11
168.0823835813301
 21
254.0557338114266
 31
0.0
  0
LINE
  5
3258
330
A
100
AcDbEntity
  8
03
100
AcDbLine
 10
165.0823835813302
 20
262.5557338114266
 30
0.0
 11
168.0823835813301
 21
262.5557338114266
 31
0.0
  0
LINE
  5
325A
330
A
100
AcDbEntity
  8
03
100
AcDbLine
 10
161.2823835813301
 20
256.0557338114267
 30
0.0
 11
162.7823835813303
 21
256.0557338114267
 31
0.0
  0
ARC
  5
325B
330
A
100
AcDbEntity
  8
03
100
AcDbCircle
 10
161.2823835813301
 20
255.5557338114267
 30
0.0
 40
0.5
100
AcDbArc
 50
90.0
 51
180.0
  0
LINE
  5
325C
330
A
100
AcDbEntity
  8
03
100
AcDbLine
 10
162.7823835813303
 20
256.0557338114267
 30
0.0
 11
162.7823835813303
 21
254.0557338114266
 31
0.0
  0
LINE
  5
325D
330
A
100
AcDbEntity
  8
03
100
AcDbLine
 10
162.7823835813303
 20
254.0557338114266
 30
0.0
 11
162.2823835813301
 21
254.0557338114266
 31
0.0
  0
LINE
  5
325E
330
A
100
AcDbEntity
  8
03
100
AcDbLine
 10
162.2823835813301
 20
254.0557338114266
 30
0.0
 11
162.2823835813301
 21
251.0557338114267
 31
0.0
  0
LINE
  5
325F
330
A
100
AcDbEntity
  8
03
100
AcDbLine
 10
162.2823835813301
 20
251.0557338114267
 30
0.0
 11
165.0823835813302
 21
251.0557338114267
 31
0.0
  0
LINE
  5
3260
330
A
100
AcDbEntity
  8
03
100
AcDbLine
 10
165.0823835813302
 20
253.5557338114267
 30
0.0
 11
165.0823835813302
 21
251.0557338114267
 31
0.0
  0
ARC
  5
3261
330
A
100
AcDbEntity
  8
03
100
AcDbCircle
 10
165.5823835813301
 20
253.5557338114267
 30
0.0
 40
0.5
100
AcDbArc
 50
90.0
 51
180.0
  0
LINE
  5
3262
330
A
100
AcDbEntity
  8
03
100
AcDbLine
 10
165.0823835813302
 20
264.0557338114267
 30
0.0
 11
165.0823835813302
 21
262.5557338114266
 31
0.0
  0
LINE
  5
3263
330
A
100
AcDbEntity
  8
03
100
AcDbLine
 10
169.5823835813301
 20
262.5557338114266
 30
0.0
 11
169.5823835813301
 21
253.5557338114267
 31
0.0
  0
LINE
  5
3264
330
A
100
AcDbEntity
  8
03
100
AcDbLine
 10
168.0823835813301
 20
254.0557338114266
 30
0.0
 11
168.0823835813301
 21
262.5557338114266
 31
0.0
  0
LINE
  5
3265
330
A
100
AcDbEntity
  8
03
100
AcDbLine
 10
168.5823835813302
 20
252.5557338114267
 30
0.0
 11
167.5823835813301
 21
252.5557338114267
 31
0.0
  0
ARC
  5
3266
330
A
100
AcDbEntity
  8
03
100
AcDbCircle
 10
167.5823835813301
 20
251.5557338114267
 30
0.0
 40
1.0
100
AcDbArc
 50
90.0
 51
180.0
  0
ARC
  5
3267
330
A
100
AcDbEntity
  8
03
100
AcDbCircle
 10
168.5823835813302
 20
253.5557338114267
 30
0.0
 40
1.0
100
AcDbArc
 50
270.0
 51
0.0
  0
LINE
  5
3268
330
A
100
AcDbEntity
  8
03
100
AcDbLine
 10
184.2823835813301
 20
226.5557338114267
 30
0.0
 11
184.2823835813301
 21
231.0557338114267
 31
0.0
  0
ARC
  5
3269
330
A
100
AcDbEntity
  8
03
100
AcDbCircle
 10
183.7823835813303
 20
226.5557338114267
 30
0.0
 40
0.5
100
AcDbArc
 50
270.0
 51
0.0
  0
LINE
  5
326C
330
A
100
AcDbEntity
  8
03
100
AcDbLine
 10
180.9823835813303
 20
246.8557338114266
 30
0.0
 11
180.9823835813303
 21
227.8557338114266
 31
0.0
  0
ARC
  5
3279
330
A
100
AcDbEntity
  8
03
100
AcDbCircle
 10
181.9823835813303
 20
246.8557338114266
 30
0.0
 40
1.0
100
AcDbArc
 50
90.0
 51
180.0
  0
LINE
  5
327C
330
A
100
AcDbEntity
  8
03
100
AcDbLine
 10
184.2823835813301
 20
231.0557338114267
 30
0.0
 11
182.7823835813303
 21
231.0557338114267
 31
0.0
  0
LINE
  5
3283
330
A
100
AcDbEntity
  8
03
100
AcDbLine
 10
182.7823835813303
 20
246.0557338114266
 30
0.0
 11
182.7823835813303
 21
231.0557338114267
 31
0.0
  0
LINE
  5
3284
330
A
100
AcDbEntity
  8
03
100
AcDbLine
 10
174.2823835813303
 20
262.5557338114266
 30
0.0
 11
174.2823835813303
 21
264.0557338114267
 31
0.0
  0
LINE
  5
3285
330
A
100
AcDbEntity
  8
03
100
AcDbLine
 10
225.2823835813301
 20
226.0557338114267
 30
0.0
 11
202.7823835813303
 21
226.0557338114267
 31
0.0
  0
LINE
  5
3286
330
A
100
AcDbEntity
  8
03
100
AcDbLine
 10
206.5823835813302
 20
227.8557338114266
 30
0.0
 11
209.7823835813303
 21
227.8557338114266
 31
0.0
  0
LINE
  5
3287
330
A
100
AcDbEntity
  8
03
100
AcDbLine
 10
203.7823835813301
 20
246.0557338114266
 30
0.0
 11
182.7823835813303
 21
246.0557338114266
 31
0.0
1001
ACAD
1000
ASC_BOUNDS
1002
{
1070
    19
1005
3837
1002
}
  0
LINE
  5
3288
330
A
100
AcDbEntity
  8
03
100
AcDbLine
 10
181.9823835813303
 20
247.8557338114267
 30
0.0
 11
204.5823835813302
 21
247.8557338114267
 31
0.0
1001
ACAD
1000
ASC_BOUNDS
1002
{
1070
    19
1005
3837
1002
}
  0
LINE
  5
3289
330
A
100
AcDbEntity
  8
03
100
AcDbLine
 10
202.2823835813301
 20
226.5557338114267
 30
0.0
 11
202.2823835813301
 21
231.5557338114266
 31
0.0
  0
ARC
  5
328A
330
A
100
AcDbEntity
  8
03
100
AcDbCircle
 10
202.7823835813303
 20
226.5557338114267
 30
0.0
 40
0.5
100
AcDbArc
 50
180.0
 51
270.0
  0
LINE
  5
328B
330
A
100
AcDbEntity
  8
03
100
AcDbLine
 10
205.5823835813301
 20
228.8557338114266
 30
0.0
 11
205.5823835813301
 21
246.8557338114266
 31
0.0
  0
LINE
  5
328D
330
A
100
AcDbEntity
  8
03
100
AcDbLine
 10
202.2823835813301
 20
231.5557338114266
 30
0.0
 11
203.7823835813301
 21
231.5557338114266
 31
0.0
  0
ARC
  5
328E
330
A
100
AcDbEntity
  8
03
100
AcDbCircle
 10
206.5823835813302
 20
228.8557338114266
 30
0.0
 40
1.0
100
AcDbArc
 50
180.0
 51
270.0
  0
LINE
  5
3293
330
A
100
AcDbEntity
  8
03
100
AcDbLine
 10
203.7823835813301
 20
246.0557338114266
 30
0.0
 11
203.7823835813301
 21
231.5557338114266
 31
0.0
  0
ARC
  5
3294
330
A
100
AcDbEntity
  8
03
100
AcDbCircle
 10
204.5823835813302
 20
246.8557338114266
 30
0.0
 40
1.0
100
AcDbArc
 50
0.0
 51
90.0
  0
LINE
  5
3295
330
A
100
AcDbEntity
  8
03
100
AcDbLine
 10
218.8823835813304
 20
227.8557338114266
 30
0.0
 11
224.5823835813301
 21
227.8557338114266
 31
0.0
  0
LINE
  5
3296
330
A
100
AcDbEntity
  8
03
100
AcDbLine
 10
225.2823835813301
 20
247.8557338114267
 30
0.0
 11
217.5823835813301
 21
247.8557338114267
 31
0.0
  0
LINE
  5
3297
330
A
100
AcDbEntity
  8
03
100
AcDbLine
 10
224.5823835813301
 20
245.8557338114267
 30
0.0
 11
218.7823835813301
 21
245.8557338114267
 31
0.0
  0
LINE
  5
3298
330
A
100
AcDbEntity
  8
03
100
AcDbLine
 10
213.0323835813301
 20
228.0557338114267
 30
0.0
 11
216.5323835813302
 21
228.0557338114267
 31
0.0
  0
LINE
  5
32A1
330
A
100
AcDbEntity
  8
03
100
AcDbLine
 10
217.0823835813302
 20
247.3557338114266
 30
0.0
 11
217.0823835813302
 21
234.8557338114266
 31
0.0
  0
LINE
  5
32A2
330
A
100
AcDbEntity
  8
03
100
AcDbLine
 10
218.7823835813301
 20
227.8557338114266
 30
0.0
 11
218.7823835813301
 21
245.8557338114267
 31
0.0
  0
LINE
  5
32A5
330
A
100
AcDbEntity
  8
03
100
AcDbLine
 10
217.0323835813301
 20
232.3557338114266
 30
0.0
 11
217.0323835813301
 21
228.5557338114267
 31
0.0
  0
ARC
  5
32A8
330
A
100
AcDbEntity
  8
03
100
AcDbCircle
 10
216.5323835813302
 20
228.5557338114267
 30
0.0
 40
0.5
100
AcDbArc
 50
270.0
 51
0.0
  0
ARC
  5
32A9
330
A
100
AcDbEntity
  8
03
100
AcDbCircle
 10
217.5823835813301
 20
247.3557338114266
 30
0.0
 40
0.5
100
AcDbArc
 50
90.0
 51
180.0
  0
LINE
  5
32AA
330
A
100
AcDbEntity
  8
03
100
AcDbLine
 10
225.7823835813303
 20
229.3557338114267
 30
0.0
 11
225.7823835813303
 21
226.5557338114267
 31
0.0
  0
ARC
  5
32AB
330
A
100
AcDbEntity
  8
03
100
AcDbCircle
 10
225.2823835813301
 20
226.5557338114267
 30
0.0
 40
0.5
100
AcDbArc
 50
270.0
 51
0.0
  0
LINE
  5
32AC
330
A
100
AcDbEntity
  8
03
100
AcDbLine
 10
225.2823835813301
 20
229.8557338114266
 30
0.0
 11
224.5823835813301
 21
229.8557338114266
 31
0.0
  0
LINE
  5
32AD
330
A
100
AcDbEntity
  8
03
100
AcDbLine
 10
224.5823835813301
 20
229.8557338114266
 30
0.0
 11
224.5823835813301
 21
227.8557338114266
 31
0.0
  0
ARC
  5
32AE
330
A
100
AcDbEntity
  8
03
100
AcDbCircle
 10
225.2823835813301
 20
229.3557338114267
 30
0.0
 40
0.5
100
AcDbArc
 50
0.0
 51
90.0
  0
LINE
  5
32AF
330
A
100
AcDbEntity
  8
03
100
AcDbLine
 10
225.7823835813303
 20
247.3557338114266
 30
0.0
 11
225.7823835813303
 21
244.3557338114267
 31
0.0
  0
LINE
  5
32B0
330
A
100
AcDbEntity
  8
03
100
AcDbLine
 10
224.5823835813301
 20
243.8557338114267
 30
0.0
 11
225.2823835813301
 21
243.8557338114267
 31
0.0
  0
LINE
  5
32B1
330
A
100
AcDbEntity
  8
03
100
AcDbLine
 10
224.5823835813301
 20
243.8557338114267
 30
0.0
 11
224.5823835813301
 21
245.8557338114267
 31
0.0
  0
ARC
  5
32B2
330
A
100
AcDbEntity
  8
03
100
AcDbCircle
 10
225.2823835813301
 20
244.3557338114267
 30
0.0
 40
0.5
100
AcDbArc
 50
270.0
 51
0.0
  0
ARC
  5
32B3
330
A
100
AcDbEntity
  8
03
100
AcDbCircle
 10
225.2823835813301
 20
247.3557338114266
 30
0.0
 40
0.5
100
AcDbArc
 50
0.0
 51
90.0
  0
LINE
  5
32B4
330
A
100
AcDbEntity
  8
03
100
AcDbLine
 10
348.7823835813303
 20
226.0557338114267
 30
0.0
 11
285.7823835813301
 21
226.0557338114267
 31
0.0
  0
LINE
  5
32B5
330
A
100
AcDbEntity
  8
03
100
AcDbLine
 10
348.7823835813303
 20
228.0557338114267
 30
0.0
 11
285.7823835813301
 21
228.0557338114267
 31
0.0
  0
ARC
  5
32B6
330
A
100
AcDbEntity
  8
03
100
AcDbCircle
 10
285.7823835813301
 20
228.0557338114267
 30
0.0
 40
2.0
100
AcDbArc
 50
180.0
 51
270.0
  0
LINE
  5
32B7
330
A
100
AcDbEntity
  8
03
100
AcDbLine
 10
285.7823835813301
 20
228.0557338114267
 30
0.0
 11
285.7823835813301
 21
246.0557338114266
 31
0.0
  0
LINE
  5
32B8
330
A
100
AcDbEntity
  8
03
100
AcDbLine
 10
283.7823835813301
 20
228.0557338114267
 30
0.0
 11
283.7823835813301
 21
246.0557338114266
 31
0.0
  0
LINE
  5
32B9
330
A
100
AcDbEntity
  8
03
100
AcDbLine
 10
283.7823835813301
 20
246.0557338114266
 30
0.0
 11
285.7823835813301
 21
246.0557338114266
 31
0.0
  0
LINE
  5
32BA
330
A
100
AcDbEntity
  8
03
100
AcDbLine
 10
160.7823835813301
 20
255.5557338114267
 30
0.0
 11
160.7823835813301
 21
446.5557338114266
 31
0.0
  0
LINE
  5
32BB
330
A
100
AcDbEntity
  8
03
100
AcDbLine
 10
202.7823835813303
 20
476.0557338114266
 30
0.0
 11
280.2823835813303
 21
476.0557338114266
 31
0.0
  0
LINE
  5
33C8
330
A
100
AcDbEntity
  8
03
100
AcDbLine
 10
234.5823835813301
 20
254.0557338114268
 30
0.0
 11
270.4823835813301
 21
254.0557338114268
 31
0.0
  0
LINE
  5
33CA
330
A
100
AcDbEntity
  8
03
100
AcDbLine
 10
237.2823835813302
 20
251.3557338114269
 30
0.0
 11
269.0823835813302
 21
251.3557338114268
 31
0.0
  0
LINE
  5
33CC
330
A
100
AcDbEntity
  8
03
100
AcDbLine
 10
235.2823835813302
 20
226.0557338114268
 30
0.0
 11
235.2823835813302
 21
179.7814981438418
 31
0.0
  0
LINE
  5
33CD
330
A
100
AcDbEntity
  8
03
100
AcDbLine
 10
237.4823835813301
 20
196.2557338114266
 30
0.0
 11
237.4823835813301
 21
227.2557338114268
 31
0.0
  0
LINE
  5
33CE
330
A
100
AcDbEntity
  8
03
100
AcDbLine
 10
270.4823835813301
 20
193.0557338114268
 30
0.0
 11
237.4823835813301
 21
193.0557338114268
 31
0.0
  0
LINE
  5
33D2
330
A
100
AcDbEntity
  8
03
100
AcDbLine
 10
237.4823835813301
 20
179.7814981438418
 30
0.0
 11
237.4823835813301
 21
193.0557338114268
 31
0.0
  0
LINE
  5
33F4
330
A
100
AcDbEntity
  8
03
100
AcDbLine
 10
238.4823835813302
 20
195.2557338114266
 30
0.0
 11
268.4823835813301
 21
195.2557338114267
 31
0.0
  0
ARC
  5
33F5
330
A
100
AcDbEntity
  8
03
100
AcDbCircle
 10
238.4823835813302
 20
196.2557338114266
 30
0.0
 40
1.0
100
AcDbArc
 50
180.0
 51
270.0
  0
LINE
  5
343D
330
A
100
AcDbEntity
  8
03
100
AcDbLine
 10
233.2823835813301
 20
226.0557338114268
 30
0.0
 11
235.2823835813302
 21
226.0557338114268
 31
0.0
  0
ARC
  5
343F
330
A
100
AcDbEntity
  8
03
100
AcDbCircle
 10
233.2823835813301
 20
226.5557338114268
 30
0.0
 40
0.5
100
AcDbArc
 50
180.0
 51
270.0
  0
LINE
  5
3440
330
A
100
AcDbEntity
  8
03
100
AcDbLine
 10
234.5823835813301
 20
255.5557338114268
 30
0.0
 11
234.5823835813301
 21
254.0557338114268
 31
0.0
  0
LINE
  5
3441
330
A
100
AcDbEntity
  8
03
100
AcDbLine
 10
233.2823835813301
 20
256.0557338114268
 30
0.0
 11
234.0823835813302
 21
256.0557338114268
 31
0.0
  0
ARC
  5
3442
330
A
100
AcDbEntity
  8
03
100
AcDbCircle
 10
234.0823835813302
 20
255.5557338114268
 30
0.0
 40
0.5
100
AcDbArc
 50
0.0
 51
90.0
  0
ARC
  5
3443
330
A
100
AcDbEntity
  8
03
100
AcDbCircle
 10
233.2823835813301
 20
255.5557338114268
 30
0.0
 40
0.5
100
AcDbArc
 50
90.0
 51
180.0
  0
ARC
  5
3447
330
A
100
AcDbEntity
  8
03
100
AcDbCircle
 10
237.2823835813302
 20
250.3557338114268
 30
0.0
 40
1.0
100
AcDbArc
 50
90.0
 51
180.0
  0
LINE
  5
344A
330
A
100
AcDbEntity
  8
03
100
AcDbLine
 10
236.2823835813301
 20
229.4557338114268
 30
0.0
 11
237.4823835813301
 21
227.2557338114268
 31
0.0
  0
LINE
  5
344B
330
A
100
AcDbEntity
  8
03
100
AcDbLine
 10
236.2823835813301
 20
250.3557338114268
 30
0.0
 11
236.2823835813301
 21
229.4557338114268
 31
0.0
  0
LINE
  5
345C
330
A
100
AcDbEntity
  8
03
100
AcDbLine
 10
272.2823835813301
 20
255.5557338114268
 30
0.0
 11
272.2823835813301
 21
179.7814981438418
 31
0.0
  0
LINE
  5
345D
330
A
100
AcDbEntity
  8
03
100
AcDbLine
 10
270.0823835813301
 20
250.3557338114267
 30
0.0
 11
270.0823835813301
 21
196.8557338114267
 31
0.0
  0
LINE
  5
3462
330
A
100
AcDbEntity
  8
03
100
AcDbLine
 10
270.4823835813301
 20
179.7814981438418
 30
0.0
 11
270.4823835813301
 21
193.0557338114268
 31
0.0
  0
ARC
  5
3478
330
A
100
AcDbEntity
  8
03
100
AcDbCircle
 10
268.4823835813301
 20
196.8557338114267
 30
0.0
 40
1.6
100
AcDbArc
 50
270.0
 51
0.0
  0
ARC
  5
3479
330
A
100
AcDbEntity
  8
03
100
AcDbCircle
 10
269.0823835813302
 20
250.3557338114267
 30
0.0
 40
1.0
100
AcDbArc
 50
0.0
 51
90.0
  0
LINE
  5
347A
330
A
100
AcDbEntity
  8
03
100
AcDbLine
 10
270.9823835813301
 20
256.0557338114268
 30
0.0
 11
271.7823835813301
 21
256.0557338114268
 31
0.0
  0
LINE
  5
347B
330
A
100
AcDbEntity
  8
03
100
AcDbLine
 10
270.4823835813301
 20
255.5557338114268
 30
0.0
 11
270.4823835813301
 21
254.0557338114268
 31
0.0
  0
ARC
  5
347C
330
A
100
AcDbEntity
  8
03
100
AcDbCircle
 10
270.9823835813301
 20
255.5557338114268
 30
0.0
 40
0.5
100
AcDbArc
 50
90.0
 51
180.0
  0
LINE
  5
347D
330
A
100
AcDbEntity
  8
03
100
AcDbLine
 10
271.7823835813301
 20
256.0557338114268
 30
0.0
 11
274.7823835813302
 21
256.0557338114268
 31
0.0
  0
ARC
  5
347E
330
A
100
AcDbEntity
  8
03
100
AcDbCircle
 10
271.7823835813301
 20
255.5557338114268
 30
0.0
 40
0.5
100
AcDbArc
 50
0.0
 51
90.0
  0
LINE
  5
347F
330
A
100
AcDbEntity
  8
03
100
AcDbLine
 10
274.7823835813302
 20
179.7814981438418
 30
0.0
 11
274.7823835813302
 21
256.0557338114268
 31
0.0
  0
LINE
  5
3481
330
A
100
AcDbEntity
  8
03
100
AcDbLine
 10
232.7823835813301
 20
121.4846476421444
 30
0.0
 11
232.7823835813301
 21
79.48464764214441
 31
0.0
  0
LINE
  5
3482
330
A
100
AcDbEntity
  8
03
100
AcDbLine
 10
237.2823835813304
 20
78.98464764214441
 30
0.0
 11
233.2823835813304
 21
78.98464764214441
 31
0.0
  0
ARC
  5
3483
330
A
100
AcDbEntity
  8
03
100
AcDbCircle
 10
233.2823835813302
 20
79.48464764214441
 30
0.0
 40
0.5
100
AcDbArc
 50
180.0
 51
270.0
  0
ARC
  5
3487
330
A
100
AcDbEntity
  8
03
100
AcDbCircle
 10
237.2823835813302
 20
79.48464764214441
 30
0.0
 40
0.5
100
AcDbArc
 50
270.0
 51
0.0
  0
LINE
  5
349B
330
A
100
AcDbEntity
  8
03
100
AcDbLine
 10
233.2823835813304
 20
121.9846476421444
 30
0.0
 11
235.2823835813302
 21
121.9846476421444
 31
0.0
  0
ARC
  5
349C
330
A
100
AcDbEntity
  8
03
100
AcDbCircle
 10
233.2823835813302
 20
121.4846476421444
 30
0.0
 40
0.5
100
AcDbArc
 50
90.0
 51
180.0
  0
LINE
  5
349D
330
A
100
AcDbEntity
  8
03
100
AcDbLine
 10
237.4823835813303
 20
147.3450961921527
 30
0.0
 11
237.4823835813303
 21
123.7846476421445
 31
0.0
  0
LINE
  5
349E
330
A
100
AcDbEntity
  8
03
100
AcDbLine
 10
235.2823835813302
 20
121.9846476421444
 30
0.0
 11
235.2823835813302
 21
147.3450961921527
 31
0.0
  0
LINE
  5
34A1
330
A
100
AcDbEntity
  8
03
100
AcDbLine
 10
237.7823835813302
 20
79.48464764214441
 30
0.0
 11
237.7823835813301
 21
117.4846476421444
 31
0.0
  0
ARC
  5
34A4
330
A
100
AcDbEntity
  8
03
100
AcDbCircle
 10
239.0823835813303
 20
123.7846476421445
 30
0.0
 40
1.6
100
AcDbArc
 50
180.0
 51
270.0
  0
LINE
  5
34A7
330
A
100
AcDbEntity
  8
03
100
AcDbLine
 10
269.4823835813302
 20
119.9846476421444
 30
0.0
 11
240.2823835813303
 21
119.9846476421444
 31
0.0
  0
ARC
  5
34AC
330
A
100
AcDbEntity
  8
03
100
AcDbCircle
 10
240.2823835813301
 20
117.4846476421444
 30
0.0
 40
2.5
100
AcDbArc
 50
90.0
 51
180.0
  0
LINE
  5
34BB
330
A
100
AcDbEntity
  8
03
100
AcDbLine
 10
270.0823835813304
 20
147.3450961921527
 30
0.0
 11
270.0823835813304
 21
123.1846476421444
 31
0.0
  0
LINE
  5
34BC
330
A
100
AcDbEntity
  8
03
100
AcDbLine
 10
272.2823835813304
 20
147.3450961921527
 30
0.0
 11
272.2823835813304
 21
116.4846476421444
 31
0.0
  0
LINE
  5
34BD
330
A
100
AcDbEntity
  8
03
100
AcDbLine
 10
274.7823835813304
 20
147.3450961921527
 30
0.0
 11
274.7823835813304
 21
115.9846476421444
 31
0.0
  0
LINE
  5
34BE
330
A
100
AcDbEntity
  8
03
100
AcDbLine
 10
271.7823835813304
 20
115.9846476421444
 30
0.0
 11
270.9823835813302
 21
115.9846476421444
 31
0.0
  0
ARC
  5
34BF
330
A
100
AcDbEntity
  8
03
100
AcDbCircle
 10
269.4823835813301
 20
118.9846476421444
 30
0.0
 40
1.0
100
AcDbArc
 50
0.0
 51
90.0
  0
ARC
  5
34C0
330
A
100
AcDbEntity
  8
03
100
AcDbCircle
 10
270.9823835813301
 20
116.4846476421444
 30
0.0
 40
0.5
100
AcDbArc
 50
180.0
 51
270.0
  0
LINE
  5
34C1
330
A
100
AcDbEntity
  8
03
100
AcDbLine
 10
270.4823835813302
 20
116.4846476421444
 30
0.0
 11
270.4823835813302
 21
118.9846476421444
 31
0.0
  0
LINE
  5
34C2
330
A
100
AcDbEntity
  8
03
100
AcDbLine
 10
271.7823835813304
 20
115.9846476421444
 30
0.0
 11
274.7823835813304
 21
115.9846476421444
 31
0.0
  0
ARC
  5
34C3
330
A
100
AcDbEntity
  8
03
100
AcDbCircle
 10
271.7823835813303
 20
116.4846476421444
 30
0.0
 40
0.5
100
AcDbArc
 50
270.0
 51
0.0
  0
ARC
  5
34C4
330
A
100
AcDbEntity
  8
03
100
AcDbCircle
 10
269.0823835813302
 20
123.1846476421444
 30
0.0
 40
1.0
100
AcDbArc
 50
270.0
 51
0.0
  0
LINE
  5
3591
330
A
100
AcDbEntity
  8
06
 48
0.3
100
AcDbLine
 10
305.0323835813303
 20
339.0557338114267
 30
0.0
 11
309.0360561582585
 21
350.0557338114266
 31
0.0
  0
LINE
  5
3592
330
A
100
AcDbEntity
  8
06
 48
0.3
100
AcDbLine
 10
305.0323835813303
 20
339.0557338114267
 30
0.0
 11
321.5323835813303
 21
339.0557338114267
 31
0.0
  0
LINE
  5
35A1
330
A
100
AcDbEntity
  8
06
 48
0.3
100
AcDbLine
 10
321.5323835813303
 20
339.0557338114267
 30
0.0
 11
317.5287110044018
 21
350.0557338114266
 31
0.0
  0
LINE
  5
35A4
330
A
100
AcDbEntity
  8
06
 48
0.3
100
AcDbLine
 10
317.5287110044018
 20
350.0557338114266
 30
0.0
 11
309.0360561582585
 21
350.0557338114266
 31
0.0
  0
LINE
  5
35B3
330
A
100
AcDbEntity
  8
06
 48
0.3
100
AcDbLine
 10
305.0323835813303
 20
429.0557338114266
 30
0.0
 11
309.0360561582585
 21
418.0557338114267
 31
0.0
  0
LINE
  5
35B4
330
A
100
AcDbEntity
  8
06
 48
0.3
100
AcDbLine
 10
305.0323835813303
 20
429.0557338114266
 30
0.0
 11
321.5323835813303
 21
429.0557338114266
 31
0.0
  0
LINE
  5
35C7
330
A
100
AcDbEntity
  8
06
 48
0.3
100
AcDbLine
 10
317.5287110044018
 20
418.0557338114267
 30
0.0
 11
309.0360561582585
 21
418.0557338114267
 31
0.0
  0
LINE
  5
35C9
330
A
100
AcDbEntity
  8
06
 48
0.3
100
AcDbLine
 10
321.5323835813303
 20
429.0557338114266
 30
0.0
 11
317.5287110044018
 21
418.0557338114267
 31
0.0
  0
LINE
  5
35D7
330
A
100
AcDbEntity
  8
04
  6
CONTINUOUS
100
AcDbLine
 10
239.3823935397349
 20
363.055741379135
 30
0.0
 11
239.3823502667189
 21
361.7557420278428
 31
0.0
  0
LINE
  5
35D8
330
A
100
AcDbEntity
  8
04
  6
CONTINUOUS
100
AcDbLine
 10
240.9822797078529
 20
361.7557393576658
 30
0.0
 11
240.9823349987952
 21
361.5612865350442
 31
0.0
  0
LINE
  5
35D9
330
A
100
AcDbEntity
  8
04
  6
CONTINUOUS
100
AcDbLine
 10
240.9824174052606
 20
346.3557387866266
 30
0.0
 11
240.9824119819361
 21
346.5500987075112
 31
0.0
  0
LINE
  5
35DA
330
A
100
AcDbEntity
  8
04
  6
CONTINUOUS
100
AcDbLine
 10
239.3823146546171
 20
345.0557274659822
 30
0.0
 11
239.3823786852828
 21
346.3557415302592
 31
0.0
  0
LINE
  5
35E3
330
A
100
AcDbEntity
  8
04
  6
CONTINUOUS
100
AcDbLine
 10
299.2823835813301
 20
303.4019951673704
 30
0.0
 11
298.3874906640863
 21
305.8557338114262
 31
0.0
  0
LINE
  5
35E4
330
A
100
AcDbEntity
  8
04
  6
CONTINUOUS
100
AcDbLine
 10
299.2823835813301
 20
288.7094724554821
 30
0.0
 11
298.3874906640863
 21
286.2557338114262
 31
0.0
  0
LINE
  5
35E6
330
A
100
AcDbEntity
  8
04
  6
CONTINUOUS
100
AcDbLine
 10
275.203671913543
 20
303.9946523535602
 30
0.0
 11
274.9499517515233
 21
302.5557338114267
 31
0.0
  0
LINE
  5
35E8
330
A
100
AcDbEntity
  8
04
  6
CONTINUOUS
100
AcDbLine
 10
276.7793643183626
 20
303.7168152692933
 30
0.0
 11
276.5746343305405
 21
302.5557338114267
 31
0.0
  0
LINE
  5
35E9
330
A
100
AcDbEntity
  8
04
  6
CONTINUOUS
100
AcDbLine
 10
279.5036719135428
 20
303.9946523535602
 30
0.0
 11
279.2499517515233
 21
302.5557338114268
 31
0.0
  0
LINE
  5
35EA
330
A
100
AcDbEntity
  8
04
  6
CONTINUOUS
100
AcDbLine
 10
281.0793643183623
 20
303.7168152692933
 30
0.0
 11
280.8746343305404
 21
302.5557338114268
 31
0.0
  0
LINE
  5
35EB
330
A
100
AcDbEntity
  8
04
  6
CONTINUOUS
100
AcDbLine
 10
283.3036719135428
 20
303.9946523535602
 30
0.0
 11
283.0499517515231
 21
302.5557338114267
 31
0.0
  0
LINE
  5
35EC
330
A
100
AcDbEntity
  8
04
  6
CONTINUOUS
100
AcDbLine
 10
284.8793643183625
 20
303.7168152692933
 30
0.0
 11
284.6746343305403
 21
302.5557338114268
 31
0.0
  0
LINE
  5
35ED
330
A
100
AcDbEntity
  8
04
  6
CONTINUOUS
100
AcDbLine
 10
289.1793643183626
 20
303.7168152692931
 30
0.0
 11
288.9746343305404
 21
302.5557338114267
 31
0.0
  0
LINE
  5
35EE
330
A
100
AcDbEntity
  8
04
  6
CONTINUOUS
100
AcDbLine
 10
287.6036719135431
 20
303.9946523535602
 30
0.0
 11
287.3499517515231
 21
302.5557338114268
 31
0.0
  0
LINE
  5
35EF
330
A
100
AcDbEntity
  8
04
  6
CONTINUOUS
100
AcDbLine
 10
276.7328413710953
 20
288.2804914729358
 30
0.0
 11
276.957701002313
 21
289.5557338114263
 31
0.0
  0
LINE
  5
35F0
330
A
100
AcDbEntity
  8
04
  6
CONTINUOUS
100
AcDbLine
 10
278.3085337759148
 20
288.0026543886688
 30
0.0
 11
278.5823835813303
 21
289.5557338114264
 31
0.0
  0
LINE
  5
35F1
330
A
100
AcDbEntity
  8
04
  6
CONTINUOUS
100
AcDbLine
 10
280.5328413710956
 20
288.2804914729358
 30
0.0
 11
280.7577010023131
 21
289.5557338114264
 31
0.0
  0
LINE
  5
35F2
330
A
100
AcDbEntity
  8
04
  6
CONTINUOUS
100
AcDbLine
 10
282.1085337759151
 20
288.0026543886688
 30
0.0
 11
282.3823835813303
 21
289.5557338114262
 31
0.0
  0
LINE
  5
35F3
330
A
100
AcDbEntity
  8
04
  6
CONTINUOUS
100
AcDbLine
 10
286.4085337759151
 20
288.0026543886686
 30
0.0
 11
286.6823835813304
 21
289.5557338114272
 31
0.0
  0
LINE
  5
35F4
330
A
100
AcDbEntity
  8
04
  6
CONTINUOUS
100
AcDbLine
 10
284.8328413710955
 20
288.2804914729358
 30
0.0
 11
285.057701002313
 21
289.5557338114264
 31
0.0
  0
LINE
  5
35F5
330
A
100
AcDbEntity
  8
04
  6
CONTINUOUS
100
AcDbLine
 10
245.2823835813304
 20
271.6557338114268
 30
0.0
 11
246.0823835813306
 21
271.6557338114268
 31
0.0
  0
LINE
  5
35F6
330
A
100
AcDbEntity
  8
04
  6
CONTINUOUS
100
AcDbLine
 10
246.0823835813306
 20
273.6557338114268
 30
0.0
 11
246.2823835813304
 21
273.6557338114268
 31
0.0
  0
LINE
  5
35F7
330
A
100
AcDbEntity
  8
04
  6
CONTINUOUS
100
AcDbLine
 10
261.4823835813305
 20
273.6557338114268
 30
0.0
 11
261.2823835813304
 21
273.6557338114268
 31
0.0
  0
LINE
  5
35F8
330
A
100
AcDbEntity
  8
04
  6
CONTINUOUS
100
AcDbLine
 10
262.2823835813306
 20
271.6557338114268
 30
0.0
 11
261.4823835813305
 21
271.6557338114268
 31
0.0
  0
LINE
  5
35FD
330
A
100
AcDbEntity
  8
04
  6
CONTINUOUS
100
AcDbLine
 10
221.5323835813303
 20
305.5557338114267
 30
0.0
 11
221.8823835813303
 21
305.5557338114267
 31
0.0
  0
LINE
  5
35FE
330
A
100
AcDbEntity
  8
04
  6
CONTINUOUS
100
AcDbLine
 10
221.8823835813303
 20
304.0557338114266
 30
0.0
 11
222.0323835813303
 21
304.0557338114266
 31
0.0
  0
LINE
  5
3600
330
A
100
AcDbEntity
  8
04
  6
CONTINUOUS
100
AcDbLine
 10
209.6823835813301
 20
304.0557338114266
 30
0.0
 11
209.5323835813303
 21
304.0557338114266
 31
0.0
  0
LINE
  5
3601
330
A
100
AcDbEntity
  8
04
  6
CONTINUOUS
100
AcDbLine
 10
210.0323835813302
 20
305.5557338114267
 30
0.0
 11
209.6823835813301
 21
305.5557338114267
 31
0.0
  0
LINE
  5
360C
330
A
100
AcDbEntity
  8
04
  6
CONTINUOUS
100
AcDbLine
 10
193.7823835813303
 20
288.8557338114267
 30
0.0
 11
194.1635835813302
 21
288.8557338114267
 31
0.0
  0
LINE
  5
360D
330
A
100
AcDbEntity
  8
04
  6
CONTINUOUS
100
AcDbLine
 10
203.7823835813302
 20
288.8557338114267
 30
0.0
 11
203.4011835813301
 21
288.8557338114267
 31
0.0
  0
LINE
  5
361B
330
A
100
AcDbEntity
  8
03
  6
CONTINUOUS
100
AcDbLine
 10
248.7823835813303
 20
80.18464764214446
 30
0.0
 11
241.7823835813301
 21
80.18464764214446
 31
0.0
  0
LINE
  5
361C
330
A
100
AcDbEntity
  8
03
  6
CONTINUOUS
100
AcDbLine
 10
263.7823835813303
 20
80.18464764214446
 30
0.0
 11
270.7823835813301
 21
80.18464764214446
 31
0.0
  0
MTEXT
  5
36EA
330
A
100
AcDbEntity
  8
MOJI
100
AcDbMText
 10
371.7801955719391
 20
110.2595199659309
 30
0.0
 40
5.0
 41
0.0
 71
     5
 72
     1
  1
F.L
  7
0_8
1001
ACAD
1000
MTEXTBEGIN
1070
    73
1070
     1
1070
    44
1040
1.0
1070
    74
1070
     0
1000
MTEXTEND
1000
MTEXTBEGIN
1070
    73
1070
     1
1070
    44
1040
1.0
1070
    74
1070
     0
1000
MTEXTEND
  0
LINE
  5
36F4
330
A
100
AcDbEntity
  8
03
  6
CONTINUOUS
100
AcDbLine
 10
239.0823835813303
 20
122.1846476421445
 30
0.0
 11
269.0823835813302
 21
122.1846476421444
 31
0.0
  0
LINE
  5
36F7
330
A
100
AcDbEntity
  8
03
  6
CONTINUOUS
100
AcDbLine
 10
209.7823835813303
 20
227.8557338114266
 30
0.0
 11
213.0323835813301
 21
228.0557338114267
 31
0.0
  0
LINE
  5
36F8
330
A
100
AcDbEntity
  8
03
  6
CONTINUOUS
100
AcDbLine
 10
217.0323835813301
 20
232.3557338114266
 30
0.0
 11
217.0823835813302
 21
234.8557338114266
 31
0.0
  0
LINE
  5
36F9
330
A
100
AcDbEntity
  8
03
  6
CONTINUOUS
100
AcDbLine
 10
161.2823807693795
 20
573.055714655012
 30
0.0
 11
162.5823807693795
 21
573.055714655012
 31
0.0
  0
ARC
  5
36FA
330
A
100
AcDbEntity
  8
03
100
AcDbCircle
 10
181.7823807693794
 20
545.8557146550121
 30
0.0
 40
1.0
100
AcDbArc
 50
270.0
 51
0.000000000000007
  0
MTEXT
  5
3701
330
A
100
AcDbEntity
  8
MOJI
100
AcDbMText
 10
36.18498902331316
 20
76.0479645452949
 30
0.0
 40
6.0
 41
70.0
 71
     4
 72
     1
  1
片引扉質量　70kg×1\P両引扉質量　70kg×2
1001
ACAD
1000
MTEXTBEGIN
1070
    73
1070
     1
1070
    44
1040
1.0
1070
    74
1070
     0
1000
MTEXTEND
1000
MTEXTBEGIN
1070
    73
1070
     1
1070
    44
1040
1.0
1070
    74
1070
     0
1000
MTEXTEND
  0
LINE
  5
370D
330
A
100
AcDbEntity
  8
02
  6
CONTINUOUS
100
AcDbLine
 10
213.3823835813301
 20
447.8557338114267
 30
0.0
 11
225.7823835813303
 21
447.8557338114267
 31
0.0
  0
LINE
  5
371A
330
A
100
AcDbEntity
  8
KAKURE
  6
CONTINUOUS
100
AcDbLine
 10
231.7823835813303
 20
358.0557338114267
 30
0.0
 11
225.7823835813303
 21
358.0557338114267
 31
0.0
  0
LINE
  5
371B
330
A
100
AcDbEntity
  8
KAKURE
  6
CONTINUOUS
100
AcDbLine
 10
225.7823835813303
 20
357.3057338114267
 30
0.0
 11
231.7823835813303
 21
357.3057338114267
 31
0.0
  0
LINE
  5
371C
330
A
100
AcDbEntity
  8
KAKURE
  6
CONTINUOUS
100
AcDbLine
 10
231.7823835813303
 20
350.8057338114267
 30
0.0
 11
225.7823835813303
 21
350.8057338114269
 31
0.0
  0
LINE
  5
371D
330
A
100
AcDbEntity
  8
KAKURE
  6
CONTINUOUS
100
AcDbLine
 10
225.7823835813303
 20
350.0557338114266
 30
0.0
 11
231.7823835813303
 21
350.0557338114266
 31
0.0
  0
LEADER
  5
371E
330
A
100
AcDbEntity
  8
HIKIDASI
  6
CONTINUOUS
100
AcDbLeader
  3
SUNPOU_2
 73
     0
 75
     1
 40
13.33333333333333
 41
28.0
 76
     3
 10
228.7823835813302
 20
350.0557338114266
 30
0.0
 10
230.2706428462091
 20
340.1317495820517
 30
0.0
 10
225.2706428462091
 20
340.1317495820517
 30
0.0
340
371F
213
0.0
223
8.195057329618521
233
0.0
1001
ACAD
1000
DSTYLE
1002
{
1070
     5
1000
OPEN30
1070
    77
1070
     1
1070
   147
1040
1.0
1070
   342
1005
295B
1002
}
1000
LEANOF
1010
0.0
1020
8.195057329618521
1030
0.0
1000
LEANOF
1010
0.0
1020
8.195057329618521
1030
0.0
  0
MTEXT
  5
371F
330
A
100
AcDbEntity
  8
HIKIDASI
  6
CONTINUOUS
 62
     6
100
AcDbMText
 10
195.2706428462093
 20
333.9366922524332
 30
0.0
 40
5.0
 41
0.0
 71
     7
 72
     1
  1
M8タップ\P(サッシ工事)
  7
SUNPOU
1001
ACAD
1000
MTEXTBEGIN
1070
    73
1070
     1
1070
    44
1040
1.0
1070
    74
1070
     0
1000
MTEXTEND
1000
MTEXTBEGIN
1070
    73
1070
     1
1070
    44
1040
1.0
1070
    74
1070
     0
1000
MTEXTEND
  0
LINE
  5
3724
330
A
100
AcDbEntity
  8
02
100
AcDbLine
 10
208.7823835813301
 20
332.5636180777348
 30
0.0
 11
208.7823835813301
 21
327.0557338114266
 31
0.0
  0
LINE
  5
3725
330
A
100
AcDbEntity
  8
02
100
AcDbLine
 10
202.7823835813301
 20
348.2783945167032
 30
0.0
 11
202.7823835813301
 21
365.0557338114267
 31
0.0
  0
LINE
  5
373D
330
A
100
AcDbEntity
  8
SAISEN
100
AcDbLine
 10
294.9325407373693
 20
152.3450961921527
 30
0.0
 11
146.4699446851323
 21
152.3450961921527
 31
0.0
  0
LINE
  5
373E
330
A
100
AcDbEntity
  8
SAISEN
100
AcDbLine
 10
294.9325407373693
 20
174.7814981438418
 30
0.0
 11
146.4699446851323
 21
174.7814981438418
 31
0.0
  0
LINE
  5
3740
330
A
100
AcDbEntity
  8
03
100
AcDbLine
 10
247.5823835813303
 20
152.3450961921527
 30
0.0
 11
247.5823835813303
 21
174.7814981438418
 31
0.0
  0
LINE
  5
3741
330
A
100
AcDbEntity
  8
03
100
AcDbLine
 10
253.9823835813301
 20
174.7814981438418
 30
0.0
 11
253.9823835813301
 21
152.3450961921527
 31
0.0
  0
LINE
  5
3742
330
A
100
AcDbEntity
  8
03
  6
CONTINUOUS
100
AcDbLine
 10
160.7823835813301
 20
174.7814981438418
 30
0.0
 11
160.7823835813301
 21
152.3450961921527
 31
0.0
  0
LINE
  5
3743
330
A
100
AcDbEntity
  8
03
  6
CONTINUOUS
100
AcDbLine
 10
225.7823835813303
 20
174.7814981438418
 30
0.0
 11
225.7823835813303
 21
152.3450961921527
 31
0.0
  0
CIRCLE
  5
3746
330
A
100
AcDbEntity
  8
03
  6
CONTINUOUS
100
AcDbCircle
 10
193.2823835813301
 20
163.5632971679972
 30
0.0
 40
6.0
  0
LINE
  5
3747
330
A
100
AcDbEntity
  8
CHUSIN
 48
0.5
100
AcDbLine
 10
179.8659200223739
 20
163.5632971679972
 30
0.0
 11
206.6988471402865
 21
163.5632971679972
 31
0.0
  0
DIMENSION
  5
3755
330
A
100
AcDbEntity
  8
SUNPOU
  6
CONTINUOUS
100
AcDbDimension
  2
*D29
 10
94.22467356344489
 20
163.5632971679972
 30
0.0
 11
89.72467356344486
 21
133.7739724050709
 31
0.0
 70
    32
  1
600
  3
SUNPOU_2
100
AcDbAlignedDimension
 13
115.7926352788926
 23
103.9846476421444
 33
0.0
 14
179.8659200223739
 24
163.5632971679972
 34
0.0
 50
90.0
100
AcDbRotatedDimension
  0
LEADER
  5
3774
330
A
100
AcDbEntity
  8
HIKIDASI
  6
CONTINUOUS
100
AcDbLeader
  3
SUNPOU_2
 73
     0
 75
     1
 40
13.33333333333333
 41
62.93333333333333
 76
     3
 10
193.2823835813301
 20
163.5632971679972
 30
0.0
 10
151.6384788886711
 20
193.450110298599
 30
0.0
 10
146.6384788886711
 20
193.450110298599
 30
0.0
340
3775
213
0.0
223
8.456596093008784
233
0.0
1001
ACAD
1000
DSTYLE
1002
{
1070
     5
1000
OPEN30
1070
    77
1070
     1
1070
   147
1040
1.0
1070
   342
1005
295B
1002
}
1000
LEANOF
1010
0.0
1020
8.456596093008784
1030
0.0
1000
LEANOF
1010
0.0
1020
8.456596093008784
1030
0.0
  0
MTEXT
  5
3775
330
A
100
AcDbEntity
  8
HIKIDASI
  6
CONTINUOUS
 62
     6
100
AcDbMText
 10
113.1718122220044
 20
193.6601808722569
 30
0.0
 40
5.0
 41
0.0
 71
     5
 72
     1
  1
補助光電スイッチ取付穴φ12\P(サッシ工事)
  7
SUNPOU
1001
ACAD
1000
MTEXTBEGIN
1070
    73
1070
     1
1070
    44
1040
1.0
1070
    74
1070
     0
1000
MTEXTEND
1000
MTEXTBEGIN
1070
    73
1070
     1
1070
    44
1040
1.0
1070
    74
1070
     0
1000
MTEXTEND
  0
LINE
  5
3780
330
A
100
AcDbEntity
  8
KAKURE
 48
0.3
100
AcDbLine
 10
187.2823835813303
 20
226.0557338114267
 30
0.0
 11
187.2823835813303
 21
247.8557338114267
 31
0.0
1001
ACAD
1000
ASC_BOUNDS
1002
{
1070
    19
1005
3837
1005
3837
1002
}
  0
LINE
  5
3781
330
A
100
AcDbEntity
  8
KAKURE
 48
0.3
100
AcDbLine
 10
199.2823835813301
 20
226.0557338114267
 30
0.0
 11
199.2823835813301
 21
247.8557338114267
 31
0.0
1001
ACAD
1000
ASC_BOUNDS
1002
{
1070
    19
1005
3837
1005
3837
1002
}
  0
LEADER
  5
3792
330
A
100
AcDbEntity
  8
HIKIDASI
  6
CONTINUOUS
100
AcDbLeader
  3
SUNPOU_2
 73
     0
 75
     1
 40
13.33333333333333
 41
43.73333333333333
 76
     3
 10
187.2823835813303
 20
226.0557338114267
 30
0.0
 10
155.4694937341591
 20
213.2578313349589
 30
0.0
 10
150.469493734159
 20
213.2578313349589
 30
0.0
340
3793
213
0.0
223
8.671672868037376
233
0.0
1001
ACAD
1000
DSTYLE
1002
{
1070
     5
1000
OPEN30
1070
    77
1070
     1
1070
   147
1040
1.0
1070
   342
1005
295B
1002
}
1000
LEANOF
1010
0.0
1020
8.671672868037376
1030
0.0
1000
LEANOF
1010
0.0
1020
8.671672868037376
1030
0.0
  0
MTEXT
  5
3793
330
A
100
AcDbEntity
  8
HIKIDASI
  6
CONTINUOUS
 62
     6
100
AcDbMText
 10
126.6028270674925
 20
213.2528251335881
 30
0.0
 40
5.0
 41
0.0
 71
     5
 72
     1
  1
方立上部φ12穴加工\P(サッシ工事)
  7
SUNPOU
1001
ACAD
1000
MTEXTBEGIN
1070
    73
1070
     1
1070
    44
1040
1.0
1070
    74
1070
     0
1000
MTEXTEND
1000
MTEXTBEGIN
1070
    73
1070
     1
1070
    44
1040
1.0
1070
    74
1070
     0
1000
MTEXTEND
  0
LINE
  5
379F
330
A
100
AcDbEntity
  8
06
  6
CONTINUOUS
100
AcDbLine
 10
209.5323835813303
 20
283.8557338114267
 30
0.0
 11
209.5323835813303
 21
283.4557338114267
 31
0.0
  0
LINE
  5
37A0
330
A
100
AcDbEntity
  8
06
  6
CONTINUOUS
100
AcDbLine
 10
222.0323835813303
 20
283.8557338114267
 30
0.0
 11
222.0323835813303
 21
283.4557338114267
 31
0.0
  0
LINE
  5
37AB
330
A
100
AcDbEntity
  8
02
100
AcDbLine
 10
208.7823835813301
 20
365.0557338114267
 30
0.0
 11
208.7823835813301
 21
348.2783945167032
 31
0.0
  0
LINE
  5
37AC
330
A
100
AcDbEntity
  8
02
100
AcDbLine
 10
202.7823835813301
 20
371.0557338114266
 30
0.0
 11
202.7823835813301
 21
441.8557338114267
 31
0.0
  0
LINE
  5
37AD
330
A
100
AcDbEntity
  8
KAKURE
 48
0.3
100
AcDbLine
 10
202.7823835813301
 20
365.0557338114267
 30
0.0
 11
202.7823835813301
 21
371.0557338114266
 31
0.0
  0
LINE
  5
37AE
330
A
100
AcDbEntity
  8
KAKURE
 48
0.3
100
AcDbLine
 10
208.7823835813301
 20
365.0557338114267
 30
0.0
 11
208.7823835813301
 21
371.0557338114266
 31
0.0
  0
LINE
  5
37B0
330
A
100
AcDbEntity
  8
KAKURE
 48
0.3
100
AcDbLine
 10
202.7823835813301
 20
441.8557338114267
 30
0.0
 11
202.7823835813301
 21
447.8557338114267
 31
0.0
  0
LINE
  5
37B1
330
A
100
AcDbEntity
  8
KAKURE
 48
0.3
100
AcDbLine
 10
208.7823835813301
 20
441.8557338114267
 30
0.0
 11
208.7823835813301
 21
447.8557338114267
 31
0.0
  0
LINE
  5
37B2
330
A
100
AcDbEntity
  8
04
100
AcDbLine
 10
224.7823835813302
 20
295.0557338114267
 30
0.0
 11
232.2823835813304
 21
295.0557338114267
 31
0.0
  0
LINE
  5
37B3
330
A
100
AcDbEntity
  8
06
100
AcDbLine
 10
194.3182819661925
 20
294.5557338114267
 30
0.0
 11
194.3182819661925
 21
293.330049743927
 31
0.0
  0
LINE
  5
37D5
330
A
100
AcDbEntity
  8
06
100
AcDbLine
 10
225.7823835813304
 20
286.8557338114263
 30
0.0
 11
225.7823835813304
 21
295.0557338114267
 31
0.0
  0
LINE
  5
37D8
330
A
100
AcDbEntity
  8
06
100
AcDbLine
 10
228.2823835813303
 20
286.8557338114263
 30
0.0
 11
225.7823835813304
 21
286.8557338114263
 31
0.0
  0
LINE
  5
37DB
330
A
100
AcDbEntity
  8
06
100
AcDbLine
 10
224.8874906713303
 20
286.2557338114261
 30
0.0
 11
223.7823835813303
 21
286.2557338114261
 31
0.0
  0
ARC
  5
37DF
330
A
100
AcDbEntity
  8
06
100
AcDbCircle
 10
221.970940601331
 20
288.7094724614259
 30
0.0
 40
3.811442989999358
100
AcDbArc
 50
319.9255796599966
 51
359.9958495701509
  0
LINE
  5
37FA
330
A
100
AcDbEntity
  8
06
100
AcDbLine
 10
206.7823835813301
 20
283.4557338114267
 30
0.0
 11
224.7823835813302
 21
283.4557338114267
 31
0.0
  0
LINE
  5
3814
330
A
100
AcDbEntity
  8
03
100
AcDbLine
 10
185.4823835813301
 20
246.0557338114266
 30
0.0
 11
186.4823835813302
 21
246.0557338114266
 31
0.0
  0
LINE
  5
3817
330
A
100
AcDbEntity
  8
03
100
AcDbLine
 10
201.0823835813303
 20
246.0557338114266
 30
0.0
 11
200.0823835813303
 21
246.0557338114266
 31
0.0
  0
LINE
  5
381A
330
A
100
AcDbEntity
  8
03
100
AcDbLine
 10
201.0823835813303
 20
229.0557338114266
 30
0.0
 11
201.0823835813303
 21
246.0557338114266
 31
0.0
  0
LINE
  5
381B
330
A
100
AcDbEntity
  8
03
100
AcDbLine
 10
200.0823835813303
 20
228.2557338114266
 30
0.0
 11
200.0823835813303
 21
246.0557338114266
 31
0.0
  0
LINE
  5
381C
330
A
100
AcDbEntity
  8
03
100
AcDbLine
 10
186.4823835813302
 20
246.0557338114266
 30
0.0
 11
186.4823835813302
 21
228.2557338114266
 31
0.0
  0
LINE
  5
381D
330
A
100
AcDbEntity
  8
03
100
AcDbLine
 10
185.4823835813303
 20
229.0557338114266
 30
0.0
 11
185.4823835813301
 21
246.0557338114266
 31
0.0
  0
ARC
  5
381E
330
A
100
AcDbEntity
  8
03
100
AcDbCircle
 10
187.4823835813302
 20
228.2557338114266
 30
0.0
 40
1.0
100
AcDbArc
 50
180.0
 51
270.0
1001
ACAD
1000
ASC_BOUNDS
1002
{
1070
    19
1005
3837
1002
}
  0
LINE
  5
381F
330
A
100
AcDbEntity
  8
03
100
AcDbLine
 10
184.2823835813301
 20
226.0557338114267
 30
0.0
 11
184.2823835813301
 21
228.0557338114267
 31
0.0
  0
ARC
  5
3820
330
A
100
AcDbEntity
  8
03
100
AcDbCircle
 10
184.4823835813303
 20
229.0557338114266
 30
0.0
 40
1.0
100
AcDbArc
 50
270.0
 51
0.0
  0
LINE
  5
3821
330
A
100
AcDbEntity
  8
03
100
AcDbLine
 10
184.2823835813301
 20
228.0557338114267
 30
0.0
 11
184.4823835813303
 21
228.0557338114267
 31
0.0
  0
LINE
  5
3822
330
A
100
AcDbEntity
  8
03
100
AcDbLine
 10
187.4823835813302
 20
227.2557338114267
 30
0.0
 11
199.0823835813301
 21
227.2557338114267
 31
0.0
1001
ACAD
1000
ASC_BOUNDS
1002
{
1070
    19
1005
3837
1002
}
  0
LINE
  5
3823
330
A
100
AcDbEntity
  8
03
100
AcDbLine
 10
184.2823835813301
 20
226.0557338114267
 30
0.0
 11
202.2823835813301
 21
226.0557338114267
 31
0.0
1001
ACAD
1000
ASC_BOUNDS
1002
{
1070
    19
1005
3837
1002
}
  0
LINE
  5
3824
330
A
100
AcDbEntity
  8
03
100
AcDbLine
 10
202.2823835813301
 20
226.0557338114267
 30
0.0
 11
202.2823835813301
 21
228.0557338114267
 31
0.0
  0
LINE
  5
3825
330
A
100
AcDbEntity
  8
03
100
AcDbLine
 10
202.2823835813301
 20
228.0557338114267
 30
0.0
 11
202.0823835813303
 21
228.0557338114267
 31
0.0
  0
ARC
  5
3826
330
A
100
AcDbEntity
  8
03
100
AcDbCircle
 10
199.0823835813301
 20
228.2557338114266
 30
0.0
 40
1.0
100
AcDbArc
 50
270.0
 51
0.0
1001
ACAD
1000
ASC_BOUNDS
1002
{
1070
    19
1005
3837
1002
}
  0
ARC
  5
3827
330
A
100
AcDbEntity
  8
03
100
AcDbCircle
 10
202.0823835813303
 20
229.0557338114266
 30
0.0
 40
1.0
100
AcDbArc
 50
180.0
 51
270.0
  0
INSERT
  5
3837
330
A
100
AcDbEntity
  8
06
  6
CONTINUOUS
100
AcDbBlockReference
  2
*X30
 10
0.0
 20
0.0
 30
0.0
1001
ACAD
1000
HATCH
1002
{
1070
    19
1000
ANSI31
1040
15.0
1040
0.0
1000
ASC_BOUNDS
1070
     2
1070
     1
1070
     4
1005
3781
1005
3287
1005
3780
1005
3288
1070
     1
1070
     6
1005
3781
1005
3823
1005
3780
1005
381E
1005
3822
1005
3826
1000
ASC_SEEDPOINT
1011
191.7892227173879
1021
226.5490453816616
1031
0.0
1000
R14_HATCH_DATA
1000
3837
1011
1.0
1021
0.0
1031
0.0
1011
0.0
1021
1.0
1031
0.0
1011
0.0
1021
0.0
1031
1.0
1040
0.0
1010
0.0
1020
0.0
1030
1.0
1000
ANSI31
1070
     0
1070
     1
1071
        2
1071
        7
1070
     1
1070
     1
1071
        6
1040
199.2823835813301
1040
227.2759379143133
1040
-0.0503820444848596
1040
199.0823835813302
1040
227.2557338114267
1040
0.0
1040
187.4823835813302
1040
227.2557338114267
1040
-0.0503820444848817
1040
187.2823835813303
1040
227.2759379143133
1040
0.0
1040
187.2823835813303
1040
226.0557338114267
1040
0.0
1040
199.2823835813301
1040
226.0557338114267
1040
0.0
1071
        6
1005
3826
1005
3822
1005
381E
1005
3780
1005
3823
1005
3781
1071
        7
1070
     0
1070
     1
1071
        4
1040
199.2823835813301
1040
247.8557338114267
1040
187.2823835813303
1040
247.8557338114267
1040
187.2823835813303
1040
246.0557338114266
1040
199.2823835813301
1040
246.0557338114266
1071
        4
1005
3288
1005
3780
1005
3287
1005
3781
1070
     0
1070
     1
1040
0.0
1040
15.0
1070
     0
1070
     1
1040
0.7853981633974483
1040
0.0
1040
0.0
1040
-1.325825214724775
1040
1.325825214724775
1070
     0
1040
0.0814942609242227
1071
        2
1040
191.7892227173879
1040
226.5490453816616
1040
0.0
1040
192.7678257539396
1040
246.6781276096575
1040
0.0
1002
}
  0
LINE
  5
3847
330
A
100
AcDbEntity
  8
04
100
AcDbLine
 10
210.8823835813301
 20
289.3557338114267
 30
0.0
 11
210.2823835813302
 21
289.3557338114267
 31
0.0
  0
ARC
  5
384A
330
A
100
AcDbEntity
  8
04
100
AcDbCircle
 10
211.4757592543045
 20
307.1877486632351
 30
0.0
 40
2.367985148191507
100
AcDbArc
 50
90.00000000000616
 51
127.5560664448885
  0
ARC
  5
384C
330
A
100
AcDbEntity
  8
04
100
AcDbCircle
 10
248.1587719561971
 20
276.2683810589478
 30
0.0
 40
2.887352752479046
100
AcDbArc
 50
90.00000000000447
 51
130.5313949418924
  0
LEADER
  5
3887
330
A
100
AcDbEntity
  8
HIKIDASI
100
AcDbLeader
  3
SUNPOU_2
 73
     0
 74
     0
 75
     1
 40
5.0
 41
35.20000000000002
 76
     3
 10
279.7823835813303
 20
126.8782791842493
 30
0.0
 10
327.7745608732913
 20
179.8704564762104
 30
0.0
 10
332.7745608732913
 20
179.8704564762104
 30
0.0
340
3888
1001
ACAD
1000
DSTYLE
1002
{
1070
     5
1000
OPEN30
1070
    77
1070
     1
1070
   147
1040
1.0
1070
   342
1005
295B
1002
}
1000
LEANOF
1010
0.0
1020
0.0
1030
0.0
1000
LEANOF
1010
0.0
1020
0.0
1030
0.0
  0
MTEXT
  5
3888
330
A
100
AcDbEntity
  8
HIKIDASI
 62
     6
100
AcDbMText
 10
334.7745608732913
 20
181.8704564762104
 30
0.0
 40
5.0
 41
0.0
 71
     7
 72
     1
  1
全開時5mm移動
  7
SUNPOU
1001
ACAD
1000
MTEXTBEGIN
1070
    73
1070
     1
1070
    44
1040
1.0
1070
    74
1070
     0
1000
MTEXTEND
1000
MTEXTBEGIN
1070
    73
1070
     1
1070
    44
1040
1.0
1070
    74
1070
     0
1000
MTEXTEND
  0
LEADER
  5
3889
330
A
100
AcDbEntity
  8
HIKIDASI
100
AcDbLeader
  3
SUNPOU_2
 76
     2
 10
258.7823835813302
 20
157.6777803538551
 30
0.0
 10
327.7745608732913
 20
179.8704564762104
 30
0.0
1001
ACAD
1000
DSTYLE
1002
{
1070
     5
1000
OPEN30
1070
   342
1005
295B
1002
}
1000
LEANOF
1010
0.0
1020
0.0
1030
0.0
1000
LEANOF
1010
0.0
1020
0.0
1030
0.0
  0
LEADER
  5
388A
330
A
100
AcDbEntity
  8
HIKIDASI
100
AcDbLeader
  3
SUNPOU_2
 76
     2
 10
279.7823835813303
 20
205.1015603502662
 30
0.0
 10
327.7745608732913
 20
179.8704564762104
 30
0.0
1001
ACAD
1000
DSTYLE
1002
{
1070
     5
1000
OPEN30
1070
   342
1005
295B
1002
}
1000
LEANOF
1010
0.0
1020
0.0
1030
0.0
1000
LEANOF
1010
0.0
1020
0.0
1030
0.0
  0
LINE
  5
388B
330
A
100
AcDbEntity
  8
KAKURE
100
AcDbLine
 10
276.7823835813302
 20
115.9846476421444
 30
0.0
 11
279.7823835813303
 21
115.9846476421444
 31
0.0
  0
LINE
  5
388C
330
A
100
AcDbEntity
  8
KAKURE
100
AcDbLine
 10
279.7823835813303
 20
147.3450961921527
 30
0.0
 11
279.7823835813303
 21
115.9846476421444
 31
0.0
  0
ARC
  5
388D
330
A
100
AcDbEntity
  8
KAKURE
100
AcDbCircle
 10
274.4823835813301
 20
118.9846476421444
 30
0.0
 40
1.0
100
AcDbArc
 50
0.0
 51
72.54239687626697
  0
ARC
  5
388E
330
A
100
AcDbEntity
  8
KAKURE
100
AcDbCircle
 10
275.9823835813301
 20
116.4846476421444
 30
0.0
 40
0.5
100
AcDbArc
 50
180.0
 51
270.0
  0
LINE
  5
388F
330
A
100
AcDbEntity
  8
KAKURE
100
AcDbLine
 10
275.4823835813301
 20
116.4846476421444
 30
0.0
 11
275.4823835813301
 21
118.9846476421444
 31
0.0
  0
LINE
  5
3890
330
A
100
AcDbEntity
  8
KAKURE
100
AcDbLine
 10
276.7823835813302
 20
115.9846476421444
 30
0.0
 11
275.9823835813301
 21
115.9846476421444
 31
0.0
  0
ARC
  5
3891
330
A
100
AcDbEntity
  8
KAKURE
100
AcDbCircle
 10
245.2823835813301
 20
117.4846476421444
 30
0.0
 40
2.5
100
AcDbArc
 50
90.0
 51
180.0
  0
LINE
  5
3892
330
A
100
AcDbEntity
  8
KAKURE
100
AcDbLine
 10
242.78238358133
 20
115.9846476421444
 30
0.0
 11
242.78238358133
 21
117.4846476421444
 31
0.0
  0
LINE
  5
3893
330
A
100
AcDbEntity
  8
KAKURE
100
AcDbLine
 10
242.78238358133
 20
79.48464764214441
 30
0.0
 11
242.78238358133
 21
115.9846476421444
 31
0.0
  0
LINE
  5
3894
330
A
100
AcDbEntity
  8
KAKURE
100
AcDbLine
 10
242.2823835813303
 20
78.98464764214441
 30
0.0
 11
238.2823835813303
 21
78.98464764214441
 31
0.0
  0
LINE
  5
3895
330
A
100
AcDbEntity
  8
03
100
AcDbLine
 10
241.7823835813301
 20
78.98464764214418
 30
0.0
 11
236.7823835813303
 21
78.98464764214441
 31
0.0
  0
ARC
  5
3896
330
A
100
AcDbEntity
  8
KAKURE
100
AcDbCircle
 10
242.28238358133
 20
79.48464764214441
 30
0.0
 40
0.5
100
AcDbArc
 50
270.0
 51
0.0
  0
LINE
  5
3897
330
A
100
AcDbEntity
  8
CHUSIN
100
AcDbLine
 10
258.7823835813301
 20
407.1245529497963
 30
0.0
 11
258.7823835813302
 21
114.0223886120093
 31
0.0
  0
LINE
  5
3898
330
A
100
AcDbEntity
  8
KAKURE
100
AcDbLine
 10
279.7823835813303
 20
179.7814981438418
 30
0.0
 11
279.7823835813303
 21
256.0557338114268
 31
0.0
  0
ARC
  5
3899
330
A
100
AcDbEntity
  8
KAKURE
100
AcDbCircle
 10
275.9823835813302
 20
255.5557338114268
 30
0.0
 40
0.5
100
AcDbArc
 50
90.0
 51
180.0
  0
LINE
  5
389A
330
A
100
AcDbEntity
  8
KAKURE
100
AcDbLine
 10
274.7823835813302
 20
254.0557338114268
 30
0.0
 11
275.4823835813303
 21
254.0557338114268
 31
0.0
  0
LINE
  5
389B
330
A
100
AcDbEntity
  8
KAKURE
100
AcDbLine
 10
275.4823835813303
 20
255.5557338114268
 30
0.0
 11
275.4823835813303
 21
254.0557338114268
 31
0.0
  0
LINE
  5
389C
330
A
100
AcDbEntity
  8
KAKURE
100
AcDbLine
 10
276.7823835813302
 20
256.0557338114268
 30
0.0
 11
279.7823835813303
 21
256.0557338114268
 31
0.0
  0
LINE
  5
389D
330
A
100
AcDbEntity
  8
KAKURE
100
AcDbLine
 10
275.9823835813302
 20
256.0557338114268
 30
0.0
 11
276.7823835813302
 21
256.0557338114268
 31
0.0
  0
LINE
  5
389E
330
A
100
AcDbEntity
  8
KAKURE
100
AcDbLine
 10
271.2823835813301
 20
256.0557338114268
 30
0.0
 11
271.2823835813301
 21
265.0557338114268
 31
0.0
  0
LINE
  5
389F
330
A
100
AcDbEntity
  8
KAKURE
100
AcDbLine
 10
271.2823835813301
 20
265.0557338114268
 30
0.0
 11
273.2823835813301
 21
265.0557338114268
 31
0.0
  0
LINE
  5
38A0
330
A
100
AcDbEntity
  8
KAKURE
100
AcDbLine
 10
273.2823835813301
 20
265.0557338114268
 30
0.0
 11
273.2823835813301
 21
270.0557338114268
 31
0.0
  0
LINE
  5
38A1
330
A
100
AcDbEntity
  8
KAKURE
100
AcDbLine
 10
273.2823835813301
 20
270.0557338114268
 30
0.0
 11
294.2823835813303
 21
270.0557338114268
 31
0.0
  0
ARC
  5
38A2
330
A
100
AcDbEntity
  8
KAKURE
100
AcDbCircle
 10
294.2823835813303
 20
275.0557338114268
 30
0.0
 40
5.0
100
AcDbArc
 50
270.0
 51
0.0
  0
LINE
  5
38A3
330
A
100
AcDbEntity
  8
KAKURE
100
AcDbLine
 10
299.2823835813301
 20
275.0557338114268
 30
0.0
 11
299.2823835813301
 21
310.0557338114268
 31
0.0
  0
LINE
  5
38A4
330
A
100
AcDbEntity
  8
KAKURE
100
AcDbLine
 10
299.2823835813301
 20
286.2557338114262
 30
0.0
 11
303.3874906640864
 21
286.2557338114262
 31
0.0
  0
LINE
  5
38A5
330
A
100
AcDbEntity
  8
KAKURE
100
AcDbLine
 10
304.2823835813301
 20
303.4019951673704
 30
0.0
 11
304.2823835813301
 21
288.7094724554821
 31
0.0
  0
ARC
  5
38A6
330
A
100
AcDbEntity
  8
KAKURE
100
AcDbCircle
 10
300.4709405945671
 20
288.7094724554821
 30
0.0
 40
3.81144298676312
100
AcDbArc
 50
319.925579661612
 51
0.0
  0
ARC
  5
38A7
330
A
100
AcDbEntity
  8
KAKURE
100
AcDbCircle
 10
300.4709405945671
 20
303.4019951673704
 30
0.0
 40
3.811442986763128
100
AcDbArc
 50
0.0
 51
40.07442033838792
  0
LINE
  5
38A8
330
A
100
AcDbEntity
  8
KAKURE
100
AcDbLine
 10
299.2823835813301
 20
305.8557338114262
 30
0.0
 11
303.3874906640864
 21
305.8557338114262
 31
0.0
  0
LINE
  5
38A9
330
A
100
AcDbEntity
  8
KAKURE
100
AcDbLine
 10
299.2823835813301
 20
310.0557338114268
 30
0.0
 11
294.2823835813303
 21
310.0557338114268
 31
0.0
  0
MTEXT
  5
3912
330
A
100
AcDbEntity
  8
MOJI
100
AcDbMText
 10
360.9999999999967
 20
28.5
 30
0.0
 40
7.0
 41
49.99999999999994
 71
     5
 72
     1
  1
たて断面図　
  7
0_80
1001
ACAD
1000
MTEXTBEGIN
1070
    73
1070
     1
1070
    44
1040
1.0
1070
    74
1070
     0
1000
MTEXTEND
1000
MTEXTBEGIN
1070
    73
1070
     1
1070
    44
1040
1.0
1070
    74
1070
     0
1000
MTEXTEND
  0
MTEXT
  5
3913
330
A
100
AcDbEntity
  8
MOJI
100
AcDbMText
 10
310.9999999999967
 20
28.50000000000022
 30
0.0
 40
7.0
 41
50.0
 71
     5
 72
     1
  1
図番１８－２
  7
0_80
1001
ACAD
1000
MTEXTBEGIN
1070
    73
1070
     1
1070
    44
1040
1.0
1070
    74
1070
     0
1000
MTEXTEND
1000
MTEXTBEGIN
1070
    73
1070
     1
1070
    44
1040
1.0
1070
    74
1070
     0
1000
MTEXTEND
  0
MTEXT
  5
3914
330
A
100
AcDbEntity
  8
MOJI
100
AcDbMText
 10
185.9999999999969
 20
29.0
 30
0.0
 40
7.0
 41
80.0
 71
     5
 72
     1
  1
ＳＯＶ－２００ＫＤＣ
  7
0_8
1001
ACAD
1000
MTEXTBEGIN
1070
    73
1070
     1
1070
    44
1040
1.0
1070
    74
1070
     0
1000
MTEXTEND
1000
MTEXTBEGIN
1070
    73
1070
     1
1070
    44
1040
1.0
1070
    74
1070
     0
1000
MTEXTEND
  0
POLYLINE
  5
3915
330
A
100
AcDbEntity
  8
SAISEN
100
AcDb2dPolyline
 66
     1
 10
0.0
 20
0.0
 30
0.0
 70
     1
  0
VERTEX
  5
3975
330
3915
100
AcDbEntity
  8
SAISEN
100
AcDbVertex
100
AcDb2dVertex
 10
35.99999999999698
 20
17.0
 30
0.0
  0
VERTEX
  5
3976
330
3915
100
AcDbEntity
  8
SAISEN
100
AcDbVertex
100
AcDb2dVertex
 10
385.999999999997
 20
17.0
 30
0.0
  0
VERTEX
  5
3977
330
3915
100
AcDbEntity
  8
SAISEN
100
AcDbVertex
100
AcDb2dVertex
 10
385.999999999997
 20
41.00000000000022
 30
0.0
  0
VERTEX
  5
3978
330
3915
100
AcDbEntity
  8
SAISEN
100
AcDbVertex
100
AcDb2dVertex
 10
35.99999999999698
 20
41.00000000000022
 30
0.0
  0
SEQEND
  5
3979
330
3915
100
AcDbEntity
  8
SAISEN
  0
MTEXT
  5
3916
330
A
100
AcDbEntity
  8
MOJI
100
AcDbMText
 10
90.99999999999701
 20
29.0
 30
0.0
 40
7.0
 41
110.0
 71
     5
 72
     1
  1
防音ドア納り
  7
0_8
1001
ACAD
1000
MTEXTBEGIN
1070
    73
1070
     1
1070
    44
1040
1.0
1070
    74
1070
     0
1000
MTEXTEND
1000
MTEXTBEGIN
1070
    73
1070
     1
1070
    44
1040
1.0
1070
    74
1070
     0
1000
MTEXTEND
  0
LINE
  5
3917
330
A
100
AcDbEntity
  8
SAISEN
100
AcDbLine
 10
145.9999999999969
 20
41.00000000000022
 30
0.0
 11
145.9999999999969
 21
17.0
 31
0.0
  0
LINE
  5
3918
330
A
100
AcDbEntity
  8
SAISEN
100
AcDbLine
 10
225.999999999997
 20
41.00000000000022
 30
0.0
 11
225.999999999997
 21
17.0
 31
0.0
  0
MTEXT
  5
3919
330
A
100
AcDbEntity
  8
MOJI
100
AcDbMText
 10
255.9999999999999
 20
29.0
 30
0.0
 40
7.0
 41
60.0
 71
     5
 72
     1
  1
片引き又は両引き
  7
0_8
1001
ACAD
1000
MTEXTBEGIN
1070
    73
1070
     1
1070
    44
1040
1.0
1070
    74
1070
     0
1000
MTEXTEND
1000
MTEXTBEGIN
1070
    73
1070
     1
1070
    44
1040
1.0
1070
    74
1070
     0
1000
MTEXTEND
  0
LINE
  5
391A
330
A
100
AcDbEntity
  8
SAISEN
100
AcDbLine
 10
285.999999999997
 20
41.00000000000022
 30
0.0
 11
285.999999999997
 21
17.0
 31
0.0
  0
CIRCLE
  5
3923
330
A
100
AcDbEntity
  8
SAISEN
100
AcDbCircle
 10
392.0976380784293
 20
49.54302641223165
 30
0.0
 40
5.0
  0
TEXT
  5
3924
330
A
100
AcDbEntity
  8
MOJI
100
AcDbText
 10
389.0488190392131
 20
45.27151320611595
 30
0.0
 40
8.0
  1
Ｓ
 41
0.8
  7
0_8
 11
389.0488190392131
 21
53.27151320611595
 31
0.0
100
AcDbText
 73
     3
  0
VIEWPORT
  5
2971
102
{ACAD_XDICTIONARY
360
3955
102
}
330
B
100
AcDbEntity
 67
     1
  8
0
100
AcDbViewport
 10
198.0508299538852
 20
285.1874487354477
 30
0.0
 40
1080.347564134148
 41
628.3535021666721
 68
     1
 69
     1
1001
ACAD
1000
MVIEW
1002
{
1070
    16
1010
0.0
1020
0.0
1030
0.0
1010
0.0
1020
0.0
1030
1.0
1040
0.0
1040
628.3535021666721
1040
198.0508299538852
1040
285.1874487354477
1040
50.0
1040
0.0
1040
0.0
1070
     0
1070
   100
1070
     1
1070
     1
1070
     0
1070
     0
1070
     0
1070
     0
1040
0.0
1040
0.0
1040
0.0
1040
10.0
1040
10.0
1040
10.0
1040
10.0
1070
     0
1002
{
1002
}
1002
}
  0
VIEWPORT
  5
393F
102
{ACAD_XDICTIONARY
360
395B
102
}
330
B
100
AcDbEntity
 67
     1
  8
DEFPOINTS
100
AcDbViewport
 10
198.0508309076477
 20
285.1874477816852
 30
0.0
 40
396.4883172119752
 41
570.409736121624
 68
     2
 69
     2
1001
ACAD
1000
MVIEW
1002
{
1070
    16
1010
0.0
1020
0.0
1030
0.0
1010
0.0
1020
0.0
1030
1.0
1040
0.0
1040
570.409736121624
1040
210.0
1040
297.0
1040
50.0
1040
0.0
1040
0.0
1070
     0
1070
   100
1070
     1
1070
     1
1070
     0
1070
     0
1070
     0
1070
     0
1040
0.0
1040
0.0
1040
0.0
1040
1.0
1040
1.0
1040
0.0
1040
0.0
1070
     0
1002
{
1002
}
1002
}
  0
ENDSEC
  0
SECTION
  2
OBJECTS
  0
DICTIONARY
  5
19
330
0
100
AcDbDictionary
  3
ACAD_COLOR
350
38FB
  3
ACAD_GROUP
350
1A
  3
ACAD_LAYOUT
350
E6B
  3
ACAD_MATERIAL
350
38FA
  3
ACAD_MLINESTYLE
350
1B
  3
ACAD_PLOTSETTINGS
350
E6C
  3
ACADDIM
350
29EF
  3
ASE_INDEX_DICTIONARY
350
3926
1001
ACAD
1000
TREAT_AS_HARD
1070
     0
1000
TREAT_AS_HARD
1070
     0
  0
DICTIONARY
  5
2F72
330
2
100
AcDbDictionary
  3
ACAD_LAYERFILTERS
350
2F73
  3
ACAD_LAYERSTATES
350
370F
1001
ACAD
1000
TREAT_AS_HARD
1070
     1
1000
TREAT_AS_HARD
1070
     1
  0
DICTIONARY
  5
38CB
330
A
100
AcDbDictionary
  3
ACAD_LAYOUTSELFREF
350
3963
1001
ACAD
1000
TREAT_AS_HARD
1070
     1
  0
DICTIONARY
  5
38CD
330
B
100
AcDbDictionary
  3
ACAD_LAYOUTSELFREF
350
3964
1001
ACAD
1000
TREAT_AS_HARD
1070
     1
  0
DICTIONARY
  5
3955
330
2971
100
AcDbDictionary
  3
ACAD_XREC_ROUNDTRIP
350
3956
1001
ACAD
1000
TREAT_AS_HARD
1070
     1
  0
DICTIONARY
  5
395B
330
393F
100
AcDbDictionary
  3
ACAD_XREC_ROUNDTRIP
350
395C
1001
ACAD
1000
TREAT_AS_HARD
1070
     1
  0
DICTIONARY
  5
38FB
102
{ACAD_REACTORS
330
19
102
}
330
19
100
AcDbDictionary
1001
ACAD
1000
TREAT_AS_HARD
1070
     0
  0
DICTIONARY
  5
1A
102
{ACAD_REACTORS
330
19
102
}
330
19
100
AcDbDictionary
1001
ACAD
1000
TREAT_AS_HARD
1070
     0
1000
TREAT_AS_HARD
1070
     0
  0
DICTIONARY
  5
E6B
102
{ACAD_REACTORS
330
19
102
}
330
19
100
AcDbDictionary
1001
ACAD
1000
TREAT_AS_HARD
1070
     0
1000
TREAT_AS_HARD
1070
     0
  0
DICTIONARY
  5
38FA
102
{ACAD_REACTORS
330
19
102
}
330
19
100
AcDbDictionary
1001
ACAD
1000
TREAT_AS_HARD
1070
     0
  0
DICTIONARY
  5
1B
102
{ACAD_REACTORS
330
19
102
}
330
19
100
AcDbDictionary
  3
STANDARD
350
1C
1001
ACAD
1000
TREAT_AS_HARD
1070
     0
1000
TREAT_AS_HARD
1070
     0
  0
DICTIONARY
  5
E6C
102
{ACAD_REACTORS
330
19
102
}
330
19
100
AcDbDictionary
1001
ACAD
1000
TREAT_AS_HARD
1070
     0
1000
TREAT_AS_HARD
1070
     0
  0
XRECORD
  5
29EF
102
{ACAD_REACTORS
330
19
102
}
330
19
100
AcDbXrecord
 90
   990106
  3

 60
     0
 61
     0
 62
     4
 63
     4
 64
     1
 65
     0
 66
     0
 67
     3
 68
     0
 69
     1
 70
     0
 71
     0
 72
     0
 40
0.0
170
     2
340
3793
  0
DICTIONARY
  5
3926
102
{ACAD_REACTORS
330
19
102
}
330
19
100
AcDbDictionary
  3
ASEBLOCKHIERARCHYINDEXRECORD
350
3928
1001
DCO15
1040
1508737433.703
1001
ACAD
1000
TREAT_AS_HARD
1070
     0
  0
DICTIONARY
  5
2F73
102
{ACAD_REACTORS
330
2F72
102
}
330
2F72
100
AcDbDictionary
  3
HIHYOJI
350
2F74
  3
TUIKA
350
2F75
1001
ACAD
1000
TREAT_AS_HARD
1070
     1
1000
TREAT_AS_HARD
1070
     0
  0
DICTIONARY
  5
370F
102
{ACAD_REACTORS
330
2F72
102
}
330
2F72
100
AcDbDictionary
1001
ACAD
1000
TREAT_AS_HARD
1070
     0
1000
TREAT_AS_HARD
1070
     0
  0
XRECORD
  5
3963
102
{ACAD_REACTORS
330
38CB
102
}
330
38CB
100
AcDbXrecord
340
A
  0
XRECORD
  5
3964
102
{ACAD_REACTORS
330
38CD
102
}
330
38CD
100
AcDbXrecord
340
B
  0
XRECORD
  5
3956
102
{ACAD_REACTORS
330
3955
102
}
330
3955
100
AcDbXrecord
102
SHADEPLOT
 70
     0
  0
XRECORD
  5
395C
102
{ACAD_REACTORS
330
395B
102
}
330
395B
100
AcDbXrecord
102
SHADEPLOT
 70
     0
  0
MLINESTYLE
  5
1C
102
{ACAD_REACTORS
330
1B
102
}
330
1B
100
AcDbMlineStyle
  2
STANDARD
 70
     0
  3

 62
     0
 51
90.0
 52
90.0
 71
     2
 49
0.5
 62
   256
  6
BYLAYER
 49
-0.5
 62
   256
  6
BYLAYER
  0
XRECORD
  5
3928
102
{ACAD_REACTORS
330
3926
102
}
330
3926
100
AcDbXrecord
330
3837
330
2E64
330
2E65
330
2EE2
330
2EE3
330
2ED9
330
2EDA
330
2E5B
330
2E5C
330
2F4F
330
2F50
330
2E91
330
2E92
330
2F58
330
2F59
330
2E88
330
2E89
330
2EAC
330
2EAD
330
2EA3
330
2EA4
330
2ED0
330
2ED1
330
2E7F
330
2E80
330
2E78
330
2E77
330
2EEB
330
2EEC
330
2EC8
330
2EC7
330
2EBE
330
2EBF
330
2E9A
330
2E9B
330
2E6D
330
2E6E
330
2F44
330
2F45
330
2F39
330
2F3A
330
38B0
330
38B1
330
2EFF
330
2F00
330
2F26
330
2F27
330
2EF8
330
2EF7
330
2EB5
330
2EB6
330
38B8
330
38B9
330
2F13
330
2F14
330
2F08
330
2F09
330
376E
330
376F
  0
XRECORD
  5
2F74
102
{ACAD_REACTORS
330
2F73
102
}
330
2F73
100
AcDbXrecord
  1
hihyoji
  1
08,09,*_h
  1
*
  1
*
 70
     0
  1
*
  1
*
  0
XRECORD
  5
2F75
102
{ACAD_REACTORS
330
2F73
102
}
330
2F73
100
AcDbXrecord
  1
tuika
  1
*_t
  1
*
  1
*
 70
     0
  1
*
  1
*
  0
ENDSEC
  0
EOF
