  0
SECTION
  2
HEADER
  9
$ACADVER
  1
AC1012
  9
$DWGCODEPAGE
  3
dos932
  9
$INSBASE
 10
0.0
 20
0.0
 30
0.0
  9
$EXTMIN
 10
0.0
 20
0.0
 30
0.0
  9
$EXTMAX
 10
420.0
 20
594.0
 30
0.0
  9
$LIMMIN
 10
0.0
 20
0.0
  9
$LIMMAX
 10
420.0
 20
594.0
  9
$ORTHOMODE
 70
     1
  9
$REGENMODE
 70
     1
  9
$FILLMODE
 70
     1
  9
$QTEXTMODE
 70
     0
  9
$MIRRTEXT
 70
     1
  9
$DRAGMODE
 70
     2
  9
$LTSCALE
 40
0.5
  9
$OSMODE
 70
    37
  9
$ATTMODE
 70
     1
  9
$TEXTSIZE
 40
6.0
  9
$TRACEWID
 40
0.05
  9
$TEXTSTYLE
  7
0_8
  9
$CLAYER
  8
DEFPOINTS
  9
$CELTYPE
  6
BYLAYER
  9
$CECOLOR
 62
   256
  9
$CELTSCALE
 40
1.0
  9
$DELOBJ
 70
     1
  9
$DISPSILH
 70
     0
  9
$DIMSCALE
 40
2.0
  9
$DIMASZ
 40
2.5
  9
$DIMEXO
 40
1.5
  9
$DIMDLI
 40
0.0
  9
$DIMRND
 40
0.0
  9
$DIMDLE
 40
0.0
  9
$DIMEXE
 40
1.0
  9
$DIMTP
 40
0.0
  9
$DIMTM
 40
0.0
  9
$DIMTXT
 40
2.5
  9
$DIMCEN
 40
0.0
  9
$DIMTSZ
 40
0.0
  9
$DIMTOL
 70
     0
  9
$DIMLIM
 70
     0
  9
$DIMTIH
 70
     0
  9
$DIMTOH
 70
     0
  9
$DIMSE1
 70
     0
  9
$DIMSE2
 70
     0
  9
$DIMTAD
 70
     1
  9
$DIMZIN
 70
     8
  9
$DIMBLK
  1
OPEN30
  9
$DIMASO
 70
     1
  9
$DIMSHO
 70
     1
  9
$DIMPOST
  1

  9
$DIMAPOST
  1

  9
$DIMALT
 70
     0
  9
$DIMALTD
 70
     2
  9
$DIMALTF
 40
25.4
  9
$DIMLFAC
 40
1.0
  9
$DIMTOFL
 70
     1
  9
$DIMTVP
 40
0.0
  9
$DIMTIX
 70
     1
  9
$DIMSOXD
 70
     0
  9
$DIMSAH
 70
     0
  9
$DIMBLK1
  1

  9
$DIMBLK2
  1

  9
$DIMSTYLE
  2
SUNPOU_2
  9
$DIMCLRD
 70
   256
  9
$DIMCLRE
 70
   256
  9
$DIMCLRT
 70
   256
  9
$DIMTFAC
 40
1.0
  9
$DIMGAP
 40
1.0
  9
$DIMJUST
 70
     0
  9
$DIMSD1
 70
     0
  9
$DIMSD2
 70
     0
  9
$DIMTOLJ
 70
     1
  9
$DIMTZIN
 70
     0
  9
$DIMALTZ
 70
     0
  9
$DIMALTTZ
 70
     0
  9
$DIMFIT
 70
     3
  9
$DIMUPT
 70
     0
  9
$DIMUNIT
 70
     2
  9
$DIMDEC
 70
     1
  9
$DIMTDEC
 70
     1
  9
$DIMALTU
 70
     2
  9
$DIMALTTD
 70
     2
  9
$DIMTXSTY
  7
SUNPOU
  9
$DIMAUNIT
 70
     0
  9
$LUNITS
 70
     2
  9
$LUPREC
 70
     4
  9
$SKETCHINC
 40
0.1
  9
$FILLETRAD
 40
0.0
  9
$AUNITS
 70
     0
  9
$AUPREC
 70
     0
  9
$MENU
  1
acad
  9
$ELEVATION
 40
0.0
  9
$PELEVATION
 40
0.0
  9
$THICKNESS
 40
0.0
  9
$LIMCHECK
 70
     0
  9
$BLIPMODE
 70
     0
  9
$CHAMFERA
 40
0.0
  9
$CHAMFERB
 40
0.0
  9
$CHAMFERC
 40
0.0
  9
$CHAMFERD
 40
0.0
  9
$SKPOLY
 70
     0
  9
$TDCREATE
 40
2444972.375000000
  9
$TDUPDATE
 40
2453266.435842014
  9
$TDINDWG
 40
0.6986476968
  9
$TDUSRTIMER
 40
0.6986476968
  9
$USRTIMER
 70
     1
  9
$ANGBASE
 50
0.0
  9
$ANGDIR
 70
     0
  9
$PDMODE
 70
     0
  9
$PDSIZE
 40
1.0
  9
$PLINEWID
 40
0.0
  9
$COORDS
 70
     1
  9
$SPLFRAME
 70
     0
  9
$SPLINETYPE
 70
     6
  9
$SPLINESEGS
 70
     8
  9
$ATTDIA
 70
     0
  9
$ATTREQ
 70
     1
  9
$HANDLING
 70
-16383
  9
$HANDSEED
  5
1CBA
  9
$SURFTAB1
 70
     6
  9
$SURFTAB2
 70
     6
  9
$SURFTYPE
 70
     6
  9
$SURFU
 70
     6
  9
$SURFV
 70
     6
  9
$UCSNAME
  2

  9
$UCSORG
 10
0.0
 20
0.0
 30
0.0
  9
$UCSXDIR
 10
1.0
 20
0.0
 30
0.0
  9
$UCSYDIR
 10
0.0
 20
1.0
 30
0.0
  9
$PUCSNAME
  2

  9
$PUCSORG
 10
0.0
 20
0.0
 30
0.0
  9
$PUCSXDIR
 10
1.0
 20
0.0
 30
0.0
  9
$PUCSYDIR
 10
0.0
 20
1.0
 30
0.0
  9
$USERI1
 70
     0
  9
$USERI2
 70
     0
  9
$USERI3
 70
     0
  9
$USERI4
 70
     0
  9
$USERI5
 70
     0
  9
$USERR1
 40
0.0
  9
$USERR2
 40
0.0
  9
$USERR3
 40
0.0
  9
$USERR4
 40
0.0
  9
$USERR5
 40
0.0
  9
$WORLDVIEW
 70
     1
  9
$SHADEDGE
 70
     3
  9
$SHADEDIF
 70
    70
  9
$TILEMODE
 70
     1
  9
$MAXACTVP
 70
    16
  9
$PINSBASE
 10
0.0
 20
0.0
 30
0.0
  9
$PLIMCHECK
 70
     0
  9
$PEXTMIN
 10
-0.2055473772918503
 20
-0.0174202791267817
 30
-0.0015258207003583
  9
$PEXTMAX
 10
396.3139079836236
 20
570.3923158424973
 30
0.0000000349246037
  9
$PLIMMIN
 10
-11.94191342824453
 20
-11.7660021939814
  9
$PLIMMAX
 10
408.0435733360148
 20
582.1408996648767
  9
$UNITMODE
 70
     0
  9
$VISRETAIN
 70
     0
  9
$PLINEGEN
 70
     1
  9
$PSLTSCALE
 70
     0
  9
$TREEDEPTH
 70
  3020
  9
$PICKSTYLE
 70
     1
  9
$CMLSTYLE
  2
STANDARD
  9
$CMLJUST
 70
     0
  9
$CMLSCALE
 40
1.0
  9
$SAVEIMAGES
 70
     1
  0
ENDSEC
  0
SECTION
  2
CLASSES
  0
CLASS
  1
LWPOLYLINE
  2
AcDbPolyline
  3
AutoCAD 2000
 90
    32768
280
     0
281
     1
  0
CLASS
  1
IMAGE
  2
AcDbRasterImage
  3
ISM
 90
    32895
280
     0
281
     1
  0
CLASS
  1
OLE2FRAME
  2
AcDbOle2Frame
  3
AutoCAD 2000
 90
    32768
280
     0
281
     1
  0
CLASS
  1
HATCH
  2
AcDbHatch
  3
AutoCAD 2000
 90
    32768
280
     0
281
     1
  0
CLASS
  1
DICTIONARYVAR
  2
AcDbDictionaryVar
  3
AutoCAD 2000
 90
    32768
280
     0
281
     0
  0
CLASS
  1
RASTERVARIABLES
  2
AcDbRasterVariables
  3
ISM
 90
    32768
280
     0
281
     0
  0
CLASS
  1
IMAGEDEF
  2
AcDbRasterImageDef
  3
ISM
 90
    32768
280
     0
281
     0
  0
CLASS
  1
IMAGEDEF_REACTOR
  2
AcDbRasterImageDefReactor
  3
ISM
 90
    32769
280
     0
281
     0
  0
CLASS
  1
IDBUFFER
  2
AcDbIdBuffer
  3
AutoCAD 2000
 90
    32768
280
     0
281
     0
  0
CLASS
  1
SPATIAL_FILTER
  2
AcDbSpatialFilter
  3
AutoCAD 2000
 90
    32768
280
     0
281
     0
  0
CLASS
  1
XRECORD
  2
AcDbXrecord
  3
AutoCAD 2000
 90
    32768
280
     0
281
     0
  0
CLASS
  1
SORTENTSTABLE
  2
AcDbSortentsTable
  3
AutoCAD 2000
 90
    32768
280
     0
281
     0
  0
CLASS
  1
LAYER_INDEX
  2
AcDbLayerIndex
  3
AutoCAD 2000
 90
    32768
280
     0
281
     0
  0
CLASS
  1
SPATIAL_INDEX
  2
AcDbSpatialIndex
  3
AutoCAD 2000
 90
    32768
280
     0
281
     0
  0
CLASS
  1
OBJECT_PTR
  2
CAseDLPNTableRecord
  3
ASE-LPNTableRecord
 90
    32769
280
     0
281
     0
  0
CLASS
  1
ACDBDICTIONARYWDFLT
  2
AcDbDictionaryWithDefault
  3
AutoCAD 2000
 90
    32768
280
     0
281
     0
  0
CLASS
  1
ACDBPLACEHOLDER
  2
AcDbPlaceHolder
  3
AutoCAD 2000
 90
    32768
280
     0
281
     0
  0
CLASS
  1
LAYOUT
  2
AcDbLayout
  3
AutoCAD 2000
 90
    32768
280
     0
281
     0
  0
CLASS
  1
LONG_TRANSACTION
  2
AcDbLongTransaction
  3
AutoCAD 2000
 90
    32768
280
     0
281
     0
  0
CLASS
  1
LWPOLYLINE
  2
AcDbPolyline
  3
AutoCAD 2000
 90
    32768
280
     0
281
     1
  0
CLASS
  1
HATCH
  2
AcDbHatch
  3
AutoCAD 2000
 90
    32768
280
     0
281
     1
  0
CLASS
  1
XRECORD
  2
AcDbXrecord
  3
AutoCAD 2000
 90
    32768
280
     0
281
     0
  0
CLASS
  1
LONG_TRANSACTION
  2
AcDbLongTransaction
  3
AutoCAD 2000
 90
    32768
280
     0
281
     0
  0
CLASS
  1
LWPOLYLINE
  2
AcDbPolyline
  3
AutoCAD 2000
 90
    32768
280
     0
281
     1
  0
CLASS
  1
HATCH
  2
AcDbHatch
  3
AutoCAD 2000
 90
    32768
280
     0
281
     1
  0
CLASS
  1
XRECORD
  2
AcDbXrecord
  3
AutoCAD 2000
 90
    32768
280
     0
281
     0
  0
CLASS
  1
LONG_TRANSACTION
  2
AcDbLongTransaction
  3
AutoCAD 2000
 90
    32768
280
     0
281
     0
  0
CLASS
  1
LWPOLYLINE
  2
AcDbPolyline
  3
AutoCAD 2000
 90
    32768
280
     0
281
     1
  0
CLASS
  1
HATCH
  2
AcDbHatch
  3
AutoCAD 2000
 90
    32768
280
     0
281
     1
  0
CLASS
  1
XRECORD
  2
AcDbXrecord
  3
AutoCAD 2000
 90
    32768
280
     0
281
     0
  0
ENDSEC
  0
SECTION
  2
TABLES
  0
TABLE
  2
VPORT
  5
7
330
0
100
AcDbSymbolTable
 70
     2
  0
VPORT
  5
1C8F
330
7
100
AcDbSymbolTableRecord
100
AcDbViewportTableRecord
  2
*ACTIVE
 70
     0
 10
0.0
 20
0.0
 11
1.0
 21
1.0
 12
228.3534136753863
 22
297.000001383014
 13
0.0
 23
0.0
 14
1.0
 24
1.0
 15
0.0
 25
0.0
 16
0.0
 26
0.0
 36
1.0
 17
0.0
 27
0.0
 37
0.0
 40
600.8933072629505
 41
1.780442804428044
 42
50.0
 43
0.0
 44
0.0
 50
0.0
 51
0.0
 71
     0
 72
   100
 73
     1
 74
     1
 75
     0
 76
     0
 77
     0
 78
     0
  0
ENDTAB
  0
TABLE
  2
LTYPE
  5
4
330
0
100
AcDbSymbolTable
 70
     2
  0
LTYPE
  5
11
330
4
100
AcDbSymbolTableRecord
100
AcDbLinetypeTableRecord
  2
BYBLOCK
 70
     0
  3

 72
    65
 73
     0
 40
0.0
  0
LTYPE
  5
12
330
4
100
AcDbSymbolTableRecord
100
AcDbLinetypeTableRecord
  2
BYLAYER
 70
     0
  3

 72
    65
 73
     0
 40
0.0
  0
LTYPE
  5
13
330
4
100
AcDbSymbolTableRecord
100
AcDbLinetypeTableRecord
  2
CONTINUOUS
 70
     0
  3
Solid line
 72
    65
 73
     0
 40
0.0
  0
LTYPE
  5
5D2
330
4
100
AcDbSymbolTableRecord
100
AcDbLinetypeTableRecord
  2
CENTER2
 70
     0
  3
Center (.5x) ___ _ ___ _ ___ _ ___ _ ___ _ ___
 72
    65
 73
     4
 40
28.57499999999999
 49
19.05
 74
     0
 49
-3.174999999999998
 74
     0
 49
3.174999999999998
 74
     0
 49
-3.174999999999998
 74
     0
  0
ENDTAB
  0
TABLE
  2
LAYER
  5
2
102
{ACAD_XDICTIONARY
360
1BDF
102
}
330
0
100
AcDbSymbolTable
 70
    11
  0
LAYER
  5
14
330
2
100
AcDbSymbolTableRecord
100
AcDbLayerTableRecord
  2
0
 70
     0
 62
     7
  6
CONTINUOUS
  0
LAYER
  5
5C1
330
2
100
AcDbSymbolTableRecord
100
AcDbLayerTableRecord
  2
DEFPOINTS
 70
     0
 62
     7
  6
CONTINUOUS
  0
LAYER
  5
5D5
330
2
100
AcDbSymbolTableRecord
100
AcDbLayerTableRecord
  2
03
 70
     0
 62
     3
  6
CONTINUOUS
  0
LAYER
  5
5D7
330
2
100
AcDbSymbolTableRecord
100
AcDbLayerTableRecord
  2
06
 70
     0
 62
     6
  6
CONTINUOUS
  0
LAYER
  5
5D8
330
2
100
AcDbSymbolTableRecord
100
AcDbLayerTableRecord
  2
CHUSIN
 70
     0
 62
     6
  6
CENTER2
  0
LAYER
  5
5DB
330
2
100
AcDbSymbolTableRecord
100
AcDbLayerTableRecord
  2
MOJI
 70
     0
 62
     3
  6
CONTINUOUS
  0
LAYER
  5
5DD
330
2
100
AcDbSymbolTableRecord
100
AcDbLayerTableRecord
  2
SUNPOU
 70
     0
 62
     6
  6
CONTINUOUS
  0
LAYER
  5
5DE
330
2
100
AcDbSymbolTableRecord
100
AcDbLayerTableRecord
  2
SAISEN
 70
     0
 62
     3
  6
CONTINUOUS
  0
LAYER
  5
5E8
330
2
100
AcDbSymbolTableRecord
100
AcDbLayerTableRecord
  2
02
 70
     0
 62
     2
  6
CONTINUOUS
  0
LAYER
  5
15C2
330
2
100
AcDbSymbolTableRecord
100
AcDbLayerTableRecord
  2
04
 70
     0
 62
     4
  6
CONTINUOUS
  0
LAYER
  5
1A3D
330
2
100
AcDbSymbolTableRecord
100
AcDbLayerTableRecord
  2
HIKIDASI
 70
     0
 62
     6
  6
CONTINUOUS
  0
ENDTAB
  0
TABLE
  2
STYLE
  5
3
330
0
100
AcDbSymbolTable
 70
     4
  0
STYLE
  5
17
330
3
100
AcDbSymbolTableRecord
100
AcDbTextStyleTableRecord
  2
STANDARD
 70
     0
 40
0.0
 41
1.0
 50
0.0
 71
     0
 42
0.0
  3
txt
  4

  0
STYLE
  5
5C2
330
3
100
AcDbSymbolTableRecord
100
AcDbTextStyleTableRecord
  2
SUNPOU
 70
     0
 40
0.0
 41
0.8
 50
0.0
 71
     0
 42
3.5
  3
txt.shx
  4
extfont.shx
  0
STYLE
  5
5C9
330
3
100
AcDbSymbolTableRecord
100
AcDbTextStyleTableRecord
  2
0_8
 70
     0
 40
0.0
 41
0.8
 50
0.0
 71
     0
 42
6.0
  3
txt.shx
  4
extfont.shx
  0
STYLE
  5
1BDD
330
3
100
AcDbSymbolTableRecord
100
AcDbTextStyleTableRecord
  2
0_80
 70
     0
 40
0.0
 41
0.8
 50
0.0
 71
     0
 42
16.8
  3
txt.shx
  4
extfont.shx
  0
ENDTAB
  0
TABLE
  2
VIEW
  5
5
330
0
100
AcDbSymbolTable
 70
     1
  0
VIEW
  5
135
330
5
100
AcDbSymbolTableRecord
100
AcDbViewTableRecord
  2
QQQQ
 70
     0
 40
397.8088184853579
 10
-7.685735969212514
 20
3.958273886075602
 41
461.8062517285753
 11
0.0
 21
0.0
 31
1.0
 12
100.0
 22
100.0
 32
0.0
 42
50.0
 43
0.0
 44
0.0
 50
0.0
 71
     0
  0
ENDTAB
  0
TABLE
  2
UCS
  5
6
330
0
100
AcDbSymbolTable
 70
     0
  0
ENDTAB
  0
TABLE
  2
APPID
  5
8
330
0
100
AcDbSymbolTable
 70
     3
  0
APPID
  5
16
330
8
100
AcDbSymbolTableRecord
100
AcDbRegAppTableRecord
  2
ACAD
 70
     0
  0
APPID
  5
B35
330
8
100
AcDbSymbolTableRecord
100
AcDbRegAppTableRecord
  2
DCO15
 70
     0
  0
APPID
  5
1B50
330
8
100
AcDbSymbolTableRecord
100
AcDbRegAppTableRecord
  2
CONTENTBLOCKICON
 70
     0
  0
ENDTAB
  0
TABLE
  2
DIMSTYLE
  5
9
330
0
100
AcDbSymbolTable
 70
     3
  0
DIMSTYLE
105
18
330
9
100
AcDbSymbolTableRecord
100
AcDbDimStyleTableRecord
  2
STANDARD
 70
     0
  3

  4

  5

  6

  7

 40
1.0
 41
0.18
 42
0.0625
 43
0.38
 44
0.18
 45
0.0
 46
0.0
 47
0.0
 48
0.0
140
0.18
141
0.09
142
0.0
143
25.4
144
1.0
145
0.0
146
1.0
147
0.09
 71
     0
 72
     0
 73
     1
 74
     1
 75
     0
 76
     0
 77
     0
 78
     0
170
     0
171
     2
172
     0
173
     0
174
     0
175
     0
176
     0
177
     0
178
     0
270
     2
271
     4
272
     4
273
     2
274
     2
340
17
275
     0
280
     0
281
     0
282
     0
283
     1
284
     0
285
     0
286
     0
287
     3
288
     0
  0
DIMSTYLE
105
5C3
102
{ACAD_REACTORS
330
61C
330
62B
330
63A
330
6AD
330
6EC
330
6DF
330
70F
330
702
330
AD1
330
B0A
330
B24
330
BD8
330
C12
330
C03
330
BE9
330
E68
330
E77
330
E84
330
1595
330
D57
330
1A41
330
D41
102
}
330
9
100
AcDbSymbolTableRecord
100
AcDbDimStyleTableRecord
  2
SUNPOU_2
 70
     0
  3

  4

  5
OPEN30
  6

  7

 40
2.0
 41
2.5
 42
1.5
 43
0.0
 44
1.0
 45
0.0
 46
0.0
 47
0.0
 48
0.0
140
2.5
141
0.0
142
0.0
143
25.4
144
1.0
145
0.0
146
1.0
147
1.0
 71
     0
 72
     0
 73
     0
 74
     0
 75
     0
 76
     0
 77
     1
 78
     8
170
     0
171
     2
172
     1
173
     0
174
     1
175
     0
176
   256
177
   256
178
   256
270
     2
271
     1
272
     1
273
     2
274
     2
340
5C2
275
     0
280
     0
281
     0
282
     0
283
     1
284
     0
285
     0
286
     0
287
     3
288
     0
  0
DIMSTYLE
105
7B2
102
{ACAD_REACTORS
330
7A3
330
794
330
7CA
330
7EA
330
802
330
80F
330
FD1
330
1001
330
105C
330
1032
330
104C
330
1069
330
1398
330
13A7
102
}
330
9
100
AcDbSymbolTableRecord
100
AcDbDimStyleTableRecord
  2
SUNPOU_2_10
 70
     0
  3

  4

  5
OPEN30
  6

  7

 40
2.0
 41
2.5
 42
1.5
 43
0.0
 44
1.0
 45
0.0
 46
0.0
 47
0.0
 48
0.0
140
2.5
141
0.0
142
0.0
143
25.4
144
10.0
145
0.0
146
1.0
147
1.0
 71
     0
 72
     0
 73
     0
 74
     0
 75
     0
 76
     0
 77
     1
 78
     8
170
     0
171
     2
172
     1
173
     0
174
     1
175
     0
176
   256
177
   256
178
   256
270
     2
271
     1
272
     1
273
     2
274
     2
340
5C2
275
     0
280
     0
281
     0
282
     0
283
     1
284
     0
285
     0
286
     0
287
     3
288
     0
  0
ENDTAB
  0
TABLE
  2
BLOCK_RECORD
  5
1
330
0
100
AcDbSymbolTable
 70
    39
  0
BLOCK_RECORD
  5
A
102
{ACAD_XDICTIONARY
360
1B4C
102
}
330
1
100
AcDbSymbolTableRecord
100
AcDbBlockTableRecord
  2
*MODEL_SPACE
  0
BLOCK_RECORD
  5
B
102
{ACAD_XDICTIONARY
360
1B4E
102
}
330
1
100
AcDbSymbolTableRecord
100
AcDbBlockTableRecord
  2
*PAPER_SPACE
  0
BLOCK_RECORD
  5
5BB
330
1
100
AcDbSymbolTableRecord
100
AcDbBlockTableRecord
  2
_OPEN30
1001
CONTENTBLOCKICON
1071
        0
1004
2800000020000000200000000100080000000000000400000000000000000000000000000000000000000000000080000080000000808000800000008000800080800000C0C0C000C0DCC000F0CAA6000020400000206000002080000020A0000020C0000020E00000400000004020000040400000406000004080000040A0
1004
000040C0000040E00000600000006020000060400000606000006080000060A0000060C0000060E00000800000008020000080400000806000008080000080A0000080C0000080E00000A0000000A0200000A0400000A0600000A0800000A0A00000A0C00000A0E00000C0000000C0200000C0400000C0600000C0800000C0
1004
A00000C0C00000C0E00000E0000000E0200000E0400000E0600000E0800000E0A00000E0C00000E0E00040000000400020004000400040006000400080004000A0004000C0004000E00040200000402020004020400040206000402080004020A0004020C0004020E000404000004040200040404000404060004040800040
1004
40A0004040C0004040E00040600000406020004060400040606000406080004060A0004060C0004060E00040800000408020004080400040806000408080004080A0004080C0004080E00040A0000040A0200040A0400040A0600040A0800040A0A00040A0C00040A0E00040C0000040C0200040C0400040C0600040C08000
1004
40C0A00040C0C00040C0E00040E0000040E0200040E0400040E0600040E0800040E0A00040E0C00040E0E00080000000800020008000400080006000800080008000A0008000C0008000E00080200000802020008020400080206000802080008020A0008020C0008020E00080400000804020008040400080406000804080
1004
008040A0008040C0008040E00080600000806020008060400080606000806080008060A0008060C0008060E00080800000808020008080400080806000808080008080A0008080C0008080E00080A0000080A0200080A0400080A0600080A0800080A0A00080A0C00080A0E00080C0000080C0200080C0400080C0600080C0
1004
800080C0A00080C0C00080C0E00080E0000080E0200080E0400080E0600080E0800080E0A00080E0C00080E0E000C0000000C0002000C0004000C0006000C0008000C000A000C000C000C000E000C0200000C0202000C0204000C0206000C0208000C020A000C020C000C020E000C0400000C0402000C0404000C0406000C0
1004
408000C040A000C040C000C040E000C0600000C0602000C0604000C0606000C0608000C060A000C060C000C060E000C0800000C0802000C0804000C0806000C0808000C080A000C080C000C080E000C0A00000C0A02000C0A04000C0A06000C0A08000C0A0A000C0A0C000C0A0E000C0C00000C0C02000C0C04000C0C06000
1004
C0C08000C0C0A000F0FBFF00A4A0A000808080000000FF0000FF000000FFFF00FF000000FF00FF00FFFF0000FFFFFF0000000000000000000000000000000000000000000000000000000000000000000000000000000000000000000000000000000000000000000000000000000000000000000000000000000000000000
1004
00000000000000000000000000000000000000000000000000000000000000000000000000000000000000000000000000000000000000000000000000000000000000000000000000000000000000000000000000000000000000000000000000000000000000000000000000000000000000000000000000000000000000
1004
000000000000000000000000000000000000000000000000000000000000000000000000000000000000000000000000000000FFFF0000000000000000000000000000000000000000000000000000000000000000FFFFFFFF0000000000000000000000000000000000000000000000000000000000000000FFFFFFFF0000
1004
000000000000000000000000000000000000000000000000000000000000FFFFFF0000000000000000000000000000000000000000000000000000000000000000FFFFFFFF0000000000000000000000000000000000000000000000000000000000000000FFFFFF0000000000000000000000000000000000000000000000
1004
000000000000000000FFFFFFFF0000000000000000000000000000000000000000000000000000000000000000FFFFFFFF00000000FFFFFFFFFFFFFFFFFFFFFFFFFFFFFFFFFFFFFFFFFFFFFFFFFFFFFFFFFFFF00000000000000000000000000000000000000000000000000FFFFFFFF000000000000000000000000000000
1004
000000000000000000FFFFFFFF000000000000000000000000000000000000000000000000FFFFFFFF000000000000000000000000000000000000000000000000FFFFFFFF000000000000000000000000000000000000000000000000FFFFFFFF000000000000000000000000000000000000000000000000FFFFFFFF0000
1004
0000000000000000000000000000000000000000000000FFFFFF0000000000000000000000000000000000000000000000000000000000000000000000000000000000000000000000000000000000000000000000000000000000000000000000000000000000000000000000000000000000000000000000000000000000
1004
00000000000000000000000000000000000000000000000000000000000000000000000000000000000000000000000000000000000000000000000000000000000000000000000000000000000000000000000000000000000000000000000000000000000000000000000000000000000000000000000000000000000000
1004
0000000000000000000000000000000000000000000000000000000000000000000000000000000000000000000000000000000000000000
  0
BLOCK_RECORD
  5
61D
330
1
100
AcDbSymbolTableRecord
100
AcDbBlockTableRecord
  2
*D1
  0
BLOCK_RECORD
  5
62C
330
1
100
AcDbSymbolTableRecord
100
AcDbBlockTableRecord
  2
*D2
  0
BLOCK_RECORD
  5
63B
330
1
100
AcDbSymbolTableRecord
100
AcDbBlockTableRecord
  2
*D3
  0
BLOCK_RECORD
  5
647
330
1
100
AcDbSymbolTableRecord
100
AcDbBlockTableRecord
  2
_DOTSMALL
1001
CONTENTBLOCKICON
1071
        0
1004
2800000020000000200000000100080000000000000400000000000000000000000000000000000000000000000080000080000000808000800000008000800080800000C0C0C000C0DCC000F0CAA6000020400000206000002080000020A0000020C0000020E00000400000004020000040400000406000004080000040A0
1004
000040C0000040E00000600000006020000060400000606000006080000060A0000060C0000060E00000800000008020000080400000806000008080000080A0000080C0000080E00000A0000000A0200000A0400000A0600000A0800000A0A00000A0C00000A0E00000C0000000C0200000C0400000C0600000C0800000C0
1004
A00000C0C00000C0E00000E0000000E0200000E0400000E0600000E0800000E0A00000E0C00000E0E00040000000400020004000400040006000400080004000A0004000C0004000E00040200000402020004020400040206000402080004020A0004020C0004020E000404000004040200040404000404060004040800040
1004
40A0004040C0004040E00040600000406020004060400040606000406080004060A0004060C0004060E00040800000408020004080400040806000408080004080A0004080C0004080E00040A0000040A0200040A0400040A0600040A0800040A0A00040A0C00040A0E00040C0000040C0200040C0400040C0600040C08000
1004
40C0A00040C0C00040C0E00040E0000040E0200040E0400040E0600040E0800040E0A00040E0C00040E0E00080000000800020008000400080006000800080008000A0008000C0008000E00080200000802020008020400080206000802080008020A0008020C0008020E00080400000804020008040400080406000804080
1004
008040A0008040C0008040E00080600000806020008060400080606000806080008060A0008060C0008060E00080800000808020008080400080806000808080008080A0008080C0008080E00080A0000080A0200080A0400080A0600080A0800080A0A00080A0C00080A0E00080C0000080C0200080C0400080C0600080C0
1004
800080C0A00080C0C00080C0E00080E0000080E0200080E0400080E0600080E0800080E0A00080E0C00080E0E000C0000000C0002000C0004000C0006000C0008000C000A000C000C000C000E000C0200000C0202000C0204000C0206000C0208000C020A000C020C000C020E000C0400000C0402000C0404000C0406000C0
1004
408000C040A000C040C000C040E000C0600000C0602000C0604000C0606000C0608000C060A000C060C000C060E000C0800000C0802000C0804000C0806000C0808000C080A000C080C000C080E000C0A00000C0A02000C0A04000C0A06000C0A08000C0A0A000C0A0C000C0A0E000C0C00000C0C02000C0C04000C0C06000
1004
C0C08000C0C0A000F0FBFF00A4A0A000808080000000FF0000FF000000FFFF00FF000000FF00FF00FFFF0000FFFFFF0000000000000000000000FFFF0000000000000000FFFF00000000000000000000FF000000000000000000FFFF0000000000000000FFFF000000000000000000FFFFFF000000000000000000FF000000
1004
0000000000FF000000000000000000FFFF00FF000000000000000000FFFF000000000000FFFF000000000000000000FF0000FFFF0000000000000000FFFFFF00000000FFFFFF0000000000000000FFFF000000FFFF00000000000000FF00FFFF0000FFFF00FF00000000000000FFFF0000FFFF00FF00000000000000FF0000
1004
FF0000FF0000FF00000000000000FF00FFFF00FFFFFFFFFF0000000000FF000000FFFF000000FF0000000000FFFFFFFFFF0000000000FFFFFFFFFF0000FF000000FFFF000000FF0000FFFFFFFFFF000000000000000000FFFF00FFFFFFFF000000FFFF000000FFFFFFFF00FFFF0000000000000000000000FF00000000FFFF
1004
FFFF0000FFFFFFFF00000000FF00000000000000000000000000FF000000FF00FFFFFFFFFFFF00FF000000FF0000000000000000000000000000FFFF0000FFFFFFFF0000FFFFFFFF0000FFFF000000000000000000000000000000FFFFFFFFFF000000000000FFFFFFFFFF00000000000000000000000000FFFFFFFFFF00FF
1004
0000000000000000FF00FFFFFFFFFF0000000000FFFFFFFFFFFF000000FFFFFF0000000000000000FFFFFF000000FFFFFFFFFFFFFFFFFFFFFFFF000000FFFFFF0000000000000000FFFFFF000000FFFFFFFFFFFF0000000000FFFFFFFFFF00FF0000000000000000FF00FFFFFFFFFF00000000000000000000000000FFFFFF
1004
FFFF000000000000FFFFFFFFFF000000000000000000000000000000FFFF0000FFFFFFFF0000FFFFFFFF0000FFFF0000000000000000000000000000FF000000FF00FFFFFFFFFFFF00FF000000FF00000000000000000000000000FF00000000FFFFFFFF0000FFFFFFFF00000000FF0000000000000000000000FFFF00FFFF
1004
FFFF000000FFFF000000FFFFFFFF00FFFF000000000000000000FFFFFFFFFF0000FF000000FFFF000000FF0000FFFFFFFFFF0000000000FFFFFFFFFF0000000000FF000000FFFF000000FF0000000000FFFFFFFFFF00FFFF00FF00000000000000FF0000FF0000FF0000FF00000000000000FF00FFFF0000FFFF0000000000
1004
0000FF00FFFF0000FFFF00FF00000000000000FFFF000000FFFF0000000000000000FFFFFF00000000FFFFFF0000000000000000FFFF0000FF000000000000000000FFFF000000000000FFFF000000000000000000FF00FFFF000000000000000000FF0000000000000000FF000000000000000000FFFFFF00000000000000
1004
0000FFFF0000000000000000FFFF000000000000000000FF00000000000000000000FFFF0000000000000000FFFF00000000000000000000
  0
BLOCK_RECORD
  5
6AE
330
1
100
AcDbSymbolTableRecord
100
AcDbBlockTableRecord
  2
*D5
  0
BLOCK_RECORD
  5
6E0
330
1
100
AcDbSymbolTableRecord
100
AcDbBlockTableRecord
  2
*D6
  0
BLOCK_RECORD
  5
6ED
330
1
100
AcDbSymbolTableRecord
100
AcDbBlockTableRecord
  2
*D7
  0
BLOCK_RECORD
  5
703
330
1
100
AcDbSymbolTableRecord
100
AcDbBlockTableRecord
  2
*D8
  0
BLOCK_RECORD
  5
710
330
1
100
AcDbSymbolTableRecord
100
AcDbBlockTableRecord
  2
*D9
  0
BLOCK_RECORD
  5
795
330
1
100
AcDbSymbolTableRecord
100
AcDbBlockTableRecord
  2
*D10
  0
BLOCK_RECORD
  5
7A4
330
1
100
AcDbSymbolTableRecord
100
AcDbBlockTableRecord
  2
*D11
  0
BLOCK_RECORD
  5
7CB
330
1
100
AcDbSymbolTableRecord
100
AcDbBlockTableRecord
  2
*D12
  0
BLOCK_RECORD
  5
7EB
330
1
100
AcDbSymbolTableRecord
100
AcDbBlockTableRecord
  2
*D13
  0
BLOCK_RECORD
  5
803
330
1
100
AcDbSymbolTableRecord
100
AcDbBlockTableRecord
  2
*D14
  0
BLOCK_RECORD
  5
810
330
1
100
AcDbSymbolTableRecord
100
AcDbBlockTableRecord
  2
*D15
  0
BLOCK_RECORD
  5
AD2
330
1
100
AcDbSymbolTableRecord
100
AcDbBlockTableRecord
  2
*D16
  0
BLOCK_RECORD
  5
B0B
330
1
100
AcDbSymbolTableRecord
100
AcDbBlockTableRecord
  2
*D17
  0
BLOCK_RECORD
  5
B25
330
1
100
AcDbSymbolTableRecord
100
AcDbBlockTableRecord
  2
*D18
  0
BLOCK_RECORD
  5
BD9
330
1
100
AcDbSymbolTableRecord
100
AcDbBlockTableRecord
  2
*D19
  0
BLOCK_RECORD
  5
BEA
330
1
100
AcDbSymbolTableRecord
100
AcDbBlockTableRecord
  2
*D20
  0
BLOCK_RECORD
  5
C04
330
1
100
AcDbSymbolTableRecord
100
AcDbBlockTableRecord
  2
*D21
  0
BLOCK_RECORD
  5
C13
330
1
100
AcDbSymbolTableRecord
100
AcDbBlockTableRecord
  2
*D22
  0
BLOCK_RECORD
  5
D42
330
1
100
AcDbSymbolTableRecord
100
AcDbBlockTableRecord
  2
*D23
  0
BLOCK_RECORD
  5
D58
330
1
100
AcDbSymbolTableRecord
100
AcDbBlockTableRecord
  2
*D24
  0
BLOCK_RECORD
  5
E69
330
1
100
AcDbSymbolTableRecord
100
AcDbBlockTableRecord
  2
*D25
  0
BLOCK_RECORD
  5
E78
330
1
100
AcDbSymbolTableRecord
100
AcDbBlockTableRecord
  2
*D26
  0
BLOCK_RECORD
  5
E85
330
1
100
AcDbSymbolTableRecord
100
AcDbBlockTableRecord
  2
*D27
  0
BLOCK_RECORD
  5
FD2
330
1
100
AcDbSymbolTableRecord
100
AcDbBlockTableRecord
  2
*D28
  0
BLOCK_RECORD
  5
1002
330
1
100
AcDbSymbolTableRecord
100
AcDbBlockTableRecord
  2
*D29
  0
BLOCK_RECORD
  5
1033
330
1
100
AcDbSymbolTableRecord
100
AcDbBlockTableRecord
  2
*D30
  0
BLOCK_RECORD
  5
104D
330
1
100
AcDbSymbolTableRecord
100
AcDbBlockTableRecord
  2
*D31
  0
BLOCK_RECORD
  5
105D
330
1
100
AcDbSymbolTableRecord
100
AcDbBlockTableRecord
  2
*D32
  0
BLOCK_RECORD
  5
106A
330
1
100
AcDbSymbolTableRecord
100
AcDbBlockTableRecord
  2
*D33
  0
BLOCK_RECORD
  5
1399
330
1
100
AcDbSymbolTableRecord
100
AcDbBlockTableRecord
  2
*D34
  0
BLOCK_RECORD
  5
13A8
330
1
100
AcDbSymbolTableRecord
100
AcDbBlockTableRecord
  2
*D35
  0
BLOCK_RECORD
  5
1596
330
1
100
AcDbSymbolTableRecord
100
AcDbBlockTableRecord
  2
*D36
  0
BLOCK_RECORD
  5
1A42
330
1
100
AcDbSymbolTableRecord
100
AcDbBlockTableRecord
  2
*D37
  0
BLOCK_RECORD
  5
1A57
330
1
100
AcDbSymbolTableRecord
100
AcDbBlockTableRecord
  2
_NONE
  0
ENDTAB
  0
ENDSEC
  0
SECTION
  2
BLOCKS
  0
BLOCK
  5
D
330
A
100
AcDbEntity
  8
0
100
AcDbBlockBegin
  2
*MODEL_SPACE
 70
     0
 10
0.0
 20
0.0
 30
0.0
  3
*MODEL_SPACE
  1

  0
ENDBLK
  5
E
330
A
100
AcDbEntity
  8
0
100
AcDbBlockEnd
  0
BLOCK
  5
F
330
B
100
AcDbEntity
 67
     1
  8
0
100
AcDbBlockBegin
  2
*PAPER_SPACE
 70
     0
 10
0.0
 20
0.0
 30
0.0
  3
*PAPER_SPACE
  1

  0
ENDBLK
  5
10
330
B
100
AcDbEntity
 67
     1
  8
0
100
AcDbBlockEnd
  0
BLOCK
  5
5BF
330
5BB
100
AcDbEntity
  8
0
100
AcDbBlockBegin
  2
_OPEN30
 70
     0
 10
0.0
 20
0.0
 30
0.0
  3
_OPEN30
  1

  0
LINE
  5
5BC
330
5BB
100
AcDbEntity
  8
0
  6
BYBLOCK
 62
     0
100
AcDbLine
 10
-1.0
 20
0.26794919
 30
0.0
 11
0.0
 21
0.0
 31
0.0
  0
LINE
  5
5BD
330
5BB
100
AcDbEntity
  8
0
  6
BYBLOCK
 62
     0
100
AcDbLine
 10
0.0
 20
0.0
 30
0.0
 11
-1.0
 21
-0.26794919
 31
0.0
  0
LINE
  5
5BE
330
5BB
100
AcDbEntity
  8
0
  6
BYBLOCK
 62
     0
100
AcDbLine
 10
0.0
 20
0.0
 30
0.0
 11
-1.0
 21
0.0
 31
0.0
  0
ENDBLK
  5
5C0
330
5BB
100
AcDbEntity
  8
0
100
AcDbBlockEnd
  0
BLOCK
  5
629
330
61D
100
AcDbEntity
  8
0
100
AcDbBlockBegin
  2
*D1
 70
     1
 10
0.0
 20
0.0
 30
0.0
  3
*D1
  1

  0
LINE
  5
1B56
330
61D
100
AcDbEntity
  8
SUNPOU
100
AcDbLine
 10
34.54574161481434
 20
415.2793245876926
 30
0.0
 11
19.84574161481532
 21
415.2793245876926
 31
0.0
  0
LINE
  5
1B57
330
61D
100
AcDbEntity
  8
SUNPOU
100
AcDbLine
 10
34.54574161481435
 20
417.2793245876928
 30
0.0
 11
19.84574161481532
 21
417.2793245876928
 31
0.0
  0
LINE
  5
1B58
330
61D
100
AcDbEntity
  8
SUNPOU
100
AcDbLine
 10
21.84574161481532
 20
410.2793245876926
 30
0.0
 11
21.84574161481532
 21
405.2793245876928
 31
0.0
  0
LINE
  5
1B59
330
61D
100
AcDbEntity
  8
SUNPOU
100
AcDbLine
 10
21.84574161481532
 20
417.2793245876928
 30
0.0
 11
21.84574161481532
 21
422.2793245876927
 31
0.0
  0
MTEXT
  5
1B5A
330
61D
100
AcDbEntity
  8
SUNPOU
100
AcDbMText
 10
17.34574161481526
 20
408.1902119020735
 30
0.0
 40
5.0
 41
0.0
 71
     5
 72
     1
  1
\A1;2
  7
SUNPOU
 11
0.0000000000000001
 21
1.0
 31
0.0
1001
ACAD
1000
MTEXTBEGIN
1070
    73
1070
     1
1070
    44
1040
1.0
1070
    74
1070
     0
1000
MTEXTEND
1000
MTEXTBEGIN
1070
    73
1070
     1
1070
    44
1040
1.0
1070
    74
1070
     0
1000
MTEXTEND
  0
LINE
  5
1B5B
330
61D
100
AcDbEntity
  8
SUNPOU
100
AcDbLine
 10
21.84574161481532
 20
415.2793245876926
 30
0.0
 11
21.84574161481532
 21
417.2793245876928
 31
0.0
  0
INSERT
  5
1B5C
330
61D
100
AcDbEntity
  8
SUNPOU
100
AcDbBlockReference
  2
_OPEN30
 10
21.84574161481532
 20
415.2793245876926
 30
0.0
 41
5.0
 42
5.0
 43
5.0
 50
90.0
  0
INSERT
  5
1B5D
330
61D
100
AcDbEntity
  8
SUNPOU
100
AcDbBlockReference
  2
_DOTSMALL
 10
21.84574161481532
 20
417.2793245876928
 30
0.0
 41
5.0
 42
5.0
 43
5.0
 50
270.0
  0
POINT
  5
1B5E
330
61D
100
AcDbEntity
  8
DEFPOINTS
 62
     0
100
AcDbPoint
 10
37.54574161481434
 20
415.2793245876926
 30
0.0
  0
POINT
  5
1B5F
330
61D
100
AcDbEntity
  8
DEFPOINTS
 62
     0
100
AcDbPoint
 10
37.54574161481435
 20
417.2793245876928
 30
0.0
  0
POINT
  5
1B60
330
61D
100
AcDbEntity
  8
DEFPOINTS
 62
     0
100
AcDbPoint
 10
21.84574161481532
 20
417.2793245876928
 30
0.0
  0
ENDBLK
  5
62A
330
61D
100
AcDbEntity
  8
0
100
AcDbBlockEnd
  0
BLOCK
  5
638
330
62C
100
AcDbEntity
  8
0
100
AcDbBlockBegin
  2
*D2
 70
     1
 10
0.0
 20
0.0
 30
0.0
  3
*D2
  1

  0
LINE
  5
1B61
330
62C
100
AcDbEntity
  8
SUNPOU
100
AcDbLine
 10
34.54574161481435
 20
417.2793245876928
 30
0.0
 11
19.84574161481532
 21
417.2793245876928
 31
0.0
  0
LINE
  5
1B62
330
62C
100
AcDbEntity
  8
SUNPOU
100
AcDbLine
 10
34.54574161481422
 20
420.2793245876927
 30
0.0
 11
19.84574161481532
 21
420.2793245876927
 31
0.0
  0
LINE
  5
1B63
330
62C
100
AcDbEntity
  8
SUNPOU
100
AcDbLine
 10
21.84574161481532
 20
417.2793245876928
 30
0.0
 11
21.84574161481532
 21
412.2793245876927
 31
0.0
  0
LINE
  5
1B64
330
62C
100
AcDbEntity
  8
SUNPOU
100
AcDbLine
 10
21.84574161481533
 20
425.2793245876928
 30
0.0
 11
21.84574161481533
 21
430.2793245876928
 31
0.0
  0
MTEXT
  5
1B65
330
62C
100
AcDbEntity
  8
SUNPOU
100
AcDbMText
 10
15.34574161481526
 20
418.7793245876926
 30
0.0
 40
5.0
 41
0.0
 71
     5
 72
     1
  1
\A1;3
  7
SUNPOU
 11
0.0000000000000001
 21
1.0
 31
0.0
1001
ACAD
1000
MTEXTBEGIN
1070
    73
1070
     1
1070
    44
1040
1.0
1070
    74
1070
     0
1000
MTEXTEND
1000
MTEXTBEGIN
1070
    73
1070
     1
1070
    44
1040
1.0
1070
    74
1070
     0
1000
MTEXTEND
  0
LINE
  5
1B66
330
62C
100
AcDbEntity
  8
SUNPOU
100
AcDbLine
 10
21.84574161481532
 20
417.2793245876928
 30
0.0
 11
21.84574161481532
 21
420.2793245876927
 31
0.0
  0
INSERT
  5
1B67
330
62C
100
AcDbEntity
  8
SUNPOU
100
AcDbBlockReference
  2
_DOTSMALL
 10
21.84574161481532
 20
417.2793245876928
 30
0.0
 41
5.0
 42
5.0
 43
5.0
 50
90.0
  0
INSERT
  5
1B68
330
62C
100
AcDbEntity
  8
SUNPOU
100
AcDbBlockReference
  2
_OPEN30
 10
21.84574161481532
 20
420.2793245876927
 30
0.0
 41
5.0
 42
5.0
 43
5.0
 50
270.0
  0
POINT
  5
1B69
330
62C
100
AcDbEntity
  8
DEFPOINTS
 62
     0
100
AcDbPoint
 10
37.54574161481435
 20
417.2793245876928
 30
0.0
  0
POINT
  5
1B6A
330
62C
100
AcDbEntity
  8
DEFPOINTS
 62
     0
100
AcDbPoint
 10
37.54574161481421
 20
420.2793245876927
 30
0.0
  0
POINT
  5
1B6B
330
62C
100
AcDbEntity
  8
DEFPOINTS
 62
     0
100
AcDbPoint
 10
21.84574161481532
 20
420.2793245876927
 30
0.0
  0
ENDBLK
  5
639
330
62C
100
AcDbEntity
  8
0
100
AcDbBlockEnd
  0
BLOCK
  5
645
330
63B
100
AcDbEntity
  8
0
100
AcDbBlockBegin
  2
*D3
 70
     1
 10
0.0
 20
0.0
 30
0.0
  3
*D3
  1

  0
LINE
  5
E14
330
63B
100
AcDbEntity
  8
SUNPOU
100
AcDbLine
 10
34.54574161481422
 20
420.2793245876927
 30
0.0
 11
19.84574161481532
 21
420.2793245876927
 31
0.0
  0
LINE
  5
E15
330
63B
100
AcDbEntity
  8
SUNPOU
100
AcDbLine
 10
34.54574161481605
 20
452.2793245876926
 30
0.0
 11
19.84574161481532
 21
452.2793245876926
 31
0.0
  0
LINE
  5
E16
330
63B
100
AcDbEntity
  8
SUNPOU
100
AcDbLine
 10
21.84574161481533
 20
425.2793245876928
 30
0.0
 11
21.84574161481533
 21
447.2793245876927
 31
0.0
  0
INSERT
  5
E17
330
63B
100
AcDbEntity
  8
SUNPOU
100
AcDbBlockReference
  2
_OPEN30
 10
21.84574161481532
 20
420.2793245876927
 30
0.0
 41
5.0
 42
5.0
 43
5.0
 50
270.0
  0
INSERT
  5
E18
330
63B
100
AcDbEntity
  8
SUNPOU
100
AcDbBlockReference
  2
_OPEN30
 10
21.84574161481533
 20
452.2793245876926
 30
0.0
 41
5.0
 42
5.0
 43
5.0
 50
90.0
  0
MTEXT
  5
E19
330
63B
100
AcDbEntity
  8
SUNPOU
100
AcDbMText
 10
17.34574161481526
 20
436.2793245876927
 30
0.0
 40
5.0
 41
0.0
 71
     5
 72
     1
  1
\A1;32
  7
SUNPOU
 11
0.0000000000000001
 21
1.0
 31
0.0
1001
ACAD
1000
MTEXTBEGIN
1070
    73
1070
     1
1070
    44
1040
1.0
1070
    74
1070
     0
1000
MTEXTEND
1000
MTEXTBEGIN
1070
    73
1070
     1
1070
    44
1040
1.0
1070
    74
1070
     0
1000
MTEXTEND
  0
POINT
  5
E1A
330
63B
100
AcDbEntity
  8
DEFPOINTS
 62
     0
100
AcDbPoint
 10
37.54574161481421
 20
420.2793245876927
 30
0.0
  0
POINT
  5
E1B
330
63B
100
AcDbEntity
  8
DEFPOINTS
 62
     0
100
AcDbPoint
 10
37.54574161481603
 20
452.2793245876926
 30
0.0
  0
POINT
  5
E1C
330
63B
100
AcDbEntity
  8
DEFPOINTS
 62
     0
100
AcDbPoint
 10
21.84574161481533
 20
452.2793245876926
 30
0.0
  0
ENDBLK
  5
646
330
63B
100
AcDbEntity
  8
0
100
AcDbBlockEnd
  0
BLOCK
  5
649
330
647
100
AcDbEntity
  8
0
100
AcDbBlockBegin
  2
_DOTSMALL
 70
     0
 10
0.0
 20
0.0
 30
0.0
  3
_DOTSMALL
  1

  0
POLYLINE
  5
648
330
647
100
AcDbEntity
  8
0
  6
BYBLOCK
 62
     0
100
AcDb2dPolyline
 66
     1
 10
0.0
 20
0.0
 30
0.0
 70
     1
 40
0.5
 41
0.5
  0
VERTEX
  5
1C99
330
648
100
AcDbEntity
  8
0
  6
BYBLOCK
 62
     0
100
AcDbVertex
100
AcDb2dVertex
 10
-0.0625
 20
0.0
 30
0.0
 42
1.0
  0
VERTEX
  5
1C9A
330
648
100
AcDbEntity
  8
0
  6
BYBLOCK
 62
     0
100
AcDbVertex
100
AcDb2dVertex
 10
0.0625
 20
0.0
 30
0.0
 42
1.0
  0
SEQEND
  5
1C9B
330
648
100
AcDbEntity
  8
0
  6
BYBLOCK
 62
     0
  0
ENDBLK
  5
64A
330
647
100
AcDbEntity
  8
0
100
AcDbBlockEnd
  0
BLOCK
  5
6B8
330
6AE
100
AcDbEntity
  8
0
100
AcDbBlockBegin
  2
*D5
 70
     1
 10
0.0
 20
0.0
 30
0.0
  3
*D5
  1

  0
LINE
  5
1927
330
6AE
100
AcDbEntity
  8
SUNPOU
100
AcDbLine
 10
311.1235899457296
 20
428.7793245876871
 30
0.0
 11
325.1235899457296
 21
428.7793245876871
 31
0.0
  0
LINE
  5
1928
330
6AE
100
AcDbEntity
  8
SUNPOU
100
AcDbLine
 10
311.1235899457296
 20
443.7793245876926
 30
0.0
 11
325.1235899457296
 21
443.7793245876926
 31
0.0
  0
LINE
  5
1929
330
6AE
100
AcDbEntity
  8
SUNPOU
100
AcDbLine
 10
323.1235899457296
 20
433.7793245876871
 30
0.0
 11
323.1235899457296
 21
438.7793245876927
 31
0.0
  0
INSERT
  5
192A
330
6AE
100
AcDbEntity
  8
SUNPOU
100
AcDbBlockReference
  2
_OPEN30
 10
323.1235899457296
 20
428.7793245876871
 30
0.0
 41
5.0
 42
5.0
 43
5.0
 50
270.0
  0
INSERT
  5
192B
330
6AE
100
AcDbEntity
  8
SUNPOU
100
AcDbBlockReference
  2
_OPEN30
 10
323.1235899457296
 20
443.7793245876926
 30
0.0
 41
5.0
 42
5.0
 43
5.0
 50
90.0
  0
MTEXT
  5
192C
330
6AE
100
AcDbEntity
  8
SUNPOU
100
AcDbMText
 10
318.6235899457296
 20
436.27932458769
 30
0.0
 40
5.0
 41
0.0
 71
     5
 72
     1
  1
\A1;15
  7
SUNPOU
 11
0.0000000000000001
 21
1.0
 31
0.0
1001
ACAD
1000
MTEXTBEGIN
1070
    73
1070
     1
1070
    44
1040
1.0
1070
    74
1070
     0
1000
MTEXTEND
1000
MTEXTBEGIN
1070
    73
1070
     1
1070
    44
1040
1.0
1070
    74
1070
     0
1000
MTEXTEND
  0
POINT
  5
192D
330
6AE
100
AcDbEntity
  8
DEFPOINTS
 62
     0
100
AcDbPoint
 10
308.1235899457297
 20
428.7793245876871
 30
0.0
  0
POINT
  5
192E
330
6AE
100
AcDbEntity
  8
DEFPOINTS
 62
     0
100
AcDbPoint
 10
308.1235899457297
 20
443.7793245876926
 30
0.0
  0
POINT
  5
192F
330
6AE
100
AcDbEntity
  8
DEFPOINTS
 62
     0
100
AcDbPoint
 10
323.1235899457296
 20
443.7793245876926
 30
0.0
  0
ENDBLK
  5
6B9
330
6AE
100
AcDbEntity
  8
0
100
AcDbBlockEnd
  0
BLOCK
  5
6EA
330
6E0
100
AcDbEntity
  8
0
100
AcDbBlockBegin
  2
*D6
 70
     1
 10
0.0
 20
0.0
 30
0.0
  3
*D6
  1

  0
LINE
  5
1452
330
6E0
100
AcDbEntity
  8
SUNPOU
100
AcDbLine
 10
198.1235899457296
 20
452.2793245876926
 30
0.0
 11
198.1235899457296
 21
464.2793245876926
 31
0.0
  0
LINE
  5
1453
330
6E0
100
AcDbEntity
  8
SUNPOU
100
AcDbLine
 10
283.1235899457301
 20
455.2793245876928
 30
0.0
 11
283.1235899457301
 21
464.2793245876926
 31
0.0
  0
LINE
  5
1454
330
6E0
100
AcDbEntity
  8
SUNPOU
100
AcDbLine
 10
203.1235899457294
 20
462.2793245876927
 30
0.0
 11
278.12358994573
 21
462.2793245876927
 31
0.0
  0
MTEXT
  5
1455
330
6E0
100
AcDbEntity
  8
SUNPOU
100
AcDbMText
 10
240.6235899457299
 20
457.7793245876927
 30
0.0
 40
5.0
 41
0.0
 71
     5
 72
     1
  1
\A1;85
  7
SUNPOU
 11
-1.0
 21
0.0000000000000001
 31
0.0
1001
ACAD
1000
MTEXTBEGIN
1070
    73
1070
     1
1070
    44
1040
1.0
1070
    74
1070
     0
1000
MTEXTEND
1000
MTEXTBEGIN
1070
    73
1070
     1
1070
    44
1040
1.0
1070
    74
1070
     0
1000
MTEXTEND
  0
INSERT
  5
1456
330
6E0
100
AcDbEntity
  8
SUNPOU
100
AcDbBlockReference
  2
_OPEN30
 10
198.1235899457296
 20
462.2793245876927
 30
0.0
 41
5.0
 42
5.0
 43
5.0
 50
180.0
  0
INSERT
  5
1457
330
6E0
100
AcDbEntity
  8
SUNPOU
100
AcDbBlockReference
  2
_OPEN30
 10
283.1235899457301
 20
462.2793245876927
 30
0.0
 41
5.0
 42
5.0
 43
5.0
  0
POINT
  5
1458
330
6E0
100
AcDbEntity
  8
DEFPOINTS
 62
     0
100
AcDbPoint
 10
198.1235899457296
 20
449.2793245876927
 30
0.0
  0
POINT
  5
1459
330
6E0
100
AcDbEntity
  8
DEFPOINTS
 62
     0
100
AcDbPoint
 10
283.1235899457301
 20
452.2793245876926
 30
0.0
  0
POINT
  5
145A
330
6E0
100
AcDbEntity
  8
DEFPOINTS
 62
     0
100
AcDbPoint
 10
283.1235899457301
 20
462.2793245876927
 30
0.0
  0
ENDBLK
  5
6EB
330
6E0
100
AcDbEntity
  8
0
100
AcDbBlockEnd
  0
BLOCK
  5
6F7
330
6ED
100
AcDbEntity
  8
0
100
AcDbBlockBegin
  2
*D7
 70
     1
 10
0.0
 20
0.0
 30
0.0
  3
*D7
  1

  0
LINE
  5
18C8
330
6ED
100
AcDbEntity
  8
SUNPOU
100
AcDbLine
 10
37.54574161481537
 20
455.2793245876928
 30
0.0
 11
37.54574161481537
 21
474.2793245876927
 31
0.0
  0
LINE
  5
18C9
330
6ED
100
AcDbEntity
  8
SUNPOU
100
AcDbLine
 10
283.1235899457293
 20
455.2793245876983
 30
0.0
 11
283.1235899457293
 21
474.2793245876927
 31
0.0
  0
LINE
  5
18CA
330
6ED
100
AcDbEntity
  8
SUNPOU
100
AcDbLine
 10
42.54574161481537
 20
472.2793245876927
 30
0.0
 11
278.1235899457294
 21
472.2793245876927
 31
0.0
  0
MTEXT
  5
18CB
330
6ED
100
AcDbEntity
  8
SUNPOU
100
AcDbMText
 10
160.1846657802724
 20
467.7793245876928
 30
0.0
 40
5.0
 41
0.0
 71
     5
 72
     1
  1
\A1;DH
  7
SUNPOU
 11
-1.0
 21
0.0000000000000001
 31
0.0
1001
ACAD
1000
MTEXTBEGIN
1070
    73
1070
     1
1070
    44
1040
1.0
1070
    74
1070
     0
1000
MTEXTEND
1000
MTEXTBEGIN
1070
    73
1070
     1
1070
    44
1040
1.0
1070
    74
1070
     0
1000
MTEXTEND
  0
INSERT
  5
18CC
330
6ED
100
AcDbEntity
  8
SUNPOU
100
AcDbBlockReference
  2
_OPEN30
 10
37.54574161481537
 20
472.2793245876927
 30
0.0
 41
5.0
 42
5.0
 43
5.0
 50
180.0
  0
INSERT
  5
18CD
330
6ED
100
AcDbEntity
  8
SUNPOU
100
AcDbBlockReference
  2
_OPEN30
 10
283.1235899457293
 20
472.2793245876927
 30
0.0
 41
5.0
 42
5.0
 43
5.0
  0
POINT
  5
18CE
330
6ED
100
AcDbEntity
  8
DEFPOINTS
 62
     0
100
AcDbPoint
 10
37.54574161481537
 20
452.2793245876926
 30
0.0
  0
POINT
  5
18CF
330
6ED
100
AcDbEntity
  8
DEFPOINTS
 62
     0
100
AcDbPoint
 10
283.1235899457293
 20
452.2793245876982
 30
0.0
  0
POINT
  5
18D0
330
6ED
100
AcDbEntity
  8
DEFPOINTS
 62
     0
100
AcDbPoint
 10
283.1235899457293
 20
472.2793245876927
 30
0.0
  0
ENDBLK
  5
6F8
330
6ED
100
AcDbEntity
  8
0
100
AcDbBlockEnd
  0
BLOCK
  5
70D
330
703
100
AcDbEntity
  8
0
100
AcDbBlockBegin
  2
*D8
 70
     1
 10
0.0
 20
0.0
 30
0.0
  3
*D8
  1

  0
LINE
  5
18BF
330
703
100
AcDbEntity
  8
SUNPOU
100
AcDbLine
 10
283.1235899457293
 20
455.2793245876983
 30
0.0
 11
283.1235899457293
 21
474.2793245876927
 31
0.0
  0
LINE
  5
18C0
330
703
100
AcDbEntity
  8
SUNPOU
100
AcDbLine
 10
308.1235899457297
 20
446.7793245876928
 30
0.0
 11
308.1235899457297
 21
474.2793245876927
 31
0.0
  0
LINE
  5
18C1
330
703
100
AcDbEntity
  8
SUNPOU
100
AcDbLine
 10
288.1235899457292
 20
472.2793245876927
 30
0.0
 11
303.1235899457296
 21
472.2793245876927
 31
0.0
  0
MTEXT
  5
18C2
330
703
100
AcDbEntity
  8
SUNPOU
100
AcDbMText
 10
295.6235899457296
 20
467.7793245876928
 30
0.0
 40
5.0
 41
0.0
 71
     5
 72
     1
  1
\A1;25
  7
SUNPOU
 11
-1.0
 21
0.0000000000000001
 31
0.0
1001
ACAD
1000
MTEXTBEGIN
1070
    73
1070
     1
1070
    44
1040
1.0
1070
    74
1070
     0
1000
MTEXTEND
1000
MTEXTBEGIN
1070
    73
1070
     1
1070
    44
1040
1.0
1070
    74
1070
     0
1000
MTEXTEND
  0
INSERT
  5
18C3
330
703
100
AcDbEntity
  8
SUNPOU
100
AcDbBlockReference
  2
_OPEN30
 10
283.1235899457293
 20
472.2793245876927
 30
0.0
 41
5.0
 42
5.0
 43
5.0
 50
180.0
  0
INSERT
  5
18C4
330
703
100
AcDbEntity
  8
SUNPOU
100
AcDbBlockReference
  2
_OPEN30
 10
308.1235899457297
 20
472.2793245876927
 30
0.0
 41
5.0
 42
5.0
 43
5.0
  0
POINT
  5
18C5
330
703
100
AcDbEntity
  8
DEFPOINTS
 62
     0
100
AcDbPoint
 10
283.1235899457293
 20
452.2793245876982
 30
0.0
  0
POINT
  5
18C6
330
703
100
AcDbEntity
  8
DEFPOINTS
 62
     0
100
AcDbPoint
 10
308.1235899457297
 20
443.7793245876926
 30
0.0
  0
POINT
  5
18C7
330
703
100
AcDbEntity
  8
DEFPOINTS
 62
     0
100
AcDbPoint
 10
308.1235899457297
 20
472.2793245876927
 30
0.0
  0
ENDBLK
  5
70E
330
703
100
AcDbEntity
  8
0
100
AcDbBlockEnd
  0
BLOCK
  5
71C
330
710
100
AcDbEntity
  8
0
100
AcDbBlockBegin
  2
*D9
 70
     1
 10
0.0
 20
0.0
 30
0.0
  3
*D9
  1

  0
LINE
  5
1B0E
330
710
100
AcDbEntity
  8
SUNPOU
100
AcDbLine
 10
283.1235899457293
 20
455.2793245876983
 30
0.0
 11
283.1235899457293
 21
464.2793245876926
 31
0.0
  0
LINE
  5
1B0F
330
710
100
AcDbEntity
  8
SUNPOU
100
AcDbLine
 10
291.1235899457297
 20
449.5838487858133
 30
0.0
 11
291.1235899457297
 21
464.2793245876926
 31
0.0
  0
LINE
  5
1B10
330
710
100
AcDbEntity
  8
SUNPOU
100
AcDbLine
 10
278.1235899457294
 20
462.2793245876927
 30
0.0
 11
273.1235899457294
 21
462.2793245876927
 31
0.0
  0
LINE
  5
1B11
330
710
100
AcDbEntity
  8
SUNPOU
100
AcDbLine
 10
296.1235899457296
 20
462.2793245876927
 30
0.0
 11
301.1235899457297
 21
462.2793245876927
 31
0.0
  0
MTEXT
  5
1B12
330
710
100
AcDbEntity
  8
SUNPOU
100
AcDbMText
 10
287.1235899457298
 20
457.7793245876927
 30
0.0
 40
5.0
 41
0.0
 71
     5
 72
     1
  1
\A1;8
  7
SUNPOU
 11
-1.0
 21
0.0000000000000001
 31
0.0
1001
ACAD
1000
MTEXTBEGIN
1070
    73
1070
     1
1070
    44
1040
1.0
1070
    74
1070
     0
1000
MTEXTEND
1000
MTEXTBEGIN
1070
    73
1070
     1
1070
    44
1040
1.0
1070
    74
1070
     0
1000
MTEXTEND
  0
LINE
  5
1B13
330
710
100
AcDbEntity
  8
SUNPOU
100
AcDbLine
 10
283.1235899457293
 20
462.2793245876927
 30
0.0
 11
291.1235899457297
 21
462.2793245876927
 31
0.0
  0
INSERT
  5
1B14
330
710
100
AcDbEntity
  8
SUNPOU
100
AcDbBlockReference
  2
_OPEN30
 10
283.1235899457293
 20
462.2793245876927
 30
0.0
 41
5.0
 42
5.0
 43
5.0
  0
INSERT
  5
1B15
330
710
100
AcDbEntity
  8
SUNPOU
100
AcDbBlockReference
  2
_OPEN30
 10
291.1235899457297
 20
462.2793245876927
 30
0.0
 41
5.0
 42
5.0
 43
5.0
 50
180.0
  0
POINT
  5
1B16
330
710
100
AcDbEntity
  8
DEFPOINTS
 62
     0
100
AcDbPoint
 10
283.1235899457293
 20
452.2793245876982
 30
0.0
  0
POINT
  5
1B17
330
710
100
AcDbEntity
  8
DEFPOINTS
 62
     0
100
AcDbPoint
 10
291.1235899457297
 20
446.5838487858133
 30
0.0
  0
POINT
  5
1B18
330
710
100
AcDbEntity
  8
DEFPOINTS
 62
     0
100
AcDbPoint
 10
291.1235899457297
 20
462.2793245876927
 30
0.0
  0
ENDBLK
  5
71D
330
710
100
AcDbEntity
  8
0
100
AcDbBlockEnd
  0
BLOCK
  5
7A1
330
795
100
AcDbEntity
  8
0
100
AcDbBlockBegin
  2
*D10
 70
     1
 10
0.0
 20
0.0
 30
0.0
  3
*D10
  1

  0
LINE
  5
DD1
330
795
100
AcDbEntity
  8
SUNPOU
100
AcDbLine
 10
54.66496493263765
 20
192.1013886298955
 30
0.0
 11
38.66074000469995
 21
192.1013886298955
 31
0.0
  0
LINE
  5
DD2
330
795
100
AcDbEntity
  8
SUNPOU
100
AcDbLine
 10
54.66496493263765
 20
204.1013886298955
 30
0.0
 11
38.66074000469995
 21
204.1013886298955
 31
0.0
  0
LINE
  5
DD3
330
795
100
AcDbEntity
  8
SUNPOU
100
AcDbLine
 10
40.66074000469995
 20
187.1013886298955
 30
0.0
 11
40.66074000469995
 21
182.1013886298955
 31
0.0
  0
LINE
  5
DD4
330
795
100
AcDbEntity
  8
SUNPOU
100
AcDbLine
 10
40.66074000469996
 20
209.1013886298955
 30
0.0
 11
40.66074000469996
 21
214.1013886298956
 31
0.0
  0
LINE
  5
DD5
330
795
100
AcDbEntity
  8
SUNPOU
100
AcDbLine
 10
40.66074000469995
 20
192.1013886298955
 30
0.0
 11
40.66074000469995
 21
204.1013886298955
 31
0.0
  0
INSERT
  5
DD6
330
795
100
AcDbEntity
  8
SUNPOU
100
AcDbBlockReference
  2
_OPEN30
 10
40.66074000469995
 20
192.1013886298955
 30
0.0
 41
5.0
 42
5.0
 43
5.0
 50
90.0
  0
INSERT
  5
DD7
330
795
100
AcDbEntity
  8
SUNPOU
100
AcDbBlockReference
  2
_OPEN30
 10
40.66074000469995
 20
204.1013886298955
 30
0.0
 41
5.0
 42
5.0
 43
5.0
 50
270.0
  0
MTEXT
  5
DD8
330
795
100
AcDbEntity
  8
SUNPOU
100
AcDbMText
 10
36.16074000469992
 20
198.1013886298955
 30
0.0
 40
5.0
 41
0.0
 71
     5
 72
     1
  1
\A1;120
  7
SUNPOU
 11
0.0000000000000001
 21
1.0
 31
0.0
1001
ACAD
1000
MTEXTBEGIN
1070
    73
1070
     1
1070
    44
1040
1.0
1070
    74
1070
     0
1000
MTEXTEND
1000
MTEXTBEGIN
1070
    73
1070
     1
1070
    44
1040
1.0
1070
    74
1070
     0
1000
MTEXTEND
  0
POINT
  5
DD9
330
795
100
AcDbEntity
  8
DEFPOINTS
 62
     0
100
AcDbPoint
 10
57.66496493263765
 20
192.1013886298955
 30
0.0
  0
POINT
  5
DDA
330
795
100
AcDbEntity
  8
DEFPOINTS
 62
     0
100
AcDbPoint
 10
57.66496493263765
 20
204.1013886298955
 30
0.0
  0
POINT
  5
DDB
330
795
100
AcDbEntity
  8
DEFPOINTS
 62
     0
100
AcDbPoint
 10
40.66074000469995
 20
204.1013886298955
 30
0.0
  0
ENDBLK
  5
7A2
330
795
100
AcDbEntity
  8
0
100
AcDbBlockEnd
  0
BLOCK
  5
7B0
330
7A4
100
AcDbEntity
  8
0
100
AcDbBlockBegin
  2
*D11
 70
     1
 10
0.0
 20
0.0
 30
0.0
  3
*D11
  1

  0
LINE
  5
DC6
330
7A4
100
AcDbEntity
  8
SUNPOU
100
AcDbLine
 10
54.66496493263765
 20
248.1013886298955
 30
0.0
 11
38.66074000469995
 21
248.1013886298955
 31
0.0
  0
LINE
  5
DC7
330
7A4
100
AcDbEntity
  8
SUNPOU
100
AcDbLine
 10
54.66496493263765
 20
260.1013886298956
 30
0.0
 11
38.66074000469995
 21
260.1013886298956
 31
0.0
  0
LINE
  5
DC8
330
7A4
100
AcDbEntity
  8
SUNPOU
100
AcDbLine
 10
40.66074000469995
 20
243.1013886298955
 30
0.0
 11
40.66074000469995
 21
238.1013886298955
 31
0.0
  0
LINE
  5
DC9
330
7A4
100
AcDbEntity
  8
SUNPOU
100
AcDbLine
 10
40.66074000469995
 20
265.1013886298956
 30
0.0
 11
40.66074000469995
 21
270.1013886298956
 31
0.0
  0
LINE
  5
DCA
330
7A4
100
AcDbEntity
  8
SUNPOU
100
AcDbLine
 10
40.66074000469995
 20
248.1013886298955
 30
0.0
 11
40.66074000469995
 21
260.1013886298956
 31
0.0
  0
INSERT
  5
DCB
330
7A4
100
AcDbEntity
  8
SUNPOU
100
AcDbBlockReference
  2
_OPEN30
 10
40.66074000469995
 20
248.1013886298955
 30
0.0
 41
5.0
 42
5.0
 43
5.0
 50
90.0
  0
INSERT
  5
DCC
330
7A4
100
AcDbEntity
  8
SUNPOU
100
AcDbBlockReference
  2
_OPEN30
 10
40.66074000469995
 20
260.1013886298956
 30
0.0
 41
5.0
 42
5.0
 43
5.0
 50
270.0
  0
MTEXT
  5
DCD
330
7A4
100
AcDbEntity
  8
SUNPOU
100
AcDbMText
 10
36.16074000469991
 20
254.1013886298955
 30
0.0
 40
5.0
 41
0.0
 71
     5
 72
     1
  1
\A1;120
  7
SUNPOU
 11
0.0000000000000001
 21
1.0
 31
0.0
1001
ACAD
1000
MTEXTBEGIN
1070
    73
1070
     1
1070
    44
1040
1.0
1070
    74
1070
     0
1000
MTEXTEND
1000
MTEXTBEGIN
1070
    73
1070
     1
1070
    44
1040
1.0
1070
    74
1070
     0
1000
MTEXTEND
  0
POINT
  5
DCE
330
7A4
100
AcDbEntity
  8
DEFPOINTS
 62
     0
100
AcDbPoint
 10
57.66496493263765
 20
248.1013886298955
 30
0.0
  0
POINT
  5
DCF
330
7A4
100
AcDbEntity
  8
DEFPOINTS
 62
     0
100
AcDbPoint
 10
57.66496493263765
 20
260.1013886298956
 30
0.0
  0
POINT
  5
DD0
330
7A4
100
AcDbEntity
  8
DEFPOINTS
 62
     0
100
AcDbPoint
 10
40.66074000469995
 20
260.1013886298956
 30
0.0
  0
ENDBLK
  5
7B1
330
7A4
100
AcDbEntity
  8
0
100
AcDbBlockEnd
  0
BLOCK
  5
7D7
330
7CB
100
AcDbEntity
  8
0
100
AcDbBlockBegin
  2
*D12
 70
     1
 10
0.0
 20
0.0
 30
0.0
  3
*D12
  1

  0
LINE
  5
DBB
330
7CB
100
AcDbEntity
  8
SUNPOU
100
AcDbLine
 10
279.5607400046999
 20
189.4013886298955
 30
0.0
 11
291.8607400046998
 21
189.4013886298955
 31
0.0
  0
LINE
  5
DBC
330
7CB
100
AcDbEntity
  8
SUNPOU
100
AcDbLine
 10
279.5607400046999
 20
195.4013886298955
 30
0.0
 11
291.8607400046998
 21
195.4013886298955
 31
0.0
  0
LINE
  5
DBD
330
7CB
100
AcDbEntity
  8
SUNPOU
100
AcDbLine
 10
289.8607400046998
 20
184.4013886298954
 30
0.0
 11
289.8607400046998
 21
179.4013886298955
 31
0.0
  0
LINE
  5
DBE
330
7CB
100
AcDbEntity
  8
SUNPOU
100
AcDbLine
 10
289.8607400046998
 20
200.4013886298956
 30
0.0
 11
289.8607400046998
 21
205.4013886298954
 31
0.0
  0
MTEXT
  5
DBF
330
7CB
100
AcDbEntity
  8
SUNPOU
100
AcDbMText
 10
285.3607400046998
 20
204.7738540153535
 30
0.0
 40
5.0
 41
0.0
 71
     5
 72
     1
  1
\A1;60
  7
SUNPOU
 11
0.0000000000000001
 21
1.0
 31
0.0
1001
ACAD
1000
MTEXTBEGIN
1070
    73
1070
     1
1070
    44
1040
1.0
1070
    74
1070
     0
1000
MTEXTEND
1000
MTEXTBEGIN
1070
    73
1070
     1
1070
    44
1040
1.0
1070
    74
1070
     0
1000
MTEXTEND
  0
LINE
  5
DC0
330
7CB
100
AcDbEntity
  8
SUNPOU
100
AcDbLine
 10
289.8607400046998
 20
189.4013886298955
 30
0.0
 11
289.8607400046998
 21
195.4013886298955
 31
0.0
  0
INSERT
  5
DC1
330
7CB
100
AcDbEntity
  8
SUNPOU
100
AcDbBlockReference
  2
_OPEN30
 10
289.8607400046998
 20
189.4013886298955
 30
0.0
 41
5.0
 42
5.0
 43
5.0
 50
90.0
  0
INSERT
  5
DC2
330
7CB
100
AcDbEntity
  8
SUNPOU
100
AcDbBlockReference
  2
_OPEN30
 10
289.8607400046998
 20
195.4013886298955
 30
0.0
 41
5.0
 42
5.0
 43
5.0
 50
270.0
  0
POINT
  5
DC3
330
7CB
100
AcDbEntity
  8
DEFPOINTS
 62
     0
100
AcDbPoint
 10
276.5607400046998
 20
189.4013886298955
 30
0.0
  0
POINT
  5
DC4
330
7CB
100
AcDbEntity
  8
DEFPOINTS
 62
     0
100
AcDbPoint
 10
276.5607400046998
 20
195.4013886298955
 30
0.0
  0
POINT
  5
DC5
330
7CB
100
AcDbEntity
  8
DEFPOINTS
 62
     0
100
AcDbPoint
 10
289.8607400046998
 20
195.4013886298955
 30
0.0
  0
ENDBLK
  5
7D8
330
7CB
100
AcDbEntity
  8
0
100
AcDbBlockEnd
  0
BLOCK
  5
7F5
330
7EB
100
AcDbEntity
  8
0
100
AcDbBlockBegin
  2
*D13
 70
     1
 10
0.0
 20
0.0
 30
0.0
  3
*D13
  1

  0
LINE
  5
DA9
330
7EB
100
AcDbEntity
  8
SUNPOU
100
AcDbLine
 10
277.8607400046999
 20
180.4013886298955
 30
0.0
 11
306.8607400046998
 21
180.4013886298955
 31
0.0
  0
LINE
  5
DAA
330
7EB
100
AcDbEntity
  8
SUNPOU
100
AcDbLine
 10
282.0607400046998
 20
192.4013886298956
 30
0.0
 11
306.8607400046998
 21
192.4013886298956
 31
0.0
  0
LINE
  5
DAB
330
7EB
100
AcDbEntity
  8
SUNPOU
100
AcDbLine
 10
304.8607400046998
 20
175.4013886298956
 30
0.0
 11
304.8607400046998
 21
170.4013886298955
 31
0.0
  0
LINE
  5
DAC
330
7EB
100
AcDbEntity
  8
SUNPOU
100
AcDbLine
 10
304.8607400046998
 20
197.4013886298956
 30
0.0
 11
304.8607400046998
 21
202.4013886298956
 31
0.0
  0
LINE
  5
DAD
330
7EB
100
AcDbEntity
  8
SUNPOU
100
AcDbLine
 10
304.8607400046998
 20
180.4013886298955
 30
0.0
 11
304.8607400046998
 21
192.4013886298956
 31
0.0
  0
INSERT
  5
DAE
330
7EB
100
AcDbEntity
  8
SUNPOU
100
AcDbBlockReference
  2
_OPEN30
 10
304.8607400046998
 20
180.4013886298955
 30
0.0
 41
5.0
 42
5.0
 43
5.0
 50
90.0
  0
INSERT
  5
DAF
330
7EB
100
AcDbEntity
  8
SUNPOU
100
AcDbBlockReference
  2
_OPEN30
 10
304.8607400046998
 20
192.4013886298956
 30
0.0
 41
5.0
 42
5.0
 43
5.0
 50
270.0
  0
MTEXT
  5
DB0
330
7EB
100
AcDbEntity
  8
SUNPOU
100
AcDbMText
 10
300.3607400046998
 20
186.4013886298955
 30
0.0
 40
5.0
 41
0.0
 71
     5
 72
     1
  1
\A1;120
  7
SUNPOU
 11
0.0000000000000001
 21
1.0
 31
0.0
1001
ACAD
1000
MTEXTBEGIN
1070
    73
1070
     1
1070
    44
1040
1.0
1070
    74
1070
     0
1000
MTEXTEND
1000
MTEXTBEGIN
1070
    73
1070
     1
1070
    44
1040
1.0
1070
    74
1070
     0
1000
MTEXTEND
  0
POINT
  5
DB1
330
7EB
100
AcDbEntity
  8
DEFPOINTS
 62
     0
100
AcDbPoint
 10
274.8607400046998
 20
180.4013886298955
 30
0.0
  0
POINT
  5
DB2
330
7EB
100
AcDbEntity
  8
DEFPOINTS
 62
     0
100
AcDbPoint
 10
279.0607400046998
 20
192.4013886298956
 30
0.0
  0
POINT
  5
DB3
330
7EB
100
AcDbEntity
  8
DEFPOINTS
 62
     0
100
AcDbPoint
 10
304.8607400046998
 20
192.4013886298956
 30
0.0
  0
ENDBLK
  5
7F6
330
7EB
100
AcDbEntity
  8
0
100
AcDbBlockEnd
  0
BLOCK
  5
80D
330
803
100
AcDbEntity
  8
0
100
AcDbBlockBegin
  2
*D14
 70
     1
 10
0.0
 20
0.0
 30
0.0
  3
*D14
  1

  0
LINE
  5
DA0
330
803
100
AcDbEntity
  8
SUNPOU
100
AcDbLine
 10
282.0607400046998
 20
251.8013886298955
 30
0.0
 11
306.8607400046998
 21
251.8013886298955
 31
0.0
  0
LINE
  5
DA1
330
803
100
AcDbEntity
  8
SUNPOU
100
AcDbLine
 10
277.8607400046999
 20
271.8013886298956
 30
0.0
 11
306.8607400046998
 21
271.8013886298956
 31
0.0
  0
LINE
  5
DA2
330
803
100
AcDbEntity
  8
SUNPOU
100
AcDbLine
 10
304.8607400046998
 20
256.8013886298956
 30
0.0
 11
304.8607400046998
 21
266.8013886298956
 31
0.0
  0
INSERT
  5
DA3
330
803
100
AcDbEntity
  8
SUNPOU
100
AcDbBlockReference
  2
_OPEN30
 10
304.8607400046998
 20
251.8013886298955
 30
0.0
 41
5.0
 42
5.0
 43
5.0
 50
270.0
  0
INSERT
  5
DA4
330
803
100
AcDbEntity
  8
SUNPOU
100
AcDbBlockReference
  2
_OPEN30
 10
304.8607400046998
 20
271.8013886298956
 30
0.0
 41
5.0
 42
5.0
 43
5.0
 50
90.0
  0
MTEXT
  5
DA5
330
803
100
AcDbEntity
  8
SUNPOU
100
AcDbMText
 10
300.3607400046998
 20
261.8013886298957
 30
0.0
 40
5.0
 41
0.0
 71
     5
 72
     1
  1
\A1;200
  7
SUNPOU
 11
0.0000000000000001
 21
1.0
 31
0.0
1001
ACAD
1000
MTEXTBEGIN
1070
    73
1070
     1
1070
    44
1040
1.0
1070
    74
1070
     0
1000
MTEXTEND
1000
MTEXTBEGIN
1070
    73
1070
     1
1070
    44
1040
1.0
1070
    74
1070
     0
1000
MTEXTEND
  0
POINT
  5
DA6
330
803
100
AcDbEntity
  8
DEFPOINTS
 62
     0
100
AcDbPoint
 10
279.0607400046998
 20
251.8013886298955
 30
0.0
  0
POINT
  5
DA7
330
803
100
AcDbEntity
  8
DEFPOINTS
 62
     0
100
AcDbPoint
 10
274.8607400046998
 20
271.8013886298956
 30
0.0
  0
POINT
  5
DA8
330
803
100
AcDbEntity
  8
DEFPOINTS
 62
     0
100
AcDbPoint
 10
304.8607400046998
 20
271.8013886298956
 30
0.0
  0
ENDBLK
  5
80E
330
803
100
AcDbEntity
  8
0
100
AcDbBlockEnd
  0
BLOCK
  5
81A
330
810
100
AcDbEntity
  8
0
100
AcDbBlockBegin
  2
*D15
 70
     1
 10
0.0
 20
0.0
 30
0.0
  3
*D15
  1

  0
LINE
  5
D97
330
810
100
AcDbEntity
  8
SUNPOU
100
AcDbLine
 10
277.8607400046999
 20
180.4013886298955
 30
0.0
 11
316.8607400046998
 21
180.4013886298955
 31
0.0
  0
LINE
  5
D98
330
810
100
AcDbEntity
  8
SUNPOU
100
AcDbLine
 10
277.8607400046999
 20
271.8013886298956
 30
0.0
 11
316.8607400046998
 21
271.8013886298956
 31
0.0
  0
LINE
  5
D99
330
810
100
AcDbEntity
  8
SUNPOU
100
AcDbLine
 10
314.8607400046998
 20
185.4013886298955
 30
0.0
 11
314.8607400046998
 21
266.8013886298956
 31
0.0
  0
INSERT
  5
D9A
330
810
100
AcDbEntity
  8
SUNPOU
100
AcDbBlockReference
  2
_OPEN30
 10
314.8607400046998
 20
180.4013886298955
 30
0.0
 41
5.0
 42
5.0
 43
5.0
 50
270.0
  0
INSERT
  5
D9B
330
810
100
AcDbEntity
  8
SUNPOU
100
AcDbBlockReference
  2
_OPEN30
 10
314.8607400046998
 20
271.8013886298956
 30
0.0
 41
5.0
 42
5.0
 43
5.0
 50
90.0
  0
MTEXT
  5
D9C
330
810
100
AcDbEntity
  8
SUNPOU
100
AcDbMText
 10
310.3607400046998
 20
226.1013886298955
 30
0.0
 40
5.0
 41
0.0
 71
     5
 72
     1
  1
\A1;DW
  7
SUNPOU
 11
0.0000000000000001
 21
1.0
 31
0.0
1001
ACAD
1000
MTEXTBEGIN
1070
    73
1070
     1
1070
    44
1040
1.0
1070
    74
1070
     0
1000
MTEXTEND
1000
MTEXTBEGIN
1070
    73
1070
     1
1070
    44
1040
1.0
1070
    74
1070
     0
1000
MTEXTEND
  0
POINT
  5
D9D
330
810
100
AcDbEntity
  8
DEFPOINTS
 62
     0
100
AcDbPoint
 10
274.8607400046998
 20
180.4013886298955
 30
0.0
  0
POINT
  5
D9E
330
810
100
AcDbEntity
  8
DEFPOINTS
 62
     0
100
AcDbPoint
 10
274.8607400046998
 20
271.8013886298956
 30
0.0
  0
POINT
  5
D9F
330
810
100
AcDbEntity
  8
DEFPOINTS
 62
     0
100
AcDbPoint
 10
314.8607400046998
 20
271.8013886298956
 30
0.0
  0
ENDBLK
  5
81B
330
810
100
AcDbEntity
  8
0
100
AcDbBlockEnd
  0
BLOCK
  5
ADE
330
AD2
100
AcDbEntity
  8
0
100
AcDbBlockBegin
  2
*D16
 70
     1
 10
0.0
 20
0.0
 30
0.0
  3
*D16
  1

  0
LINE
  5
AEB
330
AD2
100
AcDbEntity
  8
SUNPOU
100
AcDbLine
 10
349.8211852354593
 20
498.3919367294483
 30
0.0
 11
340.3211852354595
 21
498.3919367294483
 31
0.0
  0
LINE
  5
AEC
330
AD2
100
AcDbEntity
  8
SUNPOU
100
AcDbLine
 10
339.7950891635313
 20
501.6121620146872
 30
0.0
 11
340.3211852354595
 21
501.6121620146872
 31
0.0
  0
LINE
  5
AED
330
AD2
100
AcDbEntity
  8
SUNPOU
100
AcDbLine
 10
342.3211852354595
 20
493.3919367294484
 30
0.0
 11
342.3211852354595
 21
488.3919367294486
 31
0.0
  0
LINE
  5
AEE
330
AD2
100
AcDbEntity
  8
SUNPOU
100
AcDbLine
 10
342.3211852354595
 20
506.6121620146872
 30
0.0
 11
342.3211852354595
 21
511.6121620146873
 31
0.0
  0
LINE
  5
AEF
330
AD2
100
AcDbEntity
  8
SUNPOU
100
AcDbLine
 10
342.3211852354595
 20
498.3919367294483
 30
0.0
 11
342.3211852354595
 21
501.6121620146872
 31
0.0
  0
INSERT
  5
AF0
330
AD2
100
AcDbEntity
  8
SUNPOU
100
AcDbBlockReference
  2
_OPEN30
 10
342.3211852354595
 20
498.3919367294483
 30
0.0
 41
5.0
 42
5.0
 43
5.0
 50
90.0
  0
INSERT
  5
AF1
330
AD2
100
AcDbEntity
  8
SUNPOU
100
AcDbBlockReference
  2
_OPEN30
 10
342.3211852354595
 20
501.6121620146872
 30
0.0
 41
5.0
 42
5.0
 43
5.0
 50
270.0
  0
MTEXT
  5
AF2
330
AD2
100
AcDbEntity
  8
SUNPOU
100
AcDbMText
 10
337.8211852354595
 20
500.0020493720677
 30
0.0
 40
5.0
 41
0.0
 71
     5
 72
     1
  1
\A1;3.2
  7
SUNPOU
 11
0.0000000000000001
 21
1.0
 31
0.0
1001
ACAD
1000
MTEXTBEGIN
1070
    73
1070
     1
1070
    44
1040
1.0
1070
    74
1070
     0
1000
MTEXTEND
1000
MTEXTBEGIN
1070
    73
1070
     1
1070
    44
1040
1.0
1070
    74
1070
     0
1000
MTEXTEND
  0
POINT
  5
AF3
330
AD2
100
AcDbEntity
  8
DEFPOINTS
 62
     0
100
AcDbPoint
 10
352.8211852354595
 20
498.3919367294483
 30
0.0
  0
POINT
  5
AF4
330
AD2
100
AcDbEntity
  8
DEFPOINTS
 62
     0
100
AcDbPoint
 10
342.7950891635313
 20
501.6121620146872
 30
0.0
  0
POINT
  5
AF5
330
AD2
100
AcDbEntity
  8
DEFPOINTS
 62
     0
100
AcDbPoint
 10
342.3211852354595
 20
501.6121620146872
 30
0.0
  0
ENDBLK
  5
ADF
330
AD2
100
AcDbEntity
  8
0
100
AcDbBlockEnd
  0
BLOCK
  5
B17
330
B0B
100
AcDbEntity
  8
0
100
AcDbBlockBegin
  2
*D17
 70
     1
 10
0.0
 20
0.0
 30
0.0
  3
*D17
  1

  0
LINE
  5
1B70
330
B0B
100
AcDbEntity
  8
SUNPOU
100
AcDbLine
 10
349.8211852354596
 20
276.3919367294485
 30
0.0
 11
340.3211852354596
 21
276.3919367294485
 31
0.0
  0
LINE
  5
1B71
330
B0B
100
AcDbEntity
  8
SUNPOU
100
AcDbLine
 10
349.8211852354593
 20
288.3919367294485
 30
0.0
 11
340.3211852354596
 21
288.3919367294485
 31
0.0
  0
LINE
  5
1B72
330
B0B
100
AcDbEntity
  8
SUNPOU
100
AcDbLine
 10
342.3211852354596
 20
281.3919367294483
 30
0.0
 11
342.3211852354596
 21
288.3919367294485
 31
0.0
  0
MTEXT
  5
1B73
330
B0B
100
AcDbEntity
  8
SUNPOU
100
AcDbMText
 10
337.8211852354595
 20
283.0742073908522
 30
0.0
 40
5.0
 41
0.0
 71
     5
 72
     1
  1
\A1;12
  7
SUNPOU
 11
0.0000000000000001
 21
1.0
 31
0.0
1001
ACAD
1000
MTEXTBEGIN
1070
    73
1070
     1
1070
    44
1040
1.0
1070
    74
1070
     0
1000
MTEXTEND
1000
MTEXTBEGIN
1070
    73
1070
     1
1070
    44
1040
1.0
1070
    74
1070
     0
1000
MTEXTEND
  0
INSERT
  5
1B74
330
B0B
100
AcDbEntity
  8
SUNPOU
100
AcDbBlockReference
  2
_OPEN30
 10
342.3211852354596
 20
276.3919367294485
 30
0.0
 41
5.0
 42
5.0
 43
5.0
 50
270.0
  0
INSERT
  5
1B75
330
B0B
100
AcDbEntity
  8
SUNPOU
100
AcDbBlockReference
  2
_DOTSMALL
 10
342.3211852354596
 20
288.3919367294485
 30
0.0
 41
5.0
 42
5.0
 43
5.0
 50
90.0
  0
POINT
  5
1B76
330
B0B
100
AcDbEntity
  8
DEFPOINTS
 62
     0
100
AcDbPoint
 10
352.8211852354596
 20
276.3919367294485
 30
0.0
  0
POINT
  5
1B77
330
B0B
100
AcDbEntity
  8
DEFPOINTS
 62
     0
100
AcDbPoint
 10
352.8211852354595
 20
288.3919367294485
 30
0.0
  0
POINT
  5
1B78
330
B0B
100
AcDbEntity
  8
DEFPOINTS
 62
     0
100
AcDbPoint
 10
342.3211852354596
 20
288.3919367294485
 30
0.0
  0
ENDBLK
  5
B18
330
B0B
100
AcDbEntity
  8
0
100
AcDbBlockEnd
  0
BLOCK
  5
B31
330
B25
100
AcDbEntity
  8
0
100
AcDbBlockBegin
  2
*D18
 70
     1
 10
0.0
 20
0.0
 30
0.0
  3
*D18
  1

  0
LINE
  5
1B79
330
B25
100
AcDbEntity
  8
SUNPOU
100
AcDbLine
 10
349.8211852354592
 20
293.3919367294483
 30
0.0
 11
340.3211852354596
 21
293.3919367294483
 31
0.0
  0
LINE
  5
1B7A
330
B25
100
AcDbEntity
  8
SUNPOU
100
AcDbLine
 10
349.8211852354593
 20
305.3919367294485
 30
0.0
 11
340.3211852354596
 21
305.3919367294485
 31
0.0
  0
LINE
  5
1B7B
330
B25
100
AcDbEntity
  8
SUNPOU
100
AcDbLine
 10
342.3211852354596
 20
293.3919367294483
 30
0.0
 11
342.3211852354596
 21
300.3919367294485
 31
0.0
  0
MTEXT
  5
1B7C
330
B25
100
AcDbEntity
  8
SUNPOU
100
AcDbMText
 10
337.8211852354595
 20
299.6002065029447
 30
0.0
 40
5.0
 41
0.0
 71
     5
 72
     1
  1
\A1;12
  7
SUNPOU
 11
0.0000000000000001
 21
1.0
 31
0.0
1001
ACAD
1000
MTEXTBEGIN
1070
    73
1070
     1
1070
    44
1040
1.0
1070
    74
1070
     0
1000
MTEXTEND
1000
MTEXTBEGIN
1070
    73
1070
     1
1070
    44
1040
1.0
1070
    74
1070
     0
1000
MTEXTEND
  0
INSERT
  5
1B7D
330
B25
100
AcDbEntity
  8
SUNPOU
100
AcDbBlockReference
  2
_DOTSMALL
 10
342.3211852354596
 20
293.3919367294483
 30
0.0
 41
5.0
 42
5.0
 43
5.0
 50
270.0
  0
INSERT
  5
1B7E
330
B25
100
AcDbEntity
  8
SUNPOU
100
AcDbBlockReference
  2
_OPEN30
 10
342.3211852354596
 20
305.3919367294485
 30
0.0
 41
5.0
 42
5.0
 43
5.0
 50
90.0
  0
POINT
  5
1B7F
330
B25
100
AcDbEntity
  8
DEFPOINTS
 62
     0
100
AcDbPoint
 10
352.8211852354592
 20
293.3919367294483
 30
0.0
  0
POINT
  5
1B80
330
B25
100
AcDbEntity
  8
DEFPOINTS
 62
     0
100
AcDbPoint
 10
352.8211852354595
 20
305.3919367294485
 30
0.0
  0
POINT
  5
1B81
330
B25
100
AcDbEntity
  8
DEFPOINTS
 62
     0
100
AcDbPoint
 10
342.3211852354596
 20
305.3919367294485
 30
0.0
  0
ENDBLK
  5
B32
330
B25
100
AcDbEntity
  8
0
100
AcDbBlockEnd
  0
BLOCK
  5
BE5
330
BD9
100
AcDbEntity
  8
0
100
AcDbBlockBegin
  2
*D19
 70
     1
 10
0.0
 20
0.0
 30
0.0
  3
*D19
  1

  0
LINE
  5
BDA
330
BD9
100
AcDbEntity
  8
SUNPOU
100
AcDbLine
 10
350.5711852354595
 20
94.39193672944865
 30
0.0
 11
340.3211852354595
 21
94.39193672944865
 31
0.0
  0
LINE
  5
BDB
330
BD9
100
AcDbEntity
  8
SUNPOU
100
AcDbLine
 10
349.8211852354593
 20
106.3919367294485
 30
0.0
 11
340.3211852354595
 21
106.3919367294485
 31
0.0
  0
LINE
  5
BDC
330
BD9
100
AcDbEntity
  8
SUNPOU
100
AcDbLine
 10
342.3211852354595
 20
89.39193672944863
 30
0.0
 11
342.3211852354595
 21
84.39193672944863
 31
0.0
  0
LINE
  5
BDD
330
BD9
100
AcDbEntity
  8
SUNPOU
100
AcDbLine
 10
342.3211852354595
 20
111.3919367294485
 30
0.0
 11
342.3211852354595
 21
116.3919367294484
 31
0.0
  0
LINE
  5
BDE
330
BD9
100
AcDbEntity
  8
SUNPOU
100
AcDbLine
 10
342.3211852354595
 20
94.39193672944865
 30
0.0
 11
342.3211852354595
 21
106.3919367294485
 31
0.0
  0
INSERT
  5
BDF
330
BD9
100
AcDbEntity
  8
SUNPOU
100
AcDbBlockReference
  2
_OPEN30
 10
342.3211852354595
 20
94.39193672944865
 30
0.0
 41
5.0
 42
5.0
 43
5.0
 50
90.0
  0
INSERT
  5
BE0
330
BD9
100
AcDbEntity
  8
SUNPOU
100
AcDbBlockReference
  2
_OPEN30
 10
342.3211852354595
 20
106.3919367294485
 30
0.0
 41
5.0
 42
5.0
 43
5.0
 50
270.0
  0
MTEXT
  5
BE1
330
BD9
100
AcDbEntity
  8
SUNPOU
100
AcDbMText
 10
337.8211852354595
 20
100.3919367294485
 30
0.0
 40
5.0
 41
0.0
 71
     5
 72
     1
  1
\A1;12
  7
SUNPOU
 11
0.0000000000000001
 21
1.0
 31
0.0
1001
ACAD
1000
MTEXTBEGIN
1070
    73
1070
     1
1070
    44
1040
1.0
1070
    74
1070
     0
1000
MTEXTEND
1000
MTEXTBEGIN
1070
    73
1070
     1
1070
    44
1040
1.0
1070
    74
1070
     0
1000
MTEXTEND
  0
POINT
  5
BE2
330
BD9
100
AcDbEntity
  8
DEFPOINTS
 62
     0
100
AcDbPoint
 10
353.5711852354594
 20
94.39193672944865
 30
0.0
  0
POINT
  5
BE3
330
BD9
100
AcDbEntity
  8
DEFPOINTS
 62
     0
100
AcDbPoint
 10
352.8211852354595
 20
106.3919367294485
 30
0.0
  0
POINT
  5
BE4
330
BD9
100
AcDbEntity
  8
DEFPOINTS
 62
     0
100
AcDbPoint
 10
342.3211852354595
 20
106.3919367294485
 30
0.0
  0
ENDBLK
  5
BE6
330
BD9
100
AcDbEntity
  8
0
100
AcDbBlockEnd
  0
BLOCK
  5
BF6
330
BEA
100
AcDbEntity
  8
0
100
AcDbBlockBegin
  2
*D20
 70
     1
 10
0.0
 20
0.0
 30
0.0
  3
*D20
  1

  0
LINE
  5
1B82
330
BEA
100
AcDbEntity
  8
SUNPOU
100
AcDbLine
 10
347.0711852354596
 20
93.29193672944851
 30
0.0
 11
347.0711852354596
 21
72.39193672944861
 31
0.0
  0
LINE
  5
1B83
330
BEA
100
AcDbEntity
  8
SUNPOU
100
AcDbLine
 10
349.0711852354596
 20
93.04193672944872
 30
0.0
 11
349.0711852354596
 21
72.39193672944861
 31
0.0
  0
LINE
  5
1B84
330
BEA
100
AcDbEntity
  8
SUNPOU
100
AcDbLine
 10
342.0711852354596
 20
74.39193672944863
 30
0.0
 11
337.0711852354596
 21
74.39193672944863
 31
0.0
  0
LINE
  5
1B85
330
BEA
100
AcDbEntity
  8
SUNPOU
100
AcDbLine
 10
349.0711852354596
 20
74.39193672944863
 30
0.0
 11
354.0711852354596
 21
74.39193672944863
 31
0.0
  0
MTEXT
  5
1B86
330
BEA
100
AcDbEntity
  8
SUNPOU
100
AcDbMText
 10
339.9266836361943
 20
69.8919367294486
 30
0.0
 40
5.0
 41
0.0
 71
     5
 72
     1
  1
\A1;2
  7
SUNPOU
 11
-1.0
 21
0.0000000000000001
 31
0.0
1001
ACAD
1000
MTEXTBEGIN
1070
    73
1070
     1
1070
    44
1040
1.0
1070
    74
1070
     0
1000
MTEXTEND
1000
MTEXTBEGIN
1070
    73
1070
     1
1070
    44
1040
1.0
1070
    74
1070
     0
1000
MTEXTEND
  0
LINE
  5
1B87
330
BEA
100
AcDbEntity
  8
SUNPOU
100
AcDbLine
 10
347.0711852354596
 20
74.39193672944863
 30
0.0
 11
349.0711852354596
 21
74.39193672944863
 31
0.0
  0
INSERT
  5
1B88
330
BEA
100
AcDbEntity
  8
SUNPOU
100
AcDbBlockReference
  2
_OPEN30
 10
347.0711852354596
 20
74.39193672944863
 30
0.0
 41
5.0
 42
5.0
 43
5.0
  0
INSERT
  5
1B89
330
BEA
100
AcDbEntity
  8
SUNPOU
100
AcDbBlockReference
  2
_DOTSMALL
 10
349.0711852354596
 20
74.39193672944863
 30
0.0
 41
5.0
 42
5.0
 43
5.0
 50
180.0
  0
POINT
  5
1B8A
330
BEA
100
AcDbEntity
  8
DEFPOINTS
 62
     0
100
AcDbPoint
 10
347.0711852354596
 20
96.29193672944857
 30
0.0
  0
POINT
  5
1B8B
330
BEA
100
AcDbEntity
  8
DEFPOINTS
 62
     0
100
AcDbPoint
 10
349.0711852354596
 20
96.04193672944873
 30
0.0
  0
POINT
  5
1B8C
330
BEA
100
AcDbEntity
  8
DEFPOINTS
 62
     0
100
AcDbPoint
 10
349.0711852354596
 20
74.39193672944863
 30
0.0
  0
ENDBLK
  5
BF7
330
BEA
100
AcDbEntity
  8
0
100
AcDbBlockEnd
  0
BLOCK
  5
C10
330
C04
100
AcDbEntity
  8
0
100
AcDbBlockBegin
  2
*D21
 70
     1
 10
0.0
 20
0.0
 30
0.0
  3
*D21
  1

  0
LINE
  5
1B8D
330
C04
100
AcDbEntity
  8
SUNPOU
100
AcDbLine
 10
349.0711852354596
 20
93.04193672944872
 30
0.0
 11
349.0711852354596
 21
72.39193672944861
 31
0.0
  0
LINE
  5
1B8E
330
C04
100
AcDbEntity
  8
SUNPOU
100
AcDbLine
 10
352.0711852354593
 20
91.39193672944875
 30
0.0
 11
352.0711852354593
 21
72.39193672944861
 31
0.0
  0
LINE
  5
1B8F
330
C04
100
AcDbEntity
  8
SUNPOU
100
AcDbLine
 10
349.0711852354596
 20
74.39193672944863
 30
0.0
 11
344.0711852354596
 21
74.39193672944863
 31
0.0
  0
LINE
  5
1B90
330
C04
100
AcDbEntity
  8
SUNPOU
100
AcDbLine
 10
357.0711852354595
 20
74.39193672944863
 30
0.0
 11
362.0711852354594
 21
74.39193672944863
 31
0.0
  0
MTEXT
  5
1B91
330
C04
100
AcDbEntity
  8
SUNPOU
100
AcDbMText
 10
350.5711852354595
 20
69.8919367294486
 30
0.0
 40
5.0
 41
0.0
 71
     5
 72
     1
  1
\A1;3
  7
SUNPOU
 11
-1.0
 21
0.0000000000000001
 31
0.0
1001
ACAD
1000
MTEXTBEGIN
1070
    73
1070
     1
1070
    44
1040
1.0
1070
    74
1070
     0
1000
MTEXTEND
1000
MTEXTBEGIN
1070
    73
1070
     1
1070
    44
1040
1.0
1070
    74
1070
     0
1000
MTEXTEND
  0
LINE
  5
1B92
330
C04
100
AcDbEntity
  8
SUNPOU
100
AcDbLine
 10
349.0711852354596
 20
74.39193672944863
 30
0.0
 11
352.0711852354593
 21
74.39193672944863
 31
0.0
  0
INSERT
  5
1B93
330
C04
100
AcDbEntity
  8
SUNPOU
100
AcDbBlockReference
  2
_DOTSMALL
 10
349.0711852354596
 20
74.39193672944863
 30
0.0
 41
5.0
 42
5.0
 43
5.0
  0
INSERT
  5
1B94
330
C04
100
AcDbEntity
  8
SUNPOU
100
AcDbBlockReference
  2
_OPEN30
 10
352.0711852354593
 20
74.39193672944863
 30
0.0
 41
5.0
 42
5.0
 43
5.0
 50
180.0
  0
POINT
  5
1B95
330
C04
100
AcDbEntity
  8
DEFPOINTS
 62
     0
100
AcDbPoint
 10
349.0711852354596
 20
96.04193672944873
 30
0.0
  0
POINT
  5
1B96
330
C04
100
AcDbEntity
  8
DEFPOINTS
 62
     0
100
AcDbPoint
 10
352.0711852354593
 20
94.39193672944876
 30
0.0
  0
POINT
  5
1B97
330
C04
100
AcDbEntity
  8
DEFPOINTS
 62
     0
100
AcDbPoint
 10
352.0711852354593
 20
74.39193672944863
 30
0.0
  0
ENDBLK
  5
C11
330
C04
100
AcDbEntity
  8
0
100
AcDbBlockEnd
  0
BLOCK
  5
C1D
330
C13
100
AcDbEntity
  8
0
100
AcDbBlockBegin
  2
*D22
 70
     1
 10
0.0
 20
0.0
 30
0.0
  3
*D22
  1

  0
LINE
  5
CFB
330
C13
100
AcDbEntity
  8
SUNPOU
100
AcDbLine
 10
352.3211852354596
 20
95.19193672944869
 30
0.0
 11
352.3211852354596
 21
72.39193672944861
 31
0.0
  0
LINE
  5
CFC
330
C13
100
AcDbEntity
  8
SUNPOU
100
AcDbLine
 10
384.3211852354596
 20
91.89193672944858
 30
0.0
 11
384.3211852354596
 21
72.39193672944861
 31
0.0
  0
LINE
  5
CFD
330
C13
100
AcDbEntity
  8
SUNPOU
100
AcDbLine
 10
357.3211852354596
 20
74.39193672944863
 30
0.0
 11
379.3211852354596
 21
74.39193672944863
 31
0.0
  0
MTEXT
  5
CFE
330
C13
100
AcDbEntity
  8
SUNPOU
100
AcDbMText
 10
368.3211852354596
 20
69.8919367294486
 30
0.0
 40
5.0
 41
0.0
 71
     5
 72
     1
  1
\A1;32
  7
SUNPOU
 11
-1.0
 21
0.0000000000000001
 31
0.0
1001
ACAD
1000
MTEXTBEGIN
1070
    73
1070
     1
1070
    44
1040
1.0
1070
    74
1070
     0
1000
MTEXTEND
1000
MTEXTBEGIN
1070
    73
1070
     1
1070
    44
1040
1.0
1070
    74
1070
     0
1000
MTEXTEND
  0
INSERT
  5
CFF
330
C13
100
AcDbEntity
  8
SUNPOU
100
AcDbBlockReference
  2
_OPEN30
 10
352.3211852354596
 20
74.39193672944863
 30
0.0
 41
5.0
 42
5.0
 43
5.0
 50
180.0
  0
INSERT
  5
D00
330
C13
100
AcDbEntity
  8
SUNPOU
100
AcDbBlockReference
  2
_OPEN30
 10
384.3211852354596
 20
74.39193672944863
 30
0.0
 41
5.0
 42
5.0
 43
5.0
  0
POINT
  5
D01
330
C13
100
AcDbEntity
  8
DEFPOINTS
 62
     0
100
AcDbPoint
 10
352.3211852354596
 20
98.19193672944869
 30
0.0
  0
POINT
  5
D02
330
C13
100
AcDbEntity
  8
DEFPOINTS
 62
     0
100
AcDbPoint
 10
384.3211852354596
 20
94.89193672944859
 30
0.0
  0
POINT
  5
D03
330
C13
100
AcDbEntity
  8
DEFPOINTS
 62
     0
100
AcDbPoint
 10
384.3211852354596
 20
74.39193672944863
 30
0.0
  0
ENDBLK
  5
C1E
330
C13
100
AcDbEntity
  8
0
100
AcDbBlockEnd
  0
BLOCK
  5
D4C
330
D42
100
AcDbEntity
  8
0
100
AcDbBlockBegin
  2
*D23
 70
     1
 10
0.0
 20
0.0
 30
0.0
  3
*D23
  1

  0
LINE
  5
E59
330
D42
100
AcDbEntity
  8
SUNPOU
100
AcDbLine
 10
386.8211852354594
 20
94.39193672944858
 30
0.0
 11
400.8211852354595
 21
94.39193672944858
 31
0.0
  0
LINE
  5
E5A
330
D42
100
AcDbEntity
  8
SUNPOU
100
AcDbLine
 10
386.8211852354594
 20
288.3919367294483
 30
0.0
 11
400.8211852354595
 21
288.3919367294483
 31
0.0
  0
LINE
  5
E5B
330
D42
100
AcDbEntity
  8
SUNPOU
100
AcDbLine
 10
398.8211852354595
 20
99.3919367294486
 30
0.0
 11
398.8211852354595
 21
283.3919367294483
 31
0.0
  0
INSERT
  5
E5C
330
D42
100
AcDbEntity
  8
SUNPOU
100
AcDbBlockReference
  2
_OPEN30
 10
398.8211852354595
 20
94.39193672944858
 30
0.0
 41
5.0
 42
5.0
 43
5.0
 50
270.0
  0
INSERT
  5
E5D
330
D42
100
AcDbEntity
  8
SUNPOU
100
AcDbBlockReference
  2
_OPEN30
 10
398.8211852354595
 20
288.3919367294483
 30
0.0
 41
5.0
 42
5.0
 43
5.0
 50
90.0
  0
MTEXT
  5
E5E
330
D42
100
AcDbEntity
  8
SUNPOU
100
AcDbMText
 10
394.3211852354597
 20
191.3919367294483
 30
0.0
 40
5.0
 41
0.0
 71
     5
 72
     1
  1
\A1;DW
  7
SUNPOU
 11
0.0000000000000001
 21
1.0
 31
0.0
1001
ACAD
1000
MTEXTBEGIN
1070
    73
1070
     1
1070
    44
1040
1.0
1070
    74
1070
     0
1000
MTEXTEND
1000
MTEXTBEGIN
1070
    73
1070
     1
1070
    44
1040
1.0
1070
    74
1070
     0
1000
MTEXTEND
  0
POINT
  5
E5F
330
D42
100
AcDbEntity
  8
DEFPOINTS
 62
     0
100
AcDbPoint
 10
383.8211852354595
 20
94.39193672944858
 30
0.0
  0
POINT
  5
E60
330
D42
100
AcDbEntity
  8
DEFPOINTS
 62
     0
100
AcDbPoint
 10
383.8211852354595
 20
288.3919367294485
 30
0.0
  0
POINT
  5
E61
330
D42
100
AcDbEntity
  8
DEFPOINTS
 62
     0
100
AcDbPoint
 10
398.8211852354595
 20
288.3919367294483
 30
0.0
  0
ENDBLK
  5
D4D
330
D42
100
AcDbEntity
  8
0
100
AcDbBlockEnd
  0
BLOCK
  5
D64
330
D58
100
AcDbEntity
  8
0
100
AcDbBlockBegin
  2
*D24
 70
     1
 10
0.0
 20
0.0
 30
0.0
  3
*D24
  1

  0
LINE
  5
1AE6
330
D58
100
AcDbEntity
  8
SUNPOU
100
AcDbLine
 10
386.8211852354594
 20
288.3919367294483
 30
0.0
 11
400.8211852354595
 21
288.3919367294483
 31
0.0
  0
LINE
  5
1AE7
330
D58
100
AcDbEntity
  8
SUNPOU
100
AcDbLine
 10
386.8211852354594
 20
293.3919367294483
 30
0.0
 11
400.8211852354595
 21
293.3919367294483
 31
0.0
  0
LINE
  5
1AE8
330
D58
100
AcDbEntity
  8
SUNPOU
100
AcDbLine
 10
398.8211852354595
 20
283.3919367294483
 30
0.0
 11
398.8211852354595
 21
278.3919367294483
 31
0.0
  0
LINE
  5
1AE9
330
D58
100
AcDbEntity
  8
SUNPOU
100
AcDbLine
 10
398.8211852354595
 20
298.3919367294485
 30
0.0
 11
398.8211852354595
 21
303.3919367294485
 31
0.0
  0
MTEXT
  5
1AEA
330
D58
100
AcDbEntity
  8
SUNPOU
100
AcDbMText
 10
403.3211852354596
 20
290.8919367294486
 30
0.0
 40
5.0
 41
0.0
 71
     5
 72
     1
  1
\A1;5
  7
SUNPOU
 11
0.0000000000000001
 21
1.0
 31
0.0
1001
ACAD
1000
MTEXTBEGIN
1070
    73
1070
     1
1070
    44
1040
1.0
1070
    74
1070
     0
1000
MTEXTEND
1000
MTEXTBEGIN
1070
    73
1070
     1
1070
    44
1040
1.0
1070
    74
1070
     0
1000
MTEXTEND
  0
LINE
  5
1AEB
330
D58
100
AcDbEntity
  8
SUNPOU
100
AcDbLine
 10
398.8211852354595
 20
288.3919367294483
 30
0.0
 11
398.8211852354595
 21
293.3919367294483
 31
0.0
  0
INSERT
  5
1AEC
330
D58
100
AcDbEntity
  8
SUNPOU
100
AcDbBlockReference
  2
_OPEN30
 10
398.8211852354595
 20
288.3919367294483
 30
0.0
 41
5.0
 42
5.0
 43
5.0
 50
90.0
  0
INSERT
  5
1AED
330
D58
100
AcDbEntity
  8
SUNPOU
100
AcDbBlockReference
  2
_OPEN30
 10
398.8211852354595
 20
293.3919367294483
 30
0.0
 41
5.0
 42
5.0
 43
5.0
 50
270.0
  0
POINT
  5
1AEE
330
D58
100
AcDbEntity
  8
DEFPOINTS
 62
     0
100
AcDbPoint
 10
383.8211852354595
 20
288.3919367294485
 30
0.0
  0
POINT
  5
1AEF
330
D58
100
AcDbEntity
  8
DEFPOINTS
 62
     0
100
AcDbPoint
 10
383.8211852354595
 20
293.3919367294486
 30
0.0
  0
POINT
  5
1AF0
330
D58
100
AcDbEntity
  8
DEFPOINTS
 62
     0
100
AcDbPoint
 10
398.8211852354595
 20
293.3919367294483
 30
0.0
  0
ENDBLK
  5
D65
330
D58
100
AcDbEntity
  8
0
100
AcDbBlockEnd
  0
BLOCK
  5
E75
330
E69
100
AcDbEntity
  8
0
100
AcDbBlockBegin
  2
*D25
 70
     1
 10
0.0
 20
0.0
 30
0.0
  3
*D25
  1

  0
LINE
  5
F1A
330
E69
100
AcDbEntity
  8
SUNPOU
100
AcDbLine
 10
352.3211852354595
 20
108.8919367294485
 30
0.0
 11
352.3211852354595
 21
131.8919367294484
 31
0.0
  0
LINE
  5
F1B
330
E69
100
AcDbEntity
  8
SUNPOU
100
AcDbLine
 10
353.8211852354594
 20
109.3919367294484
 30
0.0
 11
353.8211852354594
 21
131.8919367294484
 31
0.0
  0
LINE
  5
F1C
330
E69
100
AcDbEntity
  8
SUNPOU
100
AcDbLine
 10
347.3211852354594
 20
129.8919367294484
 30
0.0
 11
342.3211852354595
 21
129.8919367294484
 31
0.0
  0
LINE
  5
F1D
330
E69
100
AcDbEntity
  8
SUNPOU
100
AcDbLine
 10
358.8211852354595
 20
129.8919367294484
 30
0.0
 11
363.8211852354594
 21
129.8919367294484
 31
0.0
  0
MTEXT
  5
F1E
330
E69
100
AcDbEntity
  8
SUNPOU
100
AcDbMText
 10
342.8542346766163
 20
125.3919367294484
 30
0.0
 40
5.0
 41
0.0
 71
     5
 72
     1
  1
\A1;1.5
  7
SUNPOU
 11
-1.0
 21
0.0000000000000001
 31
0.0
1001
ACAD
1000
MTEXTBEGIN
1070
    73
1070
     1
1070
    44
1040
1.0
1070
    74
1070
     0
1000
MTEXTEND
1000
MTEXTBEGIN
1070
    73
1070
     1
1070
    44
1040
1.0
1070
    74
1070
     0
1000
MTEXTEND
  0
LINE
  5
F1F
330
E69
100
AcDbEntity
  8
SUNPOU
100
AcDbLine
 10
352.3211852354595
 20
129.8919367294484
 30
0.0
 11
353.8211852354594
 21
129.8919367294484
 31
0.0
  0
INSERT
  5
F20
330
E69
100
AcDbEntity
  8
SUNPOU
100
AcDbBlockReference
  2
_OPEN30
 10
352.3211852354595
 20
129.8919367294484
 30
0.0
 41
5.0
 42
5.0
 43
5.0
  0
INSERT
  5
F21
330
E69
100
AcDbEntity
  8
SUNPOU
100
AcDbBlockReference
  2
_OPEN30
 10
353.8211852354594
 20
129.8919367294484
 30
0.0
 41
5.0
 42
5.0
 43
5.0
 50
180.0
  0
POINT
  5
F22
330
E69
100
AcDbEntity
  8
DEFPOINTS
 62
     0
100
AcDbPoint
 10
352.3211852354595
 20
105.8919367294484
 30
0.0
  0
POINT
  5
F23
330
E69
100
AcDbEntity
  8
DEFPOINTS
 62
     0
100
AcDbPoint
 10
353.8211852354594
 20
106.3919367294484
 30
0.0
  0
POINT
  5
F24
330
E69
100
AcDbEntity
  8
DEFPOINTS
 62
     0
100
AcDbPoint
 10
353.8211852354594
 20
129.8919367294484
 30
0.0
  0
ENDBLK
  5
E76
330
E69
100
AcDbEntity
  8
0
100
AcDbBlockEnd
  0
BLOCK
  5
E82
330
E78
100
AcDbEntity
  8
0
100
AcDbBlockBegin
  2
*D26
 70
     1
 10
0.0
 20
0.0
 30
0.0
  3
*D26
  1

  0
LINE
  5
F30
330
E78
100
AcDbEntity
  8
SUNPOU
100
AcDbLine
 10
353.8211852354594
 20
109.3919367294484
 30
0.0
 11
353.8211852354594
 21
131.8919367294484
 31
0.0
  0
LINE
  5
F31
330
E78
100
AcDbEntity
  8
SUNPOU
100
AcDbLine
 10
382.8211852354595
 20
122.8919367294484
 30
0.0
 11
382.8211852354595
 21
131.8919367294484
 31
0.0
  0
LINE
  5
F32
330
E78
100
AcDbEntity
  8
SUNPOU
100
AcDbLine
 10
358.8211852354595
 20
129.8919367294484
 30
0.0
 11
377.8211852354595
 21
129.8919367294484
 31
0.0
  0
MTEXT
  5
F33
330
E78
100
AcDbEntity
  8
SUNPOU
100
AcDbMText
 10
358.802888516489
 20
125.3919367294484
 30
0.0
 40
5.0
 41
0.0
 71
     5
 72
     1
  1
\A1;29
  7
SUNPOU
 11
-1.0
 21
0.0000000000000001
 31
0.0
1001
ACAD
1000
MTEXTBEGIN
1070
    73
1070
     1
1070
    44
1040
1.0
1070
    74
1070
     0
1000
MTEXTEND
1000
MTEXTBEGIN
1070
    73
1070
     1
1070
    44
1040
1.0
1070
    74
1070
     0
1000
MTEXTEND
  0
INSERT
  5
F34
330
E78
100
AcDbEntity
  8
SUNPOU
100
AcDbBlockReference
  2
_OPEN30
 10
353.8211852354594
 20
129.8919367294484
 30
0.0
 41
5.0
 42
5.0
 43
5.0
 50
180.0
  0
INSERT
  5
F35
330
E78
100
AcDbEntity
  8
SUNPOU
100
AcDbBlockReference
  2
_OPEN30
 10
382.8211852354595
 20
129.8919367294484
 30
0.0
 41
5.0
 42
5.0
 43
5.0
  0
POINT
  5
F36
330
E78
100
AcDbEntity
  8
DEFPOINTS
 62
     0
100
AcDbPoint
 10
353.8211852354594
 20
106.3919367294484
 30
0.0
  0
POINT
  5
F37
330
E78
100
AcDbEntity
  8
DEFPOINTS
 62
     0
100
AcDbPoint
 10
382.8211852354595
 20
119.8919367294484
 30
0.0
  0
POINT
  5
F38
330
E78
100
AcDbEntity
  8
DEFPOINTS
 62
     0
100
AcDbPoint
 10
382.8211852354595
 20
129.8919367294484
 30
0.0
  0
ENDBLK
  5
E83
330
E78
100
AcDbEntity
  8
0
100
AcDbBlockEnd
  0
BLOCK
  5
E91
330
E85
100
AcDbEntity
  8
0
100
AcDbBlockBegin
  2
*D27
 70
     1
 10
0.0
 20
0.0
 30
0.0
  3
*D27
  1

  0
LINE
  5
F25
330
E85
100
AcDbEntity
  8
SUNPOU
100
AcDbLine
 10
382.8211852354595
 20
132.8919367294484
 30
0.0
 11
382.8211852354595
 21
131.8919367294484
 31
0.0
  0
LINE
  5
F26
330
E85
100
AcDbEntity
  8
SUNPOU
100
AcDbLine
 10
384.3211852354596
 20
108.8919367294485
 30
0.0
 11
384.3211852354596
 21
131.8919367294484
 31
0.0
  0
LINE
  5
F27
330
E85
100
AcDbEntity
  8
SUNPOU
100
AcDbLine
 10
377.8211852354595
 20
129.8919367294484
 30
0.0
 11
372.8211852354593
 21
129.8919367294484
 31
0.0
  0
LINE
  5
F28
330
E85
100
AcDbEntity
  8
SUNPOU
100
AcDbLine
 10
389.3211852354598
 20
129.8919367294484
 30
0.0
 11
394.3211852354597
 21
129.8919367294484
 31
0.0
  0
MTEXT
  5
F29
330
E85
100
AcDbEntity
  8
SUNPOU
100
AcDbMText
 10
393.514666092266
 20
125.3919367294484
 30
0.0
 40
5.0
 41
0.0
 71
     5
 72
     1
  1
\A1;1.5
  7
SUNPOU
 11
-1.0
 21
0.0000000000000001
 31
0.0
1001
ACAD
1000
MTEXTBEGIN
1070
    73
1070
     1
1070
    44
1040
1.0
1070
    74
1070
     0
1000
MTEXTEND
1000
MTEXTBEGIN
1070
    73
1070
     1
1070
    44
1040
1.0
1070
    74
1070
     0
1000
MTEXTEND
  0
LINE
  5
F2A
330
E85
100
AcDbEntity
  8
SUNPOU
100
AcDbLine
 10
382.8211852354595
 20
129.8919367294484
 30
0.0
 11
384.3211852354596
 21
129.8919367294484
 31
0.0
  0
INSERT
  5
F2B
330
E85
100
AcDbEntity
  8
SUNPOU
100
AcDbBlockReference
  2
_OPEN30
 10
382.8211852354595
 20
129.8919367294484
 30
0.0
 41
5.0
 42
5.0
 43
5.0
  0
INSERT
  5
F2C
330
E85
100
AcDbEntity
  8
SUNPOU
100
AcDbBlockReference
  2
_OPEN30
 10
384.3211852354596
 20
129.8919367294484
 30
0.0
 41
5.0
 42
5.0
 43
5.0
 50
180.0
  0
POINT
  5
F2D
330
E85
100
AcDbEntity
  8
DEFPOINTS
 62
     0
100
AcDbPoint
 10
382.8211852354595
 20
129.8919367294484
 30
0.0
  0
POINT
  5
F2E
330
E85
100
AcDbEntity
  8
DEFPOINTS
 62
     0
100
AcDbPoint
 10
384.3211852354596
 20
105.8919367294484
 30
0.0
  0
POINT
  5
F2F
330
E85
100
AcDbEntity
  8
DEFPOINTS
 62
     0
100
AcDbPoint
 10
384.3211852354596
 20
129.8919367294484
 30
0.0
  0
ENDBLK
  5
E92
330
E85
100
AcDbEntity
  8
0
100
AcDbBlockEnd
  0
BLOCK
  5
FDE
330
FD2
100
AcDbEntity
  8
0
100
AcDbBlockBegin
  2
*D28
 70
     1
 10
0.0
 20
0.0
 30
0.0
  3
*D28
  1

  0
LINE
  5
FF6
330
FD2
100
AcDbEntity
  8
SUNPOU
100
AcDbLine
 10
118.0089537054426
 20
180.4013886298955
 30
0.0
 11
119.0089537054426
 21
180.4013886298955
 31
0.0
  0
LINE
  5
FF7
330
FD2
100
AcDbEntity
  8
SUNPOU
100
AcDbLine
 10
118.0089537054426
 20
181.6013886298955
 30
0.0
 11
119.0089537054426
 21
181.6013886298955
 31
0.0
  0
LINE
  5
FF8
330
FD2
100
AcDbEntity
  8
SUNPOU
100
AcDbLine
 10
121.0089537054428
 20
175.4013886298956
 30
0.0
 11
121.0089537054428
 21
170.4013886298955
 31
0.0
  0
LINE
  5
FF9
330
FD2
100
AcDbEntity
  8
SUNPOU
100
AcDbLine
 10
121.0089537054428
 20
186.6013886298955
 30
0.0
 11
121.0089537054428
 21
191.6013886298955
 31
0.0
  0
MTEXT
  5
FFA
330
FD2
100
AcDbEntity
  8
SUNPOU
100
AcDbMText
 10
116.5089537054426
 20
171.886606029049
 30
0.0
 40
5.0
 41
0.0
 71
     5
 72
     1
  1
\A1;12
  7
SUNPOU
 11
0.0000000000000001
 21
1.0
 31
0.0
1001
ACAD
1000
MTEXTBEGIN
1070
    73
1070
     1
1070
    44
1040
1.0
1070
    74
1070
     0
1000
MTEXTEND
1000
MTEXTBEGIN
1070
    73
1070
     1
1070
    44
1040
1.0
1070
    74
1070
     0
1000
MTEXTEND
  0
LINE
  5
FFB
330
FD2
100
AcDbEntity
  8
SUNPOU
100
AcDbLine
 10
121.0089537054428
 20
180.4013886298955
 30
0.0
 11
121.0089537054428
 21
181.6013886298955
 31
0.0
  0
INSERT
  5
FFC
330
FD2
100
AcDbEntity
  8
SUNPOU
100
AcDbBlockReference
  2
_OPEN30
 10
121.0089537054428
 20
180.4013886298955
 30
0.0
 41
5.0
 42
5.0
 43
5.0
 50
90.0
  0
INSERT
  5
FFD
330
FD2
100
AcDbEntity
  8
SUNPOU
100
AcDbBlockReference
  2
_OPEN30
 10
121.0089537054428
 20
181.6013886298955
 30
0.0
 41
5.0
 42
5.0
 43
5.0
 50
270.0
  0
POINT
  5
FFE
330
FD2
100
AcDbEntity
  8
DEFPOINTS
 62
     0
100
AcDbPoint
 10
121.0089537054428
 20
180.4013886298955
 30
0.0
  0
POINT
  5
FFF
330
FD2
100
AcDbEntity
  8
DEFPOINTS
 62
     0
100
AcDbPoint
 10
121.0089537054428
 20
181.6013886298955
 30
0.0
  0
POINT
  5
1000
330
FD2
100
AcDbEntity
  8
DEFPOINTS
 62
     0
100
AcDbPoint
 10
121.0089537054428
 20
181.6013886298955
 30
0.0
  0
ENDBLK
  5
FDF
330
FD2
100
AcDbEntity
  8
0
100
AcDbBlockEnd
  0
BLOCK
  5
100E
330
1002
100
AcDbEntity
  8
0
100
AcDbBlockBegin
  2
*D29
 70
     1
 10
0.0
 20
0.0
 30
0.0
  3
*D29
  1

  0
LINE
  5
1026
330
1002
100
AcDbEntity
  8
SUNPOU
100
AcDbLine
 10
118.0089537054426
 20
270.6013886298956
 30
0.0
 11
119.0089537054426
 21
270.6013886298956
 31
0.0
  0
LINE
  5
1027
330
1002
100
AcDbEntity
  8
SUNPOU
100
AcDbLine
 10
118.0089537054426
 20
271.8013886298956
 30
0.0
 11
119.0089537054426
 21
271.8013886298956
 31
0.0
  0
LINE
  5
1028
330
1002
100
AcDbEntity
  8
SUNPOU
100
AcDbLine
 10
121.0089537054428
 20
265.6013886298956
 30
0.0
 11
121.0089537054428
 21
260.6013886298956
 31
0.0
  0
LINE
  5
1029
330
1002
100
AcDbEntity
  8
SUNPOU
100
AcDbLine
 10
121.0089537054428
 20
276.8013886298955
 30
0.0
 11
121.0089537054428
 21
281.8013886298956
 31
0.0
  0
MTEXT
  5
102A
330
1002
100
AcDbEntity
  8
SUNPOU
100
AcDbMText
 10
116.5089537054426
 20
281.1089378613003
 30
0.0
 40
5.0
 41
0.0
 71
     5
 72
     1
  1
\A1;12
  7
SUNPOU
 11
0.0000000000000001
 21
1.0
 31
0.0
1001
ACAD
1000
MTEXTBEGIN
1070
    73
1070
     1
1070
    44
1040
1.0
1070
    74
1070
     0
1000
MTEXTEND
1000
MTEXTBEGIN
1070
    73
1070
     1
1070
    44
1040
1.0
1070
    74
1070
     0
1000
MTEXTEND
  0
LINE
  5
102B
330
1002
100
AcDbEntity
  8
SUNPOU
100
AcDbLine
 10
121.0089537054428
 20
270.6013886298956
 30
0.0
 11
121.0089537054428
 21
271.8013886298956
 31
0.0
  0
INSERT
  5
102C
330
1002
100
AcDbEntity
  8
SUNPOU
100
AcDbBlockReference
  2
_OPEN30
 10
121.0089537054428
 20
270.6013886298956
 30
0.0
 41
5.0
 42
5.0
 43
5.0
 50
90.0
  0
INSERT
  5
102D
330
1002
100
AcDbEntity
  8
SUNPOU
100
AcDbBlockReference
  2
_OPEN30
 10
121.0089537054428
 20
271.8013886298956
 30
0.0
 41
5.0
 42
5.0
 43
5.0
 50
270.0
  0
POINT
  5
102E
330
1002
100
AcDbEntity
  8
DEFPOINTS
 62
     0
100
AcDbPoint
 10
121.0089537054428
 20
270.6013886298956
 30
0.0
  0
POINT
  5
102F
330
1002
100
AcDbEntity
  8
DEFPOINTS
 62
     0
100
AcDbPoint
 10
121.0089537054428
 20
271.8013886298956
 30
0.0
  0
POINT
  5
1030
330
1002
100
AcDbEntity
  8
DEFPOINTS
 62
     0
100
AcDbPoint
 10
121.0089537054428
 20
271.8013886298956
 30
0.0
  0
ENDBLK
  5
100F
330
1002
100
AcDbEntity
  8
0
100
AcDbBlockEnd
  0
BLOCK
  5
103F
330
1033
100
AcDbEntity
  8
0
100
AcDbBlockBegin
  2
*D30
 70
     1
 10
0.0
 20
0.0
 30
0.0
  3
*D30
  1

  0
LINE
  5
10C3
330
1033
100
AcDbEntity
  8
SUNPOU
100
AcDbLine
 10
60.66074000469996
 20
274.8013886298955
 30
0.0
 11
60.66074000469996
 21
293.8013886298957
 31
0.0
  0
LINE
  5
10C4
330
1033
100
AcDbEntity
  8
SUNPOU
100
AcDbLine
 10
69.16074000469996
 20
273.6013886298956
 30
0.0
 11
69.16074000469996
 21
293.8013886298957
 31
0.0
  0
LINE
  5
10C5
330
1033
100
AcDbEntity
  8
SUNPOU
100
AcDbLine
 10
55.66074000469996
 20
291.8013886298957
 30
0.0
 11
50.66074000469996
 21
291.8013886298957
 31
0.0
  0
LINE
  5
10C6
330
1033
100
AcDbEntity
  8
SUNPOU
100
AcDbLine
 10
74.16074000469996
 20
291.8013886298957
 30
0.0
 11
79.16074000469996
 21
291.8013886298957
 31
0.0
  0
MTEXT
  5
10C7
330
1033
100
AcDbEntity
  8
SUNPOU
100
AcDbMText
 10
64.91074000469996
 20
287.3013886298956
 30
0.0
 40
5.0
 41
0.0
 71
     5
 72
     1
  1
\A1;85
  7
SUNPOU
 11
-1.0
 21
0.0000000000000001
 31
0.0
1001
ACAD
1000
MTEXTBEGIN
1070
    73
1070
     1
1070
    44
1040
1.0
1070
    74
1070
     0
1000
MTEXTEND
1000
MTEXTBEGIN
1070
    73
1070
     1
1070
    44
1040
1.0
1070
    74
1070
     0
1000
MTEXTEND
  0
LINE
  5
10C8
330
1033
100
AcDbEntity
  8
SUNPOU
100
AcDbLine
 10
60.66074000469996
 20
291.8013886298957
 30
0.0
 11
69.16074000469996
 21
291.8013886298957
 31
0.0
  0
INSERT
  5
10C9
330
1033
100
AcDbEntity
  8
SUNPOU
100
AcDbBlockReference
  2
_OPEN30
 10
60.66074000469996
 20
291.8013886298957
 30
0.0
 41
5.0
 42
5.0
 43
5.0
  0
INSERT
  5
10CA
330
1033
100
AcDbEntity
  8
SUNPOU
100
AcDbBlockReference
  2
_OPEN30
 10
69.16074000469996
 20
291.8013886298957
 30
0.0
 41
5.0
 42
5.0
 43
5.0
 50
180.0
  0
POINT
  5
10CB
330
1033
100
AcDbEntity
  8
DEFPOINTS
 62
     0
100
AcDbPoint
 10
60.66074000469996
 20
271.8013886298956
 30
0.0
  0
POINT
  5
10CC
330
1033
100
AcDbEntity
  8
DEFPOINTS
 62
     0
100
AcDbPoint
 10
69.16074000469996
 20
270.6013886298956
 30
0.0
  0
POINT
  5
10CD
330
1033
100
AcDbEntity
  8
DEFPOINTS
 62
     0
100
AcDbPoint
 10
69.16074000469996
 20
291.8013886298957
 30
0.0
  0
ENDBLK
  5
1040
330
1033
100
AcDbEntity
  8
0
100
AcDbBlockEnd
  0
BLOCK
  5
1059
330
104D
100
AcDbEntity
  8
0
100
AcDbBlockBegin
  2
*D31
 70
     1
 10
0.0
 20
0.0
 30
0.0
  3
*D31
  1

  0
LINE
  5
10B8
330
104D
100
AcDbEntity
  8
SUNPOU
100
AcDbLine
 10
265.6607400046999
 20
273.6013886298956
 30
0.0
 11
265.6607400046999
 21
293.8013886298957
 31
0.0
  0
LINE
  5
10B9
330
104D
100
AcDbEntity
  8
SUNPOU
100
AcDbLine
 10
274.0607400046998
 20
274.8013886298955
 30
0.0
 11
274.0607400046998
 21
293.8013886298957
 31
0.0
  0
LINE
  5
10BA
330
104D
100
AcDbEntity
  8
SUNPOU
100
AcDbLine
 10
260.6607400046998
 20
291.8013886298957
 30
0.0
 11
255.6607400046999
 21
291.8013886298957
 31
0.0
  0
LINE
  5
10BB
330
104D
100
AcDbEntity
  8
SUNPOU
100
AcDbLine
 10
279.0607400046998
 20
291.8013886298957
 30
0.0
 11
284.0607400046998
 21
291.8013886298957
 31
0.0
  0
MTEXT
  5
10BC
330
104D
100
AcDbEntity
  8
SUNPOU
100
AcDbMText
 10
269.8607400046999
 20
287.3013886298956
 30
0.0
 40
5.0
 41
0.0
 71
     5
 72
     1
  1
\A1;84
  7
SUNPOU
 11
-1.0
 21
0.0000000000000001
 31
0.0
1001
ACAD
1000
MTEXTBEGIN
1070
    73
1070
     1
1070
    44
1040
1.0
1070
    74
1070
     0
1000
MTEXTEND
1000
MTEXTBEGIN
1070
    73
1070
     1
1070
    44
1040
1.0
1070
    74
1070
     0
1000
MTEXTEND
  0
LINE
  5
10BD
330
104D
100
AcDbEntity
  8
SUNPOU
100
AcDbLine
 10
265.6607400046999
 20
291.8013886298957
 30
0.0
 11
274.0607400046998
 21
291.8013886298957
 31
0.0
  0
INSERT
  5
10BE
330
104D
100
AcDbEntity
  8
SUNPOU
100
AcDbBlockReference
  2
_OPEN30
 10
265.6607400046999
 20
291.8013886298957
 30
0.0
 41
5.0
 42
5.0
 43
5.0
  0
INSERT
  5
10BF
330
104D
100
AcDbEntity
  8
SUNPOU
100
AcDbBlockReference
  2
_OPEN30
 10
274.0607400046998
 20
291.8013886298957
 30
0.0
 41
5.0
 42
5.0
 43
5.0
 50
180.0
  0
POINT
  5
10C0
330
104D
100
AcDbEntity
  8
DEFPOINTS
 62
     0
100
AcDbPoint
 10
265.6607400046999
 20
270.6013886298956
 30
0.0
  0
POINT
  5
10C1
330
104D
100
AcDbEntity
  8
DEFPOINTS
 62
     0
100
AcDbPoint
 10
274.0607400046998
 20
271.8013886298956
 30
0.0
  0
POINT
  5
10C2
330
104D
100
AcDbEntity
  8
DEFPOINTS
 62
     0
100
AcDbPoint
 10
274.0607400046998
 20
291.8013886298957
 30
0.0
  0
ENDBLK
  5
105A
330
104D
100
AcDbEntity
  8
0
100
AcDbBlockEnd
  0
BLOCK
  5
1067
330
105D
100
AcDbEntity
  8
0
100
AcDbBlockBegin
  2
*D32
 70
     1
 10
0.0
 20
0.0
 30
0.0
  3
*D32
  1

  0
LINE
  5
10AF
330
105D
100
AcDbEntity
  8
SUNPOU
100
AcDbLine
 10
60.66074000469996
 20
274.8013886298955
 30
0.0
 11
60.66074000469996
 21
303.8013886298956
 31
0.0
  0
LINE
  5
10B0
330
105D
100
AcDbEntity
  8
SUNPOU
100
AcDbLine
 10
274.0607400046998
 20
274.8013886298955
 30
0.0
 11
274.0607400046998
 21
303.8013886298956
 31
0.0
  0
LINE
  5
10B1
330
105D
100
AcDbEntity
  8
SUNPOU
100
AcDbLine
 10
65.66074000469996
 20
301.8013886298956
 30
0.0
 11
269.0607400046999
 21
301.8013886298956
 31
0.0
  0
MTEXT
  5
10B2
330
105D
100
AcDbEntity
  8
SUNPOU
100
AcDbMText
 10
167.3607400046998
 20
297.3013886298957
 30
0.0
 40
5.0
 41
0.0
 71
     5
 72
     1
  1
\A1;DH
  7
SUNPOU
 11
-1.0
 21
0.0000000000000001
 31
0.0
1001
ACAD
1000
MTEXTBEGIN
1070
    73
1070
     1
1070
    44
1040
1.0
1070
    74
1070
     0
1000
MTEXTEND
1000
MTEXTBEGIN
1070
    73
1070
     1
1070
    44
1040
1.0
1070
    74
1070
     0
1000
MTEXTEND
  0
INSERT
  5
10B3
330
105D
100
AcDbEntity
  8
SUNPOU
100
AcDbBlockReference
  2
_OPEN30
 10
60.66074000469996
 20
301.8013886298956
 30
0.0
 41
5.0
 42
5.0
 43
5.0
 50
180.0
  0
INSERT
  5
10B4
330
105D
100
AcDbEntity
  8
SUNPOU
100
AcDbBlockReference
  2
_OPEN30
 10
274.0607400046998
 20
301.8013886298956
 30
0.0
 41
5.0
 42
5.0
 43
5.0
  0
POINT
  5
10B5
330
105D
100
AcDbEntity
  8
DEFPOINTS
 62
     0
100
AcDbPoint
 10
60.66074000469996
 20
271.8013886298956
 30
0.0
  0
POINT
  5
10B6
330
105D
100
AcDbEntity
  8
DEFPOINTS
 62
     0
100
AcDbPoint
 10
274.0607400046998
 20
271.8013886298956
 30
0.0
  0
POINT
  5
10B7
330
105D
100
AcDbEntity
  8
DEFPOINTS
 62
     0
100
AcDbPoint
 10
274.0607400046998
 20
301.8013886298956
 30
0.0
  0
ENDBLK
  5
1068
330
105D
100
AcDbEntity
  8
0
100
AcDbBlockEnd
  0
BLOCK
  5
1076
330
106A
100
AcDbEntity
  8
0
100
AcDbBlockBegin
  2
*D33
 70
     1
 10
0.0
 20
0.0
 30
0.0
  3
*D33
  1

  0
LINE
  5
10D9
330
106A
100
AcDbEntity
  8
SUNPOU
100
AcDbLine
 10
274.0607400046998
 20
274.8013886298955
 30
0.0
 11
274.0607400046998
 21
303.8013886298956
 31
0.0
  0
LINE
  5
10DA
330
106A
100
AcDbEntity
  8
SUNPOU
100
AcDbLine
 10
274.8607400046998
 20
274.8013886298955
 30
0.0
 11
274.8607400046998
 21
303.8013886298956
 31
0.0
  0
LINE
  5
10DB
330
106A
100
AcDbEntity
  8
SUNPOU
100
AcDbLine
 10
269.0607400046999
 20
301.8013886298956
 30
0.0
 11
264.0607400046998
 21
301.8013886298956
 31
0.0
  0
LINE
  5
10DC
330
106A
100
AcDbEntity
  8
SUNPOU
100
AcDbLine
 10
279.8607400046999
 20
301.8013886298956
 30
0.0
 11
284.8607400046998
 21
301.8013886298956
 31
0.0
  0
MTEXT
  5
10DD
330
106A
100
AcDbEntity
  8
SUNPOU
100
AcDbMText
 10
282.3489562230171
 20
297.3013886298957
 30
0.0
 40
5.0
 41
0.0
 71
     5
 72
     1
  1
\A1;8
  7
SUNPOU
 11
-1.0
 21
0.0000000000000001
 31
0.0
1001
ACAD
1000
MTEXTBEGIN
1070
    73
1070
     1
1070
    44
1040
1.0
1070
    74
1070
     0
1000
MTEXTEND
1000
MTEXTBEGIN
1070
    73
1070
     1
1070
    44
1040
1.0
1070
    74
1070
     0
1000
MTEXTEND
  0
LINE
  5
10DE
330
106A
100
AcDbEntity
  8
SUNPOU
100
AcDbLine
 10
274.0607400046998
 20
301.8013886298956
 30
0.0
 11
274.8607400046998
 21
301.8013886298956
 31
0.0
  0
INSERT
  5
10DF
330
106A
100
AcDbEntity
  8
SUNPOU
100
AcDbBlockReference
  2
_OPEN30
 10
274.0607400046998
 20
301.8013886298956
 30
0.0
 41
5.0
 42
5.0
 43
5.0
  0
INSERT
  5
10E0
330
106A
100
AcDbEntity
  8
SUNPOU
100
AcDbBlockReference
  2
_OPEN30
 10
274.8607400046998
 20
301.8013886298956
 30
0.0
 41
5.0
 42
5.0
 43
5.0
 50
180.0
  0
POINT
  5
10E1
330
106A
100
AcDbEntity
  8
DEFPOINTS
 62
     0
100
AcDbPoint
 10
274.0607400046998
 20
271.8013886298956
 30
0.0
  0
POINT
  5
10E2
330
106A
100
AcDbEntity
  8
DEFPOINTS
 62
     0
100
AcDbPoint
 10
274.8607400046998
 20
271.8013886298956
 30
0.0
  0
POINT
  5
10E3
330
106A
100
AcDbEntity
  8
DEFPOINTS
 62
     0
100
AcDbPoint
 10
274.8607400046998
 20
301.8013886298956
 30
0.0
  0
ENDBLK
  5
1077
330
106A
100
AcDbEntity
  8
0
100
AcDbBlockEnd
  0
BLOCK
  5
13A5
330
1399
100
AcDbEntity
  8
0
100
AcDbBlockBegin
  2
*D34
 70
     1
 10
0.0
 20
0.0
 30
0.0
  3
*D34
  1

  0
LINE
  5
1BAC
330
1399
100
AcDbEntity
  8
SUNPOU
100
AcDbLine
 10
282.0607400046998
 20
263.3013886298956
 30
0.0
 11
291.8607400046998
 21
263.3013886298956
 31
0.0
  0
LINE
  5
1BAD
330
1399
100
AcDbEntity
  8
SUNPOU
100
AcDbLine
 10
277.8607400046999
 20
271.8013886298956
 30
0.0
 11
291.8607400046998
 21
271.8013886298956
 31
0.0
  0
LINE
  5
1BAE
330
1399
100
AcDbEntity
  8
SUNPOU
100
AcDbLine
 10
289.8607400046998
 20
263.3013886298956
 30
0.0
 11
289.8607400046998
 21
271.8013886298956
 31
0.0
  0
MTEXT
  5
1BAF
330
1399
100
AcDbEntity
  8
SUNPOU
100
AcDbMText
 10
285.3607400046998
 20
267.730494112553
 30
0.0
 40
5.0
 41
0.0
 71
     5
 72
     1
  1
\A1;85
  7
SUNPOU
 11
0.0000000000000001
 21
1.0
 31
0.0
1001
ACAD
1000
MTEXTBEGIN
1070
    73
1070
     1
1070
    44
1040
1.0
1070
    74
1070
     0
1000
MTEXTEND
1000
MTEXTBEGIN
1070
    73
1070
     1
1070
    44
1040
1.0
1070
    74
1070
     0
1000
MTEXTEND
  0
INSERT
  5
1BB0
330
1399
100
AcDbEntity
  8
SUNPOU
100
AcDbBlockReference
  2
_DOTSMALL
 10
289.8607400046998
 20
263.3013886298956
 30
0.0
 41
5.0
 42
5.0
 43
5.0
 50
270.0
  0
INSERT
  5
1BB1
330
1399
100
AcDbEntity
  8
SUNPOU
100
AcDbBlockReference
  2
_DOTSMALL
 10
289.8607400046998
 20
271.8013886298956
 30
0.0
 41
5.0
 42
5.0
 43
5.0
 50
90.0
  0
POINT
  5
1BB2
330
1399
100
AcDbEntity
  8
DEFPOINTS
 62
     0
100
AcDbPoint
 10
279.0607400046998
 20
263.3013886298956
 30
0.0
  0
POINT
  5
1BB3
330
1399
100
AcDbEntity
  8
DEFPOINTS
 62
     0
100
AcDbPoint
 10
274.8607400046998
 20
271.8013886298956
 30
0.0
  0
POINT
  5
1BB4
330
1399
100
AcDbEntity
  8
DEFPOINTS
 62
     0
100
AcDbPoint
 10
289.8607400046998
 20
271.8013886298956
 30
0.0
  0
ENDBLK
  5
13A6
330
1399
100
AcDbEntity
  8
0
100
AcDbBlockEnd
  0
BLOCK
  5
13B4
330
13A8
100
AcDbEntity
  8
0
100
AcDbBlockBegin
  2
*D35
 70
     1
 10
0.0
 20
0.0
 30
0.0
  3
*D35
  1

  0
LINE
  5
1BB5
330
13A8
100
AcDbEntity
  8
SUNPOU
100
AcDbLine
 10
279.5607400046999
 20
248.8013886298956
 30
0.0
 11
291.8607400046998
 21
248.8013886298956
 31
0.0
  0
LINE
  5
1BB6
330
13A8
100
AcDbEntity
  8
SUNPOU
100
AcDbLine
 10
279.5607400046999
 20
254.8013886298956
 30
0.0
 11
291.8607400046998
 21
254.8013886298956
 31
0.0
  0
LINE
  5
1BB7
330
13A8
100
AcDbEntity
  8
SUNPOU
100
AcDbLine
 10
289.8607400046998
 20
248.8013886298956
 30
0.0
 11
289.8607400046998
 21
254.8013886298956
 31
0.0
  0
MTEXT
  5
1BB8
330
13A8
100
AcDbEntity
  8
SUNPOU
100
AcDbMText
 10
285.3607400046998
 20
244.7981568250086
 30
0.0
 40
5.0
 41
0.0
 71
     5
 72
     1
  1
\A1;60
  7
SUNPOU
 11
0.0000000000000001
 21
1.0
 31
0.0
1001
ACAD
1000
MTEXTBEGIN
1070
    73
1070
     1
1070
    44
1040
1.0
1070
    74
1070
     0
1000
MTEXTEND
1000
MTEXTBEGIN
1070
    73
1070
     1
1070
    44
1040
1.0
1070
    74
1070
     0
1000
MTEXTEND
  0
INSERT
  5
1BB9
330
13A8
100
AcDbEntity
  8
SUNPOU
100
AcDbBlockReference
  2
_DOTSMALL
 10
289.8607400046998
 20
248.8013886298956
 30
0.0
 41
5.0
 42
5.0
 43
5.0
 50
270.0
  0
INSERT
  5
1BBA
330
13A8
100
AcDbEntity
  8
SUNPOU
100
AcDbBlockReference
  2
_DOTSMALL
 10
289.8607400046998
 20
254.8013886298956
 30
0.0
 41
5.0
 42
5.0
 43
5.0
 50
90.0
  0
POINT
  5
1BBB
330
13A8
100
AcDbEntity
  8
DEFPOINTS
 62
     0
100
AcDbPoint
 10
276.5607400046998
 20
248.8013886298956
 30
0.0
  0
POINT
  5
1BBC
330
13A8
100
AcDbEntity
  8
DEFPOINTS
 62
     0
100
AcDbPoint
 10
276.5607400046998
 20
254.8013886298956
 30
0.0
  0
POINT
  5
1BBD
330
13A8
100
AcDbEntity
  8
DEFPOINTS
 62
     0
100
AcDbPoint
 10
289.8607400046998
 20
254.8013886298956
 30
0.0
  0
ENDBLK
  5
13B5
330
13A8
100
AcDbEntity
  8
0
100
AcDbBlockEnd
  0
BLOCK
  5
15A0
330
1596
100
AcDbEntity
  8
0
100
AcDbBlockBegin
  2
*D36
 70
     1
 10
0.0
 20
0.0
 30
0.0
  3
*D36
  1

  0
LINE
  5
1597
330
1596
100
AcDbEntity
  8
SUNPOU
100
AcDbLine
 10
107.7739532738459
 20
420.2793245876927
 30
0.0
 11
145.549178249171
 21
420.2793245876927
 31
0.0
  0
LINE
  5
1598
330
1596
100
AcDbEntity
  8
SUNPOU
100
AcDbLine
 10
107.7739532738459
 20
452.2793245876926
 30
0.0
 11
145.549178249171
 21
452.2793245876926
 31
0.0
  0
LINE
  5
1599
330
1596
100
AcDbEntity
  8
SUNPOU
100
AcDbLine
 10
143.5491782491711
 20
425.2793245876927
 30
0.0
 11
143.5491782491711
 21
447.2793245876927
 31
0.0
  0
INSERT
  5
159A
330
1596
100
AcDbEntity
  8
SUNPOU
100
AcDbBlockReference
  2
_OPEN30
 10
143.5491782491711
 20
420.2793245876927
 30
0.0
 41
5.0
 42
5.0
 43
5.0
 50
270.0
  0
INSERT
  5
159B
330
1596
100
AcDbEntity
  8
SUNPOU
100
AcDbBlockReference
  2
_OPEN30
 10
143.5491782491711
 20
452.2793245876926
 30
0.0
 41
5.0
 42
5.0
 43
5.0
 50
90.0
  0
MTEXT
  5
159C
330
1596
100
AcDbEntity
  8
SUNPOU
100
AcDbMText
 10
139.0491782491712
 20
436.2793245876927
 30
0.0
 40
5.0
 41
0.0
 71
     5
 72
     1
  1
\A1;32
  7
SUNPOU
 11
0.0000000000000001
 21
1.0
 31
0.0
1001
ACAD
1000
MTEXTBEGIN
1070
    73
1070
     1
1070
    44
1040
1.0
1070
    74
1070
     0
1000
MTEXTEND
1000
MTEXTBEGIN
1070
    73
1070
     1
1070
    44
1040
1.0
1070
    74
1070
     0
1000
MTEXTEND
  0
POINT
  5
159D
330
1596
100
AcDbEntity
  8
DEFPOINTS
 62
     0
100
AcDbPoint
 10
104.7739532738459
 20
420.2793245876927
 30
0.0
  0
POINT
  5
159E
330
1596
100
AcDbEntity
  8
DEFPOINTS
 62
     0
100
AcDbPoint
 10
104.7739532738459
 20
452.2793245876926
 30
0.0
  0
POINT
  5
159F
330
1596
100
AcDbEntity
  8
DEFPOINTS
 62
     0
100
AcDbPoint
 10
143.5491782491711
 20
452.2793245876926
 30
0.0
  0
ENDBLK
  5
15A1
330
1596
100
AcDbEntity
  8
0
100
AcDbBlockEnd
  0
BLOCK
  5
1A4C
330
1A42
100
AcDbEntity
  8
0
100
AcDbBlockBegin
  2
*D37
 70
     1
 10
0.0
 20
0.0
 30
0.0
  3
*D37
  1

  0
LINE
  5
1BC8
330
1A42
100
AcDbEntity
  8
SUNPOU
100
AcDbLine
 10
383.8211852354595
 20
293.3919367294486
 30
0.0
 11
398.8211852354595
 21
293.3919367294483
 31
0.0
  0
LINE
  5
1BC9
330
1A42
100
AcDbEntity
  8
SUNPOU
100
AcDbLine
 10
398.8211852354595
 20
298.3919367294485
 30
0.0
 11
398.8211852354595
 21
376.6419367294484
 31
0.0
  0
INSERT
  5
1BCA
330
1A42
100
AcDbEntity
  8
SUNPOU
100
AcDbBlockReference
  2
_OPEN30
 10
398.8211852354595
 20
293.3919367294483
 30
0.0
 41
5.0
 42
5.0
 43
5.0
 50
270.0
  0
MTEXT
  5
1BCB
330
1A42
100
AcDbEntity
  8
SUNPOU
100
AcDbMText
 10
394.3211852354597
 20
337.5169367294486
 30
0.0
 40
5.0
 41
0.0
 71
     5
 72
     1
  1
\A1;DW
  7
SUNPOU
 11
0.0000000000000001
 21
1.0
 31
0.0
1001
ACAD
1000
MTEXTBEGIN
1070
    73
1070
     1
1070
    44
1040
1.0
1070
    74
1070
     0
1000
MTEXTEND
1000
MTEXTBEGIN
1070
    73
1070
     1
1070
    44
1040
1.0
1070
    74
1070
     0
1000
MTEXTEND
  0
POINT
  5
1BCC
330
1A42
100
AcDbEntity
  8
DEFPOINTS
 62
     0
100
AcDbPoint
 10
383.8211852354595
 20
293.3919367294486
 30
0.0
  0
POINT
  5
1BCD
330
1A42
100
AcDbEntity
  8
DEFPOINTS
 62
     0
100
AcDbPoint
 10
398.8211852354595
 20
376.6419367294484
 30
0.0
  0
POINT
  5
1BCE
330
1A42
100
AcDbEntity
  8
DEFPOINTS
 62
     0
100
AcDbPoint
 10
398.8211852354595
 20
376.6419367294484
 30
0.0
  0
ENDBLK
  5
1A4D
330
1A42
100
AcDbEntity
  8
0
100
AcDbBlockEnd
  0
BLOCK
  5
1A58
330
1A57
100
AcDbEntity
  8
0
100
AcDbBlockBegin
  2
_NONE
 70
     0
 10
0.0
 20
0.0
 30
0.0
  3
_NONE
  1

  0
ENDBLK
  5
1A59
330
1A57
100
AcDbEntity
  8
0
100
AcDbBlockEnd
  0
ENDSEC
  0
SECTION
  2
ENTITIES
  0
LINE
  5
266
330
A
100
AcDbEntity
  8
04
100
AcDbLine
 10
60.66074000469996
 20
180.4013886298955
 30
0.0
 11
60.66074000469996
 21
271.8013886298956
 31
0.0
  0
LINE
  5
267
330
A
100
AcDbEntity
  8
04
100
AcDbLine
 10
60.66074000469996
 20
271.8013886298956
 30
0.0
 11
274.0607400046998
 21
271.8013886298956
 31
0.0
  0
LINE
  5
268
330
A
100
AcDbEntity
  8
04
100
AcDbLine
 10
274.0607400046998
 20
180.4013886298955
 30
0.0
 11
60.66074000469996
 21
180.4013886298955
 31
0.0
  0
LINE
  5
269
330
A
100
AcDbEntity
  8
04
100
AcDbLine
 10
60.66074000469996
 20
181.6013886298955
 30
0.0
 11
274.0607400046998
 21
181.6013886298955
 31
0.0
  0
LINE
  5
26A
330
A
100
AcDbEntity
  8
04
100
AcDbLine
 10
60.66074000469996
 20
270.6013886298956
 30
0.0
 11
274.0607400046998
 21
270.6013886298956
 31
0.0
  0
LINE
  5
26B
330
A
100
AcDbEntity
  8
04
100
AcDbLine
 10
69.16074000469996
 20
181.6013886298955
 30
0.0
 11
69.16074000469996
 21
270.6013886298956
 31
0.0
  0
LINE
  5
26C
330
A
100
AcDbEntity
  8
04
100
AcDbLine
 10
265.6607400046999
 20
181.6013886298955
 30
0.0
 11
265.6607400046999
 21
270.6013886298956
 31
0.0
  0
CIRCLE
  5
26D
330
A
100
AcDbEntity
  8
03
100
AcDbCircle
 10
271.6607400046999
 20
266.1013886298956
 30
0.0
 40
1.5
  0
LINE
  5
26E
330
A
100
AcDbEntity
  8
06
100
AcDbLine
 10
347.0711852354601
 20
96.22212653446259
 30
0.0
 11
347.0711852354592
 21
96.36174692443452
 31
0.0
  0
LINE
  5
26F
330
A
100
AcDbEntity
  8
03
100
AcDbLine
 10
274.0607400046998
 20
189.4013886298955
 30
0.0
 11
276.5607400046998
 21
189.4013886298955
 31
0.0
  0
LINE
  5
270
330
A
100
AcDbEntity
  8
03
100
AcDbLine
 10
276.5607400046998
 20
189.4013886298955
 30
0.0
 11
276.5607400046998
 21
195.4013886298955
 31
0.0
  0
LINE
  5
271
330
A
100
AcDbEntity
  8
03
100
AcDbLine
 10
276.5607400046998
 20
195.4013886298955
 30
0.0
 11
274.0607400046998
 21
195.4013886298955
 31
0.0
  0
LINE
  5
272
330
A
100
AcDbEntity
  8
03
100
AcDbLine
 10
274.0607400046998
 20
248.8013886298956
 30
0.0
 11
276.5607400046998
 21
248.8013886298956
 31
0.0
  0
LINE
  5
273
330
A
100
AcDbEntity
  8
03
100
AcDbLine
 10
276.5607400046998
 20
248.8013886298956
 30
0.0
 11
276.5607400046998
 21
254.8013886298956
 31
0.0
  0
LINE
  5
274
330
A
100
AcDbEntity
  8
03
100
AcDbLine
 10
276.5607400046998
 20
254.8013886298956
 30
0.0
 11
274.0607400046998
 21
254.8013886298956
 31
0.0
  0
LINE
  5
275
330
A
100
AcDbEntity
  8
03
100
AcDbLine
 10
353.8211852354594
 20
106.3919367294484
 30
0.0
 11
353.8211852354594
 21
233.3752267603187
 31
0.0
  0
LINE
  5
276
330
A
100
AcDbEntity
  8
03
100
AcDbLine
 10
353.8211852354594
 20
238.3752267603187
 30
0.0
 11
353.8211852354594
 21
276.3919367294485
 31
0.0
  0
LINE
  5
277
330
A
100
AcDbEntity
  8
03
100
AcDbLine
 10
382.8211852354595
 20
106.3919367294485
 30
0.0
 11
382.8211852354595
 21
233.3752267603187
 31
0.0
  0
LINE
  5
278
330
A
100
AcDbEntity
  8
03
100
AcDbLine
 10
382.8211852354595
 20
238.3752267603187
 30
0.0
 11
382.8211852354595
 21
276.3919367294485
 31
0.0
  0
LINE
  5
279
330
A
100
AcDbEntity
  8
03
100
AcDbLine
 10
362.3211852354593
 20
106.3919367294485
 30
0.0
 11
362.3211852354596
 21
233.3752267603187
 31
0.0
  0
LINE
  5
27A
330
A
100
AcDbEntity
  8
03
100
AcDbLine
 10
362.3211852354593
 20
238.3752267603187
 30
0.0
 11
362.3211852354596
 21
276.3919367294485
 31
0.0
  0
LINE
  5
27B
330
A
100
AcDbEntity
  8
03
100
AcDbLine
 10
374.3211852354594
 20
106.3919367294485
 30
0.0
 11
374.3211852354596
 21
233.3752267603187
 31
0.0
  0
LINE
  5
27C
330
A
100
AcDbEntity
  8
03
100
AcDbLine
 10
374.3211852354594
 20
238.3752267603187
 30
0.0
 11
374.3211852354596
 21
276.3919367294485
 31
0.0
  0
LINE
  5
27D
330
A
100
AcDbEntity
  8
03
100
AcDbLine
 10
348.8211852354595
 20
238.3752267603187
 30
0.0
 11
388.8211852354594
 21
238.3752267603187
 31
0.0
  0
LINE
  5
27E
330
A
100
AcDbEntity
  8
03
100
AcDbLine
 10
388.8211852354594
 20
233.3752267603187
 30
0.0
 11
348.8211852354595
 21
233.3752267603187
 31
0.0
  0
LINE
  5
27F
330
A
100
AcDbEntity
  8
03
100
AcDbLine
 10
353.8211852354594
 20
305.3919367294485
 30
0.0
 11
353.8211852354596
 21
376.6419367294484
 31
0.0
  0
LINE
  5
280
330
A
100
AcDbEntity
  8
03
100
AcDbLine
 10
382.8211852354595
 20
305.3919367294485
 30
0.0
 11
382.8211852354596
 21
376.6419367294484
 31
0.0
  0
LINE
  5
281
330
A
100
AcDbEntity
  8
03
100
AcDbLine
 10
374.3211852354592
 20
305.3919367294485
 30
0.0
 11
374.3211852354594
 21
375.3919367294483
 31
0.0
  0
LINE
  5
282
330
A
100
AcDbEntity
  8
03
100
AcDbLine
 10
362.3211852354592
 20
305.3919367294485
 30
0.0
 11
362.3211852354592
 21
375.3919367294483
 31
0.0
  0
LINE
  5
283
330
A
100
AcDbEntity
  8
03
100
AcDbLine
 10
353.8211852354596
 20
418.3752267603186
 30
0.0
 11
353.8211852354596
 21
486.3919367294483
 31
0.0
  0
LINE
  5
284
330
A
100
AcDbEntity
  8
03
100
AcDbLine
 10
382.8211852354596
 20
418.3752267603186
 30
0.0
 11
382.8211852354596
 21
486.3919367294483
 31
0.0
  0
LINE
  5
285
330
A
100
AcDbEntity
  8
03
100
AcDbLine
 10
362.3211852354593
 20
418.3752267603186
 30
0.0
 11
362.3211852354596
 21
486.3919367294483
 31
0.0
  0
LINE
  5
286
330
A
100
AcDbEntity
  8
03
100
AcDbLine
 10
374.3211852354594
 20
418.3752267603186
 30
0.0
 11
374.3211852354596
 21
486.3919367294483
 31
0.0
  0
LINE
  5
287
330
A
100
AcDbEntity
  8
03
100
AcDbLine
 10
274.0607400046998
 20
264.8013886298956
 30
0.0
 11
275.6607400046998
 21
264.8013886298956
 31
0.0
  0
LINE
  5
288
330
A
100
AcDbEntity
  8
03
100
AcDbLine
 10
275.6607400046998
 20
264.8013886298956
 30
0.0
 11
275.6607400046998
 21
261.8013886298955
 31
0.0
  0
LINE
  5
289
330
A
100
AcDbEntity
  8
03
100
AcDbLine
 10
275.6607400046998
 20
261.8013886298955
 30
0.0
 11
274.0607400046998
 21
261.8013886298955
 31
0.0
  0
LINE
  5
28A
330
A
100
AcDbEntity
  8
03
100
AcDbLine
 10
38.34574161481532
 20
448.7793245876927
 30
0.0
 11
38.34574161481532
 21
449.2793245876927
 31
0.0
  0
LINE
  5
2A1
330
A
100
AcDbEntity
  8
03
100
AcDbLine
 10
38.34574161481532
 20
423.2793245876926
 30
0.0
 11
38.34574161481532
 21
423.7793245876927
 31
0.0
  0
LINE
  5
2B8
330
A
100
AcDbEntity
  8
03
100
AcDbLine
 10
37.54574161481547
 20
423.2793245876926
 30
0.0
 11
37.54574161481421
 21
420.2793245876927
 31
0.0
  0
LINE
  5
2B9
330
A
100
AcDbEntity
  8
03
100
AcDbLine
 10
37.54574161481537
 20
423.2793245876926
 30
0.0
 11
38.34574161481532
 21
423.2793245876926
 31
0.0
  0
LINE
  5
2BC
330
A
100
AcDbEntity
  8
03
100
AcDbLine
 10
37.54574161481421
 20
449.2793245876927
 30
0.0
 11
37.54574161481603
 21
452.2793245876926
 31
0.0
  0
LINE
  5
31B
330
A
100
AcDbEntity
  8
03
100
AcDbLine
 10
172.0021649328765
 20
411.2946495527556
 30
0.0
 11
172.0021649328765
 21
461.2946495527556
 31
0.0
  0
LINE
  5
31C
330
A
100
AcDbEntity
  8
03
100
AcDbLine
 10
177.0021649328765
 20
461.2946495527556
 30
0.0
 11
177.0021649328765
 21
411.2946495527556
 31
0.0
  0
LINE
  5
32F
330
A
100
AcDbEntity
  8
06
100
AcDbLine
 10
274.0607400046998
 20
271.8013886298956
 30
0.0
 11
274.0607400046998
 21
180.4013886298955
 31
0.0
  0
LINE
  5
330
330
A
100
AcDbEntity
  8
SAISEN
100
AcDbLine
 10
157.0293890280901
 20
245.0756084398363
 30
0.0
 11
197.0293890280903
 21
205.075608439836
 31
0.0
  0
LINE
  5
331
330
A
100
AcDbEntity
  8
SAISEN
100
AcDbLine
 10
159.4080686845306
 20
238.4542880962766
 30
0.0
 11
191.9309041071084
 21
205.9314526736989
 31
0.0
  0
LINE
  5
332
330
A
100
AcDbEntity
  8
SAISEN
100
AcDbLine
 10
195.3219722520182
 20
211.0256659030276
 30
0.0
 11
163.7478434316014
 21
242.5997947234443
 31
0.0
  0
LINE
  5
333
330
A
100
AcDbEntity
  8
06
100
AcDbLine
 10
356.5711852354595
 20
100.8919367294484
 30
0.0
 11
358.5711852354595
 21
100.8919367294484
 31
0.0
  0
LINE
  5
334
330
A
100
AcDbEntity
  8
06
100
AcDbLine
 10
358.5711852354595
 20
100.8919367294484
 30
0.0
 11
358.5711852354595
 21
95.89193672944869
 31
0.0
  0
LINE
  5
335
330
A
100
AcDbEntity
  8
06
100
AcDbLine
 10
356.5711852354595
 20
98.19193672944869
 30
0.0
 11
356.5711852354595
 21
100.8919367294484
 31
0.0
  0
LINE
  5
336
330
A
100
AcDbEntity
  8
06
100
AcDbLine
 10
358.5711852354595
 20
95.89193672944869
 30
0.0
 11
353.5711852354594
 21
95.89193672944869
 31
0.0
  0
LINE
  5
337
330
A
100
AcDbEntity
  8
06
100
AcDbLine
 10
353.5711852354594
 20
94.39193672944869
 30
0.0
 11
352.0711852354593
 21
94.39193672944869
 31
0.0
  0
LINE
  5
338
330
A
100
AcDbEntity
  8
06
100
AcDbLine
 10
352.0711852354593
 20
98.19193672944869
 30
0.0
 11
356.5711852354595
 21
98.19193672944869
 31
0.0
  0
ARC
  5
339
330
A
100
AcDbEntity
  8
06
100
AcDbCircle
 10
347.7998643356446
 20
102.4057020018392
 30
0.0
 40
6.0
100
AcDbArc
 50
282.2329474773236
 51
315.3886400086223
  0
ARC
  5
33A
330
A
100
AcDbEntity
  8
06
100
AcDbCircle
 10
347.7998643356446
 20
90.17817145705809
 30
0.0
 40
6.0
100
AcDbArc
 50
44.61135999137758
 51
77.76705252267631
  0
LINE
  5
33B
330
A
100
AcDbEntity
  8
06
100
AcDbLine
 10
348.5711852354595
 20
97.04193672944873
 30
0.0
 11
349.0711852354595
 21
96.5419367294487
 31
0.0
  0
LINE
  5
33C
330
A
100
AcDbEntity
  8
06
100
AcDbLine
 10
348.5711852354595
 20
95.54193672944872
 30
0.0
 11
349.0711852354595
 21
96.04193672944873
 31
0.0
  0
LINE
  5
33D
330
A
100
AcDbEntity
  8
06
100
AcDbLine
 10
348.5711852354595
 20
97.04193672944873
 30
0.0
 11
347.2421282939548
 21
96.59891774894717
 31
0.0
  0
ARC
  5
33E
330
A
100
AcDbEntity
  8
06
100
AcDbCircle
 10
347.3211852354592
 20
96.36174692443452
 30
0.0
 40
0.25
100
AcDbArc
 50
108.4349488229228
 51
179.9999999999998
  0
LINE
  5
33F
330
A
100
AcDbEntity
  8
06
100
AcDbLine
 10
347.2421282939558
 20
95.98495570994991
 30
0.0
 11
348.5711852354595
 21
95.54193672944872
 31
0.0
  0
ARC
  5
340
330
A
100
AcDbEntity
  8
06
100
AcDbCircle
 10
347.3211852354601
 20
96.22212653446259
 30
0.0
 40
0.25
100
AcDbArc
 50
179.9999999999998
 51
251.565051177074
  0
LINE
  5
341
330
A
100
AcDbEntity
  8
06
100
AcDbLine
 10
375.0711852354593
 20
286.3919367294485
 30
0.0
 11
375.0711852354593
 21
284.6919367294485
 31
0.0
  0
LINE
  5
342
330
A
100
AcDbEntity
  8
06
100
AcDbLine
 10
375.0711852354593
 20
284.6919367294485
 30
0.0
 11
361.5711852354595
 21
284.6919367294485
 31
0.0
  0
LINE
  5
343
330
A
100
AcDbEntity
  8
06
100
AcDbLine
 10
361.5711852354595
 20
284.6919367294485
 30
0.0
 11
361.5711852354595
 21
286.3919367294485
 31
0.0
  0
LINE
  5
344
330
A
100
AcDbEntity
  8
06
100
AcDbLine
 10
361.5711852354595
 20
286.3919367294485
 30
0.0
 11
363.8211852354594
 21
286.3919367294485
 31
0.0
  0
LINE
  5
345
330
A
100
AcDbEntity
  8
06
100
AcDbLine
 10
372.8211852354593
 20
286.3919367294485
 30
0.0
 11
375.0711852354593
 21
286.3919367294485
 31
0.0
  0
LINE
  5
346
330
A
100
AcDbEntity
  8
06
100
AcDbLine
 10
372.8211852354593
 20
286.3919367294485
 30
0.0
 11
372.8211852354593
 21
288.3919367294485
 31
0.0
  0
LINE
  5
347
330
A
100
AcDbEntity
  8
06
100
AcDbLine
 10
372.8211852354593
 20
288.3919367294485
 30
0.0
 11
376.3211852354594
 21
288.3919367294485
 31
0.0
  0
LINE
  5
348
330
A
100
AcDbEntity
  8
06
100
AcDbLine
 10
376.3211852354594
 20
288.3919367294485
 30
0.0
 11
376.3211852354594
 21
289.8919367294485
 31
0.0
  0
LINE
  5
349
330
A
100
AcDbEntity
  8
06
100
AcDbLine
 10
375.8211852354595
 20
290.3919367294485
 30
0.0
 11
371.8211852354595
 21
290.3919367294485
 31
0.0
  0
ARC
  5
34A
330
A
100
AcDbEntity
  8
06
100
AcDbCircle
 10
375.8211852354595
 20
289.8919367294485
 30
0.0
 40
0.5
100
AcDbArc
 50
359.9999999999998
 51
89.99999999999992
  0
LINE
  5
34B
330
A
100
AcDbEntity
  8
06
100
AcDbLine
 10
371.3211852354595
 20
289.8919367294485
 30
0.0
 11
371.3211852354595
 21
287.2919367294485
 31
0.0
  0
ARC
  5
34C
330
A
100
AcDbEntity
  8
06
100
AcDbCircle
 10
371.8211852354595
 20
289.8919367294485
 30
0.0
 40
0.5
100
AcDbArc
 50
89.99999999999992
 51
179.9999999999999
  0
LINE
  5
34D
330
A
100
AcDbEntity
  8
06
100
AcDbLine
 10
371.3211852354595
 20
287.2919367294485
 30
0.0
 11
368.3211852354594
 21
287.2919367294485
 31
0.0
  0
LINE
  5
34E
330
A
100
AcDbEntity
  8
06
100
AcDbLine
 10
363.8211852354594
 20
286.3919367294485
 30
0.0
 11
363.8211852354594
 21
288.3919367294485
 31
0.0
  0
LINE
  5
34F
330
A
100
AcDbEntity
  8
06
100
AcDbLine
 10
363.8211852354594
 20
288.3919367294485
 30
0.0
 11
360.3211852354593
 21
288.3919367294485
 31
0.0
  0
LINE
  5
350
330
A
100
AcDbEntity
  8
06
100
AcDbLine
 10
360.3211852354593
 20
288.3919367294485
 30
0.0
 11
360.3211852354593
 21
289.8919367294485
 31
0.0
  0
LINE
  5
351
330
A
100
AcDbEntity
  8
06
100
AcDbLine
 10
360.8211852354595
 20
290.3919367294485
 30
0.0
 11
365.3211852354595
 21
290.3919367294485
 31
0.0
  0
ARC
  5
352
330
A
100
AcDbEntity
  8
06
100
AcDbCircle
 10
360.8211852354595
 20
289.8919367294485
 30
0.0
 40
0.5
100
AcDbArc
 50
89.99999999999992
 51
180.0
  0
LINE
  5
353
330
A
100
AcDbEntity
  8
06
100
AcDbLine
 10
366.5053243920015
 20
293.3919367294483
 30
0.0
 11
366.7099629062015
 21
293.3919367294483
 31
0.0
  0
LINE
  5
354
330
A
100
AcDbEntity
  8
06
100
AcDbLine
 10
366.0222069222007
 20
293.0207680547287
 30
0.0
 11
365.3211852354595
 21
290.3919367294485
 31
0.0
  0
ARC
  5
355
330
A
100
AcDbEntity
  8
06
100
AcDbCircle
 10
366.5053243920015
 20
292.8919367294485
 30
0.0
 40
0.5
100
AcDbArc
 50
89.99999999999992
 51
165.068582821862
  0
LINE
  5
356
330
A
100
AcDbEntity
  8
06
100
AcDbLine
 10
367.200560134447
 20
292.9884476595951
 30
0.0
 11
368.3211852354594
 21
287.2919367294485
 31
0.0
  0
ARC
  5
357
330
A
100
AcDbEntity
  8
06
100
AcDbCircle
 10
366.7099629062015
 20
292.8919367294485
 30
0.0
 40
0.5
100
AcDbArc
 50
11.12918928961118
 51
89.99999999999992
  0
LINE
  5
358
330
A
100
AcDbEntity
  8
06
100
AcDbLine
 10
361.5711852354595
 20
295.3919367294485
 30
0.0
 11
361.5711852354595
 21
297.0919367294484
 31
0.0
  0
LINE
  5
359
330
A
100
AcDbEntity
  8
06
100
AcDbLine
 10
361.5711852354595
 20
297.0919367294484
 30
0.0
 11
375.0711852354593
 21
297.0919367294484
 31
0.0
  0
LINE
  5
35A
330
A
100
AcDbEntity
  8
06
100
AcDbLine
 10
375.0711852354593
 20
297.0919367294484
 30
0.0
 11
375.0711852354593
 21
295.3919367294485
 31
0.0
  0
LINE
  5
35B
330
A
100
AcDbEntity
  8
06
100
AcDbLine
 10
375.0711852354593
 20
295.3919367294485
 30
0.0
 11
372.8211852354593
 21
295.3919367294485
 31
0.0
  0
LINE
  5
35C
330
A
100
AcDbEntity
  8
06
100
AcDbLine
 10
363.8211852354594
 20
295.3919367294485
 30
0.0
 11
361.5711852354595
 21
295.3919367294485
 31
0.0
  0
LINE
  5
35D
330
A
100
AcDbEntity
  8
06
100
AcDbLine
 10
363.8211852354594
 20
295.3919367294485
 30
0.0
 11
363.8211852354594
 21
293.3919367294483
 31
0.0
  0
LINE
  5
35E
330
A
100
AcDbEntity
  8
06
100
AcDbLine
 10
363.8211852354594
 20
293.3919367294483
 30
0.0
 11
360.3211852354593
 21
293.3919367294483
 31
0.0
  0
LINE
  5
35F
330
A
100
AcDbEntity
  8
06
100
AcDbLine
 10
360.3211852354593
 20
293.3919367294483
 30
0.0
 11
360.3211852354593
 21
291.8919367294483
 31
0.0
  0
LINE
  5
360
330
A
100
AcDbEntity
  8
06
100
AcDbLine
 10
360.8211852354595
 20
291.3919367294483
 30
0.0
 11
364.8211852354595
 21
291.3919367294483
 31
0.0
  0
ARC
  5
361
330
A
100
AcDbEntity
  8
06
100
AcDbCircle
 10
360.8211852354595
 20
291.8919367294483
 30
0.0
 40
0.5
100
AcDbArc
 50
179.9999999999999
 51
270.0
  0
LINE
  5
362
330
A
100
AcDbEntity
  8
06
100
AcDbLine
 10
365.3211852354595
 20
291.8919367294483
 30
0.0
 11
365.3211852354595
 21
294.4919367294485
 31
0.0
  0
ARC
  5
363
330
A
100
AcDbEntity
  8
06
100
AcDbCircle
 10
364.8211852354595
 20
291.8919367294483
 30
0.0
 40
0.5
100
AcDbArc
 50
270.0
 51
359.9999999999998
  0
LINE
  5
364
330
A
100
AcDbEntity
  8
06
100
AcDbLine
 10
365.3211852354595
 20
294.4919367294485
 30
0.0
 11
368.3211852354594
 21
294.4919367294486
 31
0.0
  0
LINE
  5
365
330
A
100
AcDbEntity
  8
06
100
AcDbLine
 10
372.8211852354593
 20
295.3919367294485
 30
0.0
 11
372.8211852354593
 21
293.3919367294483
 31
0.0
  0
LINE
  5
366
330
A
100
AcDbEntity
  8
06
100
AcDbLine
 10
372.8211852354593
 20
293.3919367294483
 30
0.0
 11
376.3211852354594
 21
293.3919367294483
 31
0.0
  0
LINE
  5
367
330
A
100
AcDbEntity
  8
06
100
AcDbLine
 10
376.3211852354594
 20
293.3919367294483
 30
0.0
 11
376.3211852354594
 21
291.8919367294483
 31
0.0
  0
LINE
  5
368
330
A
100
AcDbEntity
  8
06
100
AcDbLine
 10
375.8211852354595
 20
291.3919367294483
 30
0.0
 11
371.3211852354595
 21
291.3919367294483
 31
0.0
  0
ARC
  5
369
330
A
100
AcDbEntity
  8
06
100
AcDbCircle
 10
375.8211852354595
 20
291.8919367294483
 30
0.0
 40
0.5
100
AcDbArc
 50
270.0
 51
0.0000000000001599
  0
LINE
  5
36A
330
A
100
AcDbEntity
  8
06
100
AcDbLine
 10
370.1370460789173
 20
288.3919367294485
 30
0.0
 11
369.9324075647175
 21
288.3919367294485
 31
0.0
  0
LINE
  5
36B
330
A
100
AcDbEntity
  8
06
100
AcDbLine
 10
370.6201635487181
 20
288.7631054041682
 30
0.0
 11
371.3211852354595
 21
291.3919367294483
 31
0.0
  0
ARC
  5
36C
330
A
100
AcDbEntity
  8
06
100
AcDbCircle
 10
370.1370460789173
 20
288.8919367294485
 30
0.0
 40
0.5
100
AcDbArc
 50
270.0
 51
345.0685828218623
  0
LINE
  5
36D
330
A
100
AcDbEntity
  8
06
100
AcDbLine
 10
369.4418103364718
 20
288.7954257993019
 30
0.0
 11
368.3211852354594
 21
294.4919367294486
 31
0.0
  0
ARC
  5
36E
330
A
100
AcDbEntity
  8
06
100
AcDbCircle
 10
369.9324075647175
 20
288.8919367294485
 30
0.0
 40
0.5
100
AcDbArc
 50
191.1291892896112
 51
270.0
  0
LINE
  5
36F
330
A
100
AcDbEntity
  8
06
100
AcDbLine
 10
274.0607400046998
 20
180.4013886298955
 30
0.0
 11
274.0607400046998
 21
271.8013886298956
 31
0.0
  0
LINE
  5
370
330
A
100
AcDbEntity
  8
06
100
AcDbLine
 10
274.0607400046998
 20
271.8013886298956
 30
0.0
 11
274.8607400046998
 21
271.8013886298956
 31
0.0
  0
LINE
  5
371
330
A
100
AcDbEntity
  8
06
100
AcDbLine
 10
274.8607400046998
 20
271.8013886298956
 30
0.0
 11
274.8607400046998
 21
180.4013886298955
 31
0.0
  0
LINE
  5
372
330
A
100
AcDbEntity
  8
06
100
AcDbLine
 10
274.8607400046998
 20
180.4013886298955
 30
0.0
 11
274.0607400046998
 21
180.4013886298955
 31
0.0
  0
LINE
  5
375
330
A
100
AcDbEntity
  8
02
100
AcDbLine
 10
372.3211852354594
 20
102.6419367294487
 30
0.0
 11
364.3211852354593
 21
102.6419367294487
 31
0.0
  0
LINE
  5
376
330
A
100
AcDbEntity
  8
02
100
AcDbLine
 10
364.3211852354593
 20
280.1919367294485
 30
0.0
 11
372.3211852354594
 21
280.1919367294485
 31
0.0
  0
LINE
  5
377
330
A
100
AcDbEntity
  8
02
100
AcDbLine
 10
364.8211852354595
 20
279.6919367294484
 30
0.0
 11
371.8211852354595
 21
279.6919367294484
 31
0.0
  0
LINE
  5
378
330
A
100
AcDbEntity
  8
02
100
AcDbLine
 10
364.8211852354595
 20
103.1419367294489
 30
0.0
 11
371.8211852354595
 21
103.1419367294489
 31
0.0
  0
LINE
  5
379
330
A
100
AcDbEntity
  8
02
100
AcDbLine
 10
364.3211852354593
 20
102.6419367294489
 30
0.0
 11
364.3211852354593
 21
233.3752267603187
 31
0.0
  0
LINE
  5
37A
330
A
100
AcDbEntity
  8
02
100
AcDbLine
 10
364.3211852354593
 20
238.3752267603187
 30
0.0
 11
364.3211852354593
 21
280.1919367294485
 31
0.0
  0
LINE
  5
37B
330
A
100
AcDbEntity
  8
02
100
AcDbLine
 10
372.3211852354594
 20
102.6419367294489
 30
0.0
 11
372.3211852354594
 21
233.3752267603187
 31
0.0
  0
LINE
  5
37C
330
A
100
AcDbEntity
  8
02
100
AcDbLine
 10
372.3211852354594
 20
238.3752267603187
 30
0.0
 11
372.3211852354594
 21
280.1919367294485
 31
0.0
  0
LINE
  5
37D
330
A
100
AcDbEntity
  8
02
100
AcDbLine
 10
371.8211852354595
 20
103.1419367294487
 30
0.0
 11
371.8211852354595
 21
233.3752267603187
 31
0.0
  0
LINE
  5
37E
330
A
100
AcDbEntity
  8
02
100
AcDbLine
 10
371.8211852354595
 20
238.3752267603187
 30
0.0
 11
371.8211852354595
 21
279.6919367294484
 31
0.0
  0
LINE
  5
37F
330
A
100
AcDbEntity
  8
02
100
AcDbLine
 10
364.8211852354595
 20
103.1419367294485
 30
0.0
 11
364.8211852354595
 21
233.3752267603187
 31
0.0
  0
LINE
  5
380
330
A
100
AcDbEntity
  8
02
100
AcDbLine
 10
364.8211852354595
 20
238.3752267603187
 30
0.0
 11
364.8211852354595
 21
279.6919367294484
 31
0.0
  0
LINE
  5
381
330
A
100
AcDbEntity
  8
02
100
AcDbLine
 10
364.3211852354593
 20
301.6419367294485
 30
0.0
 11
372.3211852354594
 21
301.6419367294485
 31
0.0
  0
LINE
  5
382
330
A
100
AcDbEntity
  8
02
100
AcDbLine
 10
372.3211852354594
 20
301.6419367294485
 30
0.0
 11
372.3211852354596
 21
376.6419367294484
 31
0.0
  0
LINE
  5
383
330
A
100
AcDbEntity
  8
02
100
AcDbLine
 10
364.3211852354593
 20
301.6419367294485
 30
0.0
 11
364.3211852354596
 21
376.6419367294484
 31
0.0
  0
LINE
  5
384
330
A
100
AcDbEntity
  8
02
100
AcDbLine
 10
364.8211852354596
 20
376.6419367294484
 30
0.0
 11
364.8211852354595
 21
302.1419367294483
 31
0.0
  0
LINE
  5
385
330
A
100
AcDbEntity
  8
02
100
AcDbLine
 10
364.8211852354595
 20
302.1419367294483
 30
0.0
 11
371.8211852354595
 21
302.1419367294483
 31
0.0
  0
LINE
  5
386
330
A
100
AcDbEntity
  8
02
100
AcDbLine
 10
371.8211852354595
 20
302.1419367294483
 30
0.0
 11
371.8211852354595
 21
376.6419367294484
 31
0.0
  0
LINE
  5
387
330
A
100
AcDbEntity
  8
02
100
AcDbLine
 10
364.3211852354596
 20
490.1919367294484
 30
0.0
 11
372.3211852354596
 21
490.1919367294484
 31
0.0
  0
LINE
  5
388
330
A
100
AcDbEntity
  8
02
100
AcDbLine
 10
364.8211852354596
 20
489.6919367294485
 30
0.0
 11
371.8211852354595
 21
489.6919367294485
 31
0.0
  0
LINE
  5
389
330
A
100
AcDbEntity
  8
02
100
AcDbLine
 10
364.3211852354596
 20
418.3752267603186
 30
0.0
 11
364.3211852354596
 21
490.1919367294484
 31
0.0
  0
LINE
  5
38A
330
A
100
AcDbEntity
  8
02
100
AcDbLine
 10
372.3211852354596
 20
418.3752267603186
 30
0.0
 11
372.3211852354596
 21
490.1919367294484
 31
0.0
  0
LINE
  5
38B
330
A
100
AcDbEntity
  8
02
100
AcDbLine
 10
371.8211852354595
 20
418.3752267603186
 30
0.0
 11
371.8211852354595
 21
489.6919367294485
 31
0.0
  0
LINE
  5
38C
330
A
100
AcDbEntity
  8
02
100
AcDbLine
 10
364.8211852354596
 20
418.3752267603186
 30
0.0
 11
364.8211852354596
 21
489.6919367294485
 31
0.0
  0
LINE
  5
3A1
330
A
100
AcDbEntity
  8
06
100
AcDbLine
 10
38.34574161481532
 20
448.7793245876927
 30
0.0
 11
36.84574161481532
 21
448.7793245876927
 31
0.0
  0
LINE
  5
3A3
330
A
100
AcDbEntity
  8
06
100
AcDbLine
 10
38.34574161481532
 20
423.7793245876927
 30
0.0
 11
37.34574161481532
 21
423.7793245876927
 31
0.0
  0
LINE
  5
3A4
330
A
100
AcDbEntity
  8
06
100
AcDbLine
 10
37.34574161481532
 20
415.5793245876926
 30
0.0
 11
37.34574161481532
 21
423.7793245876927
 31
0.0
  0
LINE
  5
3A5
330
A
100
AcDbEntity
  8
06
100
AcDbLine
 10
36.84574161481532
 20
448.7793245876927
 30
0.0
 11
36.84574161481532
 21
418.7793245876926
 31
0.0
  0
LINE
  5
3A6
330
A
100
AcDbEntity
  8
06
100
AcDbLine
 10
36.84574161481532
 20
418.7793245876926
 30
0.0
 11
37.34574161481532
 21
415.5793245876926
 31
0.0
  0
LINE
  5
3A7
330
A
100
AcDbEntity
  8
02
100
AcDbLine
 10
98.04574161482157
 20
439.7793245876925
 30
0.0
 11
172.0021649328765
 21
439.7793245876926
 31
0.0
  0
LINE
  5
3A8
330
A
100
AcDbEntity
  8
02
100
AcDbLine
 10
177.0021649328765
 20
439.7793245876926
 30
0.0
 11
222.6249224370664
 21
439.7793245876926
 31
0.0
  0
LINE
  5
3A9
330
A
100
AcDbEntity
  8
02
100
AcDbLine
 10
98.04574161482747
 20
432.7793245876923
 30
0.0
 11
172.0021649328765
 21
432.7793245876927
 31
0.0
  0
LINE
  5
3AA
330
A
100
AcDbEntity
  8
02
100
AcDbLine
 10
177.0021649328765
 20
432.7793245876927
 30
0.0
 11
222.6249281355749
 21
432.7793245876926
 31
0.0
  0
LINE
  5
3AB
330
A
100
AcDbEntity
  8
02
100
AcDbLine
 10
97.54574161481532
 20
440.2793245876927
 30
0.0
 11
172.0021649328765
 21
440.2793245876927
 31
0.0
  0
LINE
  5
3AC
330
A
100
AcDbEntity
  8
02
100
AcDbLine
 10
177.0021649328765
 20
440.2793245876927
 30
0.0
 11
223.1249220300306
 21
440.2793245876927
 31
0.0
  0
LINE
  5
3AD
330
A
100
AcDbEntity
  8
02
100
AcDbLine
 10
97.54574161481528
 20
432.2793245876927
 30
0.0
 11
172.0021649328765
 21
432.2793245876927
 31
0.0
  0
LINE
  5
3AE
330
A
100
AcDbEntity
  8
02
100
AcDbLine
 10
177.0021649328765
 20
432.2793245876927
 30
0.0
 11
223.1249285426115
 21
432.2793245876927
 31
0.0
  0
LINE
  5
3B1
330
A
100
AcDbEntity
  8
06
100
AcDbLine
 10
37.54574161481415
 20
417.2793245876928
 30
0.0
 11
172.0021649328765
 21
417.2793245876927
 31
0.0
  0
LINE
  5
3B2
330
A
100
AcDbEntity
  8
06
100
AcDbLine
 10
177.0021649328765
 20
417.2793245876927
 30
0.0
 11
283.1235899457301
 21
417.2793245876927
 31
0.0
  0
LINE
  5
3B3
330
A
100
AcDbEntity
  8
06
100
AcDbLine
 10
37.54574161481434
 20
415.2793245876926
 30
0.0
 11
37.54574161481421
 21
420.2793245876927
 31
0.0
  0
LINE
  5
3B4
330
A
100
AcDbEntity
  8
06
100
AcDbLine
 10
283.1235899457301
 20
415.2793245876923
 30
0.0
 11
283.1235899457297
 21
420.2793245876927
 31
0.0
  0
LINE
  5
3B9
330
A
100
AcDbEntity
  8
06
100
AcDbLine
 10
37.54574161481415
 20
415.2793245876926
 30
0.0
 11
172.0021649328765
 21
415.2793245876923
 31
0.0
  0
LINE
  5
3BA
330
A
100
AcDbEntity
  8
06
100
AcDbLine
 10
177.0021649328765
 20
415.2793245876926
 30
0.0
 11
283.1235899457301
 21
415.2793245876923
 31
0.0
  0
LINE
  5
3C1
330
A
100
AcDbEntity
  8
CHUSIN
 48
0.5
100
AcDbLine
 10
264.7293777299787
 20
266.1013886298956
 30
0.0
 11
276.2888678847396
 21
266.1013886298956
 31
0.0
  0
LINE
  5
3C2
330
A
100
AcDbEntity
  8
CHUSIN
 48
0.5
100
AcDbLine
 10
271.6607400046998
 20
270.000476825038
 30
0.0
 11
271.6607400046998
 21
261.2891172778033
 31
0.0
  0
LINE
  5
3C3
330
A
100
AcDbEntity
  8
CHUSIN
 48
0.5
100
AcDbLine
 10
65.66074000469996
 20
260.1013886298956
 30
0.0
 11
57.66496493263765
 21
260.1013886298956
 31
0.0
  0
LINE
  5
3C4
330
A
100
AcDbEntity
  8
CHUSIN
 48
0.5
100
AcDbLine
 10
65.66074000469996
 20
248.1013886298955
 30
0.0
 11
57.66496493263765
 21
248.1013886298955
 31
0.0
  0
LINE
  5
3C5
330
A
100
AcDbEntity
  8
CHUSIN
 48
0.5
100
AcDbLine
 10
65.66074000469996
 20
192.1013886298955
 30
0.0
 11
57.66496493263765
 21
192.1013886298955
 31
0.0
  0
LINE
  5
3C6
330
A
100
AcDbEntity
  8
CHUSIN
100
AcDbLine
 10
75.66074000469996
 20
198.1013886298955
 30
0.0
 11
57.66496493263765
 21
198.1013886298955
 31
0.0
  0
LINE
  5
3C7
330
A
100
AcDbEntity
  8
CHUSIN
 48
0.5
100
AcDbLine
 10
65.66074000469996
 20
204.1013886298955
 30
0.0
 11
57.66496493263765
 21
204.1013886298955
 31
0.0
  0
LINE
  5
3C8
330
A
100
AcDbEntity
  8
CHUSIN
100
AcDbLine
 10
75.66074000469996
 20
254.1013886298955
 30
0.0
 11
57.66496493263765
 21
254.1013886298955
 31
0.0
  0
LINE
  5
3C9
330
A
100
AcDbEntity
  8
CHUSIN
 48
0.5
100
AcDbLine
 10
269.0607400046999
 20
192.4013886298956
 30
0.0
 11
279.0607400046998
 21
192.4013886298956
 31
0.0
  0
LINE
  5
3CA
330
A
100
AcDbEntity
  8
CHUSIN
 48
0.5
100
AcDbLine
 10
269.0607400046999
 20
251.8013886298955
 30
0.0
 11
279.0607400046998
 21
251.8013886298955
 31
0.0
  0
LINE
  5
3CB
330
A
100
AcDbEntity
  8
CHUSIN
100
AcDbLine
 10
368.3211852354594
 20
85.89193672944864
 30
0.0
 11
368.3211852354594
 21
233.3752267603187
 31
0.0
  0
LINE
  5
3CC
330
A
100
AcDbEntity
  8
CHUSIN
100
AcDbLine
 10
368.3211852354594
 20
238.3752267603187
 30
0.0
 11
368.3211852354596
 21
387.2450387192346
 31
0.0
  0
LINE
  5
3CD
330
A
100
AcDbEntity
  8
CHUSIN
100
AcDbLine
 10
368.3211852354596
 20
411.8775717246457
 30
0.0
 11
368.3211852354596
 21
491.3428352381759
 31
0.0
  0
LINE
  5
3CE
330
A
100
AcDbEntity
  8
CHUSIN
 48
0.5
100
AcDbLine
 10
269.0607400046999
 20
263.3013886298956
 30
0.0
 11
279.0607400046998
 21
263.3013886298956
 31
0.0
  0
LINE
  5
3D0
330
A
100
AcDbEntity
  8
CHUSIN
100
AcDbLine
 10
190.0612693143621
 20
436.2793245876927
 30
0.0
 11
28.92919384266406
 21
436.2793245876927
 31
0.0
  0
LINE
  5
3D1
330
A
100
AcDbEntity
  8
04
100
AcDbLine
 10
352.3211852354596
 20
98.19193672944869
 30
0.0
 11
352.3211852354595
 21
105.8919367294484
 31
0.0
  0
LINE
  5
3D2
330
A
100
AcDbEntity
  8
04
100
AcDbLine
 10
352.8211852354595
 20
106.3919367294485
 30
0.0
 11
362.3211852354593
 21
106.3919367294485
 31
0.0
  0
LINE
  5
3D3
330
A
100
AcDbEntity
  8
04
100
AcDbLine
 10
374.3211852354594
 20
106.3919367294485
 30
0.0
 11
383.8211852354596
 21
106.3919367294485
 31
0.0
  0
ARC
  5
3D4
330
A
100
AcDbEntity
  8
04
100
AcDbCircle
 10
352.8211852354595
 20
105.8919367294484
 30
0.0
 40
0.5
100
AcDbArc
 50
90.0
 51
180.0000000000006
  0
LINE
  5
3D5
330
A
100
AcDbEntity
  8
04
100
AcDbLine
 10
384.3211852354596
 20
105.8919367294484
 30
0.0
 11
384.3211852354595
 21
94.89193672944862
 31
0.0
  0
ARC
  5
3D6
330
A
100
AcDbEntity
  8
04
100
AcDbCircle
 10
383.8211852354596
 20
105.8919367294484
 30
0.0
 40
0.5
100
AcDbArc
 50
359.9999999999993
 51
90.0
  0
LINE
  5
3D7
330
A
100
AcDbEntity
  8
04
100
AcDbLine
 10
383.8211852354595
 20
94.39193672944865
 30
0.0
 11
353.5711852354594
 21
94.39193672944865
 31
0.0
  0
ARC
  5
3D8
330
A
100
AcDbEntity
  8
04
100
AcDbCircle
 10
383.8211852354595
 20
94.89193672944862
 30
0.0
 40
0.5
100
AcDbArc
 50
270.0
 51
359.9999999999988
  0
LINE
  5
3D9
330
A
100
AcDbEntity
  8
04
100
AcDbLine
 10
352.3211852354596
 20
276.8919367294484
 30
0.0
 11
352.3211852354595
 21
287.8919367294485
 31
0.0
  0
LINE
  5
3DA
330
A
100
AcDbEntity
  8
04
100
AcDbLine
 10
352.8211852354595
 20
288.3919367294485
 30
0.0
 11
363.3211852354595
 21
288.3919367294485
 31
0.0
  0
LINE
  5
3DB
330
A
100
AcDbEntity
  8
04
100
AcDbLine
 10
373.3211852354595
 20
288.3919367294485
 30
0.0
 11
383.8211852354595
 21
288.3919367294485
 31
0.0
  0
ARC
  5
3DC
330
A
100
AcDbEntity
  8
04
100
AcDbCircle
 10
352.8211852354595
 20
287.8919367294485
 30
0.0
 40
0.5
100
AcDbArc
 50
90.0
 51
180.0000000000004
  0
LINE
  5
3DD
330
A
100
AcDbEntity
  8
04
100
AcDbLine
 10
384.3211852354595
 20
287.8919367294485
 30
0.0
 11
384.3211852354595
 21
276.8919367294484
 31
0.0
  0
ARC
  5
3DE
330
A
100
AcDbEntity
  8
04
100
AcDbCircle
 10
383.8211852354595
 20
287.8919367294485
 30
0.0
 40
0.5
100
AcDbArc
 50
0.0000000000002398
 51
90.0
  0
LINE
  5
3DF
330
A
100
AcDbEntity
  8
04
100
AcDbLine
 10
383.8211852354595
 20
276.3919367294485
 30
0.0
 11
374.3211852354596
 21
276.3919367294485
 31
0.0
  0
LINE
  5
3E0
330
A
100
AcDbEntity
  8
04
100
AcDbLine
 10
362.3211852354596
 20
276.3919367294485
 30
0.0
 11
352.8211852354596
 21
276.3919367294485
 31
0.0
  0
ARC
  5
3E1
330
A
100
AcDbEntity
  8
04
100
AcDbCircle
 10
383.8211852354595
 20
276.8919367294484
 30
0.0
 40
0.5
100
AcDbArc
 50
270.0
 51
359.9999999999993
  0
ARC
  5
3E2
330
A
100
AcDbEntity
  8
04
100
AcDbCircle
 10
352.8211852354596
 20
276.8919367294484
 30
0.0
 40
0.5
100
AcDbArc
 50
180.0
 51
270.0
  0
LINE
  5
3E3
330
A
100
AcDbEntity
  8
04
100
AcDbLine
 10
353.8211852354596
 20
104.8919367294484
 30
0.0
 11
362.3211852354593
 21
104.8919367294484
 31
0.0
  0
LINE
  5
3E4
330
A
100
AcDbEntity
  8
04
100
AcDbLine
 10
353.8211852354594
 20
98.19193672944869
 30
0.0
 11
353.8211852354596
 21
104.8919367294484
 31
0.0
  0
LINE
  5
3E5
330
A
100
AcDbEntity
  8
04
100
AcDbLine
 10
374.3211852354594
 20
104.8919367294484
 30
0.0
 11
382.8211852354592
 21
104.8919367294484
 31
0.0
  0
LINE
  5
3E6
330
A
100
AcDbEntity
  8
04
100
AcDbLine
 10
382.8211852354592
 20
104.8919367294484
 30
0.0
 11
382.8211852354595
 21
95.89193672944864
 31
0.0
  0
LINE
  5
3E7
330
A
100
AcDbEntity
  8
04
100
AcDbLine
 10
382.8211852354595
 20
95.89193672944864
 30
0.0
 11
353.5711852354594
 21
95.89193672944869
 31
0.0
  0
LINE
  5
3E8
330
A
100
AcDbEntity
  8
04
100
AcDbLine
 10
353.8211852354594
 20
277.8919367294485
 30
0.0
 11
353.8211852354594
 21
286.8919367294483
 31
0.0
  0
LINE
  5
3E9
330
A
100
AcDbEntity
  8
04
100
AcDbLine
 10
353.8211852354594
 20
286.8919367294483
 30
0.0
 11
363.3211852354595
 21
286.8919367294483
 31
0.0
  0
LINE
  5
3EA
330
A
100
AcDbEntity
  8
04
100
AcDbLine
 10
373.3211852354595
 20
286.8919367294483
 30
0.0
 11
382.8211852354596
 21
286.8919367294483
 31
0.0
  0
LINE
  5
3EB
330
A
100
AcDbEntity
  8
04
100
AcDbLine
 10
382.8211852354596
 20
286.8919367294483
 30
0.0
 11
382.8211852354595
 21
277.8919367294485
 31
0.0
  0
LINE
  5
3EC
330
A
100
AcDbEntity
  8
04
100
AcDbLine
 10
382.8211852354595
 20
277.8919367294485
 30
0.0
 11
374.3211852354596
 21
277.8919367294485
 31
0.0
  0
LINE
  5
3ED
330
A
100
AcDbEntity
  8
04
100
AcDbLine
 10
362.3211852354596
 20
277.8919367294485
 30
0.0
 11
353.8211852354594
 21
277.8919367294485
 31
0.0
  0
LINE
  5
3EE
330
A
100
AcDbEntity
  8
04
100
AcDbLine
 10
362.3211852354596
 20
276.3919367294485
 30
0.0
 11
362.3211852354596
 21
277.8919367294485
 31
0.0
  0
LINE
  5
3EF
330
A
100
AcDbEntity
  8
04
100
AcDbLine
 10
374.3211852354596
 20
276.3919367294485
 30
0.0
 11
374.3211852354596
 21
277.8919367294485
 31
0.0
  0
LINE
  5
3F0
330
A
100
AcDbEntity
  8
04
100
AcDbLine
 10
374.3211852354594
 20
104.8919367294484
 30
0.0
 11
374.3211852354594
 21
106.3919367294485
 31
0.0
  0
LINE
  5
3F1
330
A
100
AcDbEntity
  8
04
100
AcDbLine
 10
362.3211852354593
 20
104.8919367294484
 30
0.0
 11
362.3211852354593
 21
106.3919367294485
 31
0.0
  0
LINE
  5
3F2
330
A
100
AcDbEntity
  8
04
100
AcDbLine
 10
353.5711852354594
 20
95.89193672944869
 30
0.0
 11
353.5711852354594
 21
94.39193672944869
 31
0.0
  0
LINE
  5
3F3
330
A
100
AcDbEntity
  8
04
100
AcDbLine
 10
363.3211852354595
 20
288.3919367294485
 30
0.0
 11
363.3211852354595
 21
286.8919367294483
 31
0.0
  0
LINE
  5
3F4
330
A
100
AcDbEntity
  8
04
100
AcDbLine
 10
373.3211852354595
 20
286.8919367294483
 30
0.0
 11
373.3211852354595
 21
288.3919367294485
 31
0.0
  0
LINE
  5
3F5
330
A
100
AcDbEntity
  8
04
100
AcDbLine
 10
384.3211852354592
 20
304.8919367294485
 30
0.0
 11
384.3211852354595
 21
293.8919367294486
 31
0.0
  0
LINE
  5
3F6
330
A
100
AcDbEntity
  8
04
100
AcDbLine
 10
383.8211852354595
 20
293.3919367294486
 30
0.0
 11
373.3211852354595
 21
293.3919367294483
 31
0.0
  0
LINE
  5
3F7
330
A
100
AcDbEntity
  8
04
100
AcDbLine
 10
363.3211852354595
 20
293.3919367294483
 30
0.0
 11
352.8211852354592
 21
293.3919367294483
 31
0.0
  0
ARC
  5
3F8
330
A
100
AcDbEntity
  8
04
100
AcDbCircle
 10
383.8211852354595
 20
293.8919367294486
 30
0.0
 40
0.5
100
AcDbArc
 50
270.0
 51
0.0000000000006395
  0
LINE
  5
3F9
330
A
100
AcDbEntity
  8
04
100
AcDbLine
 10
352.3211852354592
 20
293.8919367294483
 30
0.0
 11
352.3211852354595
 21
304.8919367294485
 31
0.0
  0
ARC
  5
3FA
330
A
100
AcDbEntity
  8
04
100
AcDbCircle
 10
352.8211852354592
 20
293.8919367294483
 30
0.0
 40
0.5
100
AcDbArc
 50
180.0000000000002
 51
270.0
  0
LINE
  5
3FB
330
A
100
AcDbEntity
  8
04
100
AcDbLine
 10
352.8211852354595
 20
305.3919367294485
 30
0.0
 11
362.3211852354592
 21
305.3919367294485
 31
0.0
  0
LINE
  5
3FC
330
A
100
AcDbEntity
  8
04
100
AcDbLine
 10
374.3211852354592
 20
305.3919367294485
 30
0.0
 11
383.8211852354593
 21
305.3919367294485
 31
0.0
  0
ARC
  5
3FD
330
A
100
AcDbEntity
  8
04
100
AcDbCircle
 10
352.8211852354595
 20
304.8919367294485
 30
0.0
 40
0.5
100
AcDbArc
 50
90.00000000000005
 51
179.9999999999995
  0
ARC
  5
3FE
330
A
100
AcDbEntity
  8
04
100
AcDbCircle
 10
383.8211852354593
 20
304.8919367294485
 30
0.0
 40
0.5
100
AcDbArc
 50
0.0000000000000799
 51
90.0
  0
LINE
  5
3FF
330
A
100
AcDbEntity
  8
04
100
AcDbLine
 10
382.8211852354592
 20
303.8919367294483
 30
0.0
 11
382.8211852354592
 21
294.8919367294485
 31
0.0
  0
LINE
  5
400
330
A
100
AcDbEntity
  8
04
100
AcDbLine
 10
382.8211852354592
 20
294.8919367294485
 30
0.0
 11
373.3211852354595
 21
294.8919367294485
 31
0.0
  0
LINE
  5
401
330
A
100
AcDbEntity
  8
04
100
AcDbLine
 10
363.3211852354595
 20
294.8919367294485
 30
0.0
 11
353.8211852354592
 21
294.8919367294485
 31
0.0
  0
LINE
  5
402
330
A
100
AcDbEntity
  8
04
100
AcDbLine
 10
353.8211852354592
 20
294.8919367294485
 30
0.0
 11
353.8211852354594
 21
303.8919367294483
 31
0.0
  0
LINE
  5
403
330
A
100
AcDbEntity
  8
04
100
AcDbLine
 10
353.8211852354594
 20
303.8919367294483
 30
0.0
 11
362.3211852354592
 21
303.8919367294483
 31
0.0
  0
LINE
  5
404
330
A
100
AcDbEntity
  8
04
100
AcDbLine
 10
374.3211852354592
 20
303.8919367294486
 30
0.0
 11
382.8211852354592
 21
303.8919367294483
 31
0.0
  0
LINE
  5
405
330
A
100
AcDbEntity
  8
04
100
AcDbLine
 10
374.3211852354592
 20
305.3919367294485
 30
0.0
 11
374.3211852354592
 21
303.8919367294486
 31
0.0
  0
LINE
  5
406
330
A
100
AcDbEntity
  8
04
100
AcDbLine
 10
362.3211852354592
 20
305.3919367294485
 30
0.0
 11
362.3211852354592
 21
303.8919367294483
 31
0.0
  0
LINE
  5
407
330
A
100
AcDbEntity
  8
04
100
AcDbLine
 10
373.3211852354595
 20
293.3919367294483
 30
0.0
 11
373.3211852354595
 21
294.8919367294485
 31
0.0
  0
LINE
  5
408
330
A
100
AcDbEntity
  8
04
100
AcDbLine
 10
363.3211852354595
 20
294.8919367294485
 30
0.0
 11
363.3211852354595
 21
293.3919367294483
 31
0.0
  0
LINE
  5
409
330
A
100
AcDbEntity
  8
04
100
AcDbLine
 10
352.3211852354596
 20
486.8919367294483
 30
0.0
 11
352.3211852354595
 21
497.8919367294484
 31
0.0
  0
LINE
  5
40A
330
A
100
AcDbEntity
  8
04
100
AcDbLine
 10
352.8211852354595
 20
498.3919367294483
 30
0.0
 11
363.3211852354595
 21
498.3919367294483
 31
0.0
  0
LINE
  5
40B
330
A
100
AcDbEntity
  8
04
100
AcDbLine
 10
373.3211852354595
 20
498.3919367294483
 30
0.0
 11
383.8211852354596
 21
498.3919367294483
 31
0.0
  0
ARC
  5
40C
330
A
100
AcDbEntity
  8
04
100
AcDbCircle
 10
352.8211852354595
 20
497.8919367294484
 30
0.0
 40
0.5
100
AcDbArc
 50
90.0
 51
180.0000000000004
  0
LINE
  5
40D
330
A
100
AcDbEntity
  8
04
100
AcDbLine
 10
384.3211852354596
 20
497.8919367294484
 30
0.0
 11
384.3211852354595
 21
486.8919367294483
 31
0.0
  0
ARC
  5
40E
330
A
100
AcDbEntity
  8
04
100
AcDbCircle
 10
383.8211852354595
 20
497.8919367294484
 30
0.0
 40
0.5
100
AcDbArc
 50
0.0000000000002398
 51
90.0
  0
LINE
  5
40F
330
A
100
AcDbEntity
  8
04
100
AcDbLine
 10
383.8211852354595
 20
486.3919367294483
 30
0.0
 11
374.3211852354596
 21
486.3919367294483
 31
0.0
  0
LINE
  5
410
330
A
100
AcDbEntity
  8
04
100
AcDbLine
 10
362.3211852354596
 20
486.3919367294483
 30
0.0
 11
352.8211852354596
 21
486.3919367294483
 31
0.0
  0
ARC
  5
411
330
A
100
AcDbEntity
  8
04
100
AcDbCircle
 10
383.8211852354595
 20
486.8919367294486
 30
0.0
 40
0.5
100
AcDbArc
 50
270.0
 51
359.9999999999993
  0
ARC
  5
412
330
A
100
AcDbEntity
  8
04
100
AcDbCircle
 10
352.8211852354596
 20
486.8919367294486
 30
0.0
 40
0.5
100
AcDbArc
 50
180.0
 51
270.0
  0
LINE
  5
413
330
A
100
AcDbEntity
  8
04
100
AcDbLine
 10
353.8211852354596
 20
487.8919367294484
 30
0.0
 11
353.8211852354594
 21
496.8919367294486
 31
0.0
  0
LINE
  5
414
330
A
100
AcDbEntity
  8
04
100
AcDbLine
 10
353.8211852354594
 20
496.8919367294486
 30
0.0
 11
363.3211852354595
 21
496.8919367294486
 31
0.0
  0
LINE
  5
415
330
A
100
AcDbEntity
  8
04
100
AcDbLine
 10
373.3211852354595
 20
496.8919367294486
 30
0.0
 11
382.8211852354596
 21
496.8919367294484
 31
0.0
  0
LINE
  5
416
330
A
100
AcDbEntity
  8
04
100
AcDbLine
 10
382.8211852354596
 20
496.8919367294484
 30
0.0
 11
382.8211852354596
 21
487.8919367294484
 31
0.0
  0
LINE
  5
417
330
A
100
AcDbEntity
  8
04
100
AcDbLine
 10
382.8211852354596
 20
487.8919367294484
 30
0.0
 11
374.3211852354596
 21
487.8919367294484
 31
0.0
  0
LINE
  5
418
330
A
100
AcDbEntity
  8
04
100
AcDbLine
 10
362.3211852354596
 20
487.8919367294484
 30
0.0
 11
353.8211852354596
 21
487.8919367294484
 31
0.0
  0
LINE
  5
419
330
A
100
AcDbEntity
  8
04
100
AcDbLine
 10
362.3211852354596
 20
486.3919367294483
 30
0.0
 11
362.3211852354596
 21
487.8919367294484
 31
0.0
  0
LINE
  5
41A
330
A
100
AcDbEntity
  8
04
100
AcDbLine
 10
374.3211852354596
 20
486.3919367294483
 30
0.0
 11
374.3211852354596
 21
487.8919367294484
 31
0.0
  0
LINE
  5
41B
330
A
100
AcDbEntity
  8
04
100
AcDbLine
 10
363.3211852354595
 20
498.3919367294483
 30
0.0
 11
363.3211852354595
 21
496.8919367294486
 31
0.0
  0
LINE
  5
41C
330
A
100
AcDbEntity
  8
04
100
AcDbLine
 10
373.3211852354595
 20
496.8919367294486
 30
0.0
 11
373.3211852354595
 21
498.3919367294483
 31
0.0
  0
LINE
  5
41D
330
A
100
AcDbEntity
  8
04
100
AcDbLine
 10
352.3211852354596
 20
98.19193672944869
 30
0.0
 11
353.8211852354594
 21
98.19193672944869
 31
0.0
  0
POINT
  5
4A5
330
A
100
AcDbEntity
  8
0
  6
CONTINUOUS
 62
     5
100
AcDbPoint
 10
37.54574161481537
 20
422.0793245876928
 30
0.0
  0
LINE
  5
50B
330
A
100
AcDbEntity
  8
06
100
AcDbLine
 10
375.0711852354593
 20
494.6919367294484
 30
0.0
 11
361.5711852354595
 21
494.6919367294484
 31
0.0
  0
LINE
  5
50C
330
A
100
AcDbEntity
  8
06
100
AcDbLine
 10
361.5711852354595
 20
496.3919367294484
 30
0.0
 11
363.8211852354594
 21
496.3919367294484
 31
0.0
  0
LINE
  5
50D
330
A
100
AcDbEntity
  8
06
100
AcDbLine
 10
361.5711852354595
 20
494.6919367294484
 30
0.0
 11
361.5711852354595
 21
496.3919367294484
 31
0.0
  0
LINE
  5
50E
330
A
100
AcDbEntity
  8
06
100
AcDbLine
 10
365.8211852354595
 20
498.6419367294484
 30
0.0
 11
370.8211852354593
 21
498.6419367294484
 31
0.0
  0
LINE
  5
50F
330
A
100
AcDbEntity
  8
06
100
AcDbLine
 10
371.3211852354595
 20
498.1419367294484
 30
0.0
 11
371.3211852354592
 21
496.6419367294483
 31
0.0
  0
ARC
  5
510
330
A
100
AcDbEntity
  8
06
100
AcDbCircle
 10
370.8211852354592
 20
498.1419367294484
 30
0.0
 40
0.5
100
AcDbArc
 50
359.9999999999998
 51
90.0
  0
LINE
  5
511
330
A
100
AcDbEntity
  8
06
100
AcDbLine
 10
370.8211852354592
 20
496.1419367294483
 30
0.0
 11
365.8211852354595
 21
496.1419367294483
 31
0.0
  0
ARC
  5
512
330
A
100
AcDbEntity
  8
06
100
AcDbCircle
 10
370.8211852354592
 20
496.6419367294483
 30
0.0
 40
0.5
100
AcDbArc
 50
269.9999999999993
 51
359.9999999999998
  0
LINE
  5
513
330
A
100
AcDbEntity
  8
06
100
AcDbLine
 10
365.3211852354595
 20
496.6419367294483
 30
0.0
 11
365.3211852354595
 21
498.1419367294484
 31
0.0
  0
ARC
  5
514
330
A
100
AcDbEntity
  8
06
100
AcDbCircle
 10
365.8211852354595
 20
496.6419367294486
 30
0.0
 40
0.5
100
AcDbArc
 50
179.9999999999998
 51
269.9999999999997
  0
ARC
  5
515
330
A
100
AcDbEntity
  8
06
100
AcDbCircle
 10
365.8211852354595
 20
498.1419367294484
 30
0.0
 40
0.5
100
AcDbArc
 50
89.99999999999992
 51
179.9999999999998
  0
LINE
  5
516
330
A
100
AcDbEntity
  8
06
100
AcDbLine
 10
372.8211852354593
 20
496.3919367294484
 30
0.0
 11
375.0711852354593
 21
496.3919367294484
 31
0.0
  0
LINE
  5
517
330
A
100
AcDbEntity
  8
06
100
AcDbLine
 10
375.0711852354593
 20
496.3919367294484
 30
0.0
 11
375.0711852354593
 21
494.6919367294484
 31
0.0
  0
LINE
  5
518
330
A
100
AcDbEntity
  8
06
100
AcDbLine
 10
372.8211852354593
 20
498.3919367294483
 30
0.0
 11
372.8211852354593
 21
496.3919367294484
 31
0.0
  0
LINE
  5
519
330
A
100
AcDbEntity
  8
06
100
AcDbLine
 10
376.3211852354594
 20
498.3919367294483
 30
0.0
 11
372.8211852354593
 21
498.3919367294483
 31
0.0
  0
LINE
  5
51A
330
A
100
AcDbEntity
  8
06
100
AcDbLine
 10
376.3211852354594
 20
499.8919367294483
 30
0.0
 11
376.3211852354594
 21
498.3919367294483
 31
0.0
  0
ARC
  5
51B
330
A
100
AcDbEntity
  8
06
100
AcDbCircle
 10
375.8211852354595
 20
499.8919367294483
 30
0.0
 40
0.5
100
AcDbArc
 50
359.9999999999998
 51
89.99999999999992
  0
LINE
  5
51C
330
A
100
AcDbEntity
  8
06
100
AcDbLine
 10
363.8211852354594
 20
498.3919367294483
 30
0.0
 11
360.3211852354593
 21
498.3919367294483
 31
0.0
  0
LINE
  5
51D
330
A
100
AcDbEntity
  8
06
100
AcDbLine
 10
360.3211852354593
 20
498.3919367294483
 30
0.0
 11
360.3211852354593
 21
499.8919367294483
 31
0.0
  0
ARC
  5
51E
330
A
100
AcDbEntity
  8
06
100
AcDbCircle
 10
360.8211852354595
 20
499.8919367294483
 30
0.0
 40
0.5
100
AcDbArc
 50
89.99999999999992
 51
179.9999999999998
  0
LINE
  5
520
330
A
100
AcDbEntity
  8
06
100
AcDbLine
 10
363.8211852354594
 20
498.3919367294483
 30
0.0
 11
363.8211852354594
 21
496.3919367294484
 31
0.0
  0
LINE
  5
521
330
A
100
AcDbEntity
  8
06
100
AcDbLine
 10
360.8211852354595
 20
500.3919367294484
 30
0.0
 11
365.8211852354595
 21
500.3919367294484
 31
0.0
  0
LINE
  5
522
330
A
100
AcDbEntity
  8
06
100
AcDbLine
 10
370.8211852354593
 20
500.3919367294484
 30
0.0
 11
375.8211852354595
 21
500.3919367294484
 31
0.0
  0
ARC
  5
523
330
A
100
AcDbEntity
  8
06
100
AcDbCircle
 10
368.3211852354594
 20
500.5919367294485
 30
0.0
 40
1.0
100
AcDbArc
 50
48.16853865423951
 51
131.2841474120501
  0
ARC
  5
524
330
A
100
AcDbEntity
  8
06
100
AcDbCircle
 10
370.3211852354594
 20
500.3919367294484
 30
0.0
 40
0.5
100
AcDbArc
 50
124.0357063895444
 51
359.9999999999998
  0
ARC
  5
525
330
A
100
AcDbEntity
  8
06
100
AcDbCircle
 10
366.3211852354594
 20
500.3919367294484
 30
0.0
 40
0.5
100
AcDbArc
 50
179.9999999999998
 51
68.82547375431103
  0
LINE
  5
526
330
A
100
AcDbEntity
  8
06
100
AcDbLine
 10
369.9734718798931
 20
500.7512352437242
 30
0.0
 11
373.6660283862622
 21
502.8831337366743
 31
0.0
  0
LINE
  5
527
330
A
100
AcDbEntity
  8
06
100
AcDbLine
 10
366.6114530115275
 20
500.7948651464563
 30
0.0
 11
362.9944657134198
 21
502.8831337366743
 31
0.0
  0
LINE
  5
528
330
A
100
AcDbEntity
  8
06
100
AcDbLine
 10
373.1660283862622
 20
503.7491591404586
 30
0.0
 11
368.9881269491093
 21
501.3370466210708
 31
0.0
  0
LINE
  5
529
330
A
100
AcDbEntity
  8
06
100
AcDbLine
 10
363.4944657134198
 20
503.7491591404586
 30
0.0
 11
367.6613914524093
 21
501.3433834433599
 31
0.0
  0
ARC
  5
52A
330
A
100
AcDbEntity
  8
06
100
AcDbCircle
 10
373.4160283862621
 20
503.3161464385665
 30
0.0
 40
0.5
100
AcDbArc
 50
30.0000000000046
 51
119.9999999999997
  0
ARC
  5
52B
330
A
100
AcDbEntity
  8
06
100
AcDbCircle
 10
363.2444657134198
 20
503.3161464385665
 30
0.0
 40
0.5
100
AcDbArc
 50
59.99999999999992
 51
150.0000000000035
  0
ARC
  5
52C
330
A
100
AcDbEntity
  8
06
100
AcDbCircle
 10
373.4160283862621
 20
503.3161464385665
 30
0.0
 40
0.5
100
AcDbArc
 50
299.9999999999996
 51
29.99999999999374
  0
ARC
  5
52D
330
A
100
AcDbEntity
  8
06
100
AcDbCircle
 10
363.2444657134198
 20
503.3161464385665
 30
0.0
 40
0.5
100
AcDbArc
 50
150.0000000000079
 51
239.9999999999999
  0
POLYLINE
  5
5E3
330
A
100
AcDbEntity
  8
DEFPOINTS
100
AcDb2dPolyline
 66
     1
 10
0.0
 20
0.0
 30
0.0
 70
     1
  0
VERTEX
  5
1C93
330
5E3
100
AcDbEntity
  8
DEFPOINTS
100
AcDbVertex
100
AcDb2dVertex
 10
0.0
 20
0.0
 30
0.0
  0
VERTEX
  5
1C94
330
5E3
100
AcDbEntity
  8
DEFPOINTS
100
AcDbVertex
100
AcDb2dVertex
 10
420.0
 20
0.0
 30
0.0
  0
VERTEX
  5
1C95
330
5E3
100
AcDbEntity
  8
DEFPOINTS
100
AcDbVertex
100
AcDb2dVertex
 10
420.0
 20
594.0
 30
0.0
  0
VERTEX
  5
1C96
330
5E3
100
AcDbEntity
  8
DEFPOINTS
100
AcDbVertex
100
AcDb2dVertex
 10
0.0
 20
594.0
 30
0.0
  0
SEQEND
  5
1C97
330
5E3
100
AcDbEntity
  8
DEFPOINTS
  0
DIMENSION
  5
61C
330
A
100
AcDbEntity
  8
SUNPOU
100
AcDbDimension
  2
*D1
 10
21.84574161481532
 20
417.2793245876928
 30
0.0
 11
17.34574161481526
 21
408.1902119020735
 31
0.0
 70
   160
  3
SUNPOU_2
100
AcDbAlignedDimension
 13
37.54574161481434
 23
415.2793245876926
 33
0.0
 14
37.54574161481435
 24
417.2793245876928
 34
0.0
 50
90.0
100
AcDbRotatedDimension
1001
ACAD
1000
DSTYLE
1002
{
1070
     7
1000
DOTSMALL
1070
     5
1000

1070
   173
1070
     1
1070
     6
1000
OPEN30
1002
}
  0
DIMENSION
  5
62B
330
A
100
AcDbEntity
  8
SUNPOU
100
AcDbDimension
  2
*D2
 10
21.84574161481532
 20
420.2793245876927
 30
0.0
 11
15.34574161481526
 21
418.7793245876926
 31
0.0
 70
   160
  3
SUNPOU_2
100
AcDbAlignedDimension
 13
37.54574161481435
 23
417.2793245876928
 33
0.0
 14
37.54574161481421
 24
420.2793245876927
 34
0.0
 50
90.0
100
AcDbRotatedDimension
1001
ACAD
1000
DSTYLE
1002
{
1070
     6
1000
DOTSMALL
1070
     5
1000

1070
   173
1070
     1
1070
     7
1000
OPEN30
1002
}
  0
DIMENSION
  5
63A
330
A
100
AcDbEntity
  8
SUNPOU
100
AcDbDimension
  2
*D3
 10
21.84574161481533
 20
452.2793245876926
 30
0.0
 11
17.34574161481526
 21
436.2793245876927
 31
0.0
 70
    32
  3
SUNPOU_2
100
AcDbAlignedDimension
 13
37.54574161481421
 23
420.2793245876927
 33
0.0
 14
37.54574161481603
 24
452.2793245876926
 34
0.0
 50
90.0
100
AcDbRotatedDimension
  0
DIMENSION
  5
6AD
330
A
100
AcDbEntity
  8
SUNPOU
100
AcDbDimension
  2
*D5
 10
323.1235899457296
 20
443.7793245876926
 30
0.0
 11
318.6235899457296
 21
436.27932458769
 31
0.0
 70
    32
  3
SUNPOU_2
100
AcDbAlignedDimension
 13
308.1235899457297
 23
428.7793245876871
 33
0.0
 14
308.1235899457297
 24
443.7793245876926
 34
0.0
 50
90.0
100
AcDbRotatedDimension
  0
DIMENSION
  5
6DF
330
A
100
AcDbEntity
  8
SUNPOU
100
AcDbDimension
  2
*D6
 10
283.1235899457301
 20
462.2793245876927
 30
0.0
 11
240.6235899457299
 21
457.7793245876927
 31
0.0
 70
   160
 53
180.0
  3
SUNPOU_2
100
AcDbAlignedDimension
 13
198.1235899457296
 23
449.2793245876927
 33
0.0
 14
283.1235899457301
 24
452.2793245876926
 34
0.0
100
AcDbRotatedDimension
  0
DIMENSION
  5
6EC
330
A
100
AcDbEntity
  8
SUNPOU
100
AcDbDimension
  2
*D7
 10
283.1235899457293
 20
472.2793245876927
 30
0.0
 11
160.1846657802724
 21
467.7793245876928
 31
0.0
 70
   160
  1
DH
 53
180.0
  3
SUNPOU_2
100
AcDbAlignedDimension
 13
37.54574161481537
 23
452.2793245876926
 33
0.0
 14
283.1235899457293
 24
452.2793245876982
 34
0.0
100
AcDbRotatedDimension
  0
DIMENSION
  5
702
330
A
100
AcDbEntity
  8
SUNPOU
100
AcDbDimension
  2
*D8
 10
308.1235899457297
 20
472.2793245876927
 30
0.0
 11
295.6235899457296
 21
467.7793245876928
 31
0.0
 70
   160
 53
180.0
  3
SUNPOU_2
100
AcDbAlignedDimension
 13
283.1235899457293
 23
452.2793245876982
 33
0.0
 14
308.1235899457297
 24
443.7793245876926
 34
0.0
100
AcDbRotatedDimension
  0
DIMENSION
  5
70F
330
A
100
AcDbEntity
  8
SUNPOU
100
AcDbDimension
  2
*D9
 10
291.1235899457297
 20
462.2793245876927
 30
0.0
 11
287.1235899457298
 21
457.7793245876927
 31
0.0
 70
   160
 53
180.0
  3
SUNPOU_2
100
AcDbAlignedDimension
 13
283.1235899457293
 23
452.2793245876982
 33
0.0
 14
291.1235899457297
 24
446.5838487858133
 34
0.0
100
AcDbRotatedDimension
  0
DIMENSION
  5
794
330
A
100
AcDbEntity
  8
SUNPOU
100
AcDbDimension
  2
*D10
 10
40.66074000469995
 20
204.1013886298955
 30
0.0
 11
36.16074000469992
 21
198.1013886298955
 31
0.0
 70
    32
  3
SUNPOU_2_10
100
AcDbAlignedDimension
 13
57.66496493263765
 23
192.1013886298955
 33
0.0
 14
57.66496493263765
 24
204.1013886298955
 34
0.0
 50
90.0
100
AcDbRotatedDimension
  0
DIMENSION
  5
7A3
330
A
100
AcDbEntity
  8
SUNPOU
100
AcDbDimension
  2
*D11
 10
40.66074000469995
 20
260.1013886298956
 30
0.0
 11
36.16074000469991
 21
254.1013886298955
 31
0.0
 70
    32
  3
SUNPOU_2_10
100
AcDbAlignedDimension
 13
57.66496493263765
 23
248.1013886298955
 33
0.0
 14
57.66496493263765
 24
260.1013886298956
 34
0.0
 50
90.0
100
AcDbRotatedDimension
  0
DIMENSION
  5
7CA
330
A
100
AcDbEntity
  8
SUNPOU
100
AcDbDimension
  2
*D12
 10
289.8607400046998
 20
195.4013886298955
 30
0.0
 11
285.3607400046998
 21
204.7738540153535
 31
0.0
 70
   160
  3
SUNPOU_2_10
100
AcDbAlignedDimension
 13
276.5607400046998
 23
189.4013886298955
 33
0.0
 14
276.5607400046998
 24
195.4013886298955
 34
0.0
 50
90.0
100
AcDbRotatedDimension
  0
DIMENSION
  5
7EA
330
A
100
AcDbEntity
  8
SUNPOU
100
AcDbDimension
  2
*D13
 10
304.8607400046998
 20
192.4013886298956
 30
0.0
 11
300.3607400046998
 21
186.4013886298955
 31
0.0
 70
    32
  3
SUNPOU_2_10
100
AcDbAlignedDimension
 13
274.8607400046998
 23
180.4013886298955
 33
0.0
 14
279.0607400046998
 24
192.4013886298956
 34
0.0
 50
90.0
100
AcDbRotatedDimension
  0
DIMENSION
  5
802
330
A
100
AcDbEntity
  8
SUNPOU
100
AcDbDimension
  2
*D14
 10
304.8607400046998
 20
271.8013886298956
 30
0.0
 11
300.3607400046998
 21
261.8013886298957
 31
0.0
 70
    32
  3
SUNPOU_2_10
100
AcDbAlignedDimension
 13
279.0607400046998
 23
251.8013886298955
 33
0.0
 14
274.8607400046998
 24
271.8013886298956
 34
0.0
 50
90.0
100
AcDbRotatedDimension
  0
DIMENSION
  5
80F
330
A
100
AcDbEntity
  8
SUNPOU
100
AcDbDimension
  2
*D15
 10
314.8607400046998
 20
271.8013886298956
 30
0.0
 11
310.3607400046998
 21
226.1013886298955
 31
0.0
 70
    32
  1
DW
  3
SUNPOU_2_10
100
AcDbAlignedDimension
 13
274.8607400046998
 23
180.4013886298955
 33
0.0
 14
274.8607400046998
 24
271.8013886298956
 34
0.0
 50
90.0
100
AcDbRotatedDimension
  0
LINE
  5
AD0
330
A
100
AcDbEntity
  8
CHUSIN
100
AcDbLine
 10
342.7950891635313
 20
501.6121620146872
 30
0.0
 11
392.7950891635313
 21
501.6121620146872
 31
0.0
  0
DIMENSION
  5
AD1
330
A
100
AcDbEntity
  8
SUNPOU
100
AcDbDimension
  2
*D16
 10
342.3211852354595
 20
501.6121620146872
 30
0.0
 11
337.8211852354595
 21
500.0020493720677
 31
0.0
 70
    32
  3
SUNPOU_2
100
AcDbAlignedDimension
 13
352.8211852354595
 23
498.3919367294483
 33
0.0
 14
342.7950891635313
 24
501.6121620146872
 34
0.0
 50
90.0
100
AcDbRotatedDimension
  0
DIMENSION
  5
B0A
330
A
100
AcDbEntity
  8
SUNPOU
100
AcDbDimension
  2
*D17
 10
342.3211852354596
 20
288.3919367294485
 30
0.0
 11
337.8211852354595
 21
283.0742073908522
 31
0.0
 70
   160
  3
SUNPOU_2
100
AcDbAlignedDimension
 13
352.8211852354596
 23
276.3919367294485
 33
0.0
 14
352.8211852354595
 24
288.3919367294485
 34
0.0
 50
90.0
100
AcDbRotatedDimension
1001
ACAD
1000
DSTYLE
1002
{
1070
     7
1000
DOTSMALL
1070
     5
1000

1070
   173
1070
     1
1070
     6
1000
OPEN30
1002
}
  0
DIMENSION
  5
B24
330
A
100
AcDbEntity
  8
SUNPOU
100
AcDbDimension
  2
*D18
 10
342.3211852354596
 20
305.3919367294485
 30
0.0
 11
337.8211852354595
 21
299.6002065029447
 31
0.0
 70
   160
  3
SUNPOU_2
100
AcDbAlignedDimension
 13
352.8211852354592
 23
293.3919367294483
 33
0.0
 14
352.8211852354595
 24
305.3919367294485
 34
0.0
 50
90.0
100
AcDbRotatedDimension
1001
ACAD
1000
DSTYLE
1002
{
1070
     6
1000
DOTSMALL
1070
     5
1000

1070
   173
1070
     1
1070
     7
1000
OPEN30
1070
   174
1070
     0
1070
   289
1070
     3
1070
   175
1070
     0
1070
   172
1070
     1
1002
}
  0
DIMENSION
  5
BD8
330
A
100
AcDbEntity
  8
SUNPOU
100
AcDbDimension
  2
*D19
 10
342.3211852354595
 20
106.3919367294485
 30
0.0
 11
337.8211852354595
 21
100.3919367294485
 31
0.0
 70
    32
  3
SUNPOU_2
100
AcDbAlignedDimension
 13
353.5711852354594
 23
94.39193672944865
 33
0.0
 14
352.8211852354595
 24
106.3919367294485
 34
0.0
 50
90.0
100
AcDbRotatedDimension
  0
DIMENSION
  5
BE9
330
A
100
AcDbEntity
  8
SUNPOU
100
AcDbDimension
  2
*D20
 10
349.0711852354596
 20
74.39193672944863
 30
0.0
 11
339.9266836361943
 21
69.8919367294486
 31
0.0
 70
   160
 53
180.0
  3
SUNPOU_2
100
AcDbAlignedDimension
 13
347.0711852354596
 23
96.29193672944857
 33
0.0
 14
349.0711852354596
 24
96.04193672944873
 34
0.0
100
AcDbRotatedDimension
1001
ACAD
1000
DSTYLE
1002
{
1070
     7
1000
DOTSMALL
1070
     5
1000

1070
   173
1070
     1
1070
     6
1000
OPEN30
1002
}
  0
DIMENSION
  5
C03
330
A
100
AcDbEntity
  8
SUNPOU
100
AcDbDimension
  2
*D21
 10
352.0711852354593
 20
74.39193672944863
 30
0.0
 11
350.5711852354595
 21
69.8919367294486
 31
0.0
 70
   160
 53
180.0
  3
SUNPOU_2
100
AcDbAlignedDimension
 13
349.0711852354596
 23
96.04193672944873
 33
0.0
 14
352.0711852354593
 24
94.39193672944876
 34
0.0
100
AcDbRotatedDimension
1001
ACAD
1000
DSTYLE
1002
{
1070
     6
1000
DOTSMALL
1070
     5
1000

1070
   173
1070
     1
1070
     7
1000
OPEN30
1002
}
  0
DIMENSION
  5
C12
330
A
100
AcDbEntity
  8
SUNPOU
100
AcDbDimension
  2
*D22
 10
384.3211852354596
 20
74.39193672944863
 30
0.0
 11
368.3211852354596
 21
69.8919367294486
 31
0.0
 70
   160
 53
180.0
  3
SUNPOU_2
100
AcDbAlignedDimension
 13
352.3211852354596
 23
98.19193672944869
 33
0.0
 14
384.3211852354596
 24
94.89193672944859
 34
0.0
100
AcDbRotatedDimension
  0
DIMENSION
  5
D41
330
A
100
AcDbEntity
  8
SUNPOU
100
AcDbDimension
  2
*D23
 10
398.8211852354595
 20
288.3919367294483
 30
0.0
 11
394.3211852354597
 21
191.3919367294483
 31
0.0
 70
    32
  1
DW
  3
SUNPOU_2
100
AcDbAlignedDimension
 13
383.8211852354595
 23
94.39193672944858
 33
0.0
 14
383.8211852354595
 24
288.3919367294485
 34
0.0
 50
90.0
100
AcDbRotatedDimension
  0
DIMENSION
  5
D57
330
A
100
AcDbEntity
  8
SUNPOU
100
AcDbDimension
  2
*D24
 10
398.8211852354595
 20
293.3919367294483
 30
0.0
 11
403.3211852354596
 21
290.8919367294486
 31
0.0
 70
   160
  3
SUNPOU_2
100
AcDbAlignedDimension
 13
383.8211852354595
 23
288.3919367294485
 33
0.0
 14
383.8211852354595
 24
293.3919367294486
 34
0.0
 50
90.0
100
AcDbRotatedDimension
  0
DIMENSION
  5
E68
330
A
100
AcDbEntity
  8
SUNPOU
100
AcDbDimension
  2
*D25
 10
353.8211852354594
 20
129.8919367294484
 30
0.0
 11
342.8542346766163
 21
125.3919367294484
 31
0.0
 70
   160
 53
180.0
  3
SUNPOU_2
100
AcDbAlignedDimension
 13
352.3211852354595
 23
105.8919367294484
 33
0.0
 14
353.8211852354594
 24
106.3919367294484
 34
0.0
100
AcDbRotatedDimension
  0
DIMENSION
  5
E77
330
A
100
AcDbEntity
  8
SUNPOU
100
AcDbDimension
  2
*D26
 10
382.8211852354595
 20
129.8919367294484
 30
0.0
 11
358.802888516489
 21
125.3919367294484
 31
0.0
 70
   160
 53
180.0
  3
SUNPOU_2
100
AcDbAlignedDimension
 13
353.8211852354594
 23
106.3919367294484
 33
0.0
 14
382.8211852354595
 24
119.8919367294484
 34
0.0
100
AcDbRotatedDimension
  0
DIMENSION
  5
E84
330
A
100
AcDbEntity
  8
SUNPOU
100
AcDbDimension
  2
*D27
 10
384.3211852354596
 20
129.8919367294484
 30
0.0
 11
393.514666092266
 21
125.3919367294484
 31
0.0
 70
   160
 53
180.0
  3
SUNPOU_2
100
AcDbAlignedDimension
 13
382.8211852354595
 23
129.8919367294484
 33
0.0
 14
384.3211852354596
 24
105.8919367294484
 34
0.0
100
AcDbRotatedDimension
  0
LINE
  5
F5B
330
A
100
AcDbEntity
  8
SAISEN
100
AcDbLine
 10
141.8566812922538
 20
101.1003368059289
 30
0.0
 11
191.8566812922538
 21
101.1003368059289
 31
0.0
  0
LINE
  5
F60
330
A
100
AcDbEntity
  8
SAISEN
100
AcDbLine
 10
171.8566812922538
 20
61.10033680592898
 30
0.0
 11
171.8566812922538
 21
165.4013886298955
 31
0.0
  0
LINE
  5
F61
330
A
100
AcDbEntity
  8
SAISEN
100
AcDbLine
 10
161.8566812922538
 20
61.10033680592898
 30
0.0
 11
161.8566812922538
 21
165.4013886298955
 31
0.0
  0
LINE
  5
F62
330
A
100
AcDbEntity
  8
SAISEN
100
AcDbLine
 10
151.8566812922538
 20
165.4013886298955
 30
0.0
 11
151.8566812922538
 21
61.10033680592898
 31
0.0
  0
MTEXT
  5
F65
330
A
100
AcDbEntity
  8
MOJI
100
AcDbMText
 10
146.8566812922538
 20
81.10033680592897
 30
0.0
 40
6.0
 41
40.0
 71
     5
 72
     1
  1
ガラス厚mm
  7
0_8
 11
0.0000000000000001
 21
1.0
 31
0.0
1001
ACAD
1000
MTEXTBEGIN
1070
    73
1070
     1
1070
    44
1040
1.0
1070
    74
1070
     0
1000
MTEXTEND
1000
MTEXTBEGIN
1070
    73
1070
     1
1070
    44
1040
1.0
1070
    74
1070
     0
1000
MTEXTEND
  0
MTEXT
  5
F67
330
A
100
AcDbEntity
  8
MOJI
100
AcDbMText
 10
156.8566812922538
 20
81.10033680592897
 30
0.0
 40
6.0
 41
40.0
 71
     5
 72
     1
  1
6
  7
0_8
 11
0.0000000000000001
 21
1.0
 31
0.0
1001
ACAD
1000
MTEXTBEGIN
1070
    73
1070
     1
1070
    44
1040
1.0
1070
    74
1070
     0
1000
MTEXTEND
1000
MTEXTBEGIN
1070
    73
1070
     1
1070
    44
1040
1.0
1070
    74
1070
     0
1000
MTEXTEND
  0
MTEXT
  5
F68
330
A
100
AcDbEntity
  8
MOJI
100
AcDbMText
 10
166.8566812922538
 20
81.10033680592897
 30
0.0
 40
6.0
 41
40.0
 71
     5
 72
     1
  1
8
  7
0_8
 11
0.0000000000000001
 21
1.0
 31
0.0
1001
ACAD
1000
MTEXTBEGIN
1070
    73
1070
     1
1070
    44
1040
1.0
1070
    74
1070
     0
1000
MTEXTEND
1000
MTEXTBEGIN
1070
    73
1070
     1
1070
    44
1040
1.0
1070
    74
1070
     0
1000
MTEXTEND
  0
MTEXT
  5
F69
330
A
100
AcDbEntity
  8
MOJI
100
AcDbMText
 10
176.8566812922538
 20
81.10033680592897
 30
0.0
 40
6.0
 41
40.0
 71
     5
 72
     1
  1
10
  7
0_8
 11
0.0000000000000001
 21
1.0
 31
0.0
1001
ACAD
1000
MTEXTBEGIN
1070
    73
1070
     1
1070
    44
1040
1.0
1070
    74
1070
     0
1000
MTEXTEND
1000
MTEXTBEGIN
1070
    73
1070
     1
1070
    44
1040
1.0
1070
    74
1070
     0
1000
MTEXTEND
  0
LINE
  5
F6A
330
A
100
AcDbEntity
  8
SAISEN
100
AcDbLine
 10
181.8566812922538
 20
61.10033680592898
 30
0.0
 11
181.8566812922538
 21
165.4013886298955
 31
0.0
  0
MTEXT
  5
F6C
330
A
100
AcDbEntity
  8
MOJI
100
AcDbMText
 10
186.8566812922536
 20
81.10033680592897
 30
0.0
 40
6.0
 41
40.0
 71
     5
 72
     1
  1
12
  7
0_8
 11
0.0000000000000001
 21
1.0
 31
0.0
1001
ACAD
1000
MTEXTBEGIN
1070
    73
1070
     1
1070
    44
1040
1.0
1070
    74
1070
     0
1000
MTEXTEND
1000
MTEXTBEGIN
1070
    73
1070
     1
1070
    44
1040
1.0
1070
    74
1070
     0
1000
MTEXTEND
  0
MTEXT
  5
F6E
330
A
100
AcDbEntity
  8
MOJI
100
AcDbMText
 10
156.8566812922538
 20
133.2508627179123
 30
0.0
 40
6.0
 41
64.30105182396665
 71
     5
 72
     1
  1
 914×2134
  7
0_8
 11
0.0000000000000001
 21
1.0
 31
0.0
1001
ACAD
1000
MTEXTBEGIN
1070
    73
1070
     1
1070
    44
1040
1.0
1070
    74
1070
     0
1000
MTEXTEND
1000
MTEXTBEGIN
1070
    73
1070
     1
1070
    44
1040
1.0
1070
    74
1070
     0
1000
MTEXTEND
  0
MTEXT
  5
F6F
330
A
100
AcDbEntity
  8
MOJI
100
AcDbMText
 10
166.8566812922538
 20
133.2508627179123
 30
0.0
 40
6.0
 41
64.30105182396665
 71
     5
 72
     1
  1
1300×2500
  7
0_8
 11
0.0000000000000001
 21
1.0
 31
0.0
1001
ACAD
1000
MTEXTBEGIN
1070
    73
1070
     1
1070
    44
1040
1.0
1070
    74
1070
     0
1000
MTEXTEND
1000
MTEXTBEGIN
1070
    73
1070
     1
1070
    44
1040
1.0
1070
    74
1070
     0
1000
MTEXTEND
  0
MTEXT
  5
F70
330
A
100
AcDbEntity
  8
MOJI
100
AcDbMText
 10
176.8566812922538
 20
133.2508627179123
 30
0.0
 40
6.0
 41
64.30105182396665
 71
     5
 72
     1
  1
1600×3000
  7
0_8
 11
0.0000000000000001
 21
1.0
 31
0.0
1001
ACAD
1000
MTEXTBEGIN
1070
    73
1070
     1
1070
    44
1040
1.0
1070
    74
1070
     0
1000
MTEXTEND
1000
MTEXTBEGIN
1070
    73
1070
     1
1070
    44
1040
1.0
1070
    74
1070
     0
1000
MTEXTEND
  0
MTEXT
  5
F71
330
A
100
AcDbEntity
  8
MOJI
100
AcDbMText
 10
186.8566812922536
 20
133.2508627179123
 30
0.0
 40
6.0
 41
64.30105182396665
 71
     5
 72
     1
  1
1600×3000
  7
0_8
 11
0.0000000000000001
 21
1.0
 31
0.0
1001
ACAD
1000
MTEXTBEGIN
1070
    73
1070
     1
1070
    44
1040
1.0
1070
    74
1070
     0
1000
MTEXTEND
1000
MTEXTBEGIN
1070
    73
1070
     1
1070
    44
1040
1.0
1070
    74
1070
     0
1000
MTEXTEND
  0
MTEXT
  5
F73
330
A
100
AcDbEntity
  8
MOJI
100
AcDbMText
 10
146.8566812922538
 20
133.2508627179123
 30
0.0
 40
6.0
 41
64.30105182396665
 71
     5
 72
     1
  1
 DW×DH
  7
0_8
 11
0.0000000000000001
 21
1.0
 31
0.0
1001
ACAD
1000
MTEXTBEGIN
1070
    73
1070
     1
1070
    44
1040
1.0
1070
    74
1070
     0
1000
MTEXTEND
1000
MTEXTBEGIN
1070
    73
1070
     1
1070
    44
1040
1.0
1070
    74
1070
     0
1000
MTEXTEND
  0
MTEXT
  5
F75
330
A
100
AcDbEntity
  8
MOJI
100
AcDbMText
 10
136.8566812922537
 20
113.2508627179122
 30
0.0
 40
6.0
 41
104.3011
 71
     5
 72
     1
  1
最大寸法 mm
  7
0_8
 11
0.0000000000000001
 21
1.0
 31
0.0
1001
ACAD
1000
MTEXTBEGIN
1070
    73
1070
     1
1070
    44
1040
1.0
1070
    74
1070
     0
1000
MTEXTEND
1000
MTEXTBEGIN
1070
    73
1070
     1
1070
    44
1040
1.0
1070
    74
1070
     0
1000
MTEXTEND
  0
POLYLINE
  5
F7D
330
A
100
AcDbEntity
  8
SAISEN
100
AcDb2dPolyline
 66
     1
 10
0.0
 20
0.0
 30
0.0
 70
     1
  0
VERTEX
  5
1C9C
330
F7D
100
AcDbEntity
  8
SAISEN
100
AcDbVertex
100
AcDb2dVertex
 10
20.66074000469995
 20
211.1013886298955
 30
0.0
  0
VERTEX
  5
1C9D
330
F7D
100
AcDbEntity
  8
SAISEN
100
AcDbVertex
100
AcDb2dVertex
 10
30.66074000469995
 20
211.1013886298955
 30
0.0
  0
VERTEX
  5
1C9E
330
F7D
100
AcDbEntity
  8
SAISEN
100
AcDbVertex
100
AcDb2dVertex
 10
30.66074000469995
 20
241.1013886298956
 30
0.0
  0
VERTEX
  5
1C9F
330
F7D
100
AcDbEntity
  8
SAISEN
100
AcDbVertex
100
AcDb2dVertex
 10
20.66074000469995
 20
241.1013886298956
 30
0.0
  0
SEQEND
  5
1CA0
330
F7D
100
AcDbEntity
  8
SAISEN
  0
MTEXT
  5
F7E
330
A
100
AcDbEntity
  8
MOJI
100
AcDbMText
 10
25.66074000469995
 20
226.1013886298955
 30
0.0
 40
6.0
 41
30.0
 71
     5
 72
     1
  1
姿　図
  7
0_8
 11
0.0000000000000001
 21
1.0
 31
0.0
1001
ACAD
1000
MTEXTBEGIN
1070
    73
1070
     1
1070
    44
1040
1.0
1070
    74
1070
     0
1000
MTEXTEND
1000
MTEXTBEGIN
1070
    73
1070
     1
1070
    44
1040
1.0
1070
    74
1070
     0
1000
MTEXTEND
  0
POLYLINE
  5
F88
330
A
100
AcDbEntity
  8
SAISEN
100
AcDb2dPolyline
 66
     1
 10
0.0
 20
0.0
 30
0.0
 70
     1
  0
VERTEX
  5
1CA1
330
F88
100
AcDbEntity
  8
SAISEN
100
AcDbVertex
100
AcDb2dVertex
 10
20.66074000469995
 20
355.4291051754087
 30
0.0
  0
VERTEX
  5
1CA2
330
F88
100
AcDbEntity
  8
SAISEN
100
AcDbVertex
100
AcDb2dVertex
 10
30.66074000469995
 20
355.4291051754087
 30
0.0
  0
VERTEX
  5
1CA3
330
F88
100
AcDbEntity
  8
SAISEN
100
AcDbVertex
100
AcDb2dVertex
 10
30.66074000469995
 20
395.4291051754087
 30
0.0
  0
VERTEX
  5
1CA4
330
F88
100
AcDbEntity
  8
SAISEN
100
AcDbVertex
100
AcDb2dVertex
 10
20.66074000469995
 20
395.4291051754087
 30
0.0
  0
SEQEND
  5
1CA5
330
F88
100
AcDbEntity
  8
SAISEN
  0
LEADER
  5
F95
330
A
100
AcDbEntity
  8
HIKIDASI
100
AcDbLeader
  3
SUNPOU_2
 73
     0
 74
     0
 75
     1
 40
5.0
 41
28.8
 76
     3
 10
358.2647212411221
 20
501.6121620146872
 30
0.0
 10
345.9026311191253
 20
518.7710978546836
 30
0.0
 10
345.9026311191253
 20
523.7710978546836
 30
0.0
340
F96
211
0.0000000000000001
221
1.0
231
0.0
1001
ACAD
1000
DSTYLE
1002
{
1070
     5
1000
OPEN30
1070
    77
1070
     1
1070
   147
1040
1.0
1070
   342
1005
5BB
1002
}
1000
LEANOF
1010
0.0
1020
0.0
1030
0.0
1000
LEANOF
1010
0.0
1020
0.0
1030
0.0
1000
LEANOF
1010
0.0
1020
0.0
1030
0.0
  0
MTEXT
  5
F96
330
A
100
AcDbEntity
  8
HIKIDASI
100
AcDbMText
 10
343.9026311191253
 20
525.7710978546835
 30
0.0
 40
5.0
 41
0.0
 71
     7
 72
     1
  1
片引き戸先部
  7
SUNPOU
 11
0.0000000000000001
 21
1.0
 31
0.0
1001
ACAD
1000
MTEXTBEGIN
1070
    73
1070
     1
1070
    44
1040
1.0
1070
    74
1070
     0
1000
MTEXTEND
1000
MTEXTBEGIN
1070
    73
1070
     1
1070
    44
1040
1.0
1070
    74
1070
     0
1000
MTEXTEND
  0
POLYLINE
  5
F9D
330
A
100
AcDbEntity
  8
SAISEN
100
AcDb2dPolyline
 66
     1
 10
0.0
 20
0.0
 30
0.0
 70
     1
  0
VERTEX
  5
1CA6
330
F9D
100
AcDbEntity
  8
SAISEN
100
AcDbVertex
100
AcDb2dVertex
 10
304.8607400046998
 20
94.39193672944865
 30
0.0
  0
VERTEX
  5
1CA7
330
F9D
100
AcDbEntity
  8
SAISEN
100
AcDbVertex
100
AcDb2dVertex
 10
314.8607400046998
 20
94.39193672944865
 30
0.0
  0
VERTEX
  5
1CA8
330
F9D
100
AcDbEntity
  8
SAISEN
100
AcDbVertex
100
AcDb2dVertex
 10
314.8607400046998
 20
134.3919367294485
 30
0.0
  0
VERTEX
  5
1CA9
330
F9D
100
AcDbEntity
  8
SAISEN
100
AcDbVertex
100
AcDb2dVertex
 10
304.8607400046998
 20
134.3919367294485
 30
0.0
  0
SEQEND
  5
1CAA
330
F9D
100
AcDbEntity
  8
SAISEN
  0
MTEXT
  5
FA2
330
A
100
AcDbEntity
  8
MOJI
100
AcDbMText
 10
309.8607400046998
 20
114.3919367294484
 30
0.0
 40
6.0
 41
40.0
 71
     5
 72
     1
  1
よこ断面図
  7
0_8
 11
0.0000000000000001
 21
1.0
 31
0.0
1001
ACAD
1000
MTEXTBEGIN
1070
    73
1070
     1
1070
    44
1040
1.0
1070
    74
1070
     0
1000
MTEXTEND
1000
MTEXTBEGIN
1070
    73
1070
     1
1070
    44
1040
1.0
1070
    74
1070
     0
1000
MTEXTEND
  0
MTEXT
  5
FA3
330
A
100
AcDbEntity
  8
MOJI
100
AcDbMText
 10
25.66074000469996
 20
375.4291051754087
 30
0.0
 40
6.0
 41
40.0
 71
     5
 72
     1
  1
たて断面図
  7
0_8
 11
0.0000000000000001
 21
1.0
 31
0.0
1001
ACAD
1000
MTEXTBEGIN
1070
    73
1070
     1
1070
    44
1040
1.0
1070
    74
1070
     0
1000
MTEXTEND
1000
MTEXTBEGIN
1070
    73
1070
     1
1070
    44
1040
1.0
1070
    74
1070
     0
1000
MTEXTEND
  0
LINE
  5
FA6
330
A
100
AcDbEntity
  8
SAISEN
100
AcDbLine
 10
181.8566812922538
 20
501.3084354721543
 30
0.0
 11
181.8566812922538
 21
565.6094872961212
 31
0.0
  0
MTEXT
  5
FAA
330
A
100
AcDbEntity
  8
MOJI
100
AcDbMText
 10
176.8566812922538
 20
533.4589613841376
 30
0.0
 40
5.0
 41
64.30105182396665
 71
     5
 72
     1
  1
フレーム仕上（SUS304）
  7
0_8
 11
0.0000000000000001
 21
1.0
 31
0.0
1001
ACAD
1000
MTEXTBEGIN
1070
    73
1070
     1
1070
    44
1040
1.0
1070
    74
1070
     0
1000
MTEXTEND
1000
MTEXTBEGIN
1070
    73
1070
     1
1070
    44
1040
1.0
1070
    74
1070
     0
1000
MTEXTEND
  0
MTEXT
  5
FAB
330
A
100
AcDbEntity
  8
MOJI
100
AcDbMText
 10
186.8566812922536
 20
533.4589613841376
 30
0.0
 40
6.0
 41
64.30105182396665
 71
     5
 72
     1
  1
HL･鏡面･カラー
  7
0_8
 11
0.0000000000000001
 21
1.0
 31
0.0
1001
ACAD
1000
MTEXTBEGIN
1070
    73
1070
     1
1070
    44
1040
1.0
1070
    74
1070
     0
1000
MTEXTEND
1000
MTEXTBEGIN
1070
    73
1070
     1
1070
    44
1040
1.0
1070
    74
1070
     0
1000
MTEXTEND
  0
DIMENSION
  5
FD1
330
A
100
AcDbEntity
  8
SUNPOU
100
AcDbDimension
  2
*D28
 10
121.0089537054428
 20
181.6013886298955
 30
0.0
 11
116.5089537054426
 21
171.886606029049
 31
0.0
 70
   160
  3
SUNPOU_2_10
100
AcDbAlignedDimension
 13
121.0089537054428
 23
180.4013886298955
 33
0.0
 14
121.0089537054428
 24
181.6013886298955
 34
0.0
 50
90.0
100
AcDbRotatedDimension
  0
DIMENSION
  5
1001
330
A
100
AcDbEntity
  8
SUNPOU
100
AcDbDimension
  2
*D29
 10
121.0089537054428
 20
271.8013886298956
 30
0.0
 11
116.5089537054426
 21
281.1089378613003
 31
0.0
 70
   160
  3
SUNPOU_2_10
100
AcDbAlignedDimension
 13
121.0089537054428
 23
270.6013886298956
 33
0.0
 14
121.0089537054428
 24
271.8013886298956
 34
0.0
 50
90.0
100
AcDbRotatedDimension
  0
DIMENSION
  5
1032
330
A
100
AcDbEntity
  8
SUNPOU
100
AcDbDimension
  2
*D30
 10
69.16074000469996
 20
291.8013886298957
 30
0.0
 11
64.91074000469996
 21
287.3013886298956
 31
0.0
 70
   160
 53
180.0
  3
SUNPOU_2_10
100
AcDbAlignedDimension
 13
60.66074000469996
 23
271.8013886298956
 33
0.0
 14
69.16074000469996
 24
270.6013886298956
 34
0.0
100
AcDbRotatedDimension
  0
DIMENSION
  5
104C
330
A
100
AcDbEntity
  8
SUNPOU
100
AcDbDimension
  2
*D31
 10
274.0607400046998
 20
291.8013886298957
 30
0.0
 11
269.8607400046999
 21
287.3013886298956
 31
0.0
 70
   160
 53
180.0
  3
SUNPOU_2_10
100
AcDbAlignedDimension
 13
265.6607400046999
 23
270.6013886298956
 33
0.0
 14
274.0607400046998
 24
271.8013886298956
 34
0.0
100
AcDbRotatedDimension
  0
DIMENSION
  5
105C
330
A
100
AcDbEntity
  8
SUNPOU
100
AcDbDimension
  2
*D32
 10
274.0607400046998
 20
301.8013886298956
 30
0.0
 11
167.3607400046998
 21
297.3013886298957
 31
0.0
 70
   160
  1
DH
 53
180.0
  3
SUNPOU_2_10
100
AcDbAlignedDimension
 13
60.66074000469996
 23
271.8013886298956
 33
0.0
 14
274.0607400046998
 24
271.8013886298956
 34
0.0
100
AcDbRotatedDimension
  0
DIMENSION
  5
1069
330
A
100
AcDbEntity
  8
SUNPOU
100
AcDbDimension
  2
*D33
 10
274.8607400046998
 20
301.8013886298956
 30
0.0
 11
282.3489562230171
 21
297.3013886298957
 31
0.0
 70
   160
 53
180.0
  3
SUNPOU_2_10
100
AcDbAlignedDimension
 13
274.0607400046998
 23
271.8013886298956
 33
0.0
 14
274.8607400046998
 24
271.8013886298956
 34
0.0
100
AcDbRotatedDimension
  0
TEXT
  5
131B
330
A
100
AcDbEntity
  8
MOJI
100
AcDbText
 10
216.3990855089779
 20
192.8345482600106
 30
0.0
 40
6.0
  1
強化ガラス
 50
90.0
 41
0.8
  7
0_8
 11
216.3990855089779
 21
192.8345482600106
 31
0.0
100
AcDbText
 73
     1
  0
TEXT
  5
131C
330
A
100
AcDbEntity
  8
MOJI
100
AcDbText
 10
225.2657521756439
 20
192.2506485888208
 30
0.0
 40
6.0
  1
6mm,8mm,10mm,12mm
 50
90.0
 41
0.8
  7
0_8
 11
225.2657521756439
 21
192.2506485888208
 31
0.0
100
AcDbText
 73
     1
  0
DIMENSION
  5
1398
330
A
100
AcDbEntity
  8
SUNPOU
100
AcDbDimension
  2
*D34
 10
289.8607400046998
 20
271.8013886298956
 30
0.0
 11
285.3607400046998
 21
267.730494112553
 31
0.0
 70
   160
  3
SUNPOU_2_10
100
AcDbAlignedDimension
 13
279.0607400046998
 23
263.3013886298956
 33
0.0
 14
274.8607400046998
 24
271.8013886298956
 34
0.0
 50
90.0
100
AcDbRotatedDimension
1001
ACAD
1000
DSTYLE
1002
{
1070
     6
1000
DOTSMALL
1070
     5
1000

1070
   173
1070
     1
1070
     7
1000
DOTSMALL
1002
}
  0
DIMENSION
  5
13A7
330
A
100
AcDbEntity
  8
SUNPOU
100
AcDbDimension
  2
*D35
 10
289.8607400046998
 20
254.8013886298956
 30
0.0
 11
285.3607400046998
 21
244.7981568250086
 31
0.0
 70
   160
  3
SUNPOU_2_10
100
AcDbAlignedDimension
 13
276.5607400046998
 23
248.8013886298956
 33
0.0
 14
276.5607400046998
 24
254.8013886298956
 34
0.0
 50
90.0
100
AcDbRotatedDimension
1001
ACAD
1000
DSTYLE
1002
{
1070
     6
1000
DOTSMALL
1070
     5
1000

1070
   173
1070
     1
1070
     7
1000
DOTSMALL
1002
}
  0
POLYLINE
  5
1429
330
A
100
AcDbEntity
  8
SAISEN
100
AcDb2dPolyline
 66
     1
 10
0.0
 20
0.0
 30
0.0
 70
     1
  0
VERTEX
  5
1CAB
330
1429
100
AcDbEntity
  8
SAISEN
100
AcDbVertex
100
AcDb2dVertex
 10
171.8566812922538
 20
501.3084354721542
 30
0.0
  0
VERTEX
  5
1CAC
330
1429
100
AcDbEntity
  8
SAISEN
100
AcDbVertex
100
AcDb2dVertex
 10
191.8566812922538
 20
501.3084354721542
 30
0.0
  0
VERTEX
  5
1CAD
330
1429
100
AcDbEntity
  8
SAISEN
100
AcDbVertex
100
AcDb2dVertex
 10
191.8566812922538
 20
565.6094872961212
 30
0.0
  0
VERTEX
  5
1CAE
330
1429
100
AcDbEntity
  8
SAISEN
100
AcDbVertex
100
AcDb2dVertex
 10
171.8566812922538
 20
565.6094872961212
 30
0.0
  0
SEQEND
  5
1CAF
330
1429
100
AcDbEntity
  8
SAISEN
  0
POLYLINE
  5
142A
330
A
100
AcDbEntity
  8
SAISEN
100
AcDb2dPolyline
 66
     1
 10
0.0
 20
0.0
 30
0.0
 70
     1
  0
VERTEX
  5
1CB0
330
142A
100
AcDbEntity
  8
SAISEN
100
AcDbVertex
100
AcDb2dVertex
 10
141.8566812922538
 20
61.10033680592898
 30
0.0
  0
VERTEX
  5
1CB1
330
142A
100
AcDbEntity
  8
SAISEN
100
AcDbVertex
100
AcDb2dVertex
 10
191.8566812922538
 20
61.10033680592898
 30
0.0
  0
VERTEX
  5
1CB2
330
142A
100
AcDbEntity
  8
SAISEN
100
AcDbVertex
100
AcDb2dVertex
 10
191.8566812922538
 20
165.4013886298955
 30
0.0
  0
VERTEX
  5
1CB3
330
142A
100
AcDbEntity
  8
SAISEN
100
AcDbVertex
100
AcDb2dVertex
 10
141.8566812922538
 20
165.4013886298955
 30
0.0
  0
SEQEND
  5
1CB4
330
142A
100
AcDbEntity
  8
SAISEN
  0
DIMENSION
  5
1595
330
A
100
AcDbEntity
  8
SUNPOU
100
AcDbDimension
  2
*D36
 10
143.5491782491711
 20
452.2793245876926
 30
0.0
 11
139.0491782491712
 21
436.2793245876927
 31
0.0
 70
    32
  3
SUNPOU_2
100
AcDbAlignedDimension
 13
104.7739532738459
 23
420.2793245876927
 33
0.0
 14
104.7739532738459
 24
452.2793245876926
 34
0.0
 50
90.0
100
AcDbRotatedDimension
  0
LINE
  5
16B0
330
A
100
AcDbEntity
  8
03
100
AcDbLine
 10
172.0021649328765
 20
452.279324587664
 30
0.0
 11
37.54574161480589
 21
452.2793245876925
 31
0.0
  0
LINE
  5
16B1
330
A
100
AcDbEntity
  8
04
100
AcDbLine
 10
37.54574161480746
 20
450.7793245876928
 30
0.0
 11
121.295741614809
 21
450.7793245876928
 31
0.0
  0
LINE
  5
16B3
330
A
100
AcDbEntity
  8
03
100
AcDbLine
 10
172.0021649328765
 20
420.2792801219279
 30
0.0
 11
37.54574161484363
 21
420.2793245876923
 31
0.0
  0
LINE
  5
16B4
330
A
100
AcDbEntity
  8
04
100
AcDbLine
 10
37.54574161484159
 20
421.7793245876926
 30
0.0
 11
121.2957416148402
 21
421.7793245876926
 31
0.0
  0
LINE
  5
16DD
330
A
100
AcDbEntity
  8
04
100
AcDbLine
 10
122.5457416148279
 20
432.2793245876923
 30
0.0
 11
122.54574161484
 21
423.029324587694
 31
0.0
  0
LINE
  5
16DE
330
A
100
AcDbEntity
  8
04
100
AcDbLine
 10
122.545741614809
 20
449.5293245876942
 30
0.0
 11
122.5457416148213
 21
440.2793245876927
 31
0.0
  0
LINE
  5
16E1
330
A
100
AcDbEntity
  8
02
100
AcDbLine
 10
97.54574161482135
 20
440.2793245876927
 30
0.0
 11
97.54574161482821
 21
432.2793245876927
 31
0.0
  0
LINE
  5
16E2
330
A
100
AcDbEntity
  8
02
100
AcDbLine
 10
98.04574161482179
 20
439.7793245876926
 30
0.0
 11
98.04574161482747
 21
432.7793245876927
 31
0.0
  0
ARC
  5
1702
330
A
100
AcDbEntity
  8
04
100
AcDbCircle
 10
121.2957416148092
 20
449.5293245876927
 30
0.0
 40
1.25
100
AcDbArc
 50
0.0
 51
90.00000000000083
  0
ARC
  5
1703
330
A
100
AcDbEntity
  8
04
100
AcDbCircle
 10
121.2957416148404
 20
423.0293245876926
 30
0.0
 40
1.25
100
AcDbArc
 50
270.0
 51
0.0
  0
LINE
  5
1708
330
A
100
AcDbEntity
  8
03
100
AcDbLine
 10
172.0021649328765
 20
430.279324587589
 30
0.0
 11
122.5457416148304
 21
430.2793245876896
 31
0.0
  0
LINE
  5
1709
330
A
100
AcDbEntity
  8
03
100
AcDbLine
 10
172.0021649328765
 20
442.2793245877299
 30
0.0
 11
122.5457416148188
 21
442.2793245876942
 31
0.0
  0
LINE
  5
1710
330
A
100
AcDbEntity
  8
CHUSIN
100
AcDbLine
 10
309.2030004262463
 20
436.2793245876927
 30
0.0
 11
10.98143359606031
 21
436.2793245876336
 31
0.0
  0
LINE
  5
1712
330
A
100
AcDbEntity
  8
04
100
AcDbLine
 10
94.04574161481544
 20
444.2793245876926
 30
0.0
 11
122.5457416148159
 21
444.2793245877306
 31
0.0
  0
LINE
  5
1714
330
A
100
AcDbEntity
  8
04
100
AcDbLine
 10
94.04574161483408
 20
428.2793245876923
 30
0.0
 11
122.5457416148333
 21
428.2793245877297
 31
0.0
  0
LINE
  5
1716
330
A
100
AcDbEntity
  8
04
100
AcDbLine
 10
94.04574161481544
 20
444.2793245876926
 30
0.0
 11
94.04574161483408
 21
428.2793245876927
 31
0.0
  0
LINE
  5
1751
330
A
100
AcDbEntity
  8
04
100
AcDbLine
 10
199.3749370904209
 20
421.779256002113
 30
0.0
 11
283.1249370903936
 21
421.7793241806587
 31
0.0
  0
LINE
  5
1786
330
A
100
AcDbEntity
  8
04
100
AcDbLine
 10
198.1249144999076
 20
449.5292549845133
 30
0.0
 11
198.1249204019303
 21
440.2793245876927
 31
0.0
  0
LINE
  5
1787
330
A
100
AcDbEntity
  8
04
100
AcDbLine
 10
198.1249301708084
 20
432.2793245876927
 30
0.0
 11
198.1249360728309
 21
423.0292549845223
 31
0.0
  0
LINE
  5
178A
330
A
100
AcDbEntity
  8
03
100
AcDbLine
 10
283.1249358691673
 20
425.2293245876581
 30
0.0
 11
283.1249383113836
 21
420.2793247188618
 31
0.0
  0
LINE
  5
178B
330
A
100
AcDbEntity
  8
03
100
AcDbLine
 10
283.1249134824151
 20
452.279324587664
 30
0.0
 11
283.1249147035233
 21
447.333848785779
 31
0.0
  0
ARC
  5
1793
330
A
100
AcDbEntity
  8
04
100
AcDbCircle
 10
199.3749360728305
 20
423.0292560021123
 30
0.0
 40
1.249999999999998
100
AcDbArc
 50
180.0000466428993
 51
270.0000466429009
  0
ARC
  5
1794
330
A
100
AcDbEntity
  8
04
100
AcDbCircle
 10
199.3749144999071
 20
449.5292560021038
 30
0.0
 40
1.249999999999998
100
AcDbArc
 50
90.00004664290097
 51
180.0000466428993
  0
LINE
  5
1797
330
A
100
AcDbEntity
  8
04
100
AcDbLine
 10
199.3749134823168
 20
450.7792560021033
 30
0.0
 11
283.1249134822887
 21
450.779324180649
 31
0.0
  0
LINE
  5
17A1
330
A
100
AcDbEntity
  8
03
100
AcDbLine
 10
198.1249204019303
 20
442.2792549846795
 30
0.0
 11
177.0021649328765
 21
442.2792377892115
 31
0.0
  0
LINE
  5
17A2
330
A
100
AcDbEntity
  8
03
100
AcDbLine
 10
198.1249301707965
 20
430.2792549843568
 30
0.0
 11
177.0021649328765
 21
430.279237788944
 31
0.0
  0
LINE
  5
17A3
330
A
100
AcDbEntity
  8
03
100
AcDbLine
 10
283.1249383113836
 20
420.2793247188618
 30
0.0
 11
177.0021649328765
 21
420.2792002502511
 31
0.0
  0
LINE
  5
17A4
330
A
100
AcDbEntity
  8
03
100
AcDbLine
 10
177.0021649328765
 20
452.279324587664
 30
0.0
 11
283.1249134824151
 21
452.279324587664
 31
0.0
  0
LINE
  5
17E8
330
A
100
AcDbEntity
  8
04
100
AcDbLine
 10
226.6249285426174
 20
428.2793245876927
 30
0.0
 11
198.1249285426168
 21
428.2793245876548
 31
0.0
  0
LINE
  5
17F1
330
A
100
AcDbEntity
  8
04
100
AcDbLine
 10
226.6249285426174
 20
428.2793245876927
 30
0.0
 11
226.6249285425988
 21
444.2793245876926
 31
0.0
  0
LINE
  5
17FC
330
A
100
AcDbEntity
  8
04
100
AcDbLine
 10
226.6249285425988
 20
444.2793245876927
 30
0.0
 11
198.1249285425994
 21
444.2793245876557
 31
0.0
  0
LINE
  5
1884
330
A
100
AcDbEntity
  8
03
100
AcDbLine
 10
283.1249134824153
 20
425.9793245876585
 30
0.0
 11
283.1249134824153
 21
446.5838487857791
 31
0.0
  0
LINE
  5
1888
330
A
100
AcDbEntity
  8
06
100
AcDbLine
 10
283.1249134824153
 20
425.2293245876583
 30
0.0
 11
290.4249134824151
 21
425.2293245876583
 31
0.0
  0
LINE
  5
1889
330
A
100
AcDbEntity
  8
06
100
AcDbLine
 10
291.1249134824151
 20
425.9793245876585
 30
0.0
 11
283.1249134824153
 21
425.9793245876585
 31
0.0
  0
LINE
  5
1892
330
A
100
AcDbEntity
  8
06
100
AcDbLine
 10
291.1249134824151
 20
425.9793245876585
 30
0.0
 11
291.1249134824151
 21
425.9293245876588
 31
0.0
  0
ARC
  5
1893
330
A
100
AcDbEntity
  8
06
100
AcDbCircle
 10
290.4249134824151
 20
425.9293245876584
 30
0.0
 40
0.7
100
AcDbArc
 50
270.0
 51
0.0000000000455964
  0
LINE
  5
1896
330
A
100
AcDbEntity
  8
06
100
AcDbLine
 10
283.1249134824153
 20
447.3338487857787
 30
0.0
 11
290.4249134824159
 21
447.3338487857792
 31
0.0
  0
LINE
  5
1897
330
A
100
AcDbEntity
  8
06
100
AcDbLine
 10
291.1249134824153
 20
446.5838487857792
 30
0.0
 11
283.1249134824153
 21
446.5838487857792
 31
0.0
  0
LINE
  5
18A0
330
A
100
AcDbEntity
  8
06
100
AcDbLine
 10
291.124913482416
 20
446.633848785779
 30
0.0
 11
291.1249134824153
 21
446.5838487857791
 31
0.0
  0
ARC
  5
18A1
330
A
100
AcDbEntity
  8
06
100
AcDbCircle
 10
290.4249134824159
 20
446.633848785779
 30
0.0
 40
0.7
100
AcDbArc
 50
359.9999999999901
 51
90.0
  0
LINE
  5
18BC
330
A
100
AcDbEntity
  8
03
100
AcDbLine
 10
283.1235899457303
 20
443.779324587687
 30
0.0
 11
308.1235899457303
 21
443.779324587687
 31
0.0
  0
LINE
  5
18BD
330
A
100
AcDbEntity
  8
03
100
AcDbLine
 10
308.1235899457303
 20
443.779324587687
 30
0.0
 11
308.1235899457303
 21
428.7793245876868
 31
0.0
  0
LINE
  5
18BE
330
A
100
AcDbEntity
  8
03
100
AcDbLine
 10
308.1235899457303
 20
428.7793245876868
 30
0.0
 11
283.1235899457303
 21
428.7793245876868
 31
0.0
  0
LINE
  5
1933
330
A
100
AcDbEntity
  8
02
100
AcDbLine
 10
222.6249220300362
 20
439.7793245876926
 30
0.0
 11
222.6249220300306
 21
432.7793245876927
 31
0.0
  0
LINE
  5
1934
330
A
100
AcDbEntity
  8
02
100
AcDbLine
 10
223.1249220300365
 20
440.2793245876927
 30
0.0
 11
223.1249220300299
 21
432.2793245876927
 31
0.0
  0
LINE
  5
1937
330
A
100
AcDbEntity
  8
03
100
AcDbLine
 10
37.54574161481421
 20
449.2793245876916
 30
0.0
 11
38.34574161481532
 21
449.2793245876916
 31
0.0
  0
CIRCLE
  5
1A1B
330
A
100
AcDbEntity
  8
SAISEN
100
AcDbCircle
 10
391.0976380784321
 20
52.54302641223159
 30
0.0
 40
5.0
  0
TEXT
  5
1A1C
330
A
100
AcDbEntity
  8
MOJI
100
AcDbText
 10
388.0488190392161
 20
48.27151320611588
 30
0.0
 40
8.0
  1
Ｓ
 41
0.8
  7
0_8
 11
388.0488190392161
 21
56.27151320611588
 31
0.0
100
AcDbText
 73
     3
  0
DIMENSION
  5
1A41
330
A
100
AcDbEntity
  8
SUNPOU
100
AcDbDimension
  2
*D37
 10
398.8211852354595
 20
376.6419367294484
 30
0.0
 11
394.3211852354597
 21
337.5169367294486
 31
0.0
 70
    32
  1
DW
  3
SUNPOU_2
100
AcDbAlignedDimension
 13
383.8211852354595
 23
293.3919367294486
 33
0.0
 14
398.8211852354595
 24
376.6419367294484
 34
0.0
 50
90.0
100
AcDbRotatedDimension
1001
ACAD
1000
DSTYLE
1002
{
1070
    41
1040
2.5
1070
    44
1040
0.0
1070
    42
1040
0.0
1070
     7
1000
NONE
1070
     5
1000

1070
   173
1070
     1
1070
     6
1000
OPEN30
1002
}
  0
MTEXT
  5
1BEE
330
A
100
AcDbEntity
  8
MOJI
100
AcDbMText
 10
309.9999999999996
 20
31.5
 30
0.0
 40
7.0
 41
50.0
 71
     5
 72
     1
  1
図番２０－４
  7
0_80
1001
ACAD
1000
MTEXTBEGIN
1070
    73
1070
     1
1070
    44
1040
1.0
1070
    74
1070
     0
1000
MTEXTEND
1000
MTEXTBEGIN
1070
    73
1070
     1
1070
    44
1040
1.0
1070
    74
1070
     0
1000
MTEXTEND
  0
LINE
  5
1BEF
330
A
100
AcDbEntity
  8
SAISEN
100
AcDbLine
 10
285.0
 20
44.0
 30
0.0
 11
285.0
 21
20.0
 31
0.0
  0
MTEXT
  5
1BF0
330
A
100
AcDbEntity
  8
MOJI
100
AcDbMText
 10
185.0
 20
32.0
 30
0.0
 40
7.0
 41
80.0
 71
     5
 72
     1
  1
スライドドア
  7
0_8
1001
ACAD
1000
MTEXTBEGIN
1070
    73
1070
     1
1070
    44
1040
1.0
1070
    74
1070
     0
1000
MTEXTEND
1000
MTEXTBEGIN
1070
    73
1070
     1
1070
    44
1040
1.0
1070
    74
1070
     0
1000
MTEXTEND
  0
LINE
  5
1BF1
330
A
100
AcDbEntity
  8
SAISEN
100
AcDbLine
 10
144.9999999999999
 20
44.0
 30
0.0
 11
144.9999999999999
 21
20.0
 31
0.0
  0
MTEXT
  5
1BF2
330
A
100
AcDbEntity
  8
MOJI
100
AcDbMText
 10
90.0
 20
32.0
 30
0.0
 40
7.0
 41
110.0
 71
     5
 72
     1
  1
スリムセナージ･ドアII型納り
  7
0_8
1001
ACAD
1000
MTEXTBEGIN
1070
    73
1070
     1
1070
    44
1040
1.0
1070
    74
1070
     0
1000
MTEXTEND
1000
MTEXTBEGIN
1070
    73
1070
     1
1070
    44
1040
1.0
1070
    74
1070
     0
1000
MTEXTEND
  0
POLYLINE
  5
1BF3
330
A
100
AcDbEntity
  8
SAISEN
100
AcDb2dPolyline
 66
     1
 10
0.0
 20
0.0
 30
0.0
 70
     1
  0
VERTEX
  5
1CB5
330
1BF3
100
AcDbEntity
  8
SAISEN
100
AcDbVertex
100
AcDb2dVertex
 10
35.0
 20
20.0
 30
0.0
  0
VERTEX
  5
1CB6
330
1BF3
100
AcDbEntity
  8
SAISEN
100
AcDbVertex
100
AcDb2dVertex
 10
385.0
 20
20.0
 30
0.0
  0
VERTEX
  5
1CB7
330
1BF3
100
AcDbEntity
  8
SAISEN
100
AcDbVertex
100
AcDb2dVertex
 10
385.0
 20
44.0
 30
0.0
  0
VERTEX
  5
1CB8
330
1BF3
100
AcDbEntity
  8
SAISEN
100
AcDbVertex
100
AcDb2dVertex
 10
35.0
 20
44.0
 30
0.0
  0
SEQEND
  5
1CB9
330
1BF3
100
AcDbEntity
  8
SAISEN
  0
MTEXT
  5
1C7E
330
A
100
AcDbEntity
  8
MOJI
100
AcDbMText
 10
359.9999999999998
 20
31.99999999999953
 30
0.0
 40
6.0
 41
49.99999999999993
 71
     5
 72
     1
  1
姿図･たて断面図\Pよこ断面図　 　
  7
0_80
1001
ACAD
1000
MTEXTBEGIN
1070
    73
1070
     1
1070
    44
1040
1.0
1070
    74
1070
     0
1000
MTEXTEND
1000
MTEXTBEGIN
1070
    73
1070
     1
1070
    44
1040
1.0
1070
    74
1070
     0
1000
MTEXTEND
  0
VIEWPORT
  5
10F0
102
{ACAD_XDICTIONARY
360
1C83
102
}
330
B
100
AcDbEntity
 67
     1
  8
0
100
AcDbViewport
 10
198.0508299538852
 20
285.1874487354476
 30
0.0
 40
1080.347564134147
 41
628.3535021666721
 68
     1
 69
     1
1001
ACAD
1000
MVIEW
1002
{
1070
    16
1010
0.0
1020
0.0
1030
0.0
1010
0.0
1020
0.0
1030
1.0
1040
0.0
1040
628.3535021666721
1040
198.0508299538852
1040
285.1874487354476
1040
50.0
1040
0.0
1040
0.0
1070
     0
1070
   100
1070
     1
1070
     1
1070
     0
1070
     0
1070
     0
1070
     0
1040
0.0
1040
0.0
1040
0.0
1040
10.0
1040
10.0
1040
10.0
1040
10.0
1070
     0
1002
{
1002
}
1002
}
  0
VIEWPORT
  5
1C0B
102
{ACAD_XDICTIONARY
360
1C85
102
}
330
B
100
AcDbEntity
 67
     1
  8
DEFPOINTS
100
AcDbViewport
 10
198.0508309076476
 20
285.1874477816851
 30
0.0
 40
396.4883172119752
 41
570.409736121624
 68
     2
 69
     2
1001
ACAD
1000
MVIEW
1002
{
1070
    16
1010
0.0
1020
0.0
1030
0.0
1010
0.0
1020
0.0
1030
1.0
1040
0.0
1040
570.409736121624
1040
210.0
1040
297.0
1040
50.0
1040
0.0
1040
0.0
1070
     0
1070
   100
1070
     1
1070
     1
1070
     0
1070
     0
1070
     0
1070
     0
1040
0.0
1040
0.0
1040
0.0
1040
1.0
1040
1.0
1040
0.0
1040
0.0
1070
     0
1002
{
1002
}
1002
}
  0
ENDSEC
  0
SECTION
  2
OBJECTS
  0
DICTIONARY
  5
19
330
0
100
AcDbDictionary
  3
ACAD_COLOR
350
5F2
  3
ACAD_GROUP
350
1A
  3
ACAD_LAYOUT
350
4B5
  3
ACAD_MATERIAL
350
5F1
  3
ACAD_MLINESTYLE
350
1B
  3
ACAD_PLOTSETTINGS
350
4B6
  3
ACADDIM
350
1078
  3
ASE_INDEX_DICTIONARY
350
1C63
1001
ACAD
1000
TREAT_AS_HARD
1070
     0
1000
TREAT_AS_HARD
1070
     0
1000
TREAT_AS_HARD
1070
     0
  0
DICTIONARY
  5
1BDF
330
2
100
AcDbDictionary
  3
ACAD_LAYERSTATES
350
1BE0
1001
ACAD
1000
TREAT_AS_HARD
1070
     1
1000
TREAT_AS_HARD
1070
     1
  0
DICTIONARY
  5
1B4C
330
A
100
AcDbDictionary
  3
ACAD_LAYOUTSELFREF
350
1C90
1001
ACAD
1000
TREAT_AS_HARD
1070
     1
1000
TREAT_AS_HARD
1070
     1
  0
DICTIONARY
  5
1B4E
330
B
100
AcDbDictionary
  3
ACAD_LAYOUTSELFREF
350
1C91
1001
ACAD
1000
TREAT_AS_HARD
1070
     1
1000
TREAT_AS_HARD
1070
     1
  0
DICTIONARY
  5
1C83
330
10F0
100
AcDbDictionary
  3
ACAD_XREC_ROUNDTRIP
350
1C84
1001
ACAD
1000
TREAT_AS_HARD
1070
     1
  0
DICTIONARY
  5
1C85
330
1C0B
100
AcDbDictionary
  3
ACAD_XREC_ROUNDTRIP
350
1C86
1001
ACAD
1000
TREAT_AS_HARD
1070
     1
  0
DICTIONARY
  5
5F2
102
{ACAD_REACTORS
330
19
102
}
330
19
100
AcDbDictionary
1001
ACAD
1000
TREAT_AS_HARD
1070
     0
1000
TREAT_AS_HARD
1070
     0
1000
TREAT_AS_HARD
1070
     0
  0
DICTIONARY
  5
1A
102
{ACAD_REACTORS
330
19
102
}
330
19
100
AcDbDictionary
  3
*A1
350
1800
1001
ACAD
1000
TREAT_AS_HARD
1070
     0
1000
TREAT_AS_HARD
1070
     0
1000
TREAT_AS_HARD
1070
     0
  0
DICTIONARY
  5
4B5
102
{ACAD_REACTORS
330
19
102
}
330
19
100
AcDbDictionary
1001
ACAD
1000
TREAT_AS_HARD
1070
     0
1000
TREAT_AS_HARD
1070
     0
1000
TREAT_AS_HARD
1070
     0
  0
DICTIONARY
  5
5F1
102
{ACAD_REACTORS
330
19
102
}
330
19
100
AcDbDictionary
1001
ACAD
1000
TREAT_AS_HARD
1070
     0
1000
TREAT_AS_HARD
1070
     0
1000
TREAT_AS_HARD
1070
     0
  0
DICTIONARY
  5
1B
102
{ACAD_REACTORS
330
19
102
}
330
19
100
AcDbDictionary
  3
STANDARD
350
1C
1001
ACAD
1000
TREAT_AS_HARD
1070
     0
1000
TREAT_AS_HARD
1070
     0
1000
TREAT_AS_HARD
1070
     0
  0
DICTIONARY
  5
4B6
102
{ACAD_REACTORS
330
19
102
}
330
19
100
AcDbDictionary
1001
ACAD
1000
TREAT_AS_HARD
1070
     0
1000
TREAT_AS_HARD
1070
     0
1000
TREAT_AS_HARD
1070
     0
  0
XRECORD
  5
1078
102
{ACAD_REACTORS
330
19
102
}
330
19
100
AcDbXrecord
 90
   990106
  3

 60
     0
 61
     0
 62
     4
 63
     4
 64
     1
 65
     0
 66
     0
 67
     3
 68
     1
 69
     0
 70
     0
 71
     0
 72
     0
 40
0.0
170
     2
340
F96
  0
DICTIONARY
  5
1C63
102
{ACAD_REACTORS
330
19
102
}
330
19
100
AcDbDictionary
  3
ASEBLOCKHIERARCHYINDEXRECORD
350
1C64
1001
DCO15
1040
1508820633.108999
1001
ACAD
1000
TREAT_AS_HARD
1070
     0
  0
DICTIONARY
  5
1BE0
102
{ACAD_REACTORS
330
1BDF
102
}
330
1BDF
100
AcDbDictionary
1001
ACAD
1000
TREAT_AS_HARD
1070
     0
1000
TREAT_AS_HARD
1070
     0
  0
XRECORD
  5
1C90
102
{ACAD_REACTORS
330
1B4C
102
}
330
1B4C
100
AcDbXrecord
340
A
  0
XRECORD
  5
1C91
102
{ACAD_REACTORS
330
1B4E
102
}
330
1B4E
100
AcDbXrecord
340
B
  0
XRECORD
  5
1C84
102
{ACAD_REACTORS
330
1C83
102
}
330
1C83
100
AcDbXrecord
102
SHADEPLOT
 70
     0
  0
XRECORD
  5
1C86
102
{ACAD_REACTORS
330
1C85
102
}
330
1C85
100
AcDbXrecord
102
SHADEPLOT
 70
     0
  0
GROUP
  5
1800
102
{ACAD_REACTORS
330
1A
102
}
330
1A
100
AcDbGroup
300

 70
     1
 71
     1
340
17E8
340
17F1
340
17FC
  0
MLINESTYLE
  5
1C
102
{ACAD_REACTORS
330
1B
102
}
330
1B
100
AcDbMlineStyle
  2
STANDARD
 70
     0
  3

 62
     0
 51
90.00000000000019
 52
90.00000000000019
 71
     2
 49
0.5
 62
   256
  6
BYLAYER
 49
-0.5
 62
   256
  6
BYLAYER
  0
XRECORD
  5
1C64
102
{ACAD_REACTORS
330
1C63
102
}
330
1C63
100
AcDbXrecord
330
1B5C
330
1B5D
330
1B67
330
1B68
330
E17
330
E18
330
192A
330
192B
330
1456
330
1457
330
18CC
330
18CD
330
18C3
330
18C4
330
1B14
330
1B15
330
DD6
330
DD7
330
DCB
330
DCC
330
DC1
330
DC2
330
DAE
330
DAF
330
DA3
330
DA4
330
D9A
330
D9B
330
AF0
330
AF1
330
1B74
330
1B75
330
1B7D
330
1B7E
330
BE0
330
BDF
330
1B88
330
1B89
330
1B93
330
1B94
330
CFF
330
D00
330
E5C
330
E5D
330
1AEC
330
1AED
330
F20
330
F21
330
F34
330
F35
330
F2B
330
F2C
330
FFC
330
FFD
330
102C
330
102D
330
10C9
330
10CA
330
10BE
330
10BF
330
10B3
330
10B4
330
10DF
330
10E0
330
1BB0
330
1BB1
330
1BB9
330
1BBA
330
159A
330
159B
330
1BCA
  0
ENDSEC
  0
EOF
