  0
SECTION
  2
HEADER
  9
$ACADVER
  1
AC1012
  9
$DWGCODEPAGE
  3
dos932
  9
$INSBASE
 10
0.0
 20
0.0
 30
0.0
  9
$EXTMIN
 10
0.0
 20
0.0
 30
0.0
  9
$EXTMAX
 10
420.0
 20
594.0
 30
0.0
  9
$LIMMIN
 10
0.0
 20
0.0
  9
$LIMMAX
 10
420.0
 20
594.0
  9
$ORTHOMODE
 70
     0
  9
$REGENMODE
 70
     1
  9
$FILLMODE
 70
     1
  9
$QTEXTMODE
 70
     0
  9
$MIRRTEXT
 70
     1
  9
$DRAGMODE
 70
     2
  9
$LTSCALE
 40
0.3
  9
$OSMODE
 70
    37
  9
$ATTMODE
 70
     1
  9
$TEXTSIZE
 40
7.0
  9
$TRACEWID
 40
0.05
  9
$TEXTSTYLE
  7
STANDARD
  9
$CLAYER
  8
DEFPOINTS
  9
$CELTYPE
  6
BYLAYER
  9
$CECOLOR
 62
   256
  9
$CELTSCALE
 40
1.0
  9
$DELOBJ
 70
     1
  9
$DISPSILH
 70
     0
  9
$DIMSCALE
 40
2.0
  9
$DIMASZ
 40
2.5
  9
$DIMEXO
 40
1.5
  9
$DIMDLI
 40
0.0
  9
$DIMRND
 40
0.0
  9
$DIMDLE
 40
0.0
  9
$DIMEXE
 40
1.0
  9
$DIMTP
 40
0.0
  9
$DIMTM
 40
0.0
  9
$DIMTXT
 40
2.5
  9
$DIMCEN
 40
0.0
  9
$DIMTSZ
 40
0.0
  9
$DIMTOL
 70
     0
  9
$DIMLIM
 70
     0
  9
$DIMTIH
 70
     0
  9
$DIMTOH
 70
     0
  9
$DIMSE1
 70
     0
  9
$DIMSE2
 70
     0
  9
$DIMTAD
 70
     1
  9
$DIMZIN
 70
     8
  9
$DIMBLK
  1
OPEN30
  9
$DIMASO
 70
     1
  9
$DIMSHO
 70
     1
  9
$DIMPOST
  1

  9
$DIMAPOST
  1

  9
$DIMALT
 70
     0
  9
$DIMALTD
 70
     2
  9
$DIMALTF
 40
25.4
  9
$DIMLFAC
 40
1.0
  9
$DIMTOFL
 70
     1
  9
$DIMTVP
 40
0.0
  9
$DIMTIX
 70
     0
  9
$DIMSOXD
 70
     0
  9
$DIMSAH
 70
     0
  9
$DIMBLK1
  1

  9
$DIMBLK2
  1

  9
$DIMSTYLE
  2
SUNPOU_2
  9
$DIMCLRD
 70
   256
  9
$DIMCLRE
 70
   256
  9
$DIMCLRT
 70
   256
  9
$DIMTFAC
 40
1.0
  9
$DIMGAP
 40
1.0
  9
$DIMJUST
 70
     0
  9
$DIMSD1
 70
     0
  9
$DIMSD2
 70
     0
  9
$DIMTOLJ
 70
     1
  9
$DIMTZIN
 70
     0
  9
$DIMALTZ
 70
     0
  9
$DIMALTTZ
 70
     0
  9
$DIMFIT
 70
     3
  9
$DIMUPT
 70
     0
  9
$DIMUNIT
 70
     2
  9
$DIMDEC
 70
     1
  9
$DIMTDEC
 70
     1
  9
$DIMALTU
 70
     2
  9
$DIMALTTD
 70
     2
  9
$DIMTXSTY
  7
SUNPOU
  9
$DIMAUNIT
 70
     0
  9
$LUNITS
 70
     2
  9
$LUPREC
 70
     4
  9
$SKETCHINC
 40
0.1
  9
$FILLETRAD
 40
0.0
  9
$AUNITS
 70
     0
  9
$AUPREC
 70
     0
  9
$MENU
  1
acad
  9
$ELEVATION
 40
0.0
  9
$PELEVATION
 40
0.0
  9
$THICKNESS
 40
0.0
  9
$LIMCHECK
 70
     0
  9
$BLIPMODE
 70
     0
  9
$CHAMFERA
 40
0.0
  9
$CHAMFERB
 40
0.0
  9
$CHAMFERC
 40
0.0
  9
$CHAMFERD
 40
0.0
  9
$SKPOLY
 70
     0
  9
$TDCREATE
 40
2444972.375000000
  9
$TDUPDATE
 40
2453266.401886204
  9
$TDINDWG
 40
0.2894574884
  9
$TDUSRTIMER
 40
0.2894574884
  9
$USRTIMER
 70
     1
  9
$ANGBASE
 50
0.0
  9
$ANGDIR
 70
     0
  9
$PDMODE
 70
     0
  9
$PDSIZE
 40
1.0
  9
$PLINEWID
 40
0.0
  9
$COORDS
 70
     1
  9
$SPLFRAME
 70
     0
  9
$SPLINETYPE
 70
     6
  9
$SPLINESEGS
 70
     8
  9
$ATTDIA
 70
     0
  9
$ATTREQ
 70
     1
  9
$HANDLING
 70
-16383
  9
$HANDSEED
  5
124E
  9
$SURFTAB1
 70
     6
  9
$SURFTAB2
 70
     6
  9
$SURFTYPE
 70
     6
  9
$SURFU
 70
     6
  9
$SURFV
 70
     6
  9
$UCSNAME
  2

  9
$UCSORG
 10
0.0
 20
0.0
 30
0.0
  9
$UCSXDIR
 10
1.0
 20
0.0
 30
0.0
  9
$UCSYDIR
 10
0.0
 20
1.0
 30
0.0
  9
$PUCSNAME
  2

  9
$PUCSORG
 10
0.0
 20
0.0
 30
0.0
  9
$PUCSXDIR
 10
1.0
 20
0.0
 30
0.0
  9
$PUCSYDIR
 10
0.0
 20
1.0
 30
0.0
  9
$USERI1
 70
     0
  9
$USERI2
 70
     0
  9
$USERI3
 70
     0
  9
$USERI4
 70
     0
  9
$USERI5
 70
     0
  9
$USERR1
 40
0.0
  9
$USERR2
 40
0.0
  9
$USERR3
 40
0.0
  9
$USERR4
 40
0.0
  9
$USERR5
 40
0.0
  9
$WORLDVIEW
 70
     1
  9
$SHADEDGE
 70
     3
  9
$SHADEDIF
 70
    70
  9
$TILEMODE
 70
     1
  9
$MAXACTVP
 70
    16
  9
$PINSBASE
 10
0.0
 20
0.0
 30
0.0
  9
$PLIMCHECK
 70
     0
  9
$PEXTMIN
 10
-0.2055473772918503
 20
-0.0174202791267817
 30
-0.0015258207003583
  9
$PEXTMAX
 10
396.3139079836237
 20
570.3923158424973
 30
0.0000000349246037
  9
$PLIMMIN
 10
-11.94191342824454
 20
-11.76600219398141
  9
$PLIMMAX
 10
408.0435733360149
 20
582.1408996648768
  9
$UNITMODE
 70
     0
  9
$VISRETAIN
 70
     0
  9
$PLINEGEN
 70
     1
  9
$PSLTSCALE
 70
     0
  9
$TREEDEPTH
 70
  3020
  9
$PICKSTYLE
 70
     1
  9
$CMLSTYLE
  2
STANDARD
  9
$CMLJUST
 70
     0
  9
$CMLSCALE
 40
1.0
  9
$SAVEIMAGES
 70
     1
  0
ENDSEC
  0
SECTION
  2
CLASSES
  0
CLASS
  1
LWPOLYLINE
  2
AcDbPolyline
  3
AutoCAD 2000
 90
    32768
280
     0
281
     1
  0
CLASS
  1
IMAGE
  2
AcDbRasterImage
  3
ISM
 90
    32895
280
     0
281
     1
  0
CLASS
  1
OLE2FRAME
  2
AcDbOle2Frame
  3
AutoCAD 2000
 90
    32768
280
     0
281
     1
  0
CLASS
  1
HATCH
  2
AcDbHatch
  3
AutoCAD 2000
 90
    32768
280
     0
281
     1
  0
CLASS
  1
DICTIONARYVAR
  2
AcDbDictionaryVar
  3
AutoCAD 2000
 90
    32768
280
     0
281
     0
  0
CLASS
  1
RASTERVARIABLES
  2
AcDbRasterVariables
  3
ISM
 90
    32768
280
     0
281
     0
  0
CLASS
  1
IMAGEDEF
  2
AcDbRasterImageDef
  3
ISM
 90
    32768
280
     0
281
     0
  0
CLASS
  1
IMAGEDEF_REACTOR
  2
AcDbRasterImageDefReactor
  3
ISM
 90
    32769
280
     0
281
     0
  0
CLASS
  1
IDBUFFER
  2
AcDbIdBuffer
  3
AutoCAD 2000
 90
    32768
280
     0
281
     0
  0
CLASS
  1
SPATIAL_FILTER
  2
AcDbSpatialFilter
  3
AutoCAD 2000
 90
    32768
280
     0
281
     0
  0
CLASS
  1
XRECORD
  2
AcDbXrecord
  3
AutoCAD 2000
 90
    32768
280
     0
281
     0
  0
CLASS
  1
SORTENTSTABLE
  2
AcDbSortentsTable
  3
AutoCAD 2000
 90
    32768
280
     0
281
     0
  0
CLASS
  1
LAYER_INDEX
  2
AcDbLayerIndex
  3
AutoCAD 2000
 90
    32768
280
     0
281
     0
  0
CLASS
  1
SPATIAL_INDEX
  2
AcDbSpatialIndex
  3
AutoCAD 2000
 90
    32768
280
     0
281
     0
  0
CLASS
  1
OBJECT_PTR
  2
CAseDLPNTableRecord
  3
ASE-LPNTableRecord
 90
    32769
280
     0
281
     0
  0
CLASS
  1
ACDBDICTIONARYWDFLT
  2
AcDbDictionaryWithDefault
  3
AutoCAD 2000
 90
    32768
280
     0
281
     0
  0
CLASS
  1
ACDBPLACEHOLDER
  2
AcDbPlaceHolder
  3
AutoCAD 2000
 90
    32768
280
     0
281
     0
  0
CLASS
  1
LAYOUT
  2
AcDbLayout
  3
AutoCAD 2000
 90
    32768
280
     0
281
     0
  0
CLASS
  1
LONG_TRANSACTION
  2
AcDbLongTransaction
  3
AutoCAD 2000
 90
    32768
280
     0
281
     0
  0
CLASS
  1
LWPOLYLINE
  2
AcDbPolyline
  3
AutoCAD 2000
 90
    32768
280
     0
281
     1
  0
CLASS
  1
HATCH
  2
AcDbHatch
  3
AutoCAD 2000
 90
    32768
280
     0
281
     1
  0
CLASS
  1
XRECORD
  2
AcDbXrecord
  3
AutoCAD 2000
 90
    32768
280
     0
281
     0
  0
CLASS
  1
LONG_TRANSACTION
  2
AcDbLongTransaction
  3
AutoCAD 2000
 90
    32768
280
     0
281
     0
  0
CLASS
  1
LWPOLYLINE
  2
AcDbPolyline
  3
AutoCAD 2000
 90
    32768
280
     0
281
     1
  0
CLASS
  1
HATCH
  2
AcDbHatch
  3
AutoCAD 2000
 90
    32768
280
     0
281
     1
  0
CLASS
  1
XRECORD
  2
AcDbXrecord
  3
AutoCAD 2000
 90
    32768
280
     0
281
     0
  0
ENDSEC
  0
SECTION
  2
TABLES
  0
TABLE
  2
VPORT
  5
7
330
0
100
AcDbSymbolTable
 70
     2
  0
VPORT
  5
120F
330
7
100
AcDbSymbolTableRecord
100
AcDbViewportTableRecord
  2
*ACTIVE
 70
     0
 10
0.0
 20
0.0
 11
1.0
 21
1.0
 12
229.3240857857836
 22
297.0000121021642
 13
0.0
 23
0.0
 14
1.0
 24
1.0
 15
0.0
 25
0.0
 16
0.0
 26
0.0
 36
1.0
 17
0.0
 27
0.0
 37
0.0
 40
601.2016258531609
 41
1.780442804428044
 42
50.0
 43
0.0
 44
0.0
 50
0.0
 51
0.0
 71
     0
 72
   100
 73
     1
 74
     1
 75
     0
 76
     0
 77
     0
 78
     0
  0
ENDTAB
  0
TABLE
  2
LTYPE
  5
4
330
0
100
AcDbSymbolTable
 70
     4
  0
LTYPE
  5
11
330
4
100
AcDbSymbolTableRecord
100
AcDbLinetypeTableRecord
  2
BYBLOCK
 70
     0
  3

 72
    65
 73
     0
 40
0.0
  0
LTYPE
  5
12
330
4
100
AcDbSymbolTableRecord
100
AcDbLinetypeTableRecord
  2
BYLAYER
 70
     0
  3

 72
    65
 73
     0
 40
0.0
  0
LTYPE
  5
13
330
4
100
AcDbSymbolTableRecord
100
AcDbLinetypeTableRecord
  2
CONTINUOUS
 70
     0
  3
Solid line
 72
    65
 73
     0
 40
0.0
  0
LTYPE
  5
433
330
4
100
AcDbSymbolTableRecord
100
AcDbLinetypeTableRecord
  2
CENTER2
 70
     0
  3
Center (.5x) ___ _ ___ _ ___ _ ___ _ ___ _ ___
 72
    65
 73
     4
 40
28.57499999999999
 49
19.05
 74
     0
 49
-3.174999999999998
 74
     0
 49
3.174999999999998
 74
     0
 49
-3.174999999999998
 74
     0
  0
LTYPE
  5
434
330
4
100
AcDbSymbolTableRecord
100
AcDbLinetypeTableRecord
  2
DASHED2
 70
     0
  3
Dashed (.5x) _ _ _ _ _ _ _ _ _ _ _ _ _ _ _ _ _
 72
    65
 73
     2
 40
9.524999999999996
 49
6.349999999999998
 74
     0
 49
-3.174999999999998
 74
     0
  0
LTYPE
  5
45D
330
4
100
AcDbSymbolTableRecord
100
AcDbLinetypeTableRecord
  2
PHANTOM2
 70
     0
  3
Phantom (.5x) ___ _ _ ___ _ _ ___ _ _ ___ _ _
 72
    65
 73
     6
 40
1.25
 49
0.625
 74
     0
 49
-0.125
 74
     0
 49
0.125
 74
     0
 49
-0.125
 74
     0
 49
0.125
 74
     0
 49
-0.125
 74
     0
  0
ENDTAB
  0
TABLE
  2
LAYER
  5
2
102
{ACAD_XDICTIONARY
360
11AD
102
}
330
0
100
AcDbSymbolTable
 70
    12
  0
LAYER
  5
14
330
2
100
AcDbSymbolTableRecord
100
AcDbLayerTableRecord
  2
0
 70
     0
 62
     7
  6
CONTINUOUS
  0
LAYER
  5
435
330
2
100
AcDbSymbolTableRecord
100
AcDbLayerTableRecord
  2
DEFPOINTS
 70
     0
 62
     7
  6
CONTINUOUS
  0
LAYER
  5
437
330
2
100
AcDbSymbolTableRecord
100
AcDbLayerTableRecord
  2
03
 70
     0
 62
     3
  6
CONTINUOUS
  0
LAYER
  5
439
330
2
100
AcDbSymbolTableRecord
100
AcDbLayerTableRecord
  2
06
 70
     0
 62
     6
  6
CONTINUOUS
  0
LAYER
  5
43A
330
2
100
AcDbSymbolTableRecord
100
AcDbLayerTableRecord
  2
CHUSIN
 70
     0
 62
     6
  6
CENTER2
  0
LAYER
  5
43B
330
2
100
AcDbSymbolTableRecord
100
AcDbLayerTableRecord
  2
HIKIDASI
 70
     0
 62
     6
  6
CONTINUOUS
  0
LAYER
  5
43C
330
2
100
AcDbSymbolTableRecord
100
AcDbLayerTableRecord
  2
KAKURE
 70
     0
 62
     6
  6
DASHED2
  0
LAYER
  5
43D
330
2
100
AcDbSymbolTableRecord
100
AcDbLayerTableRecord
  2
MOJI
 70
     0
 62
     3
  6
CONTINUOUS
  0
LAYER
  5
43E
330
2
100
AcDbSymbolTableRecord
100
AcDbLayerTableRecord
  2
SUNPOU
 70
     0
 62
     6
  6
CONTINUOUS
  0
LAYER
  5
45E
330
2
100
AcDbSymbolTableRecord
100
AcDbLayerTableRecord
  2
SOUZOU
 70
     0
 62
     6
  6
PHANTOM2
  0
LAYER
  5
D39
330
2
100
AcDbSymbolTableRecord
100
AcDbLayerTableRecord
  2
SAISEN
 70
     0
 62
     3
  6
CONTINUOUS
  0
LAYER
  5
1103
330
2
100
AcDbSymbolTableRecord
100
AcDbLayerTableRecord
  2
04
 70
     0
 62
     4
  6
CONTINUOUS
  0
ENDTAB
  0
TABLE
  2
STYLE
  5
3
330
0
100
AcDbSymbolTable
 70
     4
  0
STYLE
  5
17
330
3
100
AcDbSymbolTableRecord
100
AcDbTextStyleTableRecord
  2
STANDARD
 70
     0
 40
0.0
 41
0.9
 50
0.0
 71
     0
 42
7.0
  3
txt.shx
  4
bigfont.shx
  0
STYLE
  5
443
330
3
100
AcDbSymbolTableRecord
100
AcDbTextStyleTableRecord
  2
0_8
 70
     0
 40
0.0
 41
0.8
 50
0.0
 71
     0
 42
7.0
  3
txt.shx
  4
extfont.shx
  0
STYLE
  5
449
330
3
100
AcDbSymbolTableRecord
100
AcDbTextStyleTableRecord
  2
SUNPOU
 70
     0
 40
0.0
 41
0.8
 50
0.0
 71
     0
 42
0.2
  3
txt.shx
  4
extfont.shx
  0
STYLE
  5
11AB
330
3
100
AcDbSymbolTableRecord
100
AcDbTextStyleTableRecord
  2
0_80
 70
     0
 40
0.0
 41
0.8
 50
0.0
 71
     0
 42
7.0
  3
txt.shx
  4
extfont.shx
  0
ENDTAB
  0
TABLE
  2
VIEW
  5
5
330
0
100
AcDbSymbolTable
 70
     1
  0
VIEW
  5
136
330
5
100
AcDbSymbolTableRecord
100
AcDbViewTableRecord
  2
QQQQ
 70
     0
 40
618.7999999999998
 10
-6.0
 20
-1.0
 41
419.8999999999999
 11
0.0
 21
0.0
 31
1.0
 12
100.0
 22
100.0
 32
0.0
 42
50.0
 43
0.0
 44
0.0
 50
0.0
 71
     0
  0
ENDTAB
  0
TABLE
  2
UCS
  5
6
330
0
100
AcDbSymbolTable
 70
     0
  0
ENDTAB
  0
TABLE
  2
APPID
  5
8
330
0
100
AcDbSymbolTable
 70
     3
  0
APPID
  5
16
330
8
100
AcDbSymbolTableRecord
100
AcDbRegAppTableRecord
  2
ACAD
 70
     0
  0
APPID
  5
9BC
330
8
100
AcDbSymbolTableRecord
100
AcDbRegAppTableRecord
  2
DCO15
 70
     0
  0
APPID
  5
1147
330
8
100
AcDbSymbolTableRecord
100
AcDbRegAppTableRecord
  2
CONTENTBLOCKICON
 70
     0
  0
ENDTAB
  0
TABLE
  2
DIMSTYLE
  5
9
330
0
100
AcDbSymbolTable
 70
     3
  0
DIMSTYLE
105
454
102
{ACAD_REACTORS
330
510
330
4CA
330
4BC
330
4D8
330
4E4
330
4F2
330
4FF
330
5E6
330
5F3
330
600
330
60D
330
61A
330
627
330
644
330
651
330
66B
330
49F
330
4A8
330
4B4
102
}
330
9
100
AcDbSymbolTableRecord
100
AcDbDimStyleTableRecord
  2
SUNPOU_2
 70
     0
  3

  4

  5
OPEN30
  6

  7

 40
2.0
 41
2.5
 42
1.5
 43
0.0
 44
1.0
 45
0.0
 46
0.0
 47
0.0
 48
0.0
140
2.5
141
0.0
142
0.0
143
25.4
144
1.0
145
0.0
146
1.0
147
1.0
 71
     0
 72
     0
 73
     0
 74
     0
 75
     0
 76
     0
 77
     1
 78
     8
170
     0
171
     2
172
     1
173
     0
174
     0
175
     0
176
   256
177
   256
178
   256
270
     2
271
     1
272
     1
273
     2
274
     2
340
449
275
     0
280
     0
281
     0
282
     0
283
     1
284
     0
285
     0
286
     0
287
     3
288
     0
  0
DIMSTYLE
105
456
102
{ACAD_REACTORS
330
735
330
757
330
77C
330
76D
102
}
330
9
100
AcDbSymbolTableRecord
100
AcDbDimStyleTableRecord
  2
SUNPOU_2_20
 70
     0
  3

  4

  5
OPEN30
  6

  7

 40
2.0
 41
2.5
 42
1.5
 43
0.0
 44
1.0
 45
0.0
 46
0.0
 47
0.0
 48
0.0
140
2.5
141
0.0
142
0.0
143
25.4
144
20.0
145
0.0
146
1.0
147
1.0
 71
     0
 72
     0
 73
     0
 74
     0
 75
     0
 76
     0
 77
     1
 78
     8
170
     0
171
     2
172
     1
173
     0
174
     0
175
     0
176
   256
177
   256
178
   256
270
     2
271
     1
272
     1
273
     2
274
     2
340
449
275
     0
280
     0
281
     0
282
     0
283
     1
284
     0
285
     0
286
     0
287
     3
288
     0
  0
DIMSTYLE
105
E8D
330
9
100
AcDbSymbolTableRecord
100
AcDbDimStyleTableRecord
  2
STANDARD
 70
     0
  3

  4

  5

  6

  7

 40
1.0
 41
0.18
 42
0.0625
 43
0.38
 44
0.18
 45
0.0
 46
0.0
 47
0.0
 48
0.0
140
0.18
141
0.09
142
0.0
143
25.4
144
1.0
145
0.0
146
1.0
147
0.09
 71
     0
 72
     0
 73
     1
 74
     1
 75
     0
 76
     0
 77
     0
 78
     0
170
     0
171
     2
172
     0
173
     0
174
     0
175
     0
176
     0
177
     0
178
     0
270
     2
271
     4
272
     4
273
     2
274
     2
340
17
275
     0
280
     0
281
     0
282
     0
283
     1
284
     0
285
     0
286
     0
287
     3
288
     0
  0
ENDTAB
  0
TABLE
  2
BLOCK_RECORD
  5
1
330
0
100
AcDbSymbolTable
 70
    22
  0
BLOCK_RECORD
  5
A
102
{ACAD_XDICTIONARY
360
1143
102
}
330
1
100
AcDbSymbolTableRecord
100
AcDbBlockTableRecord
  2
*MODEL_SPACE
  0
BLOCK_RECORD
  5
B
102
{ACAD_XDICTIONARY
360
1145
102
}
330
1
100
AcDbSymbolTableRecord
100
AcDbBlockTableRecord
  2
*PAPER_SPACE
  0
BLOCK_RECORD
  5
44E
330
1
100
AcDbSymbolTableRecord
100
AcDbBlockTableRecord
  2
_OPEN30
1001
CONTENTBLOCKICON
1071
        0
1004
2800000020000000200000000100080000000000000400000000000000000000000000000000000000000000000080000080000000808000800000008000800080800000C0C0C000C0DCC000F0CAA6000020400000206000002080000020A0000020C0000020E00000400000004020000040400000406000004080000040A0
1004
000040C0000040E00000600000006020000060400000606000006080000060A0000060C0000060E00000800000008020000080400000806000008080000080A0000080C0000080E00000A0000000A0200000A0400000A0600000A0800000A0A00000A0C00000A0E00000C0000000C0200000C0400000C0600000C0800000C0
1004
A00000C0C00000C0E00000E0000000E0200000E0400000E0600000E0800000E0A00000E0C00000E0E00040000000400020004000400040006000400080004000A0004000C0004000E00040200000402020004020400040206000402080004020A0004020C0004020E000404000004040200040404000404060004040800040
1004
40A0004040C0004040E00040600000406020004060400040606000406080004060A0004060C0004060E00040800000408020004080400040806000408080004080A0004080C0004080E00040A0000040A0200040A0400040A0600040A0800040A0A00040A0C00040A0E00040C0000040C0200040C0400040C0600040C08000
1004
40C0A00040C0C00040C0E00040E0000040E0200040E0400040E0600040E0800040E0A00040E0C00040E0E00080000000800020008000400080006000800080008000A0008000C0008000E00080200000802020008020400080206000802080008020A0008020C0008020E00080400000804020008040400080406000804080
1004
008040A0008040C0008040E00080600000806020008060400080606000806080008060A0008060C0008060E00080800000808020008080400080806000808080008080A0008080C0008080E00080A0000080A0200080A0400080A0600080A0800080A0A00080A0C00080A0E00080C0000080C0200080C0400080C0600080C0
1004
800080C0A00080C0C00080C0E00080E0000080E0200080E0400080E0600080E0800080E0A00080E0C00080E0E000C0000000C0002000C0004000C0006000C0008000C000A000C000C000C000E000C0200000C0202000C0204000C0206000C0208000C020A000C020C000C020E000C0400000C0402000C0404000C0406000C0
1004
408000C040A000C040C000C040E000C0600000C0602000C0604000C0606000C0608000C060A000C060C000C060E000C0800000C0802000C0804000C0806000C0808000C080A000C080C000C080E000C0A00000C0A02000C0A04000C0A06000C0A08000C0A0A000C0A0C000C0A0E000C0C00000C0C02000C0C04000C0C06000
1004
C0C08000C0C0A000F0FBFF00A4A0A000808080000000FF0000FF000000FFFF00FF000000FF00FF00FFFF0000FFFFFF0000000000000000000000000000000000000000000000000000000000000000000000000000000000000000000000000000000000000000000000000000000000000000000000000000000000000000
1004
00000000000000000000000000000000000000000000000000000000000000000000000000000000000000000000000000000000000000000000000000000000000000000000000000000000000000000000000000000000000000000000000000000000000000000000000000000000000000000000000000000000000000
1004
000000000000000000000000000000000000000000000000000000000000000000000000000000000000000000000000000000FFFF0000000000000000000000000000000000000000000000000000000000000000FFFFFFFF0000000000000000000000000000000000000000000000000000000000000000FFFFFFFF0000
1004
000000000000000000000000000000000000000000000000000000000000FFFFFF0000000000000000000000000000000000000000000000000000000000000000FFFFFFFF0000000000000000000000000000000000000000000000000000000000000000FFFFFF0000000000000000000000000000000000000000000000
1004
000000000000000000FFFFFFFF0000000000000000000000000000000000000000000000000000000000000000FFFFFFFF00000000FFFFFFFFFFFFFFFFFFFFFFFFFFFFFFFFFFFFFFFFFFFFFFFFFFFFFFFFFFFF00000000000000000000000000000000000000000000000000FFFFFFFF000000000000000000000000000000
1004
000000000000000000FFFFFFFF000000000000000000000000000000000000000000000000FFFFFFFF000000000000000000000000000000000000000000000000FFFFFFFF000000000000000000000000000000000000000000000000FFFFFFFF000000000000000000000000000000000000000000000000FFFFFFFF0000
1004
0000000000000000000000000000000000000000000000FFFFFF0000000000000000000000000000000000000000000000000000000000000000000000000000000000000000000000000000000000000000000000000000000000000000000000000000000000000000000000000000000000000000000000000000000000
1004
00000000000000000000000000000000000000000000000000000000000000000000000000000000000000000000000000000000000000000000000000000000000000000000000000000000000000000000000000000000000000000000000000000000000000000000000000000000000000000000000000000000000000
1004
0000000000000000000000000000000000000000000000000000000000000000000000000000000000000000000000000000000000000000
  0
BLOCK_RECORD
  5
4BD
330
1
100
AcDbSymbolTableRecord
100
AcDbBlockTableRecord
  2
*D1
  0
BLOCK_RECORD
  5
4CB
330
1
100
AcDbSymbolTableRecord
100
AcDbBlockTableRecord
  2
*D2
  0
BLOCK_RECORD
  5
4D9
330
1
100
AcDbSymbolTableRecord
100
AcDbBlockTableRecord
  2
*D3
  0
BLOCK_RECORD
  5
4E5
330
1
100
AcDbSymbolTableRecord
100
AcDbBlockTableRecord
  2
*D4
  0
BLOCK_RECORD
  5
4F3
330
1
100
AcDbSymbolTableRecord
100
AcDbBlockTableRecord
  2
*D5
  0
BLOCK_RECORD
  5
500
330
1
100
AcDbSymbolTableRecord
100
AcDbBlockTableRecord
  2
*D6
  0
BLOCK_RECORD
  5
511
330
1
100
AcDbSymbolTableRecord
100
AcDbBlockTableRecord
  2
*D7
  0
BLOCK_RECORD
  5
5CE
330
1
100
AcDbSymbolTableRecord
100
AcDbBlockTableRecord
  2
_DOTSMALL
1001
CONTENTBLOCKICON
1071
        0
1004
2800000020000000200000000100080000000000000400000000000000000000000000000000000000000000000080000080000000808000800000008000800080800000C0C0C000C0DCC000F0CAA6000020400000206000002080000020A0000020C0000020E00000400000004020000040400000406000004080000040A0
1004
000040C0000040E00000600000006020000060400000606000006080000060A0000060C0000060E00000800000008020000080400000806000008080000080A0000080C0000080E00000A0000000A0200000A0400000A0600000A0800000A0A00000A0C00000A0E00000C0000000C0200000C0400000C0600000C0800000C0
1004
A00000C0C00000C0E00000E0000000E0200000E0400000E0600000E0800000E0A00000E0C00000E0E00040000000400020004000400040006000400080004000A0004000C0004000E00040200000402020004020400040206000402080004020A0004020C0004020E000404000004040200040404000404060004040800040
1004
40A0004040C0004040E00040600000406020004060400040606000406080004060A0004060C0004060E00040800000408020004080400040806000408080004080A0004080C0004080E00040A0000040A0200040A0400040A0600040A0800040A0A00040A0C00040A0E00040C0000040C0200040C0400040C0600040C08000
1004
40C0A00040C0C00040C0E00040E0000040E0200040E0400040E0600040E0800040E0A00040E0C00040E0E00080000000800020008000400080006000800080008000A0008000C0008000E00080200000802020008020400080206000802080008020A0008020C0008020E00080400000804020008040400080406000804080
1004
008040A0008040C0008040E00080600000806020008060400080606000806080008060A0008060C0008060E00080800000808020008080400080806000808080008080A0008080C0008080E00080A0000080A0200080A0400080A0600080A0800080A0A00080A0C00080A0E00080C0000080C0200080C0400080C0600080C0
1004
800080C0A00080C0C00080C0E00080E0000080E0200080E0400080E0600080E0800080E0A00080E0C00080E0E000C0000000C0002000C0004000C0006000C0008000C000A000C000C000C000E000C0200000C0202000C0204000C0206000C0208000C020A000C020C000C020E000C0400000C0402000C0404000C0406000C0
1004
408000C040A000C040C000C040E000C0600000C0602000C0604000C0606000C0608000C060A000C060C000C060E000C0800000C0802000C0804000C0806000C0808000C080A000C080C000C080E000C0A00000C0A02000C0A04000C0A06000C0A08000C0A0A000C0A0C000C0A0E000C0C00000C0C02000C0C04000C0C06000
1004
C0C08000C0C0A000F0FBFF00A4A0A000808080000000FF0000FF000000FFFF00FF000000FF00FF00FFFF0000FFFFFF0000000000000000000000FFFF0000000000000000FFFF00000000000000000000FF000000000000000000FFFF0000000000000000FFFF000000000000000000FFFFFF000000000000000000FF000000
1004
0000000000FF000000000000000000FFFF00FF000000000000000000FFFF000000000000FFFF000000000000000000FF0000FFFF0000000000000000FFFFFF00000000FFFFFF0000000000000000FFFF000000FFFF00000000000000FF00FFFF0000FFFF00FF00000000000000FFFF0000FFFF00FF00000000000000FF0000
1004
FF0000FF0000FF00000000000000FF00FFFF00FFFFFFFFFF0000000000FF000000FFFF000000FF0000000000FFFFFFFFFF0000000000FFFFFFFFFF0000FF000000FFFF000000FF0000FFFFFFFFFF000000000000000000FFFF00FFFFFFFF000000FFFF000000FFFFFFFF00FFFF0000000000000000000000FF00000000FFFF
1004
FFFF0000FFFFFFFF00000000FF00000000000000000000000000FF000000FF00FFFFFFFFFFFF00FF000000FF0000000000000000000000000000FFFF0000FFFFFFFF0000FFFFFFFF0000FFFF000000000000000000000000000000FFFFFFFFFF000000000000FFFFFFFFFF00000000000000000000000000FFFFFFFFFF00FF
1004
0000000000000000FF00FFFFFFFFFF0000000000FFFFFFFFFFFF000000FFFFFF0000000000000000FFFFFF000000FFFFFFFFFFFFFFFFFFFFFFFF000000FFFFFF0000000000000000FFFFFF000000FFFFFFFFFFFF0000000000FFFFFFFFFF00FF0000000000000000FF00FFFFFFFFFF00000000000000000000000000FFFFFF
1004
FFFF000000000000FFFFFFFFFF000000000000000000000000000000FFFF0000FFFFFFFF0000FFFFFFFF0000FFFF0000000000000000000000000000FF000000FF00FFFFFFFFFFFF00FF000000FF00000000000000000000000000FF00000000FFFFFFFF0000FFFFFFFF00000000FF0000000000000000000000FFFF00FFFF
1004
FFFF000000FFFF000000FFFFFFFF00FFFF000000000000000000FFFFFFFFFF0000FF000000FFFF000000FF0000FFFFFFFFFF0000000000FFFFFFFFFF0000000000FF000000FFFF000000FF0000000000FFFFFFFFFF00FFFF00FF00000000000000FF0000FF0000FF0000FF00000000000000FF00FFFF0000FFFF0000000000
1004
0000FF00FFFF0000FFFF00FF00000000000000FFFF000000FFFF0000000000000000FFFFFF00000000FFFFFF0000000000000000FFFF0000FF000000000000000000FFFF000000000000FFFF000000000000000000FF00FFFF000000000000000000FF0000000000000000FF000000000000000000FFFFFF00000000000000
1004
0000FFFF0000000000000000FFFF000000000000000000FF00000000000000000000FFFF0000000000000000FFFF00000000000000000000
  0
BLOCK_RECORD
  5
5E7
330
1
100
AcDbSymbolTableRecord
100
AcDbBlockTableRecord
  2
*D9
  0
BLOCK_RECORD
  5
5F4
330
1
100
AcDbSymbolTableRecord
100
AcDbBlockTableRecord
  2
*D10
  0
BLOCK_RECORD
  5
601
330
1
100
AcDbSymbolTableRecord
100
AcDbBlockTableRecord
  2
*D11
  0
BLOCK_RECORD
  5
60E
330
1
100
AcDbSymbolTableRecord
100
AcDbBlockTableRecord
  2
*D12
  0
BLOCK_RECORD
  5
61B
330
1
100
AcDbSymbolTableRecord
100
AcDbBlockTableRecord
  2
*D13
  0
BLOCK_RECORD
  5
628
330
1
100
AcDbSymbolTableRecord
100
AcDbBlockTableRecord
  2
*D14
  0
BLOCK_RECORD
  5
645
330
1
100
AcDbSymbolTableRecord
100
AcDbBlockTableRecord
  2
*D15
  0
BLOCK_RECORD
  5
652
330
1
100
AcDbSymbolTableRecord
100
AcDbBlockTableRecord
  2
*D16
  0
BLOCK_RECORD
  5
66C
330
1
100
AcDbSymbolTableRecord
100
AcDbBlockTableRecord
  2
*D17
  0
BLOCK_RECORD
  5
736
330
1
100
AcDbSymbolTableRecord
100
AcDbBlockTableRecord
  2
*D18
  0
BLOCK_RECORD
  5
758
330
1
100
AcDbSymbolTableRecord
100
AcDbBlockTableRecord
  2
*D19
  0
BLOCK_RECORD
  5
76E
330
1
100
AcDbSymbolTableRecord
100
AcDbBlockTableRecord
  2
*D20
  0
BLOCK_RECORD
  5
77D
330
1
100
AcDbSymbolTableRecord
100
AcDbBlockTableRecord
  2
*D21
  0
ENDTAB
  0
ENDSEC
  0
SECTION
  2
BLOCKS
  0
BLOCK
  5
D
330
A
100
AcDbEntity
  8
0
100
AcDbBlockBegin
  2
*MODEL_SPACE
 70
     0
 10
0.0
 20
0.0
 30
0.0
  3
*MODEL_SPACE
  1

  0
ENDBLK
  5
E
330
A
100
AcDbEntity
  8
0
100
AcDbBlockEnd
  0
BLOCK
  5
F
330
B
100
AcDbEntity
 67
     1
  8
0
100
AcDbBlockBegin
  2
*PAPER_SPACE
 70
     0
 10
0.0
 20
0.0
 30
0.0
  3
*PAPER_SPACE
  1

  0
ENDBLK
  5
10
330
B
100
AcDbEntity
 67
     1
  8
0
100
AcDbBlockEnd
  0
BLOCK
  5
452
330
44E
100
AcDbEntity
  8
0
100
AcDbBlockBegin
  2
_OPEN30
 70
     0
 10
0.0
 20
0.0
 30
0.0
  3
_OPEN30
  1

  0
LINE
  5
44F
330
44E
100
AcDbEntity
  8
0
  6
BYBLOCK
 62
     0
100
AcDbLine
 10
-1.0
 20
0.26794919
 30
0.0
 11
0.0
 21
0.0
 31
0.0
  0
LINE
  5
450
330
44E
100
AcDbEntity
  8
0
  6
BYBLOCK
 62
     0
100
AcDbLine
 10
0.0
 20
0.0
 30
0.0
 11
-1.0
 21
-0.26794919
 31
0.0
  0
LINE
  5
451
330
44E
100
AcDbEntity
  8
0
  6
BYBLOCK
 62
     0
100
AcDbLine
 10
0.0
 20
0.0
 30
0.0
 11
-1.0
 21
0.0
 31
0.0
  0
ENDBLK
  5
453
330
44E
100
AcDbEntity
  8
0
100
AcDbBlockEnd
  0
BLOCK
  5
4C8
330
4BD
100
AcDbEntity
  8
0
100
AcDbBlockBegin
  2
*D1
 70
     1
 10
0.0
 20
0.0
 30
0.0
  3
*D1
  1

  0
LINE
  5
115C
330
4BD
100
AcDbEntity
  8
SUNPOU
100
AcDbLine
 10
204.685201067276
 20
409.942159068018
 30
0.0
 11
204.685201067276
 21
369.9723251791449
 31
0.0
  0
LINE
  5
115D
330
4BD
100
AcDbEntity
  8
SUNPOU
100
AcDbLine
 10
207.685201067276
 20
374.9723251791449
 30
0.0
 11
207.685201067276
 21
373.9723251791449
 31
0.0
  0
LINE
  5
115E
330
4BD
100
AcDbEntity
  8
SUNPOU
100
AcDbLine
 10
199.685201067276
 20
371.9723251791449
 30
0.0
 11
194.685201067276
 21
371.9723251791449
 31
0.0
  0
LINE
  5
115F
330
4BD
100
AcDbEntity
  8
SUNPOU
100
AcDbLine
 10
207.685201067276
 20
371.9723251791449
 30
0.0
 11
212.6852010672761
 21
371.9723251791449
 31
0.0
  0
MTEXT
  5
1160
330
4BD
100
AcDbEntity
  8
SUNPOU
100
AcDbMText
 10
197.5198093334329
 20
367.4084810064266
 30
0.0
 40
5.0
 41
0.0
 71
     5
 72
     1
  1
\A1;3
  7
SUNPOU
 11
-1.0
 21
0.0000000000000001
 31
0.0
1001
ACAD
1000
MTEXTBEGIN
1070
    73
1070
     1
1070
    44
1040
1.0
1070
    74
1070
     0
1000
MTEXTEND
1000
MTEXTBEGIN
1070
    73
1070
     1
1070
    44
1040
1.0
1070
    74
1070
     0
1000
MTEXTEND
  0
LINE
  5
1161
330
4BD
100
AcDbEntity
  8
SUNPOU
100
AcDbLine
 10
204.685201067276
 20
371.9723251791449
 30
0.0
 11
207.685201067276
 21
371.9723251791449
 31
0.0
  0
INSERT
  5
1162
330
4BD
100
AcDbEntity
  8
SUNPOU
100
AcDbBlockReference
  2
_OPEN30
 10
204.685201067276
 20
371.9723251791449
 30
0.0
 41
5.0
 42
5.0
 43
5.0
  0
INSERT
  5
1163
330
4BD
100
AcDbEntity
  8
SUNPOU
100
AcDbBlockReference
  2
_DOTSMALL
 10
207.685201067276
 20
371.9723251791449
 30
0.0
 41
5.0
 42
5.0
 43
5.0
 50
180.0
  0
POINT
  5
1164
330
4BD
100
AcDbEntity
  8
DEFPOINTS
 62
     0
100
AcDbPoint
 10
204.685201067276
 20
412.942159068018
 30
0.0
  0
POINT
  5
1165
330
4BD
100
AcDbEntity
  8
DEFPOINTS
 62
     0
100
AcDbPoint
 10
207.685201067276
 20
371.9723251791449
 30
0.0
  0
POINT
  5
1166
330
4BD
100
AcDbEntity
  8
DEFPOINTS
 62
     0
100
AcDbPoint
 10
207.685201067276
 20
371.9723251791449
 30
0.0
  0
ENDBLK
  5
4C9
330
4BD
100
AcDbEntity
  8
0
100
AcDbBlockEnd
  0
BLOCK
  5
4D6
330
4CB
100
AcDbEntity
  8
0
100
AcDbBlockBegin
  2
*D2
 70
     1
 10
0.0
 20
0.0
 30
0.0
  3
*D2
  1

  0
LINE
  5
1167
330
4CB
100
AcDbEntity
  8
SUNPOU
100
AcDbLine
 10
207.685201067276
 20
374.9723251791449
 30
0.0
 11
207.685201067276
 21
373.9723251791449
 31
0.0
  0
LINE
  5
1168
330
4CB
100
AcDbEntity
  8
SUNPOU
100
AcDbLine
 10
210.6852010672763
 20
355.4421590680181
 30
0.0
 11
210.6852010672763
 21
373.9723251791449
 31
0.0
  0
LINE
  5
1169
330
4CB
100
AcDbEntity
  8
SUNPOU
100
AcDbLine
 10
207.685201067276
 20
371.9723251791449
 30
0.0
 11
202.6852010672761
 21
371.9723251791449
 31
0.0
  0
LINE
  5
116A
330
4CB
100
AcDbEntity
  8
SUNPOU
100
AcDbLine
 10
215.6852010672764
 20
371.9723251791449
 30
0.0
 11
220.6852010672764
 21
371.9723251791449
 31
0.0
  0
MTEXT
  5
116B
330
4CB
100
AcDbEntity
  8
SUNPOU
100
AcDbMText
 10
210.6623954305054
 20
377.0407606163955
 30
0.0
 40
5.0
 41
0.0
 71
     5
 72
     1
  1
\A1;3
  7
SUNPOU
 11
-1.0
 21
0.0000000000000001
 31
0.0
1001
ACAD
1000
MTEXTBEGIN
1070
    73
1070
     1
1070
    44
1040
1.0
1070
    74
1070
     0
1000
MTEXTEND
1000
MTEXTBEGIN
1070
    73
1070
     1
1070
    44
1040
1.0
1070
    74
1070
     0
1000
MTEXTEND
  0
LINE
  5
116C
330
4CB
100
AcDbEntity
  8
SUNPOU
100
AcDbLine
 10
207.685201067276
 20
371.9723251791449
 30
0.0
 11
210.6852010672763
 21
371.9723251791449
 31
0.0
  0
INSERT
  5
116D
330
4CB
100
AcDbEntity
  8
SUNPOU
100
AcDbBlockReference
  2
_DOTSMALL
 10
207.685201067276
 20
371.9723251791449
 30
0.0
 41
5.0
 42
5.0
 43
5.0
  0
INSERT
  5
116E
330
4CB
100
AcDbEntity
  8
SUNPOU
100
AcDbBlockReference
  2
_OPEN30
 10
210.6852010672763
 20
371.9723251791449
 30
0.0
 41
5.0
 42
5.0
 43
5.0
 50
180.0
  0
POINT
  5
116F
330
4CB
100
AcDbEntity
  8
DEFPOINTS
 62
     0
100
AcDbPoint
 10
207.685201067276
 20
371.9723251791449
 30
0.0
  0
POINT
  5
1170
330
4CB
100
AcDbEntity
  8
DEFPOINTS
 62
     0
100
AcDbPoint
 10
210.6852010672763
 20
352.4421590680181
 30
0.0
  0
POINT
  5
1171
330
4CB
100
AcDbEntity
  8
DEFPOINTS
 62
     0
100
AcDbPoint
 10
210.6852010672763
 20
371.9723251791449
 30
0.0
  0
ENDBLK
  5
4D7
330
4CB
100
AcDbEntity
  8
0
100
AcDbBlockEnd
  0
BLOCK
  5
4E2
330
4D9
100
AcDbEntity
  8
0
100
AcDbBlockBegin
  2
*D3
 70
     1
 10
0.0
 20
0.0
 30
0.0
  3
*D3
  1

  0
LINE
  5
C3B
330
4D9
100
AcDbEntity
  8
SUNPOU
100
AcDbLine
 10
210.6852010672763
 20
355.4421590680181
 30
0.0
 11
210.6852010672763
 21
373.9723251791449
 31
0.0
  0
LINE
  5
C3C
330
4D9
100
AcDbEntity
  8
SUNPOU
100
AcDbLine
 10
266.6852010672765
 20
374.9723251791449
 30
0.0
 11
266.6852010672765
 21
373.9723251791449
 31
0.0
  0
LINE
  5
C3D
330
4D9
100
AcDbEntity
  8
SUNPOU
100
AcDbLine
 10
215.6852010672764
 20
371.9723251791449
 30
0.0
 11
261.6852010672765
 21
371.9723251791449
 31
0.0
  0
MTEXT
  5
C3E
330
4D9
100
AcDbEntity
  8
SUNPOU
100
AcDbMText
 10
230.8756391855158
 20
367.440975817798
 30
0.0
 40
5.0
 41
0.0
 71
     5
 72
     1
  1
\A1;56
  7
SUNPOU
 11
-1.0
 21
0.0000000000000001
 31
0.0
1001
ACAD
1000
MTEXTBEGIN
1070
    73
1070
     1
1070
    44
1040
1.0
1070
    74
1070
     0
1000
MTEXTEND
1000
MTEXTBEGIN
1070
    73
1070
     1
1070
    44
1040
1.0
1070
    74
1070
     0
1000
MTEXTEND
  0
INSERT
  5
C3F
330
4D9
100
AcDbEntity
  8
SUNPOU
100
AcDbBlockReference
  2
_OPEN30
 10
210.6852010672763
 20
371.9723251791449
 30
0.0
 41
5.0
 42
5.0
 43
5.0
 50
180.0
  0
INSERT
  5
C40
330
4D9
100
AcDbEntity
  8
SUNPOU
100
AcDbBlockReference
  2
_OPEN30
 10
266.6852010672765
 20
371.9723251791449
 30
0.0
 41
5.0
 42
5.0
 43
5.0
  0
POINT
  5
C41
330
4D9
100
AcDbEntity
  8
DEFPOINTS
 62
     0
100
AcDbPoint
 10
210.6852010672763
 20
352.4421590680181
 30
0.0
  0
POINT
  5
C42
330
4D9
100
AcDbEntity
  8
DEFPOINTS
 62
     0
100
AcDbPoint
 10
266.6852010672765
 20
371.9723251791449
 30
0.0
  0
POINT
  5
C43
330
4D9
100
AcDbEntity
  8
DEFPOINTS
 62
     0
100
AcDbPoint
 10
266.6852010672765
 20
371.9723251791449
 30
0.0
  0
ENDBLK
  5
4E3
330
4D9
100
AcDbEntity
  8
0
100
AcDbBlockEnd
  0
BLOCK
  5
4F0
330
4E5
100
AcDbEntity
  8
0
100
AcDbBlockBegin
  2
*D4
 70
     1
 10
0.0
 20
0.0
 30
0.0
  3
*D4
  1

  0
LINE
  5
BB8
330
4E5
100
AcDbEntity
  8
SUNPOU
100
AcDbLine
 10
266.6852010672765
 20
374.9723251791449
 30
0.0
 11
266.6852010672765
 21
373.9723251791449
 31
0.0
  0
LINE
  5
BB9
330
4E5
100
AcDbEntity
  8
SUNPOU
100
AcDbLine
 10
271.6852010672764
 20
331.1921590680183
 30
0.0
 11
271.6852010672764
 21
373.9723251791449
 31
0.0
  0
LINE
  5
BBA
330
4E5
100
AcDbEntity
  8
SUNPOU
100
AcDbLine
 10
261.6852010672765
 20
371.9723251791449
 30
0.0
 11
256.6852010672765
 21
371.9723251791449
 31
0.0
  0
LINE
  5
BBB
330
4E5
100
AcDbEntity
  8
SUNPOU
100
AcDbLine
 10
276.6852010672764
 20
371.9723251791449
 30
0.0
 11
281.6852010672764
 21
371.9723251791449
 31
0.0
  0
MTEXT
  5
BBC
330
4E5
100
AcDbEntity
  8
SUNPOU
100
AcDbMText
 10
269.1852010672765
 20
367.4644111552888
 30
0.0
 40
5.0
 41
0.0
 71
     5
 72
     1
  1
\A1;5
  7
SUNPOU
 11
-1.0
 21
0.0000000000000001
 31
0.0
1001
ACAD
1000
MTEXTBEGIN
1070
    73
1070
     1
1070
    44
1040
1.0
1070
    74
1070
     0
1000
MTEXTEND
1000
MTEXTBEGIN
1070
    73
1070
     1
1070
    44
1040
1.0
1070
    74
1070
     0
1000
MTEXTEND
  0
LINE
  5
BBD
330
4E5
100
AcDbEntity
  8
SUNPOU
100
AcDbLine
 10
266.6852010672765
 20
371.9723251791449
 30
0.0
 11
271.6852010672764
 21
371.9723251791449
 31
0.0
  0
INSERT
  5
BBE
330
4E5
100
AcDbEntity
  8
SUNPOU
100
AcDbBlockReference
  2
_OPEN30
 10
266.6852010672765
 20
371.9723251791449
 30
0.0
 41
5.0
 42
5.0
 43
5.0
  0
INSERT
  5
BBF
330
4E5
100
AcDbEntity
  8
SUNPOU
100
AcDbBlockReference
  2
_OPEN30
 10
271.6852010672764
 20
371.9723251791449
 30
0.0
 41
5.0
 42
5.0
 43
5.0
 50
180.0
  0
POINT
  5
BC0
330
4E5
100
AcDbEntity
  8
DEFPOINTS
 62
     0
100
AcDbPoint
 10
266.6852010672765
 20
371.9723251791449
 30
0.0
  0
POINT
  5
BC1
330
4E5
100
AcDbEntity
  8
DEFPOINTS
 62
     0
100
AcDbPoint
 10
271.6852010672764
 20
328.1921590680183
 30
0.0
  0
POINT
  5
BC2
330
4E5
100
AcDbEntity
  8
DEFPOINTS
 62
     0
100
AcDbPoint
 10
271.6852010672764
 20
371.9723251791449
 30
0.0
  0
ENDBLK
  5
4F1
330
4E5
100
AcDbEntity
  8
0
100
AcDbBlockEnd
  0
BLOCK
  5
4FD
330
4F3
100
AcDbEntity
  8
0
100
AcDbBlockBegin
  2
*D5
 70
     1
 10
0.0
 20
0.0
 30
0.0
  3
*D5
  1

  0
LINE
  5
C4D
330
4F3
100
AcDbEntity
  8
SUNPOU
100
AcDbLine
 10
271.6852010672764
 20
331.1921590680183
 30
0.0
 11
271.6852010672764
 21
373.9723251791449
 31
0.0
  0
LINE
  5
C4E
330
4F3
100
AcDbEntity
  8
SUNPOU
100
AcDbLine
 10
303.6852010672764
 20
331.1921590680185
 30
0.0
 11
303.6852010672764
 21
373.9723251791449
 31
0.0
  0
LINE
  5
C4F
330
4F3
100
AcDbEntity
  8
SUNPOU
100
AcDbLine
 10
276.6852010672764
 20
371.9723251791449
 30
0.0
 11
298.6852010672764
 21
371.9723251791449
 31
0.0
  0
MTEXT
  5
C50
330
4F3
100
AcDbEntity
  8
SUNPOU
100
AcDbMText
 10
283.5289985085453
 20
367.3673704740298
 30
0.0
 40
5.0
 41
0.0
 71
     5
 72
     1
  1
\A1;32
  7
SUNPOU
 11
-1.0
 21
0.0000000000000001
 31
0.0
1001
ACAD
1000
MTEXTBEGIN
1070
    73
1070
     1
1070
    44
1040
1.0
1070
    74
1070
     0
1000
MTEXTEND
1000
MTEXTBEGIN
1070
    73
1070
     1
1070
    44
1040
1.0
1070
    74
1070
     0
1000
MTEXTEND
  0
INSERT
  5
C51
330
4F3
100
AcDbEntity
  8
SUNPOU
100
AcDbBlockReference
  2
_OPEN30
 10
271.6852010672764
 20
371.9723251791449
 30
0.0
 41
5.0
 42
5.0
 43
5.0
 50
180.0
  0
INSERT
  5
C52
330
4F3
100
AcDbEntity
  8
SUNPOU
100
AcDbBlockReference
  2
_OPEN30
 10
303.6852010672764
 20
371.9723251791449
 30
0.0
 41
5.0
 42
5.0
 43
5.0
  0
POINT
  5
C53
330
4F3
100
AcDbEntity
  8
DEFPOINTS
 62
     0
100
AcDbPoint
 10
271.6852010672764
 20
328.1921590680183
 30
0.0
  0
POINT
  5
C54
330
4F3
100
AcDbEntity
  8
DEFPOINTS
 62
     0
100
AcDbPoint
 10
303.6852010672764
 20
328.1921590680183
 30
0.0
  0
POINT
  5
C55
330
4F3
100
AcDbEntity
  8
DEFPOINTS
 62
     0
100
AcDbPoint
 10
303.6852010672764
 20
371.9723251791449
 30
0.0
  0
ENDBLK
  5
4FE
330
4F3
100
AcDbEntity
  8
0
100
AcDbBlockEnd
  0
BLOCK
  5
50A
330
500
100
AcDbEntity
  8
0
100
AcDbBlockBegin
  2
*D6
 70
     1
 10
0.0
 20
0.0
 30
0.0
  3
*D6
  1

  0
LINE
  5
D97
330
500
100
AcDbEntity
  8
SUNPOU
100
AcDbLine
 10
303.6852010672764
 20
331.1921590680185
 30
0.0
 11
303.6852010672764
 21
373.9723251791449
 31
0.0
  0
LINE
  5
D98
330
500
100
AcDbEntity
  8
SUNPOU
100
AcDbLine
 10
324.6852010672761
 20
409.9421590680178
 30
0.0
 11
324.6852010672761
 21
369.9723251791449
 31
0.0
  0
LINE
  5
D99
330
500
100
AcDbEntity
  8
SUNPOU
100
AcDbLine
 10
308.6852010672764
 20
371.9723251791449
 30
0.0
 11
319.6852010672762
 21
371.9723251791449
 31
0.0
  0
MTEXT
  5
D9A
330
500
100
AcDbEntity
  8
SUNPOU
100
AcDbMText
 10
314.1852010672763
 20
367.273116214922
 30
0.0
 40
5.0
 41
0.0
 71
     5
 72
     1
  1
\A1;21
  7
SUNPOU
 11
-1.0
 21
0.0000000000000001
 31
0.0
1001
ACAD
1000
MTEXTBEGIN
1070
    73
1070
     1
1070
    44
1040
1.0
1070
    74
1070
     0
1000
MTEXTEND
1000
MTEXTBEGIN
1070
    73
1070
     1
1070
    44
1040
1.0
1070
    74
1070
     0
1000
MTEXTEND
  0
INSERT
  5
D9B
330
500
100
AcDbEntity
  8
SUNPOU
100
AcDbBlockReference
  2
_OPEN30
 10
303.6852010672764
 20
371.9723251791449
 30
0.0
 41
5.0
 42
5.0
 43
5.0
 50
180.0
  0
INSERT
  5
D9C
330
500
100
AcDbEntity
  8
SUNPOU
100
AcDbBlockReference
  2
_OPEN30
 10
324.6852010672761
 20
371.9723251791449
 30
0.0
 41
5.0
 42
5.0
 43
5.0
  0
POINT
  5
D9D
330
500
100
AcDbEntity
  8
DEFPOINTS
 62
     0
100
AcDbPoint
 10
303.6852010672764
 20
328.1921590680183
 30
0.0
  0
POINT
  5
D9E
330
500
100
AcDbEntity
  8
DEFPOINTS
 62
     0
100
AcDbPoint
 10
324.6852010672761
 20
412.942159068018
 30
0.0
  0
POINT
  5
D9F
330
500
100
AcDbEntity
  8
DEFPOINTS
 62
     0
100
AcDbPoint
 10
324.6852010672761
 20
371.9723251791449
 30
0.0
  0
ENDBLK
  5
50B
330
500
100
AcDbEntity
  8
0
100
AcDbBlockEnd
  0
BLOCK
  5
51B
330
511
100
AcDbEntity
  8
0
100
AcDbBlockBegin
  2
*D7
 70
     1
 10
0.0
 20
0.0
 30
0.0
  3
*D7
  1

  0
LINE
  5
D81
330
511
100
AcDbEntity
  8
SUNPOU
100
AcDbLine
 10
204.6852010672761
 20
473.4421590680183
 30
0.0
 11
204.6852010672761
 21
428.5538461538461
 31
0.0
  0
LINE
  5
D82
330
511
100
AcDbEntity
  8
SUNPOU
100
AcDbLine
 10
324.6852010672761
 20
473.4421590680187
 30
0.0
 11
324.6852010672761
 21
428.5538461538461
 31
0.0
  0
LINE
  5
D83
330
511
100
AcDbEntity
  8
SUNPOU
100
AcDbLine
 10
209.685201067276
 20
430.5538461538461
 30
0.0
 11
319.6852010672762
 21
430.5538461538461
 31
0.0
  0
MTEXT
  5
D84
330
511
100
AcDbEntity
  8
SUNPOU
100
AcDbMText
 10
272.6951363170361
 20
426.0223068506677
 30
0.0
 40
5.0
 41
0.0
 71
     5
 72
     1
  1
\A1;120
  7
SUNPOU
 11
-1.0
 21
0.0000000000000001
 31
0.0
1001
ACAD
1000
MTEXTBEGIN
1070
    73
1070
     1
1070
    44
1040
1.0
1070
    74
1070
     0
1000
MTEXTEND
1000
MTEXTBEGIN
1070
    73
1070
     1
1070
    44
1040
1.0
1070
    74
1070
     0
1000
MTEXTEND
  0
INSERT
  5
D85
330
511
100
AcDbEntity
  8
SUNPOU
100
AcDbBlockReference
  2
_OPEN30
 10
204.6852010672761
 20
430.5538461538461
 30
0.0
 41
5.0
 42
5.0
 43
5.0
 50
180.0
  0
INSERT
  5
D86
330
511
100
AcDbEntity
  8
SUNPOU
100
AcDbBlockReference
  2
_OPEN30
 10
324.6852010672761
 20
430.5538461538461
 30
0.0
 41
5.0
 42
5.0
 43
5.0
  0
POINT
  5
D87
330
511
100
AcDbEntity
  8
DEFPOINTS
 62
     0
100
AcDbPoint
 10
204.6852010672761
 20
476.4421590680183
 30
0.0
  0
POINT
  5
D88
330
511
100
AcDbEntity
  8
DEFPOINTS
 62
     0
100
AcDbPoint
 10
324.6852010672761
 20
476.4421590680187
 30
0.0
  0
POINT
  5
D89
330
511
100
AcDbEntity
  8
DEFPOINTS
 62
     0
100
AcDbPoint
 10
324.6852010672761
 20
430.5538461538461
 30
0.0
  0
ENDBLK
  5
51C
330
511
100
AcDbEntity
  8
0
100
AcDbBlockEnd
  0
BLOCK
  5
5D0
330
5CE
100
AcDbEntity
  8
0
100
AcDbBlockBegin
  2
_DOTSMALL
 70
     0
 10
0.0
 20
0.0
 30
0.0
  3
_DOTSMALL
  1

  0
POLYLINE
  5
5CF
330
5CE
100
AcDbEntity
  8
0
  6
BYBLOCK
 62
     0
100
AcDb2dPolyline
 66
     1
 10
0.0
 20
0.0
 30
0.0
 70
     1
 40
0.5
 41
0.5
  0
VERTEX
  5
1223
330
5CF
100
AcDbEntity
  8
0
  6
BYBLOCK
 62
     0
100
AcDbVertex
100
AcDb2dVertex
 10
-0.0625
 20
0.0
 30
0.0
 42
1.0
  0
VERTEX
  5
1224
330
5CF
100
AcDbEntity
  8
0
  6
BYBLOCK
 62
     0
100
AcDbVertex
100
AcDb2dVertex
 10
0.0625
 20
0.0
 30
0.0
 42
1.0
  0
SEQEND
  5
1225
330
5CF
100
AcDbEntity
  8
0
  6
BYBLOCK
 62
     0
  0
ENDBLK
  5
5D1
330
5CE
100
AcDbEntity
  8
0
100
AcDbBlockEnd
  0
BLOCK
  5
5F1
330
5E7
100
AcDbEntity
  8
0
100
AcDbBlockBegin
  2
*D9
 70
     1
 10
0.0
 20
0.0
 30
0.0
  3
*D9
  1

  0
LINE
  5
BD5
330
5E7
100
AcDbEntity
  8
SUNPOU
100
AcDbLine
 10
306.6852010672773
 20
160.6921590680188
 30
0.0
 11
336.1852010672773
 21
160.6921590680188
 31
0.0
  0
LINE
  5
BD6
330
5E7
100
AcDbEntity
  8
SUNPOU
100
AcDbLine
 10
306.6852010672771
 20
185.6921590680188
 30
0.0
 11
336.1852010672773
 21
185.6921590680187
 31
0.0
  0
LINE
  5
BD7
330
5E7
100
AcDbEntity
  8
SUNPOU
100
AcDbLine
 10
334.1852010672774
 20
165.6921590680188
 30
0.0
 11
334.1852010672774
 21
180.6921590680186
 31
0.0
  0
INSERT
  5
BD8
330
5E7
100
AcDbEntity
  8
SUNPOU
100
AcDbBlockReference
  2
_OPEN30
 10
334.1852010672774
 20
160.6921590680188
 30
0.0
 41
5.0
 42
5.0
 43
5.0
 50
270.0
  0
INSERT
  5
BD9
330
5E7
100
AcDbEntity
  8
SUNPOU
100
AcDbBlockReference
  2
_OPEN30
 10
334.1852010672774
 20
185.6921590680187
 30
0.0
 41
5.0
 42
5.0
 43
5.0
 50
90.0
  0
MTEXT
  5
BDA
330
5E7
100
AcDbEntity
  8
SUNPOU
100
AcDbMText
 10
329.6852010672773
 20
173.1921590680188
 30
0.0
 40
5.0
 41
0.0
 71
     5
 72
     1
  1
\A1;25
  7
SUNPOU
 11
0.0000000000000001
 21
1.0
 31
0.0
1001
ACAD
1000
MTEXTBEGIN
1070
    73
1070
     1
1070
    44
1040
1.0
1070
    74
1070
     0
1000
MTEXTEND
1000
MTEXTBEGIN
1070
    73
1070
     1
1070
    44
1040
1.0
1070
    74
1070
     0
1000
MTEXTEND
  0
POINT
  5
BDB
330
5E7
100
AcDbEntity
  8
DEFPOINTS
 62
     0
100
AcDbPoint
 10
303.6852010672773
 20
160.6921590680188
 30
0.0
  0
POINT
  5
BDC
330
5E7
100
AcDbEntity
  8
DEFPOINTS
 62
     0
100
AcDbPoint
 10
303.6852010672772
 20
185.6921590680188
 30
0.0
  0
POINT
  5
BDD
330
5E7
100
AcDbEntity
  8
DEFPOINTS
 62
     0
100
AcDbPoint
 10
334.1852010672774
 20
185.6921590680187
 30
0.0
  0
ENDBLK
  5
5F2
330
5E7
100
AcDbEntity
  8
0
100
AcDbBlockEnd
  0
BLOCK
  5
5FE
330
5F4
100
AcDbEntity
  8
0
100
AcDbBlockBegin
  2
*D10
 70
     1
 10
0.0
 20
0.0
 30
0.0
  3
*D10
  1

  0
LINE
  5
BDE
330
5F4
100
AcDbEntity
  8
SUNPOU
100
AcDbLine
 10
306.6852010672765
 20
303.1921590680183
 30
0.0
 11
336.1852010672774
 21
303.1921590680183
 31
0.0
  0
LINE
  5
BDF
330
5F4
100
AcDbEntity
  8
SUNPOU
100
AcDbLine
 10
306.6852010672764
 20
328.1921590680183
 30
0.0
 11
336.1852010672774
 21
328.1921590680183
 31
0.0
  0
LINE
  5
BE0
330
5F4
100
AcDbEntity
  8
SUNPOU
100
AcDbLine
 10
334.1852010672774
 20
308.1921590680185
 30
0.0
 11
334.1852010672774
 21
323.1921590680185
 31
0.0
  0
INSERT
  5
BE1
330
5F4
100
AcDbEntity
  8
SUNPOU
100
AcDbBlockReference
  2
_OPEN30
 10
334.1852010672774
 20
303.1921590680183
 30
0.0
 41
5.0
 42
5.0
 43
5.0
 50
270.0
  0
INSERT
  5
BE2
330
5F4
100
AcDbEntity
  8
SUNPOU
100
AcDbBlockReference
  2
_OPEN30
 10
334.1852010672774
 20
328.1921590680183
 30
0.0
 41
5.0
 42
5.0
 43
5.0
 50
90.0
  0
MTEXT
  5
BE3
330
5F4
100
AcDbEntity
  8
SUNPOU
100
AcDbMText
 10
329.6852010672775
 20
315.6921590680184
 30
0.0
 40
5.0
 41
0.0
 71
     5
 72
     1
  1
\A1;25
  7
SUNPOU
 11
0.0000000000000001
 21
1.0
 31
0.0
1001
ACAD
1000
MTEXTBEGIN
1070
    73
1070
     1
1070
    44
1040
1.0
1070
    74
1070
     0
1000
MTEXTEND
1000
MTEXTBEGIN
1070
    73
1070
     1
1070
    44
1040
1.0
1070
    74
1070
     0
1000
MTEXTEND
  0
POINT
  5
BE4
330
5F4
100
AcDbEntity
  8
DEFPOINTS
 62
     0
100
AcDbPoint
 10
303.6852010672765
 20
303.1921590680183
 30
0.0
  0
POINT
  5
BE5
330
5F4
100
AcDbEntity
  8
DEFPOINTS
 62
     0
100
AcDbPoint
 10
303.6852010672764
 20
328.1921590680183
 30
0.0
  0
POINT
  5
BE6
330
5F4
100
AcDbEntity
  8
DEFPOINTS
 62
     0
100
AcDbPoint
 10
334.1852010672774
 20
328.1921590680183
 30
0.0
  0
ENDBLK
  5
5FF
330
5F4
100
AcDbEntity
  8
0
100
AcDbBlockEnd
  0
BLOCK
  5
60B
330
601
100
AcDbEntity
  8
0
100
AcDbBlockBegin
  2
*D11
 70
     1
 10
0.0
 20
0.0
 30
0.0
  3
*D11
  1

  0
LINE
  5
BE7
330
601
100
AcDbEntity
  8
SUNPOU
100
AcDbLine
 10
326.9352010672775
 20
125.6921590680184
 30
0.0
 11
373.6852010672773
 21
125.6921590680184
 31
0.0
  0
LINE
  5
BE8
330
601
100
AcDbEntity
  8
SUNPOU
100
AcDbLine
 10
326.9352010672773
 20
155.6921590680186
 30
0.0
 11
373.6852010672773
 21
155.6921590680186
 31
0.0
  0
LINE
  5
BE9
330
601
100
AcDbEntity
  8
SUNPOU
100
AcDbLine
 10
371.6852010672774
 20
130.6921590680184
 30
0.0
 11
371.6852010672774
 21
150.6921590680186
 31
0.0
  0
INSERT
  5
BEA
330
601
100
AcDbEntity
  8
SUNPOU
100
AcDbBlockReference
  2
_OPEN30
 10
371.6852010672774
 20
125.6921590680184
 30
0.0
 41
5.0
 42
5.0
 43
5.0
 50
270.0
  0
INSERT
  5
BEB
330
601
100
AcDbEntity
  8
SUNPOU
100
AcDbBlockReference
  2
_OPEN30
 10
371.6852010672774
 20
155.6921590680186
 30
0.0
 41
5.0
 42
5.0
 43
5.0
 50
90.0
  0
MTEXT
  5
BEC
330
601
100
AcDbEntity
  8
SUNPOU
100
AcDbMText
 10
367.1852010672773
 20
140.6921590680186
 30
0.0
 40
5.0
 41
0.0
 71
     5
 72
     1
  1
\A1;30
  7
SUNPOU
 11
0.0000000000000001
 21
1.0
 31
0.0
1001
ACAD
1000
MTEXTBEGIN
1070
    73
1070
     1
1070
    44
1040
1.0
1070
    74
1070
     0
1000
MTEXTEND
1000
MTEXTBEGIN
1070
    73
1070
     1
1070
    44
1040
1.0
1070
    74
1070
     0
1000
MTEXTEND
  0
POINT
  5
BED
330
601
100
AcDbEntity
  8
DEFPOINTS
 62
     0
100
AcDbPoint
 10
323.9352010672774
 20
125.6921590680184
 30
0.0
  0
POINT
  5
BEE
330
601
100
AcDbEntity
  8
DEFPOINTS
 62
     0
100
AcDbPoint
 10
323.9352010672774
 20
155.6921590680186
 30
0.0
  0
POINT
  5
BEF
330
601
100
AcDbEntity
  8
DEFPOINTS
 62
     0
100
AcDbPoint
 10
371.6852010672774
 20
155.6921590680186
 30
0.0
  0
ENDBLK
  5
60C
330
601
100
AcDbEntity
  8
0
100
AcDbBlockEnd
  0
BLOCK
  5
618
330
60E
100
AcDbEntity
  8
0
100
AcDbBlockBegin
  2
*D12
 70
     1
 10
0.0
 20
0.0
 30
0.0
  3
*D12
  1

  0
LINE
  5
BF0
330
60E
100
AcDbEntity
  8
SUNPOU
100
AcDbLine
 10
326.9352010672773
 20
155.6921590680186
 30
0.0
 11
373.6852010672773
 21
155.6921590680186
 31
0.0
  0
LINE
  5
BF1
330
60E
100
AcDbEntity
  8
SUNPOU
100
AcDbLine
 10
326.9352010672761
 20
475.6921590680186
 30
0.0
 11
373.6852010672775
 21
475.6921590680186
 31
0.0
  0
LINE
  5
BF2
330
60E
100
AcDbEntity
  8
SUNPOU
100
AcDbLine
 10
371.6852010672774
 20
160.6921590680187
 30
0.0
 11
371.6852010672775
 21
470.6921590680186
 31
0.0
  0
INSERT
  5
BF3
330
60E
100
AcDbEntity
  8
SUNPOU
100
AcDbBlockReference
  2
_OPEN30
 10
371.6852010672774
 20
155.6921590680186
 30
0.0
 41
5.0
 42
5.0
 43
5.0
 50
270.0
  0
INSERT
  5
BF4
330
60E
100
AcDbEntity
  8
SUNPOU
100
AcDbBlockReference
  2
_OPEN30
 10
371.6852010672775
 20
475.6921590680186
 30
0.0
 41
5.0
 42
5.0
 43
5.0
 50
90.0
  0
MTEXT
  5
BF5
330
60E
100
AcDbEntity
  8
SUNPOU
100
AcDbMText
 10
367.1852010672773
 20
315.6921590680186
 30
0.0
 40
5.0
 41
0.0
 71
     5
 72
     1
  1
\A1;W
  7
SUNPOU
 11
0.0000000000000001
 21
1.0
 31
0.0
1001
ACAD
1000
MTEXTBEGIN
1070
    73
1070
     1
1070
    44
1040
1.0
1070
    74
1070
     0
1000
MTEXTEND
1000
MTEXTBEGIN
1070
    73
1070
     1
1070
    44
1040
1.0
1070
    74
1070
     0
1000
MTEXTEND
  0
POINT
  5
BF6
330
60E
100
AcDbEntity
  8
DEFPOINTS
 62
     0
100
AcDbPoint
 10
323.9352010672774
 20
155.6921590680186
 30
0.0
  0
POINT
  5
BF7
330
60E
100
AcDbEntity
  8
DEFPOINTS
 62
     0
100
AcDbPoint
 10
323.9352010672762
 20
475.6921590680186
 30
0.0
  0
POINT
  5
BF8
330
60E
100
AcDbEntity
  8
DEFPOINTS
 62
     0
100
AcDbPoint
 10
371.6852010672775
 20
475.6921590680186
 30
0.0
  0
ENDBLK
  5
619
330
60E
100
AcDbEntity
  8
0
100
AcDbBlockEnd
  0
BLOCK
  5
625
330
61B
100
AcDbEntity
  8
0
100
AcDbBlockBegin
  2
*D13
 70
     1
 10
0.0
 20
0.0
 30
0.0
  3
*D13
  1

  0
LINE
  5
BF9
330
61B
100
AcDbEntity
  8
SUNPOU
100
AcDbLine
 10
326.9352010672761
 20
475.6921590680186
 30
0.0
 11
373.6852010672775
 21
475.6921590680186
 31
0.0
  0
LINE
  5
BFA
330
61B
100
AcDbEntity
  8
SUNPOU
100
AcDbLine
 10
326.9352010672761
 20
505.6921590680186
 30
0.0
 11
373.6852010672775
 21
505.6921590680186
 31
0.0
  0
LINE
  5
BFB
330
61B
100
AcDbEntity
  8
SUNPOU
100
AcDbLine
 10
371.6852010672775
 20
480.6921590680186
 30
0.0
 11
371.6852010672775
 21
500.6921590680186
 31
0.0
  0
INSERT
  5
BFC
330
61B
100
AcDbEntity
  8
SUNPOU
100
AcDbBlockReference
  2
_OPEN30
 10
371.6852010672775
 20
475.6921590680186
 30
0.0
 41
5.0
 42
5.0
 43
5.0
 50
270.0
  0
INSERT
  5
BFD
330
61B
100
AcDbEntity
  8
SUNPOU
100
AcDbBlockReference
  2
_OPEN30
 10
371.6852010672775
 20
505.6921590680186
 30
0.0
 41
5.0
 42
5.0
 43
5.0
 50
90.0
  0
MTEXT
  5
BFE
330
61B
100
AcDbEntity
  8
SUNPOU
100
AcDbMText
 10
367.1852010672775
 20
490.6921590680187
 30
0.0
 40
5.0
 41
0.0
 71
     5
 72
     1
  1
\A1;30
  7
SUNPOU
 11
0.0000000000000001
 21
1.0
 31
0.0
1001
ACAD
1000
MTEXTBEGIN
1070
    73
1070
     1
1070
    44
1040
1.0
1070
    74
1070
     0
1000
MTEXTEND
1000
MTEXTBEGIN
1070
    73
1070
     1
1070
    44
1040
1.0
1070
    74
1070
     0
1000
MTEXTEND
  0
POINT
  5
BFF
330
61B
100
AcDbEntity
  8
DEFPOINTS
 62
     0
100
AcDbPoint
 10
323.9352010672762
 20
475.6921590680186
 30
0.0
  0
POINT
  5
C00
330
61B
100
AcDbEntity
  8
DEFPOINTS
 62
     0
100
AcDbPoint
 10
323.9352010672762
 20
505.6921590680186
 30
0.0
  0
POINT
  5
C01
330
61B
100
AcDbEntity
  8
DEFPOINTS
 62
     0
100
AcDbPoint
 10
371.6852010672775
 20
505.6921590680186
 30
0.0
  0
ENDBLK
  5
626
330
61B
100
AcDbEntity
  8
0
100
AcDbBlockEnd
  0
BLOCK
  5
634
330
628
100
AcDbEntity
  8
0
100
AcDbBlockBegin
  2
*D14
 70
     1
 10
0.0
 20
0.0
 30
0.0
  3
*D14
  1

  0
LINE
  5
C02
330
628
100
AcDbEntity
  8
SUNPOU
100
AcDbLine
 10
326.9352010672765
 20
155.6921590680185
 30
0.0
 11
348.6852010672773
 21
155.6921590680185
 31
0.0
  0
LINE
  5
C03
330
628
100
AcDbEntity
  8
SUNPOU
100
AcDbLine
 10
306.6852010672773
 20
160.6921590680188
 30
0.0
 11
348.6852010672773
 21
160.6921590680188
 31
0.0
  0
LINE
  5
C04
330
628
100
AcDbEntity
  8
SUNPOU
100
AcDbLine
 10
346.6852010672774
 20
150.6921590680185
 30
0.0
 11
346.6852010672774
 21
145.6921590680185
 31
0.0
  0
LINE
  5
C05
330
628
100
AcDbEntity
  8
SUNPOU
100
AcDbLine
 10
346.6852010672774
 20
165.6921590680188
 30
0.0
 11
346.6852010672774
 21
170.6921590680188
 31
0.0
  0
MTEXT
  5
C06
330
628
100
AcDbEntity
  8
SUNPOU
100
AcDbMText
 10
341.9988946848061
 20
148.5281486436991
 30
0.0
 40
5.0
 41
0.0
 71
     5
 72
     1
  1
\A1;4
  7
SUNPOU
 11
0.0000000000000001
 21
1.0
 31
0.0
1001
ACAD
1000
MTEXTBEGIN
1070
    73
1070
     1
1070
    44
1040
1.0
1070
    74
1070
     0
1000
MTEXTEND
1000
MTEXTBEGIN
1070
    73
1070
     1
1070
    44
1040
1.0
1070
    74
1070
     0
1000
MTEXTEND
  0
LINE
  5
C07
330
628
100
AcDbEntity
  8
SUNPOU
100
AcDbLine
 10
346.6852010672774
 20
155.6921590680185
 30
0.0
 11
346.6852010672774
 21
160.6921590680188
 31
0.0
  0
INSERT
  5
C08
330
628
100
AcDbEntity
  8
SUNPOU
100
AcDbBlockReference
  2
_OPEN30
 10
346.6852010672774
 20
155.6921590680185
 30
0.0
 41
5.0
 42
5.0
 43
5.0
 50
90.0
  0
INSERT
  5
C09
330
628
100
AcDbEntity
  8
SUNPOU
100
AcDbBlockReference
  2
_OPEN30
 10
346.6852010672774
 20
160.6921590680188
 30
0.0
 41
5.0
 42
5.0
 43
5.0
 50
270.0
  0
POINT
  5
C0A
330
628
100
AcDbEntity
  8
DEFPOINTS
 62
     0
100
AcDbPoint
 10
323.9352010672765
 20
155.6921590680185
 30
0.0
  0
POINT
  5
C0B
330
628
100
AcDbEntity
  8
DEFPOINTS
 62
     0
100
AcDbPoint
 10
303.6852010672773
 20
160.6921590680188
 30
0.0
  0
POINT
  5
C0C
330
628
100
AcDbEntity
  8
DEFPOINTS
 62
     0
100
AcDbPoint
 10
346.6852010672774
 20
160.6921590680188
 30
0.0
  0
ENDBLK
  5
635
330
628
100
AcDbEntity
  8
0
100
AcDbBlockEnd
  0
BLOCK
  5
64F
330
645
100
AcDbEntity
  8
0
100
AcDbBlockBegin
  2
*D15
 70
     1
 10
0.0
 20
0.0
 30
0.0
  3
*D15
  1

  0
LINE
  5
C0D
330
645
100
AcDbEntity
  8
SUNPOU
100
AcDbLine
 10
356.1852010672775
 20
160.6921590680188
 30
0.0
 11
344.6852010672774
 21
160.6921590680188
 31
0.0
  0
LINE
  5
C0E
330
645
100
AcDbEntity
  8
SUNPOU
100
AcDbLine
 10
306.6852010672764
 20
328.1921590680183
 30
0.0
 11
348.6852010672773
 21
328.1921590680183
 31
0.0
  0
LINE
  5
C0F
330
645
100
AcDbEntity
  8
SUNPOU
100
AcDbLine
 10
346.6852010672774
 20
165.6921590680188
 30
0.0
 11
346.6852010672774
 21
323.1921590680185
 31
0.0
  0
INSERT
  5
C10
330
645
100
AcDbEntity
  8
SUNPOU
100
AcDbBlockReference
  2
_OPEN30
 10
346.6852010672774
 20
160.6921590680188
 30
0.0
 41
5.0
 42
5.0
 43
5.0
 50
270.0
  0
INSERT
  5
C11
330
645
100
AcDbEntity
  8
SUNPOU
100
AcDbBlockReference
  2
_OPEN30
 10
346.6852010672774
 20
328.1921590680183
 30
0.0
 41
5.0
 42
5.0
 43
5.0
 50
90.0
  0
MTEXT
  5
C12
330
645
100
AcDbEntity
  8
SUNPOU
100
AcDbMText
 10
342.1852010672773
 20
244.4421590680187
 30
0.0
 40
5.0
 41
0.0
 71
     5
 72
     1
  1
\A1;DW
  7
SUNPOU
 11
0.0000000000000001
 21
1.0
 31
0.0
1001
ACAD
1000
MTEXTBEGIN
1070
    73
1070
     1
1070
    44
1040
1.0
1070
    74
1070
     0
1000
MTEXTEND
1000
MTEXTBEGIN
1070
    73
1070
     1
1070
    44
1040
1.0
1070
    74
1070
     0
1000
MTEXTEND
  0
POINT
  5
C13
330
645
100
AcDbEntity
  8
DEFPOINTS
 62
     0
100
AcDbPoint
 10
359.1852010672774
 20
160.6921590680188
 30
0.0
  0
POINT
  5
C14
330
645
100
AcDbEntity
  8
DEFPOINTS
 62
     0
100
AcDbPoint
 10
303.6852010672764
 20
328.1921590680183
 30
0.0
  0
POINT
  5
C15
330
645
100
AcDbEntity
  8
DEFPOINTS
 62
     0
100
AcDbPoint
 10
346.6852010672774
 20
328.1921590680183
 30
0.0
  0
ENDBLK
  5
650
330
645
100
AcDbEntity
  8
0
100
AcDbBlockEnd
  0
BLOCK
  5
65C
330
652
100
AcDbEntity
  8
0
100
AcDbBlockBegin
  2
*D16
 70
     1
 10
0.0
 20
0.0
 30
0.0
  3
*D16
  1

  0
LINE
  5
C16
330
652
100
AcDbEntity
  8
SUNPOU
100
AcDbLine
 10
326.9352010672773
 20
155.6921590680186
 30
0.0
 11
361.1852010672773
 21
155.6921590680186
 31
0.0
  0
LINE
  5
C17
330
652
100
AcDbEntity
  8
SUNPOU
100
AcDbLine
 10
306.6852010672765
 20
303.1921590680183
 30
0.0
 11
361.1852010672773
 21
303.1921590680183
 31
0.0
  0
LINE
  5
C18
330
652
100
AcDbEntity
  8
SUNPOU
100
AcDbLine
 10
359.1852010672774
 20
160.6921590680187
 30
0.0
 11
359.1852010672774
 21
298.1921590680185
 31
0.0
  0
INSERT
  5
C19
330
652
100
AcDbEntity
  8
SUNPOU
100
AcDbBlockReference
  2
_OPEN30
 10
359.1852010672774
 20
155.6921590680186
 30
0.0
 41
5.0
 42
5.0
 43
5.0
 50
270.0
  0
INSERT
  5
C1A
330
652
100
AcDbEntity
  8
SUNPOU
100
AcDbBlockReference
  2
_OPEN30
 10
359.1852010672774
 20
303.1921590680183
 30
0.0
 41
5.0
 42
5.0
 43
5.0
 50
90.0
  0
MTEXT
  5
C1B
330
652
100
AcDbEntity
  8
SUNPOU
100
AcDbMText
 10
354.6852010672773
 20
229.4421590680186
 30
0.0
 40
5.0
 41
0.0
 71
     5
 72
     1
  1
\A1;開口 W
  7
SUNPOU
 11
0.0000000000000001
 21
1.0
 31
0.0
1001
ACAD
1000
MTEXTBEGIN
1070
    73
1070
     1
1070
    44
1040
1.0
1070
    74
1070
     0
1000
MTEXTEND
1000
MTEXTBEGIN
1070
    73
1070
     1
1070
    44
1040
1.0
1070
    74
1070
     0
1000
MTEXTEND
  0
POINT
  5
C1C
330
652
100
AcDbEntity
  8
DEFPOINTS
 62
     0
100
AcDbPoint
 10
323.9352010672774
 20
155.6921590680186
 30
0.0
  0
POINT
  5
C1D
330
652
100
AcDbEntity
  8
DEFPOINTS
 62
     0
100
AcDbPoint
 10
303.6852010672765
 20
303.1921590680183
 30
0.0
  0
POINT
  5
C1E
330
652
100
AcDbEntity
  8
DEFPOINTS
 62
     0
100
AcDbPoint
 10
359.1852010672774
 20
303.1921590680183
 30
0.0
  0
ENDBLK
  5
65D
330
652
100
AcDbEntity
  8
0
100
AcDbBlockEnd
  0
BLOCK
  5
676
330
66C
100
AcDbEntity
  8
0
100
AcDbBlockBegin
  2
*D17
 70
     1
 10
0.0
 20
0.0
 30
0.0
  3
*D17
  1

  0
LINE
  5
C1F
330
66C
100
AcDbEntity
  8
SUNPOU
100
AcDbLine
 10
208.4352010672764
 20
303.1921590680179
 30
0.0
 11
187.9213387439068
 21
303.1921590680179
 31
0.0
  0
LINE
  5
C20
330
66C
100
AcDbEntity
  8
SUNPOU
100
AcDbLine
 10
208.4352010672763
 20
353.192159068018
 30
0.0
 11
187.9213387439068
 21
353.192159068018
 31
0.0
  0
LINE
  5
C21
330
66C
100
AcDbEntity
  8
SUNPOU
100
AcDbLine
 10
189.9213387439068
 20
308.1921590680181
 30
0.0
 11
189.9213387439068
 21
348.1921590680181
 31
0.0
  0
INSERT
  5
C22
330
66C
100
AcDbEntity
  8
SUNPOU
100
AcDbBlockReference
  2
_OPEN30
 10
189.9213387439068
 20
303.1921590680179
 30
0.0
 41
5.0
 42
5.0
 43
5.0
 50
270.0
  0
INSERT
  5
C23
330
66C
100
AcDbEntity
  8
SUNPOU
100
AcDbBlockReference
  2
_OPEN30
 10
189.9213387439068
 20
353.192159068018
 30
0.0
 41
5.0
 42
5.0
 43
5.0
 50
90.0
  0
MTEXT
  5
C24
330
66C
100
AcDbEntity
  8
SUNPOU
100
AcDbMText
 10
185.4213387439068
 20
328.192159068018
 30
0.0
 40
5.0
 41
0.0
 71
     5
 72
     1
  1
\A1;50
  7
SUNPOU
 11
0.0000000000000001
 21
1.0
 31
0.0
1001
ACAD
1000
MTEXTBEGIN
1070
    73
1070
     1
1070
    44
1040
1.0
1070
    74
1070
     0
1000
MTEXTEND
1000
MTEXTBEGIN
1070
    73
1070
     1
1070
    44
1040
1.0
1070
    74
1070
     0
1000
MTEXTEND
  0
POINT
  5
C25
330
66C
100
AcDbEntity
  8
DEFPOINTS
 62
     0
100
AcDbPoint
 10
211.4352010672765
 20
303.1921590680179
 30
0.0
  0
POINT
  5
C26
330
66C
100
AcDbEntity
  8
DEFPOINTS
 62
     0
100
AcDbPoint
 10
211.4352010672764
 20
353.192159068018
 30
0.0
  0
POINT
  5
C27
330
66C
100
AcDbEntity
  8
DEFPOINTS
 62
     0
100
AcDbPoint
 10
189.9213387439068
 20
353.192159068018
 30
0.0
  0
ENDBLK
  5
677
330
66C
100
AcDbEntity
  8
0
100
AcDbBlockEnd
  0
BLOCK
  5
740
330
736
100
AcDbEntity
  8
0
100
AcDbBlockBegin
  2
*D18
 70
     1
 10
0.0
 20
0.0
 30
0.0
  3
*D18
  1

  0
LINE
  5
AFF
330
736
100
AcDbEntity
  8
SUNPOU
100
AcDbLine
 10
140.7634670668959
 20
221.5888756462776
 30
0.0
 11
140.7634670668959
 21
239.3840422562488
 31
0.0
  0
LINE
  5
B00
330
736
100
AcDbEntity
  8
SUNPOU
100
AcDbLine
 10
170.7634670668959
 20
240.3840422562488
 30
0.0
 11
170.7634670668959
 21
239.3840422562488
 31
0.0
  0
LINE
  5
B01
330
736
100
AcDbEntity
  8
SUNPOU
100
AcDbLine
 10
145.7634670668959
 20
237.3840422562488
 30
0.0
 11
165.7634670668959
 21
237.3840422562488
 31
0.0
  0
MTEXT
  5
B02
330
736
100
AcDbEntity
  8
SUNPOU
100
AcDbMText
 10
155.7634670668959
 20
232.8548416519993
 30
0.0
 40
5.0
 41
0.0
 71
     5
 72
     1
  1
\A1;600
  7
SUNPOU
 11
-1.0
 21
0.0000000000000001
 31
0.0
1001
ACAD
1000
MTEXTBEGIN
1070
    73
1070
     1
1070
    44
1040
1.0
1070
    74
1070
     0
1000
MTEXTEND
1000
MTEXTBEGIN
1070
    73
1070
     1
1070
    44
1040
1.0
1070
    74
1070
     0
1000
MTEXTEND
  0
INSERT
  5
B03
330
736
100
AcDbEntity
  8
SUNPOU
100
AcDbBlockReference
  2
_OPEN30
 10
140.7634670668959
 20
237.3840422562488
 30
0.0
 41
5.0
 42
5.0
 43
5.0
 50
180.0
  0
INSERT
  5
B04
330
736
100
AcDbEntity
  8
SUNPOU
100
AcDbBlockReference
  2
_OPEN30
 10
170.7634670668959
 20
237.3840422562488
 30
0.0
 41
5.0
 42
5.0
 43
5.0
  0
POINT
  5
B05
330
736
100
AcDbEntity
  8
DEFPOINTS
 62
     0
100
AcDbPoint
 10
140.7634670668959
 20
218.5888756462775
 30
0.0
  0
POINT
  5
B06
330
736
100
AcDbEntity
  8
DEFPOINTS
 62
     0
100
AcDbPoint
 10
170.7634670668959
 20
237.3840422562488
 30
0.0
  0
POINT
  5
B07
330
736
100
AcDbEntity
  8
DEFPOINTS
 62
     0
100
AcDbPoint
 10
170.7634670668959
 20
237.3840422562488
 30
0.0
  0
ENDBLK
  5
741
330
736
100
AcDbEntity
  8
0
100
AcDbBlockEnd
  0
BLOCK
  5
762
330
758
100
AcDbEntity
  8
0
100
AcDbBlockBegin
  2
*D19
 70
     1
 10
0.0
 20
0.0
 30
0.0
  3
*D19
  1

  0
LINE
  5
B08
330
758
100
AcDbEntity
  8
SUNPOU
100
AcDbLine
 10
173.763467066896
 20
173.9388756462775
 30
0.0
 11
185.263467066896
 21
173.9388756462775
 31
0.0
  0
LINE
  5
B09
330
758
100
AcDbEntity
  8
SUNPOU
100
AcDbLine
 10
173.7634670668966
 20
273.9388756462768
 30
0.0
 11
185.263467066896
 21
273.9388756462768
 31
0.0
  0
LINE
  5
B0A
330
758
100
AcDbEntity
  8
SUNPOU
100
AcDbLine
 10
183.263467066896
 20
178.9388756462775
 30
0.0
 11
183.263467066896
 21
268.9388756462768
 31
0.0
  0
INSERT
  5
B0B
330
758
100
AcDbEntity
  8
SUNPOU
100
AcDbBlockReference
  2
_OPEN30
 10
183.263467066896
 20
173.9388756462775
 30
0.0
 41
5.0
 42
5.0
 43
5.0
 50
270.0
  0
INSERT
  5
B0C
330
758
100
AcDbEntity
  8
SUNPOU
100
AcDbBlockReference
  2
_OPEN30
 10
183.263467066896
 20
273.9388756462768
 30
0.0
 41
5.0
 42
5.0
 43
5.0
 50
90.0
  0
MTEXT
  5
B0D
330
758
100
AcDbEntity
  8
SUNPOU
100
AcDbMText
 10
178.763467066896
 20
223.9388756462773
 30
0.0
 40
5.0
 41
0.0
 71
     5
 72
     1
  1
\A1;W
  7
SUNPOU
 11
0.0000000000000001
 21
1.0
 31
0.0
1001
ACAD
1000
MTEXTBEGIN
1070
    73
1070
     1
1070
    44
1040
1.0
1070
    74
1070
     0
1000
MTEXTEND
1000
MTEXTBEGIN
1070
    73
1070
     1
1070
    44
1040
1.0
1070
    74
1070
     0
1000
MTEXTEND
  0
POINT
  5
B0E
330
758
100
AcDbEntity
  8
DEFPOINTS
 62
     0
100
AcDbPoint
 10
170.763467066896
 20
173.9388756462775
 30
0.0
  0
POINT
  5
B0F
330
758
100
AcDbEntity
  8
DEFPOINTS
 62
     0
100
AcDbPoint
 10
170.7634670668966
 20
273.9388756462768
 30
0.0
  0
POINT
  5
B10
330
758
100
AcDbEntity
  8
DEFPOINTS
 62
     0
100
AcDbPoint
 10
183.263467066896
 20
273.9388756462768
 30
0.0
  0
ENDBLK
  5
763
330
758
100
AcDbEntity
  8
0
100
AcDbBlockEnd
  0
BLOCK
  5
77A
330
76E
100
AcDbEntity
  8
0
100
AcDbBlockBegin
  2
*D20
 70
     1
 10
0.0
 20
0.0
 30
0.0
  3
*D20
  1

  0
LINE
  5
B2B
330
76E
100
AcDbEntity
  8
SUNPOU
100
AcDbLine
 10
60.76346706689562
 20
170.9388756462778
 30
0.0
 11
60.76346706689562
 21
159.500370644922
 31
0.0
  0
LINE
  5
B2C
330
76E
100
AcDbEntity
  8
SUNPOU
100
AcDbLine
 10
70.76346706689587
 20
170.9388756462776
 30
0.0
 11
70.76346706689587
 21
159.500370644922
 31
0.0
  0
LINE
  5
B2D
330
76E
100
AcDbEntity
  8
SUNPOU
100
AcDbLine
 10
55.76346706689562
 20
161.500370644922
 30
0.0
 11
50.76346706689562
 21
161.500370644922
 31
0.0
  0
LINE
  5
B2E
330
76E
100
AcDbEntity
  8
SUNPOU
100
AcDbLine
 10
75.76346706689587
 20
161.500370644922
 30
0.0
 11
80.76346706689589
 21
161.500370644922
 31
0.0
  0
MTEXT
  5
B2F
330
76E
100
AcDbEntity
  8
SUNPOU
100
AcDbMText
 10
65.77557038859618
 20
157.0052698021276
 30
0.0
 40
5.0
 41
0.0
 71
     5
 72
     1
  1
\A1;200
  7
SUNPOU
 11
-1.0
 21
0.0000000000000001
 31
0.0
1001
ACAD
1000
MTEXTBEGIN
1070
    73
1070
     1
1070
    44
1040
1.0
1070
    74
1070
     0
1000
MTEXTEND
1000
MTEXTBEGIN
1070
    73
1070
     1
1070
    44
1040
1.0
1070
    74
1070
     0
1000
MTEXTEND
  0
LINE
  5
B30
330
76E
100
AcDbEntity
  8
SUNPOU
100
AcDbLine
 10
60.76346706689562
 20
161.500370644922
 30
0.0
 11
70.76346706689587
 21
161.500370644922
 31
0.0
  0
INSERT
  5
B31
330
76E
100
AcDbEntity
  8
SUNPOU
100
AcDbBlockReference
  2
_OPEN30
 10
60.76346706689562
 20
161.500370644922
 30
0.0
 41
5.0
 42
5.0
 43
5.0
  0
INSERT
  5
B32
330
76E
100
AcDbEntity
  8
SUNPOU
100
AcDbBlockReference
  2
_OPEN30
 10
70.76346706689587
 20
161.500370644922
 30
0.0
 41
5.0
 42
5.0
 43
5.0
 50
180.0
  0
POINT
  5
B33
330
76E
100
AcDbEntity
  8
DEFPOINTS
 62
     0
100
AcDbPoint
 10
60.76346706689562
 20
173.9388756462778
 30
0.0
  0
POINT
  5
B34
330
76E
100
AcDbEntity
  8
DEFPOINTS
 62
     0
100
AcDbPoint
 10
70.76346706689587
 20
173.9388756462776
 30
0.0
  0
POINT
  5
B35
330
76E
100
AcDbEntity
  8
DEFPOINTS
 62
     0
100
AcDbPoint
 10
70.76346706689587
 20
161.500370644922
 30
0.0
  0
ENDBLK
  5
77B
330
76E
100
AcDbEntity
  8
0
100
AcDbBlockEnd
  0
BLOCK
  5
787
330
77D
100
AcDbEntity
  8
0
100
AcDbBlockBegin
  2
*D21
 70
     1
 10
0.0
 20
0.0
 30
0.0
  3
*D21
  1

  0
LINE
  5
B11
330
77D
100
AcDbEntity
  8
SUNPOU
100
AcDbLine
 10
70.76346706689587
 20
170.9388756462776
 30
0.0
 11
70.76346706689587
 21
159.500370644922
 31
0.0
  0
LINE
  5
B12
330
77D
100
AcDbEntity
  8
SUNPOU
100
AcDbLine
 10
170.763467066896
 20
169.4388756462776
 30
0.0
 11
170.763467066896
 21
159.500370644922
 31
0.0
  0
LINE
  5
B13
330
77D
100
AcDbEntity
  8
SUNPOU
100
AcDbLine
 10
75.76346706689587
 20
161.500370644922
 30
0.0
 11
165.763467066896
 21
161.500370644922
 31
0.0
  0
MTEXT
  5
B14
330
77D
100
AcDbEntity
  8
SUNPOU
100
AcDbMText
 10
120.7634670668958
 20
156.7923701299015
 30
0.0
 40
5.0
 41
0.0
 71
     5
 72
     1
  1
\A1;H
  7
SUNPOU
 11
-1.0
 21
0.0000000000000001
 31
0.0
1001
ACAD
1000
MTEXTBEGIN
1070
    73
1070
     1
1070
    44
1040
1.0
1070
    74
1070
     0
1000
MTEXTEND
1000
MTEXTBEGIN
1070
    73
1070
     1
1070
    44
1040
1.0
1070
    74
1070
     0
1000
MTEXTEND
  0
INSERT
  5
B15
330
77D
100
AcDbEntity
  8
SUNPOU
100
AcDbBlockReference
  2
_OPEN30
 10
70.76346706689587
 20
161.500370644922
 30
0.0
 41
5.0
 42
5.0
 43
5.0
 50
180.0
  0
INSERT
  5
B16
330
77D
100
AcDbEntity
  8
SUNPOU
100
AcDbBlockReference
  2
_OPEN30
 10
170.763467066896
 20
161.500370644922
 30
0.0
 41
5.0
 42
5.0
 43
5.0
  0
POINT
  5
B17
330
77D
100
AcDbEntity
  8
DEFPOINTS
 62
     0
100
AcDbPoint
 10
70.76346706689587
 20
173.9388756462776
 30
0.0
  0
POINT
  5
B18
330
77D
100
AcDbEntity
  8
DEFPOINTS
 62
     0
100
AcDbPoint
 10
170.763467066896
 20
172.4388756462775
 30
0.0
  0
POINT
  5
B19
330
77D
100
AcDbEntity
  8
DEFPOINTS
 62
     0
100
AcDbPoint
 10
170.763467066896
 20
161.500370644922
 30
0.0
  0
ENDBLK
  5
788
330
77D
100
AcDbEntity
  8
0
100
AcDbBlockEnd
  0
ENDSEC
  0
SECTION
  2
ENTITIES
  0
LINE
  5
199
330
A
100
AcDbEntity
  8
06
100
AcDbLine
 10
70.763467066896
 20
219.8388756462775
 30
0.0
 11
170.2634670668959
 21
219.8388756462775
 31
0.0
  0
LINE
  5
19B
330
A
100
AcDbEntity
  8
06
100
AcDbLine
 10
170.2634670668959
 20
219.8388756462761
 30
0.0
 11
170.2634670668956
 21
174.1388756462761
 31
0.0
  0
LINE
  5
19C
330
A
100
AcDbEntity
  8
06
100
AcDbLine
 10
70.763467066896
 20
218.5888756462775
 30
0.0
 11
170.2634670668959
 21
218.5888756462775
 31
0.0
  0
LINE
  5
19E
330
A
100
AcDbEntity
  8
06
100
AcDbLine
 10
70.7634670668959
 20
175.3888756462775
 30
0.0
 11
170.2634670668956
 21
175.3888756462775
 31
0.0
  0
LINE
  5
19F
330
A
100
AcDbEntity
  8
06
100
AcDbLine
 10
70.7634670668959
 20
174.1388756462775
 30
0.0
 11
170.2634670668956
 21
174.1388756462775
 31
0.0
  0
LINE
  5
1A0
330
A
100
AcDbEntity
  8
06
100
AcDbLine
 10
74.513467066896
 20
218.5888756462775
 30
0.0
 11
74.51346706689576
 21
175.3888756462775
 31
0.0
  0
LINE
  5
1A1
330
A
100
AcDbEntity
  8
06
100
AcDbLine
 10
166.0134670668957
 20
218.5888756462769
 30
0.0
 11
166.0134670668956
 21
175.3888756462768
 31
0.0
  0
LINE
  5
1A2
330
A
100
AcDbEntity
  8
SAISEN
100
AcDbLine
 10
116.2634670668956
 20
194.1388756462774
 30
0.0
 11
125.2634670668957
 21
194.1388756462773
 31
0.0
  0
LINE
  5
1A3
330
A
100
AcDbEntity
  8
SAISEN
100
AcDbLine
 10
116.2634670668956
 20
194.1388756462774
 30
0.0
 11
116.2634670668956
 21
197.1388756462774
 31
0.0
  0
LINE
  5
1A4
330
A
100
AcDbEntity
  8
SAISEN
100
AcDbLine
 10
125.2634670668957
 20
194.1388756462773
 30
0.0
 11
125.2634670668957
 21
197.1388756462773
 31
0.0
  0
LINE
  5
1A5
330
A
100
AcDbEntity
  8
SAISEN
100
AcDbLine
 10
116.2634670668956
 20
197.1388756462774
 30
0.0
 11
111.7634670668955
 21
197.1388756462774
 31
0.0
  0
LINE
  5
1A6
330
A
100
AcDbEntity
  8
SAISEN
100
AcDbLine
 10
125.2634670668957
 20
197.1388756462773
 30
0.0
 11
129.7634670668958
 21
197.1388756462774
 31
0.0
  0
LINE
  5
1A7
330
A
100
AcDbEntity
  8
SAISEN
100
AcDbLine
 10
111.7634670668955
 20
197.1388756462773
 30
0.0
 11
120.7634670668957
 21
199.1388756462773
 31
0.0
  0
LINE
  5
1A8
330
A
100
AcDbEntity
  8
SAISEN
100
AcDbLine
 10
129.7634670668958
 20
197.1388756462774
 30
0.0
 11
120.7634670668957
 21
199.1388756462773
 31
0.0
  0
LINE
  5
1AA
330
A
100
AcDbEntity
  8
SAISEN
100
AcDbLine
 10
97.86507057008222
 20
260.8724582111918
 30
0.0
 11
115.6829022068574
 21
243.0546265744168
 31
0.0
  0
LINE
  5
1AB
330
A
100
AcDbEntity
  8
SAISEN
100
AcDbLine
 10
100.7634670668958
 20
255.974061714378
 30
0.0
 11
110.7634670668962
 21
245.9740617143781
 31
0.0
  0
LINE
  5
1AC
330
A
100
AcDbEntity
  8
SAISEN
100
AcDbLine
 10
102.7634670668958
 20
257.974061714378
 30
0.0
 11
112.7634670668961
 21
247.9740617143781
 31
0.0
  0
LINE
  5
1AD
330
A
100
AcDbEntity
  8
SAISEN
100
AcDbLine
 10
97.86507057008201
 20
201.2514766807615
 30
0.0
 11
115.682902206857
 21
183.4336450439865
 31
0.0
  0
LINE
  5
1AE
330
A
100
AcDbEntity
  8
SAISEN
100
AcDbLine
 10
100.7634670668956
 20
196.3530801839476
 30
0.0
 11
110.7634670668957
 21
186.3530801839478
 31
0.0
  0
LINE
  5
1AF
330
A
100
AcDbEntity
  8
SAISEN
100
AcDbLine
 10
102.7634670668956
 20
198.3530801839476
 30
0.0
 11
112.7634670668957
 21
188.3530801839478
 31
0.0
  0
LINE
  5
1B0
330
A
100
AcDbEntity
  8
SAISEN
100
AcDbLine
 10
42.23022497363407
 20
257.9858545911073
 30
0.0
 11
55.90229245567964
 21
244.3137871090619
 31
0.0
  0
LINE
  5
1B1
330
A
100
AcDbEntity
  8
SAISEN
100
AcDbLine
 10
44.51346706689601
 20
253.7026124978454
 30
0.0
 11
52.01346706689628
 21
246.2026124978454
 31
0.0
  0
LINE
  5
1B2
330
A
100
AcDbEntity
  8
SAISEN
100
AcDbLine
 10
46.51346706689593
 20
255.7026124978454
 30
0.0
 11
54.01346706689628
 21
248.2026124978454
 31
0.0
  0
LINE
  5
1B3
330
A
100
AcDbEntity
  8
SAISEN
100
AcDbLine
 10
42.23022497363398
 20
200.5703988415501
 30
0.0
 11
55.90229245567917
 21
186.898331359505
 31
0.0
  0
LINE
  5
1B4
330
A
100
AcDbEntity
  8
SAISEN
100
AcDbLine
 10
44.51346706689574
 20
196.2871567482883
 30
0.0
 11
52.01346706689583
 21
188.7871567482882
 31
0.0
  0
LINE
  5
1B5
330
A
100
AcDbEntity
  8
SAISEN
100
AcDbLine
 10
46.51346706689579
 20
198.2871567482884
 30
0.0
 11
54.01346706689583
 21
190.7871567482882
 31
0.0
  0
LINE
  5
1B6
330
A
100
AcDbEntity
  8
06
100
AcDbLine
 10
284.6852010672765
 20
312.1921590680183
 30
0.0
 11
284.6852010672766
 21
245.9421590680186
 31
0.0
  0
LINE
  5
1B7
330
A
100
AcDbEntity
  8
06
100
AcDbLine
 10
290.6852010672766
 20
312.1921590680183
 30
0.0
 11
290.6852010672766
 21
245.9421590680186
 31
0.0
  0
LINE
  5
1B8
330
A
100
AcDbEntity
  8
06
100
AcDbLine
 10
274.6852010672764
 20
319.6921590680183
 30
0.0
 11
276.9852010672765
 21
319.6921590680183
 31
0.0
  0
LINE
  5
1B9
330
A
100
AcDbEntity
  8
06
100
AcDbLine
 10
276.9852010672765
 20
319.6921590680183
 30
0.0
 11
276.9852010672767
 21
312.6921590680183
 31
0.0
  0
LINE
  5
1BA
330
A
100
AcDbEntity
  8
06
100
AcDbLine
 10
276.9852010672767
 20
312.6921590680183
 30
0.0
 11
274.6852010672765
 21
312.6921590680183
 31
0.0
  0
LINE
  5
1BB
330
A
100
AcDbEntity
  8
06
100
AcDbLine
 10
274.6852010672765
 20
312.6921590680183
 30
0.0
 11
274.6852010672764
 21
313.5069808181945
 31
0.0
  0
LINE
  5
1BC
330
A
100
AcDbEntity
  8
06
100
AcDbLine
 10
271.6852010672764
 20
313.9421590680183
 30
0.0
 11
274.1852010672764
 21
313.9421590680183
 31
0.0
  0
ARC
  5
1BD
330
A
100
AcDbEntity
  8
06
100
AcDbCircle
 10
274.1852010672764
 20
313.4421590680183
 30
0.0
 40
0.5
100
AcDbArc
 50
359.9999999999956
 51
90.00000000000023
  0
LINE
  5
1BE
330
A
100
AcDbEntity
  8
06
100
AcDbLine
 10
274.6852010672764
 20
319.6921590680183
 30
0.0
 11
274.6852010672765
 21
318.9421590680183
 31
0.0
  0
LINE
  5
1BF
330
A
100
AcDbEntity
  8
06
100
AcDbLine
 10
271.6852010672764
 20
318.4421590680183
 30
0.0
 11
274.1852010672764
 21
318.4421590680183
 31
0.0
  0
ARC
  5
1C0
330
A
100
AcDbEntity
  8
06
100
AcDbCircle
 10
274.1852010672765
 20
318.9421590680183
 30
0.0
 40
0.5
100
AcDbArc
 50
269.9999999999999
 51
0.0000000000043965
  0
LINE
  5
1C1
330
A
100
AcDbEntity
  8
06
100
AcDbLine
 10
268.6852010672765
 20
317.2039357246885
 30
0.0
 11
268.6852010672765
 21
315.2039357246885
 31
0.0
  0
LINE
  5
1C2
330
A
100
AcDbEntity
  8
06
100
AcDbLine
 10
266.6852010672765
 20
316.1965311813838
 30
0.0
 11
266.6852010672765
 21
316.2113402679938
 31
0.0
  0
LINE
  5
1C3
330
A
100
AcDbEntity
  8
06
100
AcDbLine
 10
268.6852010672765
 20
317.2039357246885
 30
0.0
 11
267.0360635707083
 21
316.688580257011
 31
0.0
  0
ARC
  5
1C4
330
A
100
AcDbEntity
  8
06
100
AcDbCircle
 10
267.1852010672765
 20
316.2113402679935
 30
0.0
 40
0.5
100
AcDbArc
 50
107.354024636263
 51
179.9999999999766
  0
LINE
  5
1C5
330
A
100
AcDbEntity
  8
06
100
AcDbLine
 10
268.6852010672765
 20
315.2039357246885
 30
0.0
 11
267.0360635707083
 21
315.7192911923662
 31
0.0
  0
ARC
  5
1C6
330
A
100
AcDbEntity
  8
06
100
AcDbCircle
 10
267.1852010672765
 20
316.1965311813837
 30
0.0
 40
0.5
100
AcDbArc
 50
179.9999999999789
 51
252.6459753637345
  0
LINE
  5
1C7
330
A
100
AcDbEntity
  8
06
100
AcDbLine
 10
267.1852010672765
 20
316.7351857246885
 30
0.0
 11
267.1852010672765
 21
315.6726857246889
 31
0.0
  0
ARC
  5
1C8
330
A
100
AcDbEntity
  8
06
100
AcDbCircle
 10
266.3053489036415
 20
308.7165308093843
 30
0.0
 40
7.5
100
AcDbArc
 50
44.16686885306776
 51
71.49945832719547
  0
ARC
  5
1C9
330
A
100
AcDbEntity
  8
06
100
AcDbCircle
 10
266.3394400046485
 20
323.7026570160546
 30
0.0
 40
7.5
100
AcDbArc
 50
288.2261310017247
 51
315.4605876000506
  0
LINE
  5
1CA
330
A
100
AcDbEntity
  8
03
100
AcDbLine
 10
235.6852010672763
 20
346.1921590680182
 30
0.0
 11
241.6852010672764
 21
346.1921590680182
 31
0.0
  0
LINE
  5
1CB
330
A
100
AcDbEntity
  8
06
100
AcDbLine
 10
290.3266484210245
 20
312.1921590680181
 30
0.0
 11
290.3266484210247
 21
245.9421590680186
 31
0.0
  0
LINE
  5
1CC
330
A
100
AcDbEntity
  8
06
100
AcDbLine
 10
272.127747735126
 20
303.6347057358677
 30
0.0
 11
273.1852010672765
 21
304.6921590680184
 31
0.0
  0
LINE
  5
1CD
330
A
100
AcDbEntity
  8
06
100
AcDbLine
 10
272.1919299577425
 20
327.6854301775522
 30
0.0
 11
273.1852010672763
 21
326.6921590680183
 31
0.0
  0
LINE
  5
1CE
330
A
100
AcDbEntity
  8
06
100
AcDbLine
 10
303.1463810655022
 20
327.653339066244
 30
0.0
 11
302.1852010672763
 21
326.6921590680183
 31
0.0
  0
LINE
  5
1CF
330
A
100
AcDbEntity
  8
06
100
AcDbLine
 10
303.1784721768103
 20
303.6988879584843
 30
0.0
 11
302.1852010672765
 21
304.6921590680184
 31
0.0
  0
ARC
  5
1E0
330
A
100
AcDbEntity
  8
06
100
AcDbCircle
 10
283.6852010672765
 20
300.3637319432721
 30
0.0
 40
3.0
100
AcDbArc
 50
70.52877936550924
 51
109.4712206344909
  0
ARC
  5
1E1
330
A
100
AcDbEntity
  8
06
100
AcDbCircle
 10
291.6852010672765
 20
300.3637319432721
 30
0.0
 40
3.0
100
AcDbArc
 50
70.52877936550955
 51
109.4712206344911
  0
LINE
  5
1E2
330
A
100
AcDbEntity
  8
06
100
AcDbLine
 10
284.6852010672765
 20
312.1921590680183
 30
0.0
 11
290.6852010672766
 21
312.1921590680183
 31
0.0
  0
LINE
  5
1E3
330
A
100
AcDbEntity
  8
06
100
AcDbLine
 10
285.1852010672765
 20
312.1921590680181
 30
0.0
 11
285.1852010672767
 21
245.9421590680186
 31
0.0
  0
LINE
  5
1E4
330
A
100
AcDbEntity
  8
03
100
AcDbLine
 10
213.7852010672763
 20
336.5921590680181
 30
0.0
 11
263.5852010672765
 21
336.5921590680183
 31
0.0
  0
ARC
  5
1E5
330
A
100
AcDbEntity
  8
03
100
AcDbCircle
 10
263.5852010672765
 20
338.1921590680183
 30
0.0
 40
1.599999999999999
100
AcDbArc
 50
269.9999999999999
 51
0.0
  0
ARC
  5
1E6
330
A
100
AcDbEntity
  8
03
100
AcDbCircle
 10
213.7852010672763
 20
338.192159068018
 30
0.0
 40
1.599999999999999
100
AcDbArc
 50
180.0000000000001
 51
269.9999999999999
  0
LINE
  5
1E7
330
A
100
AcDbEntity
  8
03
100
AcDbLine
 10
213.7852010672763
 20
351.6921590680181
 30
0.0
 11
213.7852010672763
 21
338.192159068018
 31
0.0
  0
LINE
  5
1E8
330
A
100
AcDbEntity
  8
03
100
AcDbLine
 10
263.5852010672765
 20
338.1921590680183
 30
0.0
 11
263.5852010672765
 21
351.6921590680183
 31
0.0
  0
LINE
  5
1E9
330
A
100
AcDbEntity
  8
03
100
AcDbLine
 10
213.7852010672763
 20
338.192159068018
 30
0.0
 11
263.5852010672765
 21
338.1921590680183
 31
0.0
  0
ARC
  5
1EA
330
A
100
AcDbEntity
  8
03
100
AcDbCircle
 10
244.1852010672764
 20
362.1246174335366
 30
0.0
 40
10.0
100
AcDbArc
 50
255.52248781407
 51
284.4775121859298
  0
ARC
  5
1EB
330
A
100
AcDbEntity
  8
03
100
AcDbCircle
 10
233.1852010672764
 20
362.1246174335366
 30
0.0
 40
10.0
100
AcDbArc
 50
255.52248781407
 51
284.4775121859298
  0
LINE
  5
1EC
330
A
100
AcDbEntity
  8
06
100
AcDbLine
 10
284.6852010672772
 20
175.1921590680186
 30
0.0
 11
290.6852010672772
 21
175.1921590680186
 31
0.0
  0
LINE
  5
1ED
330
A
100
AcDbEntity
  8
06
100
AcDbLine
 10
290.6852010672772
 20
175.1921590680187
 30
0.0
 11
290.6852010672769
 21
242.9421590680187
 31
0.0
  0
LINE
  5
1EE
330
A
100
AcDbEntity
  8
06
100
AcDbLine
 10
290.1852010672769
 20
242.9421590680187
 30
0.0
 11
290.1852010672772
 21
175.1921590680187
 31
0.0
  0
LINE
  5
1EF
330
A
100
AcDbEntity
  8
06
100
AcDbLine
 10
285.1852010672772
 20
175.1921590680187
 30
0.0
 11
285.1852010672771
 21
242.9421590680187
 31
0.0
  0
LINE
  5
1F0
330
A
100
AcDbEntity
  8
06
100
AcDbLine
 10
284.6852010672769
 20
242.9421590680187
 30
0.0
 11
284.6852010672772
 21
175.1921590680187
 31
0.0
  0
LINE
  5
1F1
330
A
100
AcDbEntity
  8
06
100
AcDbLine
 10
272.2219768712943
 20
185.1553832640014
 30
0.0
 11
273.1852010672771
 21
184.1921590680186
 31
0.0
  0
LINE
  5
1F2
330
A
100
AcDbEntity
  8
06
100
AcDbLine
 10
272.1863531420809
 20
161.1933111428224
 30
0.0
 11
273.1852010672771
 21
162.1921590680185
 31
0.0
  0
LINE
  5
1F3
330
A
100
AcDbEntity
  8
06
100
AcDbLine
 10
303.2199278603026
 20
161.1574322749933
 30
0.0
 11
302.1852010672773
 21
162.1921590680186
 31
0.0
  0
LINE
  5
1F4
330
A
100
AcDbEntity
  8
06
100
AcDbLine
 10
303.2199278603024
 20
185.226885861044
 30
0.0
 11
302.1852010672771
 21
184.1921590680188
 31
0.0
  0
ARC
  5
1FF
330
A
100
AcDbEntity
  8
06
100
AcDbCircle
 10
283.6852010672771
 20
188.5205861927648
 30
0.0
 40
3.0
100
AcDbArc
 50
250.5287793655109
 51
289.4712206344919
  0
ARC
  5
200
330
A
100
AcDbEntity
  8
06
100
AcDbCircle
 10
291.6852010672771
 20
188.5205861927648
 30
0.0
 40
3.0
100
AcDbArc
 50
250.5287793655104
 51
289.4712206344923
  0
LINE
  5
201
330
A
100
AcDbEntity
  8
03
100
AcDbLine
 10
235.6852010672761
 20
482.6921590680183
 30
0.0
 11
241.6852010672761
 21
482.6921590680185
 31
0.0
  0
LINE
  5
202
330
A
100
AcDbEntity
  8
03
100
AcDbLine
 10
241.6852010672761
 20
482.6921590680185
 30
0.0
 11
241.6852010672763
 21
415.9421590680181
 31
0.0
  0
LINE
  5
203
330
A
100
AcDbEntity
  8
03
100
AcDbLine
 10
235.6852010672761
 20
482.6921590680183
 30
0.0
 11
235.6852010672763
 21
415.9421590680181
 31
0.0
  0
LINE
  5
204
330
A
100
AcDbEntity
  8
03
100
AcDbLine
 10
236.1852010672762
 20
482.6921590680183
 30
0.0
 11
236.1852010672764
 21
415.9421590680181
 31
0.0
  0
LINE
  5
205
330
A
100
AcDbEntity
  8
03
100
AcDbLine
 10
241.1852010672761
 20
482.6921590680185
 30
0.0
 11
241.1852010672764
 21
415.9421590680181
 31
0.0
  0
ARC
  5
206
330
A
100
AcDbEntity
  8
03
100
AcDbCircle
 10
244.1852010672761
 20
466.7597007025001
 30
0.0
 40
10.0
100
AcDbArc
 50
75.52248781407008
 51
104.47751218593
  0
ARC
  5
207
330
A
100
AcDbEntity
  8
03
100
AcDbCircle
 10
233.1852010672761
 20
466.7597007025
 30
0.0
 40
10.0
100
AcDbArc
 50
75.52248781407008
 51
104.47751218593
  0
LINE
  5
211
330
A
100
AcDbEntity
  8
03
100
AcDbLine
 10
296.1852010672771
 20
328.1921590680183
 30
0.0
 11
296.1852010672771
 21
412.942159068018
 31
0.0
  0
LINE
  5
212
330
A
100
AcDbEntity
  8
03
100
AcDbLine
 10
296.1852010672771
 20
415.9421590680181
 30
0.0
 11
296.1852010672771
 21
475.6921590680184
 31
0.0
  0
LINE
  5
213
330
A
100
AcDbEntity
  8
03
100
AcDbLine
 10
279.1852010672771
 20
328.1921590680183
 30
0.0
 11
279.1852010672771
 21
412.942159068018
 31
0.0
  0
LINE
  5
214
330
A
100
AcDbEntity
  8
03
100
AcDbLine
 10
279.1852010672771
 20
415.9421590680181
 30
0.0
 11
279.1852010672771
 21
475.6921590680184
 31
0.0
  0
LINE
  5
218
330
A
100
AcDbEntity
  8
06
100
AcDbLine
 10
287.1546033273454
 20
156.8103613659627
 30
0.0
 11
286.5534033652213
 21
157.4115613280867
 31
0.0
  0
LINE
  5
226
330
A
100
AcDbEntity
  8
06
100
AcDbLine
 10
277.4159308948616
 20
158.7708592053943
 30
0.0
 11
277.2639012046528
 21
158.9228888956031
 31
0.0
  0
LINE
  5
232
330
A
100
AcDbEntity
  8
06
100
AcDbLine
 10
293.6915509812639
 20
158.7586950862827
 30
0.0
 11
293.6823271610453
 21
158.7679189065014
 31
0.0
  0
LINE
  5
240
330
A
100
AcDbEntity
  8
06
100
AcDbLine
 10
298.1852010672771
 20
160.6290060309486
 30
0.0
 11
298.122048030207
 21
160.6921590680187
 31
0.0
  0
LINE
  5
245
330
A
100
AcDbEntity
  8
06
100
AcDbLine
 10
280.9531502597085
 20
156.6921590680189
 30
0.0
 11
278.4890486445701
 21
156.6921590680189
 31
0.0
  0
LINE
  5
247
330
A
100
AcDbEntity
  8
06
100
AcDbLine
 10
294.4172518748459
 20
156.6921590680189
 30
0.0
 11
296.8813534899843
 21
156.6921590680188
 31
0.0
  0
LINE
  5
25B
330
A
100
AcDbEntity
  8
03
100
AcDbLine
 10
235.6852010672763
 20
346.1921590680182
 30
0.0
 11
235.685201067276
 21
412.942159068018
 31
0.0
  0
LINE
  5
25D
330
A
100
AcDbEntity
  8
03
100
AcDbLine
 10
236.1852010672762
 20
346.1921590680182
 30
0.0
 11
236.185201067276
 21
412.942159068018
 31
0.0
  0
LINE
  5
25F
330
A
100
AcDbEntity
  8
03
100
AcDbLine
 10
241.1852010672764
 20
346.1921590680182
 30
0.0
 11
241.185201067276
 21
412.942159068018
 31
0.0
  0
LINE
  5
261
330
A
100
AcDbEntity
  8
03
100
AcDbLine
 10
241.6852010672764
 20
346.1921590680183
 30
0.0
 11
241.685201067276
 21
412.942159068018
 31
0.0
  0
LINE
  5
268
330
A
100
AcDbEntity
  8
CHUSIN
100
AcDbLine
 10
140.7634670668959
 20
218.588875646277
 30
0.0
 11
140.7634670668955
 21
173.9388756462776
 31
0.0
  0
LINE
  5
269
330
A
100
AcDbEntity
  8
CHUSIN
100
AcDbLine
 10
65.76346706689534
 20
262.6921590680178
 30
0.0
 11
65.76346706689526
 21
302.1921590680178
 31
0.0
  0
LINE
  5
26A
330
A
100
AcDbEntity
  8
CHUSIN
100
AcDbLine
 10
65.76346706689529
 20
302.1921590680178
 30
0.0
 11
102.7556054316751
 21
302.1921590680178
 31
0.0
  0
LINE
  5
26B
330
A
100
AcDbEntity
  8
CHUSIN
100
AcDbLine
 10
44.83490566037727
 20
305.1921590680178
 30
0.0
 11
102.7556054316751
 21
305.1921590680178
 31
0.0
  0
LINE
  5
26C
330
A
100
AcDbEntity
  8
CHUSIN
100
AcDbLine
 10
238.6852010672771
 20
132.4653467461832
 30
0.0
 11
238.6852010672757
 21
497.3797665773425
 31
0.0
  0
LINE
  5
26D
330
A
100
AcDbEntity
  8
CHUSIN
100
AcDbLine
 10
287.6852010672773
 20
144.2116369496344
 30
0.0
 11
287.6852010672763
 21
412.942159068018
 31
0.0
  0
LINE
  5
26E
330
A
100
AcDbEntity
  8
CHUSIN
100
AcDbLine
 10
287.6852010672763
 20
415.9421590680181
 30
0.0
 11
287.6852010672761
 21
496.1317741556436
 31
0.0
  0
LINE
  5
270
330
A
100
AcDbEntity
  8
CHUSIN
100
AcDbLine
 10
228.646845816657
 20
328.8921590680182
 30
0.0
 11
248.2485229655039
 21
328.8921590680182
 31
0.0
  0
LINE
  5
271
330
A
100
AcDbEntity
  8
SOUZOU
100
AcDbLine
 10
207.6852010672768
 20
245.9421590680186
 30
0.0
 11
207.685201067276
 21
412.942159068018
 31
0.0
  0
LINE
  5
272
330
A
100
AcDbEntity
  8
SOUZOU
100
AcDbLine
 10
207.6852010672764
 20
415.9421590680181
 30
0.0
 11
207.6852010672761
 21
475.6921590680181
 31
0.0
  0
LINE
  5
273
330
A
100
AcDbEntity
  8
SOUZOU
100
AcDbLine
 10
207.6852010672768
 20
155.6921590680183
 30
0.0
 11
207.6852010672768
 21
242.9421590680187
 31
0.0
  0
LINE
  5
274
330
A
100
AcDbEntity
  8
SOUZOU
100
AcDbLine
 10
321.6852010672774
 20
155.6921590680186
 30
0.0
 11
321.6852010672774
 21
242.9421590680187
 31
0.0
  0
LINE
  5
275
330
A
100
AcDbEntity
  8
SOUZOU
100
AcDbLine
 10
321.6852010672774
 20
245.9421590680186
 30
0.0
 11
321.6852010672774
 21
412.942159068018
 31
0.0
  0
LINE
  5
276
330
A
100
AcDbEntity
  8
SOUZOU
100
AcDbLine
 10
321.6852010672774
 20
415.9421590680181
 30
0.0
 11
321.6852010672774
 21
475.6921590680186
 31
0.0
  0
LINE
  5
277
330
A
100
AcDbEntity
  8
KAKURE
100
AcDbLine
 10
266.6852010672765
 20
303.9421590680183
 30
0.0
 11
266.6852010672767
 21
245.9421590680186
 31
0.0
  0
LINE
  5
278
330
A
100
AcDbEntity
  8
KAKURE
100
AcDbLine
 10
266.6852010672764
 20
155.6921590680185
 30
0.0
 11
266.6852010672765
 21
242.9421590680187
 31
0.0
  0
LINE
  5
279
330
A
100
AcDbEntity
  8
KAKURE
100
AcDbLine
 10
266.6852010672765
 20
352.4421590680183
 30
0.0
 11
266.6852010672765
 21
412.942159068018
 31
0.0
  0
LINE
  5
27A
330
A
100
AcDbEntity
  8
KAKURE
100
AcDbLine
 10
266.6852010672765
 20
415.9421590680181
 30
0.0
 11
266.6852010672765
 21
475.6921590680183
 31
0.0
  0
CIRCLE
  5
27B
330
A
100
AcDbEntity
  8
KAKURE
100
AcDbCircle
 10
238.6852010672764
 20
328.8921590680183
 30
0.0
 40
5.0
  0
LINE
  5
27C
330
A
100
AcDbEntity
  8
KAKURE
100
AcDbLine
 10
70.26346706689571
 20
174.1388756462775
 30
0.0
 11
70.76346706689587
 21
174.1388756462775
 31
0.0
  0
LINE
  5
27D
330
A
100
AcDbEntity
  8
KAKURE
100
AcDbLine
 10
70.26346706689574
 20
175.3888756462775
 30
0.0
 11
70.7634670668959
 21
175.3888756462775
 31
0.0
  0
LINE
  5
27E
330
A
100
AcDbEntity
  8
KAKURE
100
AcDbLine
 10
70.263467066896
 20
218.5888756462775
 30
0.0
 11
70.763467066896
 21
218.5888756462775
 31
0.0
  0
LINE
  5
27F
330
A
100
AcDbEntity
  8
KAKURE
100
AcDbLine
 10
70.263467066896
 20
219.8388756462775
 30
0.0
 11
70.763467066896
 21
219.8388756462775
 31
0.0
  0
LINE
  5
280
330
A
100
AcDbEntity
  8
KAKURE
100
AcDbLine
 10
70.26346706689571
 20
174.1388756462775
 30
0.0
 11
70.263467066896
 21
219.8388756462775
 31
0.0
  0
LINE
  5
2D1
330
A
100
AcDbEntity
  8
03
100
AcDbLine
 10
33.76346706689605
 20
273.9388756462778
 30
0.0
 11
170.763467066896
 21
273.9388756462768
 31
0.0
  0
LINE
  5
2D2
330
A
100
AcDbEntity
  8
03
100
AcDbLine
 10
170.7634670668963
 20
299.5846614944176
 30
0.0
 11
170.7634670668953
 21
128.0771503390855
 31
0.0
  0
LINE
  5
2D3
330
A
100
AcDbEntity
  8
03
100
AcDbLine
 10
70.76346706689609
 20
273.9388756462775
 30
0.0
 11
70.76346706689587
 21
173.9388756462776
 31
0.0
  0
LINE
  5
2D4
330
A
100
AcDbEntity
  8
03
100
AcDbLine
 10
60.76346706689609
 20
273.9388756462777
 30
0.0
 11
60.76346706689562
 21
173.9388756462778
 31
0.0
  0
LINE
  5
2D5
330
A
100
AcDbEntity
  8
03
100
AcDbLine
 10
35.76346706689605
 20
273.9388756462778
 30
0.0
 11
35.7634670668956
 21
173.9388756462778
 31
0.0
  0
LINE
  5
2D6
330
A
100
AcDbEntity
  8
03
100
AcDbLine
 10
33.76346706689605
 20
275.9388756462778
 30
0.0
 11
170.763467066896
 21
275.9388756462768
 31
0.0
  0
LINE
  5
2D7
330
A
100
AcDbEntity
  8
03
100
AcDbLine
 10
33.76346706689605
 20
275.9388756462778
 30
0.0
 11
33.76346706689565
 21
172.4388756462778
 31
0.0
  0
LINE
  5
2D8
330
A
100
AcDbEntity
  8
SAISEN
100
AcDbLine
 10
102.7556054316751
 20
301.1893178127426
 30
0.0
 11
102.7556054316751
 21
306.1921590680178
 31
0.0
  0
LINE
  5
2D9
330
A
100
AcDbEntity
  8
SAISEN
100
AcDbLine
 10
112.755605431675
 20
301.1893178127428
 30
0.0
 11
112.755605431675
 21
306.1921590680179
 31
0.0
  0
LINE
  5
2DA
330
A
100
AcDbEntity
  8
SAISEN
100
AcDbLine
 10
102.7556054316751
 20
301.1893178127426
 30
0.0
 11
112.755605431675
 21
301.1893178127428
 31
0.0
  0
LINE
  5
2DB
330
A
100
AcDbEntity
  8
SAISEN
100
AcDbLine
 10
102.7556054316751
 20
306.1921590680178
 30
0.0
 11
112.755605431675
 21
306.1921590680179
 31
0.0
  0
LINE
  5
2DC
330
A
100
AcDbEntity
  8
03
100
AcDbLine
 10
205.435201067276
 20
505.6921590680182
 30
0.0
 11
219.685201067276
 21
505.6921590680182
 31
0.0
  0
LINE
  5
2DD
330
A
100
AcDbEntity
  8
03
100
AcDbLine
 10
309.6852010672761
 20
505.6921590680186
 30
0.0
 11
323.9352010672762
 21
505.6921590680186
 31
0.0
  0
LINE
  5
2DE
330
A
100
AcDbEntity
  8
03
100
AcDbLine
 10
205.4352010672761
 20
475.6921590680181
 30
0.0
 11
229.9352010672762
 21
475.6921590680183
 31
0.0
  0
LINE
  5
2DF
330
A
100
AcDbEntity
  8
03
100
AcDbLine
 10
247.4352010672761
 20
475.6921590680183
 30
0.0
 11
323.9352010672762
 21
475.6921590680186
 31
0.0
  0
LINE
  5
2E0
330
A
100
AcDbEntity
  8
03
100
AcDbLine
 10
204.6852010672761
 20
476.442159068018
 30
0.0
 11
204.685201067276
 21
504.942159068018
 31
0.0
  0
ARC
  5
2E1
330
A
100
AcDbEntity
  8
03
100
AcDbCircle
 10
205.435201067276
 20
504.942159068018
 30
0.0
 40
0.75
100
AcDbArc
 50
90.00000000000021
 51
180.0000000000001
  0
ARC
  5
2E2
330
A
100
AcDbEntity
  8
03
100
AcDbCircle
 10
205.4352010672761
 20
476.442159068018
 30
0.0
 40
0.75
100
AcDbArc
 50
180.0000000000001
 51
269.9999999999999
  0
LINE
  5
2E3
330
A
100
AcDbEntity
  8
03
100
AcDbLine
 10
324.6852010672761
 20
476.4421590680187
 30
0.0
 11
324.6852010672761
 21
504.9421590680187
 31
0.0
  0
LINE
  5
2E4
330
A
100
AcDbEntity
  8
03
100
AcDbLine
 10
324.6852010672761
 20
476.4421590680187
 30
0.0
 11
324.6852010672761
 21
504.9421590680187
 31
0.0
  0
ARC
  5
2E5
330
A
100
AcDbEntity
  8
03
100
AcDbCircle
 10
323.9352010672762
 20
504.9421590680187
 30
0.0
 40
0.75
100
AcDbArc
 50
0.0000000000000241
 51
90.00000000000021
  0
ARC
  5
2E6
330
A
100
AcDbEntity
  8
03
100
AcDbCircle
 10
323.9352010672762
 20
476.4421590680187
 30
0.0
 40
0.75
100
AcDbArc
 50
269.9999999999999
 51
0.0000000000000799
  0
LINE
  5
2E7
330
A
100
AcDbEntity
  8
03
100
AcDbLine
 10
230.685201067276
 20
490.6921590680183
 30
0.0
 11
246.6852010672762
 21
490.6921590680183
 31
0.0
  0
LINE
  5
2E8
330
A
100
AcDbEntity
  8
03
100
AcDbLine
 10
230.6852010672761
 20
476.4421590680183
 30
0.0
 11
230.685201067276
 21
490.6921590680183
 31
0.0
  0
ARC
  5
2E9
330
A
100
AcDbEntity
  8
03
100
AcDbCircle
 10
229.9352010672762
 20
476.4421590680183
 30
0.0
 40
0.75
100
AcDbArc
 50
269.9999999999999
 51
0.0
  0
LINE
  5
2EA
330
A
100
AcDbEntity
  8
03
100
AcDbLine
 10
246.6852010672762
 20
476.4421590680183
 30
0.0
 11
246.6852010672762
 21
490.6921590680183
 31
0.0
  0
ARC
  5
2EB
330
A
100
AcDbEntity
  8
03
100
AcDbCircle
 10
247.4352010672761
 20
476.4421590680183
 30
0.0
 40
0.75
100
AcDbArc
 50
180.0000000000004
 51
269.9999999999999
  0
LINE
  5
2EC
330
A
100
AcDbEntity
  8
03
100
AcDbLine
 10
248.1852010672761
 20
477.1921590680183
 30
0.0
 11
323.1852010672761
 21
477.1921590680186
 31
0.0
  0
LINE
  5
2ED
330
A
100
AcDbEntity
  8
03
100
AcDbLine
 10
323.1852010672761
 20
477.1921590680186
 30
0.0
 11
323.1852010672761
 21
504.1921590680185
 31
0.0
  0
LINE
  5
2EE
330
A
100
AcDbEntity
  8
03
100
AcDbLine
 10
206.185201067276
 20
504.1921590680181
 30
0.0
 11
219.685201067276
 21
504.1921590680183
 31
0.0
  0
LINE
  5
2EF
330
A
100
AcDbEntity
  8
03
100
AcDbLine
 10
309.6852010672761
 20
504.1921590680186
 30
0.0
 11
323.1852010672761
 21
504.1921590680185
 31
0.0
  0
LINE
  5
2F0
330
A
100
AcDbEntity
  8
03
100
AcDbLine
 10
206.1852010672761
 20
477.1921590680181
 30
0.0
 11
206.185201067276
 21
504.1921590680181
 31
0.0
  0
LINE
  5
2F1
330
A
100
AcDbEntity
  8
03
100
AcDbLine
 10
206.1852010672761
 20
477.1921590680181
 30
0.0
 11
229.185201067276
 21
477.1921590680183
 31
0.0
  0
LINE
  5
2F2
330
A
100
AcDbEntity
  8
03
100
AcDbLine
 10
229.1852010672761
 20
477.1921590680183
 30
0.0
 11
229.185201067276
 21
491.4421590680183
 31
0.0
  0
LINE
  5
2F3
330
A
100
AcDbEntity
  8
03
100
AcDbLine
 10
229.935201067276
 20
492.1921590680183
 30
0.0
 11
247.435201067276
 21
492.1921590680183
 31
0.0
  0
ARC
  5
2F4
330
A
100
AcDbEntity
  8
03
100
AcDbCircle
 10
229.935201067276
 20
491.4421590680183
 30
0.0
 40
0.75
100
AcDbArc
 50
90.00000000000021
 51
180.0000000000001
  0
LINE
  5
2F5
330
A
100
AcDbEntity
  8
03
100
AcDbLine
 10
248.1852010672761
 20
477.1921590680183
 30
0.0
 11
248.185201067276
 21
491.4421590680183
 31
0.0
  0
ARC
  5
2F6
330
A
100
AcDbEntity
  8
03
100
AcDbCircle
 10
247.435201067276
 20
491.4421590680183
 30
0.0
 40
0.75
100
AcDbArc
 50
0.0000000000001768
 51
90.00000000000021
  0
LINE
  5
2F7
330
A
100
AcDbEntity
  8
03
100
AcDbLine
 10
219.685201067276
 20
504.1921590680183
 30
0.0
 11
219.685201067276
 21
505.6921590680182
 31
0.0
  0
LINE
  5
2F8
330
A
100
AcDbEntity
  8
03
100
AcDbLine
 10
309.6852010672761
 20
504.1921590680186
 30
0.0
 11
309.6852010672761
 21
505.6921590680186
 31
0.0
  0
LINE
  5
2F9
330
A
100
AcDbEntity
  8
06
100
AcDbLine
 10
273.6852010672768
 20
245.9421590680186
 30
0.0
 11
273.6852010672765
 21
303.1921590680183
 31
0.0
  0
LINE
  5
2FA
330
A
100
AcDbEntity
  8
06
100
AcDbLine
 10
301.6852010672768
 20
245.9421590680186
 30
0.0
 11
301.6852010672765
 21
303.1921590680183
 31
0.0
  0
LINE
  5
2FB
330
A
100
AcDbEntity
  8
06
100
AcDbLine
 10
273.6852010672772
 20
185.6921590680187
 30
0.0
 11
273.6852010672769
 21
242.9421590680187
 31
0.0
  0
LINE
  5
2FC
330
A
100
AcDbEntity
  8
06
100
AcDbLine
 10
301.6852010672772
 20
185.6921590680188
 30
0.0
 11
301.6852010672771
 21
242.9421590680187
 31
0.0
  0
LINE
  5
2FD
330
A
100
AcDbEntity
  8
03
100
AcDbLine
 10
205.4352010672773
 20
125.6921590680184
 30
0.0
 11
219.6852010672774
 21
125.6921590680184
 31
0.0
  0
LINE
  5
2FE
330
A
100
AcDbEntity
  8
03
100
AcDbLine
 10
309.6852010672773
 20
125.6921590680184
 30
0.0
 11
323.9352010672774
 21
125.6921590680184
 31
0.0
  0
LINE
  5
2FF
330
A
100
AcDbEntity
  8
03
100
AcDbLine
 10
205.4352010672773
 20
155.6921590680185
 30
0.0
 11
232.6852010672769
 21
155.6921590680185
 31
0.0
  0
LINE
  5
300
330
A
100
AcDbEntity
  8
03
100
AcDbLine
 10
204.6852010672772
 20
154.9421590680183
 30
0.0
 11
204.6852010672774
 21
126.4421590680184
 31
0.0
  0
ARC
  5
301
330
A
100
AcDbEntity
  8
03
100
AcDbCircle
 10
205.4352010672773
 20
126.4421590680184
 30
0.0
 40
0.75
100
AcDbArc
 50
180.0000000000001
 51
269.9999999999999
  0
ARC
  5
302
330
A
100
AcDbEntity
  8
03
100
AcDbCircle
 10
205.4352010672773
 20
154.9421590680183
 30
0.0
 40
0.75
100
AcDbArc
 50
90.00000000000019
 51
180.0000000000001
  0
LINE
  5
303
330
A
100
AcDbEntity
  8
03
100
AcDbLine
 10
324.6852010672773
 20
154.9421590680185
 30
0.0
 11
324.6852010672773
 21
126.4421590680184
 31
0.0
  0
LINE
  5
304
330
A
100
AcDbEntity
  8
03
100
AcDbLine
 10
324.6852010672773
 20
154.9421590680185
 30
0.0
 11
324.6852010672775
 21
126.4421590680184
 31
0.0
  0
ARC
  5
305
330
A
100
AcDbEntity
  8
03
100
AcDbCircle
 10
323.9352010672774
 20
126.4421590680184
 30
0.0
 40
0.75
100
AcDbArc
 50
269.9999999999999
 51
0.0000000000000799
  0
ARC
  5
306
330
A
100
AcDbEntity
  8
03
100
AcDbCircle
 10
323.9352010672774
 20
154.9421590680185
 30
0.0
 40
0.75
100
AcDbArc
 50
0.0000000000000241
 51
90.00000000000019
  0
LINE
  5
307
330
A
100
AcDbEntity
  8
03
100
AcDbLine
 10
206.1852010672772
 20
154.1921590680185
 30
0.0
 11
232.6852010672769
 21
154.1921590680185
 31
0.0
  0
LINE
  5
308
330
A
100
AcDbEntity
  8
03
100
AcDbLine
 10
323.1852010672773
 20
154.1921590680185
 30
0.0
 11
323.1852010672773
 21
127.1921590680185
 31
0.0
  0
LINE
  5
309
330
A
100
AcDbEntity
  8
03
100
AcDbLine
 10
206.1852010672774
 20
127.1921590680183
 30
0.0
 11
219.6852010672774
 21
127.1921590680183
 31
0.0
  0
LINE
  5
30A
330
A
100
AcDbEntity
  8
03
100
AcDbLine
 10
309.6852010672773
 20
127.1921590680185
 30
0.0
 11
323.1852010672775
 21
127.1921590680185
 31
0.0
  0
LINE
  5
30B
330
A
100
AcDbEntity
  8
03
100
AcDbLine
 10
206.1852010672772
 20
154.1921590680183
 30
0.0
 11
206.1852010672774
 21
127.1921590680183
 31
0.0
  0
LINE
  5
30C
330
A
100
AcDbEntity
  8
03
100
AcDbLine
 10
219.6852010672774
 20
127.1921590680183
 30
0.0
 11
219.6852010672774
 21
125.6921590680184
 31
0.0
  0
LINE
  5
30D
330
A
100
AcDbEntity
  8
03
100
AcDbLine
 10
309.6852010672773
 20
127.1921590680185
 30
0.0
 11
309.6852010672773
 21
125.6921590680184
 31
0.0
  0
LINE
  5
30E
330
A
100
AcDbEntity
  8
03
100
AcDbLine
 10
166.0134670668959
 20
221.0888756462775
 30
0.0
 11
166.013467066896
 21
273.9388756462778
 31
0.0
  0
LINE
  5
30F
330
A
100
AcDbEntity
  8
03
100
AcDbLine
 10
33.7634670668959
 20
173.9388756462778
 30
0.0
 11
170.763467066896
 21
173.9388756462775
 31
0.0
  0
LINE
  5
310
330
A
100
AcDbEntity
  8
03
100
AcDbLine
 10
33.7634670668959
 20
172.4388756462778
 30
0.0
 11
170.763467066896
 21
172.4388756462775
 31
0.0
  0
LINE
  5
311
330
A
100
AcDbEntity
  8
03
100
AcDbLine
 10
70.76346706689597
 20
221.0888756462775
 30
0.0
 11
170.7634670668958
 21
221.0888756462775
 31
0.0
  0
LINE
  5
313
330
A
100
AcDbEntity
  8
KAKURE
100
AcDbLine
 10
209.685201067276
 20
502.5921590680182
 30
0.0
 11
319.6852010672762
 21
502.5921590680185
 31
0.0
  0
LINE
  5
314
330
A
100
AcDbEntity
  8
KAKURE
100
AcDbLine
 10
209.685201067276
 20
502.5921590680182
 30
0.0
 11
209.685201067276
 21
504.1921590680182
 31
0.0
  0
LINE
  5
315
330
A
100
AcDbEntity
  8
KAKURE
100
AcDbLine
 10
319.6852010672762
 20
502.5921590680185
 30
0.0
 11
319.6852010672761
 21
504.1921590680186
 31
0.0
  0
LINE
  5
316
330
A
100
AcDbEntity
  8
KAKURE
100
AcDbLine
 10
219.685201067276
 20
504.1921590680183
 30
0.0
 11
309.6852010672761
 21
504.1921590680186
 31
0.0
  0
LINE
  5
317
330
A
100
AcDbEntity
  8
KAKURE
100
AcDbLine
 10
209.6852010672773
 20
128.7921590680184
 30
0.0
 11
319.6852010672774
 21
128.7921590680182
 31
0.0
  0
LINE
  5
318
330
A
100
AcDbEntity
  8
KAKURE
100
AcDbLine
 10
209.6852010672773
 20
128.7921590680184
 30
0.0
 11
209.6852010672773
 21
127.1921590680183
 31
0.0
  0
LINE
  5
319
330
A
100
AcDbEntity
  8
KAKURE
100
AcDbLine
 10
319.6852010672774
 20
128.7921590680182
 30
0.0
 11
319.6852010672774
 21
127.1921590680183
 31
0.0
  0
LINE
  5
31A
330
A
100
AcDbEntity
  8
KAKURE
100
AcDbLine
 10
219.6852010672774
 20
127.1921590680183
 30
0.0
 11
309.6852010672773
 21
127.1921590680185
 31
0.0
  0
LINE
  5
31B
330
A
100
AcDbEntity
  8
06
100
AcDbLine
 10
282.6852010672765
 20
303.1921590680183
 30
0.0
 11
271.6852010672765
 21
303.1921590680183
 31
0.0
  0
LINE
  5
31C
330
A
100
AcDbEntity
  8
06
100
AcDbLine
 10
271.6852010672765
 20
303.1921590680183
 30
0.0
 11
271.6852010672764
 21
313.6921590680183
 31
0.0
  0
LINE
  5
31D
330
A
100
AcDbEntity
  8
06
100
AcDbLine
 10
271.6852010672764
 20
318.6921590680183
 30
0.0
 11
271.6852010672764
 21
328.1921590680183
 31
0.0
  0
LINE
  5
31E
330
A
100
AcDbEntity
  8
06
100
AcDbLine
 10
271.6852010672764
 20
328.1921590680183
 30
0.0
 11
303.6852010672764
 21
328.1921590680183
 31
0.0
  0
LINE
  5
31F
330
A
100
AcDbEntity
  8
06
100
AcDbLine
 10
303.6852010672764
 20
328.1921590680183
 30
0.0
 11
303.6852010672765
 21
303.1921590680183
 31
0.0
  0
LINE
  5
320
330
A
100
AcDbEntity
  8
06
100
AcDbLine
 10
303.6852010672765
 20
303.1921590680183
 30
0.0
 11
292.6852010672765
 21
303.1921590680183
 31
0.0
  0
LINE
  5
321
330
A
100
AcDbEntity
  8
06
100
AcDbLine
 10
282.6852010672766
 20
304.6921590680184
 30
0.0
 11
273.1852010672765
 21
304.6921590680184
 31
0.0
  0
LINE
  5
322
330
A
100
AcDbEntity
  8
06
100
AcDbLine
 10
273.1852010672765
 20
304.6921590680184
 30
0.0
 11
273.1852010672763
 21
313.6921590680183
 31
0.0
  0
LINE
  5
323
330
A
100
AcDbEntity
  8
06
100
AcDbLine
 10
273.1852010672763
 20
318.6921590680183
 30
0.0
 11
273.1852010672763
 21
326.6921590680183
 31
0.0
  0
LINE
  5
324
330
A
100
AcDbEntity
  8
06
100
AcDbLine
 10
273.1852010672763
 20
326.6921590680183
 30
0.0
 11
302.1852010672763
 21
326.6921590680183
 31
0.0
  0
LINE
  5
325
330
A
100
AcDbEntity
  8
06
100
AcDbLine
 10
302.1852010672763
 20
326.6921590680183
 30
0.0
 11
302.1852010672765
 21
304.6921590680184
 31
0.0
  0
LINE
  5
326
330
A
100
AcDbEntity
  8
06
100
AcDbLine
 10
302.1852010672765
 20
304.6921590680184
 30
0.0
 11
292.6852010672766
 21
304.6921590680184
 31
0.0
  0
LINE
  5
327
330
A
100
AcDbEntity
  8
06
100
AcDbLine
 10
292.6852010672765
 20
303.1921590680183
 30
0.0
 11
292.6852010672765
 21
304.6921590680184
 31
0.0
  0
LINE
  5
328
330
A
100
AcDbEntity
  8
06
100
AcDbLine
 10
282.6852010672765
 20
303.1921590680183
 30
0.0
 11
282.6852010672766
 21
304.6921590680184
 31
0.0
  0
LINE
  5
329
330
A
100
AcDbEntity
  8
06
100
AcDbLine
 10
271.6852010672764
 20
318.6921590680183
 30
0.0
 11
273.1852010672763
 21
318.6921590680183
 31
0.0
  0
LINE
  5
32E
330
A
100
AcDbEntity
  8
06
100
AcDbLine
 10
273.1852010672763
 20
313.6921590680183
 30
0.0
 11
271.6852010672764
 21
313.6921590680183
 31
0.0
  0
LINE
  5
330
330
A
100
AcDbEntity
  8
03
100
AcDbLine
 10
212.1852010672764
 20
351.692159068018
 30
0.0
 11
229.1852010672764
 21
351.6921590680182
 31
0.0
  0
LINE
  5
331
330
A
100
AcDbEntity
  8
03
100
AcDbLine
 10
211.4352010672764
 20
353.192159068018
 30
0.0
 11
229.9352010672764
 21
353.1921590680182
 31
0.0
  0
LINE
  5
332
330
A
100
AcDbEntity
  8
03
100
AcDbLine
 10
266.6852010672763
 20
352.4421590680183
 30
0.0
 11
266.6852010672765
 21
303.9421590680183
 31
0.0
  0
ARC
  5
334
330
A
100
AcDbEntity
  8
03
100
AcDbCircle
 10
265.9352010672765
 20
303.9421590680183
 30
0.0
 40
0.75
100
AcDbArc
 50
269.9999999999999
 51
0.0
  0
LINE
  5
335
330
A
100
AcDbEntity
  8
03
100
AcDbLine
 10
212.1852010672764
 20
304.692159068018
 30
0.0
 11
232.6852010672765
 21
304.6921590680182
 31
0.0
  0
LINE
  5
336
330
A
100
AcDbEntity
  8
03
100
AcDbLine
 10
265.1852010672765
 20
304.6921590680183
 30
0.0
 11
265.1852010672762
 21
351.6921590680183
 31
0.0
  0
LINE
  5
337
330
A
100
AcDbEntity
  8
03
100
AcDbLine
 10
265.1852010672764
 20
351.6921590680183
 30
0.0
 11
248.1852010672763
 21
351.6921590680182
 31
0.0
  0
LINE
  5
338
330
A
100
AcDbEntity
  8
03
100
AcDbLine
 10
247.4352010672764
 20
353.1921590680182
 30
0.0
 11
265.9352010672764
 21
353.1921590680183
 31
0.0
  0
ARC
  5
339
330
A
100
AcDbEntity
  8
03
100
AcDbCircle
 10
265.9352010672764
 20
352.4421590680183
 30
0.0
 40
0.75
100
AcDbArc
 50
0.0000000000000241
 51
90.00000000000021
  0
LINE
  5
33A
330
A
100
AcDbEntity
  8
03
100
AcDbLine
 10
210.6852010672763
 20
352.4421590680181
 30
0.0
 11
210.6852010672764
 21
303.9421590680181
 31
0.0
  0
ARC
  5
33B
330
A
100
AcDbEntity
  8
03
100
AcDbCircle
 10
211.4352010672765
 20
303.9421590680181
 30
0.0
 40
0.75
100
AcDbArc
 50
180.0000000000001
 51
269.9999999999999
  0
ARC
  5
33C
330
A
100
AcDbEntity
  8
03
100
AcDbCircle
 10
211.4352010672764
 20
352.4421590680181
 30
0.0
 40
0.75
100
AcDbArc
 50
90.00000000000021
 51
180.0000000000001
  0
LINE
  5
33D
330
A
100
AcDbEntity
  8
03
100
AcDbLine
 10
212.1852010672763
 20
351.692159068018
 30
0.0
 11
212.1852010672764
 21
304.692159068018
 31
0.0
  0
LINE
  5
33E
330
A
100
AcDbEntity
  8
03
100
AcDbLine
 10
230.6852010672764
 20
338.1921590680182
 30
0.0
 11
230.6852010672764
 21
352.4421590680182
 31
0.0
  0
ARC
  5
33F
330
A
100
AcDbEntity
  8
03
100
AcDbCircle
 10
229.9352010672764
 20
352.4421590680182
 30
0.0
 40
0.75
100
AcDbArc
 50
0.0000000000000241
 51
90.00000000000021
  0
LINE
  5
340
330
A
100
AcDbEntity
  8
03
100
AcDbLine
 10
246.6852010672764
 20
338.1921590680182
 30
0.0
 11
246.6852010672764
 21
352.4421590680182
 31
0.0
  0
ARC
  5
341
330
A
100
AcDbEntity
  8
03
100
AcDbCircle
 10
247.4352010672764
 20
352.4421590680182
 30
0.0
 40
0.75
100
AcDbArc
 50
90.00000000000021
 51
180.0000000000001
  0
LINE
  5
342
330
A
100
AcDbEntity
  8
03
100
AcDbLine
 10
248.1852010672763
 20
338.1921590680182
 30
0.0
 11
248.1852010672763
 21
351.6921590680182
 31
0.0
  0
LINE
  5
343
330
A
100
AcDbEntity
  8
03
100
AcDbLine
 10
229.1852010672764
 20
338.1921590680182
 30
0.0
 11
229.1852010672764
 21
351.6921590680182
 31
0.0
  0
LINE
  5
344
330
A
100
AcDbEntity
  8
03
100
AcDbLine
 10
218.6852010672763
 20
353.1921590680182
 30
0.0
 11
218.685201067276
 21
412.942159068018
 31
0.0
  0
LINE
  5
345
330
A
100
AcDbEntity
  8
03
100
AcDbLine
 10
218.6852010672764
 20
415.9421590680181
 30
0.0
 11
218.6852010672761
 21
475.6921590680183
 31
0.0
  0
LINE
  5
346
330
A
100
AcDbEntity
  8
03
100
AcDbLine
 10
258.6852010672763
 20
353.1921590680183
 30
0.0
 11
258.685201067276
 21
412.942159068018
 31
0.0
  0
LINE
  5
347
330
A
100
AcDbEntity
  8
03
100
AcDbLine
 10
258.6852010672763
 20
415.9421590680181
 30
0.0
 11
258.685201067276
 21
475.6921590680183
 31
0.0
  0
LINE
  5
348
330
A
100
AcDbEntity
  8
06
100
AcDbLine
 10
294.6852010672774
 20
160.6921590680187
 30
0.0
 11
303.6852010672773
 21
160.6921590680188
 31
0.0
  0
LINE
  5
349
330
A
100
AcDbEntity
  8
06
100
AcDbLine
 10
303.6852010672773
 20
160.6921590680188
 30
0.0
 11
303.6852010672772
 21
185.6921590680188
 31
0.0
  0
LINE
  5
34A
330
A
100
AcDbEntity
  8
06
100
AcDbLine
 10
303.6852010672772
 20
185.6921590680188
 30
0.0
 11
292.6852010672772
 21
185.6921590680187
 31
0.0
  0
LINE
  5
34B
330
A
100
AcDbEntity
  8
06
100
AcDbLine
 10
282.6852010672772
 20
185.6921590680187
 30
0.0
 11
271.6852010672772
 21
185.6921590680187
 31
0.0
  0
LINE
  5
34C
330
A
100
AcDbEntity
  8
06
100
AcDbLine
 10
271.6852010672772
 20
185.6921590680187
 30
0.0
 11
271.6852010672773
 21
160.6921590680187
 31
0.0
  0
LINE
  5
34D
330
A
100
AcDbEntity
  8
06
100
AcDbLine
 10
271.6852010672773
 20
160.6921590680187
 30
0.0
 11
280.6852010672773
 21
160.6921590680187
 31
0.0
  0
LINE
  5
34E
330
A
100
AcDbEntity
  8
06
100
AcDbLine
 10
280.6852010672773
 20
160.6921590680187
 30
0.0
 11
280.6852010672773
 21
162.1921590680186
 31
0.0
  0
LINE
  5
34F
330
A
100
AcDbEntity
  8
06
100
AcDbLine
 10
280.6852010672773
 20
162.1921590680186
 30
0.0
 11
273.1852010672773
 21
162.1921590680186
 31
0.0
  0
LINE
  5
350
330
A
100
AcDbEntity
  8
06
100
AcDbLine
 10
273.1852010672773
 20
162.1921590680186
 30
0.0
 11
273.1852010672771
 21
184.1921590680186
 31
0.0
  0
LINE
  5
351
330
A
100
AcDbEntity
  8
06
100
AcDbLine
 10
273.1852010672771
 20
184.1921590680186
 30
0.0
 11
282.6852010672772
 21
184.1921590680186
 31
0.0
  0
LINE
  5
352
330
A
100
AcDbEntity
  8
06
100
AcDbLine
 10
292.6852010672772
 20
184.1921590680186
 30
0.0
 11
302.1852010672771
 21
184.1921590680188
 31
0.0
  0
LINE
  5
353
330
A
100
AcDbEntity
  8
06
100
AcDbLine
 10
302.1852010672771
 20
184.1921590680188
 30
0.0
 11
302.1852010672773
 21
162.1921590680186
 31
0.0
  0
LINE
  5
354
330
A
100
AcDbEntity
  8
06
100
AcDbLine
 10
302.1852010672773
 20
162.1921590680186
 30
0.0
 11
294.6852010672773
 21
162.1921590680186
 31
0.0
  0
LINE
  5
355
330
A
100
AcDbEntity
  8
06
100
AcDbLine
 10
294.6852010672773
 20
162.1921590680186
 30
0.0
 11
294.6852010672774
 21
160.6921590680187
 31
0.0
  0
LINE
  5
35D
330
A
100
AcDbEntity
  8
06
100
AcDbLine
 10
282.6852010672773
 20
185.6921590680187
 30
0.0
 11
282.6852010672773
 21
184.1921590680186
 31
0.0
  0
LINE
  5
35E
330
A
100
AcDbEntity
  8
06
100
AcDbLine
 10
292.6852010672773
 20
185.6921590680187
 30
0.0
 11
292.6852010672773
 21
184.1921590680186
 31
0.0
  0
LINE
  5
35F
330
A
100
AcDbEntity
  8
04
100
AcDbLine
 10
232.6852010672769
 20
157.6921590680185
 30
0.0
 11
231.185201067277
 21
156.6921590680185
 31
0.0
  0
LINE
  5
360
330
A
100
AcDbEntity
  8
04
100
AcDbLine
 10
244.685201067277
 20
157.6921590680185
 30
0.0
 11
246.185201067277
 21
156.6921590680185
 31
0.0
  0
LINE
  5
361
330
A
100
AcDbEntity
  8
04
100
AcDbLine
 10
244.685201067277
 20
141.6921590680185
 30
0.0
 11
232.6852010672769
 21
141.6921590680185
 31
0.0
  0
LINE
  5
362
330
A
100
AcDbEntity
  8
04
100
AcDbLine
 10
231.185201067277
 20
155.6921590680185
 30
0.0
 11
231.185201067277
 21
156.6921590680185
 31
0.0
  0
LINE
  5
363
330
A
100
AcDbEntity
  8
04
100
AcDbLine
 10
232.6852010672769
 20
157.6921590680185
 30
0.0
 11
244.685201067277
 21
157.6921590680185
 31
0.0
  0
LINE
  5
364
330
A
100
AcDbEntity
  8
04
100
AcDbLine
 10
246.185201067277
 20
156.6921590680185
 30
0.0
 11
246.185201067277
 21
155.6921590680185
 31
0.0
  0
LINE
  5
365
330
A
100
AcDbEntity
  8
04
100
AcDbLine
 10
231.185201067277
 20
155.6921590680185
 30
0.0
 11
246.185201067277
 21
155.6921590680185
 31
0.0
  0
LINE
  5
367
330
A
100
AcDbEntity
  8
04
100
AcDbLine
 10
232.6852010672769
 20
141.6921590680185
 30
0.0
 11
232.6852010672769
 21
148.6921590680185
 31
0.0
  0
LINE
  5
368
330
A
100
AcDbEntity
  8
04
100
AcDbLine
 10
244.685201067277
 20
148.6921590680185
 30
0.0
 11
244.685201067277
 21
141.6921590680185
 31
0.0
  0
LINE
  5
369
330
A
100
AcDbEntity
  8
04
100
AcDbLine
 10
231.185201067277
 20
154.6921590680185
 30
0.0
 11
231.185201067277
 21
152.1921590680185
 31
0.0
  0
LINE
  5
36B
330
A
100
AcDbEntity
  8
04
100
AcDbLine
 10
232.6852010672769
 20
148.6921590680185
 30
0.0
 11
231.185201067277
 21
152.1921590680185
 31
0.0
  0
LINE
  5
36C
330
A
100
AcDbEntity
  8
04
100
AcDbLine
 10
246.185201067277
 20
154.6921590680185
 30
0.0
 11
246.185201067277
 21
152.1921590680185
 31
0.0
  0
LINE
  5
36D
330
A
100
AcDbEntity
  8
04
100
AcDbLine
 10
244.685201067277
 20
148.6921590680185
 30
0.0
 11
246.185201067277
 21
152.1921590680185
 31
0.0
  0
LINE
  5
36E
330
A
100
AcDbEntity
  8
04
100
AcDbLine
 10
233.685201067277
 20
155.6921590680185
 30
0.0
 11
233.685201067277
 21
150.6921590680185
 31
0.0
  0
LINE
  5
36F
330
A
100
AcDbEntity
  8
04
100
AcDbLine
 10
243.685201067277
 20
155.6921590680185
 30
0.0
 11
243.685201067277
 21
150.6921590680185
 31
0.0
  0
LINE
  5
370
330
A
100
AcDbEntity
  8
04
100
AcDbLine
 10
233.685201067277
 20
150.6921590680185
 30
0.0
 11
231.185201067277
 21
154.6921590680185
 31
0.0
  0
LINE
  5
371
330
A
100
AcDbEntity
  8
04
100
AcDbLine
 10
243.685201067277
 20
150.6921590680185
 30
0.0
 11
246.185201067277
 21
154.6921590680185
 31
0.0
  0
LINE
  5
372
330
A
100
AcDbEntity
  8
04
100
AcDbLine
 10
237.435201067277
 20
141.6921590680185
 30
0.0
 11
237.435201067277
 21
135.6921590680185
 31
0.0
  0
LINE
  5
373
330
A
100
AcDbEntity
  8
04
100
AcDbLine
 10
239.935201067277
 20
135.6921590680185
 30
0.0
 11
239.935201067277
 21
141.6921590680185
 31
0.0
  0
LINE
  5
374
330
A
100
AcDbEntity
  8
04
100
AcDbLine
 10
232.6852010672769
 20
301.1921590680181
 30
0.0
 11
231.1852010672771
 21
302.1921590680181
 31
0.0
  0
LINE
  5
375
330
A
100
AcDbEntity
  8
04
100
AcDbLine
 10
244.685201067277
 20
301.1921590680181
 30
0.0
 11
246.1852010672771
 21
302.1921590680181
 31
0.0
  0
LINE
  5
376
330
A
100
AcDbEntity
  8
04
100
AcDbLine
 10
244.685201067277
 20
317.192159068018
 30
0.0
 11
232.6852010672769
 21
317.192159068018
 31
0.0
  0
LINE
  5
377
330
A
100
AcDbEntity
  8
04
100
AcDbLine
 10
231.1852010672771
 20
303.1921590680179
 30
0.0
 11
231.1852010672771
 21
302.1921590680181
 31
0.0
  0
LINE
  5
378
330
A
100
AcDbEntity
  8
04
100
AcDbLine
 10
232.6852010672769
 20
301.1921590680181
 30
0.0
 11
244.685201067277
 21
301.1921590680181
 31
0.0
  0
LINE
  5
379
330
A
100
AcDbEntity
  8
04
100
AcDbLine
 10
246.1852010672771
 20
302.1921590680181
 30
0.0
 11
246.1852010672771
 21
303.1921590680179
 31
0.0
  0
LINE
  5
37A
330
A
100
AcDbEntity
  8
04
100
AcDbLine
 10
231.1852010672771
 20
303.1921590680179
 30
0.0
 11
246.1852010672771
 21
303.1921590680179
 31
0.0
  0
LINE
  5
37C
330
A
100
AcDbEntity
  8
04
100
AcDbLine
 10
232.6852010672769
 20
317.192159068018
 30
0.0
 11
232.6852010672769
 21
310.1921590680181
 31
0.0
  0
LINE
  5
37D
330
A
100
AcDbEntity
  8
04
100
AcDbLine
 10
244.685201067277
 20
310.1921590680181
 30
0.0
 11
244.685201067277
 21
317.192159068018
 31
0.0
  0
LINE
  5
37E
330
A
100
AcDbEntity
  8
04
100
AcDbLine
 10
231.1852010672771
 20
304.1921590680181
 30
0.0
 11
231.1852010672771
 21
306.692159068018
 31
0.0
  0
LINE
  5
380
330
A
100
AcDbEntity
  8
04
100
AcDbLine
 10
232.6852010672769
 20
310.1921590680181
 30
0.0
 11
231.1852010672771
 21
306.692159068018
 31
0.0
  0
LINE
  5
381
330
A
100
AcDbEntity
  8
04
100
AcDbLine
 10
246.1852010672771
 20
304.1921590680181
 30
0.0
 11
246.1852010672771
 21
306.692159068018
 31
0.0
  0
LINE
  5
383
330
A
100
AcDbEntity
  8
04
100
AcDbLine
 10
244.685201067277
 20
310.1921590680181
 30
0.0
 11
246.1852010672771
 21
306.692159068018
 31
0.0
  0
LINE
  5
384
330
A
100
AcDbEntity
  8
04
100
AcDbLine
 10
233.6852010672771
 20
303.1921590680179
 30
0.0
 11
233.6852010672771
 21
308.1921590680181
 31
0.0
  0
LINE
  5
385
330
A
100
AcDbEntity
  8
04
100
AcDbLine
 10
243.6852010672771
 20
303.1921590680179
 30
0.0
 11
243.6852010672771
 21
308.1921590680181
 31
0.0
  0
LINE
  5
386
330
A
100
AcDbEntity
  8
04
100
AcDbLine
 10
233.6852010672771
 20
308.1921590680181
 30
0.0
 11
231.1852010672771
 21
304.1921590680181
 31
0.0
  0
LINE
  5
387
330
A
100
AcDbEntity
  8
04
100
AcDbLine
 10
243.6852010672771
 20
308.1921590680181
 30
0.0
 11
246.1852010672771
 21
304.1921590680181
 31
0.0
  0
LINE
  5
388
330
A
100
AcDbEntity
  8
04
100
AcDbLine
 10
237.4352010672771
 20
317.192159068018
 30
0.0
 11
237.4352010672771
 21
323.1921590680181
 31
0.0
  0
LINE
  5
389
330
A
100
AcDbEntity
  8
04
100
AcDbLine
 10
239.9352010672771
 20
323.1921590680181
 30
0.0
 11
239.9352010672771
 21
317.192159068018
 31
0.0
  0
TEXT
  5
393
330
A
100
AcDbEntity
  8
MOJI
100
AcDbText
 10
122.4391080617494
 20
295.8911384990366
 30
0.0
 40
5.0
  1
電源スイッチ
 50
90.00000000000012
 41
0.8
  7
0_8
 11
119.9391080617493
 21
295.8911384990366
 31
0.0
100
AcDbText
 73
     2
  0
TEXT
  5
394
330
A
100
AcDbEntity
  8
MOJI
100
AcDbText
 10
132.1646655231559
 20
295.8911384990366
 30
0.0
 40
5.0
  1
（電気工事）
 50
90.00000000000019
 41
0.8
  7
0_8
 11
129.664665523156
 21
295.8911384990366
 31
0.0
100
AcDbText
 73
     2
  0
TEXT
  5
39E
330
A
100
AcDbEntity
  8
MOJI
100
AcDbText
 10
137.6634670668956
 20
178.9532966971898
 30
0.0
 40
5.0
  1
補助光電スイッチ
 50
89.99999999999962
 41
0.8
  7
0_8
 11
135.1634670668957
 21
178.9532966971899
 31
0.0
100
AcDbText
 73
     2
  0
LINE
  5
3A5
330
A
100
AcDbEntity
  8
06
100
AcDbLine
 10
297.1852010672772
 20
167.1921590680186
 30
0.0
 11
297.1852010672772
 21
165.1921590680187
 31
0.0
  0
LINE
  5
3A6
330
A
100
AcDbEntity
  8
06
100
AcDbLine
 10
297.1852010672772
 20
165.1921590680187
 30
0.0
 11
294.6852010672768
 21
165.1921590680188
 31
0.0
  0
ARC
  5
3A7
330
A
100
AcDbEntity
  8
06
100
AcDbCircle
 10
294.6852010672768
 20
161.1921590680186
 30
0.0
 40
0.5
100
AcDbArc
 50
180.0000000000002
 51
270.0000000000035
  0
ARC
  5
3A8
330
A
100
AcDbEntity
  8
06
100
AcDbCircle
 10
294.6852010672768
 20
164.6921590680188
 30
0.0
 40
0.5
100
AcDbArc
 50
89.99999999999992
 51
180.0000000000011
  0
LINE
  5
3A9
330
A
100
AcDbEntity
  8
06
100
AcDbLine
 10
298.1852010672771
 20
160.6921590680187
 30
0.0
 11
298.1852010672767
 21
159.1921590680185
 31
0.0
  0
LINE
  5
3AA
330
A
100
AcDbEntity
  8
06
100
AcDbLine
 10
293.7107003065633
 20
158.6921590680186
 30
0.0
 11
297.6852010672768
 21
158.6921590680186
 31
0.0
  0
ARC
  5
3AB
330
A
100
AcDbEntity
  8
06
100
AcDbCircle
 10
297.6852010672772
 20
159.1921590680188
 30
0.0
 40
0.5
100
AcDbArc
 50
269.9999999999999
 51
359.9999999999929
  0
ARC
  5
3AC
330
A
100
AcDbEntity
  8
06
100
AcDbCircle
 10
297.6852010672768
 20
159.1921590680186
 30
0.0
 40
0.5
100
AcDbArc
 50
269.9999999999999
 51
359.9999999999935
  0
LINE
  5
3AD
330
A
100
AcDbEntity
  8
06
100
AcDbLine
 10
281.6883806040645
 20
158.6921590680186
 30
0.0
 11
277.6852010672772
 21
158.6921590680186
 31
0.0
  0
LINE
  5
3AE
330
A
100
AcDbEntity
  8
06
100
AcDbLine
 10
277.1852010672771
 20
160.6921590680187
 30
0.0
 11
277.1852010672771
 21
159.1921590680186
 31
0.0
  0
ARC
  5
3AF
330
A
100
AcDbEntity
  8
06
100
AcDbCircle
 10
277.6852010672772
 20
159.1921590680186
 30
0.0
 40
0.5
100
AcDbArc
 50
180.0000000000011
 51
269.9999999999999
  0
ARC
  5
3B0
330
A
100
AcDbEntity
  8
06
100
AcDbCircle
 10
280.6852010672772
 20
161.1921590680186
 30
0.0
 40
0.5
100
AcDbArc
 50
270.0000000000026
 51
359.9999999999998
  0
LINE
  5
3B1
330
A
100
AcDbEntity
  8
06
100
AcDbLine
 10
278.1852010672772
 20
165.1921590680187
 30
0.0
 11
280.6852010672772
 21
165.1921590680187
 31
0.0
  0
ARC
  5
3B2
330
A
100
AcDbEntity
  8
06
100
AcDbCircle
 10
280.6852010672772
 20
164.6921590680187
 30
0.0
 40
0.5
100
AcDbArc
 50
359.9999999999993
 51
89.99999999999992
  0
LINE
  5
3B3
330
A
100
AcDbEntity
  8
06
100
AcDbLine
 10
278.1852010672772
 20
165.1921590680187
 30
0.0
 11
278.1852010672772
 21
167.1921590680186
 31
0.0
  0
ARC
  5
3B4
330
A
100
AcDbEntity
  8
06
100
AcDbCircle
 10
292.6852010672772
 20
158.6921590680186
 30
0.0
 40
1.0
100
AcDbArc
 50
3.823255565804555
 51
271.439179350235
  0
ARC
  5
3B5
330
A
100
AcDbEntity
  8
06
100
AcDbCircle
 10
282.6852010672772
 20
158.6921590680186
 30
0.0
 40
1.0
100
AcDbArc
 50
270.2198416578967
 51
178.9102234011513
  0
LINE
  5
3B6
330
A
100
AcDbEntity
  8
06
100
AcDbLine
 10
297.1852010672772
 20
167.1921590680186
 30
0.0
 11
297.1852010672772
 21
165.1921590680187
 31
0.0
  0
LINE
  5
3B7
330
A
100
AcDbEntity
  8
06
100
AcDbLine
 10
297.1852010672772
 20
165.1921590680187
 30
0.0
 11
294.6811372902901
 21
165.1921590680187
 31
0.0
  0
LINE
  5
3B8
330
A
100
AcDbEntity
  8
06
100
AcDbLine
 10
294.1852010672771
 20
164.8028589044618
 30
0.0
 11
294.1852010672771
 21
161.10757029751
 31
0.0
  0
LINE
  5
3B9
330
A
100
AcDbEntity
  8
06
100
AcDbLine
 10
298.1852010672771
 20
160.6921590680187
 30
0.0
 11
298.1852010672771
 21
159.0815687348101
 31
0.0
  0
LINE
  5
3BA
330
A
100
AcDbEntity
  8
06
100
AcDbLine
 10
297.7498365902678
 20
158.6921590680186
 30
0.0
 11
293.6851402245436
 21
158.6921590680186
 31
0.0
  0
LINE
  5
3BB
330
A
100
AcDbEntity
  8
06
100
AcDbLine
 10
281.6757745370171
 20
158.6921590680186
 30
0.0
 11
277.6002655075533
 21
158.6921590680186
 31
0.0
  0
LINE
  5
3BC
330
A
100
AcDbEntity
  8
06
100
AcDbLine
 10
277.1852010672771
 20
159.1119146868764
 30
0.0
 11
277.1852010672771
 21
160.6921590680187
 31
0.0
  0
LINE
  5
3BD
330
A
100
AcDbEntity
  8
06
100
AcDbLine
 10
281.1852010672772
 20
161.1053929191176
 30
0.0
 11
281.1852010672772
 21
164.7601030115603
 31
0.0
  0
LINE
  5
3BE
330
A
100
AcDbEntity
  8
06
100
AcDbLine
 10
280.7952942861468
 20
165.1921590680187
 30
0.0
 11
278.1852010672772
 21
165.1921590680187
 31
0.0
  0
LINE
  5
3BF
330
A
100
AcDbEntity
  8
06
100
AcDbLine
 10
278.1852010672772
 20
165.1921590680187
 30
0.0
 11
278.1852010672772
 21
167.1921590680186
 31
0.0
  0
ARC
  5
3C0
330
A
100
AcDbEntity
  8
06
100
AcDbCircle
 10
292.6852010672772
 20
158.6921590680186
 30
0.0
 40
1.0
100
AcDbArc
 50
357.8533946898464
 51
271.439179350235
  0
ARC
  5
3C1
330
A
100
AcDbEntity
  8
06
100
AcDbCircle
 10
282.6852010672772
 20
158.6921590680186
 30
0.0
 40
1.0
100
AcDbArc
 50
274.8093317555907
 51
173.5479502944601
  0
ARC
  5
3C2
330
A
100
AcDbEntity
  8
06
100
AcDbCircle
 10
289.6212406746357
 20
157.4404114833327
 30
0.0
 40
0.75
100
AcDbArc
 50
60.00000000000087
 51
165.4707752711375
  0
ARC
  5
3C3
330
A
100
AcDbEntity
  8
06
100
AcDbCircle
 10
287.6852010672772
 20
157.9421590680186
 30
0.0
 40
1.25
100
AcDbArc
 50
189.1303422328786
 51
356.0622257984231
  0
ARC
  5
3C4
330
A
100
AcDbEntity
  8
06
100
AcDbCircle
 10
285.7491614599183
 20
157.4404114833322
 30
0.0
 40
0.75
100
AcDbArc
 50
14.52922472887664
 51
119.9999999999961
  0
LINE
  5
3C5
330
A
100
AcDbEntity
  8
06
100
AcDbLine
 10
282.6919274782279
 20
157.696042563192
 30
0.0
 11
280.9531502597085
 21
156.692159068019
 31
0.0
  0
LINE
  5
3C6
330
A
100
AcDbEntity
  8
06
100
AcDbLine
 10
285.5672923967052
 20
158.2014347345133
 30
0.0
 11
281.2210994521395
 21
155.6921590680186
 31
0.0
  0
ARC
  5
3C7
330
A
100
AcDbEntity
  8
06
100
AcDbCircle
 10
278.48904864457
 20
156.1921590680189
 30
0.0
 40
0.5
100
AcDbArc
 50
180.0000000000013
 51
269.9999999999963
  0
ARC
  5
3C8
330
A
100
AcDbEntity
  8
06
100
AcDbCircle
 10
278.48904864457
 20
156.1921590680189
 30
0.0
 40
0.5
100
AcDbArc
 50
90.00000000000005
 51
179.9999999999656
  0
LINE
  5
3C9
330
A
100
AcDbEntity
  8
06
100
AcDbLine
 10
292.6743501182876
 20
161.2188427145816
 30
0.0
 11
292.6743501182876
 21
164.7188427145815
 31
0.0
  0
LINE
  5
3CA
330
A
100
AcDbEntity
  8
06
100
AcDbLine
 10
292.1743501182876
 20
160.7188427145816
 30
0.0
 11
283.1743501182876
 21
160.7188427145816
 31
0.0
  0
ARC
  5
3CB
330
A
100
AcDbEntity
  8
06
100
AcDbCircle
 10
292.1743501182876
 20
161.2188427145816
 30
0.0
 40
0.5
100
AcDbArc
 50
269.9999999999999
 51
359.9999999999998
  0
LINE
  5
3CC
330
A
100
AcDbEntity
  8
06
100
AcDbLine
 10
282.6743501182876
 20
161.2188427145816
 30
0.0
 11
282.6743501182876
 21
164.7188427145815
 31
0.0
  0
ARC
  5
3CD
330
A
100
AcDbEntity
  8
06
100
AcDbCircle
 10
283.1743501182876
 20
161.2188427145816
 30
0.0
 40
0.5
100
AcDbArc
 50
179.9999999999998
 51
269.9999999999999
  0
LINE
  5
3CE
330
A
100
AcDbEntity
  8
06
100
AcDbLine
 10
292.1743501182876
 20
165.2188427145816
 30
0.0
 11
283.1743501182876
 21
165.2188427145816
 31
0.0
  0
ARC
  5
3CF
330
A
100
AcDbEntity
  8
06
100
AcDbCircle
 10
283.1743501182876
 20
164.7188427145815
 30
0.0
 40
0.5
100
AcDbArc
 50
89.99999999999992
 51
179.9999999999993
  0
ARC
  5
3D0
330
A
100
AcDbEntity
  8
06
100
AcDbCircle
 10
292.1743501182876
 20
164.7188427145815
 30
0.0
 40
0.5
100
AcDbArc
 50
359.9999999999998
 51
89.99999999999992
  0
LINE
  5
3D1
330
A
100
AcDbEntity
  8
06
100
AcDbLine
 10
292.6784746563266
 20
157.6960425631919
 30
0.0
 11
294.4172518748461
 21
156.692159068019
 31
0.0
  0
LINE
  5
3D2
330
A
100
AcDbEntity
  8
06
100
AcDbLine
 10
289.8031097378492
 20
158.2014347345133
 30
0.0
 11
294.1493026824149
 21
155.6921590680185
 31
0.0
  0
ARC
  5
3D3
330
A
100
AcDbEntity
  8
06
100
AcDbCircle
 10
296.8813534899843
 20
156.1921590680188
 30
0.0
 40
0.5
100
AcDbArc
 50
270.0000000000035
 51
359.9999999999986
  0
ARC
  5
3D4
330
A
100
AcDbEntity
  8
06
100
AcDbCircle
 10
296.8813534899843
 20
156.1921590680188
 30
0.0
 40
0.5
100
AcDbArc
 50
0.0000000000342723
 51
89.99999999999992
  0
POLYLINE
  5
45C
330
A
100
AcDbEntity
  8
DEFPOINTS
100
AcDb2dPolyline
 66
     1
 10
0.0
 20
0.0
 30
0.0
 70
     1
  0
VERTEX
  5
1213
330
45C
100
AcDbEntity
  8
DEFPOINTS
100
AcDbVertex
100
AcDb2dVertex
 10
0.0
 20
0.0
 30
0.0
  0
VERTEX
  5
1214
330
45C
100
AcDbEntity
  8
DEFPOINTS
100
AcDbVertex
100
AcDb2dVertex
 10
420.0
 20
0.0
 30
0.0
  0
VERTEX
  5
1215
330
45C
100
AcDbEntity
  8
DEFPOINTS
100
AcDbVertex
100
AcDb2dVertex
 10
420.0
 20
594.0
 30
0.0
  0
VERTEX
  5
1216
330
45C
100
AcDbEntity
  8
DEFPOINTS
100
AcDbVertex
100
AcDb2dVertex
 10
0.0
 20
594.0
 30
0.0
  0
SEQEND
  5
1217
330
45C
100
AcDbEntity
  8
DEFPOINTS
  0
MTEXT
  5
493
330
A
100
AcDbEntity
  8
MOJI
100
AcDbMText
 10
199.9213387439068
 20
328.1921590680179
 30
0.0
 40
6.0
 41
30.0
 71
     5
 72
     1
  1
外　部
  7
0_8
 11
0.0000000000000001
 21
1.0
 31
0.0
1001
ACAD
1000
MTEXTBEGIN
1070
    73
1070
     1
1070
    44
1040
1.0
1070
    74
1070
     0
1000
MTEXTEND
1000
MTEXTBEGIN
1070
    73
1070
     1
1070
    44
1040
1.0
1070
    74
1070
     0
1000
MTEXTEND
  0
POLYLINE
  5
494
330
A
100
AcDbEntity
  8
SAISEN
100
AcDb2dPolyline
 66
     1
 10
0.0
 20
0.0
 30
0.0
 70
     1
  0
VERTEX
  5
1218
330
494
100
AcDbEntity
  8
SAISEN
100
AcDbVertex
100
AcDb2dVertex
 10
194.9213387439068
 20
313.192159068018
 30
0.0
  0
VERTEX
  5
1219
330
494
100
AcDbEntity
  8
SAISEN
100
AcDbVertex
100
AcDb2dVertex
 10
204.9213387439068
 20
313.192159068018
 30
0.0
  0
VERTEX
  5
121A
330
494
100
AcDbEntity
  8
SAISEN
100
AcDbVertex
100
AcDb2dVertex
 10
204.9213387439068
 20
343.1921590680181
 30
0.0
  0
VERTEX
  5
121B
330
494
100
AcDbEntity
  8
SAISEN
100
AcDbVertex
100
AcDb2dVertex
 10
194.9213387439068
 20
343.1921590680181
 30
0.0
  0
SEQEND
  5
121C
330
494
100
AcDbEntity
  8
SAISEN
  0
POLYLINE
  5
497
330
A
100
AcDbEntity
  8
SAISEN
100
AcDb2dPolyline
 66
     1
 10
0.0
 20
0.0
 30
0.0
 70
     1
  0
VERTEX
  5
121D
330
497
100
AcDbEntity
  8
SAISEN
100
AcDbVertex
100
AcDb2dVertex
 10
376.6852010672775
 20
313.192159068018
 30
0.0
  0
VERTEX
  5
121E
330
497
100
AcDbEntity
  8
SAISEN
100
AcDbVertex
100
AcDb2dVertex
 10
386.6852010672775
 20
313.192159068018
 30
0.0
  0
VERTEX
  5
121F
330
497
100
AcDbEntity
  8
SAISEN
100
AcDbVertex
100
AcDb2dVertex
 10
386.6852010672775
 20
343.1921590680181
 30
0.0
  0
VERTEX
  5
1220
330
497
100
AcDbEntity
  8
SAISEN
100
AcDbVertex
100
AcDb2dVertex
 10
376.6852010672775
 20
343.1921590680181
 30
0.0
  0
SEQEND
  5
1221
330
497
100
AcDbEntity
  8
SAISEN
  0
MTEXT
  5
498
330
A
100
AcDbEntity
  8
MOJI
100
AcDbMText
 10
381.6852010672775
 20
328.1921590680179
 30
0.0
 40
6.0
 41
30.0
 71
     5
 72
     1
  1
内　部
  7
0_8
 11
0.0000000000000001
 21
1.0
 31
0.0
1001
ACAD
1000
MTEXTBEGIN
1070
    73
1070
     1
1070
    44
1040
1.0
1070
    74
1070
     0
1000
MTEXTEND
1000
MTEXTBEGIN
1070
    73
1070
     1
1070
    44
1040
1.0
1070
    74
1070
     0
1000
MTEXTEND
  0
LEADER
  5
49F
330
A
100
AcDbEntity
  8
HIKIDASI
100
AcDbLeader
  3
SUNPOU_2
 73
     0
 74
     0
 75
     1
 40
5.000000000000001
 41
37.06666666666665
 76
     3
 10
238.6852010672766
 20
155.6921590680189
 30
0.0
 10
228.8169057653585
 20
165.5041067805186
 30
0.0
 10
228.8169057653585
 20
170.5041067805186
 30
0.0
340
4A0
211
0.0000000000000001
221
1.0
231
0.0
1001
ACAD
1000
DSTYLE
1002
{
1070
     5
1000
OPEN30
1070
    77
1070
     1
1070
   147
1040
1.0
1070
   342
1005
44E
1002
}
1000
LEANOF
1010
0.0
1020
0.0
1030
0.0
1000
LEANOF
1010
0.0
1020
0.0
1030
0.0
  0
MTEXT
  5
4A0
330
A
100
AcDbEntity
  8
HIKIDASI
100
AcDbMText
 10
224.3169057653585
 20
172.5041067805186
 30
0.0
 40
5.0
 41
0.0
 71
     4
 72
     1
  1
補助光電スイッチ
  7
SUNPOU
 11
0.0000000000000001
 21
1.0
 31
0.0
1001
ACAD
1000
MTEXTBEGIN
1070
    73
1070
     1
1070
    44
1040
1.0
1070
    74
1070
     0
1000
MTEXTEND
1000
MTEXTBEGIN
1070
    73
1070
     1
1070
    44
1040
1.0
1070
    74
1070
     0
1000
MTEXTEND
  0
MTEXT
  5
4A7
330
A
100
AcDbEntity
  8
HIKIDASI
100
AcDbMText
 10
178.2113266686944
 20
369.1908532508574
 30
0.0
 40
5.0
 41
0.0
 71
     4
 72
     1
  1
方立上部φ12穴加工\P（サッシ工事）
  7
SUNPOU
 11
0.0000000000000001
 21
1.0
 31
0.0
1001
ACAD
1000
MTEXTBEGIN
1070
    73
1070
     1
1070
    44
1040
1.0
1070
    74
1070
     0
1000
MTEXTEND
1000
MTEXTBEGIN
1070
    73
1070
     1
1070
    44
1040
1.0
1070
    74
1070
     0
1000
MTEXTEND
  0
LEADER
  5
4A8
330
A
100
AcDbEntity
  8
HIKIDASI
100
AcDbLeader
  3
SUNPOU_2
 73
     0
 74
     0
 75
     1
 40
13.33333333333333
 41
43.73333333333333
 76
     3
 10
234.4158879117891
 20
328.8921590680192
 30
0.0
 10
178.5901731380828
 20
367.9940474283183
 30
0.0
 10
178.5901731380828
 20
372.9940474283183
 30
0.0
340
4A7
211
0.0000000000000001
221
1.0
231
0.0
213
-8.287820197278222
223
5.803194177460908
233
0.0
1001
ACAD
1000
DSTYLE
1002
{
1070
     5
1000
OPEN30
1070
    77
1070
     1
1070
   147
1040
1.0
1070
   342
1005
44E
1002
}
1000
LEANOF
1010
-8.287820197278222
1020
5.803194177460908
1030
0.0
1000
LEANOF
1010
-8.287820197278222
1020
5.803194177460908
1030
0.0
  0
LEADER
  5
4B4
330
A
100
AcDbEntity
  8
HIKIDASI
100
AcDbLeader
  3
SUNPOU_2
 73
     0
 74
     0
 75
     1
 40
5.0
 41
24.53333333333334
 76
     3
 10
70.763467066896
 20
219.8388756462775
 30
0.0
 10
81.92996458743843
 20
226.3662084423631
 30
0.0
 10
81.92996458743843
 20
231.3662084423631
 30
0.0
340
4B5
211
0.0000000000000001
221
1.0
231
0.0
1001
ACAD
1000
DSTYLE
1002
{
1070
     5
1000
OPEN30
1070
    77
1070
     1
1070
   147
1040
1.0
1070
   342
1005
44E
1002
}
1000
LEANOF
1010
0.0
1020
0.0
1030
0.0
1000
LEANOF
1010
0.0
1020
0.0
1030
0.0
  0
MTEXT
  5
4B5
330
A
100
AcDbEntity
  8
HIKIDASI
100
AcDbMText
 10
79.92996458743843
 20
233.3662084423631
 30
0.0
 40
5.0
 41
0.0
 71
     7
 72
     1
  1
通線穴φ12
  7
SUNPOU
 11
0.0000000000000001
 21
1.0
 31
0.0
1001
ACAD
1000
MTEXTBEGIN
1070
    73
1070
     1
1070
    44
1040
1.0
1070
    74
1070
     0
1000
MTEXTEND
1000
MTEXTBEGIN
1070
    73
1070
     1
1070
    44
1040
1.0
1070
    74
1070
     0
1000
MTEXTEND
  0
TEXT
  5
4BB
330
A
100
AcDbEntity
  8
MOJI
100
AcDbText
 10
165.7634670668955
 20
142.5215805890244
 30
0.0
 40
5.0
  1
Ｆ.Ｌ
 50
90.0
 41
0.8
  7
0_8
 11
160.7634670668955
 21
142.5215805890244
 31
0.0
100
AcDbText
 73
     3
  0
DIMENSION
  5
4BC
330
A
100
AcDbEntity
  8
SUNPOU
100
AcDbDimension
  2
*D1
 10
207.685201067276
 20
371.9723251791449
 30
0.0
 11
197.5198093334329
 21
367.4084810064266
 31
0.0
 70
   160
 53
180.0
  3
SUNPOU_2
100
AcDbAlignedDimension
 13
204.685201067276
 23
412.942159068018
 33
0.0
 14
207.685201067276
 24
371.9723251791449
 34
0.0
100
AcDbRotatedDimension
1001
ACAD
1000
DSTYLE
1002
{
1070
     7
1000
DOTSMALL
1070
     5
1000

1070
   173
1070
     1
1070
     6
1000
OPEN30
1002
}
  0
DIMENSION
  5
4CA
330
A
100
AcDbEntity
  8
SUNPOU
100
AcDbDimension
  2
*D2
 10
210.6852010672763
 20
371.9723251791449
 30
0.0
 11
210.6623954305054
 21
377.0407606163955
 31
0.0
 70
   160
 53
180.0
  3
SUNPOU_2
100
AcDbAlignedDimension
 13
207.685201067276
 23
371.9723251791449
 33
0.0
 14
210.6852010672763
 24
352.4421590680181
 34
0.0
100
AcDbRotatedDimension
1001
ACAD
1000
DSTYLE
1002
{
1070
     6
1000
DOTSMALL
1070
     5
1000

1070
   173
1070
     1
1070
     7
1000
OPEN30
1002
}
  0
DIMENSION
  5
4D8
330
A
100
AcDbEntity
  8
SUNPOU
100
AcDbDimension
  2
*D3
 10
266.6852010672765
 20
371.9723251791449
 30
0.0
 11
230.8756391855158
 21
367.440975817798
 31
0.0
 70
   160
 53
180.0
  3
SUNPOU_2
100
AcDbAlignedDimension
 13
210.6852010672763
 23
352.4421590680181
 33
0.0
 14
266.6852010672765
 24
371.9723251791449
 34
0.0
100
AcDbRotatedDimension
  0
DIMENSION
  5
4E4
330
A
100
AcDbEntity
  8
SUNPOU
100
AcDbDimension
  2
*D4
 10
271.6852010672764
 20
371.9723251791449
 30
0.0
 11
269.1852010672765
 21
367.4644111552888
 31
0.0
 70
   160
 53
180.0
  3
SUNPOU_2
100
AcDbAlignedDimension
 13
266.6852010672765
 23
371.9723251791449
 33
0.0
 14
271.6852010672764
 24
328.1921590680183
 34
0.0
100
AcDbRotatedDimension
  0
DIMENSION
  5
4F2
330
A
100
AcDbEntity
  8
SUNPOU
100
AcDbDimension
  2
*D5
 10
303.6852010672764
 20
371.9723251791449
 30
0.0
 11
283.5289985085453
 21
367.3673704740298
 31
0.0
 70
   160
 53
180.0
  3
SUNPOU_2
100
AcDbAlignedDimension
 13
271.6852010672764
 23
328.1921590680183
 33
0.0
 14
303.6852010672764
 24
328.1921590680183
 34
0.0
100
AcDbRotatedDimension
  0
DIMENSION
  5
4FF
330
A
100
AcDbEntity
  8
SUNPOU
100
AcDbDimension
  2
*D6
 10
324.6852010672761
 20
371.9723251791449
 30
0.0
 11
314.1852010672763
 21
367.273116214922
 31
0.0
 70
   160
 53
180.0
  3
SUNPOU_2
100
AcDbAlignedDimension
 13
303.6852010672764
 23
328.1921590680183
 33
0.0
 14
324.6852010672761
 24
412.942159068018
 34
0.0
100
AcDbRotatedDimension
  0
DIMENSION
  5
510
330
A
100
AcDbEntity
  8
SUNPOU
100
AcDbDimension
  2
*D7
 10
324.6852010672761
 20
430.5538461538461
 30
0.0
 11
272.6951363170361
 21
426.0223068506677
 31
0.0
 70
   160
 53
180.0
  3
SUNPOU_2
100
AcDbAlignedDimension
 13
204.6852010672761
 23
476.4421590680183
 33
0.0
 14
324.6852010672761
 24
476.4421590680187
 34
0.0
100
AcDbRotatedDimension
  0
DIMENSION
  5
5E6
330
A
100
AcDbEntity
  8
SUNPOU
100
AcDbDimension
  2
*D9
 10
334.1852010672774
 20
185.6921590680187
 30
0.0
 11
329.6852010672773
 21
173.1921590680188
 31
0.0
 70
    32
  3
SUNPOU_2
100
AcDbAlignedDimension
 13
303.6852010672773
 23
160.6921590680188
 33
0.0
 14
303.6852010672772
 24
185.6921590680188
 34
0.0
 50
90.0
100
AcDbRotatedDimension
  0
DIMENSION
  5
5F3
330
A
100
AcDbEntity
  8
SUNPOU
100
AcDbDimension
  2
*D10
 10
334.1852010672774
 20
328.1921590680183
 30
0.0
 11
329.6852010672775
 21
315.6921590680184
 31
0.0
 70
    32
  3
SUNPOU_2
100
AcDbAlignedDimension
 13
303.6852010672765
 23
303.1921590680183
 33
0.0
 14
303.6852010672764
 24
328.1921590680183
 34
0.0
 50
90.0
100
AcDbRotatedDimension
  0
DIMENSION
  5
600
330
A
100
AcDbEntity
  8
SUNPOU
100
AcDbDimension
  2
*D11
 10
371.6852010672774
 20
155.6921590680186
 30
0.0
 11
367.1852010672773
 21
140.6921590680186
 31
0.0
 70
    32
  3
SUNPOU_2
100
AcDbAlignedDimension
 13
323.9352010672774
 23
125.6921590680184
 33
0.0
 14
323.9352010672774
 24
155.6921590680186
 34
0.0
 50
90.0
100
AcDbRotatedDimension
  0
DIMENSION
  5
60D
330
A
100
AcDbEntity
  8
SUNPOU
100
AcDbDimension
  2
*D12
 10
371.6852010672775
 20
475.6921590680186
 30
0.0
 11
367.1852010672773
 21
315.6921590680186
 31
0.0
 70
    32
  1
W
  3
SUNPOU_2
100
AcDbAlignedDimension
 13
323.9352010672774
 23
155.6921590680186
 33
0.0
 14
323.9352010672762
 24
475.6921590680186
 34
0.0
 50
90.0
100
AcDbRotatedDimension
  0
DIMENSION
  5
61A
330
A
100
AcDbEntity
  8
SUNPOU
100
AcDbDimension
  2
*D13
 10
371.6852010672775
 20
505.6921590680186
 30
0.0
 11
367.1852010672775
 21
490.6921590680187
 31
0.0
 70
    32
  3
SUNPOU_2
100
AcDbAlignedDimension
 13
323.9352010672762
 23
475.6921590680186
 33
0.0
 14
323.9352010672762
 24
505.6921590680186
 34
0.0
 50
90.0
100
AcDbRotatedDimension
  0
DIMENSION
  5
627
330
A
100
AcDbEntity
  8
SUNPOU
100
AcDbDimension
  2
*D14
 10
346.6852010672774
 20
160.6921590680188
 30
0.0
 11
341.9988946848061
 21
148.5281486436991
 31
0.0
 70
   160
  1
4
  3
SUNPOU_2
100
AcDbAlignedDimension
 13
323.9352010672765
 23
155.6921590680185
 33
0.0
 14
303.6852010672773
 24
160.6921590680188
 34
0.0
 50
90.0
100
AcDbRotatedDimension
  0
DIMENSION
  5
644
330
A
100
AcDbEntity
  8
SUNPOU
100
AcDbDimension
  2
*D15
 10
346.6852010672774
 20
328.1921590680183
 30
0.0
 11
342.1852010672773
 21
244.4421590680187
 31
0.0
 70
    32
  1
DW
  3
SUNPOU_2
100
AcDbAlignedDimension
 13
359.1852010672774
 23
160.6921590680188
 33
0.0
 14
303.6852010672764
 24
328.1921590680183
 34
0.0
 50
90.0
100
AcDbRotatedDimension
  0
DIMENSION
  5
651
330
A
100
AcDbEntity
  8
SUNPOU
100
AcDbDimension
  2
*D16
 10
359.1852010672774
 20
303.1921590680183
 30
0.0
 11
354.6852010672773
 21
229.4421590680186
 31
0.0
 70
    32
  1
開口 W
  3
SUNPOU_2
100
AcDbAlignedDimension
 13
323.9352010672774
 23
155.6921590680186
 33
0.0
 14
303.6852010672765
 24
303.1921590680183
 34
0.0
 50
90.0
100
AcDbRotatedDimension
  0
DIMENSION
  5
66B
330
A
100
AcDbEntity
  8
SUNPOU
100
AcDbDimension
  2
*D17
 10
189.9213387439068
 20
353.192159068018
 30
0.0
 11
185.4213387439068
 21
328.192159068018
 31
0.0
 70
    32
  3
SUNPOU_2
100
AcDbAlignedDimension
 13
211.4352010672765
 23
303.1921590680179
 33
0.0
 14
211.4352010672764
 24
353.192159068018
 34
0.0
 50
90.0
100
AcDbRotatedDimension
  0
DIMENSION
  5
735
330
A
100
AcDbEntity
  8
SUNPOU
100
AcDbDimension
  2
*D18
 10
170.7634670668959
 20
237.3840422562488
 30
0.0
 11
155.7634670668959
 21
232.8548416519993
 31
0.0
 70
   160
 53
180.0
  3
SUNPOU_2_20
100
AcDbAlignedDimension
 13
140.7634670668959
 23
218.5888756462775
 33
0.0
 14
170.7634670668959
 24
237.3840422562488
 34
0.0
100
AcDbRotatedDimension
  0
DIMENSION
  5
757
330
A
100
AcDbEntity
  8
SUNPOU
100
AcDbDimension
  2
*D19
 10
183.263467066896
 20
273.9388756462768
 30
0.0
 11
178.763467066896
 21
223.9388756462773
 31
0.0
 70
    32
  1
W
  3
SUNPOU_2_20
100
AcDbAlignedDimension
 13
170.763467066896
 23
173.9388756462775
 33
0.0
 14
170.7634670668966
 24
273.9388756462768
 34
0.0
 50
90.0
100
AcDbRotatedDimension
  0
DIMENSION
  5
76D
330
A
100
AcDbEntity
  8
SUNPOU
100
AcDbDimension
  2
*D20
 10
70.76346706689587
 20
161.500370644922
 30
0.0
 11
65.77557038859618
 21
157.0052698021276
 31
0.0
 70
   160
 53
180.0
  3
SUNPOU_2_20
100
AcDbAlignedDimension
 13
60.76346706689562
 23
173.9388756462778
 33
0.0
 14
70.76346706689587
 24
173.9388756462776
 34
0.0
100
AcDbRotatedDimension
  0
DIMENSION
  5
77C
330
A
100
AcDbEntity
  8
SUNPOU
100
AcDbDimension
  2
*D21
 10
170.763467066896
 20
161.500370644922
 30
0.0
 11
120.7634670668958
 21
156.7923701299015
 31
0.0
 70
   160
  1
H
 53
180.0
  3
SUNPOU_2_20
100
AcDbAlignedDimension
 13
70.76346706689587
 23
173.9388756462776
 33
0.0
 14
170.763467066896
 24
172.4388756462775
 34
0.0
100
AcDbRotatedDimension
  0
POLYLINE
  5
CB2
330
A
100
AcDbEntity
  8
SAISEN
100
AcDb2dPolyline
 66
     1
 10
0.0
 20
0.0
 30
0.0
 70
     1
  0
VERTEX
  5
1226
330
CB2
100
AcDbEntity
  8
SAISEN
100
AcDbVertex
100
AcDb2dVertex
 10
43.76346706689584
 20
160.6921590680183
 30
0.0
  0
VERTEX
  5
1227
330
CB2
100
AcDbEntity
  8
SAISEN
100
AcDbVertex
100
AcDb2dVertex
 10
33.76346706689584
 20
160.6921590680183
 30
0.0
  0
VERTEX
  5
1228
330
CB2
100
AcDbEntity
  8
SAISEN
100
AcDbVertex
100
AcDb2dVertex
 10
33.76346706689584
 20
125.6921590680182
 30
0.0
  0
VERTEX
  5
1229
330
CB2
100
AcDbEntity
  8
SAISEN
100
AcDbVertex
100
AcDb2dVertex
 10
43.76346706689584
 20
125.6921590680182
 30
0.0
  0
SEQEND
  5
122A
330
CB2
100
AcDbEntity
  8
SAISEN
  0
MTEXT
  5
CB3
330
A
100
AcDbEntity
  8
MOJI
100
AcDbMText
 10
38.76346706689584
 20
143.1921590680183
 30
0.0
 40
6.0
 41
35.0
 71
     5
 72
     1
  1
内　観　図
  7
0_8
 11
0.0000000000000001
 21
1.0
 31
0.0
1001
ACAD
1000
MTEXTBEGIN
1070
    73
1070
     1
1070
    44
1040
1.0
1070
    74
1070
     0
1000
MTEXTEND
1000
MTEXTBEGIN
1070
    73
1070
     1
1070
    44
1040
1.0
1070
    74
1070
     0
1000
MTEXTEND
  0
TEXT
  5
CC1
330
A
100
AcDbEntity
  8
MOJI
100
AcDbText
 10
164.3134670668958
 20
257.1943567465345
 30
0.0
 40
5.0
  1
ＦＩＸ
 50
90.0
 41
0.8
  7
0_8
 11
161.8134670668958
 21
257.1943567465345
 31
0.0
100
AcDbText
 73
     2
  0
LEADER
  5
D54
330
A
100
AcDbEntity
  8
HIKIDASI
100
AcDbLeader
  3
SUNPOU_2
 73
     0
 74
     0
 75
     1
 40
13.33333333333333
 41
38.93333333333334
 76
     3
 10
53.96612349914231
 20
305.1921590680178
 30
0.0
 10
42.66094289204621
 20
317.9002984356996
 30
0.0
 10
42.66094289204621
 20
322.9002984356995
 30
0.0
211
0.0000000000000001
221
1.0
231
0.0
213
-8.459081399806002
223
1.49156428279491
233
0.0
1001
ACAD
1000
DSTYLE
1002
{
1070
     5
1000
OPEN30
1070
    77
1070
     1
1070
   147
1040
1.0
1070
   342
1005
44E
1002
}
1000
LEANOF
1010
-8.459081399806002
1020
1.49156428279491
1030
0.0
1000
LEANOF
1010
-8.459081399806002
1020
1.49156428279491
1030
0.0
  0
MTEXT
  5
D55
102
{ACAD_REACTORS
330
D54
102
}
330
A
100
AcDbEntity
  8
HIKIDASI
100
AcDbMText
 10
42.45335762518556
 20
323.4087341529046
 30
0.0
 40
5.0
 41
0.0
 71
     4
 72
     1
  1
電源AC100V5A\P（電気工事）
  7
SUNPOU
 11
0.0000000000000001
 21
1.0
 31
0.0
1001
ACAD
1000
MTEXTBEGIN
1070
    73
1070
     1
1070
    44
1040
1.0
1070
    74
1070
     0
1000
MTEXTEND
1000
MTEXTBEGIN
1070
    73
1070
     1
1070
    44
1040
1.0
1070
    74
1070
     0
1000
MTEXTEND
  0
TEXT
  5
D5C
330
A
100
AcDbEntity
  8
MOJI
100
AcDbText
 10
82.23412839671924
 20
176.4415598620196
 30
0.0
 40
4.0
  1
スリムセナージドアI型
 50
90.0
 41
0.8
  7
0_8
 11
80.23412839671925
 21
176.4415598620196
 31
0.0
100
AcDbText
 73
     2
  0
LINE
  5
D8A
330
A
100
AcDbEntity
  8
SAISEN
100
AcDbLine
 10
331.6852010672773
 20
412.942159068018
 30
0.0
 11
197.685201067276
 21
412.942159068018
 31
0.0
  0
LINE
  5
D96
330
A
100
AcDbEntity
  8
SAISEN
100
AcDbLine
 10
331.6852010672773
 20
415.9421590680183
 30
0.0
 11
197.685201067276
 21
415.9421590680184
 31
0.0
  0
LINE
  5
DA9
330
A
100
AcDbEntity
  8
SAISEN
100
AcDbLine
 10
331.6852010672779
 20
245.942159068019
 30
0.0
 11
197.6852010672768
 21
245.9421590680191
 31
0.0
  0
LINE
  5
DAA
330
A
100
AcDbEntity
  8
SAISEN
100
AcDbLine
 10
331.6852010672779
 20
242.9421590680186
 30
0.0
 11
197.6852010672768
 21
242.9421590680187
 31
0.0
  0
ARC
  5
DDE
330
A
100
AcDbEntity
  8
03
100
AcDbCircle
 10
222.9352010672769
 20
153.4421590680184
 30
0.0
 40
0.75
100
AcDbArc
 50
0.0
 51
90.0
  0
POLYLINE
  5
DDF
330
A
100
AcDbEntity
  8
03
100
AcDb2dPolyline
 66
     1
 10
0.0
 20
0.0
 30
0.0
  0
VERTEX
  5
122B
330
DDF
100
AcDbEntity
  8
03
100
AcDbVertex
100
AcDb2dVertex
 10
213.6852010672769
 20
152.6921590680184
 30
0.0
  0
VERTEX
  5
122C
330
DDF
100
AcDbEntity
  8
03
100
AcDbVertex
100
AcDb2dVertex
 10
222.1852010672769
 20
152.6921590680184
 30
0.0
  0
SEQEND
  5
122D
330
DDF
100
AcDbEntity
  8
03
  0
POLYLINE
  5
DE0
330
A
100
AcDbEntity
  8
03
100
AcDb2dPolyline
 66
     1
 10
0.0
 20
0.0
 30
0.0
  0
VERTEX
  5
122E
330
DE0
100
AcDbEntity
  8
03
100
AcDbVertex
100
AcDb2dVertex
 10
213.6852010672769
 20
154.1921590680185
 30
0.0
  0
VERTEX
  5
122F
330
DE0
100
AcDbEntity
  8
03
100
AcDbVertex
100
AcDb2dVertex
 10
213.6852010672769
 20
152.6921590680184
 30
0.0
  0
SEQEND
  5
1230
330
DE0
100
AcDbEntity
  8
03
  0
POLYLINE
  5
DE1
330
A
100
AcDbEntity
  8
03
100
AcDb2dPolyline
 66
     1
 10
0.0
 20
0.0
 30
0.0
  0
VERTEX
  5
1231
330
DE1
100
AcDbEntity
  8
03
100
AcDbVertex
100
AcDb2dVertex
 10
222.1852010672769
 20
152.6921590680184
 30
0.0
  0
VERTEX
  5
1232
330
DE1
100
AcDbEntity
  8
03
100
AcDbVertex
100
AcDb2dVertex
 10
222.1852010672769
 20
133.4421590680185
 30
0.0
  0
SEQEND
  5
1233
330
DE1
100
AcDbEntity
  8
03
  0
POLYLINE
  5
DE2
330
A
100
AcDbEntity
  8
03
100
AcDb2dPolyline
 66
     1
 10
0.0
 20
0.0
 30
0.0
  0
VERTEX
  5
1234
330
DE2
100
AcDbEntity
  8
03
100
AcDbVertex
100
AcDb2dVertex
 10
223.685201067277
 20
134.1921590680184
 30
0.0
  0
VERTEX
  5
1235
330
DE2
100
AcDbEntity
  8
03
100
AcDbVertex
100
AcDb2dVertex
 10
223.685201067277
 20
153.4421590680184
 30
0.0
  0
SEQEND
  5
1236
330
DE2
100
AcDbEntity
  8
03
  0
ARC
  5
DE3
330
A
100
AcDbEntity
  8
03
100
AcDbCircle
 10
222.935201067277
 20
133.4421590680185
 30
0.0
 40
0.75
100
AcDbArc
 50
180.0
 51
270.0
  0
POLYLINE
  5
DE4
330
A
100
AcDbEntity
  8
03
100
AcDb2dPolyline
 66
     1
 10
0.0
 20
0.0
 30
0.0
  0
VERTEX
  5
1237
330
DE4
100
AcDbEntity
  8
03
100
AcDbVertex
100
AcDb2dVertex
 10
223.685201067277
 20
134.1921590680184
 30
0.0
  0
VERTEX
  5
1238
330
DE4
100
AcDbEntity
  8
03
100
AcDbVertex
100
AcDb2dVertex
 10
253.685201067277
 20
134.1921590680184
 30
0.0
  0
SEQEND
  5
1239
330
DE4
100
AcDbEntity
  8
03
  0
POLYLINE
  5
DE5
330
A
100
AcDbEntity
  8
03
100
AcDb2dPolyline
 66
     1
 10
0.0
 20
0.0
 30
0.0
  0
VERTEX
  5
123A
330
DE5
100
AcDbEntity
  8
03
100
AcDbVertex
100
AcDb2dVertex
 10
222.935201067277
 20
132.6921590680185
 30
0.0
  0
VERTEX
  5
123B
330
DE5
100
AcDbEntity
  8
03
100
AcDbVertex
100
AcDb2dVertex
 10
254.435201067277
 20
132.6921590680185
 30
0.0
  0
SEQEND
  5
123C
330
DE5
100
AcDbEntity
  8
03
  0
ARC
  5
DE6
330
A
100
AcDbEntity
  8
03
100
AcDbCircle
 10
254.435201067277
 20
133.4421590680185
 30
0.0
 40
0.75
100
AcDbArc
 50
270.0
 51
0.0
  0
POLYLINE
  5
DE7
330
A
100
AcDbEntity
  8
03
100
AcDb2dPolyline
 66
     1
 10
0.0
 20
0.0
 30
0.0
  0
VERTEX
  5
123D
330
DE7
100
AcDbEntity
  8
03
100
AcDbVertex
100
AcDb2dVertex
 10
255.185201067277
 20
152.6921590680184
 30
0.0
  0
VERTEX
  5
123E
330
DE7
100
AcDbEntity
  8
03
100
AcDbVertex
100
AcDb2dVertex
 10
255.185201067277
 20
133.4421590680185
 30
0.0
  0
SEQEND
  5
123F
330
DE7
100
AcDbEntity
  8
03
  0
POLYLINE
  5
DE8
330
A
100
AcDbEntity
  8
03
100
AcDb2dPolyline
 66
     1
 10
0.0
 20
0.0
 30
0.0
  0
VERTEX
  5
1240
330
DE8
100
AcDbEntity
  8
03
100
AcDbVertex
100
AcDb2dVertex
 10
253.685201067277
 20
153.4421590680184
 30
0.0
  0
VERTEX
  5
1241
330
DE8
100
AcDbEntity
  8
03
100
AcDbVertex
100
AcDb2dVertex
 10
253.685201067277
 20
134.1921590680184
 30
0.0
  0
SEQEND
  5
1242
330
DE8
100
AcDbEntity
  8
03
  0
ARC
  5
DE9
330
A
100
AcDbEntity
  8
03
100
AcDbCircle
 10
254.4352010672769
 20
153.4421590680184
 30
0.0
 40
0.75
100
AcDbArc
 50
90.0
 51
180.0
  0
POLYLINE
  5
DEA
330
A
100
AcDbEntity
  8
03
100
AcDb2dPolyline
 66
     1
 10
0.0
 20
0.0
 30
0.0
  0
VERTEX
  5
1243
330
DEA
100
AcDbEntity
  8
03
100
AcDbVertex
100
AcDb2dVertex
 10
263.6852010672769
 20
154.1921590680185
 30
0.0
  0
VERTEX
  5
1244
330
DEA
100
AcDbEntity
  8
03
100
AcDbVertex
100
AcDb2dVertex
 10
263.6852010672769
 20
152.6921590680184
 30
0.0
  0
SEQEND
  5
1245
330
DEA
100
AcDbEntity
  8
03
  0
POLYLINE
  5
DEB
330
A
100
AcDbEntity
  8
03
100
AcDb2dPolyline
 66
     1
 10
0.0
 20
0.0
 30
0.0
  0
VERTEX
  5
1246
330
DEB
100
AcDbEntity
  8
03
100
AcDbVertex
100
AcDb2dVertex
 10
263.6852010672769
 20
152.6921590680184
 30
0.0
  0
VERTEX
  5
1247
330
DEB
100
AcDbEntity
  8
03
100
AcDbVertex
100
AcDb2dVertex
 10
255.185201067277
 20
152.6921590680184
 30
0.0
  0
SEQEND
  5
1248
330
DEB
100
AcDbEntity
  8
03
  0
LINE
  5
DEC
330
A
100
AcDbEntity
  8
03
100
AcDbLine
 10
213.6852010672769
 20
154.1921590680185
 30
0.0
 11
222.9352010672769
 21
154.1921590680185
 31
0.0
  0
LINE
  5
DED
330
A
100
AcDbEntity
  8
03
100
AcDbLine
 10
254.4352010672769
 20
154.1921590680185
 30
0.0
 11
263.6852010672769
 21
154.1921590680185
 31
0.0
  0
LEADER
  5
E2B
330
A
100
AcDbEntity
  8
HIKIDASI
100
AcDbLeader
  3
SUNPOU_2_20
 73
     0
 75
     1
 40
5.0
 41
30.4
 76
     3
 10
238.6852010672771
 20
132.4653467461832
 30
0.0
 10
249.6380050042073
 20
121.3309748164728
 30
0.0
 10
249.6380050042073
 20
116.3309748164728
 30
0.0
340
E2C
211
0.0000000000000001
221
1.0
231
0.0
1001
ACAD
1000
DSTYLE
1002
{
1070
     5
1000
OPEN30
1070
    77
1070
     1
1070
   147
1040
1.0
1070
   342
1005
44E
1002
}
1000
LEANOF
1010
0.0
1020
0.0
1030
0.0
1000
LEANOF
1010
0.0
1020
0.0
1030
0.0
  0
MTEXT
  5
E2C
330
A
100
AcDbEntity
  8
HIKIDASI
100
AcDbMText
 10
247.6380050042073
 20
114.3309748164728
 30
0.0
 40
5.0
 41
0.0
 71
     9
 72
     1
  1
トロよけカバー
  7
SUNPOU
 11
0.0000000000000001
 21
1.0
 31
0.0
1001
ACAD
1000
MTEXTBEGIN
1070
    73
1070
     1
1070
    44
1040
1.0
1070
    74
1070
     0
1000
MTEXTEND
1000
MTEXTBEGIN
1070
    73
1070
     1
1070
    44
1040
1.0
1070
    74
1070
     0
1000
MTEXTEND
  0
LINE
  5
F3A
330
A
100
AcDbEntity
  8
06
100
AcDbLine
 10
296.1852010672764
 20
324.1921590680183
 30
0.0
 11
296.1852010672764
 21
326.6921590680183
 31
0.0
  0
LINE
  5
F3B
330
A
100
AcDbEntity
  8
06
100
AcDbLine
 10
299.6852010672764
 20
321.6921590680184
 30
0.0
 11
299.6852010672764
 21
324.1921590680183
 31
0.0
  0
LINE
  5
F3C
330
A
100
AcDbEntity
  8
06
100
AcDbLine
 10
299.6852010672764
 20
324.1921590680183
 30
0.0
 11
296.1852010672764
 21
324.1921590680183
 31
0.0
  0
LINE
  5
F3D
330
A
100
AcDbEntity
  8
06
100
AcDbLine
 10
278.6852010672764
 20
324.1921590680183
 30
0.0
 11
278.6852010672764
 21
321.6921590680184
 31
0.0
  0
LINE
  5
F3E
330
A
100
AcDbEntity
  8
06
100
AcDbLine
 10
278.6852010672764
 20
321.6921590680184
 30
0.0
 11
299.6852010672768
 21
321.6921590680184
 31
0.0
  0
LINE
  5
F3F
330
A
100
AcDbEntity
  8
06
100
AcDbLine
 10
282.1852010672764
 20
326.6921590680183
 30
0.0
 11
282.1852010672764
 21
324.1921590680183
 31
0.0
  0
LINE
  5
F40
330
A
100
AcDbEntity
  8
06
100
AcDbLine
 10
282.1852010672764
 20
324.1921590680183
 30
0.0
 11
278.6852010672764
 21
324.1921590680183
 31
0.0
  0
ARC
  5
F4D
330
A
100
AcDbEntity
  8
06
100
AcDbCircle
 10
299.4911616943273
 20
313.1921590680184
 30
0.0
 40
1.75
100
AcDbArc
 50
210.1390449605222
 51
149.8609550394776
  0
LINE
  5
F4E
330
A
100
AcDbEntity
  8
06
100
AcDbLine
 10
295.1852010672764
 20
315.6921590680183
 30
0.0
 11
297.9777451417053
 21
314.0708343995543
 31
0.0
  0
LINE
  5
F4F
330
A
100
AcDbEntity
  8
06
100
AcDbLine
 10
297.9777451417053
 20
312.3134837364821
 30
0.0
 11
295.185201067276
 21
310.6921590680177
 31
0.0
  0
LINE
  5
F50
330
A
100
AcDbEntity
  8
06
100
AcDbLine
 10
295.1852010672765
 20
309.6921590680183
 30
0.0
 11
295.1852010672765
 21
310.6921590680183
 31
0.0
  0
LINE
  5
F51
330
A
100
AcDbEntity
  8
06
100
AcDbLine
 10
292.6852010672765
 20
309.6921590680183
 30
0.0
 11
295.1852010672765
 21
309.6921590680183
 31
0.0
  0
LINE
  5
F52
330
A
100
AcDbEntity
  8
06
100
AcDbLine
 10
282.6852010672765
 20
309.6921590680183
 30
0.0
 11
280.1852010672764
 21
309.6921590680183
 31
0.0
  0
LINE
  5
F53
330
A
100
AcDbEntity
  8
06
100
AcDbLine
 10
280.1852010672764
 20
309.6921590680183
 30
0.0
 11
280.1852010672764
 21
316.6921590680183
 31
0.0
  0
LINE
  5
F54
330
A
100
AcDbEntity
  8
06
100
AcDbLine
 10
280.1852010672764
 20
316.6921590680183
 30
0.0
 11
295.1852010672764
 21
316.6921590680183
 31
0.0
  0
LINE
  5
F55
330
A
100
AcDbEntity
  8
06
100
AcDbLine
 10
295.1852010672764
 20
316.6921590680183
 30
0.0
 11
295.1852010672764
 21
315.6921590680183
 31
0.0
  0
LINE
  5
F56
330
A
100
AcDbEntity
  8
06
100
AcDbLine
 10
284.6852010672765
 20
312.1921590680183
 30
0.0
 11
290.6852010672766
 21
312.1921590680183
 31
0.0
  0
LINE
  5
F57
330
A
100
AcDbEntity
  8
06
100
AcDbLine
 10
292.6852010672764
 20
303.1921590680183
 30
0.0
 11
292.6852010672765
 21
309.6921590680183
 31
0.0
  0
LINE
  5
F58
330
A
100
AcDbEntity
  8
06
100
AcDbLine
 10
282.6852010672764
 20
303.1921590680183
 30
0.0
 11
282.6852010672765
 21
309.6921590680183
 31
0.0
  0
LINE
  5
FA6
330
A
100
AcDbEntity
  8
06
100
AcDbLine
 10
273.1852010672771
 20
176.1921590680188
 30
0.0
 11
274.6852010672772
 21
176.1921590680188
 31
0.0
  0
LINE
  5
FA7
330
A
100
AcDbEntity
  8
06
100
AcDbLine
 10
274.6852010672772
 20
176.1921590680188
 30
0.0
 11
274.6852010672772
 21
177.6921590680188
 31
0.0
  0
LINE
  5
FA8
330
A
100
AcDbEntity
  8
06
100
AcDbLine
 10
274.6852010672772
 20
177.6921590680188
 30
0.0
 11
277.1852010672771
 21
177.6921590680188
 31
0.0
  0
LINE
  5
FA9
330
A
100
AcDbEntity
  8
06
100
AcDbLine
 10
277.1852010672771
 20
177.6921590680188
 30
0.0
 11
277.1852010672771
 21
169.6921590680188
 31
0.0
  0
LINE
  5
FAA
330
A
100
AcDbEntity
  8
06
100
AcDbLine
 10
277.1852010672771
 20
169.6921590680188
 30
0.0
 11
274.6852010672772
 21
169.6921590680188
 31
0.0
  0
LINE
  5
FAB
330
A
100
AcDbEntity
  8
06
100
AcDbLine
 10
274.6852010672772
 20
169.6921590680188
 30
0.0
 11
274.6852010672772
 21
171.1921590680188
 31
0.0
  0
LINE
  5
FAC
330
A
100
AcDbEntity
  8
06
100
AcDbLine
 10
274.6852010672772
 20
171.1921590680188
 30
0.0
 11
273.1852010672771
 21
171.1921590680188
 31
0.0
  0
LINE
  5
FB2
330
A
100
AcDbEntity
  8
06
100
AcDbLine
 10
292.6852010672772
 20
185.6921590680188
 30
0.0
 11
292.6852010672772
 21
179.1921590680188
 31
0.0
  0
LINE
  5
FB3
330
A
100
AcDbEntity
  8
06
100
AcDbLine
 10
292.6852010672772
 20
179.1921590680188
 30
0.0
 11
295.1852010672772
 21
179.1921590680187
 31
0.0
  0
LINE
  5
FB4
330
A
100
AcDbEntity
  8
06
100
AcDbLine
 10
295.1852010672772
 20
172.1921590680188
 30
0.0
 11
280.1852010672772
 21
172.1921590680188
 31
0.0
  0
LINE
  5
FB5
330
A
100
AcDbEntity
  8
06
100
AcDbLine
 10
295.1852010672804
 20
172.1921590680188
 30
0.0
 11
295.1852010672772
 21
173.2386787476784
 31
0.0
  0
LINE
  5
FB6
330
A
100
AcDbEntity
  8
06
100
AcDbLine
 10
295.1852010672772
 20
179.1921590680188
 30
0.0
 11
295.1852010672773
 21
178.1458977120745
 31
0.0
  0
LINE
  5
FB7
330
A
100
AcDbEntity
  8
06
100
AcDbLine
 10
297.9196595040836
 20
176.5671573974965
 30
0.0
 11
295.1977571232623
 21
178.1386484697716
 31
0.0
  0
LINE
  5
FB8
330
A
100
AcDbEntity
  8
06
100
AcDbLine
 10
297.9375526811661
 20
174.8274913691462
 30
0.0
 11
295.1852010672804
 21
173.2384204239645
 31
0.0
  0
ARC
  5
FB9
330
A
100
AcDbEntity
  8
06
100
AcDbCircle
 10
299.4352010672772
 20
175.6921590680188
 30
0.0
 40
1.75
100
AcDbArc
 50
209.999999999999
 51
150.1119592010784
  0
LINE
  5
FBA
330
A
100
AcDbEntity
  8
06
100
AcDbLine
 10
282.6852010672773
 20
185.6921590680188
 30
0.0
 11
282.685201067277
 21
179.1921590680188
 31
0.0
  0
LINE
  5
FBB
330
A
100
AcDbEntity
  8
06
100
AcDbLine
 10
280.1852010672772
 20
179.1921590680188
 30
0.0
 11
282.6852010672772
 21
179.1921590680188
 31
0.0
  0
LINE
  5
FBC
330
A
100
AcDbEntity
  8
06
100
AcDbLine
 10
280.1852010672772
 20
172.1921590680188
 30
0.0
 11
280.1852010672772
 21
179.1921590680188
 31
0.0
  0
LINE
  5
FC3
330
A
100
AcDbEntity
  8
06
100
AcDbLine
 10
297.1852010672772
 20
167.1921590680188
 30
0.0
 11
278.1852010672772
 21
167.1921590680188
 31
0.0
  0
MTEXT
  5
1002
102
{ACAD_REACTORS
330
1003
102
}
330
A
100
AcDbEntity
  8
HIKIDASI
100
AcDbMText
 10
255.2302385814621
 20
188.5897779534738
 30
0.0
 40
5.0
 41
0.0
 71
     7
 72
     1
  1
スリムセナージ･ドアI型
  7
SUNPOU
 11
0.0000000000000001
 21
1.0
 31
0.0
1001
ACAD
1000
MTEXTBEGIN
1070
    73
1070
     1
1070
    44
1040
1.0
1070
    74
1070
     0
1000
MTEXTEND
1000
MTEXTBEGIN
1070
    73
1070
     1
1070
    44
1040
1.0
1070
    74
1070
     0
1000
MTEXTEND
  0
LEADER
  5
1003
330
A
100
AcDbEntity
  8
HIKIDASI
100
AcDbLeader
  3
SUNPOU_2
 73
     0
 74
     0
 75
     1
 40
5.0
 41
46.13333333333335
 76
     3
 10
271.6852010672772
 20
173.1921590680187
 30
0.0
 10
257.2302385814621
 20
181.5897779534738
 30
0.0
 10
257.2302385814621
 20
186.5897779534738
 30
0.0
211
0.0000000000000001
221
1.0
231
0.0
1001
ACAD
1000
DSTYLE
1002
{
1070
     5
1000
OPEN30
1070
    77
1070
     1
1070
   147
1040
1.0
1070
   342
1005
44E
1002
}
1000
LEANOF
1010
0.0
1020
0.0
1030
0.0
1000
LEANOF
1010
0.0
1020
0.0
1030
0.0
  0
LINE
  5
100A
330
A
100
AcDbEntity
  8
03
100
AcDbLine
 10
244.6852010672766
 20
304.6921590680182
 30
0.0
 11
265.1852010672765
 21
304.6921590680183
 31
0.0
  0
LINE
  5
100B
330
A
100
AcDbEntity
  8
03
100
AcDbLine
 10
232.6852010672765
 20
304.6921590680182
 30
0.0
 11
232.6852010672765
 21
303.1921590680179
 31
0.0
  0
LINE
  5
100C
330
A
100
AcDbEntity
  8
03
100
AcDbLine
 10
244.6852010672766
 20
304.6921590680182
 30
0.0
 11
244.6852010672766
 21
303.1921590680182
 31
0.0
  0
LINE
  5
1011
330
A
100
AcDbEntity
  8
03
100
AcDbLine
 10
244.685201067277
 20
155.6921590680185
 30
0.0
 11
323.9352010672774
 21
155.6921590680186
 31
0.0
  0
LINE
  5
1012
330
A
100
AcDbEntity
  8
03
100
AcDbLine
 10
244.685201067277
 20
154.1921590680185
 30
0.0
 11
323.1852010672771
 21
154.1921590680185
 31
0.0
  0
LINE
  5
1013
330
A
100
AcDbEntity
  8
03
100
AcDbLine
 10
232.6852010672769
 20
155.6921590680185
 30
0.0
 11
232.6852010672769
 21
154.1921590680185
 31
0.0
  0
LINE
  5
1014
330
A
100
AcDbEntity
  8
03
100
AcDbLine
 10
244.685201067277
 20
155.6921590680185
 30
0.0
 11
244.6852010672771
 21
154.1921590680185
 31
0.0
  0
CIRCLE
  5
109A
330
A
100
AcDbEntity
  8
SAISEN
100
AcDbCircle
 10
391.0976380784293
 20
50.54302641223159
 30
0.0
 40
5.0
  0
TEXT
  5
109B
330
A
100
AcDbEntity
  8
MOJI
100
AcDbText
 10
388.0488190392131
 20
46.27151320611589
 30
0.0
 40
8.0
  1
Ｓ
 41
0.8
  7
0_8
 11
388.0488190392131
 21
54.27151320611589
 31
0.0
100
AcDbText
 73
     3
  0
LINE
  5
1104
330
A
100
AcDbEntity
  8
03
100
AcDbLine
 10
211.4352010672765
 20
303.1921590680179
 30
0.0
 11
232.6852010672765
 21
303.1921590680179
 31
0.0
  0
LINE
  5
1105
330
A
100
AcDbEntity
  8
03
100
AcDbLine
 10
244.6852010672766
 20
303.1921590680182
 30
0.0
 11
265.9352010672765
 21
303.1921590680183
 31
0.0
  0
MTEXT
  5
11BD
330
A
100
AcDbEntity
  8
MOJI
100
AcDbMText
 10
359.9999999999972
 20
29.00000000000011
 30
0.0
 40
7.0
 41
49.99999999999994
 71
     5
 72
     1
  1
姿図　　　　\Pよこ断面図　
  7
0_80
1001
ACAD
1000
MTEXTBEGIN
1070
    73
1070
     1
1070
    44
1040
1.0
1070
    74
1070
     0
1000
MTEXTEND
1000
MTEXTBEGIN
1070
    73
1070
     1
1070
    44
1040
1.0
1070
    74
1070
     0
1000
MTEXTEND
  0
MTEXT
  5
11BE
330
A
100
AcDbEntity
  8
MOJI
100
AcDbMText
 10
309.9999999999969
 20
29.0
 30
0.0
 40
7.0
 41
50.0
 71
     5
 72
     1
  1
図番３－２
  7
0_80
1001
ACAD
1000
MTEXTBEGIN
1070
    73
1070
     1
1070
    44
1040
1.0
1070
    74
1070
     0
1000
MTEXTEND
1000
MTEXTBEGIN
1070
    73
1070
     1
1070
    44
1040
1.0
1070
    74
1070
     0
1000
MTEXTEND
  0
POLYLINE
  5
11BF
330
A
100
AcDbEntity
  8
SAISEN
100
AcDb2dPolyline
 66
     1
 10
0.0
 20
0.0
 30
0.0
 70
     1
  0
VERTEX
  5
1249
330
11BF
100
AcDbEntity
  8
SAISEN
100
AcDbVertex
100
AcDb2dVertex
 10
34.99999999999703
 20
17.0
 30
0.0
  0
VERTEX
  5
124A
330
11BF
100
AcDbEntity
  8
SAISEN
100
AcDbVertex
100
AcDb2dVertex
 10
384.999999999997
 20
17.0
 30
0.0
  0
VERTEX
  5
124B
330
11BF
100
AcDbEntity
  8
SAISEN
100
AcDbVertex
100
AcDb2dVertex
 10
384.999999999997
 20
42.00000000000023
 30
0.0
  0
VERTEX
  5
124C
330
11BF
100
AcDbEntity
  8
SAISEN
100
AcDbVertex
100
AcDb2dVertex
 10
34.99999999999703
 20
42.00000000000023
 30
0.0
  0
SEQEND
  5
124D
330
11BF
100
AcDbEntity
  8
SAISEN
  0
LINE
  5
11C0
330
A
100
AcDbEntity
  8
SAISEN
100
AcDbLine
 10
144.999999999997
 20
42.00000000000023
 30
0.0
 11
144.999999999997
 21
17.0
 31
0.0
  0
MTEXT
  5
11C1
330
A
100
AcDbEntity
  8
MOJI
100
AcDbMText
 10
184.9999999999969
 20
29.50000000000011
 30
0.0
 40
7.0
 41
80.0
 71
     5
 72
     1
  1
Ｍ３台板
  7
0_8
1001
ACAD
1000
MTEXTBEGIN
1070
    73
1070
     1
1070
    44
1040
1.0
1070
    74
1070
     0
1000
MTEXTEND
1000
MTEXTBEGIN
1070
    73
1070
     1
1070
    44
1040
1.0
1070
    74
1070
     0
1000
MTEXTEND
  0
MTEXT
  5
11C2
330
A
100
AcDbEntity
  8
MOJI
100
AcDbMText
 10
255.1775147928989
 20
29.57396449704253
 30
0.0
 40
7.0
 41
60.0
 71
     5
 72
     1
  1
片引き
  7
0_8
1001
ACAD
1000
MTEXTBEGIN
1070
    73
1070
     1
1070
    44
1040
1.0
1070
    74
1070
     0
1000
MTEXTEND
1000
MTEXTBEGIN
1070
    73
1070
     1
1070
    44
1040
1.0
1070
    74
1070
     0
1000
MTEXTEND
  0
LINE
  5
11C3
330
A
100
AcDbEntity
  8
SAISEN
100
AcDbLine
 10
224.9999999999969
 20
42.00000000000023
 30
0.0
 11
224.9999999999969
 21
17.0
 31
0.0
  0
LINE
  5
11C4
330
A
100
AcDbEntity
  8
SAISEN
100
AcDbLine
 10
284.9999999999969
 20
42.00000000000023
 30
0.0
 11
284.9999999999969
 21
17.0
 31
0.0
  0
MTEXT
  5
11C5
330
A
100
AcDbEntity
  8
MOJI
100
AcDbMText
 10
89.89194499017385
 20
29.52455795677804
 30
0.0
 40
6.5
 41
110.0
 71
     5
 72
     1
  1
ステンレスサッシ　枠見込１２０mm\Pユニット台板納り
  7
0_8
1001
ACAD
1000
MTEXTBEGIN
1070
    73
1070
     1
1070
    44
1040
1.0
1070
    74
1070
     0
1000
MTEXTEND
1000
MTEXTBEGIN
1070
    73
1070
     1
1070
    44
1040
1.0
1070
    74
1070
     0
1000
MTEXTEND
  0
VIEWPORT
  5
9A4
102
{ACAD_XDICTIONARY
360
1202
102
}
330
B
100
AcDbEntity
 67
     1
  8
0
100
AcDbViewport
 10
198.0508299538852
 20
285.1874487354477
 30
0.0
 40
1078.343208727591
 41
628.3535021666721
 68
     1
 69
     1
1001
ACAD
1000
MVIEW
1002
{
1070
    16
1010
0.0
1020
0.0
1030
0.0
1010
0.0
1020
0.0
1030
1.0
1040
0.0
1040
628.3535021666721
1040
198.0508299538852
1040
285.1874487354477
1040
50.0
1040
0.0
1040
0.0
1070
     0
1070
   100
1070
     1
1070
     1
1070
     0
1070
     0
1070
     0
1070
     0
1040
0.0
1040
0.0
1040
0.0
1040
10.0
1040
10.0
1040
10.0
1040
10.0
1070
     0
1002
{
1002
}
1002
}
  0
VIEWPORT
  5
11EA
102
{ACAD_XDICTIONARY
360
1208
102
}
330
B
100
AcDbEntity
 67
     1
  8
DEFPOINTS
100
AcDbViewport
 10
198.0508309076477
 20
285.1874477816852
 30
0.0
 40
396.4883172119752
 41
570.409736121624
 68
     2
 69
     2
1001
ACAD
1000
MVIEW
1002
{
1070
    16
1010
0.0
1020
0.0
1030
0.0
1010
0.0
1020
0.0
1030
1.0
1040
0.0
1040
570.409736121624
1040
210.0
1040
297.0
1040
50.0
1040
0.0
1040
0.0
1070
     0
1070
   100
1070
     1
1070
     1
1070
     0
1070
     0
1070
     0
1070
     0
1040
0.0
1040
0.0
1040
0.0
1040
1.0
1040
1.0
1040
0.0
1040
0.0
1070
     0
1002
{
1002
}
1002
}
  0
ENDSEC
  0
SECTION
  2
OBJECTS
  0
DICTIONARY
  5
19
330
0
100
AcDbDictionary
  3
ACAD_COLOR
350
98D
  3
ACAD_GROUP
350
1A
  3
ACAD_LAYOUT
350
3E4
  3
ACAD_MATERIAL
350
98C
  3
ACAD_MLINESTYLE
350
1B
  3
ACAD_PLOTSETTINGS
350
3E5
  3
ACADDIM
350
E2A
  3
ASE_INDEX_DICTIONARY
350
11A8
  3
DWGPROPS
350
11FE
1001
ACAD
1000
TREAT_AS_HARD
1070
     0
1000
TREAT_AS_HARD
1070
     0
  0
DICTIONARY
  5
11AD
330
2
100
AcDbDictionary
  3
ACAD_LAYERSTATES
350
11AE
1001
ACAD
1000
TREAT_AS_HARD
1070
     1
  0
DICTIONARY
  5
1143
330
A
100
AcDbDictionary
  3
ACAD_LAYOUTSELFREF
350
1210
1001
ACAD
1000
TREAT_AS_HARD
1070
     1
  0
DICTIONARY
  5
1145
330
B
100
AcDbDictionary
  3
ACAD_LAYOUTSELFREF
350
1211
1001
ACAD
1000
TREAT_AS_HARD
1070
     1
  0
DICTIONARY
  5
1202
330
9A4
100
AcDbDictionary
  3
ACAD_XREC_ROUNDTRIP
350
1203
1001
ACAD
1000
TREAT_AS_HARD
1070
     1
  0
DICTIONARY
  5
1208
330
11EA
100
AcDbDictionary
  3
ACAD_XREC_ROUNDTRIP
350
1209
1001
ACAD
1000
TREAT_AS_HARD
1070
     1
  0
DICTIONARY
  5
98D
102
{ACAD_REACTORS
330
19
102
}
330
19
100
AcDbDictionary
1001
ACAD
1000
TREAT_AS_HARD
1070
     0
1000
TREAT_AS_HARD
1070
     0
  0
DICTIONARY
  5
1A
102
{ACAD_REACTORS
330
19
102
}
330
19
100
AcDbDictionary
  3
DAGROUP284
350
284
  3
DAGROUP288
350
288
  3
DAGROUP28C
350
28C
  3
DAGROUP290
350
290
  3
DAGROUP296
350
296
  3
DAGROUP29C
350
29C
  3
DAGROUP2A2
350
2A2
  3
DAGROUP2A8
350
2A8
  3
DAGROUP2AE
350
2AE
  3
DAGROUP2B4
350
2B4
  3
DAGROUP2BA
350
2BA
  3
DAGROUP2C0
350
2C0
  3
DAGROUP2C6
350
2C6
  3
DAGROUP2CC
350
2CC
  3
DAGROUP2D0
350
2D0
1001
ACAD
1000
TREAT_AS_HARD
1070
     0
1000
TREAT_AS_HARD
1070
     0
  0
DICTIONARY
  5
3E4
102
{ACAD_REACTORS
330
19
102
}
330
19
100
AcDbDictionary
1001
ACAD
1000
TREAT_AS_HARD
1070
     0
1000
TREAT_AS_HARD
1070
     0
  0
DICTIONARY
  5
98C
102
{ACAD_REACTORS
330
19
102
}
330
19
100
AcDbDictionary
1001
ACAD
1000
TREAT_AS_HARD
1070
     0
1000
TREAT_AS_HARD
1070
     0
  0
DICTIONARY
  5
1B
102
{ACAD_REACTORS
330
19
102
}
330
19
100
AcDbDictionary
  3
STANDARD
350
1C
1001
ACAD
1000
TREAT_AS_HARD
1070
     0
1000
TREAT_AS_HARD
1070
     0
  0
DICTIONARY
  5
3E5
102
{ACAD_REACTORS
330
19
102
}
330
19
100
AcDbDictionary
1001
ACAD
1000
TREAT_AS_HARD
1070
     0
1000
TREAT_AS_HARD
1070
     0
  0
XRECORD
  5
E2A
102
{ACAD_REACTORS
330
19
102
}
330
19
100
AcDbXrecord
 90
   990106
  3

 60
     0
 61
     0
 62
     4
 63
     4
 64
     1
 65
     0
 66
     0
 67
     3
 68
     1
 69
     0
 70
     0
 71
     0
 72
     0
 40
0.0
170
     2
340
E2C
  0
DICTIONARY
  5
11A8
102
{ACAD_REACTORS
330
19
102
}
330
19
100
AcDbDictionary
  3
ASEBLOCKHIERARCHYINDEXRECORD
350
11A9
1001
DCO15
1040
1508668365.875
1001
ACAD
1000
TREAT_AS_HARD
1070
     0
  0
XRECORD
  5
11FE
102
{ACAD_REACTORS
330
19
102
}
330
19
100
AcDbXrecord
  1
DWGPROPS COOKIE
  2

  3

  4

  6

  7

  8

  9

300
=
301
=
302
=
303
=
304
=
305
=
306
=
307
=
308
=
309
=
 40
0.2849347337962963
 41
2444972.375
 42
2453265.758257372
  1

 90
        0
  0
DICTIONARY
  5
11AE
102
{ACAD_REACTORS
330
11AD
102
}
330
11AD
100
AcDbDictionary
1001
ACAD
1000
TREAT_AS_HARD
1070
     0
  0
XRECORD
  5
1210
102
{ACAD_REACTORS
330
1143
102
}
330
1143
100
AcDbXrecord
340
A
  0
XRECORD
  5
1211
102
{ACAD_REACTORS
330
1145
102
}
330
1145
100
AcDbXrecord
340
B
  0
XRECORD
  5
1203
102
{ACAD_REACTORS
330
1202
102
}
330
1202
100
AcDbXrecord
102
SHADEPLOT
 70
     0
  0
XRECORD
  5
1209
102
{ACAD_REACTORS
330
1208
102
}
330
1208
100
AcDbXrecord
102
SHADEPLOT
 70
     0
  0
GROUP
  5
284
102
{ACAD_REACTORS
330
1A
102
}
330
1A
100
AcDbGroup
300

 70
     0
 71
     1
  0
GROUP
  5
288
102
{ACAD_REACTORS
330
1A
102
}
330
1A
100
AcDbGroup
300

 70
     0
 71
     1
  0
GROUP
  5
28C
102
{ACAD_REACTORS
330
1A
102
}
330
1A
100
AcDbGroup
300

 70
     0
 71
     1
  0
GROUP
  5
290
102
{ACAD_REACTORS
330
1A
102
}
330
1A
100
AcDbGroup
300

 70
     0
 71
     1
  0
GROUP
  5
296
102
{ACAD_REACTORS
330
1A
102
}
330
1A
100
AcDbGroup
300

 70
     0
 71
     1
  0
GROUP
  5
29C
102
{ACAD_REACTORS
330
1A
102
}
330
1A
100
AcDbGroup
300

 70
     0
 71
     1
  0
GROUP
  5
2A2
102
{ACAD_REACTORS
330
1A
102
}
330
1A
100
AcDbGroup
300

 70
     0
 71
     1
  0
GROUP
  5
2A8
102
{ACAD_REACTORS
330
1A
102
}
330
1A
100
AcDbGroup
300

 70
     0
 71
     1
  0
GROUP
  5
2AE
102
{ACAD_REACTORS
330
1A
102
}
330
1A
100
AcDbGroup
300

 70
     0
 71
     1
  0
GROUP
  5
2B4
102
{ACAD_REACTORS
330
1A
102
}
330
1A
100
AcDbGroup
300

 70
     0
 71
     1
  0
GROUP
  5
2BA
102
{ACAD_REACTORS
330
1A
102
}
330
1A
100
AcDbGroup
300

 70
     0
 71
     1
  0
GROUP
  5
2C0
102
{ACAD_REACTORS
330
1A
102
}
330
1A
100
AcDbGroup
300

 70
     0
 71
     1
  0
GROUP
  5
2C6
102
{ACAD_REACTORS
330
1A
102
}
330
1A
100
AcDbGroup
300

 70
     0
 71
     1
  0
GROUP
  5
2CC
102
{ACAD_REACTORS
330
1A
102
}
330
1A
100
AcDbGroup
300

 70
     0
 71
     1
  0
GROUP
  5
2D0
102
{ACAD_REACTORS
330
1A
102
}
330
1A
100
AcDbGroup
300

 70
     0
 71
     1
  0
MLINESTYLE
  5
1C
102
{ACAD_REACTORS
330
1B
102
}
330
1B
100
AcDbMlineStyle
  2
STANDARD
 70
     0
  3

 62
     0
 51
90.00000000000019
 52
90.00000000000019
 71
     2
 49
0.5
 62
   256
  6
BYLAYER
 49
-0.5
 62
   256
  6
BYLAYER
  0
XRECORD
  5
11A9
102
{ACAD_REACTORS
330
11A8
102
}
330
11A8
100
AcDbXrecord
330
1162
330
1163
330
116D
330
116E
330
C3F
330
C40
330
BBE
330
BBF
330
C51
330
C52
330
D9B
330
D9C
330
D85
330
D86
330
BD8
330
BD9
330
BE1
330
BE2
330
BEA
330
BEB
330
BF3
330
BF4
330
BFC
330
BFD
330
C08
330
C09
330
C10
330
C11
330
C19
330
C1A
330
C22
330
C23
330
B03
330
B04
330
B0B
330
B0C
330
B31
330
B32
330
B15
330
B16
  0
ENDSEC
  0
EOF
