  0
SECTION
  2
HEADER
  9
$ACADVER
  1
AC1012
  9
$DWGCODEPAGE
  3
dos932
  9
$INSBASE
 10
0.0
 20
0.0
 30
0.0
  9
$EXTMIN
 10
0.0
 20
0.0
 30
0.0
  9
$EXTMAX
 10
420.0
 20
594.0
 30
0.0
  9
$LIMMIN
 10
0.0
 20
0.0
  9
$LIMMAX
 10
420.0
 20
594.0
  9
$ORTHOMODE
 70
     0
  9
$REGENMODE
 70
     1
  9
$FILLMODE
 70
     1
  9
$QTEXTMODE
 70
     0
  9
$MIRRTEXT
 70
     1
  9
$DRAGMODE
 70
     2
  9
$LTSCALE
 40
1.0
  9
$OSMODE
 70
    37
  9
$ATTMODE
 70
     1
  9
$TEXTSIZE
 40
6.0
  9
$TRACEWID
 40
0.05
  9
$TEXTSTYLE
  7
STANDARD
  9
$CLAYER
  8
DEFPOINTS
  9
$CELTYPE
  6
BYLAYER
  9
$CECOLOR
 62
   256
  9
$CELTSCALE
 40
1.0
  9
$DELOBJ
 70
     1
  9
$DISPSILH
 70
     0
  9
$DIMSCALE
 40
2.0
  9
$DIMASZ
 40
2.5
  9
$DIMEXO
 40
1.5
  9
$DIMDLI
 40
0.0
  9
$DIMRND
 40
0.0
  9
$DIMDLE
 40
0.0
  9
$DIMEXE
 40
1.0
  9
$DIMTP
 40
0.0
  9
$DIMTM
 40
0.0
  9
$DIMTXT
 40
2.5
  9
$DIMCEN
 40
0.0
  9
$DIMTSZ
 40
0.0
  9
$DIMTOL
 70
     0
  9
$DIMLIM
 70
     0
  9
$DIMTIH
 70
     0
  9
$DIMTOH
 70
     0
  9
$DIMSE1
 70
     0
  9
$DIMSE2
 70
     0
  9
$DIMTAD
 70
     1
  9
$DIMZIN
 70
     8
  9
$DIMBLK
  1
OPEN30
  9
$DIMASO
 70
     1
  9
$DIMSHO
 70
     1
  9
$DIMPOST
  1

  9
$DIMAPOST
  1

  9
$DIMALT
 70
     0
  9
$DIMALTD
 70
     2
  9
$DIMALTF
 40
25.4
  9
$DIMLFAC
 40
1.0
  9
$DIMTOFL
 70
     1
  9
$DIMTVP
 40
0.0
  9
$DIMTIX
 70
     0
  9
$DIMSOXD
 70
     0
  9
$DIMSAH
 70
     0
  9
$DIMBLK1
  1

  9
$DIMBLK2
  1

  9
$DIMSTYLE
  2
SUNPOU_2
  9
$DIMCLRD
 70
   256
  9
$DIMCLRE
 70
   256
  9
$DIMCLRT
 70
     6
  9
$DIMTFAC
 40
1.0
  9
$DIMGAP
 40
1.0
  9
$DIMJUST
 70
     0
  9
$DIMSD1
 70
     0
  9
$DIMSD2
 70
     0
  9
$DIMTOLJ
 70
     1
  9
$DIMTZIN
 70
     0
  9
$DIMALTZ
 70
     0
  9
$DIMALTTZ
 70
     0
  9
$DIMFIT
 70
     3
  9
$DIMUPT
 70
     0
  9
$DIMUNIT
 70
     2
  9
$DIMDEC
 70
     1
  9
$DIMTDEC
 70
     1
  9
$DIMALTU
 70
     2
  9
$DIMALTTD
 70
     2
  9
$DIMTXSTY
  7
SUNPOU
  9
$DIMAUNIT
 70
     0
  9
$LUNITS
 70
     2
  9
$LUPREC
 70
     4
  9
$SKETCHINC
 40
0.1
  9
$FILLETRAD
 40
0.0
  9
$AUNITS
 70
     0
  9
$AUPREC
 70
     0
  9
$MENU
  1
acad
  9
$ELEVATION
 40
0.0
  9
$PELEVATION
 40
0.0
  9
$THICKNESS
 40
0.0
  9
$LIMCHECK
 70
     0
  9
$BLIPMODE
 70
     0
  9
$CHAMFERA
 40
0.0
  9
$CHAMFERB
 40
0.0
  9
$CHAMFERC
 40
0.0
  9
$CHAMFERD
 40
0.0
  9
$SKPOLY
 70
     0
  9
$TDCREATE
 40
2444972.375000000
  9
$TDUPDATE
 40
2453266.400799873
  9
$TDINDWG
 40
0.5318315856
  9
$TDUSRTIMER
 40
0.5318315856
  9
$USRTIMER
 70
     1
  9
$ANGBASE
 50
0.0
  9
$ANGDIR
 70
     0
  9
$PDMODE
 70
     0
  9
$PDSIZE
 40
1.0
  9
$PLINEWID
 40
0.0
  9
$COORDS
 70
     1
  9
$SPLFRAME
 70
     0
  9
$SPLINETYPE
 70
     6
  9
$SPLINESEGS
 70
     8
  9
$ATTDIA
 70
     0
  9
$ATTREQ
 70
     1
  9
$HANDLING
 70
-16383
  9
$HANDSEED
  5
23C1
  9
$SURFTAB1
 70
     6
  9
$SURFTAB2
 70
     6
  9
$SURFTYPE
 70
     6
  9
$SURFU
 70
     6
  9
$SURFV
 70
     6
  9
$UCSNAME
  2

  9
$UCSORG
 10
0.0
 20
0.0
 30
0.0
  9
$UCSXDIR
 10
1.0
 20
0.0
 30
0.0
  9
$UCSYDIR
 10
0.0
 20
1.0
 30
0.0
  9
$PUCSNAME
  2

  9
$PUCSORG
 10
0.0
 20
0.0
 30
0.0
  9
$PUCSXDIR
 10
1.0
 20
0.0
 30
0.0
  9
$PUCSYDIR
 10
0.0
 20
1.0
 30
0.0
  9
$USERI1
 70
     0
  9
$USERI2
 70
     0
  9
$USERI3
 70
     0
  9
$USERI4
 70
     0
  9
$USERI5
 70
     0
  9
$USERR1
 40
0.0
  9
$USERR2
 40
0.0
  9
$USERR3
 40
0.0
  9
$USERR4
 40
0.0
  9
$USERR5
 40
0.0
  9
$WORLDVIEW
 70
     1
  9
$SHADEDGE
 70
     3
  9
$SHADEDIF
 70
    70
  9
$TILEMODE
 70
     1
  9
$MAXACTVP
 70
    16
  9
$PINSBASE
 10
0.0
 20
0.0
 30
0.0
  9
$PLIMCHECK
 70
     0
  9
$PEXTMIN
 10
-0.1933276983398855
 20
-0.0174202791267817
 30
-0.0000000349181948
  9
$PEXTMAX
 10
396.2949895136353
 20
570.3923158424973
 30
0.0000000814935747
  9
$PLIMMIN
 10
-11.94191342824454
 20
-11.76600219398141
  9
$PLIMMAX
 10
408.0435733360149
 20
582.1408996648768
  9
$UNITMODE
 70
     0
  9
$VISRETAIN
 70
     0
  9
$PLINEGEN
 70
     1
  9
$PSLTSCALE
 70
     0
  9
$TREEDEPTH
 70
  3020
  9
$PICKSTYLE
 70
     1
  9
$CMLSTYLE
  2
STANDARD
  9
$CMLJUST
 70
     0
  9
$CMLSCALE
 40
1.0
  9
$SAVEIMAGES
 70
     1
  0
ENDSEC
  0
SECTION
  2
CLASSES
  0
CLASS
  1
LWPOLYLINE
  2
AcDbPolyline
  3
AutoCAD 2000
 90
    32768
280
     0
281
     1
  0
CLASS
  1
IMAGE
  2
AcDbRasterImage
  3
ISM
 90
    32895
280
     0
281
     1
  0
CLASS
  1
OLE2FRAME
  2
AcDbOle2Frame
  3
AutoCAD 2000
 90
    32768
280
     0
281
     1
  0
CLASS
  1
HATCH
  2
AcDbHatch
  3
AutoCAD 2000
 90
    32768
280
     0
281
     1
  0
CLASS
  1
DICTIONARYVAR
  2
AcDbDictionaryVar
  3
AutoCAD 2000
 90
    32768
280
     0
281
     0
  0
CLASS
  1
RASTERVARIABLES
  2
AcDbRasterVariables
  3
ISM
 90
    32768
280
     0
281
     0
  0
CLASS
  1
IMAGEDEF
  2
AcDbRasterImageDef
  3
ISM
 90
    32768
280
     0
281
     0
  0
CLASS
  1
IMAGEDEF_REACTOR
  2
AcDbRasterImageDefReactor
  3
ISM
 90
    32769
280
     0
281
     0
  0
CLASS
  1
IDBUFFER
  2
AcDbIdBuffer
  3
AutoCAD 2000
 90
    32768
280
     0
281
     0
  0
CLASS
  1
SPATIAL_FILTER
  2
AcDbSpatialFilter
  3
AutoCAD 2000
 90
    32768
280
     0
281
     0
  0
CLASS
  1
XRECORD
  2
AcDbXrecord
  3
AutoCAD 2000
 90
    32768
280
     0
281
     0
  0
CLASS
  1
SORTENTSTABLE
  2
AcDbSortentsTable
  3
AutoCAD 2000
 90
    32768
280
     0
281
     0
  0
CLASS
  1
LAYER_INDEX
  2
AcDbLayerIndex
  3
AutoCAD 2000
 90
    32768
280
     0
281
     0
  0
CLASS
  1
SPATIAL_INDEX
  2
AcDbSpatialIndex
  3
AutoCAD 2000
 90
    32768
280
     0
281
     0
  0
CLASS
  1
OBJECT_PTR
  2
CAseDLPNTableRecord
  3
ASE-LPNTableRecord
 90
    32769
280
     0
281
     0
  0
CLASS
  1
ACDBDICTIONARYWDFLT
  2
AcDbDictionaryWithDefault
  3
AutoCAD 2000
 90
    32768
280
     0
281
     0
  0
CLASS
  1
ACDBPLACEHOLDER
  2
AcDbPlaceHolder
  3
AutoCAD 2000
 90
    32768
280
     0
281
     0
  0
CLASS
  1
LAYOUT
  2
AcDbLayout
  3
AutoCAD 2000
 90
    32768
280
     0
281
     0
  0
CLASS
  1
LONG_TRANSACTION
  2
AcDbLongTransaction
  3
AutoCAD 2000
 90
    32768
280
     0
281
     0
  0
CLASS
  1
LWPOLYLINE
  2
AcDbPolyline
  3
AutoCAD 2000
 90
    32768
280
     0
281
     1
  0
CLASS
  1
HATCH
  2
AcDbHatch
  3
AutoCAD 2000
 90
    32768
280
     0
281
     1
  0
CLASS
  1
XRECORD
  2
AcDbXrecord
  3
AutoCAD 2000
 90
    32768
280
     0
281
     0
  0
CLASS
  1
LONG_TRANSACTION
  2
AcDbLongTransaction
  3
AutoCAD 2000
 90
    32768
280
     0
281
     0
  0
CLASS
  1
LWPOLYLINE
  2
AcDbPolyline
  3
AutoCAD 2000
 90
    32768
280
     0
281
     1
  0
CLASS
  1
HATCH
  2
AcDbHatch
  3
AutoCAD 2000
 90
    32768
280
     0
281
     1
  0
CLASS
  1
XRECORD
  2
AcDbXrecord
  3
AutoCAD 2000
 90
    32768
280
     0
281
     0
  0
ENDSEC
  0
SECTION
  2
TABLES
  0
TABLE
  2
VPORT
  5
7
330
0
100
AcDbSymbolTable
 70
     2
  0
VPORT
  5
239F
330
7
100
AcDbSymbolTableRecord
100
AcDbViewportTableRecord
  2
*ACTIVE
 70
     0
 10
0.0
 20
0.0
 11
1.0
 21
1.0
 12
229.3259301704579
 22
297.0000027661125
 13
0.0
 23
0.0
 14
1.0
 24
1.0
 15
0.0
 25
0.0
 16
0.0
 26
0.0
 36
1.0
 17
0.0
 27
0.0
 37
0.0
 40
601.367570324306
 41
1.780442804428044
 42
50.0
 43
0.0
 44
0.0
 50
0.0
 51
0.0
 71
     0
 72
   100
 73
     1
 74
     1
 75
     0
 76
     0
 77
     0
 78
     0
  0
ENDTAB
  0
TABLE
  2
LTYPE
  5
4
330
0
100
AcDbSymbolTable
 70
     4
  0
LTYPE
  5
11
330
4
100
AcDbSymbolTableRecord
100
AcDbLinetypeTableRecord
  2
BYBLOCK
 70
     0
  3

 72
    65
 73
     0
 40
0.0
  0
LTYPE
  5
12
330
4
100
AcDbSymbolTableRecord
100
AcDbLinetypeTableRecord
  2
BYLAYER
 70
     0
  3

 72
    65
 73
     0
 40
0.0
  0
LTYPE
  5
13
330
4
100
AcDbSymbolTableRecord
100
AcDbLinetypeTableRecord
  2
CONTINUOUS
 70
     0
  3
Solid line
 72
    65
 73
     0
 40
0.0
  0
LTYPE
  5
8AD
330
4
100
AcDbSymbolTableRecord
100
AcDbLinetypeTableRecord
  2
CENTER2
 70
     0
  3
Center (.5x) ___ _ ___ _ ___ _ ___ _ ___ _ ___
 72
    65
 73
     4
 40
28.57499999999999
 49
19.05
 74
     0
 49
-3.174999999999998
 74
     0
 49
3.174999999999998
 74
     0
 49
-3.174999999999998
 74
     0
  0
LTYPE
  5
8B0
330
4
100
AcDbSymbolTableRecord
100
AcDbLinetypeTableRecord
  2
DASHED2
 70
     0
  3
Dashed (.5x) _ _ _ _ _ _ _ _ _ _ _ _ _ _ _ _ _
 72
    65
 73
     2
 40
9.524999999999996
 49
6.349999999999998
 74
     0
 49
-3.174999999999998
 74
     0
  0
LTYPE
  5
1E23
330
4
100
AcDbSymbolTableRecord
100
AcDbLinetypeTableRecord
  2
PHANTOM2
 70
     0
  3
Phantom (.5x) ___ _ _ ___ _ _ ___ _ _ ___ _ _
 72
    65
 73
     6
 40
31.75
 49
15.875
 74
     0
 49
-3.174999999999998
 74
     0
 49
3.174999999999998
 74
     0
 49
-3.174999999999998
 74
     0
 49
3.174999999999998
 74
     0
 49
-3.174999999999998
 74
     0
  0
ENDTAB
  0
TABLE
  2
LAYER
  5
2
102
{ACAD_XDICTIONARY
360
1E65
102
}
330
0
100
AcDbSymbolTable
 70
    12
  0
LAYER
  5
14
330
2
100
AcDbSymbolTableRecord
100
AcDbLayerTableRecord
  2
0
 70
     0
 62
     7
  6
CONTINUOUS
  0
LAYER
  5
8A4
330
2
100
AcDbSymbolTableRecord
100
AcDbLayerTableRecord
  2
DEFPOINTS
 70
     0
 62
     7
  6
CONTINUOUS
  0
LAYER
  5
8A7
330
2
100
AcDbSymbolTableRecord
100
AcDbLayerTableRecord
  2
03
 70
     0
 62
     3
  6
CONTINUOUS
  0
LAYER
  5
8A8
330
2
100
AcDbSymbolTableRecord
100
AcDbLayerTableRecord
  2
04
 70
     0
 62
     4
  6
CONTINUOUS
  0
LAYER
  5
8AA
330
2
100
AcDbSymbolTableRecord
100
AcDbLayerTableRecord
  2
06
 70
     0
 62
     6
  6
CONTINUOUS
  0
LAYER
  5
8AC
330
2
100
AcDbSymbolTableRecord
100
AcDbLayerTableRecord
  2
CHUSIN
 70
     0
 62
     6
  6
CENTER2
  0
LAYER
  5
8AF
330
2
100
AcDbSymbolTableRecord
100
AcDbLayerTableRecord
  2
KAKURE
 70
     0
 62
     6
  6
DASHED2
  0
LAYER
  5
8B1
330
2
100
AcDbSymbolTableRecord
100
AcDbLayerTableRecord
  2
MOJI
 70
     0
 62
     3
  6
CONTINUOUS
  0
LAYER
  5
8B4
330
2
100
AcDbSymbolTableRecord
100
AcDbLayerTableRecord
  2
SUNPOU
 70
     0
 62
     6
  6
CONTINUOUS
  0
LAYER
  5
FFA
330
2
100
AcDbSymbolTableRecord
100
AcDbLayerTableRecord
  2
HIKIDASI
 70
     0
 62
     6
  6
CONTINUOUS
  0
LAYER
  5
1E24
330
2
100
AcDbSymbolTableRecord
100
AcDbLayerTableRecord
  2
SOUZOU
 70
     0
 62
     6
  6
PHANTOM2
  0
LAYER
  5
1E5E
330
2
100
AcDbSymbolTableRecord
100
AcDbLayerTableRecord
  2
SAISEN
 70
     0
 62
     3
  6
CONTINUOUS
  0
ENDTAB
  0
TABLE
  2
STYLE
  5
3
330
0
100
AcDbSymbolTable
 70
     4
  0
STYLE
  5
17
330
3
100
AcDbSymbolTableRecord
100
AcDbTextStyleTableRecord
  2
STANDARD
 70
     0
 40
0.0
 41
0.8
 50
0.0
 71
     0
 42
6.0
  3
txt.shx
  4
bigfont.shx
  0
STYLE
  5
8B6
330
3
100
AcDbSymbolTableRecord
100
AcDbTextStyleTableRecord
  2
SUNPOU
 70
     0
 40
0.0
 41
0.8
 50
0.0
 71
     0
 42
0.2
  3
txt.shx
  4
extfont.shx
  0
STYLE
  5
8BD
330
3
100
AcDbSymbolTableRecord
100
AcDbTextStyleTableRecord
  2
0_8
 70
     0
 40
0.0
 41
0.8
 50
0.0
 71
     0
 42
2.5
  3
txt.shx
  4
extfont.shx
  0
STYLE
  5
233F
330
3
100
AcDbSymbolTableRecord
100
AcDbTextStyleTableRecord
  2
0_80
 70
     0
 40
0.0
 41
0.8
 50
0.0
 71
     0
 42
7.0
  3
txt.shx
  4
extfont.shx
  0
ENDTAB
  0
TABLE
  2
VIEW
  5
5
330
0
100
AcDbSymbolTable
 70
     1
  0
VIEW
  5
135
330
5
100
AcDbSymbolTableRecord
100
AcDbViewTableRecord
  2
QQQQ
 70
     0
 40
607.3318783988789
 10
-9.638895437594584
 20
-0.2554444241801264
 41
409.1607310263786
 11
0.0
 21
0.0
 31
1.0
 12
100.0
 22
100.0
 32
0.0
 42
50.0
 43
0.0
 44
0.0
 50
0.0
 71
     0
  0
ENDTAB
  0
TABLE
  2
UCS
  5
6
330
0
100
AcDbSymbolTable
 70
     0
  0
ENDTAB
  0
TABLE
  2
APPID
  5
8
330
0
100
AcDbSymbolTable
 70
     3
  0
APPID
  5
16
330
8
100
AcDbSymbolTableRecord
100
AcDbRegAppTableRecord
  2
ACAD
 70
     0
  0
APPID
  5
2310
330
8
100
AcDbSymbolTableRecord
100
AcDbRegAppTableRecord
  2
CONTENTBLOCKICON
 70
     0
  0
APPID
  5
2364
330
8
100
AcDbSymbolTableRecord
100
AcDbRegAppTableRecord
  2
DCO15
 70
     0
  0
ENDTAB
  0
TABLE
  2
DIMSTYLE
  5
9
330
0
100
AcDbSymbolTable
 70
     3
  0
DIMSTYLE
105
18
330
9
100
AcDbSymbolTableRecord
100
AcDbDimStyleTableRecord
  2
STANDARD
 70
     0
  3

  4

  5

  6

  7

 40
1.0
 41
0.18
 42
0.0625
 43
0.38
 44
0.18
 45
0.0
 46
0.0
 47
0.0
 48
0.0
140
0.18
141
0.09
142
0.0
143
25.4
144
1.0
145
0.0
146
1.0
147
0.09
 71
     0
 72
     0
 73
     1
 74
     1
 75
     0
 76
     0
 77
     0
 78
     0
170
     0
171
     2
172
     0
173
     0
174
     0
175
     0
176
     0
177
     0
178
     0
270
     2
271
     4
272
     4
273
     2
274
     2
340
17
275
     0
280
     0
281
     0
282
     0
283
     1
284
     0
285
     0
286
     0
287
     3
288
     0
  0
DIMSTYLE
105
8B5
102
{ACAD_REACTORS
330
9B5
330
9EB
330
9F8
330
A05
330
A14
330
A21
330
A2E
330
A3B
330
9C2
330
9CF
330
9DE
330
A48
330
A55
330
CB8
330
8D5
330
8D7
330
8D9
330
8DE
330
8DF
330
8E1
330
8E3
330
8E5
330
8E9
102
}
330
9
100
AcDbSymbolTableRecord
100
AcDbDimStyleTableRecord
  2
SUNPOU_2
 70
     0
  3

  4

  5
OPEN30
  6

  7

 40
2.0
 41
2.5
 42
1.5
 43
0.0
 44
1.0
 45
0.0
 46
0.0
 47
0.0
 48
0.0
140
2.5
141
0.0
142
0.0
143
25.4
144
1.0
145
0.0
146
1.0
147
1.0
 71
     0
 72
     0
 73
     0
 74
     0
 75
     0
 76
     0
 77
     1
 78
     8
170
     0
171
     2
172
     1
173
     0
174
     0
175
     0
176
   256
177
   256
178
     6
270
     2
271
     1
272
     1
273
     2
274
     2
340
8B6
275
     0
280
     0
281
     0
282
     0
283
     1
284
     0
285
     0
286
     0
287
     3
288
     0
  0
DIMSTYLE
105
904
102
{ACAD_REACTORS
330
912
330
91F
330
954
330
961
330
905
330
92C
330
999
330
97D
330
98A
330
96E
330
9A6
102
}
330
9
100
AcDbSymbolTableRecord
100
AcDbDimStyleTableRecord
  2
SUNPOU_2_20
 70
     0
  3

  4

  5
OPEN30
  6

  7

 40
2.0
 41
2.5
 42
1.5
 43
0.0
 44
1.0
 45
0.0
 46
0.0
 47
0.0
 48
0.0
140
2.5
141
0.0
142
0.0
143
25.4
144
20.0
145
0.0
146
1.0
147
1.0
 71
     0
 72
     0
 73
     0
 74
     0
 75
     0
 76
     0
 77
     1
 78
     8
170
     0
171
     2
172
     1
173
     0
174
     0
175
     0
176
   256
177
   256
178
     6
270
     2
271
     1
272
     1
273
     2
274
     2
340
8B6
275
     0
280
     0
281
     0
282
     0
283
     1
284
     0
285
     0
286
     0
287
     3
288
     0
  0
ENDTAB
  0
TABLE
  2
BLOCK_RECORD
  5
1
330
0
100
AcDbSymbolTable
 70
    26
  0
BLOCK_RECORD
  5
A
102
{ACAD_XDICTIONARY
360
230C
102
}
330
1
100
AcDbSymbolTableRecord
100
AcDbBlockTableRecord
  2
*MODEL_SPACE
  0
BLOCK_RECORD
  5
B
102
{ACAD_XDICTIONARY
360
230E
102
}
330
1
100
AcDbSymbolTableRecord
100
AcDbBlockTableRecord
  2
*PAPER_SPACE
  0
BLOCK_RECORD
  5
8B7
330
1
100
AcDbSymbolTableRecord
100
AcDbBlockTableRecord
  2
_OPEN30
1001
CONTENTBLOCKICON
1071
        0
1004
2800000020000000200000000100080000000000000400000000000000000000000000000000000000000000000080000080000000808000800000008000800080800000C0C0C000C0DCC000F0CAA6000020400000206000002080000020A0000020C0000020E00000400000004020000040400000406000004080000040A0
1004
000040C0000040E00000600000006020000060400000606000006080000060A0000060C0000060E00000800000008020000080400000806000008080000080A0000080C0000080E00000A0000000A0200000A0400000A0600000A0800000A0A00000A0C00000A0E00000C0000000C0200000C0400000C0600000C0800000C0
1004
A00000C0C00000C0E00000E0000000E0200000E0400000E0600000E0800000E0A00000E0C00000E0E00040000000400020004000400040006000400080004000A0004000C0004000E00040200000402020004020400040206000402080004020A0004020C0004020E000404000004040200040404000404060004040800040
1004
40A0004040C0004040E00040600000406020004060400040606000406080004060A0004060C0004060E00040800000408020004080400040806000408080004080A0004080C0004080E00040A0000040A0200040A0400040A0600040A0800040A0A00040A0C00040A0E00040C0000040C0200040C0400040C0600040C08000
1004
40C0A00040C0C00040C0E00040E0000040E0200040E0400040E0600040E0800040E0A00040E0C00040E0E00080000000800020008000400080006000800080008000A0008000C0008000E00080200000802020008020400080206000802080008020A0008020C0008020E00080400000804020008040400080406000804080
1004
008040A0008040C0008040E00080600000806020008060400080606000806080008060A0008060C0008060E00080800000808020008080400080806000808080008080A0008080C0008080E00080A0000080A0200080A0400080A0600080A0800080A0A00080A0C00080A0E00080C0000080C0200080C0400080C0600080C0
1004
800080C0A00080C0C00080C0E00080E0000080E0200080E0400080E0600080E0800080E0A00080E0C00080E0E000C0000000C0002000C0004000C0006000C0008000C000A000C000C000C000E000C0200000C0202000C0204000C0206000C0208000C020A000C020C000C020E000C0400000C0402000C0404000C0406000C0
1004
408000C040A000C040C000C040E000C0600000C0602000C0604000C0606000C0608000C060A000C060C000C060E000C0800000C0802000C0804000C0806000C0808000C080A000C080C000C080E000C0A00000C0A02000C0A04000C0A06000C0A08000C0A0A000C0A0C000C0A0E000C0C00000C0C02000C0C04000C0C06000
1004
C0C08000C0C0A000F0FBFF00A4A0A000808080000000FF0000FF000000FFFF00FF000000FF00FF00FFFF0000FFFFFF0000000000000000000000000000000000000000000000000000000000000000000000000000000000000000000000000000000000000000000000000000000000000000000000000000000000000000
1004
00000000000000000000000000000000000000000000000000000000000000000000000000000000000000000000000000000000000000000000000000000000000000000000000000000000000000000000000000000000000000000000000000000000000000000000000000000000000000000000000000000000000000
1004
000000000000000000000000000000000000000000000000000000000000000000000000000000000000000000000000000000FFFF0000000000000000000000000000000000000000000000000000000000000000FFFFFFFF0000000000000000000000000000000000000000000000000000000000000000FFFFFFFF0000
1004
000000000000000000000000000000000000000000000000000000000000FFFFFF0000000000000000000000000000000000000000000000000000000000000000FFFFFFFF0000000000000000000000000000000000000000000000000000000000000000FFFFFF0000000000000000000000000000000000000000000000
1004
000000000000000000FFFFFFFF0000000000000000000000000000000000000000000000000000000000000000FFFFFFFF00000000FFFFFFFFFFFFFFFFFFFFFFFFFFFFFFFFFFFFFFFFFFFFFFFFFFFFFFFFFFFF00000000000000000000000000000000000000000000000000FFFFFFFF000000000000000000000000000000
1004
000000000000000000FFFFFFFF000000000000000000000000000000000000000000000000FFFFFFFF000000000000000000000000000000000000000000000000FFFFFFFF000000000000000000000000000000000000000000000000FFFFFFFF000000000000000000000000000000000000000000000000FFFFFFFF0000
1004
0000000000000000000000000000000000000000000000FFFFFF0000000000000000000000000000000000000000000000000000000000000000000000000000000000000000000000000000000000000000000000000000000000000000000000000000000000000000000000000000000000000000000000000000000000
1004
00000000000000000000000000000000000000000000000000000000000000000000000000000000000000000000000000000000000000000000000000000000000000000000000000000000000000000000000000000000000000000000000000000000000000000000000000000000000000000000000000000000000000
1004
0000000000000000000000000000000000000000000000000000000000000000000000000000000000000000000000000000000000000000
  0
BLOCK_RECORD
  5
906
330
1
100
AcDbSymbolTableRecord
100
AcDbBlockTableRecord
  2
*D1
  0
BLOCK_RECORD
  5
913
330
1
100
AcDbSymbolTableRecord
100
AcDbBlockTableRecord
  2
*D2
  0
BLOCK_RECORD
  5
920
330
1
100
AcDbSymbolTableRecord
100
AcDbBlockTableRecord
  2
*D3
  0
BLOCK_RECORD
  5
92D
330
1
100
AcDbSymbolTableRecord
100
AcDbBlockTableRecord
  2
*D4
  0
BLOCK_RECORD
  5
955
330
1
100
AcDbSymbolTableRecord
100
AcDbBlockTableRecord
  2
*D5
  0
BLOCK_RECORD
  5
962
330
1
100
AcDbSymbolTableRecord
100
AcDbBlockTableRecord
  2
*D6
  0
BLOCK_RECORD
  5
96F
330
1
100
AcDbSymbolTableRecord
100
AcDbBlockTableRecord
  2
*D7
  0
BLOCK_RECORD
  5
97E
330
1
100
AcDbSymbolTableRecord
100
AcDbBlockTableRecord
  2
*D8
  0
BLOCK_RECORD
  5
98B
330
1
100
AcDbSymbolTableRecord
100
AcDbBlockTableRecord
  2
*D9
  0
BLOCK_RECORD
  5
99A
330
1
100
AcDbSymbolTableRecord
100
AcDbBlockTableRecord
  2
*D10
  0
BLOCK_RECORD
  5
9A7
330
1
100
AcDbSymbolTableRecord
100
AcDbBlockTableRecord
  2
*D11
  0
BLOCK_RECORD
  5
9B6
330
1
100
AcDbSymbolTableRecord
100
AcDbBlockTableRecord
  2
*D12
  0
BLOCK_RECORD
  5
9C3
330
1
100
AcDbSymbolTableRecord
100
AcDbBlockTableRecord
  2
*D13
  0
BLOCK_RECORD
  5
9D0
330
1
100
AcDbSymbolTableRecord
100
AcDbBlockTableRecord
  2
*D14
  0
BLOCK_RECORD
  5
9DF
330
1
100
AcDbSymbolTableRecord
100
AcDbBlockTableRecord
  2
*D15
  0
BLOCK_RECORD
  5
9EC
330
1
100
AcDbSymbolTableRecord
100
AcDbBlockTableRecord
  2
*D16
  0
BLOCK_RECORD
  5
9F9
330
1
100
AcDbSymbolTableRecord
100
AcDbBlockTableRecord
  2
*D17
  0
BLOCK_RECORD
  5
A06
330
1
100
AcDbSymbolTableRecord
100
AcDbBlockTableRecord
  2
*D18
  0
BLOCK_RECORD
  5
A15
330
1
100
AcDbSymbolTableRecord
100
AcDbBlockTableRecord
  2
*D19
  0
BLOCK_RECORD
  5
A22
330
1
100
AcDbSymbolTableRecord
100
AcDbBlockTableRecord
  2
*D20
  0
BLOCK_RECORD
  5
A2F
330
1
100
AcDbSymbolTableRecord
100
AcDbBlockTableRecord
  2
*D21
  0
BLOCK_RECORD
  5
A3C
330
1
100
AcDbSymbolTableRecord
100
AcDbBlockTableRecord
  2
*D22
  0
BLOCK_RECORD
  5
A49
330
1
100
AcDbSymbolTableRecord
100
AcDbBlockTableRecord
  2
*D23
  0
BLOCK_RECORD
  5
A56
330
1
100
AcDbSymbolTableRecord
100
AcDbBlockTableRecord
  2
*D24
  0
BLOCK_RECORD
  5
CB9
330
1
100
AcDbSymbolTableRecord
100
AcDbBlockTableRecord
  2
*D25
  0
ENDTAB
  0
ENDSEC
  0
SECTION
  2
BLOCKS
  0
BLOCK
  5
D
330
A
100
AcDbEntity
  8
0
100
AcDbBlockBegin
  2
*MODEL_SPACE
 70
     0
 10
0.0
 20
0.0
 30
0.0
  3
*MODEL_SPACE
  1

  0
ENDBLK
  5
E
330
A
100
AcDbEntity
  8
0
100
AcDbBlockEnd
  0
BLOCK
  5
F
330
B
100
AcDbEntity
 67
     1
  8
0
100
AcDbBlockBegin
  2
*PAPER_SPACE
 70
     0
 10
0.0
 20
0.0
 30
0.0
  3
*PAPER_SPACE
  1

  0
ENDBLK
  5
10
330
B
100
AcDbEntity
 67
     1
  8
0
100
AcDbBlockEnd
  0
BLOCK
  5
8BB
330
8B7
100
AcDbEntity
  8
0
100
AcDbBlockBegin
  2
_OPEN30
 70
     0
 10
0.0
 20
0.0
 30
0.0
  3
_OPEN30
  1

  0
LINE
  5
8B8
330
8B7
100
AcDbEntity
  8
0
  6
BYBLOCK
 62
     0
100
AcDbLine
 10
-1.0
 20
0.26794919
 30
0.0
 11
0.0
 21
0.0
 31
0.0
  0
LINE
  5
8B9
330
8B7
100
AcDbEntity
  8
0
  6
BYBLOCK
 62
     0
100
AcDbLine
 10
0.0
 20
0.0
 30
0.0
 11
-1.0
 21
-0.26794919
 31
0.0
  0
LINE
  5
8BA
330
8B7
100
AcDbEntity
  8
0
  6
BYBLOCK
 62
     0
100
AcDbLine
 10
0.0
 20
0.0
 30
0.0
 11
-1.0
 21
0.0
 31
0.0
  0
ENDBLK
  5
8BC
330
8B7
100
AcDbEntity
  8
0
100
AcDbBlockEnd
  0
BLOCK
  5
910
330
906
100
AcDbEntity
  8
0
100
AcDbBlockBegin
  2
*D1
 70
     1
 10
0.0
 20
0.0
 30
0.0
  3
*D1
  1

  0
LINE
  5
1E02
330
906
100
AcDbEntity
  8
SUNPOU
100
AcDbLine
 10
149.570819448582
 20
374.3749560632686
 30
0.0
 11
149.570819448582
 21
365.7249560632688
 31
0.0
  0
LINE
  5
1E03
330
906
100
AcDbEntity
  8
SUNPOU
100
AcDbLine
 10
179.5708194485821
 20
374.2249560632686
 30
0.0
 11
179.5708194485821
 21
365.7249560632688
 31
0.0
  0
LINE
  5
1E04
330
906
100
AcDbEntity
  8
SUNPOU
100
AcDbLine
 10
154.570819448582
 20
367.7249560632688
 30
0.0
 11
174.5708194485821
 21
367.7249560632688
 31
0.0
  0
MTEXT
  5
1E05
330
906
100
AcDbEntity
  8
SUNPOU
 62
     6
100
AcDbMText
 10
164.7476717965034
 20
362.5107955143453
 30
0.0
 40
5.0
 41
0.0
 71
     5
 72
     1
  1
\A1;600
  7
SUNPOU
 11
-1.0
 21
0.0000000000000001
 31
0.0
1001
ACAD
1000
MTEXTBEGIN
1070
    73
1070
     1
1070
    44
1040
1.0
1070
    74
1070
     0
1000
MTEXTEND
1000
MTEXTBEGIN
1070
    73
1070
     1
1070
    44
1040
1.0
1070
    74
1070
     0
1000
MTEXTEND
  0
INSERT
  5
1E06
330
906
100
AcDbEntity
  8
SUNPOU
100
AcDbBlockReference
  2
_OPEN30
 10
149.570819448582
 20
367.7249560632688
 30
0.0
 41
5.0
 42
5.0
 43
5.0
 50
180.0
  0
INSERT
  5
1E07
330
906
100
AcDbEntity
  8
SUNPOU
100
AcDbBlockReference
  2
_OPEN30
 10
179.5708194485821
 20
367.7249560632688
 30
0.0
 41
5.0
 42
5.0
 43
5.0
  0
POINT
  5
1E08
330
906
100
AcDbEntity
  8
DEFPOINTS
 62
     0
100
AcDbPoint
 10
149.570819448582
 20
377.3749560632686
 30
0.0
  0
POINT
  5
1E09
330
906
100
AcDbEntity
  8
DEFPOINTS
 62
     0
100
AcDbPoint
 10
179.5708194485821
 20
377.2249560632686
 30
0.0
  0
POINT
  5
1E0A
330
906
100
AcDbEntity
  8
DEFPOINTS
 62
     0
100
AcDbPoint
 10
179.5708194485821
 20
367.7249560632688
 30
0.0
  0
ENDBLK
  5
911
330
906
100
AcDbEntity
  8
0
100
AcDbBlockEnd
  0
BLOCK
  5
91D
330
913
100
AcDbEntity
  8
0
100
AcDbBlockBegin
  2
*D2
 70
     1
 10
0.0
 20
0.0
 30
0.0
  3
*D2
  1

  0
LINE
  5
1DF9
330
913
100
AcDbEntity
  8
SUNPOU
100
AcDbLine
 10
182.5708194485821
 20
502.2249560632686
 30
0.0
 11
207.335252250253
 21
502.2249560632686
 31
0.0
  0
LINE
  5
1DFA
330
913
100
AcDbEntity
  8
SUNPOU
100
AcDbLine
 10
182.5708194485821
 20
377.2249560632686
 30
0.0
 11
207.335252250253
 21
377.2249560632686
 31
0.0
  0
LINE
  5
1DFB
330
913
100
AcDbEntity
  8
SUNPOU
100
AcDbLine
 10
205.335252250253
 20
497.2249560632686
 30
0.0
 11
205.335252250253
 21
382.2249560632688
 31
0.0
  0
INSERT
  5
1DFC
330
913
100
AcDbEntity
  8
SUNPOU
100
AcDbBlockReference
  2
_OPEN30
 10
205.335252250253
 20
502.2249560632686
 30
0.0
 41
5.0
 42
5.0
 43
5.0
 50
90.0
  0
INSERT
  5
1DFD
330
913
100
AcDbEntity
  8
SUNPOU
100
AcDbBlockReference
  2
_OPEN30
 10
205.335252250253
 20
377.2249560632686
 30
0.0
 41
5.0
 42
5.0
 43
5.0
 50
270.0
  0
MTEXT
  5
1DFE
330
913
100
AcDbEntity
  8
SUNPOU
 62
     6
100
AcDbMText
 10
200.8352522502529
 20
439.7249560632688
 30
0.0
 40
5.0
 41
0.0
 71
     5
 72
     1
  1
\A1;W
  7
SUNPOU
 11
0.0000000000000001
 21
1.0
 31
0.0
1001
ACAD
1000
MTEXTBEGIN
1070
    73
1070
     1
1070
    44
1040
1.0
1070
    74
1070
     0
1000
MTEXTEND
1000
MTEXTBEGIN
1070
    73
1070
     1
1070
    44
1040
1.0
1070
    74
1070
     0
1000
MTEXTEND
  0
POINT
  5
1DFF
330
913
100
AcDbEntity
  8
DEFPOINTS
 62
     0
100
AcDbPoint
 10
179.5708194485821
 20
502.2249560632686
 30
0.0
  0
POINT
  5
1E00
330
913
100
AcDbEntity
  8
DEFPOINTS
 62
     0
100
AcDbPoint
 10
179.5708194485821
 20
377.2249560632686
 30
0.0
  0
POINT
  5
1E01
330
913
100
AcDbEntity
  8
DEFPOINTS
 62
     0
100
AcDbPoint
 10
205.335252250253
 20
377.2249560632686
 30
0.0
  0
ENDBLK
  5
91E
330
913
100
AcDbEntity
  8
0
100
AcDbBlockEnd
  0
BLOCK
  5
92A
330
920
100
AcDbEntity
  8
0
100
AcDbBlockBegin
  2
*D3
 70
     1
 10
0.0
 20
0.0
 30
0.0
  3
*D3
  1

  0
LINE
  5
1DF0
330
920
100
AcDbEntity
  8
SUNPOU
100
AcDbLine
 10
182.5708194485821
 20
377.2249560632686
 30
0.0
 11
194.6110422824181
 21
377.2249560632686
 31
0.0
  0
LINE
  5
1DF1
330
920
100
AcDbEntity
  8
SUNPOU
100
AcDbLine
 10
182.5708194485821
 20
437.0749560632686
 30
0.0
 11
194.6110422824181
 21
437.0749560632686
 31
0.0
  0
LINE
  5
1DF2
330
920
100
AcDbEntity
  8
SUNPOU
100
AcDbLine
 10
192.6110422824181
 20
382.2249560632688
 30
0.0
 11
192.6110422824181
 21
432.0749560632688
 31
0.0
  0
INSERT
  5
1DF3
330
920
100
AcDbEntity
  8
SUNPOU
100
AcDbBlockReference
  2
_OPEN30
 10
192.6110422824181
 20
377.2249560632686
 30
0.0
 41
5.0
 42
5.0
 43
5.0
 50
270.0
  0
INSERT
  5
1DF4
330
920
100
AcDbEntity
  8
SUNPOU
100
AcDbBlockReference
  2
_OPEN30
 10
192.6110422824181
 20
437.0749560632686
 30
0.0
 41
5.0
 42
5.0
 43
5.0
 50
90.0
  0
MTEXT
  5
1DF5
330
920
100
AcDbEntity
  8
SUNPOU
 62
     6
100
AcDbMText
 10
188.1110422824179
 20
407.1499560632688
 30
0.0
 40
5.0
 41
0.0
 71
     5
 72
     1
  1
\A1;開口　W
  7
SUNPOU
 11
0.0000000000000001
 21
1.0
 31
0.0
1001
ACAD
1000
MTEXTBEGIN
1070
    73
1070
     1
1070
    44
1040
1.0
1070
    74
1070
     0
1000
MTEXTEND
1000
MTEXTBEGIN
1070
    73
1070
     1
1070
    44
1040
1.0
1070
    74
1070
     0
1000
MTEXTEND
  0
POINT
  5
1DF6
330
920
100
AcDbEntity
  8
DEFPOINTS
 62
     0
100
AcDbPoint
 10
179.5708194485821
 20
377.2249560632686
 30
0.0
  0
POINT
  5
1DF7
330
920
100
AcDbEntity
  8
DEFPOINTS
 62
     0
100
AcDbPoint
 10
179.5708194485821
 20
437.0749560632686
 30
0.0
  0
POINT
  5
1DF8
330
920
100
AcDbEntity
  8
DEFPOINTS
 62
     0
100
AcDbPoint
 10
192.6110422824181
 20
437.0749560632686
 30
0.0
  0
ENDBLK
  5
92B
330
920
100
AcDbEntity
  8
0
100
AcDbBlockEnd
  0
BLOCK
  5
937
330
92D
100
AcDbEntity
  8
0
100
AcDbBlockBegin
  2
*D4
 70
     1
 10
0.0
 20
0.0
 30
0.0
  3
*D4
  1

  0
LINE
  5
1DE7
330
92D
100
AcDbEntity
  8
SUNPOU
100
AcDbLine
 10
179.570819448582
 20
330.2188725158848
 30
0.0
 11
179.570819448582
 21
329.2188725158847
 31
0.0
  0
LINE
  5
1DE8
330
92D
100
AcDbEntity
  8
SUNPOU
100
AcDbLine
 10
149.570819448582
 20
302.2249560632686
 30
0.0
 11
149.570819448582
 21
329.2188725158847
 31
0.0
  0
LINE
  5
1DE9
330
92D
100
AcDbEntity
  8
SUNPOU
100
AcDbLine
 10
174.570819448582
 20
327.2188725158848
 30
0.0
 11
154.570819448582
 21
327.2188725158848
 31
0.0
  0
MTEXT
  5
1DEA
330
92D
100
AcDbEntity
  8
SUNPOU
 62
     6
100
AcDbMText
 10
164.5717393763644
 20
321.9639830091947
 30
0.0
 40
5.0
 41
0.0
 71
     5
 72
     1
  1
\A1;600
  7
SUNPOU
 11
-1.0
 21
0.0000000000000001
 31
0.0
1001
ACAD
1000
MTEXTBEGIN
1070
    73
1070
     1
1070
    44
1040
1.0
1070
    74
1070
     0
1000
MTEXTEND
1000
MTEXTBEGIN
1070
    73
1070
     1
1070
    44
1040
1.0
1070
    74
1070
     0
1000
MTEXTEND
  0
INSERT
  5
1DEB
330
92D
100
AcDbEntity
  8
SUNPOU
100
AcDbBlockReference
  2
_OPEN30
 10
179.570819448582
 20
327.2188725158848
 30
0.0
 41
5.0
 42
5.0
 43
5.0
  0
INSERT
  5
1DEC
330
92D
100
AcDbEntity
  8
SUNPOU
100
AcDbBlockReference
  2
_OPEN30
 10
149.570819448582
 20
327.2188725158848
 30
0.0
 41
5.0
 42
5.0
 43
5.0
 50
180.0
  0
POINT
  5
1DED
330
92D
100
AcDbEntity
  8
DEFPOINTS
 62
     0
100
AcDbPoint
 10
179.570819448582
 20
327.2188725158848
 30
0.0
  0
POINT
  5
1DEE
330
92D
100
AcDbEntity
  8
DEFPOINTS
 62
     0
100
AcDbPoint
 10
149.570819448582
 20
299.2249560632686
 30
0.0
  0
POINT
  5
1DEF
330
92D
100
AcDbEntity
  8
DEFPOINTS
 62
     0
100
AcDbPoint
 10
149.570819448582
 20
327.2188725158848
 30
0.0
  0
ENDBLK
  5
938
330
92D
100
AcDbEntity
  8
0
100
AcDbBlockEnd
  0
BLOCK
  5
95F
330
955
100
AcDbEntity
  8
0
100
AcDbBlockBegin
  2
*D5
 70
     1
 10
0.0
 20
0.0
 30
0.0
  3
*D5
  1

  0
LINE
  5
1DDE
330
955
100
AcDbEntity
  8
SUNPOU
100
AcDbLine
 10
182.570819448582
 20
299.2249560632686
 30
0.0
 11
207.335252250253
 21
299.2249560632686
 31
0.0
  0
LINE
  5
1DDF
330
955
100
AcDbEntity
  8
SUNPOU
100
AcDbLine
 10
182.070819448582
 20
99.22495606326885
 30
0.0
 11
207.335252250253
 21
99.22495606326885
 31
0.0
  0
LINE
  5
1DE0
330
955
100
AcDbEntity
  8
SUNPOU
100
AcDbLine
 10
205.335252250253
 20
294.2249560632688
 30
0.0
 11
205.335252250253
 21
104.2249560632688
 31
0.0
  0
INSERT
  5
1DE1
330
955
100
AcDbEntity
  8
SUNPOU
100
AcDbBlockReference
  2
_OPEN30
 10
205.335252250253
 20
299.2249560632686
 30
0.0
 41
5.0
 42
5.0
 43
5.0
 50
90.0
  0
INSERT
  5
1DE2
330
955
100
AcDbEntity
  8
SUNPOU
100
AcDbBlockReference
  2
_OPEN30
 10
205.335252250253
 20
99.22495606326885
 30
0.0
 41
5.0
 42
5.0
 43
5.0
 50
270.0
  0
MTEXT
  5
1DE3
330
955
100
AcDbEntity
  8
SUNPOU
 62
     6
100
AcDbMText
 10
200.835252250253
 20
199.2249560632688
 30
0.0
 40
5.0
 41
0.0
 71
     5
 72
     1
  1
\A1;W
  7
SUNPOU
 11
0.0000000000000001
 21
1.0
 31
0.0
1001
ACAD
1000
MTEXTBEGIN
1070
    73
1070
     1
1070
    44
1040
1.0
1070
    74
1070
     0
1000
MTEXTEND
1000
MTEXTBEGIN
1070
    73
1070
     1
1070
    44
1040
1.0
1070
    74
1070
     0
1000
MTEXTEND
  0
POINT
  5
1DE4
330
955
100
AcDbEntity
  8
DEFPOINTS
 62
     0
100
AcDbPoint
 10
179.570819448582
 20
299.2249560632686
 30
0.0
  0
POINT
  5
1DE5
330
955
100
AcDbEntity
  8
DEFPOINTS
 62
     0
100
AcDbPoint
 10
179.070819448582
 20
99.22495606326885
 30
0.0
  0
POINT
  5
1DE6
330
955
100
AcDbEntity
  8
DEFPOINTS
 62
     0
100
AcDbPoint
 10
205.335252250253
 20
99.22495606326885
 30
0.0
  0
ENDBLK
  5
960
330
955
100
AcDbEntity
  8
0
100
AcDbBlockEnd
  0
BLOCK
  5
96C
330
962
100
AcDbEntity
  8
0
100
AcDbBlockBegin
  2
*D6
 70
     1
 10
0.0
 20
0.0
 30
0.0
  3
*D6
  1

  0
LINE
  5
1DD5
330
962
100
AcDbEntity
  8
SUNPOU
100
AcDbLine
 10
182.570819448582
 20
154.6999560632688
 30
0.0
 11
194.6110422824181
 21
154.6999560632686
 31
0.0
  0
LINE
  5
1DD6
330
962
100
AcDbEntity
  8
SUNPOU
100
AcDbLine
 10
182.570819448582
 20
243.7499560632688
 30
0.0
 11
194.6110422824181
 21
243.7499560632688
 31
0.0
  0
LINE
  5
1DD7
330
962
100
AcDbEntity
  8
SUNPOU
100
AcDbLine
 10
192.6110422824181
 20
159.6999560632686
 30
0.0
 11
192.6110422824181
 21
238.7499560632686
 31
0.0
  0
INSERT
  5
1DD8
330
962
100
AcDbEntity
  8
SUNPOU
100
AcDbBlockReference
  2
_OPEN30
 10
192.6110422824181
 20
154.6999560632686
 30
0.0
 41
5.0
 42
5.0
 43
5.0
 50
270.0
  0
INSERT
  5
1DD9
330
962
100
AcDbEntity
  8
SUNPOU
100
AcDbBlockReference
  2
_OPEN30
 10
192.6110422824181
 20
243.7499560632688
 30
0.0
 41
5.0
 42
5.0
 43
5.0
 50
90.0
  0
MTEXT
  5
1DDA
330
962
100
AcDbEntity
  8
SUNPOU
 62
     6
100
AcDbMText
 10
188.1110422824179
 20
199.2249560632688
 30
0.0
 40
5.0
 41
0.0
 71
     5
 72
     1
  1
\A1;開口　W
  7
SUNPOU
 11
0.0000000000000001
 21
1.0
 31
0.0
1001
ACAD
1000
MTEXTBEGIN
1070
    73
1070
     1
1070
    44
1040
1.0
1070
    74
1070
     0
1000
MTEXTEND
1000
MTEXTBEGIN
1070
    73
1070
     1
1070
    44
1040
1.0
1070
    74
1070
     0
1000
MTEXTEND
  0
POINT
  5
1DDB
330
962
100
AcDbEntity
  8
DEFPOINTS
 62
     0
100
AcDbPoint
 10
179.570819448582
 20
154.6999560632688
 30
0.0
  0
POINT
  5
1DDC
330
962
100
AcDbEntity
  8
DEFPOINTS
 62
     0
100
AcDbPoint
 10
179.570819448582
 20
243.7499560632688
 30
0.0
  0
POINT
  5
1DDD
330
962
100
AcDbEntity
  8
DEFPOINTS
 62
     0
100
AcDbPoint
 10
192.6110422824181
 20
243.7499560632688
 30
0.0
  0
ENDBLK
  5
96D
330
962
100
AcDbEntity
  8
0
100
AcDbBlockEnd
  0
BLOCK
  5
97B
330
96F
100
AcDbEntity
  8
0
100
AcDbBlockBegin
  2
*D7
 70
     1
 10
0.0
 20
0.0
 30
0.0
  3
*D7
  1

  0
LINE
  5
2298
330
96F
100
AcDbEntity
  8
SUNPOU
100
AcDbLine
 10
74.5708194485822
 20
96.22495606326882
 30
0.0
 11
74.5708194485822
 21
70.98994186832499
 31
0.0
  0
LINE
  5
2299
330
96F
100
AcDbEntity
  8
SUNPOU
100
AcDbLine
 10
84.5708194485822
 20
96.22495606326882
 30
0.0
 11
84.5708194485822
 21
70.98994186832499
 31
0.0
  0
LINE
  5
229A
330
96F
100
AcDbEntity
  8
SUNPOU
100
AcDbLine
 10
69.5708194485822
 20
72.98994186832499
 30
0.0
 11
64.5708194485822
 21
72.98994186832499
 31
0.0
  0
LINE
  5
229B
330
96F
100
AcDbEntity
  8
SUNPOU
100
AcDbLine
 10
89.57081944858222
 20
72.98994186832499
 30
0.0
 11
94.57081944858222
 21
72.98994186832499
 31
0.0
  0
MTEXT
  5
229C
330
96F
100
AcDbEntity
  8
SUNPOU
 62
     6
100
AcDbMText
 10
80.01017097975568
 20
67.43526513753682
 30
0.0
 40
5.0
 41
0.0
 71
     5
 72
     1
  1
\A1;200
  7
SUNPOU
 11
-1.0
 21
0.0000000000000001
 31
0.0
1001
ACAD
1000
MTEXTBEGIN
1070
    73
1070
     1
1070
    44
1040
1.0
1070
    74
1070
     0
1000
MTEXTEND
1000
MTEXTBEGIN
1070
    73
1070
     1
1070
    44
1040
1.0
1070
    74
1070
     0
1000
MTEXTEND
  0
LINE
  5
229D
330
96F
100
AcDbEntity
  8
SUNPOU
100
AcDbLine
 10
74.5708194485822
 20
72.98994186832499
 30
0.0
 11
84.5708194485822
 21
72.98994186832499
 31
0.0
  0
INSERT
  5
229E
330
96F
100
AcDbEntity
  8
SUNPOU
100
AcDbBlockReference
  2
_OPEN30
 10
74.5708194485822
 20
72.98994186832499
 30
0.0
 41
5.0
 42
5.0
 43
5.0
  0
INSERT
  5
229F
330
96F
100
AcDbEntity
  8
SUNPOU
100
AcDbBlockReference
  2
_OPEN30
 10
84.5708194485822
 20
72.98994186832499
 30
0.0
 41
5.0
 42
5.0
 43
5.0
 50
180.0
  0
POINT
  5
22A0
330
96F
100
AcDbEntity
  8
DEFPOINTS
 62
     0
100
AcDbPoint
 10
74.5708194485822
 20
99.22495606326885
 30
0.0
  0
POINT
  5
22A1
330
96F
100
AcDbEntity
  8
DEFPOINTS
 62
     0
100
AcDbPoint
 10
84.5708194485822
 20
99.22495606326885
 30
0.0
  0
POINT
  5
22A2
330
96F
100
AcDbEntity
  8
DEFPOINTS
 62
     0
100
AcDbPoint
 10
84.5708194485822
 20
72.98994186832499
 30
0.0
  0
ENDBLK
  5
97C
330
96F
100
AcDbEntity
  8
0
100
AcDbBlockEnd
  0
BLOCK
  5
988
330
97E
100
AcDbEntity
  8
0
100
AcDbBlockBegin
  2
*D8
 70
     1
 10
0.0
 20
0.0
 30
0.0
  3
*D8
  1

  0
LINE
  5
1DC1
330
97E
100
AcDbEntity
  8
SUNPOU
100
AcDbLine
 10
84.5708194485822
 20
96.22495606326882
 30
0.0
 11
84.5708194485822
 21
70.98994186832499
 31
0.0
  0
LINE
  5
1DC2
330
97E
100
AcDbEntity
  8
SUNPOU
100
AcDbLine
 10
179.570819448582
 20
75.98994186832496
 30
0.0
 11
179.570819448582
 21
74.98994186832499
 31
0.0
  0
LINE
  5
1DC3
330
97E
100
AcDbEntity
  8
SUNPOU
100
AcDbLine
 10
89.57081944858222
 20
72.98994186832499
 30
0.0
 11
174.570819448582
 21
72.98994186832499
 31
0.0
  0
MTEXT
  5
1DC4
330
97E
100
AcDbEntity
  8
SUNPOU
 62
     6
100
AcDbMText
 10
131.9944604074277
 20
67.25647031968811
 30
0.0
 40
5.0
 41
0.0
 71
     5
 72
     1
  1
\A1;H
  7
SUNPOU
 11
-1.0
 21
0.0000000000000001
 31
0.0
1001
ACAD
1000
MTEXTBEGIN
1070
    73
1070
     1
1070
    44
1040
1.0
1070
    74
1070
     0
1000
MTEXTEND
1000
MTEXTBEGIN
1070
    73
1070
     1
1070
    44
1040
1.0
1070
    74
1070
     0
1000
MTEXTEND
  0
INSERT
  5
1DC5
330
97E
100
AcDbEntity
  8
SUNPOU
100
AcDbBlockReference
  2
_OPEN30
 10
84.5708194485822
 20
72.98994186832499
 30
0.0
 41
5.0
 42
5.0
 43
5.0
 50
180.0
  0
INSERT
  5
1DC6
330
97E
100
AcDbEntity
  8
SUNPOU
100
AcDbBlockReference
  2
_OPEN30
 10
179.570819448582
 20
72.98994186832499
 30
0.0
 41
5.0
 42
5.0
 43
5.0
  0
POINT
  5
1DC7
330
97E
100
AcDbEntity
  8
DEFPOINTS
 62
     0
100
AcDbPoint
 10
84.5708194485822
 20
99.22495606326885
 30
0.0
  0
POINT
  5
1DC8
330
97E
100
AcDbEntity
  8
DEFPOINTS
 62
     0
100
AcDbPoint
 10
179.570819448582
 20
72.98994186832496
 30
0.0
  0
POINT
  5
1DC9
330
97E
100
AcDbEntity
  8
DEFPOINTS
 62
     0
100
AcDbPoint
 10
179.570819448582
 20
72.98994186832499
 30
0.0
  0
ENDBLK
  5
989
330
97E
100
AcDbEntity
  8
0
100
AcDbBlockEnd
  0
BLOCK
  5
997
330
98B
100
AcDbEntity
  8
0
100
AcDbBlockBegin
  2
*D9
 70
     1
 10
0.0
 20
0.0
 30
0.0
  3
*D9
  1

  0
LINE
  5
1DB6
330
98B
100
AcDbEntity
  8
SUNPOU
100
AcDbLine
 10
179.570819448582
 20
85.16766256590509
 30
0.0
 11
179.570819448582
 21
84.16766256590509
 31
0.0
  0
LINE
  5
1DB7
330
98B
100
AcDbEntity
  8
SUNPOU
100
AcDbLine
 10
178.920819448582
 20
150.4499560632688
 30
0.0
 11
178.920819448582
 21
80.16766256590509
 31
0.0
  0
LINE
  5
1DB8
330
98B
100
AcDbEntity
  8
SUNPOU
100
AcDbLine
 10
184.5708194485822
 20
82.16766256590508
 30
0.0
 11
189.5708194485822
 21
82.16766256590508
 31
0.0
  0
LINE
  5
1DB9
330
98B
100
AcDbEntity
  8
SUNPOU
100
AcDbLine
 10
173.920819448582
 20
82.16766256590508
 30
0.0
 11
168.9208194485821
 21
82.16766256590508
 31
0.0
  0
MTEXT
  5
1DBA
330
98B
100
AcDbEntity
  8
SUNPOU
 62
     6
100
AcDbMText
 10
184.6931461500529
 20
76.73781711591823
 30
0.0
 40
5.0
 41
0.0
 71
     5
 72
     1
  1
\A1;13
  7
SUNPOU
 11
-1.0
 21
0.0000000000000001
 31
0.0
1001
ACAD
1000
MTEXTBEGIN
1070
    73
1070
     1
1070
    44
1040
1.0
1070
    74
1070
     0
1000
MTEXTEND
1000
MTEXTBEGIN
1070
    73
1070
     1
1070
    44
1040
1.0
1070
    74
1070
     0
1000
MTEXTEND
  0
LINE
  5
1DBB
330
98B
100
AcDbEntity
  8
SUNPOU
100
AcDbLine
 10
179.570819448582
 20
82.16766256590508
 30
0.0
 11
178.920819448582
 21
82.16766256590508
 31
0.0
  0
INSERT
  5
1DBC
330
98B
100
AcDbEntity
  8
SUNPOU
100
AcDbBlockReference
  2
_OPEN30
 10
179.570819448582
 20
82.16766256590508
 30
0.0
 41
5.0
 42
5.0
 43
5.0
 50
180.0
  0
INSERT
  5
1DBD
330
98B
100
AcDbEntity
  8
SUNPOU
100
AcDbBlockReference
  2
_OPEN30
 10
178.920819448582
 20
82.16766256590508
 30
0.0
 41
5.0
 42
5.0
 43
5.0
  0
POINT
  5
1DBE
330
98B
100
AcDbEntity
  8
DEFPOINTS
 62
     0
100
AcDbPoint
 10
179.570819448582
 20
82.16766256590508
 30
0.0
  0
POINT
  5
1DBF
330
98B
100
AcDbEntity
  8
DEFPOINTS
 62
     0
100
AcDbPoint
 10
178.920819448582
 20
153.4499560632688
 30
0.0
  0
POINT
  5
1DC0
330
98B
100
AcDbEntity
  8
DEFPOINTS
 62
     0
100
AcDbPoint
 10
178.920819448582
 20
82.16766256590508
 30
0.0
  0
ENDBLK
  5
998
330
98B
100
AcDbEntity
  8
0
100
AcDbBlockEnd
  0
BLOCK
  5
9A4
330
99A
100
AcDbEntity
  8
0
100
AcDbBlockBegin
  2
*D10
 70
     1
 10
0.0
 20
0.0
 30
0.0
  3
*D10
  1

  0
LINE
  5
1DAD
330
99A
100
AcDbEntity
  8
SUNPOU
100
AcDbLine
 10
178.920819448582
 20
150.4499560632688
 30
0.0
 11
178.920819448582
 21
80.16766256590509
 31
0.0
  0
LINE
  5
1DAE
330
99A
100
AcDbEntity
  8
SUNPOU
100
AcDbLine
 10
84.5708194485822
 20
96.22495606326882
 30
0.0
 11
84.5708194485822
 21
80.16766256590509
 31
0.0
  0
LINE
  5
1DAF
330
99A
100
AcDbEntity
  8
SUNPOU
100
AcDbLine
 10
173.920819448582
 20
82.16766256590508
 30
0.0
 11
89.57081944858222
 21
82.16766256590508
 31
0.0
  0
MTEXT
  5
1DB0
330
99A
100
AcDbEntity
  8
SUNPOU
 62
     6
100
AcDbMText
 10
131.421877214473
 20
76.79141738623503
 30
0.0
 40
5.0
 41
0.0
 71
     5
 72
     1
  1
\A1;DH
  7
SUNPOU
 11
-1.0
 21
0.0000000000000001
 31
0.0
1001
ACAD
1000
MTEXTBEGIN
1070
    73
1070
     1
1070
    44
1040
1.0
1070
    74
1070
     0
1000
MTEXTEND
1000
MTEXTBEGIN
1070
    73
1070
     1
1070
    44
1040
1.0
1070
    74
1070
     0
1000
MTEXTEND
  0
INSERT
  5
1DB1
330
99A
100
AcDbEntity
  8
SUNPOU
100
AcDbBlockReference
  2
_OPEN30
 10
178.920819448582
 20
82.16766256590508
 30
0.0
 41
5.0
 42
5.0
 43
5.0
  0
INSERT
  5
1DB2
330
99A
100
AcDbEntity
  8
SUNPOU
100
AcDbBlockReference
  2
_OPEN30
 10
84.5708194485822
 20
82.16766256590508
 30
0.0
 41
5.0
 42
5.0
 43
5.0
 50
180.0
  0
POINT
  5
1DB3
330
99A
100
AcDbEntity
  8
DEFPOINTS
 62
     0
100
AcDbPoint
 10
178.920819448582
 20
153.4499560632688
 30
0.0
  0
POINT
  5
1DB4
330
99A
100
AcDbEntity
  8
DEFPOINTS
 62
     0
100
AcDbPoint
 10
84.5708194485822
 20
99.22495606326885
 30
0.0
  0
POINT
  5
1DB5
330
99A
100
AcDbEntity
  8
DEFPOINTS
 62
     0
100
AcDbPoint
 10
84.5708194485822
 20
82.16766256590508
 30
0.0
  0
ENDBLK
  5
9A5
330
99A
100
AcDbEntity
  8
0
100
AcDbBlockEnd
  0
BLOCK
  5
9B3
330
9A7
100
AcDbEntity
  8
0
100
AcDbBlockBegin
  2
*D11
 70
     1
 10
0.0
 20
0.0
 30
0.0
  3
*D11
  1

  0
LINE
  5
1DA2
330
9A7
100
AcDbEntity
  8
SUNPOU
100
AcDbLine
 10
84.5708194485822
 20
96.22495606326882
 30
0.0
 11
84.5708194485822
 21
80.16766256590509
 31
0.0
  0
LINE
  5
1DA3
330
9A7
100
AcDbEntity
  8
SUNPOU
100
AcDbLine
 10
84.22081944858224
 20
150.4499560632685
 30
0.0
 11
84.22081944858224
 21
80.16766256590509
 31
0.0
  0
LINE
  5
1DA4
330
9A7
100
AcDbEntity
  8
SUNPOU
100
AcDbLine
 10
89.57081944858222
 20
82.16766256590508
 30
0.0
 11
94.57081944858222
 21
82.16766256590508
 31
0.0
  0
LINE
  5
1DA5
330
9A7
100
AcDbEntity
  8
SUNPOU
100
AcDbLine
 10
79.22081944858224
 20
82.16766256590508
 30
0.0
 11
74.22081944858224
 21
82.16766256590508
 31
0.0
  0
MTEXT
  5
1DA6
330
9A7
100
AcDbEntity
  8
SUNPOU
 62
     6
100
AcDbMText
 10
81.26189399568399
 20
77.95841431282337
 30
0.0
 40
5.0
 41
0.0
 71
     5
 72
     1
  1
\A1;7
  7
SUNPOU
 11
-1.0
 21
0.0000000000000001
 31
0.0
1001
ACAD
1000
MTEXTBEGIN
1070
    73
1070
     1
1070
    44
1040
1.0
1070
    74
1070
     0
1000
MTEXTEND
1000
MTEXTBEGIN
1070
    73
1070
     1
1070
    44
1040
1.0
1070
    74
1070
     0
1000
MTEXTEND
  0
LINE
  5
1DA7
330
9A7
100
AcDbEntity
  8
SUNPOU
100
AcDbLine
 10
84.5708194485822
 20
82.16766256590508
 30
0.0
 11
84.22081944858224
 21
82.16766256590508
 31
0.0
  0
INSERT
  5
1DA8
330
9A7
100
AcDbEntity
  8
SUNPOU
100
AcDbBlockReference
  2
_OPEN30
 10
84.5708194485822
 20
82.16766256590508
 30
0.0
 41
5.0
 42
5.0
 43
5.0
 50
180.0
  0
INSERT
  5
1DA9
330
9A7
100
AcDbEntity
  8
SUNPOU
100
AcDbBlockReference
  2
_OPEN30
 10
84.22081944858224
 20
82.16766256590508
 30
0.0
 41
5.0
 42
5.0
 43
5.0
  0
POINT
  5
1DAA
330
9A7
100
AcDbEntity
  8
DEFPOINTS
 62
     0
100
AcDbPoint
 10
84.5708194485822
 20
99.22495606326885
 30
0.0
  0
POINT
  5
1DAB
330
9A7
100
AcDbEntity
  8
DEFPOINTS
 62
     0
100
AcDbPoint
 10
84.22081944858224
 20
153.4499560632685
 30
0.0
  0
POINT
  5
1DAC
330
9A7
100
AcDbEntity
  8
DEFPOINTS
 62
     0
100
AcDbPoint
 10
84.22081944858224
 20
82.16766256590508
 30
0.0
  0
ENDBLK
  5
9B4
330
9A7
100
AcDbEntity
  8
0
100
AcDbBlockEnd
  0
BLOCK
  5
9C0
330
9B6
100
AcDbEntity
  8
0
100
AcDbBlockBegin
  2
*D12
 70
     1
 10
0.0
 20
0.0
 30
0.0
  3
*D12
  1

  0
LINE
  5
226A
330
9B6
100
AcDbEntity
  8
SUNPOU
100
AcDbLine
 10
234.9064960742409
 20
105.4963149384885
 30
0.0
 11
234.9064960742409
 21
240.1991077463835
 31
0.0
  0
LINE
  5
226B
330
9B6
100
AcDbEntity
  8
SUNPOU
100
AcDbLine
 10
265.9064960742406
 20
226.9963149384886
 30
0.0
 11
265.9064960742406
 21
240.1991077463835
 31
0.0
  0
LINE
  5
226C
330
9B6
100
AcDbEntity
  8
SUNPOU
100
AcDbLine
 10
239.9064960742409
 20
238.1991077463835
 30
0.0
 11
260.9064960742407
 21
238.1991077463835
 31
0.0
  0
MTEXT
  5
226D
330
9B6
100
AcDbEntity
  8
SUNPOU
 62
     6
100
AcDbMText
 10
250.9064960742408
 20
232.8290785105996
 30
0.0
 40
5.0
 41
0.0
 71
     5
 72
     1
  1
\A1;31
  7
SUNPOU
 11
-1.0
 21
0.0000000000000001
 31
0.0
1001
ACAD
1000
MTEXTBEGIN
1070
    73
1070
     1
1070
    44
1040
1.0
1070
    74
1070
     0
1000
MTEXTEND
1000
MTEXTBEGIN
1070
    73
1070
     1
1070
    44
1040
1.0
1070
    74
1070
     0
1000
MTEXTEND
  0
INSERT
  5
226E
330
9B6
100
AcDbEntity
  8
SUNPOU
100
AcDbBlockReference
  2
_OPEN30
 10
234.9064960742409
 20
238.1991077463835
 30
0.0
 41
5.0
 42
5.0
 43
5.0
 50
180.0
  0
INSERT
  5
226F
330
9B6
100
AcDbEntity
  8
SUNPOU
100
AcDbBlockReference
  2
_OPEN30
 10
265.9064960742406
 20
238.1991077463835
 30
0.0
 41
5.0
 42
5.0
 43
5.0
  0
POINT
  5
2270
330
9B6
100
AcDbEntity
  8
DEFPOINTS
 62
     0
100
AcDbPoint
 10
234.9064960742409
 20
102.4963149384884
 30
0.0
  0
POINT
  5
2271
330
9B6
100
AcDbEntity
  8
DEFPOINTS
 62
     0
100
AcDbPoint
 10
265.9064960742406
 20
223.9963149384887
 30
0.0
  0
POINT
  5
2272
330
9B6
100
AcDbEntity
  8
DEFPOINTS
 62
     0
100
AcDbPoint
 10
265.9064960742406
 20
238.1991077463835
 30
0.0
  0
ENDBLK
  5
9C1
330
9B6
100
AcDbEntity
  8
0
100
AcDbBlockEnd
  0
BLOCK
  5
9CD
330
9C3
100
AcDbEntity
  8
0
100
AcDbBlockBegin
  2
*D13
 70
     1
 10
0.0
 20
0.0
 30
0.0
  3
*D13
  1

  0
LINE
  5
1D90
330
9C3
100
AcDbEntity
  8
SUNPOU
100
AcDbLine
 10
265.9064960742406
 20
226.9963149384886
 30
0.0
 11
265.9064960742406
 21
240.1991077463835
 31
0.0
  0
LINE
  5
1D91
330
9C3
100
AcDbEntity
  8
SUNPOU
100
AcDbLine
 10
297.9064960742407
 20
226.9963149384885
 30
0.0
 11
297.9064960742407
 21
240.1991077463835
 31
0.0
  0
LINE
  5
1D92
330
9C3
100
AcDbEntity
  8
SUNPOU
100
AcDbLine
 10
270.9064960742407
 20
238.1991077463835
 30
0.0
 11
292.9064960742406
 21
238.1991077463835
 31
0.0
  0
MTEXT
  5
1D93
330
9C3
100
AcDbEntity
  8
SUNPOU
 62
     6
100
AcDbMText
 10
282.0529743863689
 20
232.8290785105996
 30
0.0
 40
5.0
 41
0.0
 71
     5
 72
     1
  1
\A1;32
  7
SUNPOU
 11
-1.0
 21
0.0000000000000001
 31
0.0
1001
ACAD
1000
MTEXTBEGIN
1070
    73
1070
     1
1070
    44
1040
1.0
1070
    74
1070
     0
1000
MTEXTEND
1000
MTEXTBEGIN
1070
    73
1070
     1
1070
    44
1040
1.0
1070
    74
1070
     0
1000
MTEXTEND
  0
INSERT
  5
1D94
330
9C3
100
AcDbEntity
  8
SUNPOU
100
AcDbBlockReference
  2
_OPEN30
 10
265.9064960742406
 20
238.1991077463835
 30
0.0
 41
5.0
 42
5.0
 43
5.0
 50
180.0
  0
INSERT
  5
1D95
330
9C3
100
AcDbEntity
  8
SUNPOU
100
AcDbBlockReference
  2
_OPEN30
 10
297.9064960742407
 20
238.1991077463835
 30
0.0
 41
5.0
 42
5.0
 43
5.0
  0
POINT
  5
1D96
330
9C3
100
AcDbEntity
  8
DEFPOINTS
 62
     0
100
AcDbPoint
 10
265.9064960742406
 20
223.9963149384887
 30
0.0
  0
POINT
  5
1D97
330
9C3
100
AcDbEntity
  8
DEFPOINTS
 62
     0
100
AcDbPoint
 10
297.9064960742407
 20
223.9963149384884
 30
0.0
  0
POINT
  5
1D98
330
9C3
100
AcDbEntity
  8
DEFPOINTS
 62
     0
100
AcDbPoint
 10
297.9064960742407
 20
238.1991077463835
 30
0.0
  0
ENDBLK
  5
9CE
330
9C3
100
AcDbEntity
  8
0
100
AcDbBlockEnd
  0
BLOCK
  5
9DC
330
9D0
100
AcDbEntity
  8
0
100
AcDbBlockBegin
  2
*D14
 70
     1
 10
0.0
 20
0.0
 30
0.0
  3
*D14
  1

  0
LINE
  5
1D85
330
9D0
100
AcDbEntity
  8
SUNPOU
100
AcDbLine
 10
297.9064960742407
 20
226.9963149384885
 30
0.0
 11
297.9064960742407
 21
240.1991077463835
 31
0.0
  0
LINE
  5
1D86
330
9D0
100
AcDbEntity
  8
SUNPOU
100
AcDbLine
 10
302.9064960742412
 20
226.996314938489
 30
0.0
 11
302.9064960742412
 21
240.1991077463835
 31
0.0
  0
LINE
  5
1D87
330
9D0
100
AcDbEntity
  8
SUNPOU
100
AcDbLine
 10
292.9064960742406
 20
238.1991077463835
 30
0.0
 11
287.9064960742407
 21
238.1991077463835
 31
0.0
  0
LINE
  5
1D88
330
9D0
100
AcDbEntity
  8
SUNPOU
100
AcDbLine
 10
307.9064960742412
 20
238.1991077463835
 30
0.0
 11
312.9064960742411
 21
238.1991077463835
 31
0.0
  0
MTEXT
  5
1D89
330
9D0
100
AcDbEntity
  8
SUNPOU
 62
     6
100
AcDbMText
 10
300.7208192989628
 20
232.8290785105996
 30
0.0
 40
5.0
 41
0.0
 71
     5
 72
     1
  1
\A1;5
  7
SUNPOU
 11
-1.0
 21
0.0000000000000001
 31
0.0
1001
ACAD
1000
MTEXTBEGIN
1070
    73
1070
     1
1070
    44
1040
1.0
1070
    74
1070
     0
1000
MTEXTEND
1000
MTEXTBEGIN
1070
    73
1070
     1
1070
    44
1040
1.0
1070
    74
1070
     0
1000
MTEXTEND
  0
LINE
  5
1D8A
330
9D0
100
AcDbEntity
  8
SUNPOU
100
AcDbLine
 10
297.9064960742407
 20
238.1991077463835
 30
0.0
 11
302.9064960742412
 21
238.1991077463835
 31
0.0
  0
INSERT
  5
1D8B
330
9D0
100
AcDbEntity
  8
SUNPOU
100
AcDbBlockReference
  2
_OPEN30
 10
297.9064960742407
 20
238.1991077463835
 30
0.0
 41
5.0
 42
5.0
 43
5.0
  0
INSERT
  5
1D8C
330
9D0
100
AcDbEntity
  8
SUNPOU
100
AcDbBlockReference
  2
_OPEN30
 10
302.9064960742412
 20
238.1991077463835
 30
0.0
 41
5.0
 42
5.0
 43
5.0
 50
180.0
  0
POINT
  5
1D8D
330
9D0
100
AcDbEntity
  8
DEFPOINTS
 62
     0
100
AcDbPoint
 10
297.9064960742407
 20
223.9963149384884
 30
0.0
  0
POINT
  5
1D8E
330
9D0
100
AcDbEntity
  8
DEFPOINTS
 62
     0
100
AcDbPoint
 10
302.9064960742412
 20
223.996314938489
 30
0.0
  0
POINT
  5
1D8F
330
9D0
100
AcDbEntity
  8
DEFPOINTS
 62
     0
100
AcDbPoint
 10
302.9064960742412
 20
238.1991077463835
 30
0.0
  0
ENDBLK
  5
9DD
330
9D0
100
AcDbEntity
  8
0
100
AcDbBlockEnd
  0
BLOCK
  5
9E9
330
9DF
100
AcDbEntity
  8
0
100
AcDbBlockBegin
  2
*D15
 70
     1
 10
0.0
 20
0.0
 30
0.0
  3
*D15
  1

  0
LINE
  5
1D7C
330
9DF
100
AcDbEntity
  8
SUNPOU
100
AcDbLine
 10
302.9064960742412
 20
226.996314938489
 30
0.0
 11
302.9064960742412
 21
240.1991077463835
 31
0.0
  0
LINE
  5
1D7D
330
9DF
100
AcDbEntity
  8
SUNPOU
100
AcDbLine
 10
334.9064960742412
 20
226.996314938489
 30
0.0
 11
334.9064960742412
 21
240.1991077463835
 31
0.0
  0
LINE
  5
1D7E
330
9DF
100
AcDbEntity
  8
SUNPOU
100
AcDbLine
 10
307.9064960742412
 20
238.1991077463835
 30
0.0
 11
329.9064960742412
 21
238.1991077463835
 31
0.0
  0
MTEXT
  5
1D7F
330
9DF
100
AcDbEntity
  8
SUNPOU
 62
     6
100
AcDbMText
 10
326.3763267727118
 20
233.0297351798515
 30
0.0
 40
5.0
 41
0.0
 71
     5
 72
     1
  1
\A1;32
  7
SUNPOU
 11
-1.0
 21
0.0000000000000001
 31
0.0
1001
ACAD
1000
MTEXTBEGIN
1070
    73
1070
     1
1070
    44
1040
1.0
1070
    74
1070
     0
1000
MTEXTEND
1000
MTEXTBEGIN
1070
    73
1070
     1
1070
    44
1040
1.0
1070
    74
1070
     0
1000
MTEXTEND
  0
INSERT
  5
1D80
330
9DF
100
AcDbEntity
  8
SUNPOU
100
AcDbBlockReference
  2
_OPEN30
 10
302.9064960742412
 20
238.1991077463835
 30
0.0
 41
5.0
 42
5.0
 43
5.0
 50
180.0
  0
INSERT
  5
1D81
330
9DF
100
AcDbEntity
  8
SUNPOU
100
AcDbBlockReference
  2
_OPEN30
 10
334.9064960742412
 20
238.1991077463835
 30
0.0
 41
5.0
 42
5.0
 43
5.0
  0
POINT
  5
1D82
330
9DF
100
AcDbEntity
  8
DEFPOINTS
 62
     0
100
AcDbPoint
 10
302.9064960742412
 20
223.996314938489
 30
0.0
  0
POINT
  5
1D83
330
9DF
100
AcDbEntity
  8
DEFPOINTS
 62
     0
100
AcDbPoint
 10
334.9064960742412
 20
223.996314938489
 30
0.0
  0
POINT
  5
1D84
330
9DF
100
AcDbEntity
  8
DEFPOINTS
 62
     0
100
AcDbPoint
 10
334.9064960742412
 20
238.1991077463835
 30
0.0
  0
ENDBLK
  5
9EA
330
9DF
100
AcDbEntity
  8
0
100
AcDbBlockEnd
  0
BLOCK
  5
9F6
330
9EC
100
AcDbEntity
  8
0
100
AcDbBlockBegin
  2
*D16
 70
     1
 10
0.0
 20
0.0
 30
0.0
  3
*D16
  1

  0
LINE
  5
1D73
330
9EC
100
AcDbEntity
  8
SUNPOU
100
AcDbLine
 10
337.9064960742411
 20
223.996314938489
 30
0.0
 11
349.5469506121592
 21
223.996314938489
 31
0.0
  0
LINE
  5
1D74
330
9EC
100
AcDbEntity
  8
SUNPOU
100
AcDbLine
 10
337.9064960742411
 20
198.996314938489
 30
0.0
 11
349.5469506121592
 21
198.996314938489
 31
0.0
  0
LINE
  5
1D75
330
9EC
100
AcDbEntity
  8
SUNPOU
100
AcDbLine
 10
347.5469506121592
 20
218.9963149384891
 30
0.0
 11
347.5469506121592
 21
203.996314938489
 31
0.0
  0
INSERT
  5
1D76
330
9EC
100
AcDbEntity
  8
SUNPOU
100
AcDbBlockReference
  2
_OPEN30
 10
347.5469506121592
 20
223.996314938489
 30
0.0
 41
5.0
 42
5.0
 43
5.0
 50
90.0
  0
INSERT
  5
1D77
330
9EC
100
AcDbEntity
  8
SUNPOU
100
AcDbBlockReference
  2
_OPEN30
 10
347.5469506121592
 20
198.996314938489
 30
0.0
 41
5.0
 42
5.0
 43
5.0
 50
270.0
  0
MTEXT
  5
1D78
330
9EC
100
AcDbEntity
  8
SUNPOU
 62
     6
100
AcDbMText
 10
343.046950612159
 20
211.4963149384891
 30
0.0
 40
5.0
 41
0.0
 71
     5
 72
     1
  1
\A1;25
  7
SUNPOU
 11
0.0000000000000001
 21
1.0
 31
0.0
1001
ACAD
1000
MTEXTBEGIN
1070
    73
1070
     1
1070
    44
1040
1.0
1070
    74
1070
     0
1000
MTEXTEND
1000
MTEXTBEGIN
1070
    73
1070
     1
1070
    44
1040
1.0
1070
    74
1070
     0
1000
MTEXTEND
  0
POINT
  5
1D79
330
9EC
100
AcDbEntity
  8
DEFPOINTS
 62
     0
100
AcDbPoint
 10
334.9064960742412
 20
223.996314938489
 30
0.0
  0
POINT
  5
1D7A
330
9EC
100
AcDbEntity
  8
DEFPOINTS
 62
     0
100
AcDbPoint
 10
334.9064960742412
 20
198.996314938489
 30
0.0
  0
POINT
  5
1D7B
330
9EC
100
AcDbEntity
  8
DEFPOINTS
 62
     0
100
AcDbPoint
 10
347.5469506121592
 20
198.996314938489
 30
0.0
  0
ENDBLK
  5
9F7
330
9EC
100
AcDbEntity
  8
0
100
AcDbBlockEnd
  0
BLOCK
  5
A03
330
9F9
100
AcDbEntity
  8
0
100
AcDbBlockBegin
  2
*D17
 70
     1
 10
0.0
 20
0.0
 30
0.0
  3
*D17
  1

  0
LINE
  5
1D6A
330
9F9
100
AcDbEntity
  8
SUNPOU
100
AcDbLine
 10
337.9064960742411
 20
198.996314938489
 30
0.0
 11
361.4820527443341
 21
198.996314938489
 31
0.0
  0
LINE
  5
1D6B
330
9F9
100
AcDbEntity
  8
SUNPOU
100
AcDbLine
 10
337.9064960742411
 20
313.9964000000001
 30
0.0
 11
361.4820527443341
 21
313.9964000000001
 31
0.0
  0
LINE
  5
1D6C
330
9F9
100
AcDbEntity
  8
SUNPOU
100
AcDbLine
 10
359.4820527443341
 20
203.996314938489
 30
0.0
 11
359.4820527443341
 21
308.9964000000001
 31
0.0
  0
INSERT
  5
1D6D
330
9F9
100
AcDbEntity
  8
SUNPOU
100
AcDbBlockReference
  2
_OPEN30
 10
359.4820527443341
 20
198.996314938489
 30
0.0
 41
5.0
 42
5.0
 43
5.0
 50
270.0
  0
INSERT
  5
1D6E
330
9F9
100
AcDbEntity
  8
SUNPOU
100
AcDbBlockReference
  2
_OPEN30
 10
359.4820527443341
 20
313.9964000000001
 30
0.0
 41
5.0
 42
5.0
 43
5.0
 50
90.0
  0
MTEXT
  5
1D6F
330
9F9
100
AcDbEntity
  8
SUNPOU
 62
     6
100
AcDbMText
 10
354.982052744334
 20
256.4963574692447
 30
0.0
 40
5.0
 41
0.0
 71
     5
 72
     1
  1
\A1;DW
  7
SUNPOU
 11
0.0000000000000001
 21
1.0
 31
0.0
1001
ACAD
1000
MTEXTBEGIN
1070
    73
1070
     1
1070
    44
1040
1.0
1070
    74
1070
     0
1000
MTEXTEND
1000
MTEXTBEGIN
1070
    73
1070
     1
1070
    44
1040
1.0
1070
    74
1070
     0
1000
MTEXTEND
  0
POINT
  5
1D70
330
9F9
100
AcDbEntity
  8
DEFPOINTS
 62
     0
100
AcDbPoint
 10
334.9064960742412
 20
198.996314938489
 30
0.0
  0
POINT
  5
1D71
330
9F9
100
AcDbEntity
  8
DEFPOINTS
 62
     0
100
AcDbPoint
 10
334.9064960742412
 20
313.9964000000001
 30
0.0
  0
POINT
  5
1D72
330
9F9
100
AcDbEntity
  8
DEFPOINTS
 62
     0
100
AcDbPoint
 10
359.4820527443341
 20
313.9964000000001
 30
0.0
  0
ENDBLK
  5
A04
330
9F9
100
AcDbEntity
  8
0
100
AcDbBlockEnd
  0
BLOCK
  5
A12
330
A06
100
AcDbEntity
  8
0
100
AcDbBlockBegin
  2
*D18
 70
     1
 10
0.0
 20
0.0
 30
0.0
  3
*D18
  1

  0
LINE
  5
1D5F
330
A06
100
AcDbEntity
  8
SUNPOU
100
AcDbLine
 10
337.9064960742411
 20
313.9964000000001
 30
0.0
 11
361.4820527443341
 21
313.9964000000001
 31
0.0
  0
LINE
  5
1D60
330
A06
100
AcDbEntity
  8
SUNPOU
100
AcDbLine
 10
337.9064960742408
 20
318.9964000000001
 30
0.0
 11
361.4820527443341
 21
318.9964000000001
 31
0.0
  0
LINE
  5
1D61
330
A06
100
AcDbEntity
  8
SUNPOU
100
AcDbLine
 10
359.4820527443341
 20
308.9964000000001
 30
0.0
 11
359.4820527443341
 21
303.9964000000001
 31
0.0
  0
LINE
  5
1D62
330
A06
100
AcDbEntity
  8
SUNPOU
100
AcDbLine
 10
359.4820527443341
 20
323.9964000000001
 30
0.0
 11
359.4820527443341
 21
328.9964000000001
 31
0.0
  0
MTEXT
  5
1D63
330
A06
100
AcDbEntity
  8
SUNPOU
 62
     6
100
AcDbMText
 10
354.8076075236126
 20
316.4964000000001
 30
0.0
 40
5.0
 41
0.0
 71
     5
 72
     1
  1
\A1;5
  7
SUNPOU
 11
0.0000000000000001
 21
1.0
 31
0.0
1001
ACAD
1000
MTEXTBEGIN
1070
    73
1070
     1
1070
    44
1040
1.0
1070
    74
1070
     0
1000
MTEXTEND
1000
MTEXTBEGIN
1070
    73
1070
     1
1070
    44
1040
1.0
1070
    74
1070
     0
1000
MTEXTEND
  0
LINE
  5
1D64
330
A06
100
AcDbEntity
  8
SUNPOU
100
AcDbLine
 10
359.4820527443341
 20
313.9964000000001
 30
0.0
 11
359.4820527443341
 21
318.9964000000001
 31
0.0
  0
INSERT
  5
1D65
330
A06
100
AcDbEntity
  8
SUNPOU
100
AcDbBlockReference
  2
_OPEN30
 10
359.4820527443341
 20
313.9964000000001
 30
0.0
 41
5.0
 42
5.0
 43
5.0
 50
90.0
  0
INSERT
  5
1D66
330
A06
100
AcDbEntity
  8
SUNPOU
100
AcDbBlockReference
  2
_OPEN30
 10
359.4820527443341
 20
318.9964000000001
 30
0.0
 41
5.0
 42
5.0
 43
5.0
 50
270.0
  0
POINT
  5
1D67
330
A06
100
AcDbEntity
  8
DEFPOINTS
 62
     0
100
AcDbPoint
 10
334.9064960742412
 20
313.9964000000001
 30
0.0
  0
POINT
  5
1D68
330
A06
100
AcDbEntity
  8
DEFPOINTS
 62
     0
100
AcDbPoint
 10
334.9064960742408
 20
318.9964000000001
 30
0.0
  0
POINT
  5
1D69
330
A06
100
AcDbEntity
  8
DEFPOINTS
 62
     0
100
AcDbPoint
 10
359.4820527443341
 20
318.9964000000001
 30
0.0
  0
ENDBLK
  5
A13
330
A06
100
AcDbEntity
  8
0
100
AcDbBlockEnd
  0
BLOCK
  5
A1F
330
A15
100
AcDbEntity
  8
0
100
AcDbBlockBegin
  2
*D19
 70
     1
 10
0.0
 20
0.0
 30
0.0
  3
*D19
  1

  0
LINE
  5
1D56
330
A15
100
AcDbEntity
  8
SUNPOU
100
AcDbLine
 10
337.9064960742408
 20
318.9964000000001
 30
0.0
 11
361.4820527443341
 21
318.9964000000001
 31
0.0
  0
LINE
  5
1D57
330
A15
100
AcDbEntity
  8
SUNPOU
100
AcDbLine
 10
337.9064960742405
 20
433.9964850615115
 30
0.0
 11
361.4820527443341
 21
433.9964850615115
 31
0.0
  0
LINE
  5
1D58
330
A15
100
AcDbEntity
  8
SUNPOU
100
AcDbLine
 10
359.4820527443341
 20
323.9964000000001
 30
0.0
 11
359.4820527443341
 21
428.9964850615115
 31
0.0
  0
INSERT
  5
1D59
330
A15
100
AcDbEntity
  8
SUNPOU
100
AcDbBlockReference
  2
_OPEN30
 10
359.4820527443341
 20
318.9964000000001
 30
0.0
 41
5.0
 42
5.0
 43
5.0
 50
270.0
  0
INSERT
  5
1D5A
330
A15
100
AcDbEntity
  8
SUNPOU
100
AcDbBlockReference
  2
_OPEN30
 10
359.4820527443341
 20
433.9964850615115
 30
0.0
 41
5.0
 42
5.0
 43
5.0
 50
90.0
  0
MTEXT
  5
1D5B
330
A15
100
AcDbEntity
  8
SUNPOU
 62
     6
100
AcDbMText
 10
354.982052744334
 20
376.4964425307558
 30
0.0
 40
5.0
 41
0.0
 71
     5
 72
     1
  1
\A1;DW
  7
SUNPOU
 11
0.0000000000000001
 21
1.0
 31
0.0
1001
ACAD
1000
MTEXTBEGIN
1070
    73
1070
     1
1070
    44
1040
1.0
1070
    74
1070
     0
1000
MTEXTEND
1000
MTEXTBEGIN
1070
    73
1070
     1
1070
    44
1040
1.0
1070
    74
1070
     0
1000
MTEXTEND
  0
POINT
  5
1D5C
330
A15
100
AcDbEntity
  8
DEFPOINTS
 62
     0
100
AcDbPoint
 10
334.9064960742408
 20
318.9964000000001
 30
0.0
  0
POINT
  5
1D5D
330
A15
100
AcDbEntity
  8
DEFPOINTS
 62
     0
100
AcDbPoint
 10
334.9064960742405
 20
433.9964850615115
 30
0.0
  0
POINT
  5
1D5E
330
A15
100
AcDbEntity
  8
DEFPOINTS
 62
     0
100
AcDbPoint
 10
359.4820527443341
 20
433.9964850615115
 30
0.0
  0
ENDBLK
  5
A20
330
A15
100
AcDbEntity
  8
0
100
AcDbBlockEnd
  0
BLOCK
  5
A2C
330
A22
100
AcDbEntity
  8
0
100
AcDbBlockBegin
  2
*D20
 70
     1
 10
0.0
 20
0.0
 30
0.0
  3
*D20
  1

  0
LINE
  5
1D4D
330
A22
100
AcDbEntity
  8
SUNPOU
100
AcDbLine
 10
337.9064960742407
 20
433.9964850615115
 30
0.0
 11
349.5469506121592
 21
433.9964850615115
 31
0.0
  0
LINE
  5
1D4E
330
A22
100
AcDbEntity
  8
SUNPOU
100
AcDbLine
 10
337.9064960742407
 20
408.9964850615114
 30
0.0
 11
349.5469506121592
 21
408.9964850615114
 31
0.0
  0
LINE
  5
1D4F
330
A22
100
AcDbEntity
  8
SUNPOU
100
AcDbLine
 10
347.5469506121592
 20
428.9964850615115
 30
0.0
 11
347.5469506121592
 21
413.9964850615114
 31
0.0
  0
INSERT
  5
1D50
330
A22
100
AcDbEntity
  8
SUNPOU
100
AcDbBlockReference
  2
_OPEN30
 10
347.5469506121592
 20
433.9964850615115
 30
0.0
 41
5.0
 42
5.0
 43
5.0
 50
90.0
  0
INSERT
  5
1D51
330
A22
100
AcDbEntity
  8
SUNPOU
100
AcDbBlockReference
  2
_OPEN30
 10
347.5469506121592
 20
408.9964850615114
 30
0.0
 41
5.0
 42
5.0
 43
5.0
 50
270.0
  0
MTEXT
  5
1D52
330
A22
100
AcDbEntity
  8
SUNPOU
 62
     6
100
AcDbMText
 10
343.0469506121589
 20
421.4964850615115
 30
0.0
 40
5.0
 41
0.0
 71
     5
 72
     1
  1
\A1;25
  7
SUNPOU
 11
0.0000000000000001
 21
1.0
 31
0.0
1001
ACAD
1000
MTEXTBEGIN
1070
    73
1070
     1
1070
    44
1040
1.0
1070
    74
1070
     0
1000
MTEXTEND
1000
MTEXTBEGIN
1070
    73
1070
     1
1070
    44
1040
1.0
1070
    74
1070
     0
1000
MTEXTEND
  0
POINT
  5
1D53
330
A22
100
AcDbEntity
  8
DEFPOINTS
 62
     0
100
AcDbPoint
 10
334.9064960742406
 20
433.9964850615115
 30
0.0
  0
POINT
  5
1D54
330
A22
100
AcDbEntity
  8
DEFPOINTS
 62
     0
100
AcDbPoint
 10
334.9064960742408
 20
408.9964850615114
 30
0.0
  0
POINT
  5
1D55
330
A22
100
AcDbEntity
  8
DEFPOINTS
 62
     0
100
AcDbPoint
 10
347.5469506121592
 20
408.9964850615114
 30
0.0
  0
ENDBLK
  5
A2D
330
A22
100
AcDbEntity
  8
0
100
AcDbBlockEnd
  0
BLOCK
  5
A39
330
A2F
100
AcDbEntity
  8
0
100
AcDbBlockBegin
  2
*D21
 70
     1
 10
0.0
 20
0.0
 30
0.0
  3
*D21
  1

  0
LINE
  5
1D44
330
A2F
100
AcDbEntity
  8
SUNPOU
100
AcDbLine
 10
337.9064960742407
 20
343.9964000000001
 30
0.0
 11
349.5469506121592
 21
343.9964000000001
 31
0.0
  0
LINE
  5
1D45
330
A2F
100
AcDbEntity
  8
SUNPOU
100
AcDbLine
 10
337.9064960742408
 20
318.9964000000001
 30
0.0
 11
349.5469506121592
 21
318.9964000000001
 31
0.0
  0
LINE
  5
1D46
330
A2F
100
AcDbEntity
  8
SUNPOU
100
AcDbLine
 10
347.5469506121592
 20
338.9964000000001
 30
0.0
 11
347.5469506121592
 21
323.9964000000001
 31
0.0
  0
INSERT
  5
1D47
330
A2F
100
AcDbEntity
  8
SUNPOU
100
AcDbBlockReference
  2
_OPEN30
 10
347.5469506121592
 20
343.9964000000001
 30
0.0
 41
5.0
 42
5.0
 43
5.0
 50
90.0
  0
INSERT
  5
1D48
330
A2F
100
AcDbEntity
  8
SUNPOU
100
AcDbBlockReference
  2
_OPEN30
 10
347.5469506121592
 20
318.9964000000001
 30
0.0
 41
5.0
 42
5.0
 43
5.0
 50
270.0
  0
MTEXT
  5
1D49
330
A2F
100
AcDbEntity
  8
SUNPOU
 62
     6
100
AcDbMText
 10
343.046950612159
 20
331.4964000000001
 30
0.0
 40
5.0
 41
0.0
 71
     5
 72
     1
  1
\A1;25
  7
SUNPOU
 11
0.0000000000000001
 21
1.0
 31
0.0
1001
ACAD
1000
MTEXTBEGIN
1070
    73
1070
     1
1070
    44
1040
1.0
1070
    74
1070
     0
1000
MTEXTEND
1000
MTEXTBEGIN
1070
    73
1070
     1
1070
    44
1040
1.0
1070
    74
1070
     0
1000
MTEXTEND
  0
POINT
  5
1D4A
330
A2F
100
AcDbEntity
  8
DEFPOINTS
 62
     0
100
AcDbPoint
 10
334.9064960742408
 20
343.9964000000001
 30
0.0
  0
POINT
  5
1D4B
330
A2F
100
AcDbEntity
  8
DEFPOINTS
 62
     0
100
AcDbPoint
 10
334.9064960742408
 20
318.9964000000001
 30
0.0
  0
POINT
  5
1D4C
330
A2F
100
AcDbEntity
  8
DEFPOINTS
 62
     0
100
AcDbPoint
 10
347.5469506121592
 20
318.9964000000001
 30
0.0
  0
ENDBLK
  5
A3A
330
A2F
100
AcDbEntity
  8
0
100
AcDbBlockEnd
  0
BLOCK
  5
A46
330
A3C
100
AcDbEntity
  8
0
100
AcDbBlockBegin
  2
*D22
 70
     1
 10
0.0
 20
0.0
 30
0.0
  3
*D22
  1

  0
LINE
  5
1D3B
330
A3C
100
AcDbEntity
  8
SUNPOU
100
AcDbLine
 10
337.9064960742408
 20
313.9964000000001
 30
0.0
 11
349.5469506121592
 21
313.9964000000001
 31
0.0
  0
LINE
  5
1D3C
330
A3C
100
AcDbEntity
  8
SUNPOU
100
AcDbLine
 10
337.9064960742411
 20
288.9964000000001
 30
0.0
 11
349.5469506121592
 21
288.9964000000001
 31
0.0
  0
LINE
  5
1D3D
330
A3C
100
AcDbEntity
  8
SUNPOU
100
AcDbLine
 10
347.5469506121592
 20
308.9964000000001
 30
0.0
 11
347.5469506121592
 21
293.9964000000001
 31
0.0
  0
INSERT
  5
1D3E
330
A3C
100
AcDbEntity
  8
SUNPOU
100
AcDbBlockReference
  2
_OPEN30
 10
347.5469506121592
 20
313.9964000000001
 30
0.0
 41
5.0
 42
5.0
 43
5.0
 50
90.0
  0
INSERT
  5
1D3F
330
A3C
100
AcDbEntity
  8
SUNPOU
100
AcDbBlockReference
  2
_OPEN30
 10
347.5469506121592
 20
288.9964000000001
 30
0.0
 41
5.0
 42
5.0
 43
5.0
 50
270.0
  0
MTEXT
  5
1D40
330
A3C
100
AcDbEntity
  8
SUNPOU
 62
     6
100
AcDbMText
 10
343.046950612159
 20
301.4964000000001
 30
0.0
 40
5.0
 41
0.0
 71
     5
 72
     1
  1
\A1;25
  7
SUNPOU
 11
0.0000000000000001
 21
1.0
 31
0.0
1001
ACAD
1000
MTEXTBEGIN
1070
    73
1070
     1
1070
    44
1040
1.0
1070
    74
1070
     0
1000
MTEXTEND
1000
MTEXTBEGIN
1070
    73
1070
     1
1070
    44
1040
1.0
1070
    74
1070
     0
1000
MTEXTEND
  0
POINT
  5
1D41
330
A3C
100
AcDbEntity
  8
DEFPOINTS
 62
     0
100
AcDbPoint
 10
334.9064960742408
 20
313.9964000000001
 30
0.0
  0
POINT
  5
1D42
330
A3C
100
AcDbEntity
  8
DEFPOINTS
 62
     0
100
AcDbPoint
 10
334.9064960742409
 20
288.9964000000001
 30
0.0
  0
POINT
  5
1D43
330
A3C
100
AcDbEntity
  8
DEFPOINTS
 62
     0
100
AcDbPoint
 10
347.5469506121592
 20
288.9964000000001
 30
0.0
  0
ENDBLK
  5
A47
330
A3C
100
AcDbEntity
  8
0
100
AcDbBlockEnd
  0
BLOCK
  5
A53
330
A49
100
AcDbEntity
  8
0
100
AcDbBlockBegin
  2
*D23
 70
     1
 10
0.0
 20
0.0
 30
0.0
  3
*D23
  1

  0
LINE
  5
227D
330
A49
100
AcDbEntity
  8
SUNPOU
100
AcDbLine
 10
234.9064960742409
 20
105.4963149384885
 30
0.0
 11
234.9064960742409
 21
143.141543869136
 31
0.0
  0
LINE
  5
227E
330
A49
100
AcDbEntity
  8
SUNPOU
100
AcDbLine
 10
354.9064960742408
 20
105.4963149384885
 30
0.0
 11
354.9064960742408
 21
143.141543869136
 31
0.0
  0
LINE
  5
227F
330
A49
100
AcDbEntity
  8
SUNPOU
100
AcDbLine
 10
239.9064960742409
 20
141.141543869136
 30
0.0
 11
349.9064960742408
 21
141.141543869136
 31
0.0
  0
MTEXT
  5
2280
330
A49
100
AcDbEntity
  8
SUNPOU
 62
     6
100
AcDbMText
 10
301.2867431971176
 20
135.8960653203898
 30
0.0
 40
5.0
 41
0.0
 71
     5
 72
     1
  1
\A1;120
  7
SUNPOU
 11
-1.0
 21
0.0000000000000001
 31
0.0
1001
ACAD
1000
MTEXTBEGIN
1070
    73
1070
     1
1070
    44
1040
1.0
1070
    74
1070
     0
1000
MTEXTEND
1000
MTEXTBEGIN
1070
    73
1070
     1
1070
    44
1040
1.0
1070
    74
1070
     0
1000
MTEXTEND
  0
INSERT
  5
2281
330
A49
100
AcDbEntity
  8
SUNPOU
100
AcDbBlockReference
  2
_OPEN30
 10
234.9064960742409
 20
141.141543869136
 30
0.0
 41
5.0
 42
5.0
 43
5.0
 50
180.0
  0
INSERT
  5
2282
330
A49
100
AcDbEntity
  8
SUNPOU
100
AcDbBlockReference
  2
_OPEN30
 10
354.9064960742408
 20
141.141543869136
 30
0.0
 41
5.0
 42
5.0
 43
5.0
  0
POINT
  5
2283
330
A49
100
AcDbEntity
  8
DEFPOINTS
 62
     0
100
AcDbPoint
 10
234.9064960742409
 20
102.4963149384884
 30
0.0
  0
POINT
  5
2284
330
A49
100
AcDbEntity
  8
DEFPOINTS
 62
     0
100
AcDbPoint
 10
354.9064960742408
 20
102.4963149384884
 30
0.0
  0
POINT
  5
2285
330
A49
100
AcDbEntity
  8
DEFPOINTS
 62
     0
100
AcDbPoint
 10
354.9064960742408
 20
141.141543869136
 30
0.0
  0
ENDBLK
  5
A54
330
A49
100
AcDbEntity
  8
0
100
AcDbBlockEnd
  0
BLOCK
  5
A60
330
A56
100
AcDbEntity
  8
0
100
AcDbBlockBegin
  2
*D24
 70
     1
 10
0.0
 20
0.0
 30
0.0
  3
*D24
  1

  0
LINE
  5
1D29
330
A56
100
AcDbEntity
  8
SUNPOU
100
AcDbLine
 10
310.4064960742408
 20
118.22692983642
 30
0.0
 11
310.4064960742408
 21
117.22692983642
 31
0.0
  0
LINE
  5
1D2A
330
A56
100
AcDbEntity
  8
SUNPOU
100
AcDbLine
 10
327.4064960742408
 20
118.22692983642
 30
0.0
 11
327.4064960742408
 21
117.22692983642
 31
0.0
  0
LINE
  5
1D2B
330
A56
100
AcDbEntity
  8
SUNPOU
100
AcDbLine
 10
315.4064960742408
 20
115.2269298364201
 30
0.0
 11
322.4064960742408
 21
115.2269298364201
 31
0.0
  0
MTEXT
  5
1D2C
330
A56
100
AcDbEntity
  8
SUNPOU
 62
     6
100
AcDbMText
 10
319.2960656345487
 20
109.9142141980282
 30
0.0
 40
5.0
 41
0.0
 71
     5
 72
     1
  1
\A1;17
  7
SUNPOU
 11
-1.0
 21
0.0000000000000001
 31
0.0
1001
ACAD
1000
MTEXTBEGIN
1070
    73
1070
     1
1070
    44
1040
1.0
1070
    74
1070
     0
1000
MTEXTEND
1000
MTEXTBEGIN
1070
    73
1070
     1
1070
    44
1040
1.0
1070
    74
1070
     0
1000
MTEXTEND
  0
INSERT
  5
1D2D
330
A56
100
AcDbEntity
  8
SUNPOU
100
AcDbBlockReference
  2
_OPEN30
 10
310.4064960742408
 20
115.2269298364201
 30
0.0
 41
5.0
 42
5.0
 43
5.0
 50
180.0
  0
INSERT
  5
1D2E
330
A56
100
AcDbEntity
  8
SUNPOU
100
AcDbBlockReference
  2
_OPEN30
 10
327.4064960742408
 20
115.2269298364201
 30
0.0
 41
5.0
 42
5.0
 43
5.0
  0
POINT
  5
1D2F
330
A56
100
AcDbEntity
  8
DEFPOINTS
 62
     0
100
AcDbPoint
 10
310.4064960742408
 20
115.2269298364201
 30
0.0
  0
POINT
  5
1D30
330
A56
100
AcDbEntity
  8
DEFPOINTS
 62
     0
100
AcDbPoint
 10
327.4064960742408
 20
115.2269298364201
 30
0.0
  0
POINT
  5
1D31
330
A56
100
AcDbEntity
  8
DEFPOINTS
 62
     0
100
AcDbPoint
 10
327.4064960742408
 20
115.2269298364201
 30
0.0
  0
ENDBLK
  5
A61
330
A56
100
AcDbEntity
  8
0
100
AcDbBlockEnd
  0
BLOCK
  5
CC3
330
CB9
100
AcDbEntity
  8
0
100
AcDbBlockBegin
  2
*D25
 70
     1
 10
0.0
 20
0.0
 30
0.0
  3
*D25
  1

  0
LINE
  5
2274
330
CB9
100
AcDbEntity
  8
SUNPOU
100
AcDbLine
 10
356.4064960742408
 20
103.9963149384884
 30
0.0
 11
376.6917677358782
 21
103.9963149384884
 31
0.0
  0
LINE
  5
2275
330
CB9
100
AcDbEntity
  8
SUNPOU
100
AcDbLine
 10
357.4064960742408
 20
528.9964850615112
 30
0.0
 11
376.6917677358784
 21
528.9964850615112
 31
0.0
  0
LINE
  5
2276
330
CB9
100
AcDbEntity
  8
SUNPOU
100
AcDbLine
 10
374.6917677358782
 20
108.9963149384884
 30
0.0
 11
374.6917677358784
 21
523.9964850615113
 31
0.0
  0
INSERT
  5
2277
330
CB9
100
AcDbEntity
  8
SUNPOU
100
AcDbBlockReference
  2
_OPEN30
 10
374.6917677358782
 20
103.9963149384884
 30
0.0
 41
5.0
 42
5.0
 43
5.0
 50
270.0
  0
INSERT
  5
2278
330
CB9
100
AcDbEntity
  8
SUNPOU
100
AcDbBlockReference
  2
_OPEN30
 10
374.6917677358784
 20
528.9964850615112
 30
0.0
 41
5.0
 42
5.0
 43
5.0
 50
90.0
  0
MTEXT
  5
2279
330
CB9
100
AcDbEntity
  8
SUNPOU
 62
     6
100
AcDbMText
 10
370.1917677358782
 20
316.4964000000001
 30
0.0
 40
5.0
 41
0.0
 71
     5
 72
     1
  1
\A1;W
  7
SUNPOU
 11
0.0000000000000001
 21
1.0
 31
0.0
1001
ACAD
1000
MTEXTBEGIN
1070
    73
1070
     1
1070
    44
1040
1.0
1070
    74
1070
     0
1000
MTEXTEND
1000
MTEXTBEGIN
1070
    73
1070
     1
1070
    44
1040
1.0
1070
    74
1070
     0
1000
MTEXTEND
  0
POINT
  5
227A
330
CB9
100
AcDbEntity
  8
DEFPOINTS
 62
     0
100
AcDbPoint
 10
353.4064960742408
 20
103.9963149384884
 30
0.0
  0
POINT
  5
227B
330
CB9
100
AcDbEntity
  8
DEFPOINTS
 62
     0
100
AcDbPoint
 10
354.4064960742408
 20
528.9964850615112
 30
0.0
  0
POINT
  5
227C
330
CB9
100
AcDbEntity
  8
DEFPOINTS
 62
     0
100
AcDbPoint
 10
374.6917677358784
 20
528.9964850615112
 30
0.0
  0
ENDBLK
  5
CC4
330
CB9
100
AcDbEntity
  8
0
100
AcDbBlockEnd
  0
ENDSEC
  0
SECTION
  2
ENTITIES
  0
LINE
  5
267
330
A
100
AcDbEntity
  8
03
100
AcDbLine
 10
44.57081944858225
 20
97.72495606326884
 30
0.0
 11
44.57081944858225
 21
300.7249560632688
 31
0.0
  0
LINE
  5
268
330
A
100
AcDbEntity
  8
03
100
AcDbLine
 10
179.570819448582
 20
334.7138028930646
 30
0.0
 11
179.570819448582
 21
60.48806272813303
 31
0.0
  0
LINE
  5
269
330
A
100
AcDbEntity
  8
03
100
AcDbLine
 10
179.570819448582
 20
97.72495606326884
 30
0.0
 11
44.57081944858225
 21
97.72495606326884
 31
0.0
  0
LINE
  5
26A
330
A
100
AcDbEntity
  8
03
100
AcDbLine
 10
44.57081944858225
 20
300.7249560632688
 30
0.0
 11
179.570819448582
 21
300.7249560632688
 31
0.0
  0
LINE
  5
26B
330
A
100
AcDbEntity
  8
03
100
AcDbLine
 10
179.570819448582
 20
99.22495606326885
 30
0.0
 11
44.57081944858225
 21
99.22495606326885
 31
0.0
  0
LINE
  5
26C
330
A
100
AcDbEntity
  8
03
100
AcDbLine
 10
46.07081944858225
 20
99.22495606326885
 30
0.0
 11
46.07081944858225
 21
299.2249560632686
 31
0.0
  0
LINE
  5
26D
330
A
100
AcDbEntity
  8
03
100
AcDbLine
 10
44.57081944858225
 20
299.2249560632686
 30
0.0
 11
179.570819448582
 21
299.2249560632686
 31
0.0
  0
LINE
  5
26E
330
A
100
AcDbEntity
  8
03
100
AcDbLine
 10
84.5708194485822
 20
244.9999560632688
 30
0.0
 11
179.570819448582
 21
244.9999560632688
 31
0.0
  0
LINE
  5
26F
330
A
100
AcDbEntity
  8
03
100
AcDbLine
 10
74.5708194485822
 20
155.9499560632688
 30
0.0
 11
46.0708194485822
 21
155.9499560632688
 31
0.0
  0
LINE
  5
270
330
A
100
AcDbEntity
  8
03
100
AcDbLine
 10
46.0708194485822
 20
153.4499560632688
 30
0.0
 11
74.5708194485822
 21
153.4499560632688
 31
0.0
  0
LINE
  5
271
330
A
100
AcDbEntity
  8
03
100
AcDbLine
 10
74.5708194485822
 20
242.4999560632688
 30
0.0
 11
46.07081944858225
 21
242.4999560632688
 31
0.0
  0
LINE
  5
272
330
A
100
AcDbEntity
  8
03
100
AcDbLine
 10
46.07081944858225
 20
244.9999560632688
 30
0.0
 11
74.5708194485822
 21
244.9999560632688
 31
0.0
  0
LINE
  5
273
330
A
100
AcDbEntity
  8
SAISEN
100
AcDbLine
 10
51.32171563820532
 20
136.5113517352265
 30
0.0
 11
69.12749234585304
 21
118.7055750275787
 31
0.0
  0
LINE
  5
274
330
A
100
AcDbEntity
  8
SAISEN
100
AcDbLine
 10
54.67642719182014
 20
131.6566401816116
 30
0.0
 11
65.25667132245132
 21
121.0763960509804
 31
0.0
  0
LINE
  5
275
330
A
100
AcDbEntity
  8
SAISEN
100
AcDbLine
 10
54.67642719182014
 20
134.6566401816116
 30
0.0
 11
65.25667132245132
 21
124.0763960509804
 31
0.0
  0
LINE
  5
276
330
A
100
AcDbEntity
  8
SAISEN
100
AcDbLine
 10
106.2873741705089
 20
131.3502570373576
 30
0.0
 11
124.0931508781567
 21
113.5444803297099
 31
0.0
  0
LINE
  5
277
330
A
100
AcDbEntity
  8
SAISEN
100
AcDbLine
 10
109.6420857241237
 20
126.4955454837427
 30
0.0
 11
120.222329854755
 21
115.9153013531115
 31
0.0
  0
LINE
  5
278
330
A
100
AcDbEntity
  8
SAISEN
100
AcDbLine
 10
109.6420857241237
 20
129.4955454837428
 30
0.0
 11
120.222329854755
 21
118.9153013531115
 31
0.0
  0
LINE
  5
279
330
A
100
AcDbEntity
  8
SAISEN
100
AcDbLine
 10
51.41793109475838
 20
208.1278444170927
 30
0.0
 11
69.22370780240601
 21
190.3220677094449
 31
0.0
  0
LINE
  5
27A
330
A
100
AcDbEntity
  8
SAISEN
100
AcDbLine
 10
54.77264264837311
 20
203.2731328634779
 30
0.0
 11
65.35288677900439
 21
192.6928887328466
 31
0.0
  0
LINE
  5
27B
330
A
100
AcDbEntity
  8
SAISEN
100
AcDbLine
 10
54.77264264837311
 20
206.2731328634779
 30
0.0
 11
65.35288677900439
 21
195.6928887328466
 31
0.0
  0
LINE
  5
27C
330
A
100
AcDbEntity
  8
SAISEN
100
AcDbLine
 10
51.32171563820532
 20
276.5113517352265
 30
0.0
 11
69.12749234585304
 21
258.7055750275788
 31
0.0
  0
LINE
  5
27D
330
A
100
AcDbEntity
  8
SAISEN
100
AcDbLine
 10
54.67642719182014
 20
271.6566401816117
 30
0.0
 11
65.25667132245132
 21
261.0763960509804
 31
0.0
  0
LINE
  5
27E
330
A
100
AcDbEntity
  8
SAISEN
100
AcDbLine
 10
54.67642719182014
 20
274.6566401816116
 30
0.0
 11
65.25667132245132
 21
264.0763960509804
 31
0.0
  0
LINE
  5
27F
330
A
100
AcDbEntity
  8
SAISEN
100
AcDbLine
 10
106.2873741705091
 20
185.7371875305461
 30
0.0
 11
124.0931508781567
 21
167.9314108228985
 31
0.0
  0
LINE
  5
280
330
A
100
AcDbEntity
  8
SAISEN
100
AcDbLine
 10
109.6420857241237
 20
180.8824759769314
 30
0.0
 11
120.222329854755
 21
170.3022318463001
 31
0.0
  0
LINE
  5
281
330
A
100
AcDbEntity
  8
SAISEN
100
AcDbLine
 10
109.6420857241237
 20
183.8824759769314
 30
0.0
 11
120.222329854755
 21
173.3022318463001
 31
0.0
  0
LINE
  5
282
330
A
100
AcDbEntity
  8
SAISEN
100
AcDbLine
 10
106.2873741705091
 20
231.3502570373576
 30
0.0
 11
124.0931508781567
 21
213.5444803297099
 31
0.0
  0
LINE
  5
283
330
A
100
AcDbEntity
  8
SAISEN
100
AcDbLine
 10
109.6420857241237
 20
226.4955454837428
 30
0.0
 11
120.222329854755
 21
215.9153013531116
 31
0.0
  0
LINE
  5
284
330
A
100
AcDbEntity
  8
SAISEN
100
AcDbLine
 10
109.6420857241237
 20
229.4955454837428
 30
0.0
 11
120.222329854755
 21
218.9153013531115
 31
0.0
  0
LINE
  5
285
330
A
100
AcDbEntity
  8
SAISEN
100
AcDbLine
 10
106.2873741705091
 20
281.3502570373576
 30
0.0
 11
124.0931508781567
 21
263.5444803297098
 31
0.0
  0
LINE
  5
286
330
A
100
AcDbEntity
  8
SAISEN
100
AcDbLine
 10
109.6420857241237
 20
276.4955454837428
 30
0.0
 11
120.222329854755
 21
265.9153013531116
 31
0.0
  0
LINE
  5
287
330
A
100
AcDbEntity
  8
SAISEN
100
AcDbLine
 10
109.6420857241237
 20
279.4955454837428
 30
0.0
 11
120.222329854755
 21
268.9153013531115
 31
0.0
  0
LINE
  5
288
330
A
100
AcDbEntity
  8
03
100
AcDbLine
 10
174.570819448582
 20
299.2249560632686
 30
0.0
 11
174.570819448582
 21
244.9999560632688
 31
0.0
  0
LINE
  5
289
330
A
100
AcDbEntity
  8
03
100
AcDbLine
 10
174.570819448582
 20
153.4499560632688
 30
0.0
 11
174.570819448582
 21
99.22495606326885
 31
0.0
  0
LINE
  5
28A
330
A
100
AcDbEntity
  8
SOUZOU
100
AcDbLine
 10
74.5708194485822
 20
199.2249560632687
 30
0.0
 11
84.5708194485822
 21
99.22495606326885
 31
0.0
  0
LINE
  5
28B
330
A
100
AcDbEntity
  8
SOUZOU
100
AcDbLine
 10
74.5708194485822
 20
199.2249560632687
 30
0.0
 11
84.5708194485822
 21
299.2249560632686
 31
0.0
  0
LINE
  5
28C
330
A
100
AcDbEntity
  8
03
100
AcDbLine
 10
74.5708194485822
 20
99.22495606326885
 30
0.0
 11
74.5708194485822
 21
299.2249560632686
 31
0.0
  0
LINE
  5
28D
330
A
100
AcDbEntity
  8
03
100
AcDbLine
 10
84.5708194485822
 20
99.22495606326885
 30
0.0
 11
84.5708194485822
 21
299.2249560632686
 31
0.0
  0
LINE
  5
28E
330
A
100
AcDbEntity
  8
03
100
AcDbLine
 10
179.5708194485821
 20
522.9250712935637
 30
0.0
 11
179.5708194485821
 21
356.9452863348476
 31
0.0
  0
LINE
  5
28F
330
A
100
AcDbEntity
  8
03
100
AcDbLine
 10
44.57081944858225
 20
375.7249560632688
 30
0.0
 11
44.57081944858225
 21
503.7249560632687
 31
0.0
  0
LINE
  5
290
330
A
100
AcDbEntity
  8
03
100
AcDbLine
 10
44.57081944858225
 20
503.7249560632687
 30
0.0
 11
179.5708194485821
 21
503.7249560632687
 31
0.0
  0
LINE
  5
291
330
A
100
AcDbEntity
  8
03
100
AcDbLine
 10
179.5708194485821
 20
375.7249560632688
 30
0.0
 11
44.57081944858225
 21
375.7249560632688
 31
0.0
  0
LINE
  5
292
330
A
100
AcDbEntity
  8
03
100
AcDbLine
 10
74.5708194485822
 20
377.2249560632686
 30
0.0
 11
74.5708194485822
 21
502.2249560632688
 31
0.0
  0
LINE
  5
293
330
A
100
AcDbEntity
  8
03
100
AcDbLine
 10
84.5708194485822
 20
377.2249560632686
 30
0.0
 11
84.5708194485822
 21
502.2249560632688
 31
0.0
  0
LINE
  5
294
330
A
100
AcDbEntity
  8
03
100
AcDbLine
 10
179.5708194485821
 20
377.2249560632686
 30
0.0
 11
44.57081944858225
 21
377.2249560632686
 31
0.0
  0
LINE
  5
295
330
A
100
AcDbEntity
  8
03
100
AcDbLine
 10
46.07081944858225
 20
377.2249560632686
 30
0.0
 11
46.07081944858225
 21
502.2249560632688
 31
0.0
  0
LINE
  5
296
330
A
100
AcDbEntity
  8
03
100
AcDbLine
 10
44.57081944858225
 20
502.2249560632688
 30
0.0
 11
179.5708194485821
 21
502.2249560632688
 31
0.0
  0
LINE
  5
297
330
A
100
AcDbEntity
  8
SOUZOU
100
AcDbLine
 10
74.5708194485822
 20
439.7249560632688
 30
0.0
 11
84.5708194485822
 21
377.2249560632686
 31
0.0
  0
LINE
  5
298
330
A
100
AcDbEntity
  8
SOUZOU
100
AcDbLine
 10
74.5708194485822
 20
439.7249560632688
 30
0.0
 11
84.5708194485822
 21
502.2249560632688
 31
0.0
  0
LINE
  5
299
330
A
100
AcDbEntity
  8
03
100
AcDbLine
 10
84.5708194485822
 20
438.3249560632686
 30
0.0
 11
179.5708194485821
 21
438.3249560632686
 31
0.0
  0
LINE
  5
29A
330
A
100
AcDbEntity
  8
SAISEN
100
AcDbLine
 10
106.2873741705091
 20
418.5418211849852
 30
0.0
 11
124.0931508781567
 21
400.7360444773374
 31
0.0
  0
LINE
  5
29B
330
A
100
AcDbEntity
  8
SAISEN
100
AcDbLine
 10
109.6420857241237
 20
413.6871096313703
 30
0.0
 11
120.222329854755
 21
403.1068655007392
 31
0.0
  0
LINE
  5
29C
330
A
100
AcDbEntity
  8
SAISEN
100
AcDbLine
 10
109.6420857241237
 20
416.6871096313704
 30
0.0
 11
120.222329854755
 21
406.1068655007392
 31
0.0
  0
LINE
  5
29D
330
A
100
AcDbEntity
  8
SAISEN
100
AcDbLine
 10
106.2873741705091
 20
476.661329093597
 30
0.0
 11
124.0931508781567
 21
458.8555523859493
 31
0.0
  0
LINE
  5
29E
330
A
100
AcDbEntity
  8
SAISEN
100
AcDbLine
 10
109.6420857241237
 20
471.8066175399822
 30
0.0
 11
120.222329854755
 21
461.2263734093509
 31
0.0
  0
LINE
  5
29F
330
A
100
AcDbEntity
  8
SAISEN
100
AcDbLine
 10
109.6420857241237
 20
474.8066175399823
 30
0.0
 11
120.222329854755
 21
464.226373409351
 31
0.0
  0
LINE
  5
2A0
330
A
100
AcDbEntity
  8
03
100
AcDbLine
 10
174.5708194485821
 20
502.2249560632688
 30
0.0
 11
174.5708194485821
 21
438.3249560632686
 31
0.0
  0
LINE
  5
2A1
330
A
100
AcDbEntity
  8
SAISEN
100
AcDbLine
 10
50.91284969460797
 20
479.9233954864357
 30
0.0
 11
68.71862640225561
 21
462.1176187787879
 31
0.0
  0
LINE
  5
2A2
330
A
100
AcDbEntity
  8
SAISEN
100
AcDbLine
 10
54.2675612482227
 20
475.0686839328208
 30
0.0
 11
64.84780537885399
 21
464.4884398021896
 31
0.0
  0
LINE
  5
2A3
330
A
100
AcDbEntity
  8
SAISEN
100
AcDbLine
 10
54.2675612482227
 20
478.0686839328208
 30
0.0
 11
64.84780537885399
 21
467.4884398021896
 31
0.0
  0
LINE
  5
2A4
330
A
100
AcDbEntity
  8
SAISEN
100
AcDbLine
 10
50.91284969460797
 20
414.2399474155626
 30
0.0
 11
68.71862640225561
 21
396.434170707915
 31
0.0
  0
LINE
  5
2A5
330
A
100
AcDbEntity
  8
SAISEN
100
AcDbLine
 10
54.2675612482227
 20
409.3852358619479
 30
0.0
 11
64.84780537885399
 21
398.8049917313166
 31
0.0
  0
LINE
  5
2A6
330
A
100
AcDbEntity
  8
SAISEN
100
AcDbLine
 10
54.2675612482227
 20
412.3852358619477
 30
0.0
 11
64.84780537885399
 21
401.8049917313166
 31
0.0
  0
LINE
  5
2A7
330
A
100
AcDbEntity
  8
SAISEN
100
AcDbLine
 10
119.5708194485822
 20
511.3499560632686
 30
0.0
 11
119.5708194485822
 21
514.8499560632687
 31
0.0
  0
LINE
  5
2A8
330
A
100
AcDbEntity
  8
SAISEN
100
AcDbLine
 10
125.5708194485821
 20
514.8499560632687
 30
0.0
 11
125.5708194485821
 21
511.3499560632686
 31
0.0
  0
LINE
  5
2A9
330
A
100
AcDbEntity
  8
SAISEN
100
AcDbLine
 10
125.5708194485821
 20
511.3499560632686
 30
0.0
 11
119.5708194485822
 21
511.3499560632686
 31
0.0
  0
LINE
  5
2AA
330
A
100
AcDbEntity
  8
SAISEN
100
AcDbLine
 10
119.5708194485822
 20
514.8499560632687
 30
0.0
 11
125.5708194485821
 21
514.8499560632687
 31
0.0
  0
LINE
  5
2AB
330
A
100
AcDbEntity
  8
SAISEN
100
AcDbLine
 10
119.5708194485822
 20
308.3499560632688
 30
0.0
 11
119.5708194485822
 21
311.8499560632688
 31
0.0
  0
LINE
  5
2AC
330
A
100
AcDbEntity
  8
SAISEN
100
AcDbLine
 10
125.5708194485821
 20
311.8499560632688
 30
0.0
 11
125.5708194485821
 21
308.3499560632688
 31
0.0
  0
LINE
  5
2AD
330
A
100
AcDbEntity
  8
SAISEN
100
AcDbLine
 10
125.5708194485821
 20
308.3499560632688
 30
0.0
 11
119.5708194485822
 21
308.3499560632688
 31
0.0
  0
LINE
  5
2AE
330
A
100
AcDbEntity
  8
SAISEN
100
AcDbLine
 10
119.5708194485822
 20
311.8499560632688
 30
0.0
 11
125.5708194485821
 21
311.8499560632688
 31
0.0
  0
LINE
  5
2AF
330
A
100
AcDbEntity
  8
03
100
AcDbLine
 10
84.5708194485822
 20
153.4499560632688
 30
0.0
 11
179.570819448582
 21
153.4499560632688
 31
0.0
  0
LINE
  5
2B0
330
A
100
AcDbEntity
  8
03
100
AcDbLine
 10
234.9064960742409
 20
530.4964850615114
 30
0.0
 11
234.9064960742409
 21
557.4964850615113
 31
0.0
  0
LINE
  5
2B1
330
A
100
AcDbEntity
  8
03
100
AcDbLine
 10
354.9064960742408
 20
557.4964850615113
 30
0.0
 11
354.9064960742408
 21
530.4964850615114
 31
0.0
  0
LINE
  5
2B2
330
A
100
AcDbEntity
  8
03
100
AcDbLine
 10
236.4064960742409
 20
558.9964850615114
 30
0.0
 11
252.4064960742409
 21
558.9964850615114
 31
0.0
  0
LINE
  5
2B3
330
A
100
AcDbEntity
  8
03
100
AcDbLine
 10
236.4064960742409
 20
530.4964850615114
 30
0.0
 11
236.4064960742409
 21
557.4964850615113
 31
0.0
  0
LINE
  5
2B4
330
A
100
AcDbEntity
  8
03
100
AcDbLine
 10
236.4064960742409
 20
557.4964850615113
 30
0.0
 11
252.4064960742409
 21
557.4964850615113
 31
0.0
  0
LINE
  5
2B5
330
A
100
AcDbEntity
  8
03
100
AcDbLine
 10
353.4064960742408
 20
557.4964850615113
 30
0.0
 11
353.4064960742408
 21
530.4964850615114
 31
0.0
  0
LINE
  5
2B6
330
A
100
AcDbEntity
  8
03
100
AcDbLine
 10
252.4064960742409
 20
557.4964850615113
 30
0.0
 11
252.4064960742409
 21
558.9964850615114
 31
0.0
  0
LINE
  5
2B7
330
A
100
AcDbEntity
  8
03
100
AcDbLine
 10
353.4064960742408
 20
557.4964850615113
 30
0.0
 11
339.9064960742408
 21
557.4964850615113
 31
0.0
  0
LINE
  5
2B8
330
A
100
AcDbEntity
  8
03
100
AcDbLine
 10
353.4064960742408
 20
558.9964850615114
 30
0.0
 11
339.9064960742408
 21
558.9964850615114
 31
0.0
  0
LINE
  5
2B9
330
A
100
AcDbEntity
  8
03
100
AcDbLine
 10
339.9064960742408
 20
557.4964850615113
 30
0.0
 11
339.9064960742408
 21
558.9964850615114
 31
0.0
  0
ARC
  5
2BA
330
A
100
AcDbEntity
  8
03
100
AcDbCircle
 10
353.4064960742408
 20
557.4964850615113
 30
0.0
 40
1.5
100
AcDbArc
 50
0.0
 51
90.0
  0
ARC
  5
2BB
330
A
100
AcDbEntity
  8
03
100
AcDbCircle
 10
353.4064960742408
 20
530.4964850615114
 30
0.0
 40
1.5
100
AcDbArc
 50
270.0
 51
0.0
  0
ARC
  5
2BC
330
A
100
AcDbEntity
  8
03
100
AcDbCircle
 10
236.4064960742409
 20
557.4964850615113
 30
0.0
 40
1.5
100
AcDbArc
 50
90.0
 51
180.0
  0
ARC
  5
2BD
330
A
100
AcDbEntity
  8
03
100
AcDbCircle
 10
236.4064960742409
 20
530.4964850615114
 30
0.0
 40
1.5
100
AcDbArc
 50
180.0
 51
270.0
  0
LINE
  5
2BE
330
A
100
AcDbEntity
  8
03
100
AcDbLine
 10
273.906496074241
 20
530.4964850615114
 30
0.0
 11
273.906496074241
 21
543.9964850615114
 31
0.0
  0
LINE
  5
2BF
330
A
100
AcDbEntity
  8
03
100
AcDbLine
 10
289.9064960742408
 20
543.9964850615114
 30
0.0
 11
289.9064960742408
 21
530.4964850615114
 31
0.0
  0
LINE
  5
2C0
330
A
100
AcDbEntity
  8
03
100
AcDbLine
 10
353.4064960742408
 20
528.9964850615112
 30
0.0
 11
291.4064960742408
 21
528.9964850615112
 31
0.0
  0
LINE
  5
2C1
330
A
100
AcDbEntity
  8
03
100
AcDbLine
 10
353.4064960742408
 20
530.4964850615114
 30
0.0
 11
291.4064960742408
 21
530.4964850615114
 31
0.0
  0
LINE
  5
2C2
330
A
100
AcDbEntity
  8
03
100
AcDbLine
 10
273.906496074241
 20
543.9964850615114
 30
0.0
 11
289.9064960742408
 21
543.9964850615114
 31
0.0
  0
LINE
  5
2C3
330
A
100
AcDbEntity
  8
03
100
AcDbLine
 10
272.4064960742409
 20
530.4964850615114
 30
0.0
 11
272.4064960742409
 21
543.9964850615114
 31
0.0
  0
LINE
  5
2C4
330
A
100
AcDbEntity
  8
03
100
AcDbLine
 10
291.4064960742408
 20
543.9964850615114
 30
0.0
 11
291.4064960742408
 21
530.4964850615114
 31
0.0
  0
LINE
  5
2C5
330
A
100
AcDbEntity
  8
03
100
AcDbLine
 10
273.906496074241
 20
545.4964850615112
 30
0.0
 11
289.9064960742408
 21
545.4964850615112
 31
0.0
  0
ARC
  5
2C6
330
A
100
AcDbEntity
  8
03
100
AcDbCircle
 10
272.4064960742409
 20
530.4964850615114
 30
0.0
 40
1.5
100
AcDbArc
 50
270.0
 51
0.0
  0
ARC
  5
2C7
330
A
100
AcDbEntity
  8
03
100
AcDbCircle
 10
273.906496074241
 20
543.9964850615114
 30
0.0
 40
1.5
100
AcDbArc
 50
90.0
 51
180.0
  0
ARC
  5
2C8
330
A
100
AcDbEntity
  8
03
100
AcDbCircle
 10
289.9064960742408
 20
543.9964850615114
 30
0.0
 40
1.5
100
AcDbArc
 50
0.0
 51
90.0
  0
ARC
  5
2C9
330
A
100
AcDbEntity
  8
03
100
AcDbCircle
 10
291.4064960742408
 20
530.4964850615114
 30
0.0
 40
1.5
100
AcDbArc
 50
180.0
 51
270.0
  0
LINE
  5
2CA
330
A
100
AcDbEntity
  8
03
100
AcDbLine
 10
288.3031664364036
 20
528.9964850615112
 30
0.0
 11
275.5098257120781
 21
528.9964850615112
 31
0.0
  0
LINE
  5
2CB
330
A
100
AcDbEntity
  8
03
100
AcDbLine
 10
288.406496074241
 20
530.4964850615114
 30
0.0
 11
275.4064960742409
 21
530.4964850615114
 31
0.0
  0
LINE
  5
2CC
330
A
100
AcDbEntity
  8
03
100
AcDbLine
 10
274.9064960742409
 20
543.9964850615114
 30
0.0
 11
276.4064960742409
 21
543.9964850615114
 31
0.0
  0
LINE
  5
2CD
330
A
100
AcDbEntity
  8
03
100
AcDbLine
 10
287.4064960742408
 20
543.9964850615114
 30
0.0
 11
288.9064960742408
 21
543.9964850615114
 31
0.0
  0
LINE
  5
2CE
330
A
100
AcDbEntity
  8
03
100
AcDbLine
 10
274.0131479752932
 20
530.5962635772974
 30
0.0
 11
274.9064960742409
 21
543.9964850615114
 31
0.0
  0
LINE
  5
2CF
330
A
100
AcDbEntity
  8
03
100
AcDbLine
 10
275.4064960742409
 20
530.4964850615114
 30
0.0
 11
276.4064960742409
 21
543.9964850615114
 31
0.0
  0
LINE
  5
2D0
330
A
100
AcDbEntity
  8
03
100
AcDbLine
 10
288.406496074241
 20
530.4964850615114
 30
0.0
 11
287.4064960742408
 21
543.9964850615114
 31
0.0
  0
LINE
  5
2D1
330
A
100
AcDbEntity
  8
03
100
AcDbLine
 10
289.7998441731886
 20
530.5962635772971
 30
0.0
 11
288.9064960742408
 21
543.9964850615114
 31
0.0
  0
ARC
  5
2D2
330
A
100
AcDbEntity
  8
03
100
AcDbCircle
 10
275.5098257120781
 20
530.4964850615115
 30
0.0
 40
1.5
100
AcDbArc
 50
176.1859251656945
 51
270.0
  0
ARC
  5
2D3
330
A
100
AcDbEntity
  8
03
100
AcDbCircle
 10
288.3031664364036
 20
530.4964850615115
 30
0.0
 40
1.5
100
AcDbArc
 50
270.0
 51
3.814074834288012
  0
LINE
  5
2D4
330
A
100
AcDbEntity
  8
03
100
AcDbLine
 10
244.9064960742409
 20
528.9964850615112
 30
0.0
 11
244.9064960742409
 21
530.4964850615114
 31
0.0
  0
LINE
  5
2D5
330
A
100
AcDbEntity
  8
03
100
AcDbLine
 10
256.9064960742409
 20
528.9964850615112
 30
0.0
 11
256.9064960742409
 21
530.4964850615114
 31
0.0
  0
LINE
  5
2D6
330
A
100
AcDbEntity
  8
03
100
AcDbLine
 10
272.4064960742409
 20
528.9964850615112
 30
0.0
 11
256.9064960742409
 21
528.9964850615112
 31
0.0
  0
LINE
  5
2D7
330
A
100
AcDbEntity
  8
03
100
AcDbLine
 10
244.9064960742409
 20
528.9964850615112
 30
0.0
 11
236.4064960742409
 21
528.9964850615112
 31
0.0
  0
LINE
  5
2D8
330
A
100
AcDbEntity
  8
03
100
AcDbLine
 10
272.4064960742409
 20
530.4964850615114
 30
0.0
 11
256.9064960742409
 21
530.4964850615114
 31
0.0
  0
LINE
  5
2D9
330
A
100
AcDbEntity
  8
03
100
AcDbLine
 10
244.9064960742409
 20
530.4964850615114
 30
0.0
 11
236.4064960742409
 21
530.4964850615114
 31
0.0
  0
LINE
  5
2DA
330
A
100
AcDbEntity
  8
03
100
AcDbLine
 10
234.9064960742409
 20
102.4963149384884
 30
0.0
 11
234.9064960742409
 21
75.49631493848856
 31
0.0
  0
LINE
  5
2DB
330
A
100
AcDbEntity
  8
03
100
AcDbLine
 10
354.9064960742408
 20
75.49631493848858
 30
0.0
 11
354.9064960742408
 21
102.4963149384884
 31
0.0
  0
LINE
  5
2DC
330
A
100
AcDbEntity
  8
03
100
AcDbLine
 10
236.4064960742409
 20
73.99631493848857
 30
0.0
 11
252.4064960742409
 21
73.99631493848858
 31
0.0
  0
LINE
  5
2DD
330
A
100
AcDbEntity
  8
03
100
AcDbLine
 10
236.4064960742409
 20
102.4963149384884
 30
0.0
 11
236.4064960742409
 21
75.49631493848856
 31
0.0
  0
LINE
  5
2DE
330
A
100
AcDbEntity
  8
03
100
AcDbLine
 10
236.4064960742409
 20
75.49631493848856
 30
0.0
 11
252.4064960742409
 21
75.49631493848858
 31
0.0
  0
LINE
  5
2DF
330
A
100
AcDbEntity
  8
03
100
AcDbLine
 10
353.4064960742408
 20
75.49631493848858
 30
0.0
 11
353.4064960742408
 21
102.4963149384884
 31
0.0
  0
LINE
  5
2E0
330
A
100
AcDbEntity
  8
03
100
AcDbLine
 10
252.4064960742409
 20
75.49631493848858
 30
0.0
 11
252.4064960742409
 21
73.99631493848858
 31
0.0
  0
LINE
  5
2E1
330
A
100
AcDbEntity
  8
03
100
AcDbLine
 10
353.4064960742408
 20
75.49631493848858
 30
0.0
 11
339.9064960742407
 21
75.49631493848858
 31
0.0
  0
LINE
  5
2E2
330
A
100
AcDbEntity
  8
03
100
AcDbLine
 10
353.4064960742408
 20
73.99631493848858
 30
0.0
 11
339.9064960742407
 21
73.99631493848858
 31
0.0
  0
LINE
  5
2E3
330
A
100
AcDbEntity
  8
03
100
AcDbLine
 10
339.9064960742407
 20
75.49631493848858
 30
0.0
 11
339.9064960742407
 21
73.99631493848858
 31
0.0
  0
ARC
  5
2E4
330
A
100
AcDbEntity
  8
03
100
AcDbCircle
 10
353.4064960742408
 20
75.49631493848858
 30
0.0
 40
1.5
100
AcDbArc
 50
270.0
 51
0.0
  0
ARC
  5
2E5
330
A
100
AcDbEntity
  8
03
100
AcDbCircle
 10
353.4064960742408
 20
102.4963149384884
 30
0.0
 40
1.5
100
AcDbArc
 50
0.0
 51
90.0
  0
ARC
  5
2E6
330
A
100
AcDbEntity
  8
03
100
AcDbCircle
 10
236.4064960742409
 20
75.49631493848856
 30
0.0
 40
1.5
100
AcDbArc
 50
180.0
 51
270.0
  0
ARC
  5
2E7
330
A
100
AcDbEntity
  8
03
100
AcDbCircle
 10
236.4064960742409
 20
102.4963149384884
 30
0.0
 40
1.5
100
AcDbArc
 50
90.0
 51
180.0
  0
LINE
  5
2E8
330
A
100
AcDbEntity
  8
03
100
AcDbLine
 10
273.9064960742409
 20
102.4963149384884
 30
0.0
 11
273.9064960742409
 21
88.99631493848858
 31
0.0
  0
LINE
  5
2E9
330
A
100
AcDbEntity
  8
03
100
AcDbLine
 10
289.9064960742408
 20
88.99631493848858
 30
0.0
 11
289.9064960742408
 21
102.4963149384884
 31
0.0
  0
LINE
  5
2EA
330
A
100
AcDbEntity
  8
03
100
AcDbLine
 10
353.4064960742408
 20
103.9963149384884
 30
0.0
 11
291.4064960742408
 21
103.9963149384884
 31
0.0
  0
LINE
  5
2EB
330
A
100
AcDbEntity
  8
03
100
AcDbLine
 10
353.4064960742408
 20
102.4963149384884
 30
0.0
 11
291.4064960742408
 21
102.4963149384884
 31
0.0
  0
LINE
  5
2EC
330
A
100
AcDbEntity
  8
03
100
AcDbLine
 10
273.9064960742409
 20
88.99631493848858
 30
0.0
 11
289.9064960742408
 21
88.99631493848858
 31
0.0
  0
LINE
  5
2ED
330
A
100
AcDbEntity
  8
03
100
AcDbLine
 10
272.4064960742409
 20
102.4963149384884
 30
0.0
 11
272.4064960742409
 21
88.99631493848858
 31
0.0
  0
LINE
  5
2EE
330
A
100
AcDbEntity
  8
03
100
AcDbLine
 10
291.4064960742408
 20
88.99631493848858
 30
0.0
 11
291.4064960742408
 21
102.4963149384884
 31
0.0
  0
LINE
  5
2EF
330
A
100
AcDbEntity
  8
03
100
AcDbLine
 10
273.9064960742409
 20
87.49631493848857
 30
0.0
 11
289.9064960742408
 21
87.49631493848857
 31
0.0
  0
ARC
  5
2F0
330
A
100
AcDbEntity
  8
03
100
AcDbCircle
 10
272.4064960742409
 20
102.4963149384884
 30
0.0
 40
1.5
100
AcDbArc
 50
0.0
 51
90.0
  0
ARC
  5
2F1
330
A
100
AcDbEntity
  8
03
100
AcDbCircle
 10
273.9064960742409
 20
88.99631493848858
 30
0.0
 40
1.5
100
AcDbArc
 50
180.0
 51
270.0
  0
ARC
  5
2F2
330
A
100
AcDbEntity
  8
03
100
AcDbCircle
 10
289.9064960742408
 20
88.99631493848858
 30
0.0
 40
1.5
100
AcDbArc
 50
270.0
 51
0.0
  0
ARC
  5
2F3
330
A
100
AcDbEntity
  8
03
100
AcDbCircle
 10
291.4064960742408
 20
102.4963149384884
 30
0.0
 40
1.5
100
AcDbArc
 50
90.0
 51
180.0
  0
LINE
  5
2F4
330
A
100
AcDbEntity
  8
03
100
AcDbLine
 10
288.3031664364036
 20
103.9963149384884
 30
0.0
 11
275.5098257120781
 21
103.9963149384884
 31
0.0
  0
LINE
  5
2F5
330
A
100
AcDbEntity
  8
03
100
AcDbLine
 10
288.406496074241
 20
102.4963149384884
 30
0.0
 11
275.4064960742409
 21
102.4963149384884
 31
0.0
  0
LINE
  5
2F6
330
A
100
AcDbEntity
  8
03
100
AcDbLine
 10
274.9064960742409
 20
88.99631493848858
 30
0.0
 11
276.4064960742409
 21
88.99631493848858
 31
0.0
  0
LINE
  5
2F7
330
A
100
AcDbEntity
  8
03
100
AcDbLine
 10
287.4064960742408
 20
88.99631493848858
 30
0.0
 11
288.9064960742408
 21
88.99631493848858
 31
0.0
  0
LINE
  5
2F8
330
A
100
AcDbEntity
  8
03
100
AcDbLine
 10
274.0131479752932
 20
102.3965364227023
 30
0.0
 11
274.9064960742409
 21
88.99631493848858
 31
0.0
  0
LINE
  5
2F9
330
A
100
AcDbEntity
  8
03
100
AcDbLine
 10
275.4064960742409
 20
102.4963149384884
 30
0.0
 11
276.4064960742409
 21
88.99631493848858
 31
0.0
  0
LINE
  5
2FA
330
A
100
AcDbEntity
  8
03
100
AcDbLine
 10
288.406496074241
 20
102.4963149384884
 30
0.0
 11
287.4064960742408
 21
88.99631493848858
 31
0.0
  0
LINE
  5
2FB
330
A
100
AcDbEntity
  8
03
100
AcDbLine
 10
289.7998441731886
 20
102.3965364227027
 30
0.0
 11
288.9064960742408
 21
88.99631493848858
 31
0.0
  0
ARC
  5
2FC
330
A
100
AcDbEntity
  8
03
100
AcDbCircle
 10
275.5098257120781
 20
102.4963149384884
 30
0.0
 40
1.5
100
AcDbArc
 50
90.0
 51
183.8140748343054
  0
ARC
  5
2FD
330
A
100
AcDbEntity
  8
03
100
AcDbCircle
 10
288.3031664364036
 20
102.4963149384884
 30
0.0
 40
1.5
100
AcDbArc
 50
356.1859251657119
 51
90.0
  0
LINE
  5
2FE
330
A
100
AcDbEntity
  8
03
100
AcDbLine
 10
244.9064960742409
 20
103.9963149384884
 30
0.0
 11
244.9064960742409
 21
102.4963149384884
 31
0.0
  0
LINE
  5
2FF
330
A
100
AcDbEntity
  8
03
100
AcDbLine
 10
256.9064960742409
 20
103.9963149384884
 30
0.0
 11
256.9064960742409
 21
102.4963149384884
 31
0.0
  0
LINE
  5
300
330
A
100
AcDbEntity
  8
03
100
AcDbLine
 10
272.4064960742409
 20
103.9963149384884
 30
0.0
 11
256.9064960742409
 21
103.9963149384884
 31
0.0
  0
LINE
  5
301
330
A
100
AcDbEntity
  8
03
100
AcDbLine
 10
244.9064960742409
 20
103.9963149384884
 30
0.0
 11
236.4064960742409
 21
103.9963149384884
 31
0.0
  0
LINE
  5
302
330
A
100
AcDbEntity
  8
03
100
AcDbLine
 10
272.4064960742409
 20
102.4963149384884
 30
0.0
 11
256.9064960742409
 21
102.4963149384884
 31
0.0
  0
LINE
  5
303
330
A
100
AcDbEntity
  8
03
100
AcDbLine
 10
244.9064960742409
 20
102.4963149384884
 30
0.0
 11
236.4064960742409
 21
102.4963149384884
 31
0.0
  0
LINE
  5
304
330
A
100
AcDbEntity
  8
06
100
AcDbLine
 10
304.9064960742406
 20
378.9964850615114
 30
0.0
 11
304.9064960742408
 21
408.9964850615114
 31
0.0
  0
LINE
  5
305
330
A
100
AcDbEntity
  8
06
100
AcDbLine
 10
332.9064960742408
 20
378.9964850615115
 30
0.0
 11
332.9064960742408
 21
408.9964850615115
 31
0.0
  0
LINE
  5
306
330
A
100
AcDbEntity
  8
06
100
AcDbLine
 10
304.9064960742408
 20
343.9964000000001
 30
0.0
 11
304.9064960742408
 21
373.9964000000001
 31
0.0
  0
LINE
  5
307
330
A
100
AcDbEntity
  8
06
100
AcDbLine
 10
332.9064960742408
 20
343.9964000000001
 30
0.0
 11
332.9064960742408
 21
373.9964000000001
 31
0.0
  0
LINE
  5
308
330
A
100
AcDbEntity
  8
06
100
AcDbLine
 10
304.9064960742409
 20
288.9964000000001
 30
0.0
 11
304.9064960742409
 21
258.9964
 31
0.0
  0
LINE
  5
309
330
A
100
AcDbEntity
  8
06
100
AcDbLine
 10
332.9064960742409
 20
288.9964000000001
 30
0.0
 11
332.9064960742409
 21
258.9963574692445
 31
0.0
  0
LINE
  5
30A
330
A
100
AcDbEntity
  8
06
100
AcDbLine
 10
304.9064960742412
 20
253.9963574692445
 30
0.0
 11
304.9064960742412
 21
223.996314938489
 31
0.0
  0
LINE
  5
30B
330
A
100
AcDbEntity
  8
06
100
AcDbLine
 10
332.9064960742411
 20
253.9963574692445
 30
0.0
 11
332.9064960742412
 21
223.996314938489
 31
0.0
  0
LINE
  5
30C
330
A
100
AcDbEntity
  8
03
100
AcDbLine
 10
267.9064960742406
 20
471.4964850615114
 30
0.0
 11
267.9064960742406
 21
503.9964850615112
 31
0.0
  0
LINE
  5
30D
330
A
100
AcDbEntity
  8
03
100
AcDbLine
 10
267.9064960742408
 20
433.9964850615115
 30
0.0
 11
267.9064960742408
 21
466.4964850615112
 31
0.0
  0
LINE
  5
30E
330
A
100
AcDbEntity
  8
03
100
AcDbLine
 10
295.9064960742407
 20
433.9964850615115
 30
0.0
 11
295.9064960742407
 21
466.4964850615112
 31
0.0
  0
LINE
  5
30F
330
A
100
AcDbEntity
  8
03
100
AcDbLine
 10
295.9064960742407
 20
471.4964850615114
 30
0.0
 11
295.9064960742407
 21
503.9964850615112
 31
0.0
  0
LINE
  5
310
330
A
100
AcDbEntity
  8
03
100
AcDbLine
 10
267.9064960742406
 20
166.4963149384884
 30
0.0
 11
267.9064960742406
 21
198.9963149384884
 31
0.0
  0
LINE
  5
311
330
A
100
AcDbEntity
  8
03
100
AcDbLine
 10
267.9064960742408
 20
128.9963149384887
 30
0.0
 11
267.9064960742408
 21
161.4963149384887
 31
0.0
  0
LINE
  5
312
330
A
100
AcDbEntity
  8
03
100
AcDbLine
 10
295.9064960742407
 20
128.9963149384887
 30
0.0
 11
295.9064960742407
 21
161.4963149384887
 31
0.0
  0
LINE
  5
313
330
A
100
AcDbEntity
  8
03
100
AcDbLine
 10
295.9064960742407
 20
166.4963149384886
 30
0.0
 11
295.9064960742407
 21
198.9963149384884
 31
0.0
  0
LINE
  5
314
330
A
100
AcDbEntity
  8
03
100
AcDbLine
 10
310.4064960742408
 20
103.9963149384884
 30
0.0
 11
310.4064960742408
 21
161.4963149384887
 31
0.0
  0
LINE
  5
315
330
A
100
AcDbEntity
  8
03
100
AcDbLine
 10
327.4064960742408
 20
161.4963149384887
 30
0.0
 11
327.4064960742408
 21
103.9963149384884
 31
0.0
  0
LINE
  5
316
330
A
100
AcDbEntity
  8
03
100
AcDbLine
 10
310.4064960742408
 20
166.4963149384886
 30
0.0
 11
310.4064960742408
 21
198.996314938489
 31
0.0
  0
LINE
  5
317
330
A
100
AcDbEntity
  8
03
100
AcDbLine
 10
327.4064960742408
 20
198.996314938489
 30
0.0
 11
327.4064960742408
 21
166.4963149384886
 31
0.0
  0
LINE
  5
318
330
A
100
AcDbEntity
  8
03
100
AcDbLine
 10
327.4064960742408
 20
528.9964850615119
 30
0.0
 11
327.4064960742408
 21
471.4964850615114
 31
0.0
  0
LINE
  5
319
330
A
100
AcDbEntity
  8
03
100
AcDbLine
 10
310.4064960742408
 20
471.4964850615114
 30
0.0
 11
310.4064960742408
 21
528.9964850615119
 31
0.0
  0
LINE
  5
31A
330
A
100
AcDbEntity
  8
03
100
AcDbLine
 10
327.4064960742408
 20
466.4964850615112
 30
0.0
 11
327.4064960742408
 21
433.9964850615114
 31
0.0
  0
LINE
  5
31B
330
A
100
AcDbEntity
  8
03
100
AcDbLine
 10
310.4064960742408
 20
433.9964850615114
 30
0.0
 11
310.4064960742408
 21
466.4964850615112
 31
0.0
  0
LINE
  5
31C
330
A
100
AcDbEntity
  8
SAISEN
100
AcDbLine
 10
137.2878669002514
 20
217.2379613356765
 30
0.0
 11
137.2878669002514
 21
222.2379613356765
 31
0.0
  0
LINE
  5
31D
330
A
100
AcDbEntity
  8
SAISEN
100
AcDbLine
 10
142.2878669002514
 20
222.2379613356765
 30
0.0
 11
142.2878669002514
 21
217.2379613356765
 31
0.0
  0
LINE
  5
31E
330
A
100
AcDbEntity
  8
SAISEN
100
AcDbLine
 10
142.2878669002514
 20
217.2379613356765
 30
0.0
 11
137.2878669002514
 21
217.2379613356765
 31
0.0
  0
LINE
  5
31F
330
A
100
AcDbEntity
  8
SAISEN
100
AcDbLine
 10
137.2878669002514
 20
222.2379613356765
 30
0.0
 11
133.5378669002514
 21
222.2379613356765
 31
0.0
  0
LINE
  5
320
330
A
100
AcDbEntity
  8
SAISEN
100
AcDbLine
 10
142.2878669002514
 20
222.2379613356765
 30
0.0
 11
146.0378669002514
 21
222.2379613356765
 31
0.0
  0
LINE
  5
321
330
A
100
AcDbEntity
  8
SAISEN
100
AcDbLine
 10
133.5378669002514
 20
222.2379613356765
 30
0.0
 11
139.7862119872425
 21
225.8454450536405
 31
0.0
  0
LINE
  5
322
330
A
100
AcDbEntity
  8
SAISEN
100
AcDbLine
 10
139.7862119872425
 20
225.8454450536405
 30
0.0
 11
146.0378669002514
 21
222.2379613356765
 31
0.0
  0
LINE
  5
323
330
A
100
AcDbEntity
  8
SAISEN
100
AcDbLine
 10
137.2878669002514
 20
179.2379613356765
 30
0.0
 11
137.2878669002514
 21
174.2379613356765
 31
0.0
  0
LINE
  5
324
330
A
100
AcDbEntity
  8
SAISEN
100
AcDbLine
 10
142.2878669002514
 20
174.2379613356765
 30
0.0
 11
142.2878669002514
 21
179.2379613356765
 31
0.0
  0
LINE
  5
325
330
A
100
AcDbEntity
  8
SAISEN
100
AcDbLine
 10
142.2878669002514
 20
179.2379613356765
 30
0.0
 11
137.2878669002514
 21
179.2379613356765
 31
0.0
  0
LINE
  5
326
330
A
100
AcDbEntity
  8
SAISEN
100
AcDbLine
 10
137.2878669002514
 20
174.2379613356765
 30
0.0
 11
133.5378669002514
 21
174.2379613356765
 31
0.0
  0
LINE
  5
327
330
A
100
AcDbEntity
  8
SAISEN
100
AcDbLine
 10
142.2878669002514
 20
174.2379613356765
 30
0.0
 11
146.0378669002514
 21
174.2379613356765
 31
0.0
  0
LINE
  5
328
330
A
100
AcDbEntity
  8
SAISEN
100
AcDbLine
 10
133.5378669002514
 20
174.2379613356765
 30
0.0
 11
139.7862119872425
 21
170.6304776177125
 31
0.0
  0
LINE
  5
329
330
A
100
AcDbEntity
  8
SAISEN
100
AcDbLine
 10
139.7862119872425
 20
170.6304776177125
 30
0.0
 11
146.0378669002514
 21
174.2379613356765
 31
0.0
  0
LINE
  5
32A
330
A
100
AcDbEntity
  8
SAISEN
100
AcDbLine
 10
137.2878669002514
 20
404.2379613356764
 30
0.0
 11
137.2878669002514
 21
409.2379613356765
 31
0.0
  0
LINE
  5
32B
330
A
100
AcDbEntity
  8
SAISEN
100
AcDbLine
 10
142.2878669002514
 20
409.2379613356765
 30
0.0
 11
142.2878669002514
 21
404.2379613356764
 31
0.0
  0
LINE
  5
32C
330
A
100
AcDbEntity
  8
SAISEN
100
AcDbLine
 10
142.2878669002514
 20
404.2379613356764
 30
0.0
 11
137.2878669002514
 21
404.2379613356764
 31
0.0
  0
LINE
  5
32D
330
A
100
AcDbEntity
  8
SAISEN
100
AcDbLine
 10
137.2878669002514
 20
409.2379613356765
 30
0.0
 11
133.5378669002515
 21
409.2379613356765
 31
0.0
  0
LINE
  5
32E
330
A
100
AcDbEntity
  8
SAISEN
100
AcDbLine
 10
142.2878669002514
 20
409.2379613356765
 30
0.0
 11
146.0378669002514
 21
409.2379613356765
 31
0.0
  0
LINE
  5
32F
330
A
100
AcDbEntity
  8
SAISEN
100
AcDbLine
 10
133.5378669002515
 20
409.2379613356765
 30
0.0
 11
139.7862119872425
 21
412.8454450536406
 31
0.0
  0
LINE
  5
330
330
A
100
AcDbEntity
  8
SAISEN
100
AcDbLine
 10
139.7862119872425
 20
412.8454450536406
 30
0.0
 11
146.0378669002514
 21
409.2379613356765
 31
0.0
  0
LINE
  5
331
330
A
100
AcDbEntity
  8
KAKURE
100
AcDbLine
 10
84.5708194485822
 20
437.0749560632686
 30
0.0
 11
179.5708194485821
 21
437.0749560632686
 31
0.0
  0
LINE
  5
332
330
A
100
AcDbEntity
  8
KAKURE
100
AcDbLine
 10
79.5708194485822
 20
487.2249560632686
 30
0.0
 11
79.5708194485822
 21
512.2249560632686
 31
0.0
  0
LINE
  5
333
330
A
100
AcDbEntity
  8
KAKURE
100
AcDbLine
 10
79.5708194485822
 20
512.2249560632686
 30
0.0
 11
119.5708194485822
 21
512.2249560632686
 31
0.0
  0
LINE
  5
334
330
A
100
AcDbEntity
  8
KAKURE
100
AcDbLine
 10
29.57081944858213
 20
513.9749560632687
 30
0.0
 11
119.5708194485822
 21
513.9749560632687
 31
0.0
  0
LINE
  5
335
330
A
100
AcDbEntity
  8
KAKURE
100
AcDbLine
 10
79.5708194485822
 20
309.2249560632688
 30
0.0
 11
119.5708194485822
 21
309.2249560632688
 31
0.0
  0
LINE
  5
336
330
A
100
AcDbEntity
  8
KAKURE
100
AcDbLine
 10
29.57081944858213
 20
310.9749560632688
 30
0.0
 11
119.5708194485822
 21
310.9749560632688
 31
0.0
  0
LINE
  5
337
330
A
100
AcDbEntity
  8
KAKURE
100
AcDbLine
 10
79.5708194485822
 20
284.2249560632687
 30
0.0
 11
79.5708194485822
 21
309.2249560632688
 31
0.0
  0
LINE
  5
338
330
A
100
AcDbEntity
  8
KAKURE
100
AcDbLine
 10
179.570819448582
 20
154.6999560632688
 30
0.0
 11
84.5708194485822
 21
154.6999560632688
 31
0.0
  0
LINE
  5
339
330
A
100
AcDbEntity
  8
KAKURE
100
AcDbLine
 10
179.570819448582
 20
243.7499560632688
 30
0.0
 11
84.5708194485822
 21
243.7499560632688
 31
0.0
  0
LINE
  5
33A
330
A
100
AcDbEntity
  8
CHUSIN
100
AcDbLine
 10
149.570819448582
 20
299.2249560632686
 30
0.0
 11
149.570819448582
 21
99.22495606326885
 31
0.0
  0
LINE
  5
33B
330
A
100
AcDbEntity
  8
CHUSIN
100
AcDbLine
 10
149.5708194485821
 20
502.2249560632688
 30
0.0
 11
149.570819448582
 21
377.2249560632686
 31
0.0
  0
LINE
  5
33C
330
A
100
AcDbEntity
  8
CHUSIN
100
AcDbLine
 10
250.906496074241
 20
520.4964850615112
 30
0.0
 11
250.906496074241
 21
550.4785273308998
 31
0.0
  0
LINE
  5
33D
330
A
100
AcDbEntity
  8
CHUSIN
100
AcDbLine
 10
250.9064960742409
 20
112.4963149384885
 30
0.0
 11
250.9064960742409
 21
82.51427266910019
 31
0.0
  0
LINE
  5
33E
330
A
100
AcDbEntity
  8
CHUSIN
100
AcDbLine
 10
318.9064960742408
 20
61.33391915641476
 30
0.0
 11
318.9064960742408
 21
105.56977105295
 31
0.0
  0
LINE
  5
33F
330
A
100
AcDbEntity
  8
CHUSIN
100
AcDbLine
 10
281.9064960742408
 20
61.33391915641476
 30
0.0
 11
281.9064960742408
 21
217.4963149384884
 31
0.0
  0
LINE
  5
340
330
A
100
AcDbEntity
  8
CHUSIN
100
AcDbLine
 10
281.9064960742408
 20
415.4964850615114
 30
0.0
 11
281.9064960742408
 21
565.5553602811951
 31
0.0
  0
LINE
  5
341
330
A
100
AcDbEntity
  8
CHUSIN
100
AcDbLine
 10
84.07081944858218
 20
377.3749560632686
 30
0.0
 11
84.07081944858218
 21
438.3249560632686
 31
0.0
  0
LINE
  5
354
330
A
100
AcDbEntity
  8
06
100
AcDbLine
 10
179.0708194485822
 20
377.3749560632686
 30
0.0
 11
179.0708194485822
 21
438.3249560632686
 31
0.0
  0
LINE
  5
355
330
A
100
AcDbEntity
  8
06
100
AcDbLine
 10
84.07081944858218
 20
377.3749560632686
 30
0.0
 11
179.0708194485822
 21
377.3749560632686
 31
0.0
  0
LINE
  5
356
330
A
100
AcDbEntity
  8
06
100
AcDbLine
 10
89.07081944858218
 20
437.0749560632686
 30
0.0
 11
89.07081944858218
 21
378.6249560632686
 31
0.0
  0
LINE
  5
357
330
A
100
AcDbEntity
  8
06
100
AcDbLine
 10
174.8208194485822
 20
378.6249560632686
 30
0.0
 11
174.8208194485822
 21
437.0749560632686
 31
0.0
  0
LINE
  5
358
330
A
100
AcDbEntity
  8
06
100
AcDbLine
 10
84.07081944858218
 20
438.3249560632686
 30
0.0
 11
179.0708194485822
 21
438.3249560632686
 31
0.0
  0
LINE
  5
359
330
A
100
AcDbEntity
  8
06
100
AcDbLine
 10
315.9064960742408
 20
417.9964850615115
 30
0.0
 11
315.9064960742408
 21
378.9964850615114
 31
0.0
  0
LINE
  5
35A
330
A
100
AcDbEntity
  8
06
100
AcDbLine
 10
321.9064960742408
 20
417.9964850615114
 30
0.0
 11
321.9064960742408
 21
378.9964850615114
 31
0.0
  0
LINE
  5
36D
330
A
100
AcDbEntity
  8
06
100
AcDbLine
 10
321.5479434279888
 20
417.9964850615111
 30
0.0
 11
321.5479434279888
 21
378.9964850615114
 31
0.0
  0
LINE
  5
36E
330
A
100
AcDbEntity
  8
06
100
AcDbLine
 10
303.3490427420902
 20
409.4390317293608
 30
0.0
 11
304.4064960742407
 21
410.4964850615114
 31
0.0
  0
LINE
  5
36F
330
A
100
AcDbEntity
  8
06
100
AcDbLine
 10
303.4132249647067
 20
433.4897561710453
 30
0.0
 11
304.4064960742407
 21
432.4964850615113
 31
0.0
  0
LINE
  5
370
330
A
100
AcDbEntity
  8
06
100
AcDbLine
 10
334.3676760724665
 20
433.4576650597369
 30
0.0
 11
333.4064960742407
 21
432.4964850615115
 31
0.0
  0
LINE
  5
371
330
A
100
AcDbEntity
  8
06
100
AcDbLine
 10
334.3997671837746
 20
409.5032139519774
 30
0.0
 11
333.4064960742407
 21
410.4964850615114
 31
0.0
  0
ARC
  5
388
330
A
100
AcDbEntity
  8
06
100
AcDbCircle
 10
314.9064960742407
 20
406.1680579367653
 30
0.0
 40
3.0
100
AcDbArc
 50
70.52877936550924
 51
109.4712206344908
  0
ARC
  5
389
330
A
100
AcDbEntity
  8
06
100
AcDbCircle
 10
322.9064960742407
 20
406.1680579367651
 30
0.0
 40
3.0
100
AcDbArc
 50
70.52877936550955
 51
109.471220634491
  0
LINE
  5
38A
330
A
100
AcDbEntity
  8
06
100
AcDbLine
 10
315.9064960742408
 20
417.9964850615115
 30
0.0
 11
321.9064960742408
 21
417.9964850615114
 31
0.0
  0
LINE
  5
39E
330
A
100
AcDbEntity
  8
06
100
AcDbLine
 10
316.4064960742408
 20
417.9964850615111
 30
0.0
 11
316.4064960742408
 21
378.9964850615114
 31
0.0
  0
LINE
  5
39F
330
A
100
AcDbEntity
  8
06
100
AcDbLine
 10
321.9064960742408
 20
299.4964000000001
 30
0.0
 11
315.9064960742408
 21
299.4964000000001
 31
0.0
  0
LINE
  5
3DA
330
A
100
AcDbEntity
  8
06
100
AcDbLine
 10
321.9064960742408
 20
299.4964000000001
 30
0.0
 11
321.9064960742409
 21
258.9963574692445
 31
0.0
  0
LINE
  5
3DB
330
A
100
AcDbEntity
  8
06
100
AcDbLine
 10
315.9064960742408
 20
299.4964000000001
 30
0.0
 11
315.9064960742409
 21
258.9963574692445
 31
0.0
  0
LINE
  5
3DC
330
A
100
AcDbEntity
  8
06
100
AcDbLine
 10
316.4064960742408
 20
299.4964000000001
 30
0.0
 11
316.4064960742411
 21
258.9963574692445
 31
0.0
  0
LINE
  5
3DD
330
A
100
AcDbEntity
  8
06
100
AcDbLine
 10
321.4064960742408
 20
299.4964000000001
 30
0.0
 11
321.4064960742409
 21
258.9963574692445
 31
0.0
  0
LINE
  5
3DE
330
A
100
AcDbEntity
  8
06
100
AcDbLine
 10
315.9064960742408
 20
333.4963999999999
 30
0.0
 11
321.9064960742408
 21
333.4963999999999
 31
0.0
  0
LINE
  5
3DF
330
A
100
AcDbEntity
  8
06
100
AcDbLine
 10
321.9064960742408
 20
333.4964000000001
 30
0.0
 11
321.9064960742408
 21
373.9964000000001
 31
0.0
  0
LINE
  5
3E0
330
A
100
AcDbEntity
  8
06
100
AcDbLine
 10
321.4064960742408
 20
373.9964000000001
 30
0.0
 11
321.4064960742408
 21
333.4964000000001
 31
0.0
  0
LINE
  5
3E1
330
A
100
AcDbEntity
  8
06
100
AcDbLine
 10
316.4064960742408
 20
333.4964000000001
 30
0.0
 11
316.4064960742408
 21
373.9964000000001
 31
0.0
  0
LINE
  5
3E2
330
A
100
AcDbEntity
  8
06
100
AcDbLine
 10
315.9064960742408
 20
373.9964000000001
 30
0.0
 11
315.9064960742408
 21
333.4964000000001
 31
0.0
  0
LINE
  5
3E3
330
A
100
AcDbEntity
  8
06
100
AcDbLine
 10
303.4432718782578
 20
343.4596241959829
 30
0.0
 11
304.4064960742407
 21
342.4964000000001
 31
0.0
  0
LINE
  5
3E4
330
A
100
AcDbEntity
  8
06
100
AcDbLine
 10
303.4076481490446
 20
319.4975520748038
 30
0.0
 11
304.4064960742408
 21
320.4964000000001
 31
0.0
  0
LINE
  5
3E5
330
A
100
AcDbEntity
  8
06
100
AcDbLine
 10
303.3717692812156
 20
313.5311267930253
 30
0.0
 11
304.4064960742408
 21
312.4964000000001
 31
0.0
  0
LINE
  5
3E6
330
A
100
AcDbEntity
  8
06
100
AcDbLine
 10
303.3717692812157
 20
289.4616732069748
 30
0.0
 11
304.4064960742408
 21
290.4964000000001
 31
0.0
  0
LINE
  5
3E7
330
A
100
AcDbEntity
  8
06
100
AcDbLine
 10
334.4053439994372
 20
313.4952479251964
 30
0.0
 11
333.4064960742408
 21
312.4964000000001
 31
0.0
  0
LINE
  5
3E8
330
A
100
AcDbEntity
  8
06
100
AcDbLine
 10
334.4053439994373
 20
289.4975520748038
 30
0.0
 11
333.4064960742411
 21
290.4964000000001
 31
0.0
  0
LINE
  5
3E9
330
A
100
AcDbEntity
  8
06
100
AcDbLine
 10
334.4412228672663
 20
319.4616732069748
 30
0.0
 11
333.4064960742408
 21
320.4964000000001
 31
0.0
  0
LINE
  5
3EA
330
A
100
AcDbEntity
  8
06
100
AcDbLine
 10
334.4412228672662
 20
343.5311267930255
 30
0.0
 11
333.4064960742407
 21
342.4964000000001
 31
0.0
  0
ARC
  5
43F
330
A
100
AcDbEntity
  8
06
100
AcDbCircle
 10
314.9064960742408
 20
286.1679728752538
 30
0.0
 40
3.0
100
AcDbArc
 50
70.52877936550792
 51
109.4712206344891
  0
ARC
  5
440
330
A
100
AcDbEntity
  8
06
100
AcDbCircle
 10
322.9064960742408
 20
286.167972875254
 30
0.0
 40
3.0
100
AcDbArc
 50
70.5287793655075
 51
109.4712206344895
  0
ARC
  5
441
330
A
100
AcDbEntity
  8
06
100
AcDbCircle
 10
314.9064960742407
 20
346.8248271247464
 30
0.0
 40
3.0
100
AcDbArc
 50
250.5287793655109
 51
289.4712206344919
  0
ARC
  5
442
330
A
100
AcDbEntity
  8
06
100
AcDbCircle
 10
322.9064960742407
 20
346.8248271247463
 30
0.0
 40
3.0
100
AcDbArc
 50
250.5287793655104
 51
289.4712206344923
  0
LINE
  5
46A
330
A
100
AcDbEntity
  8
06
100
AcDbLine
 10
315.9064960742412
 20
214.996314938489
 30
0.0
 11
315.9064960742412
 21
253.9963574692445
 31
0.0
  0
LINE
  5
46B
330
A
100
AcDbEntity
  8
06
100
AcDbLine
 10
321.9064960742412
 20
214.996314938489
 30
0.0
 11
321.9064960742412
 21
253.9963574692445
 31
0.0
  0
LINE
  5
47E
330
A
100
AcDbEntity
  8
06
100
AcDbLine
 10
321.5479434279891
 20
214.9963149384892
 30
0.0
 11
321.547943427989
 21
253.9963574692445
 31
0.0
  0
LINE
  5
47F
330
A
100
AcDbEntity
  8
06
100
AcDbLine
 10
303.3490427420906
 20
223.5537682706397
 30
0.0
 11
304.4064960742411
 21
222.496314938489
 31
0.0
  0
LINE
  5
480
330
A
100
AcDbEntity
  8
06
100
AcDbLine
 10
303.4132249647071
 20
199.503043828955
 30
0.0
 11
304.4064960742411
 21
200.496314938489
 31
0.0
  0
LINE
  5
481
330
A
100
AcDbEntity
  8
06
100
AcDbLine
 10
334.367676072467
 20
199.5351349402634
 30
0.0
 11
333.4064960742411
 21
200.496314938489
 31
0.0
  0
LINE
  5
482
330
A
100
AcDbEntity
  8
06
100
AcDbLine
 10
334.3997671837751
 20
223.4895860480233
 30
0.0
 11
333.4064960742411
 21
222.496314938489
 31
0.0
  0
ARC
  5
499
330
A
100
AcDbEntity
  8
06
100
AcDbCircle
 10
314.9064960742411
 20
226.8247420632353
 30
0.0
 40
3.0
100
AcDbArc
 50
250.5287793655092
 51
289.4712206344907
  0
ARC
  5
49A
330
A
100
AcDbEntity
  8
06
100
AcDbCircle
 10
322.9064960742412
 20
226.8247420632353
 30
0.0
 40
3.0
100
AcDbArc
 50
250.528779365509
 51
289.4712206344903
  0
LINE
  5
49B
330
A
100
AcDbEntity
  8
06
100
AcDbLine
 10
315.9064960742412
 20
214.996314938489
 30
0.0
 11
321.9064960742412
 21
214.996314938489
 31
0.0
  0
LINE
  5
4AF
330
A
100
AcDbEntity
  8
06
100
AcDbLine
 10
316.4064960742412
 20
214.9963149384892
 30
0.0
 11
316.4064960742411
 21
253.9963574692445
 31
0.0
  0
LINE
  5
4B1
330
A
100
AcDbEntity
  8
03
100
AcDbLine
 10
266.3490427420902
 20
433.5539383936619
 30
0.0
 11
267.4064960742406
 21
432.4964850615113
 31
0.0
  0
LINE
  5
4B2
330
A
100
AcDbEntity
  8
03
100
AcDbLine
 10
266.4132249647069
 20
409.5032139519774
 30
0.0
 11
267.4064960742408
 21
410.4964850615113
 31
0.0
  0
LINE
  5
4B3
330
A
100
AcDbEntity
  8
03
100
AcDbLine
 10
297.3676760724666
 20
409.5353050632858
 30
0.0
 11
296.4064960742408
 21
410.4964850615114
 31
0.0
  0
LINE
  5
4B4
330
A
100
AcDbEntity
  8
03
100
AcDbLine
 10
297.3997671837746
 20
433.4897561710455
 30
0.0
 11
296.4064960742406
 21
432.4964850615113
 31
0.0
  0
ARC
  5
4C1
330
A
100
AcDbEntity
  8
03
100
AcDbCircle
 10
277.9064960742406
 20
436.8249121862577
 30
0.0
 40
3.0
100
AcDbArc
 50
250.5287793655092
 51
289.4712206344907
  0
ARC
  5
4C2
330
A
100
AcDbEntity
  8
03
100
AcDbCircle
 10
285.9064960742406
 20
436.8249121862576
 30
0.0
 40
3.0
100
AcDbArc
 50
250.528779365509
 51
289.4712206344903
  0
LINE
  5
4C3
330
A
100
AcDbEntity
  8
03
100
AcDbLine
 10
278.9064960742407
 20
424.9964850615112
 30
0.0
 11
284.9064960742406
 21
424.9964850615112
 31
0.0
  0
LINE
  5
4D7
330
A
100
AcDbEntity
  8
03
100
AcDbLine
 10
266.34904274209
 20
504.4390317293606
 30
0.0
 11
267.4064960742406
 21
505.4964850615113
 31
0.0
  0
LINE
  5
4D8
330
A
100
AcDbEntity
  8
03
100
AcDbLine
 10
266.4132249647067
 20
528.4897561710453
 30
0.0
 11
267.4064960742406
 21
527.4964850615113
 31
0.0
  0
ARC
  5
4E5
330
A
100
AcDbEntity
  8
03
100
AcDbCircle
 10
277.9064960742406
 20
501.1680579367649
 30
0.0
 40
3.0
100
AcDbArc
 50
70.52877936550931
 51
109.4712206344907
  0
ARC
  5
4E6
330
A
100
AcDbEntity
  8
03
100
AcDbCircle
 10
285.9064960742406
 20
501.1680579367649
 30
0.0
 40
3.0
100
AcDbArc
 50
70.52877936550958
 51
109.471220634491
  0
LINE
  5
4E7
330
A
100
AcDbEntity
  8
03
100
AcDbLine
 10
278.9064960742407
 20
512.9964850615111
 30
0.0
 11
284.9064960742406
 21
512.9964850615111
 31
0.0
  0
LINE
  5
4FB
330
A
100
AcDbEntity
  8
03
100
AcDbLine
 10
266.34904274209
 20
199.438861606338
 30
0.0
 11
267.4064960742406
 21
200.4963149384884
 31
0.0
  0
LINE
  5
4FC
330
A
100
AcDbEntity
  8
03
100
AcDbLine
 10
266.4132249647067
 20
223.4895860480225
 30
0.0
 11
267.4064960742406
 21
222.4963149384886
 31
0.0
  0
LINE
  5
4FD
330
A
100
AcDbEntity
  8
03
100
AcDbLine
 10
297.3676760724665
 20
223.457494936714
 30
0.0
 11
296.4064960742406
 21
222.4963149384886
 31
0.0
  0
LINE
  5
4FE
330
A
100
AcDbEntity
  8
03
100
AcDbLine
 10
297.3997671837746
 20
199.5030438289543
 30
0.0
 11
296.4064960742406
 21
200.4963149384884
 31
0.0
  0
ARC
  5
50B
330
A
100
AcDbEntity
  8
03
100
AcDbCircle
 10
277.9064960742406
 20
196.1678878137422
 30
0.0
 40
3.0
100
AcDbArc
 50
70.52877936550931
 51
109.4712206344907
  0
ARC
  5
50C
330
A
100
AcDbEntity
  8
03
100
AcDbCircle
 10
285.9064960742406
 20
196.1678878137422
 30
0.0
 40
3.0
100
AcDbArc
 50
70.52877936550958
 51
109.471220634491
  0
LINE
  5
50D
330
A
100
AcDbEntity
  8
03
100
AcDbLine
 10
278.9064960742407
 20
207.9963149384886
 30
0.0
 11
284.9064960742406
 21
207.9963149384886
 31
0.0
  0
LINE
  5
521
330
A
100
AcDbEntity
  8
03
100
AcDbLine
 10
266.3490427420899
 20
128.5537682706392
 30
0.0
 11
267.4064960742406
 21
127.4963149384886
 31
0.0
  0
ARC
  5
52E
330
A
100
AcDbEntity
  8
03
100
AcDbCircle
 10
277.9064960742406
 20
131.8247420632349
 30
0.0
 40
3.0
100
AcDbArc
 50
250.5287793655092
 51
289.4712206344907
  0
ARC
  5
52F
330
A
100
AcDbEntity
  8
03
100
AcDbCircle
 10
285.9064960742406
 20
131.8247420632349
 30
0.0
 40
3.0
100
AcDbArc
 50
250.528779365509
 51
289.4712206344903
  0
LINE
  5
530
330
A
100
AcDbEntity
  8
03
100
AcDbLine
 10
278.9064960742406
 20
119.9963149384887
 30
0.0
 11
284.9064960742406
 21
119.9963149384887
 31
0.0
  0
LINE
  5
544
330
A
100
AcDbEntity
  8
03
100
AcDbLine
 10
266.4132249647066
 20
104.5030438289546
 30
0.0
 11
267.4064960742406
 21
105.4963149384885
 31
0.0
  0
LINE
  5
545
330
A
100
AcDbEntity
  8
SAISEN
100
AcDbLine
 10
295.3700623849073
 20
373.9964425307557
 30
0.0
 11
346.7292620604514
 21
373.9964425307558
 31
0.0
  0
LINE
  5
546
330
A
100
AcDbEntity
  8
SAISEN
100
AcDbLine
 10
295.3700623849073
 20
378.9964425307557
 30
0.0
 11
346.7292620604514
 21
378.9964425307558
 31
0.0
  0
LINE
  5
547
330
A
100
AcDbEntity
  8
SAISEN
100
AcDbLine
 10
295.3700623849076
 20
253.9963574692445
 30
0.0
 11
346.7292620604518
 21
253.9963574692446
 31
0.0
  0
LINE
  5
548
330
A
100
AcDbEntity
  8
SAISEN
100
AcDbLine
 10
295.3700623849076
 20
258.9963574692445
 30
0.0
 11
346.7292620604518
 21
258.9963574692446
 31
0.0
  0
LINE
  5
549
330
A
100
AcDbEntity
  8
06
100
AcDbLine
 10
178.920819448582
 20
153.4499560632688
 30
0.0
 11
178.920819448582
 21
199.1499560632688
 31
0.0
  0
LINE
  5
54A
330
A
100
AcDbEntity
  8
06
100
AcDbLine
 10
178.9208194485822
 20
244.9999560632688
 30
0.0
 11
178.920819448582
 21
199.2999560632688
 31
0.0
  0
LINE
  5
54B
330
A
100
AcDbEntity
  8
06
100
AcDbLine
 10
84.22081944858224
 20
244.9999560632688
 30
0.0
 11
84.22081944858224
 21
199.2999560632688
 31
0.0
  0
LINE
  5
54C
330
A
100
AcDbEntity
  8
06
100
AcDbLine
 10
84.22081944858224
 20
153.4499560632685
 30
0.0
 11
84.22081944858224
 21
199.1499560632685
 31
0.0
  0
LINE
  5
54D
330
A
100
AcDbEntity
  8
06
100
AcDbLine
 10
84.22081944858224
 20
153.4499560632685
 30
0.0
 11
178.920819448582
 21
153.4499560632688
 31
0.0
  0
LINE
  5
54E
330
A
100
AcDbEntity
  8
06
100
AcDbLine
 10
84.22081944858224
 20
154.6999560632688
 30
0.0
 11
178.920819448582
 21
154.6999560632688
 31
0.0
  0
LINE
  5
54F
330
A
100
AcDbEntity
  8
06
100
AcDbLine
 10
84.22081944858224
 20
244.9999560632688
 30
0.0
 11
178.9208194485822
 21
244.9999560632688
 31
0.0
  0
LINE
  5
550
330
A
100
AcDbEntity
  8
06
100
AcDbLine
 10
178.9208194485822
 20
243.7499560632688
 30
0.0
 11
84.22081944858224
 21
243.7499560632688
 31
0.0
  0
LINE
  5
551
330
A
100
AcDbEntity
  8
06
100
AcDbLine
 10
88.47081944858221
 20
243.7499560632688
 30
0.0
 11
88.47081944858217
 21
200.5499560632688
 31
0.0
  0
LINE
  5
552
330
A
100
AcDbEntity
  8
06
100
AcDbLine
 10
88.47081944858221
 20
154.6999560632688
 30
0.0
 11
88.47081944858221
 21
197.8999560632685
 31
0.0
  0
LINE
  5
553
330
A
100
AcDbEntity
  8
06
100
AcDbLine
 10
174.8208194485822
 20
243.7499560632688
 30
0.0
 11
174.8208194485821
 21
200.5499560632688
 31
0.0
  0
LINE
  5
554
330
A
100
AcDbEntity
  8
06
100
AcDbLine
 10
174.8208194485821
 20
154.6999560632688
 30
0.0
 11
174.8208194485821
 21
197.8999560632685
 31
0.0
  0
LINE
  5
555
330
A
100
AcDbEntity
  8
06
100
AcDbLine
 10
179.0708194485822
 20
437.0749560632686
 30
0.0
 11
84.07081944858218
 21
437.0749560632686
 31
0.0
  0
LINE
  5
556
330
A
100
AcDbEntity
  8
06
100
AcDbLine
 10
84.07081944858218
 20
378.6249560632686
 30
0.0
 11
179.0708194485822
 21
378.6249560632686
 31
0.0
  0
LINE
  5
557
330
A
100
AcDbEntity
  8
SAISEN
100
AcDbLine
 10
260.0220461860526
 20
466.4964850615112
 30
0.0
 11
357.6421415801259
 21
466.4964850615116
 31
0.0
  0
LINE
  5
558
330
A
100
AcDbEntity
  8
SAISEN
100
AcDbLine
 10
260.0220461860526
 20
471.4964850615114
 30
0.0
 11
357.6421415801259
 21
471.4964850615115
 31
0.0
  0
LINE
  5
559
330
A
100
AcDbEntity
  8
SAISEN
100
AcDbLine
 10
260.0220461860534
 20
161.4963149384886
 30
0.0
 11
357.6421415801267
 21
161.4963149384889
 31
0.0
  0
LINE
  5
55A
330
A
100
AcDbEntity
  8
SAISEN
100
AcDbLine
 10
260.0220461860534
 20
166.4963149384886
 30
0.0
 11
357.6421415801267
 21
166.4963149384888
 31
0.0
  0
LINE
  5
55B
330
A
100
AcDbEntity
  8
03
100
AcDbLine
 10
278.9064960742407
 20
207.9963149384886
 30
0.0
 11
278.9064960742407
 21
166.4963149384886
 31
0.0
  0
LINE
  5
55C
330
A
100
AcDbEntity
  8
03
100
AcDbLine
 10
278.9064960742407
 20
161.4963149384887
 30
0.0
 11
278.9064960742406
 21
119.9963149384887
 31
0.0
  0
LINE
  5
55D
330
A
100
AcDbEntity
  8
03
100
AcDbLine
 10
284.9064960742406
 20
207.9963149384886
 30
0.0
 11
284.9064960742406
 21
166.4963149384886
 31
0.0
  0
LINE
  5
55E
330
A
100
AcDbEntity
  8
03
100
AcDbLine
 10
284.9064960742406
 20
161.4963149384887
 30
0.0
 11
284.9064960742406
 21
119.9963149384887
 31
0.0
  0
LINE
  5
55F
330
A
100
AcDbEntity
  8
03
100
AcDbLine
 10
278.9064960742407
 20
424.9964850615112
 30
0.0
 11
278.9064960742407
 21
466.4964850615112
 31
0.0
  0
LINE
  5
560
330
A
100
AcDbEntity
  8
03
100
AcDbLine
 10
278.9064960742407
 20
471.4964850615114
 30
0.0
 11
278.9064960742407
 21
512.9964850615111
 31
0.0
  0
LINE
  5
561
330
A
100
AcDbEntity
  8
03
100
AcDbLine
 10
284.9064960742406
 20
424.9964850615112
 30
0.0
 11
284.9064960742406
 21
466.4964850615112
 31
0.0
  0
LINE
  5
562
330
A
100
AcDbEntity
  8
03
100
AcDbLine
 10
284.9064960742406
 20
471.4964850615114
 30
0.0
 11
284.9064960742406
 21
512.9964850615111
 31
0.0
  0
LINE
  5
563
330
A
100
AcDbEntity
  8
06
100
AcDbLine
 10
84.22081944858224
 20
200.5499560632688
 30
0.0
 11
154.9115172327422
 21
200.5499560632688
 31
0.0
  0
LINE
  5
564
330
A
100
AcDbEntity
  8
06
100
AcDbLine
 10
162.5142756177069
 20
200.5499560632688
 30
0.0
 11
178.920819448582
 21
200.5499560632688
 31
0.0
  0
LINE
  5
565
330
A
100
AcDbEntity
  8
06
100
AcDbLine
 10
84.22081944858224
 20
199.2999560632688
 30
0.0
 11
154.9115172327422
 21
199.2999560632688
 31
0.0
  0
LINE
  5
566
330
A
100
AcDbEntity
  8
06
100
AcDbLine
 10
162.5142756177069
 20
199.2999560632688
 30
0.0
 11
178.920819448582
 21
199.2999560632688
 31
0.0
  0
LINE
  5
567
330
A
100
AcDbEntity
  8
06
100
AcDbLine
 10
84.22081944858224
 20
199.1499560632685
 30
0.0
 11
154.9115172327422
 21
199.1499560632685
 31
0.0
  0
LINE
  5
568
330
A
100
AcDbEntity
  8
06
100
AcDbLine
 10
162.5142756177069
 20
199.1499560632685
 30
0.0
 11
179.0708194485822
 21
199.1499560632685
 31
0.0
  0
LINE
  5
569
330
A
100
AcDbEntity
  8
06
100
AcDbLine
 10
84.22081944858224
 20
197.8999560632685
 30
0.0
 11
154.9115172327422
 21
197.8999560632685
 31
0.0
  0
LINE
  5
56A
330
A
100
AcDbEntity
  8
06
100
AcDbLine
 10
162.5142756177069
 20
197.8999560632685
 30
0.0
 11
179.0708194485822
 21
197.8999560632685
 31
0.0
  0
LINE
  5
56B
330
A
100
AcDbEntity
  8
06
100
AcDbLine
 10
84.22081944858224
 20
199.1499560632685
 30
0.0
 11
154.9115172327422
 21
199.1499560632686
 31
0.0
  0
LINE
  5
56C
330
A
100
AcDbEntity
  8
06
100
AcDbLine
 10
162.5142756177069
 20
199.1499560632688
 30
0.0
 11
179.070819448582
 21
199.1499560632688
 31
0.0
  0
LINE
  5
56D
330
A
100
AcDbEntity
  8
06
100
AcDbLine
 10
178.920819448582
 20
199.2999560632688
 30
0.0
 11
162.5142756177069
 21
199.2999560632688
 31
0.0
  0
LINE
  5
56E
330
A
100
AcDbEntity
  8
06
100
AcDbLine
 10
154.9115172327422
 20
199.2999560632688
 30
0.0
 11
84.22081944858224
 21
199.2999560632688
 31
0.0
  0
TEXT
  5
578
330
A
100
AcDbEntity
  8
MOJI
100
AcDbText
 10
384.7461684554458
 20
67.04602579832206
 30
0.0
 40
6.0
  1
注、ＤＷと引込み寸法（ＦｉＸＷ）が同一の場合
 50
90.0
 41
0.8
  7
0_8
 11
378.7461684554458
 21
67.04602579832206
 31
0.0
100
AcDbText
 73
     3
  0
TEXT
  5
579
330
A
100
AcDbEntity
  8
MOJI
100
AcDbText
 10
394.7461684554458
 20
67.04602579832206
 30
0.0
 40
6.0
  1
引き残しが出る場合がありますのでご注意下さい。
 50
90.0
 41
0.8
  7
0_8
 11
388.7461684554458
 21
67.04602579832206
 31
0.0
100
AcDbText
 73
     3
  0
LINE
  5
5A1
330
A
100
AcDbEntity
  8
KAKURE
100
AcDbLine
 10
353.4064960742408
 20
555.9964850615114
 30
0.0
 11
353.4064960742408
 21
530.4964850615114
 31
0.0
  0
LINE
  5
5A5
330
A
100
AcDbEntity
  8
03
100
AcDbLine
 10
238.0064960742409
 20
102.4963149384884
 30
0.0
 11
238.0064960742409
 21
77.0963149384886
 31
0.0
  0
LINE
  5
5A7
330
A
100
AcDbEntity
  8
KAKURE
100
AcDbLine
 10
351.8064960742409
 20
77.0963149384886
 30
0.0
 11
351.8064960742409
 21
102.4963149384884
 31
0.0
  0
LINE
  5
5A8
330
A
100
AcDbEntity
  8
03
100
AcDbLine
 10
238.0064960742409
 20
102.4963149384884
 30
0.0
 11
236.4064960742409
 21
102.4963149384884
 31
0.0
  0
LINE
  5
5A9
330
A
100
AcDbEntity
  8
03
100
AcDbLine
 10
236.4064960742409
 20
102.4963149384884
 30
0.0
 11
236.4064960742409
 21
76.99631493848857
 31
0.0
  0
LINE
  5
5AA
330
A
100
AcDbEntity
  8
03
100
AcDbLine
 10
237.9064960742409
 20
75.49631493848856
 30
0.0
 11
270.9064960742409
 21
75.49631493848858
 31
0.0
  0
LINE
  5
5AB
330
A
100
AcDbEntity
  8
KAKURE
100
AcDbLine
 10
353.4064960742408
 20
76.99631493848858
 30
0.0
 11
353.4064960742408
 21
102.4963149384884
 31
0.0
  0
LINE
  5
5AC
330
A
100
AcDbEntity
  8
KAKURE
100
AcDbLine
 10
353.4064960742408
 20
102.4963149384884
 30
0.0
 11
351.8064960742409
 21
102.4963149384884
 31
0.0
  0
ARC
  5
5AD
330
A
100
AcDbEntity
  8
03
100
AcDbCircle
 10
237.9064960742409
 20
76.99631493848857
 30
0.0
 40
1.5
100
AcDbArc
 50
180.0
 51
270.0
  0
ARC
  5
5AE
330
A
100
AcDbEntity
  8
KAKURE
100
AcDbCircle
 10
351.9064960742408
 20
76.99631493848858
 30
0.0
 40
1.5
100
AcDbArc
 50
270.0
 51
0.0
  0
LINE
  5
5AF
330
A
100
AcDbEntity
  8
04
100
AcDbLine
 10
256.9064960742409
 20
526.9964850615114
 30
0.0
 11
258.4064960742409
 21
527.9964850615114
 31
0.0
  0
LINE
  5
5B0
330
A
100
AcDbEntity
  8
04
100
AcDbLine
 10
244.9064960742409
 20
526.9964850615114
 30
0.0
 11
243.4064960742409
 21
527.9964850615114
 31
0.0
  0
LINE
  5
5B1
330
A
100
AcDbEntity
  8
04
100
AcDbLine
 10
244.9064960742409
 20
542.9964850615114
 30
0.0
 11
256.9064960742409
 21
542.9964850615114
 31
0.0
  0
LINE
  5
5B2
330
A
100
AcDbEntity
  8
04
100
AcDbLine
 10
258.4064960742409
 20
528.9964850615112
 30
0.0
 11
258.4064960742409
 21
527.9964850615114
 31
0.0
  0
LINE
  5
5B3
330
A
100
AcDbEntity
  8
04
100
AcDbLine
 10
256.9064960742409
 20
526.9964850615114
 30
0.0
 11
244.9064960742409
 21
526.9964850615114
 31
0.0
  0
LINE
  5
5B4
330
A
100
AcDbEntity
  8
04
100
AcDbLine
 10
243.4064960742409
 20
527.9964850615114
 30
0.0
 11
243.4064960742409
 21
528.9964850615112
 31
0.0
  0
LINE
  5
5B5
330
A
100
AcDbEntity
  8
04
100
AcDbLine
 10
258.4064960742409
 20
528.9964850615112
 30
0.0
 11
243.4064960742409
 21
528.9964850615112
 31
0.0
  0
LINE
  5
5B6
330
A
100
AcDbEntity
  8
04
100
AcDbLine
 10
256.9064960742409
 20
538.4964850615114
 30
0.0
 11
244.9064960742409
 21
538.4964850615114
 31
0.0
  0
LINE
  5
5B7
330
A
100
AcDbEntity
  8
04
100
AcDbLine
 10
256.9064960742409
 20
542.9964850615114
 30
0.0
 11
256.9064960742409
 21
535.9964850615114
 31
0.0
  0
LINE
  5
5B8
330
A
100
AcDbEntity
  8
04
100
AcDbLine
 10
244.9064960742409
 20
535.9964850615114
 30
0.0
 11
244.9064960742409
 21
542.9964850615114
 31
0.0
  0
LINE
  5
5B9
330
A
100
AcDbEntity
  8
04
100
AcDbLine
 10
258.4064960742409
 20
529.9964850615114
 30
0.0
 11
258.4064960742409
 21
532.4964850615113
 31
0.0
  0
LINE
  5
5BA
330
A
100
AcDbEntity
  8
04
100
AcDbLine
 10
252.4064960742409
 20
529.9964850615114
 30
0.0
 11
249.4064960742409
 21
529.9964850615114
 31
0.0
  0
LINE
  5
5BB
330
A
100
AcDbEntity
  8
04
100
AcDbLine
 10
252.9064960742409
 20
532.4964850615113
 30
0.0
 11
252.9064960742409
 21
535.7064850615113
 31
0.0
  0
LINE
  5
5BC
330
A
100
AcDbEntity
  8
04
100
AcDbLine
 10
248.906496074241
 20
535.7064850615113
 30
0.0
 11
248.906496074241
 21
532.4964850615113
 31
0.0
  0
LINE
  5
5BD
330
A
100
AcDbEntity
  8
04
100
AcDbLine
 10
253.4900906443621
 20
528.9964850615112
 30
0.0
 11
253.4900906443621
 21
535.7064850615113
 31
0.0
  0
LINE
  5
5BE
330
A
100
AcDbEntity
  8
04
100
AcDbLine
 10
253.2000906443621
 20
535.9964850615114
 30
0.0
 11
253.1964960742409
 21
535.9964850615114
 31
0.0
  0
LINE
  5
5BF
330
A
100
AcDbEntity
  8
04
100
AcDbLine
 10
256.9064960742409
 20
535.9964850615114
 30
0.0
 11
258.4064960742409
 21
532.4964850615113
 31
0.0
  0
ARC
  5
5C0
330
A
100
AcDbEntity
  8
04
100
AcDbCircle
 10
253.2000906443621
 20
535.7064850615113
 30
0.0
 40
0.29
100
AcDbArc
 50
0.0
 51
90.0
  0
ARC
  5
5C1
330
A
100
AcDbEntity
  8
04
100
AcDbCircle
 10
253.1964960742409
 20
535.7064850615113
 30
0.0
 40
0.29
100
AcDbArc
 50
89.99999999999998
 51
180.0
  0
LINE
  5
5C2
330
A
100
AcDbEntity
  8
04
100
AcDbLine
 10
252.9064960742409
 20
532.4964850615113
 30
0.0
 11
248.906496074241
 21
532.4964850615113
 31
0.0
  0
LINE
  5
5C3
330
A
100
AcDbEntity
  8
04
100
AcDbLine
 10
252.9064960742409
 20
532.4964850615113
 30
0.0
 11
252.4064960742409
 21
529.9964850615114
 31
0.0
  0
LINE
  5
5C4
330
A
100
AcDbEntity
  8
04
100
AcDbLine
 10
248.906496074241
 20
532.4964850615113
 30
0.0
 11
249.4064960742409
 21
529.9964850615114
 31
0.0
  0
LINE
  5
5C5
330
A
100
AcDbEntity
  8
04
100
AcDbLine
 10
243.4064960742409
 20
529.9964850615114
 30
0.0
 11
243.4064960742409
 21
532.4964850615113
 31
0.0
  0
LINE
  5
5C6
330
A
100
AcDbEntity
  8
04
100
AcDbLine
 10
248.3229015041195
 20
528.9964850615112
 30
0.0
 11
248.3229015041195
 21
535.7064850615113
 31
0.0
  0
LINE
  5
5C7
330
A
100
AcDbEntity
  8
04
100
AcDbLine
 10
248.6129015041196
 20
535.9964850615114
 30
0.0
 11
248.6164960742409
 21
535.9964850615114
 31
0.0
  0
LINE
  5
5C8
330
A
100
AcDbEntity
  8
04
100
AcDbLine
 10
244.9064960742409
 20
535.9964850615114
 30
0.0
 11
243.4064960742409
 21
532.4964850615113
 31
0.0
  0
ARC
  5
5C9
330
A
100
AcDbEntity
  8
04
100
AcDbCircle
 10
248.6129015041196
 20
535.7064850615113
 30
0.0
 40
0.29
100
AcDbArc
 50
89.99999999999998
 51
180.0
  0
ARC
  5
5CA
330
A
100
AcDbEntity
  8
04
100
AcDbCircle
 10
248.6164960742409
 20
535.7064850615113
 30
0.0
 40
0.29
100
AcDbArc
 50
0.0
 51
90.0
  0
LINE
  5
5CB
330
A
100
AcDbEntity
  8
04
100
AcDbLine
 10
255.9064960742409
 20
528.9964850615112
 30
0.0
 11
255.9064960742409
 21
533.9964850615114
 31
0.0
  0
LINE
  5
5CC
330
A
100
AcDbEntity
  8
04
100
AcDbLine
 10
245.9064960742409
 20
528.9964850615112
 30
0.0
 11
245.9064960742409
 21
533.9964850615114
 31
0.0
  0
LINE
  5
5CD
330
A
100
AcDbEntity
  8
04
100
AcDbLine
 10
255.9064960742409
 20
533.9964850615114
 30
0.0
 11
258.4064960742409
 21
529.9964850615114
 31
0.0
  0
LINE
  5
5CE
330
A
100
AcDbEntity
  8
04
100
AcDbLine
 10
245.9064960742409
 20
533.9964850615114
 30
0.0
 11
243.4064960742409
 21
529.9964850615114
 31
0.0
  0
LINE
  5
5CF
330
A
100
AcDbEntity
  8
04
100
AcDbLine
 10
252.1564960742409
 20
542.9964850615114
 30
0.0
 11
252.1564960742409
 21
548.9964850615113
 31
0.0
  0
LINE
  5
5D0
330
A
100
AcDbEntity
  8
04
100
AcDbLine
 10
249.6564960742409
 20
548.9964850615113
 30
0.0
 11
249.6564960742409
 21
542.9964850615114
 31
0.0
  0
LINE
  5
5D1
330
A
100
AcDbEntity
  8
04
100
AcDbLine
 10
256.9064960742409
 20
105.9963149384884
 30
0.0
 11
258.4064960742409
 21
104.9963149384884
 31
0.0
  0
LINE
  5
5D2
330
A
100
AcDbEntity
  8
04
100
AcDbLine
 10
244.9064960742409
 20
105.9963149384884
 30
0.0
 11
243.4064960742409
 21
104.9963149384884
 31
0.0
  0
LINE
  5
5D3
330
A
100
AcDbEntity
  8
04
100
AcDbLine
 10
244.9064960742409
 20
89.99631493848857
 30
0.0
 11
256.9064960742409
 21
89.99631493848857
 31
0.0
  0
LINE
  5
5D4
330
A
100
AcDbEntity
  8
04
100
AcDbLine
 10
258.4064960742409
 20
103.9963149384884
 30
0.0
 11
258.4064960742409
 21
104.9963149384884
 31
0.0
  0
LINE
  5
5D5
330
A
100
AcDbEntity
  8
04
100
AcDbLine
 10
256.9064960742409
 20
105.9963149384884
 30
0.0
 11
244.9064960742409
 21
105.9963149384884
 31
0.0
  0
LINE
  5
5D6
330
A
100
AcDbEntity
  8
04
100
AcDbLine
 10
243.4064960742409
 20
104.9963149384884
 30
0.0
 11
243.4064960742409
 21
103.9963149384884
 31
0.0
  0
LINE
  5
5D7
330
A
100
AcDbEntity
  8
04
100
AcDbLine
 10
258.4064960742409
 20
103.9963149384884
 30
0.0
 11
243.4064960742409
 21
103.9963149384884
 31
0.0
  0
LINE
  5
5D8
330
A
100
AcDbEntity
  8
04
100
AcDbLine
 10
256.9064960742409
 20
94.49631493848858
 30
0.0
 11
244.9064960742409
 21
94.49631493848858
 31
0.0
  0
LINE
  5
5D9
330
A
100
AcDbEntity
  8
04
100
AcDbLine
 10
256.9064960742409
 20
89.99631493848857
 30
0.0
 11
256.9064960742409
 21
96.99631493848858
 31
0.0
  0
LINE
  5
5DA
330
A
100
AcDbEntity
  8
04
100
AcDbLine
 10
244.9064960742409
 20
96.99631493848858
 30
0.0
 11
244.9064960742409
 21
89.99631493848857
 31
0.0
  0
LINE
  5
5DB
330
A
100
AcDbEntity
  8
04
100
AcDbLine
 10
258.4064960742409
 20
102.9963149384884
 30
0.0
 11
258.4064960742409
 21
100.4963149384884
 31
0.0
  0
LINE
  5
5DC
330
A
100
AcDbEntity
  8
04
100
AcDbLine
 10
252.4064960742409
 20
102.9963149384884
 30
0.0
 11
249.4064960742409
 21
102.9963149384884
 31
0.0
  0
LINE
  5
5DD
330
A
100
AcDbEntity
  8
04
100
AcDbLine
 10
252.9064960742409
 20
100.4963149384884
 30
0.0
 11
252.9064960742409
 21
97.28631493848858
 31
0.0
  0
LINE
  5
5DE
330
A
100
AcDbEntity
  8
04
100
AcDbLine
 10
248.9064960742409
 20
97.28631493848858
 30
0.0
 11
248.9064960742409
 21
100.4963149384884
 31
0.0
  0
LINE
  5
5DF
330
A
100
AcDbEntity
  8
04
100
AcDbLine
 10
253.4900906443621
 20
103.9963149384884
 30
0.0
 11
253.4900906443621
 21
97.28631493848858
 31
0.0
  0
LINE
  5
5E0
330
A
100
AcDbEntity
  8
04
100
AcDbLine
 10
253.2000906443621
 20
96.99631493848858
 30
0.0
 11
253.1964960742409
 21
96.99631493848858
 31
0.0
  0
LINE
  5
5E1
330
A
100
AcDbEntity
  8
04
100
AcDbLine
 10
256.9064960742409
 20
96.99631493848858
 30
0.0
 11
258.4064960742409
 21
100.4963149384884
 31
0.0
  0
ARC
  5
5E2
330
A
100
AcDbEntity
  8
04
100
AcDbCircle
 10
253.2000906443621
 20
97.28631493848858
 30
0.0
 40
0.29
100
AcDbArc
 50
270.0
 51
0.0
  0
ARC
  5
5E3
330
A
100
AcDbEntity
  8
04
100
AcDbCircle
 10
253.1964960742409
 20
97.28631493848858
 30
0.0
 40
0.29
100
AcDbArc
 50
180.0
 51
270.0
  0
LINE
  5
5E4
330
A
100
AcDbEntity
  8
04
100
AcDbLine
 10
252.9064960742409
 20
100.4963149384884
 30
0.0
 11
248.9064960742409
 21
100.4963149384884
 31
0.0
  0
LINE
  5
5E5
330
A
100
AcDbEntity
  8
04
100
AcDbLine
 10
252.9064960742409
 20
100.4963149384884
 30
0.0
 11
252.4064960742409
 21
102.9963149384884
 31
0.0
  0
LINE
  5
5E6
330
A
100
AcDbEntity
  8
04
100
AcDbLine
 10
248.9064960742409
 20
100.4963149384884
 30
0.0
 11
249.4064960742409
 21
102.9963149384884
 31
0.0
  0
LINE
  5
5E7
330
A
100
AcDbEntity
  8
04
100
AcDbLine
 10
243.4064960742409
 20
102.9963149384884
 30
0.0
 11
243.4064960742409
 21
100.4963149384884
 31
0.0
  0
LINE
  5
5E8
330
A
100
AcDbEntity
  8
04
100
AcDbLine
 10
248.3229015041195
 20
103.9963149384884
 30
0.0
 11
248.3229015041195
 21
97.28631493848858
 31
0.0
  0
LINE
  5
5E9
330
A
100
AcDbEntity
  8
04
100
AcDbLine
 10
248.6129015041196
 20
96.99631493848858
 30
0.0
 11
248.6164960742409
 21
96.99631493848858
 31
0.0
  0
LINE
  5
5EA
330
A
100
AcDbEntity
  8
04
100
AcDbLine
 10
244.9064960742409
 20
96.99631493848858
 30
0.0
 11
243.4064960742409
 21
100.4963149384884
 31
0.0
  0
ARC
  5
5EB
330
A
100
AcDbEntity
  8
04
100
AcDbCircle
 10
248.6129015041196
 20
97.28631493848858
 30
0.0
 40
0.29
100
AcDbArc
 50
180.0
 51
270.0
  0
ARC
  5
5EC
330
A
100
AcDbEntity
  8
04
100
AcDbCircle
 10
248.6164960742409
 20
97.28631493848858
 30
0.0
 40
0.29
100
AcDbArc
 50
270.0
 51
0.0
  0
LINE
  5
5ED
330
A
100
AcDbEntity
  8
04
100
AcDbLine
 10
255.9064960742409
 20
103.9963149384884
 30
0.0
 11
255.9064960742409
 21
98.99631493848858
 31
0.0
  0
LINE
  5
5EE
330
A
100
AcDbEntity
  8
04
100
AcDbLine
 10
245.9064960742409
 20
103.9963149384884
 30
0.0
 11
245.9064960742409
 21
98.99631493848858
 31
0.0
  0
LINE
  5
5EF
330
A
100
AcDbEntity
  8
04
100
AcDbLine
 10
255.9064960742409
 20
98.99631493848858
 30
0.0
 11
258.4064960742409
 21
102.9963149384884
 31
0.0
  0
LINE
  5
5F0
330
A
100
AcDbEntity
  8
04
100
AcDbLine
 10
245.9064960742409
 20
98.99631493848858
 30
0.0
 11
243.4064960742409
 21
102.9963149384884
 31
0.0
  0
LINE
  5
5F1
330
A
100
AcDbEntity
  8
04
100
AcDbLine
 10
252.1564960742409
 20
89.99631493848857
 30
0.0
 11
252.1564960742409
 21
83.99631493848858
 31
0.0
  0
LINE
  5
5F2
330
A
100
AcDbEntity
  8
04
100
AcDbLine
 10
249.6564960742409
 20
83.99631493848858
 30
0.0
 11
249.6564960742409
 21
89.99631493848857
 31
0.0
  0
LINE
  5
5F3
330
A
100
AcDbEntity
  8
06
100
AcDbLine
 10
313.9064960742408
 20
408.9964850615115
 30
0.0
 11
302.9064960742408
 21
408.9964850615114
 31
0.0
  0
LINE
  5
5F4
330
A
100
AcDbEntity
  8
06
100
AcDbLine
 10
302.9064960742408
 20
408.9964850615114
 30
0.0
 11
302.9064960742408
 21
419.4964850615114
 31
0.0
  0
LINE
  5
5F5
330
A
100
AcDbEntity
  8
06
100
AcDbLine
 10
302.9064960742408
 20
424.4964850615112
 30
0.0
 11
302.9064960742406
 21
433.9964850615114
 31
0.0
  0
LINE
  5
5F6
330
A
100
AcDbEntity
  8
06
100
AcDbLine
 10
302.9064960742406
 20
433.9964850615114
 30
0.0
 11
334.9064960742406
 21
433.9964850615115
 31
0.0
  0
LINE
  5
5F7
330
A
100
AcDbEntity
  8
06
100
AcDbLine
 10
334.9064960742406
 20
433.9964850615115
 30
0.0
 11
334.9064960742408
 21
408.9964850615115
 31
0.0
  0
LINE
  5
5F8
330
A
100
AcDbEntity
  8
06
100
AcDbLine
 10
334.9064960742408
 20
408.9964850615115
 30
0.0
 11
323.9064960742408
 21
408.9964850615114
 31
0.0
  0
LINE
  5
5F9
330
A
100
AcDbEntity
  8
06
100
AcDbLine
 10
313.9064960742408
 20
410.4964850615115
 30
0.0
 11
304.4064960742407
 21
410.4964850615114
 31
0.0
  0
LINE
  5
5FA
330
A
100
AcDbEntity
  8
06
100
AcDbLine
 10
304.4064960742407
 20
410.4964850615114
 30
0.0
 11
304.4064960742407
 21
419.4964850615114
 31
0.0
  0
LINE
  5
5FB
330
A
100
AcDbEntity
  8
06
100
AcDbLine
 10
304.4064960742407
 20
424.4964850615112
 30
0.0
 11
304.4064960742407
 21
432.4964850615113
 31
0.0
  0
LINE
  5
5FC
330
A
100
AcDbEntity
  8
06
100
AcDbLine
 10
304.4064960742407
 20
432.4964850615113
 30
0.0
 11
333.4064960742407
 21
432.4964850615115
 31
0.0
  0
LINE
  5
5FD
330
A
100
AcDbEntity
  8
06
100
AcDbLine
 10
333.4064960742407
 20
432.4964850615115
 30
0.0
 11
333.4064960742407
 21
410.4964850615114
 31
0.0
  0
LINE
  5
5FE
330
A
100
AcDbEntity
  8
06
100
AcDbLine
 10
333.4064960742407
 20
410.4964850615114
 30
0.0
 11
323.9064960742408
 21
410.4964850615114
 31
0.0
  0
LINE
  5
618
330
A
100
AcDbEntity
  8
06
100
AcDbLine
 10
302.906496074241
 20
288.9964000000001
 30
0.0
 11
302.906496074241
 21
313.9964000000001
 31
0.0
  0
LINE
  5
619
330
A
100
AcDbEntity
  8
06
100
AcDbLine
 10
302.906496074241
 20
313.9964000000001
 30
0.0
 11
311.9064960742408
 21
313.9964000000001
 31
0.0
  0
LINE
  5
61B
330
A
100
AcDbEntity
  8
06
100
AcDbLine
 10
311.9064960742408
 20
312.4964000000001
 30
0.0
 11
304.4064960742408
 21
312.4964000000001
 31
0.0
  0
LINE
  5
61C
330
A
100
AcDbEntity
  8
06
100
AcDbLine
 10
304.4064960742408
 20
312.4964000000001
 30
0.0
 11
304.4064960742411
 21
290.4964000000001
 31
0.0
  0
LINE
  5
61D
330
A
100
AcDbEntity
  8
06
100
AcDbLine
 10
304.4064960742411
 20
290.4964000000001
 30
0.0
 11
313.9064960742409
 21
290.4964000000001
 31
0.0
  0
LINE
  5
61F
330
A
100
AcDbEntity
  8
06
100
AcDbLine
 10
313.9064960742409
 20
288.9964000000001
 30
0.0
 11
302.906496074241
 21
288.9964000000001
 31
0.0
  0
LINE
  5
620
330
A
100
AcDbEntity
  8
06
100
AcDbLine
 10
334.9064960742409
 20
288.9964000000001
 30
0.0
 11
334.9064960742408
 21
313.9964000000001
 31
0.0
  0
LINE
  5
621
330
A
100
AcDbEntity
  8
06
100
AcDbLine
 10
334.9064960742408
 20
313.9964000000001
 30
0.0
 11
325.906496074241
 21
313.9964000000001
 31
0.0
  0
LINE
  5
622
330
A
100
AcDbEntity
  8
06
100
AcDbLine
 10
325.906496074241
 20
312.4964000000001
 30
0.0
 11
333.4064960742408
 21
312.4964000000001
 31
0.0
  0
LINE
  5
623
330
A
100
AcDbEntity
  8
06
100
AcDbLine
 10
333.4064960742408
 20
312.4964000000001
 30
0.0
 11
333.4064960742411
 21
290.4964000000001
 31
0.0
  0
LINE
  5
624
330
A
100
AcDbEntity
  8
06
100
AcDbLine
 10
333.4064960742411
 20
290.4964000000001
 30
0.0
 11
323.906496074241
 21
290.4964000000001
 31
0.0
  0
LINE
  5
625
330
A
100
AcDbEntity
  8
06
100
AcDbLine
 10
323.906496074241
 20
288.9964000000001
 30
0.0
 11
334.9064960742409
 21
288.9964000000001
 31
0.0
  0
LINE
  5
63A
330
A
100
AcDbEntity
  8
06
100
AcDbLine
 10
325.906496074241
 20
318.9964000000001
 30
0.0
 11
334.9064960742408
 21
318.9964000000001
 31
0.0
  0
LINE
  5
63B
330
A
100
AcDbEntity
  8
06
100
AcDbLine
 10
334.9064960742408
 20
318.9964000000001
 30
0.0
 11
334.9064960742408
 21
343.9964000000001
 31
0.0
  0
LINE
  5
63C
330
A
100
AcDbEntity
  8
06
100
AcDbLine
 10
334.9064960742408
 20
343.9964000000001
 30
0.0
 11
323.9064960742408
 21
343.9964000000001
 31
0.0
  0
LINE
  5
63D
330
A
100
AcDbEntity
  8
06
100
AcDbLine
 10
313.9064960742408
 20
343.9964000000001
 30
0.0
 11
302.9064960742408
 21
343.9964000000001
 31
0.0
  0
LINE
  5
63E
330
A
100
AcDbEntity
  8
06
100
AcDbLine
 10
302.9064960742408
 20
343.9964000000001
 30
0.0
 11
302.906496074241
 21
318.9964000000001
 31
0.0
  0
LINE
  5
63F
330
A
100
AcDbEntity
  8
06
100
AcDbLine
 10
302.906496074241
 20
318.9964000000001
 30
0.0
 11
311.9064960742408
 21
318.9964000000001
 31
0.0
  0
LINE
  5
641
330
A
100
AcDbEntity
  8
06
100
AcDbLine
 10
311.9064960742408
 20
320.4964000000001
 30
0.0
 11
304.4064960742408
 21
320.4964000000001
 31
0.0
  0
LINE
  5
642
330
A
100
AcDbEntity
  8
06
100
AcDbLine
 10
304.4064960742408
 20
320.4964000000001
 30
0.0
 11
304.4064960742407
 21
342.4964000000001
 31
0.0
  0
LINE
  5
643
330
A
100
AcDbEntity
  8
06
100
AcDbLine
 10
304.4064960742407
 20
342.4964000000001
 30
0.0
 11
313.9064960742408
 21
342.4964000000001
 31
0.0
  0
LINE
  5
644
330
A
100
AcDbEntity
  8
06
100
AcDbLine
 10
323.9064960742408
 20
342.4964000000001
 30
0.0
 11
333.4064960742407
 21
342.4964000000001
 31
0.0
  0
LINE
  5
645
330
A
100
AcDbEntity
  8
06
100
AcDbLine
 10
333.4064960742407
 20
342.4964000000001
 30
0.0
 11
333.4064960742408
 21
320.4964000000001
 31
0.0
  0
LINE
  5
646
330
A
100
AcDbEntity
  8
06
100
AcDbLine
 10
333.4064960742408
 20
320.4964000000001
 30
0.0
 11
325.906496074241
 21
320.4964000000001
 31
0.0
  0
LINE
  5
668
330
A
100
AcDbEntity
  8
06
100
AcDbLine
 10
313.9064960742412
 20
223.9963149384891
 30
0.0
 11
302.9064960742412
 21
223.996314938489
 31
0.0
  0
LINE
  5
669
330
A
100
AcDbEntity
  8
06
100
AcDbLine
 10
302.9064960742412
 20
223.996314938489
 30
0.0
 11
302.9064960742412
 21
213.496314938489
 31
0.0
  0
LINE
  5
66A
330
A
100
AcDbEntity
  8
06
100
AcDbLine
 10
302.9064960742412
 20
208.4963149384889
 30
0.0
 11
302.9064960742412
 21
198.996314938489
 31
0.0
  0
LINE
  5
66B
330
A
100
AcDbEntity
  8
06
100
AcDbLine
 10
302.9064960742412
 20
198.996314938489
 30
0.0
 11
334.9064960742412
 21
198.996314938489
 31
0.0
  0
LINE
  5
66C
330
A
100
AcDbEntity
  8
06
100
AcDbLine
 10
334.9064960742412
 20
198.996314938489
 30
0.0
 11
334.9064960742412
 21
223.996314938489
 31
0.0
  0
LINE
  5
66D
330
A
100
AcDbEntity
  8
06
100
AcDbLine
 10
334.9064960742412
 20
223.996314938489
 30
0.0
 11
323.9064960742412
 21
223.996314938489
 31
0.0
  0
LINE
  5
66E
330
A
100
AcDbEntity
  8
06
100
AcDbLine
 10
313.9064960742412
 20
222.496314938489
 30
0.0
 11
304.4064960742411
 21
222.496314938489
 31
0.0
  0
LINE
  5
66F
330
A
100
AcDbEntity
  8
06
100
AcDbLine
 10
304.4064960742411
 20
222.496314938489
 30
0.0
 11
304.4064960742411
 21
213.496314938489
 31
0.0
  0
LINE
  5
670
330
A
100
AcDbEntity
  8
06
100
AcDbLine
 10
304.4064960742411
 20
208.496314938489
 30
0.0
 11
304.4064960742411
 21
200.496314938489
 31
0.0
  0
LINE
  5
671
330
A
100
AcDbEntity
  8
06
100
AcDbLine
 10
304.4064960742411
 20
200.496314938489
 30
0.0
 11
333.4064960742411
 21
200.496314938489
 31
0.0
  0
LINE
  5
672
330
A
100
AcDbEntity
  8
06
100
AcDbLine
 10
333.4064960742411
 20
200.496314938489
 30
0.0
 11
333.4064960742411
 21
222.496314938489
 31
0.0
  0
LINE
  5
673
330
A
100
AcDbEntity
  8
06
100
AcDbLine
 10
333.4064960742411
 20
222.496314938489
 30
0.0
 11
323.9064960742412
 21
222.496314938489
 31
0.0
  0
LINE
  5
68D
330
A
100
AcDbEntity
  8
03
100
AcDbLine
 10
276.9064960742407
 20
433.9964850615115
 30
0.0
 11
265.9064960742406
 21
433.9964850615114
 31
0.0
  0
LINE
  5
68E
330
A
100
AcDbEntity
  8
03
100
AcDbLine
 10
265.9064960742406
 20
433.9964850615114
 30
0.0
 11
265.9064960742408
 21
408.9964850615111
 31
0.0
  0
LINE
  5
68F
330
A
100
AcDbEntity
  8
03
100
AcDbLine
 10
265.9064960742408
 20
408.9964850615111
 30
0.0
 11
297.9064960742407
 21
408.9964850615114
 31
0.0
  0
LINE
  5
690
330
A
100
AcDbEntity
  8
03
100
AcDbLine
 10
297.9064960742407
 20
408.9964850615114
 30
0.0
 11
297.9064960742407
 21
433.9964850615115
 31
0.0
  0
LINE
  5
691
330
A
100
AcDbEntity
  8
03
100
AcDbLine
 10
297.9064960742407
 20
433.9964850615115
 30
0.0
 11
286.9064960742406
 21
433.9964850615114
 31
0.0
  0
LINE
  5
692
330
A
100
AcDbEntity
  8
03
100
AcDbLine
 10
276.9064960742407
 20
432.4964850615113
 30
0.0
 11
267.4064960742406
 21
432.4964850615113
 31
0.0
  0
LINE
  5
693
330
A
100
AcDbEntity
  8
03
100
AcDbLine
 10
267.4064960742406
 20
432.4964850615113
 30
0.0
 11
267.4064960742408
 21
410.4964850615113
 31
0.0
  0
LINE
  5
694
330
A
100
AcDbEntity
  8
03
100
AcDbLine
 10
267.4064960742408
 20
410.4964850615113
 30
0.0
 11
296.4064960742408
 21
410.4964850615114
 31
0.0
  0
LINE
  5
695
330
A
100
AcDbEntity
  8
03
100
AcDbLine
 10
296.4064960742408
 20
410.4964850615114
 30
0.0
 11
296.4064960742406
 21
432.4964850615113
 31
0.0
  0
LINE
  5
696
330
A
100
AcDbEntity
  8
03
100
AcDbLine
 10
296.4064960742406
 20
432.4964850615113
 30
0.0
 11
286.9064960742406
 21
432.4964850615113
 31
0.0
  0
LINE
  5
6B0
330
A
100
AcDbEntity
  8
03
100
AcDbLine
 10
276.9064960742407
 20
503.9964850615112
 30
0.0
 11
265.9064960742406
 21
503.9964850615112
 31
0.0
  0
LINE
  5
6B1
330
A
100
AcDbEntity
  8
03
100
AcDbLine
 10
265.9064960742406
 20
503.9964850615112
 30
0.0
 11
265.9064960742406
 21
528.9964850615112
 31
0.0
  0
LINE
  5
6B2
330
A
100
AcDbEntity
  8
03
100
AcDbLine
 10
276.9064960742407
 20
505.4964850615113
 30
0.0
 11
267.4064960742406
 21
505.4964850615113
 31
0.0
  0
LINE
  5
6B3
330
A
100
AcDbEntity
  8
03
100
AcDbLine
 10
267.4064960742406
 20
505.4964850615113
 30
0.0
 11
267.4064960742406
 21
527.4964850615113
 31
0.0
  0
LINE
  5
6B4
330
A
100
AcDbEntity
  8
03
100
AcDbLine
 10
267.4064960742406
 20
527.4964850615113
 30
0.0
 11
296.4064960742406
 21
527.4964850615113
 31
0.0
  0
LINE
  5
6B5
330
A
100
AcDbEntity
  8
03
100
AcDbLine
 10
296.4064960742406
 20
527.4964850615113
 30
0.0
 11
296.4064960742406
 21
505.4964850615113
 31
0.0
  0
LINE
  5
6B6
330
A
100
AcDbEntity
  8
03
100
AcDbLine
 10
296.4064960742406
 20
505.4964850615113
 30
0.0
 11
286.9064960742406
 21
505.4964850615113
 31
0.0
  0
LINE
  5
6D0
330
A
100
AcDbEntity
  8
03
100
AcDbLine
 10
297.9064960742407
 20
503.9964850615112
 30
0.0
 11
286.9064960742406
 21
503.9964850615112
 31
0.0
  0
LINE
  5
6D1
330
A
100
AcDbEntity
  8
03
100
AcDbLine
 10
265.9064960742406
 20
528.9964850615112
 30
0.0
 11
297.9064960742407
 21
528.9964850615112
 31
0.0
  0
LINE
  5
6D2
330
A
100
AcDbEntity
  8
03
100
AcDbLine
 10
297.9064960742407
 20
528.9964850615112
 30
0.0
 11
297.9064960742407
 21
503.9964850615112
 31
0.0
  0
LINE
  5
6D3
330
A
100
AcDbEntity
  8
03
100
AcDbLine
 10
276.9064960742407
 20
198.9963149384885
 30
0.0
 11
265.9064960742406
 21
198.9963149384885
 31
0.0
  0
LINE
  5
6D4
330
A
100
AcDbEntity
  8
03
100
AcDbLine
 10
265.9064960742406
 20
198.9963149384885
 30
0.0
 11
265.9064960742406
 21
223.9963149384887
 31
0.0
  0
LINE
  5
6D5
330
A
100
AcDbEntity
  8
03
100
AcDbLine
 10
276.9064960742407
 20
200.4963149384884
 30
0.0
 11
267.4064960742406
 21
200.4963149384884
 31
0.0
  0
LINE
  5
6D6
330
A
100
AcDbEntity
  8
03
100
AcDbLine
 10
267.4064960742406
 20
200.4963149384884
 30
0.0
 11
267.4064960742406
 21
222.4963149384886
 31
0.0
  0
LINE
  5
6D7
330
A
100
AcDbEntity
  8
03
100
AcDbLine
 10
267.4064960742406
 20
222.4963149384886
 30
0.0
 11
296.4064960742406
 21
222.4963149384886
 31
0.0
  0
LINE
  5
6D8
330
A
100
AcDbEntity
  8
03
100
AcDbLine
 10
296.4064960742406
 20
222.4963149384886
 30
0.0
 11
296.4064960742406
 21
200.4963149384884
 31
0.0
  0
LINE
  5
6D9
330
A
100
AcDbEntity
  8
03
100
AcDbLine
 10
296.4064960742406
 20
200.4963149384884
 30
0.0
 11
286.9064960742406
 21
200.4963149384884
 31
0.0
  0
LINE
  5
6F3
330
A
100
AcDbEntity
  8
03
100
AcDbLine
 10
297.9064960742407
 20
198.9963149384885
 30
0.0
 11
286.9064960742406
 21
198.9963149384885
 31
0.0
  0
LINE
  5
6F4
330
A
100
AcDbEntity
  8
03
100
AcDbLine
 10
265.9064960742406
 20
223.9963149384887
 30
0.0
 11
297.9064960742407
 21
223.9963149384884
 31
0.0
  0
LINE
  5
6F5
330
A
100
AcDbEntity
  8
03
100
AcDbLine
 10
297.9064960742407
 20
223.9963149384884
 30
0.0
 11
297.9064960742407
 21
198.9963149384885
 31
0.0
  0
LINE
  5
6F6
330
A
100
AcDbEntity
  8
03
100
AcDbLine
 10
276.9064960742406
 20
128.9963149384887
 30
0.0
 11
265.9064960742406
 21
128.9963149384886
 31
0.0
  0
LINE
  5
6F7
330
A
100
AcDbEntity
  8
03
100
AcDbLine
 10
276.9064960742406
 20
127.4963149384886
 30
0.0
 11
267.4064960742406
 21
127.4963149384886
 31
0.0
  0
LINE
  5
6F8
330
A
100
AcDbEntity
  8
03
100
AcDbLine
 10
267.4064960742406
 20
127.4963149384886
 30
0.0
 11
267.4064960742406
 21
105.4963149384885
 31
0.0
  0
LINE
  5
6F9
330
A
100
AcDbEntity
  8
03
100
AcDbLine
 10
267.4064960742406
 20
105.4963149384885
 30
0.0
 11
296.4064960742406
 21
105.4963149384887
 31
0.0
  0
LINE
  5
6FA
330
A
100
AcDbEntity
  8
03
100
AcDbLine
 10
296.4064960742406
 20
105.4963149384887
 30
0.0
 11
296.4064960742406
 21
127.4963149384886
 31
0.0
  0
LINE
  5
6FB
330
A
100
AcDbEntity
  8
03
100
AcDbLine
 10
296.4064960742406
 20
127.4963149384886
 30
0.0
 11
286.9064960742406
 21
127.4963149384886
 31
0.0
  0
LINE
  5
715
330
A
100
AcDbEntity
  8
03
100
AcDbLine
 10
297.9064960742406
 20
128.9963149384887
 30
0.0
 11
286.9064960742406
 21
128.9963149384886
 31
0.0
  0
LINE
  5
716
330
A
100
AcDbEntity
  8
03
100
AcDbLine
 10
297.9064960742407
 20
103.9963149384885
 30
0.0
 11
297.9064960742406
 21
128.9963149384887
 31
0.0
  0
LINE
  5
717
330
A
100
AcDbEntity
  8
03
100
AcDbLine
 10
265.9064960742406
 20
128.9963149384886
 30
0.0
 11
265.9064960742406
 21
103.9963149384884
 31
0.0
  0
LINE
  5
718
330
A
100
AcDbEntity
  8
03
100
AcDbLine
 10
265.9064960742406
 20
103.9963149384884
 30
0.0
 11
297.9064960742407
 21
103.9963149384885
 31
0.0
  0
TEXT
  5
75A
330
A
100
AcDbEntity
  8
HIKIDASI
100
AcDbText
 10
142.2772848377239
 20
308.5859178280174
 30
0.0
 40
5.0
  1
（電気工事）
 50
90.0
 41
0.8
  7
0_8
 72
     1
 11
139.7772848377238
 21
322.4525844946841
 31
0.0
100
AcDbText
 73
     2
  0
LINE
  5
75B
330
A
100
AcDbEntity
  8
HIKIDASI
100
AcDbLine
 10
143.0158059134756
 20
305.8014681750446
 30
0.0
 11
143.0158059134756
 21
339.1037008143237
 31
0.0
  0
TEXT
  5
75C
330
A
100
AcDbEntity
  8
HIKIDASI
100
AcDbText
 10
133.904572349354
 20
308.8955966056763
 30
0.0
 40
5.0
  1
電源スイッチ
 50
90.0
 41
0.8
  7
0_8
 72
     1
 11
131.404572349354
 21
322.4955966056763
 31
0.0
100
AcDbText
 73
     2
  0
LINE
  5
75D
330
A
100
AcDbEntity
  8
HIKIDASI
100
AcDbLine
 10
134.0158059134757
 20
305.8014681750446
 30
0.0
 11
134.0158059134757
 21
339.1897250363083
 31
0.0
  0
TEXT
  5
75E
330
A
100
AcDbEntity
  8
HIKIDASI
100
AcDbText
 10
142.1757225337259
 20
511.8915879731911
 30
0.0
 40
5.0
  1
（電気工事）
 50
90.0
 41
0.8
  7
0_8
 72
     1
 11
139.6757225337259
 21
525.7582546398578
 31
0.0
100
AcDbText
 73
     2
  0
LINE
  5
75F
330
A
100
AcDbEntity
  8
HIKIDASI
100
AcDbLine
 10
143.0158059134756
 20
508.8014681750446
 30
0.0
 11
143.0158059134756
 21
542.7150411046708
 31
0.0
  0
TEXT
  5
760
330
A
100
AcDbEntity
  8
HIKIDASI
100
AcDbText
 10
133.5241643697216
 20
512.090258349499
 30
0.0
 40
5.0
  1
電源スイッチ
 50
90.0
 41
0.8
  7
0_8
 72
     1
 11
131.0241643697216
 21
525.690258349499
 31
0.0
100
AcDbText
 73
     2
  0
LINE
  5
761
330
A
100
AcDbEntity
  8
HIKIDASI
100
AcDbLine
 10
134.0158059134757
 20
508.8014681750446
 30
0.0
 11
134.0158059134757
 21
542.5790485239534
 31
0.0
  0
POLYLINE
  5
8CA
330
A
100
AcDbEntity
  8
DEFPOINTS
100
AcDb2dPolyline
 66
     1
 10
0.0
 20
0.0
 30
0.0
 70
     1
  0
VERTEX
  5
23A3
330
8CA
100
AcDbEntity
  8
DEFPOINTS
100
AcDbVertex
100
AcDb2dVertex
 10
0.0
 20
0.0
 30
0.0
  0
VERTEX
  5
23A4
330
8CA
100
AcDbEntity
  8
DEFPOINTS
100
AcDbVertex
100
AcDb2dVertex
 10
420.0
 20
0.0
 30
0.0
  0
VERTEX
  5
23A5
330
8CA
100
AcDbEntity
  8
DEFPOINTS
100
AcDbVertex
100
AcDb2dVertex
 10
420.0
 20
594.0
 30
0.0
  0
VERTEX
  5
23A6
330
8CA
100
AcDbEntity
  8
DEFPOINTS
100
AcDbVertex
100
AcDb2dVertex
 10
0.0
 20
594.0
 30
0.0
  0
SEQEND
  5
23A7
330
8CA
100
AcDbEntity
  8
DEFPOINTS
  0
LEADER
  5
8D5
330
A
100
AcDbEntity
  8
HIKIDASI
100
AcDbLeader
  3
SUNPOU_2
 73
     0
 74
     0
 75
     1
 40
13.33333333333333
 41
38.93333333333334
 76
     3
 10
54.5708194485822
 20
513.9749560632687
 30
0.0
 10
39.26586523535206
 20
516.370614139255
 30
0.0
 10
39.26586523535206
 20
521.370614139255
 30
0.0
340
8D6
211
0.0000000000000001
221
1.0
231
0.0
213
-9.090351913236188
223
5.877512717250056
233
0.0
1001
ACAD
1000
DSTYLE
1002
{
1070
     5
1000
OPEN30
1070
    77
1070
     1
1070
   147
1040
1.0
1070
   342
1005
8B7
1002
}
1000
LEANOF
1010
-9.090351913236188
1020
5.877512717250056
1030
0.0
1000
LEANOF
1010
-9.090351913236188
1020
5.877512717250056
1030
0.0
  0
MTEXT
  5
8D6
330
A
100
AcDbEntity
  8
HIKIDASI
100
AcDbMText
 10
46.35621714858825
 20
517.4931014220049
 30
0.0
 40
5.0
 41
0.0
 71
     7
 72
     1
  1
電源AC100V5A\P(電気工事)
  7
SUNPOU
 11
0.0000000000000001
 21
1.0
 31
0.0
1001
ACAD
1000
MTEXTBEGIN
1070
    73
1070
     1
1070
    44
1040
1.0
1070
    74
1070
     0
1000
MTEXTEND
1000
MTEXTBEGIN
1070
    73
1070
     1
1070
    44
1040
1.0
1070
    74
1070
     0
1000
MTEXTEND
  0
LEADER
  5
8D7
330
A
100
AcDbEntity
  8
HIKIDASI
100
AcDbLeader
  3
SUNPOU_2
 73
     0
 75
     1
 40
5.000000000000001
 41
58.13333333333333
 76
     3
 10
238.4619579073144
 20
535.9558145704148
 30
0.0
 10
216.0844977217823
 20
524.8804256367121
 30
0.0
 10
216.0844977217823
 20
519.880425636712
 30
0.0
340
8D8
211
0.0000000000000001
221
1.0
231
0.0
1001
ACAD
1000
DSTYLE
1002
{
1070
     5
1000
OPEN30
1070
    77
1070
     1
1070
   147
1040
1.0
1070
   342
1005
8B7
1002
}
1000
LEANOF
1010
0.0
1020
0.0
1030
0.0
1000
LEANOF
1010
0.0
1020
0.0
1030
0.0
  0
MTEXT
  5
8D8
330
A
100
AcDbEntity
  8
HIKIDASI
100
AcDbMText
 10
211.5844977217823
 20
517.880425636712
 30
0.0
 40
5.0
 41
0.0
 71
     6
 72
     1
  1
トロカバー(スチール1.6ｔ)
  7
SUNPOU
 11
0.0000000000000001
 21
1.0
 31
0.0
1001
ACAD
1000
MTEXTBEGIN
1070
    73
1070
     1
1070
    44
1040
1.0
1070
    74
1070
     0
1000
MTEXTEND
1000
MTEXTBEGIN
1070
    73
1070
     1
1070
    44
1040
1.0
1070
    74
1070
     0
1000
MTEXTEND
  0
LEADER
  5
8D9
330
A
100
AcDbEntity
  8
HIKIDASI
100
AcDbLeader
  3
SUNPOU_2
 73
     0
 75
     1
 40
5.000000000000001
 41
37.06666666666665
 76
     3
 10
244.9064960742409
 20
526.9963149384884
 30
0.0
 10
226.7268963425453
 20
519.9902983900272
 30
0.0
 10
226.7268963425453
 20
514.9902983900272
 30
0.0
340
8DA
211
0.0000000000000001
221
1.0
231
0.0
213
-0.5544106862146238
223
-4.520335990937495
233
0.0
1001
ACAD
1000
DSTYLE
1002
{
1070
     5
1000
OPEN30
1070
    77
1070
     1
1070
   147
1040
1.0
1070
   342
1005
8B7
1002
}
1000
LEANOF
1010
-0.5544106862146238
1020
-4.520335990937495
1030
0.0
1000
LEANOF
1010
-0.5544106862146238
1020
-4.520335990937495
1030
0.0
  0
MTEXT
  5
8DA
330
A
100
AcDbEntity
  8
HIKIDASI
100
AcDbMText
 10
222.78130702876
 20
517.5106343809646
 30
0.0
 40
5.0
 41
0.0
 71
     6
 72
     1
  1
補助光電スイッチ
  7
SUNPOU
 11
0.0000000000000001
 21
1.0
 31
0.0
1001
ACAD
1000
MTEXTBEGIN
1070
    73
1070
     1
1070
    44
1040
1.0
1070
    74
1070
     0
1000
MTEXTEND
1000
MTEXTBEGIN
1070
    73
1070
     1
1070
    44
1040
1.0
1070
    74
1070
     0
1000
MTEXTEND
  0
MTEXT
  5
8DD
330
A
100
AcDbEntity
  8
HIKIDASI
100
AcDbMText
 10
46.95245432011051
 20
314.4931014220051
 30
0.0
 40
5.0
 41
0.0
 71
     7
 72
     1
  1
電源AC100V5A\P(電気工事)
  7
SUNPOU
 11
0.0000000000000001
 21
1.0
 31
0.0
1001
ACAD
1000
MTEXTBEGIN
1070
    73
1070
     1
1070
    44
1040
1.0
1070
    74
1070
     0
1000
MTEXTEND
1000
MTEXTBEGIN
1070
    73
1070
     1
1070
    44
1040
1.0
1070
    74
1070
     0
1000
MTEXTEND
  0
LEADER
  5
8DE
330
A
100
AcDbEntity
  8
HIKIDASI
100
AcDbLeader
  3
SUNPOU_2
 73
     0
 74
     0
 75
     1
 40
13.33333333333333
 41
38.93333333333334
 76
     3
 10
54.5708194485822
 20
310.9749560632688
 30
0.0
 10
39.72239742052897
 20
313.3706141392551
 30
0.0
 10
39.72239742052897
 20
318.3706141392551
 30
0.0
340
8DD
211
0.0000000000000001
221
1.0
231
0.0
213
-9.230056899581539
223
5.877512717250056
233
0.0
1001
ACAD
1000
DSTYLE
1002
{
1070
     5
1000
OPEN30
1070
    77
1070
     1
1070
   147
1040
1.0
1070
   342
1005
8B7
1002
}
1000
LEANOF
1010
-9.230056899581539
1020
5.877512717250056
1030
0.0
1000
LEANOF
1010
-9.230056899581539
1020
5.877512717250056
1030
0.0
  0
LEADER
  5
8DF
330
A
100
AcDbEntity
  8
HIKIDASI
100
AcDbLeader
  3
SUNPOU_2
 73
     0
 74
     0
 75
     1
 40
5.000000000000001
 41
37.06666666666665
 76
     3
 10
149.570819448582
 20
385.5582893966019
 30
0.0
 10
162.0118986307629
 20
382.6066328635456
 30
0.0
 10
162.0118986307629
 20
387.6066328635456
 30
0.0
340
8E0
211
0.0000000000000001
221
1.0
231
0.0
213
-0.6320724920833527
223
-0.2225550638913774
233
0.0
1001
ACAD
1000
DSTYLE
1002
{
1070
     5
1000
OPEN30
1070
    77
1070
     1
1070
   147
1040
1.0
1070
   342
1005
8B7
1002
}
1000
LEANOF
1010
-0.6320724920833527
1020
-0.2225550638913774
1030
0.0
1000
LEANOF
1010
-0.6320724920833527
1020
-0.2225550638913774
1030
0.0
  0
MTEXT
  5
8E0
330
A
100
AcDbEntity
  8
HIKIDASI
100
AcDbMText
 10
160.6439711228463
 20
389.8291879274369
 30
0.0
 40
5.0
 41
0.0
 71
     7
 72
     1
  1
補助光電スイッチ
  7
SUNPOU
 11
0.0000000000000001
 21
1.0
 31
0.0
1001
ACAD
1000
MTEXTBEGIN
1070
    73
1070
     1
1070
    44
1040
1.0
1070
    74
1070
     0
1000
MTEXTEND
1000
MTEXTBEGIN
1070
    73
1070
     1
1070
    44
1040
1.0
1070
    74
1070
     0
1000
MTEXTEND
  0
LEADER
  5
8E1
330
A
100
AcDbEntity
  8
HIKIDASI
100
AcDbLeader
  3
SUNPOU_2
 73
     0
 74
     0
 75
     1
 40
5.000000000000001
 41
58.13333333333333
 76
     3
 10
238.4619579073144
 20
97.03715555260806
 30
0.0
 10
216.7869888225165
 20
108.1743484553921
 30
0.0
 10
216.7869888225165
 20
113.1743484553921
 30
0.0
340
8E2
211
0.0000000000000001
221
1.0
231
0.0
213
0.0
223
8.153024649652707
233
0.0
1001
ACAD
1000
DSTYLE
1002
{
1070
     5
1000
OPEN30
1070
    77
1070
     1
1070
   147
1040
1.0
1070
   342
1005
8B7
1002
}
1000
LEANOF
1010
0.0
1020
8.153024649652707
1030
0.0
1000
LEANOF
1010
0.0
1020
8.153024649652707
1030
0.0
  0
MTEXT
  5
8E2
330
A
100
AcDbEntity
  8
HIKIDASI
100
AcDbMText
 10
214.7869888225165
 20
107.0213238057394
 30
0.0
 40
5.0
 41
0.0
 71
     7
 72
     1
  1
トロカバー(スチール1.6ｔ)
  7
SUNPOU
 11
0.0000000000000001
 21
1.0
 31
0.0
1001
ACAD
1000
MTEXTBEGIN
1070
    73
1070
     1
1070
    44
1040
1.0
1070
    74
1070
     0
1000
MTEXTEND
1000
MTEXTBEGIN
1070
    73
1070
     1
1070
    44
1040
1.0
1070
    74
1070
     0
1000
MTEXTEND
  0
LEADER
  5
8E3
330
A
100
AcDbEntity
  8
HIKIDASI
100
AcDbLeader
  3
SUNPOU_2
 73
     0
 74
     0
 75
     1
 40
5.000000000000001
 41
37.06666666666665
 76
     3
 10
244.9064960742409
 20
105.9963149384884
 30
0.0
 10
228.8712703051899
 20
112.8823458388813
 30
0.0
 10
228.8712703051899
 20
117.8823458388812
 30
0.0
340
8E4
211
0.0000000000000001
221
1.0
231
0.0
213
0.0
223
4.9431542747337
233
0.0
1001
ACAD
1000
DSTYLE
1002
{
1070
     5
1000
OPEN30
1070
    77
1070
     1
1070
   147
1040
1.0
1070
   342
1005
8B7
1002
}
1000
LEANOF
1010
0.0
1020
4.9431542747337
1030
0.0
1000
LEANOF
1010
0.0
1020
4.9431542747337
1030
0.0
  0
MTEXT
  5
8E4
330
A
100
AcDbEntity
  8
HIKIDASI
100
AcDbMText
 10
226.8712703051899
 20
114.9391915641476
 30
0.0
 40
5.0
 41
0.0
 71
     7
 72
     1
  1
補助光電スイッチ
  7
SUNPOU
 11
0.0000000000000001
 21
1.0
 31
0.0
1001
ACAD
1000
MTEXTBEGIN
1070
    73
1070
     1
1070
    44
1040
1.0
1070
    74
1070
     0
1000
MTEXTEND
1000
MTEXTBEGIN
1070
    73
1070
     1
1070
    44
1040
1.0
1070
    74
1070
     0
1000
MTEXTEND
  0
LEADER
  5
8E5
330
A
100
AcDbEntity
  8
HIKIDASI
100
AcDbLeader
  3
SUNPOU_2
 73
     0
 74
     0
 75
     1
 40
5.0
 41
48.80000000000002
 76
     3
 10
304.4064960742409
 20
299.4964000000001
 30
0.0
 10
289.8810684730242
 20
308.3694199708844
 30
0.0
 10
289.8810684730242
 20
313.3694199708845
 30
0.0
340
8E6
211
0.0000000000000001
221
1.0
231
0.0
213
0.1194663499591115
223
4.676250547807511
233
0.0
1001
ACAD
1000
DSTYLE
1002
{
1070
     5
1000
OPEN30
1070
    77
1070
     1
1070
   147
1040
1.0
1070
   342
1005
8B7
1002
}
1000
LEANOF
1010
0.1194663499591115
1020
4.676250547807511
1030
0.0
1000
LEANOF
1010
0.1194663499591115
1020
4.676250547807511
1030
0.0
  0
MTEXT
  5
8E6
330
A
100
AcDbEntity
  8
HIKIDASI
100
AcDbMText
 10
287.7616021230651
 20
310.693169423077
 30
0.0
 40
5.0
 41
0.0
 71
     7
 72
     1
  1
スリムセナージドアI型
  7
SUNPOU
 11
0.0000000000000001
 21
1.0
 31
0.0
1001
ACAD
1000
MTEXTBEGIN
1070
    73
1070
     1
1070
    44
1040
1.0
1070
    74
1070
     0
1000
MTEXTEND
1000
MTEXTBEGIN
1070
    73
1070
     1
1070
    44
1040
1.0
1070
    74
1070
     0
1000
MTEXTEND
  0
MTEXT
  5
8E8
330
A
100
AcDbEntity
  8
HIKIDASI
100
AcDbMText
 10
160.6439711228461
 20
169.8139715198961
 30
0.0
 40
5.0
 41
0.0
 71
     7
 72
     1
  1
補助光電スイッチ
  7
SUNPOU
 11
0.0000000000000001
 21
1.0
 31
0.0
1001
ACAD
1000
MTEXTBEGIN
1070
    73
1070
     1
1070
    44
1040
1.0
1070
    74
1070
     0
1000
MTEXTEND
1000
MTEXTBEGIN
1070
    73
1070
     1
1070
    44
1040
1.0
1070
    74
1070
     0
1000
MTEXTEND
  0
LEADER
  5
8E9
330
A
100
AcDbEntity
  8
HIKIDASI
100
AcDbLeader
  3
SUNPOU_2
 73
     0
 74
     0
 75
     1
 40
5.000000000000001
 41
37.06666666666665
 76
     3
 10
149.570819448582
 20
164.2832893966021
 30
0.0
 10
162.0118986307628
 20
168.579927826798
 30
0.0
 10
162.0118986307628
 20
173.579927826798
 30
0.0
340
8E8
211
0.0000000000000001
221
1.0
231
0.0
213
-0.6320724920833527
223
5.765956306901896
233
0.0
1001
ACAD
1000
DSTYLE
1002
{
1070
     5
1000
OPEN30
1070
    77
1070
     1
1070
   147
1040
1.0
1070
   342
1005
8B7
1002
}
1000
LEANOF
1010
-0.6320724920833527
1020
5.765956306901896
1030
0.0
1000
LEANOF
1010
-0.6320724920833527
1020
5.765956306901896
1030
0.0
  0
DIMENSION
  5
905
330
A
100
AcDbEntity
  8
SUNPOU
100
AcDbDimension
  2
*D1
 10
179.5708194485821
 20
367.7249560632688
 30
0.0
 11
164.7476717965034
 21
362.5107955143453
 31
0.0
 70
   160
 53
180.0
  3
SUNPOU_2_20
100
AcDbAlignedDimension
 13
149.570819448582
 23
377.3749560632686
 33
0.0
 14
179.5708194485821
 24
377.2249560632686
 34
0.0
100
AcDbRotatedDimension
  0
DIMENSION
  5
912
330
A
100
AcDbEntity
  8
SUNPOU
100
AcDbDimension
  2
*D2
 10
205.335252250253
 20
377.2249560632686
 30
0.0
 11
200.8352522502529
 21
439.7249560632688
 31
0.0
 70
    32
  1
W
  3
SUNPOU_2_20
100
AcDbAlignedDimension
 13
179.5708194485821
 23
502.2249560632686
 33
0.0
 14
179.5708194485821
 24
377.2249560632686
 34
0.0
 50
90.0
100
AcDbRotatedDimension
  0
DIMENSION
  5
91F
330
A
100
AcDbEntity
  8
SUNPOU
100
AcDbDimension
  2
*D3
 10
192.6110422824181
 20
437.0749560632686
 30
0.0
 11
188.1110422824179
 21
407.1499560632688
 31
0.0
 70
    32
  1
開口　W
  3
SUNPOU_2_20
100
AcDbAlignedDimension
 13
179.5708194485821
 23
377.2249560632686
 33
0.0
 14
179.5708194485821
 24
437.0749560632686
 34
0.0
 50
90.0
100
AcDbRotatedDimension
  0
DIMENSION
  5
92C
330
A
100
AcDbEntity
  8
SUNPOU
100
AcDbDimension
  2
*D4
 10
149.570819448582
 20
327.2188725158848
 30
0.0
 11
164.5717393763644
 21
321.9639830091947
 31
0.0
 70
   160
 53
180.0
  3
SUNPOU_2_20
100
AcDbAlignedDimension
 13
179.570819448582
 23
327.2188725158848
 33
0.0
 14
149.570819448582
 24
299.2249560632686
 34
0.0
100
AcDbRotatedDimension
  0
DIMENSION
  5
954
330
A
100
AcDbEntity
  8
SUNPOU
100
AcDbDimension
  2
*D5
 10
205.335252250253
 20
99.22495606326885
 30
0.0
 11
200.835252250253
 21
199.2249560632688
 31
0.0
 70
    32
  1
W
  3
SUNPOU_2_20
100
AcDbAlignedDimension
 13
179.570819448582
 23
299.2249560632686
 33
0.0
 14
179.070819448582
 24
99.22495606326885
 34
0.0
 50
90.0
100
AcDbRotatedDimension
  0
DIMENSION
  5
961
330
A
100
AcDbEntity
  8
SUNPOU
100
AcDbDimension
  2
*D6
 10
192.6110422824181
 20
243.7499560632688
 30
0.0
 11
188.1110422824179
 21
199.2249560632688
 31
0.0
 70
    32
  1
開口　W
  3
SUNPOU_2_20
100
AcDbAlignedDimension
 13
179.570819448582
 23
154.6999560632688
 33
0.0
 14
179.570819448582
 24
243.7499560632688
 34
0.0
 50
90.0
100
AcDbRotatedDimension
  0
DIMENSION
  5
96E
330
A
100
AcDbEntity
  8
SUNPOU
100
AcDbDimension
  2
*D7
 10
84.5708194485822
 20
72.98994186832499
 30
0.0
 11
80.01017097975568
 21
67.43526513753682
 31
0.0
 70
   160
 53
180.0
  3
SUNPOU_2_20
100
AcDbAlignedDimension
 13
74.5708194485822
 23
99.22495606326885
 33
0.0
 14
84.5708194485822
 24
99.22495606326885
 34
0.0
100
AcDbRotatedDimension
  0
DIMENSION
  5
97D
330
A
100
AcDbEntity
  8
SUNPOU
100
AcDbDimension
  2
*D8
 10
179.570819448582
 20
72.98994186832499
 30
0.0
 11
131.9944604074277
 21
67.25647031968811
 31
0.0
 70
   160
  1
H
 53
180.0
  3
SUNPOU_2_20
100
AcDbAlignedDimension
 13
84.5708194485822
 23
99.22495606326885
 33
0.0
 14
179.570819448582
 24
72.98994186832496
 34
0.0
100
AcDbRotatedDimension
  0
DIMENSION
  5
98A
330
A
100
AcDbEntity
  8
SUNPOU
100
AcDbDimension
  2
*D9
 10
178.920819448582
 20
82.16766256590508
 30
0.0
 11
184.6931461500529
 21
76.73781711591823
 31
0.0
 70
   160
 53
180.0
  3
SUNPOU_2_20
100
AcDbAlignedDimension
 13
179.570819448582
 23
82.16766256590508
 33
0.0
 14
178.920819448582
 24
153.4499560632688
 34
0.0
100
AcDbRotatedDimension
  0
DIMENSION
  5
999
330
A
100
AcDbEntity
  8
SUNPOU
100
AcDbDimension
  2
*D10
 10
84.5708194485822
 20
82.16766256590508
 30
0.0
 11
131.421877214473
 21
76.79141738623503
 31
0.0
 70
   160
  1
DH
 53
180.0
  3
SUNPOU_2_20
100
AcDbAlignedDimension
 13
178.920819448582
 23
153.4499560632688
 33
0.0
 14
84.5708194485822
 24
99.22495606326885
 34
0.0
100
AcDbRotatedDimension
  0
DIMENSION
  5
9A6
330
A
100
AcDbEntity
  8
SUNPOU
100
AcDbDimension
  2
*D11
 10
84.22081944858224
 20
82.16766256590508
 30
0.0
 11
81.26189399568399
 21
77.95841431282337
 31
0.0
 70
   160
 53
180.0
  3
SUNPOU_2_20
100
AcDbAlignedDimension
 13
84.5708194485822
 23
99.22495606326885
 33
0.0
 14
84.22081944858224
 24
153.4499560632685
 34
0.0
100
AcDbRotatedDimension
  0
DIMENSION
  5
9B5
330
A
100
AcDbEntity
  8
SUNPOU
100
AcDbDimension
  2
*D12
 10
265.9064960742406
 20
238.1991077463835
 30
0.0
 11
250.9064960742408
 21
232.8290785105996
 31
0.0
 70
   160
 53
180.0
  3
SUNPOU_2
100
AcDbAlignedDimension
 13
234.9064960742409
 23
102.4963149384884
 33
0.0
 14
265.9064960742406
 24
223.9963149384887
 34
0.0
100
AcDbRotatedDimension
  0
DIMENSION
  5
9C2
330
A
100
AcDbEntity
  8
SUNPOU
100
AcDbDimension
  2
*D13
 10
297.9064960742407
 20
238.1991077463835
 30
0.0
 11
282.0529743863689
 21
232.8290785105996
 31
0.0
 70
   160
 53
180.0
  3
SUNPOU_2
100
AcDbAlignedDimension
 13
265.9064960742406
 23
223.9963149384887
 33
0.0
 14
297.9064960742407
 24
223.9963149384884
 34
0.0
100
AcDbRotatedDimension
  0
DIMENSION
  5
9CF
330
A
100
AcDbEntity
  8
SUNPOU
100
AcDbDimension
  2
*D14
 10
302.9064960742412
 20
238.1991077463835
 30
0.0
 11
300.7208192989628
 21
232.8290785105996
 31
0.0
 70
   160
 53
180.0
  3
SUNPOU_2
100
AcDbAlignedDimension
 13
297.9064960742407
 23
223.9963149384884
 33
0.0
 14
302.9064960742412
 24
223.996314938489
 34
0.0
100
AcDbRotatedDimension
  0
DIMENSION
  5
9DE
330
A
100
AcDbEntity
  8
SUNPOU
100
AcDbDimension
  2
*D15
 10
334.9064960742412
 20
238.1991077463835
 30
0.0
 11
326.3763267727118
 21
233.0297351798515
 31
0.0
 70
   160
  1
<>
 53
180.0
  3
SUNPOU_2
100
AcDbAlignedDimension
 13
302.9064960742412
 23
223.996314938489
 33
0.0
 14
334.9064960742412
 24
223.996314938489
 34
0.0
100
AcDbRotatedDimension
  0
DIMENSION
  5
9EB
330
A
100
AcDbEntity
  8
SUNPOU
100
AcDbDimension
  2
*D16
 10
347.5469506121592
 20
198.996314938489
 30
0.0
 11
343.046950612159
 21
211.4963149384891
 31
0.0
 70
    32
  1
<>
  3
SUNPOU_2
100
AcDbAlignedDimension
 13
334.9064960742412
 23
223.996314938489
 33
0.0
 14
334.9064960742412
 24
198.996314938489
 34
0.0
 50
90.0
100
AcDbRotatedDimension
  0
DIMENSION
  5
9F8
330
A
100
AcDbEntity
  8
SUNPOU
100
AcDbDimension
  2
*D17
 10
359.4820527443341
 20
313.9964000000001
 30
0.0
 11
354.982052744334
 21
256.4963574692447
 31
0.0
 70
    32
  1
DW
  3
SUNPOU_2
100
AcDbAlignedDimension
 13
334.9064960742412
 23
198.996314938489
 33
0.0
 14
334.9064960742412
 24
313.9964000000001
 34
0.0
 50
90.0
100
AcDbRotatedDimension
  0
DIMENSION
  5
A05
330
A
100
AcDbEntity
  8
SUNPOU
100
AcDbDimension
  2
*D18
 10
359.4820527443341
 20
318.9964000000001
 30
0.0
 11
354.8076075236126
 21
316.4964000000001
 31
0.0
 70
   160
  1
5
  3
SUNPOU_2
100
AcDbAlignedDimension
 13
334.9064960742412
 23
313.9964000000001
 33
0.0
 14
334.9064960742408
 24
318.9964000000001
 34
0.0
 50
90.0
100
AcDbRotatedDimension
  0
DIMENSION
  5
A14
330
A
100
AcDbEntity
  8
SUNPOU
100
AcDbDimension
  2
*D19
 10
359.4820527443341
 20
433.9964850615115
 30
0.0
 11
354.982052744334
 21
376.4964425307558
 31
0.0
 70
    32
  1
DW
  3
SUNPOU_2
100
AcDbAlignedDimension
 13
334.9064960742408
 23
318.9964000000001
 33
0.0
 14
334.9064960742405
 24
433.9964850615115
 34
0.0
 50
90.0
100
AcDbRotatedDimension
  0
DIMENSION
  5
A21
330
A
100
AcDbEntity
  8
SUNPOU
100
AcDbDimension
  2
*D20
 10
347.5469506121592
 20
408.9964850615114
 30
0.0
 11
343.0469506121589
 21
421.4964850615115
 31
0.0
 70
    32
  3
SUNPOU_2
100
AcDbAlignedDimension
 13
334.9064960742406
 23
433.9964850615115
 33
0.0
 14
334.9064960742408
 24
408.9964850615114
 34
0.0
 50
90.0
100
AcDbRotatedDimension
  0
DIMENSION
  5
A2E
330
A
100
AcDbEntity
  8
SUNPOU
100
AcDbDimension
  2
*D21
 10
347.5469506121592
 20
318.9964000000001
 30
0.0
 11
343.046950612159
 21
331.4964000000001
 31
0.0
 70
    32
  3
SUNPOU_2
100
AcDbAlignedDimension
 13
334.9064960742408
 23
343.9964000000001
 33
0.0
 14
334.9064960742408
 24
318.9964000000001
 34
0.0
 50
90.0
100
AcDbRotatedDimension
  0
DIMENSION
  5
A3B
330
A
100
AcDbEntity
  8
SUNPOU
100
AcDbDimension
  2
*D22
 10
347.5469506121592
 20
288.9964000000001
 30
0.0
 11
343.046950612159
 21
301.4964000000001
 31
0.0
 70
    32
  3
SUNPOU_2
100
AcDbAlignedDimension
 13
334.9064960742408
 23
313.9964000000001
 33
0.0
 14
334.9064960742409
 24
288.9964000000001
 34
0.0
 50
90.0
100
AcDbRotatedDimension
  0
DIMENSION
  5
A48
330
A
100
AcDbEntity
  8
SUNPOU
100
AcDbDimension
  2
*D23
 10
354.9064960742408
 20
141.141543869136
 30
0.0
 11
301.2867431971176
 21
135.8960653203898
 31
0.0
 70
   160
 53
180.0
  3
SUNPOU_2
100
AcDbAlignedDimension
 13
234.9064960742409
 23
102.4963149384884
 33
0.0
 14
354.9064960742408
 24
102.4963149384884
 34
0.0
100
AcDbRotatedDimension
  0
DIMENSION
  5
A55
330
A
100
AcDbEntity
  8
SUNPOU
100
AcDbDimension
  2
*D24
 10
327.4064960742408
 20
115.2269298364201
 30
0.0
 11
319.2960656345487
 21
109.9142141980282
 31
0.0
 70
   160
 53
180.0
  3
SUNPOU_2
100
AcDbAlignedDimension
 13
310.4064960742408
 23
115.2269298364201
 33
0.0
 14
327.4064960742408
 24
115.2269298364201
 34
0.0
100
AcDbRotatedDimension
  0
DIMENSION
  5
CB8
330
A
100
AcDbEntity
  8
SUNPOU
100
AcDbDimension
  2
*D25
 10
374.6917677358784
 20
528.9964850615112
 30
0.0
 11
370.1917677358782
 21
316.4964000000001
 31
0.0
 70
    32
  1
W
  3
SUNPOU_2
100
AcDbAlignedDimension
 13
353.4064960742408
 23
103.9963149384884
 33
0.0
 14
354.4064960742408
 24
528.9964850615112
 34
0.0
 50
90.0
100
AcDbRotatedDimension
  0
LINE
  5
EE3
330
A
100
AcDbEntity
  8
CHUSIN
100
AcDbLine
 10
318.9064960742408
 20
118.891832196211
 30
0.0
 11
318.9064960742408
 21
565.5553602811951
 31
0.0
  0
MTEXT
  5
100B
330
A
100
AcDbEntity
  8
MOJI
100
AcDbMText
 10
267.6298137319136
 20
326.2127645476148
 30
0.0
 40
6.0
 41
25.0
 71
     5
 72
     1
  1
外　　部
  7
0_8
 11
0.0000000000000001
 21
1.0
 31
0.0
1001
ACAD
1000
MTEXTBEGIN
1070
    73
1070
     1
1070
    44
1040
1.0
1070
    74
1070
     0
1000
MTEXTEND
1000
MTEXTBEGIN
1070
    73
1070
     1
1070
    44
1040
1.0
1070
    74
1070
     0
1000
MTEXTEND
  0
POLYLINE
  5
100C
330
A
100
AcDbEntity
  8
SAISEN
100
AcDb2dPolyline
 66
     1
 10
0.0
 20
0.0
 30
0.0
 70
     1
  0
VERTEX
  5
23A8
330
100C
100
AcDbEntity
  8
SAISEN
100
AcDbVertex
100
AcDb2dVertex
 10
262.6298137319134
 20
311.2127645476148
 30
0.0
  0
VERTEX
  5
23A9
330
100C
100
AcDbEntity
  8
SAISEN
100
AcDbVertex
100
AcDb2dVertex
 10
272.6298137319135
 20
311.2127645476148
 30
0.0
  0
VERTEX
  5
23AA
330
100C
100
AcDbEntity
  8
SAISEN
100
AcDbVertex
100
AcDb2dVertex
 10
272.6298137319135
 20
341.2127645476148
 30
0.0
  0
VERTEX
  5
23AB
330
100C
100
AcDbEntity
  8
SAISEN
100
AcDbVertex
100
AcDb2dVertex
 10
262.6298137319134
 20
341.2127645476148
 30
0.0
  0
SEQEND
  5
23AC
330
100C
100
AcDbEntity
  8
SAISEN
  0
MTEXT
  5
100D
330
A
100
AcDbEntity
  8
MOJI
100
AcDbMText
 10
390.3437757184233
 20
326.2127645476148
 30
0.0
 40
6.0
 41
25.0
 71
     5
 72
     1
  1
内　　部
  7
0_8
 11
0.0000000000000001
 21
1.0
 31
0.0
1001
ACAD
1000
MTEXTBEGIN
1070
    73
1070
     1
1070
    44
1040
1.0
1070
    74
1070
     0
1000
MTEXTEND
1000
MTEXTBEGIN
1070
    73
1070
     1
1070
    44
1040
1.0
1070
    74
1070
     0
1000
MTEXTEND
  0
POLYLINE
  5
100E
330
A
100
AcDbEntity
  8
SAISEN
100
AcDb2dPolyline
 66
     1
 10
0.0
 20
0.0
 30
0.0
 70
     1
  0
VERTEX
  5
23AD
330
100E
100
AcDbEntity
  8
SAISEN
100
AcDbVertex
100
AcDb2dVertex
 10
385.3437757184233
 20
311.2127645476148
 30
0.0
  0
VERTEX
  5
23AE
330
100E
100
AcDbEntity
  8
SAISEN
100
AcDbVertex
100
AcDb2dVertex
 10
395.3437757184233
 20
311.2127645476148
 30
0.0
  0
VERTEX
  5
23AF
330
100E
100
AcDbEntity
  8
SAISEN
100
AcDbVertex
100
AcDb2dVertex
 10
395.3437757184233
 20
341.2127645476148
 30
0.0
  0
VERTEX
  5
23B0
330
100E
100
AcDbEntity
  8
SAISEN
100
AcDbVertex
100
AcDb2dVertex
 10
385.3437757184233
 20
341.2127645476148
 30
0.0
  0
SEQEND
  5
23B1
330
100E
100
AcDbEntity
  8
SAISEN
  0
LINE
  5
1018
330
A
100
AcDbEntity
  8
03
100
AcDbLine
 10
276.9064960742407
 20
432.4964850615113
 30
0.0
 11
276.9064960742407
 21
433.9964850615115
 31
0.0
  0
LINE
  5
1019
330
A
100
AcDbEntity
  8
03
100
AcDbLine
 10
286.9064960742406
 20
432.4964850615113
 30
0.0
 11
286.9064960742406
 21
433.9964850615114
 31
0.0
  0
LINE
  5
101F
330
A
100
AcDbEntity
  8
06
100
AcDbLine
 10
313.9064960742408
 20
410.4964850615115
 30
0.0
 11
313.9064960742408
 21
408.9964850615116
 31
0.0
  0
LINE
  5
1020
330
A
100
AcDbEntity
  8
06
100
AcDbLine
 10
323.9064960742408
 20
410.4964850615114
 30
0.0
 11
323.9064960742408
 21
408.9964850615114
 31
0.0
  0
LINE
  5
1026
330
A
100
AcDbEntity
  8
06
100
AcDbLine
 10
313.9064960742412
 20
223.9963149384891
 30
0.0
 11
313.9064960742412
 21
222.496314938489
 31
0.0
  0
LINE
  5
1027
330
A
100
AcDbEntity
  8
06
100
AcDbLine
 10
323.9064960742412
 20
223.996314938489
 30
0.0
 11
323.9064960742412
 21
222.496314938489
 31
0.0
  0
LINE
  5
1028
330
A
100
AcDbEntity
  8
03
100
AcDbLine
 10
276.9064960742407
 20
198.9963149384885
 30
0.0
 11
276.9064960742407
 21
200.4963149384884
 31
0.0
  0
LINE
  5
1029
330
A
100
AcDbEntity
  8
03
100
AcDbLine
 10
286.9064960742406
 20
198.9963149384885
 30
0.0
 11
286.9064960742406
 21
200.4963149384884
 31
0.0
  0
LINE
  5
102A
330
A
100
AcDbEntity
  8
03
100
AcDbLine
 10
276.9064960742406
 20
127.4963149384886
 30
0.0
 11
276.9064960742406
 21
128.9963149384887
 31
0.0
  0
LINE
  5
102B
330
A
100
AcDbEntity
  8
03
100
AcDbLine
 10
286.9064960742406
 20
127.4963149384886
 30
0.0
 11
286.9064960742406
 21
128.9963149384886
 31
0.0
  0
POLYLINE
  5
103B
330
A
100
AcDbEntity
  8
SAISEN
100
AcDb2dPolyline
 66
     1
 10
0.0
 20
0.0
 30
0.0
 70
     1
  0
VERTEX
  5
23B2
330
103B
100
AcDbEntity
  8
SAISEN
100
AcDbVertex
100
AcDb2dVertex
 10
32.74314660609957
 20
216.6905582850474
 30
0.0
  0
VERTEX
  5
23B3
330
103B
100
AcDbEntity
  8
SAISEN
100
AcDbVertex
100
AcDb2dVertex
 10
22.74314660609957
 20
216.6905582850474
 30
0.0
  0
VERTEX
  5
23B4
330
103B
100
AcDbEntity
  8
SAISEN
100
AcDbVertex
100
AcDb2dVertex
 10
22.74314660609957
 20
181.6905582850474
 30
0.0
  0
VERTEX
  5
23B5
330
103B
100
AcDbEntity
  8
SAISEN
100
AcDbVertex
100
AcDb2dVertex
 10
32.74314660609957
 20
181.6905582850474
 30
0.0
  0
SEQEND
  5
23B6
330
103B
100
AcDbEntity
  8
SAISEN
  0
MTEXT
  5
103C
330
A
100
AcDbEntity
  8
MOJI
100
AcDbMText
 10
27.74314660609957
 20
199.1905582850474
 30
0.0
 40
6.0
 41
35.0
 71
     5
 72
     1
  1
内　観　図
  7
0_8
 11
0.0000000000000001
 21
1.0
 31
0.0
1001
ACAD
1000
MTEXTBEGIN
1070
    73
1070
     1
1070
    44
1040
1.0
1070
    74
1070
     0
1000
MTEXTEND
1000
MTEXTBEGIN
1070
    73
1070
     1
1070
    44
1040
1.0
1070
    74
1070
     0
1000
MTEXTEND
  0
POLYLINE
  5
103D
330
A
100
AcDbEntity
  8
SAISEN
100
AcDb2dPolyline
 66
     1
 10
0.0
 20
0.0
 30
0.0
 70
     1
  0
VERTEX
  5
23B7
330
103D
100
AcDbEntity
  8
SAISEN
100
AcDbVertex
100
AcDb2dVertex
 10
32.74314660609957
 20
455.7901200563629
 30
0.0
  0
VERTEX
  5
23B8
330
103D
100
AcDbEntity
  8
SAISEN
100
AcDbVertex
100
AcDb2dVertex
 10
22.74314660609957
 20
455.7901200563629
 30
0.0
  0
VERTEX
  5
23B9
330
103D
100
AcDbEntity
  8
SAISEN
100
AcDbVertex
100
AcDb2dVertex
 10
22.74314660609957
 20
420.7901200563628
 30
0.0
  0
VERTEX
  5
23BA
330
103D
100
AcDbEntity
  8
SAISEN
100
AcDbVertex
100
AcDb2dVertex
 10
32.74314660609957
 20
420.7901200563628
 30
0.0
  0
SEQEND
  5
23BB
330
103D
100
AcDbEntity
  8
SAISEN
  0
MTEXT
  5
103E
330
A
100
AcDbEntity
  8
MOJI
100
AcDbMText
 10
27.74314660609957
 20
438.2901200563629
 30
0.0
 40
6.0
 41
35.0
 71
     5
 72
     1
  1
内　観　図
  7
0_8
 11
0.0000000000000001
 21
1.0
 31
0.0
1001
ACAD
1000
MTEXTBEGIN
1070
    73
1070
     1
1070
    44
1040
1.0
1070
    74
1070
     0
1000
MTEXTEND
1000
MTEXTBEGIN
1070
    73
1070
     1
1070
    44
1040
1.0
1070
    74
1070
     0
1000
MTEXTEND
  0
LINE
  5
1211
330
A
100
AcDbEntity
  8
06
100
AcDbLine
 10
329.4064960742411
 20
325.4964000000001
 30
0.0
 11
308.4064960742408
 21
325.4964000000001
 31
0.0
  0
LINE
  5
1212
330
A
100
AcDbEntity
  8
06
100
AcDbLine
 10
329.4064960742411
 20
307.4964000000001
 30
0.0
 11
308.4064960742411
 21
307.4964000000001
 31
0.0
  0
ARC
  5
1217
330
A
100
AcDbEntity
  8
06
100
AcDbCircle
 10
318.5644594675183
 20
321.4964000000001
 30
0.0
 40
1.0
100
AcDbArc
 50
6.788974574439638
 51
90.0
  0
LINE
  5
1218
330
A
100
AcDbEntity
  8
06
100
AcDbLine
 10
328.4524730857353
 20
325.4964000000001
 30
0.0
 11
309.4524730857353
 21
325.4964000000001
 31
0.0
  0
ARC
  5
1219
330
A
100
AcDbEntity
  8
06
100
AcDbCircle
 10
319.2945096924578
 20
311.4964000000001
 30
0.0
 40
1.0
100
AcDbArc
 50
186.7889745744395
 51
270.0
  0
LINE
  5
121A
330
A
100
AcDbEntity
  8
06
100
AcDbLine
 10
309.4064960742409
 20
307.4964000000001
 30
0.0
 11
328.4064960742408
 21
307.4964000000001
 31
0.0
  0
LINE
  5
121F
330
A
100
AcDbEntity
  8
06
100
AcDbLine
 10
317.2352270662245
 20
320.3350596673391
 30
0.0
 11
318.301521418263
 21
311.3781871102151
 31
0.0
  0
LINE
  5
1220
330
A
100
AcDbEntity
  8
06
100
AcDbLine
 10
308.4064960742411
 20
313.9964000000001
 30
0.0
 11
308.4064960742411
 21
315.9964000000001
 31
0.0
  0
LINE
  5
1221
330
A
100
AcDbEntity
  8
06
100
AcDbLine
 10
308.4064960742411
 20
309.9964000000001
 30
0.0
 11
311.9064960742409
 21
309.9964000000001
 31
0.0
  0
LINE
  5
1224
330
A
100
AcDbEntity
  8
06
100
AcDbLine
 10
312.0130151198565
 20
313.9964000000001
 30
0.0
 11
308.4064960742408
 21
313.9964000000001
 31
0.0
  0
LINE
  5
1225
330
A
100
AcDbEntity
  8
06
100
AcDbLine
 10
309.4064960742409
 20
309.4964
 30
0.0
 11
311.9064960742408
 21
309.4964000000001
 31
0.0
  0
LINE
  5
1226
330
A
100
AcDbEntity
  8
06
100
AcDbLine
 10
308.4064960742411
 20
307.4964000000001
 30
0.0
 11
308.4064960742411
 21
309.9964000000001
 31
0.0
  0
LINE
  5
122A
330
A
100
AcDbEntity
  8
06
100
AcDbLine
 10
309.4064960742409
 20
309.4964
 30
0.0
 11
309.4064960742409
 21
307.4964000000001
 31
0.0
  0
LINE
  5
122F
330
A
100
AcDbEntity
  8
06
100
AcDbLine
 10
311.9064960742408
 20
313.9964000000001
 30
0.0
 11
311.9064960742408
 21
309.9964000000001
 31
0.0
  0
ARC
  5
1231
330
A
100
AcDbEntity
  8
06
100
AcDbCircle
 10
311.9064960742408
 20
313.4964
 30
0.0
 40
0.5
100
AcDbArc
 50
0.0
 51
90.0
  0
ARC
  5
1232
330
A
100
AcDbEntity
  8
06
100
AcDbCircle
 10
311.9064960742408
 20
309.9964000000001
 30
0.0
 40
0.5
100
AcDbArc
 50
270.0
 51
0.0
  0
LINE
  5
1233
330
A
100
AcDbEntity
  8
06
100
AcDbLine
 10
312.4064960742408
 20
313.4964
 30
0.0
 11
312.4064960742408
 21
309.9964000000001
 31
0.0
  0
LINE
  5
1234
330
A
100
AcDbEntity
  8
06
100
AcDbLine
 10
308.4064960742411
 20
322.9964000000001
 30
0.0
 11
311.9064960742409
 21
322.9964000000001
 31
0.0
  0
LINE
  5
1239
330
A
100
AcDbEntity
  8
06
100
AcDbLine
 10
308.4524730857353
 20
318.9964000000001
 30
0.0
 11
311.9524730857353
 21
318.9964000000001
 31
0.0
  0
LINE
  5
123A
330
A
100
AcDbEntity
  8
06
100
AcDbLine
 10
309.4524730857353
 20
323.4964000000001
 30
0.0
 11
311.9524730857353
 21
323.4964000000001
 31
0.0
  0
LINE
  5
123B
330
A
100
AcDbEntity
  8
06
100
AcDbLine
 10
308.9064960742409
 20
316.4964000000001
 30
0.0
 11
314.4829325300495
 21
316.4964000000001
 31
0.0
  0
LINE
  5
123D
330
A
100
AcDbEntity
  8
06
100
AcDbLine
 10
308.4064960742408
 20
325.4964000000001
 30
0.0
 11
308.4064960742411
 21
322.9964000000001
 31
0.0
  0
ARC
  5
1241
330
A
100
AcDbEntity
  8
06
100
AcDbCircle
 10
308.9524730857351
 20
316.9964
 30
0.0
 40
0.5
100
AcDbArc
 50
179.9999999999966
 51
270.0
  0
LINE
  5
1242
330
A
100
AcDbEntity
  8
06
100
AcDbLine
 10
308.4524730857353
 20
318.9964000000001
 30
0.0
 11
308.4524730857351
 21
316.9964000000001
 31
0.0
  0
LINE
  5
1243
330
A
100
AcDbEntity
  8
06
100
AcDbLine
 10
309.4524730857353
 20
325.4964000000001
 30
0.0
 11
309.4524730857353
 21
323.4964000000001
 31
0.0
  0
ARC
  5
1244
330
A
100
AcDbEntity
  8
06
100
AcDbCircle
 10
308.9064960742409
 20
315.9964000000001
 30
0.0
 40
0.5
100
AcDbArc
 50
90.0
 51
180.0
  0
LINE
  5
1248
330
A
100
AcDbEntity
  8
06
100
AcDbLine
 10
318.5644594675183
 20
322.4964000000001
 30
0.0
 11
314.9524730857353
 21
322.4964000000001
 31
0.0
  0
LINE
  5
1249
330
A
100
AcDbEntity
  8
06
100
AcDbLine
 10
314.9761294919656
 20
316.9142005063473
 30
0.0
 11
315.5520459476541
 21
320.3696992404792
 31
0.0
  0
LINE
  5
124A
330
A
100
AcDbEntity
  8
06
100
AcDbLine
 10
311.9064960742409
 20
322.9964000000001
 30
0.0
 11
311.9064960742409
 21
318.9964000000001
 31
0.0
  0
ARC
  5
124F
330
A
100
AcDbEntity
  8
06
100
AcDbCircle
 10
314.9524730857353
 20
321.4964000000001
 30
0.0
 40
1.0
100
AcDbArc
 50
89.99999999999673
 51
180.0
  0
ARC
  5
1250
330
A
100
AcDbEntity
  8
06
100
AcDbCircle
 10
313.4524730857351
 20
316.9964000000001
 30
0.0
 40
0.5
100
AcDbArc
 50
270.0
 51
0.0
  0
LINE
  5
1251
330
A
100
AcDbEntity
  8
06
100
AcDbLine
 10
313.9524730857353
 20
316.9964000000001
 30
0.0
 11
313.9524730857353
 21
321.4964000000001
 31
0.0
  0
ARC
  5
1252
330
A
100
AcDbEntity
  8
06
100
AcDbCircle
 10
311.9524730857353
 20
319.4964000000001
 30
0.0
 40
0.5
100
AcDbArc
 50
270.0
 51
0.0
  0
LINE
  5
1254
330
A
100
AcDbEntity
  8
06
100
AcDbLine
 10
312.4524730857353
 20
319.4964000000001
 30
0.0
 11
312.4524730857353
 21
322.9964000000001
 31
0.0
  0
ARC
  5
1255
330
A
100
AcDbEntity
  8
06
100
AcDbCircle
 10
314.4829325300495
 20
316.9964000000001
 30
0.0
 40
0.5
100
AcDbArc
 50
270.0
 51
350.537677791976
  0
ARC
  5
125A
330
A
100
AcDbEntity
  8
06
100
AcDbCircle
 10
316.4904858605781
 20
320.2464000000002
 30
0.0
 40
0.75
100
AcDbArc
 50
6.788974574439638
 51
97.61001495472648
  0
ARC
  5
125B
330
A
100
AcDbEntity
  8
06
100
AcDbCircle
 10
316.2918413905283
 20
320.2464000000002
 30
0.0
 40
0.75
100
AcDbArc
 50
90.0
 51
170.5376777919759
  0
LINE
  5
125C
330
A
100
AcDbEntity
  8
06
100
AcDbLine
 10
316.2918413905283
 20
320.9964000000002
 30
0.0
 11
316.4904858605781
 21
320.9964000000002
 31
0.0
  0
LINE
  5
1261
330
A
100
AcDbEntity
  8
06
100
AcDbLine
 10
320.6237420937518
 20
312.6577403326611
 30
0.0
 11
319.5574477417133
 21
321.6146128897853
 31
0.0
  0
LINE
  5
1262
330
A
100
AcDbEntity
  8
06
100
AcDbLine
 10
322.8828396680106
 20
316.0785994936528
 30
0.0
 11
322.306923212322
 21
312.6231007595209
 31
0.0
  0
LINE
  5
1263
330
A
100
AcDbEntity
  8
06
100
AcDbLine
 10
323.906496074241
 20
315.9964000000001
 30
0.0
 11
323.906496074241
 21
311.4964
 31
0.0
  0
LINE
  5
1264
330
A
100
AcDbEntity
  8
06
100
AcDbLine
 10
329.4064960742408
 20
313.9964000000001
 30
0.0
 11
329.4064960742411
 21
315.9964000000001
 31
0.0
  0
LINE
  5
1265
330
A
100
AcDbEntity
  8
06
100
AcDbLine
 10
325.906496074241
 20
309.9964000000001
 30
0.0
 11
329.4064960742411
 21
309.9964000000001
 31
0.0
  0
LINE
  5
1268
330
A
100
AcDbEntity
  8
06
100
AcDbLine
 10
329.4064960742408
 20
313.9964000000001
 30
0.0
 11
325.906496074241
 21
313.9964000000001
 31
0.0
  0
LINE
  5
1269
330
A
100
AcDbEntity
  8
06
100
AcDbLine
 10
328.4064960742409
 20
309.4964000000001
 30
0.0
 11
325.906496074241
 21
309.4964000000001
 31
0.0
  0
ARC
  5
126C
330
A
100
AcDbEntity
  8
06
100
AcDbCircle
 10
322.9064960742408
 20
311.4964
 30
0.0
 40
1.0
100
AcDbArc
 50
270.0
 51
0.0
  0
ARC
  5
126F
330
A
100
AcDbEntity
  8
06
100
AcDbCircle
 10
321.368483299398
 20
312.7463999999999
 30
0.0
 40
0.75
100
AcDbArc
 50
186.7889745744395
 51
277.6100149547264
  0
ARC
  5
1270
330
A
100
AcDbEntity
  8
06
100
AcDbCircle
 10
321.5671277694478
 20
312.7463999999999
 30
0.0
 40
0.75
100
AcDbArc
 50
270.0
 51
350.537677791976
  0
LINE
  5
1271
330
A
100
AcDbEntity
  8
06
100
AcDbLine
 10
321.5671277694478
 20
311.9963999999999
 30
0.0
 11
321.368483299398
 21
311.9963999999999
 31
0.0
  0
LINE
  5
1272
330
A
100
AcDbEntity
  8
06
100
AcDbLine
 10
319.2945096924578
 20
310.4964000000001
 30
0.0
 11
322.9064960742408
 21
310.4964000000001
 31
0.0
  0
LINE
  5
1273
330
A
100
AcDbEntity
  8
06
100
AcDbLine
 10
325.9064960742412
 20
313.9964000000001
 30
0.0
 11
325.906496074241
 21
309.9964000000001
 31
0.0
  0
ARC
  5
1278
330
A
100
AcDbEntity
  8
06
100
AcDbCircle
 10
325.906496074241
 20
313.4964
 30
0.0
 40
0.5
100
AcDbArc
 50
90.0
 51
180.0
  0
ARC
  5
1279
330
A
100
AcDbEntity
  8
06
100
AcDbCircle
 10
325.906496074241
 20
309.9964000000003
 30
0.0
 40
0.5
100
AcDbArc
 50
180.0
 51
270.0
  0
LINE
  5
127A
330
A
100
AcDbEntity
  8
06
100
AcDbLine
 10
325.4064960742408
 20
313.4964
 30
0.0
 11
325.4064960742408
 21
309.9964000000003
 31
0.0
  0
LINE
  5
127B
330
A
100
AcDbEntity
  8
06
100
AcDbLine
 10
329.4064960742411
 20
309.9964000000001
 30
0.0
 11
329.4064960742411
 21
307.4964000000001
 31
0.0
  0
LINE
  5
127D
330
A
100
AcDbEntity
  8
06
100
AcDbLine
 10
328.4064960742409
 20
307.4964000000001
 30
0.0
 11
328.4064960742409
 21
309.4964
 31
0.0
  0
LINE
  5
127E
330
A
100
AcDbEntity
  8
06
100
AcDbLine
 10
325.906496074241
 20
322.9964000000001
 30
0.0
 11
329.4064960742411
 21
322.9964000000001
 31
0.0
  0
LINE
  5
1282
330
A
100
AcDbEntity
  8
06
100
AcDbLine
 10
328.9524730857351
 20
316.4964000000001
 30
0.0
 11
323.3760366299267
 21
316.4964000000001
 31
0.0
  0
LINE
  5
1283
330
A
100
AcDbEntity
  8
06
100
AcDbLine
 10
325.9524730857353
 20
318.9964000000001
 30
0.0
 11
329.4524730857353
 21
318.9964000000001
 31
0.0
  0
LINE
  5
1284
330
A
100
AcDbEntity
  8
06
100
AcDbLine
 10
328.4524730857353
 20
323.4964000000001
 30
0.0
 11
325.9524730857353
 21
323.4964000000001
 31
0.0
  0
ARC
  5
128B
330
A
100
AcDbEntity
  8
06
100
AcDbCircle
 10
323.3760366299267
 20
315.9964000000001
 30
0.0
 40
0.5
100
AcDbArc
 50
90.0
 51
170.5376777919759
  0
LINE
  5
128D
330
A
100
AcDbEntity
  8
06
100
AcDbLine
 10
325.906496074241
 20
320.4964000000001
 30
0.0
 11
325.906496074241
 21
322.9964000000001
 31
0.0
  0
LINE
  5
128E
330
A
100
AcDbEntity
  8
06
100
AcDbLine
 10
325.906496074241
 20
321.9964000000001
 30
0.0
 11
325.906496074241
 21
320.4964000000001
 31
0.0
  0
ARC
  5
1290
330
A
100
AcDbEntity
  8
06
100
AcDbCircle
 10
325.9524730857353
 20
319.4964000000001
 30
0.0
 40
0.5
100
AcDbArc
 50
180.0
 51
270.0
  0
ARC
  5
1291
330
A
100
AcDbEntity
  8
06
100
AcDbCircle
 10
325.9524730857353
 20
322.9964000000001
 30
0.0
 40
0.5
100
AcDbArc
 50
90.0
 51
180.0
  0
LINE
  5
1292
330
A
100
AcDbEntity
  8
06
100
AcDbLine
 10
325.4524730857353
 20
319.4964000000001
 30
0.0
 11
325.4524730857353
 21
322.9964000000001
 31
0.0
  0
ARC
  5
1293
330
A
100
AcDbEntity
  8
06
100
AcDbCircle
 10
324.4064960742408
 20
315.9964000000001
 30
0.0
 40
0.5
100
AcDbArc
 50
90.0
 51
180.0
  0
LINE
  5
1294
330
A
100
AcDbEntity
  8
06
100
AcDbLine
 10
329.4064960742411
 20
322.9964000000001
 30
0.0
 11
329.4064960742411
 21
325.4964000000001
 31
0.0
  0
ARC
  5
129A
330
A
100
AcDbEntity
  8
06
100
AcDbCircle
 10
328.9524730857351
 20
316.9964000000001
 30
0.0
 40
0.5
100
AcDbArc
 50
270.0
 51
0.0
  0
LINE
  5
129B
330
A
100
AcDbEntity
  8
06
100
AcDbLine
 10
329.4524730857353
 20
318.9964000000001
 30
0.0
 11
329.4524730857351
 21
316.9964000000001
 31
0.0
  0
LINE
  5
129C
330
A
100
AcDbEntity
  8
06
100
AcDbLine
 10
328.4524730857353
 20
323.4964000000001
 30
0.0
 11
328.4524730857351
 21
325.4964000000001
 31
0.0
  0
ARC
  5
129D
330
A
100
AcDbEntity
  8
06
100
AcDbCircle
 10
328.9064960742412
 20
315.9964000000001
 30
0.0
 40
0.5
100
AcDbArc
 50
359.9999999999967
 51
90.0
  0
LINE
  5
129E
330
A
100
AcDbEntity
  8
06
100
AcDbLine
 10
305.9064960742412
 20
208.4963149384889
 30
0.0
 11
302.9064960742412
 21
208.4963149384889
 31
0.0
  0
LINE
  5
129F
330
A
100
AcDbEntity
  8
06
100
AcDbLine
 10
302.9064960742412
 20
213.496314938489
 30
0.0
 11
305.9064960742412
 21
213.496314938489
 31
0.0
  0
LINE
  5
12A3
330
A
100
AcDbEntity
  8
06
100
AcDbLine
 10
302.9064960742412
 20
213.246314938489
 30
0.0
 11
305.4064960742412
 21
213.246314938489
 31
0.0
  0
LINE
  5
12A4
330
A
100
AcDbEntity
  8
06
100
AcDbLine
 10
302.9064960742412
 20
208.746314938489
 30
0.0
 11
305.4064960742412
 21
208.746314938489
 31
0.0
  0
ARC
  5
12A5
330
A
100
AcDbEntity
  8
06
100
AcDbCircle
 10
297.5266439106062
 20
203.5206866798552
 30
0.0
 40
7.5
100
AcDbArc
 50
44.16686885306797
 51
71.49945832719506
  0
LINE
  5
12A6
330
A
100
AcDbEntity
  8
06
100
AcDbLine
 10
299.9064960742412
 20
210.0080915951592
 30
0.0
 11
298.2573585776731
 21
210.5234470628368
 31
0.0
  0
LINE
  5
12A7
330
A
100
AcDbEntity
  8
06
100
AcDbLine
 10
299.9064960742412
 20
212.0080915951592
 30
0.0
 11
299.9064960742412
 21
210.0080915951592
 31
0.0
  0
LINE
  5
12A9
330
A
100
AcDbEntity
  8
06
100
AcDbLine
 10
299.9064960742412
 20
212.0080915951592
 30
0.0
 11
298.2573585776731
 21
211.4927361274818
 31
0.0
  0
ARC
  5
12AC
330
A
100
AcDbEntity
  8
06
100
AcDbCircle
 10
298.4064960742411
 20
211.0006870518544
 30
0.0
 40
0.5
100
AcDbArc
 50
179.9999999999771
 51
252.6459753637336
  0
ARC
  5
12AD
330
A
100
AcDbEntity
  8
06
100
AcDbCircle
 10
298.4064960742411
 20
211.0154961384643
 30
0.0
 40
0.5
100
AcDbArc
 50
107.3540246362632
 51
179.9999999999771
  0
LINE
  5
12AE
330
A
100
AcDbEntity
  8
06
100
AcDbLine
 10
297.9064960742412
 20
211.0006870518545
 30
0.0
 11
297.9064960742412
 21
211.0154961384644
 31
0.0
  0
ARC
  5
12B0
330
A
100
AcDbEntity
  8
06
100
AcDbCircle
 10
297.5607350116133
 20
218.5068128865252
 30
0.0
 40
7.5
100
AcDbArc
 50
288.2261310017247
 51
315.460587600051
  0
LINE
  5
12B1
330
A
100
AcDbEntity
  8
06
100
AcDbLine
 10
308.4064960742411
 20
214.996314938489
 30
0.0
 11
308.4064960742411
 21
206.996314938489
 31
0.0
  0
LINE
  5
12B4
330
A
100
AcDbEntity
  8
06
100
AcDbLine
 10
308.2064960742412
 20
214.4963149384889
 30
0.0
 11
308.2064960742412
 21
207.496314938489
 31
0.0
  0
LINE
  5
12B5
330
A
100
AcDbEntity
  8
06
100
AcDbLine
 10
308.4064960742411
 20
206.996314938489
 30
0.0
 11
305.9064960742412
 21
206.996314938489
 31
0.0
  0
LINE
  5
12B7
330
A
100
AcDbEntity
  8
06
100
AcDbLine
 10
308.2064960742412
 20
207.496314938489
 30
0.0
 11
305.9064960742412
 21
207.496314938489
 31
0.0
  0
LINE
  5
12B8
330
A
100
AcDbEntity
  8
06
100
AcDbLine
 10
305.9064960742412
 20
206.996314938489
 30
0.0
 11
305.9064960742412
 21
208.4963149384889
 31
0.0
  0
ARC
  5
12BA
330
A
100
AcDbEntity
  8
06
100
AcDbCircle
 10
305.4064960742412
 20
208.2463149384889
 30
0.0
 40
0.5
100
AcDbArc
 50
359.9999999999967
 51
90.0
  0
LINE
  5
12BB
330
A
100
AcDbEntity
  8
06
100
AcDbLine
 10
305.9064960742412
 20
207.496314938489
 30
0.0
 11
305.9064960742412
 21
208.3111366886651
 31
0.0
  0
LINE
  5
12BD
330
A
100
AcDbEntity
  8
06
100
AcDbLine
 10
305.9064960742412
 20
214.996314938489
 30
0.0
 11
308.4064960742411
 21
214.996314938489
 31
0.0
  0
LINE
  5
12BE
330
A
100
AcDbEntity
  8
06
100
AcDbLine
 10
305.9064960742412
 20
214.4963149384889
 30
0.0
 11
308.2064960742412
 21
214.4963149384889
 31
0.0
  0
LINE
  5
12BF
330
A
100
AcDbEntity
  8
06
100
AcDbLine
 10
305.9064960742412
 20
213.496314938489
 30
0.0
 11
305.9064960742412
 21
214.996314938489
 31
0.0
  0
ARC
  5
12C0
330
A
100
AcDbEntity
  8
06
100
AcDbCircle
 10
305.4064960742412
 20
213.746314938489
 30
0.0
 40
0.5
100
AcDbArc
 50
270.0
 51
0.0000000000032569
  0
LINE
  5
12C1
330
A
100
AcDbEntity
  8
06
100
AcDbLine
 10
305.9064960742412
 20
214.4963149384889
 30
0.0
 11
305.9064960742412
 21
213.746314938489
 31
0.0
  0
LINE
  5
12C2
330
A
100
AcDbEntity
  8
CHUSIN
 48
0.3
100
AcDbLine
 10
295.0113694097181
 20
210.9963149384889
 30
0.0
 11
309.4558138541624
 21
210.996314938489
 31
0.0
  0
LINE
  5
12CC
330
A
100
AcDbEntity
  8
CHUSIN
 48
0.3
100
AcDbLine
 10
295.0113694097177
 20
421.9964850615111
 30
0.0
 11
309.455813854162
 21
421.9964850615114
 31
0.0
  0
LINE
  5
12CD
330
A
100
AcDbEntity
  8
06
100
AcDbLine
 10
305.9064960742408
 20
425.4964850615114
 30
0.0
 11
308.2064960742408
 21
425.4964850615114
 31
0.0
  0
LINE
  5
12CE
330
A
100
AcDbEntity
  8
06
100
AcDbLine
 10
305.9064960742408
 20
425.9964850615114
 30
0.0
 11
308.4064960742407
 21
425.9964850615114
 31
0.0
  0
LINE
  5
12CF
330
A
100
AcDbEntity
  8
06
100
AcDbLine
 10
308.2064960742408
 20
418.4964850615114
 30
0.0
 11
305.9064960742408
 21
418.4964850615114
 31
0.0
  0
LINE
  5
12D1
330
A
100
AcDbEntity
  8
06
100
AcDbLine
 10
308.4064960742407
 20
417.9964850615114
 30
0.0
 11
305.9064960742408
 21
417.9964850615114
 31
0.0
  0
LINE
  5
12D6
330
A
100
AcDbEntity
  8
06
100
AcDbLine
 10
305.9064960742408
 20
418.4964850615114
 30
0.0
 11
305.9064960742408
 21
419.3113068116876
 31
0.0
  0
LINE
  5
12D8
330
A
100
AcDbEntity
  8
06
100
AcDbLine
 10
305.9064960742408
 20
417.9964850615114
 30
0.0
 11
305.9064960742408
 21
419.4964850615114
 31
0.0
  0
ARC
  5
12D9
330
A
100
AcDbEntity
  8
06
100
AcDbCircle
 10
297.5607350116129
 20
429.5069830095476
 30
0.0
 40
7.5
100
AcDbArc
 50
288.2261310017247
 51
315.460587600051
  0
ARC
  5
12DB
330
A
100
AcDbEntity
  8
06
100
AcDbCircle
 10
297.5266439106058
 20
414.5208568028776
 30
0.0
 40
7.5
100
AcDbArc
 50
44.16686885306797
 51
71.49945832719506
  0
LINE
  5
12DD
330
A
100
AcDbEntity
  8
06
100
AcDbLine
 10
297.9064960742407
 20
422.000857174877
 30
0.0
 11
297.9064960742407
 21
422.0156662614868
 31
0.0
  0
ARC
  5
12DE
330
A
100
AcDbEntity
  8
06
100
AcDbCircle
 10
298.4064960742406
 20
422.0156662614867
 30
0.0
 40
0.5
100
AcDbArc
 50
107.3540246362632
 51
179.9999999999771
  0
ARC
  5
12DF
330
A
100
AcDbEntity
  8
06
100
AcDbCircle
 10
298.4064960742406
 20
422.0008571748768
 30
0.0
 40
0.5
100
AcDbArc
 50
179.9999999999771
 51
252.6459753637336
  0
LINE
  5
12E2
330
A
100
AcDbEntity
  8
06
100
AcDbLine
 10
299.9064960742408
 20
423.0082617181816
 30
0.0
 11
298.2573585776726
 21
422.4929062505041
 31
0.0
  0
LINE
  5
12E4
330
A
100
AcDbEntity
  8
06
100
AcDbLine
 10
299.9064960742408
 20
423.0082617181816
 30
0.0
 11
299.9064960742408
 21
421.0082617181815
 31
0.0
  0
LINE
  5
12E5
330
A
100
AcDbEntity
  8
06
100
AcDbLine
 10
299.9064960742408
 20
421.0082617181815
 30
0.0
 11
298.2573585776726
 21
421.5236171858593
 31
0.0
  0
LINE
  5
12E6
330
A
100
AcDbEntity
  8
06
100
AcDbLine
 10
305.9064960742408
 20
425.4964850615114
 30
0.0
 11
305.9064960742408
 21
424.7464850615114
 31
0.0
  0
ARC
  5
12E7
330
A
100
AcDbEntity
  8
06
100
AcDbCircle
 10
305.4064960742408
 20
424.7464850615114
 30
0.0
 40
0.5
100
AcDbArc
 50
270.0
 51
0.0000000000032569
  0
LINE
  5
12E8
330
A
100
AcDbEntity
  8
06
100
AcDbLine
 10
305.9064960742408
 20
424.4964850615112
 30
0.0
 11
305.9064960742408
 21
425.9964850615114
 31
0.0
  0
ARC
  5
12E9
330
A
100
AcDbEntity
  8
06
100
AcDbCircle
 10
305.4064960742408
 20
419.2464850615114
 30
0.0
 40
0.5
100
AcDbArc
 50
359.9999999999967
 51
90.0
  0
LINE
  5
12EA
330
A
100
AcDbEntity
  8
06
100
AcDbLine
 10
302.9064960742408
 20
419.7464850615114
 30
0.0
 11
305.4064960742408
 21
419.7464850615114
 31
0.0
  0
LINE
  5
12EB
330
A
100
AcDbEntity
  8
06
100
AcDbLine
 10
302.9064960742408
 20
424.2464850615114
 30
0.0
 11
305.4064960742408
 21
424.2464850615114
 31
0.0
  0
LINE
  5
12EC
330
A
100
AcDbEntity
  8
06
100
AcDbLine
 10
302.9064960742408
 20
424.4964850615112
 30
0.0
 11
305.9064960742408
 21
424.4964850615112
 31
0.0
  0
LINE
  5
12ED
330
A
100
AcDbEntity
  8
06
100
AcDbLine
 10
305.9064960742408
 20
419.4964850615114
 30
0.0
 11
302.9064960742408
 21
419.4964850615114
 31
0.0
  0
LINE
  5
12EF
330
A
100
AcDbEntity
  8
06
100
AcDbLine
 10
308.2064960742408
 20
425.4964850615114
 30
0.0
 11
308.2064960742408
 21
418.4964850615114
 31
0.0
  0
LINE
  5
12F0
330
A
100
AcDbEntity
  8
06
100
AcDbLine
 10
308.4064960742407
 20
425.9964850615114
 30
0.0
 11
308.4064960742407
 21
417.9964850615114
 31
0.0
  0
LINE
  5
1303
330
A
100
AcDbEntity
  8
03
100
AcDbLine
 10
272.4064960742409
 20
102.4963149384884
 30
0.0
 11
270.8064960742408
 21
102.4963149384884
 31
0.0
  0
LINE
  5
1304
330
A
100
AcDbEntity
  8
KAKURE
100
AcDbLine
 10
272.4064960742409
 20
102.4963149384884
 30
0.0
 11
272.4064960742409
 21
76.99631493848858
 31
0.0
  0
LINE
  5
1305
330
A
100
AcDbEntity
  8
03
100
AcDbLine
 10
270.8064960742408
 20
102.4963149384884
 30
0.0
 11
270.8064960742408
 21
77.0963149384886
 31
0.0
  0
ARC
  5
1306
330
A
100
AcDbEntity
  8
03
100
AcDbCircle
 10
270.9064960742409
 20
76.99631493848858
 30
0.0
 40
1.5
100
AcDbArc
 50
270.0
 51
0.0
  0
LINE
  5
1309
330
A
100
AcDbEntity
  8
KAKURE
100
AcDbLine
 10
351.8064960742409
 20
77.0963149384886
 30
0.0
 11
274.0064960742409
 21
77.0963149384886
 31
0.0
  0
LINE
  5
130A
330
A
100
AcDbEntity
  8
03
100
AcDbLine
 10
270.8064960742408
 20
77.0963149384886
 30
0.0
 11
238.0064960742409
 21
77.0963149384886
 31
0.0
  0
LINE
  5
130B
330
A
100
AcDbEntity
  8
KAKURE
100
AcDbLine
 10
274.0064960742409
 20
87.49631493848857
 30
0.0
 11
272.4064960742409
 21
87.49631493848857
 31
0.0
  0
LINE
  5
130C
330
A
100
AcDbEntity
  8
KAKURE
100
AcDbLine
 10
274.0064960742409
 20
87.49631493848857
 30
0.0
 11
274.0064960742409
 21
77.0963149384886
 31
0.0
  0
ARC
  5
130D
330
A
100
AcDbEntity
  8
KAKURE
100
AcDbCircle
 10
273.9064960742409
 20
76.99631493848858
 30
0.0
 40
1.5
100
AcDbArc
 50
180.0
 51
270.0
  0
LINE
  5
130E
330
A
100
AcDbEntity
  8
KAKURE
100
AcDbLine
 10
273.9064960742409
 20
75.49631493848858
 30
0.0
 11
351.9064960742408
 21
75.49631493848858
 31
0.0
  0
LINE
  5
130F
330
A
100
AcDbEntity
  8
03
100
AcDbLine
 10
237.9064960742407
 20
557.4964850615113
 30
0.0
 11
270.9064960742409
 21
557.4964850615113
 31
0.0
  0
LINE
  5
1310
330
A
100
AcDbEntity
  8
03
100
AcDbLine
 10
270.8064960742408
 20
555.8964850615113
 30
0.0
 11
238.0064960742409
 21
555.8964850615113
 31
0.0
  0
LINE
  5
1311
330
A
100
AcDbEntity
  8
03
100
AcDbLine
 10
238.0064960742408
 20
530.4964850615114
 30
0.0
 11
238.0064960742409
 21
555.8964850615113
 31
0.0
  0
LINE
  5
1312
330
A
100
AcDbEntity
  8
03
100
AcDbLine
 10
236.4064960742408
 20
530.4964850615114
 30
0.0
 11
236.4064960742408
 21
555.9964850615114
 31
0.0
  0
ARC
  5
1313
330
A
100
AcDbEntity
  8
03
100
AcDbCircle
 10
237.9064960742407
 20
555.9964850615114
 30
0.0
 40
1.5
100
AcDbArc
 50
90.00000000000005
 51
180.0
  0
LINE
  5
1314
330
A
100
AcDbEntity
  8
03
100
AcDbLine
 10
238.0064960742408
 20
530.4964850615114
 30
0.0
 11
236.4064960742408
 21
530.4964850615114
 31
0.0
  0
LINE
  5
1315
330
A
100
AcDbEntity
  8
KAKURE
100
AcDbLine
 10
273.9064960742409
 20
557.4964850615113
 30
0.0
 11
351.9064960742408
 21
557.4964850615113
 31
0.0
  0
LINE
  5
1316
330
A
100
AcDbEntity
  8
KAKURE
100
AcDbLine
 10
351.8064960742409
 20
555.8964850615113
 30
0.0
 11
274.0064960742409
 21
555.8964850615113
 31
0.0
  0
LINE
  5
1317
330
A
100
AcDbEntity
  8
KAKURE
100
AcDbLine
 10
272.4064960742409
 20
530.4964850615114
 30
0.0
 11
272.4064960742409
 21
555.9964850615114
 31
0.0
  0
LINE
  5
1318
330
A
100
AcDbEntity
  8
03
100
AcDbLine
 10
270.8064960742408
 20
530.4964850615114
 30
0.0
 11
270.8064960742408
 21
555.8964850615113
 31
0.0
  0
LINE
  5
1319
330
A
100
AcDbEntity
  8
KAKURE
100
AcDbLine
 10
274.0064960742409
 20
545.4964850615112
 30
0.0
 11
274.0064960742409
 21
555.8964850615113
 31
0.0
  0
ARC
  5
131A
330
A
100
AcDbEntity
  8
KAKURE
100
AcDbCircle
 10
273.9064960742409
 20
555.9964850615114
 30
0.0
 40
1.5
100
AcDbArc
 50
90.00000000000005
 51
180.0
  0
ARC
  5
131B
330
A
100
AcDbEntity
  8
03
100
AcDbCircle
 10
270.9064960742409
 20
555.9964850615114
 30
0.0
 40
1.5
100
AcDbArc
 50
0.0
 51
90.00000000000005
  0
LINE
  5
131C
330
A
100
AcDbEntity
  8
KAKURE
100
AcDbLine
 10
274.0064960742409
 20
545.4964850615112
 30
0.0
 11
272.4064960742409
 21
545.4964850615112
 31
0.0
  0
LINE
  5
131D
330
A
100
AcDbEntity
  8
03
100
AcDbLine
 10
272.4064960742409
 20
530.4964850615114
 30
0.0
 11
270.8064960742408
 21
530.4964850615114
 31
0.0
  0
LINE
  5
131E
330
A
100
AcDbEntity
  8
KAKURE
100
AcDbLine
 10
353.4064960742408
 20
530.4964850615114
 30
0.0
 11
351.8064960742409
 21
530.4964850615114
 31
0.0
  0
LINE
  5
131F
330
A
100
AcDbEntity
  8
KAKURE
100
AcDbLine
 10
351.8064960742409
 20
555.8964850615113
 30
0.0
 11
351.8064960742409
 21
530.4964850615114
 31
0.0
  0
LINE
  5
1320
330
A
100
AcDbEntity
  8
KAKURE
100
AcDbLine
 10
353.4064960742408
 20
555.9964850615114
 30
0.0
 11
353.4064960742408
 21
530.4964850615114
 31
0.0
  0
ARC
  5
1321
330
A
100
AcDbEntity
  8
KAKURE
100
AcDbCircle
 10
351.9064960742408
 20
555.9964850615114
 30
0.0
 40
1.5
100
AcDbArc
 50
0.0
 51
90.00000000000005
  0
LINE
  5
1521
330
A
100
AcDbEntity
  8
CHUSIN
 48
0.3
100
AcDbLine
 10
295.0113694097176
 20
421.9964850615114
 30
0.0
 11
309.455813854162
 21
421.9964850615114
 31
0.0
  0
LINE
  5
170C
330
A
100
AcDbEntity
  8
CHUSIN
 48
0.3
100
AcDbLine
 10
295.0113694097181
 20
210.9963149384891
 30
0.0
 11
309.4558138541624
 21
210.996314938489
 31
0.0
  0
LINE
  5
18F4
330
A
100
AcDbEntity
  8
03
100
AcDbLine
 10
281.9064960742408
 20
110.4963149384885
 30
0.0
 11
281.9064960742408
 21
115.4963149384887
 31
0.0
  0
LINE
  5
18FE
330
A
100
AcDbEntity
  8
03
100
AcDbLine
 10
281.9064960742408
 20
115.4963149384885
 30
0.0
 11
281.9064960742408
 21
110.4963149384885
 31
0.0
  0
LINE
  5
1987
330
A
100
AcDbEntity
  8
06
100
AcDbLine
 10
298.4064960742411
 20
210.4768415951591
 30
0.0
 11
298.4064960742411
 21
211.5393415951588
 31
0.0
  0
LINE
  5
198D
330
A
100
AcDbEntity
  8
06
100
AcDbLine
 10
298.4064960742406
 20
421.4652350615113
 30
0.0
 11
298.4064960742407
 21
422.5277350615108
 31
0.0
  0
MTEXT
  5
1A0C
330
A
100
AcDbEntity
  8
SUNPOU
100
AcDbMText
 10
343.046950612159
 20
301.4964000000001
 30
0.0
 40
5.0
 41
0.0
 71
     5
 72
     1
  1
\A1;25
  7
SUNPOU
 11
0.0000000000000001
 21
1.0
 31
0.0
1001
ACAD
1000
MTEXTBEGIN
1070
    73
1070
     1
1070
    44
1040
1.0
1070
    74
1070
     0
1000
MTEXTEND
1000
MTEXTBEGIN
1070
    73
1070
     1
1070
    44
1040
1.0
1070
    74
1070
     0
1000
MTEXTEND
  0
MTEXT
  5
1A0D
330
A
100
AcDbEntity
  8
SUNPOU
100
AcDbMText
 10
343.046950612159
 20
331.4964000000001
 30
0.0
 40
5.0
 41
0.0
 71
     5
 72
     1
  1
\A1;25
  7
SUNPOU
 11
0.0000000000000001
 21
1.0
 31
0.0
1001
ACAD
1000
MTEXTBEGIN
1070
    73
1070
     1
1070
    44
1040
1.0
1070
    74
1070
     0
1000
MTEXTEND
1000
MTEXTBEGIN
1070
    73
1070
     1
1070
    44
1040
1.0
1070
    74
1070
     0
1000
MTEXTEND
  0
MTEXT
  5
1A0E
330
A
100
AcDbEntity
  8
SUNPOU
100
AcDbMText
 10
354.982052744334
 20
376.4964425307558
 30
0.0
 40
5.0
 41
0.0
 71
     5
 72
     1
  1
\A1;DW
  7
SUNPOU
 11
0.0000000000000001
 21
1.0
 31
0.0
1001
ACAD
1000
MTEXTBEGIN
1070
    73
1070
     1
1070
    44
1040
1.0
1070
    74
1070
     0
1000
MTEXTEND
1000
MTEXTBEGIN
1070
    73
1070
     1
1070
    44
1040
1.0
1070
    74
1070
     0
1000
MTEXTEND
  0
MTEXT
  5
1A0F
330
A
100
AcDbEntity
  8
SUNPOU
100
AcDbMText
 10
354.8076075236126
 20
316.4964000000001
 30
0.0
 40
5.0
 41
0.0
 71
     5
 72
     1
  1
\A1;5
  7
SUNPOU
 11
0.0000000000000001
 21
1.0
 31
0.0
1001
ACAD
1000
MTEXTBEGIN
1070
    73
1070
     1
1070
    44
1040
1.0
1070
    74
1070
     0
1000
MTEXTEND
1000
MTEXTBEGIN
1070
    73
1070
     1
1070
    44
1040
1.0
1070
    74
1070
     0
1000
MTEXTEND
  0
MTEXT
  5
1A10
330
A
100
AcDbEntity
  8
SUNPOU
100
AcDbMText
 10
354.982052744334
 20
256.4963574692447
 30
0.0
 40
5.0
 41
0.0
 71
     5
 72
     1
  1
\A1;DW
  7
SUNPOU
 11
0.0000000000000001
 21
1.0
 31
0.0
1001
ACAD
1000
MTEXTBEGIN
1070
    73
1070
     1
1070
    44
1040
1.0
1070
    74
1070
     0
1000
MTEXTEND
1000
MTEXTBEGIN
1070
    73
1070
     1
1070
    44
1040
1.0
1070
    74
1070
     0
1000
MTEXTEND
  0
LINE
  5
1A18
330
A
100
AcDbEntity
  8
06
100
AcDbLine
 10
318.9064960742408
 20
326.9964000000001
 30
0.0
 11
318.9064960742408
 21
330.4964000000001
 31
0.0
  0
LINE
  5
1A26
330
A
100
AcDbEntity
  8
06
100
AcDbLine
 10
318.9064960742408
 20
330.4964000000001
 30
0.0
 11
318.9064960742408
 21
326.9964000000001
 31
0.0
  0
LINE
  5
1A27
330
A
100
AcDbEntity
  8
06
100
AcDbLine
 10
309.4524730857353
 20
325.4964000000001
 30
0.0
 11
328.4524730857353
 21
325.4964000000001
 31
0.0
  0
ARC
  5
1A2D
330
A
100
AcDbEntity
  8
06
100
AcDbCircle
 10
325.952473085735
 20
319.4964000000001
 30
0.0
 40
0.5
100
AcDbArc
 50
264.7239693993595
 51
270.000000000065
  0
LINE
  5
1A2E
330
A
100
AcDbEntity
  8
06
100
AcDbLine
 10
325.9524730857356
 20
318.9964000000001
 30
0.0
 11
329.4524730857353
 21
318.9964000000001
 31
0.0
  0
ARC
  5
1C34
330
A
100
AcDbEntity
  8
06
100
AcDbCircle
 10
311.9524730857353
 20
322.9964000000001
 30
0.0
 40
0.5
100
AcDbArc
 50
0.0
 51
90.0
  0
MTEXT
  5
22A3
330
A
100
AcDbEntity
  8
MOJI
100
AcDbMText
 10
174.2127296075954
 20
315.4222054680523
 30
0.0
 40
5.0
 41
0.0
 71
     5
 72
     1
  1
F.L
  7
0_8
 11
0.0000000000000001
 21
1.0
 31
0.0
1001
ACAD
1000
MTEXTBEGIN
1070
    73
1070
     1
1070
    44
1040
1.0
1070
    74
1070
     0
1000
MTEXTEND
1000
MTEXTBEGIN
1070
    73
1070
     1
1070
    44
1040
1.0
1070
    74
1070
     0
1000
MTEXTEND
  0
MTEXT
  5
22A4
330
A
100
AcDbEntity
  8
MOJI
100
AcDbMText
 10
174.2127296075954
 20
518.0487830402976
 30
0.0
 40
5.0
 41
0.0
 71
     5
 72
     1
  1
F.L
  7
0_8
 11
0.0000000000000001
 21
1.0
 31
0.0
1001
ACAD
1000
MTEXTBEGIN
1070
    73
1070
     1
1070
    44
1040
1.0
1070
    74
1070
     0
1000
MTEXTEND
1000
MTEXTBEGIN
1070
    73
1070
     1
1070
    44
1040
1.0
1070
    74
1070
     0
1000
MTEXTEND
  0
MTEXT
  5
22A5
330
A
100
AcDbEntity
  8
MOJI
100
AcDbMText
 10
169.3265204718905
 20
492.797392041062
 30
0.0
 40
5.0
 41
0.0
 71
     5
 72
     1
  1
FIX
  7
0_8
 11
0.0000000000000001
 21
1.0
 31
0.0
1001
ACAD
1000
MTEXTBEGIN
1070
    73
1070
     1
1070
    44
1040
1.0
1070
    74
1070
     0
1000
MTEXTEND
1000
MTEXTBEGIN
1070
    73
1070
     1
1070
    44
1040
1.0
1070
    74
1070
     0
1000
MTEXTEND
  0
MTEXT
  5
22A6
330
A
100
AcDbEntity
  8
MOJI
100
AcDbMText
 10
169.3265204718904
 20
288.4861588333913
 30
0.0
 40
5.0
 41
0.0
 71
     5
 72
     1
  1
FIX
  7
0_8
 11
0.0000000000000001
 21
1.0
 31
0.0
1001
ACAD
1000
MTEXTBEGIN
1070
    73
1070
     1
1070
    44
1040
1.0
1070
    74
1070
     0
1000
MTEXTEND
1000
MTEXTBEGIN
1070
    73
1070
     1
1070
    44
1040
1.0
1070
    74
1070
     0
1000
MTEXTEND
  0
MTEXT
  5
22A7
330
A
100
AcDbEntity
  8
MOJI
100
AcDbMText
 10
169.3265204718904
 20
106.7075939934833
 30
0.0
 40
5.0
 41
0.0
 71
     5
 72
     1
  1
FIX
  7
0_8
 11
0.0000000000000001
 21
1.0
 31
0.0
1001
ACAD
1000
MTEXTBEGIN
1070
    73
1070
     1
1070
    44
1040
1.0
1070
    74
1070
     0
1000
MTEXTEND
1000
MTEXTBEGIN
1070
    73
1070
     1
1070
    44
1040
1.0
1070
    74
1070
     0
1000
MTEXTEND
  0
LINE
  5
22A9
330
A
100
AcDbEntity
  8
03
100
AcDbLine
 10
276.9064960742407
 20
505.4964850615113
 30
0.0
 11
276.9064960742407
 21
503.9964850615112
 31
0.0
  0
LINE
  5
22AA
330
A
100
AcDbEntity
  8
03
100
AcDbLine
 10
286.9064960742406
 20
505.4964850615113
 30
0.0
 11
286.9064960742406
 21
503.9964850615112
 31
0.0
  0
MTEXT
  5
234F
330
A
100
AcDbEntity
  8
MOJI
100
AcDbMText
 10
310.999999999997
 20
29.00000000000005
 30
0.0
 40
7.0
 41
50.0
 71
     5
 72
     1
  1
図番４－６
  7
0_80
1001
ACAD
1000
MTEXTBEGIN
1070
    73
1070
     1
1070
    44
1040
1.0
1070
    74
1070
     0
1000
MTEXTEND
1000
MTEXTBEGIN
1070
    73
1070
     1
1070
    44
1040
1.0
1070
    74
1070
     0
1000
MTEXTEND
  0
MTEXT
  5
2350
330
A
100
AcDbEntity
  8
MOJI
100
AcDbMText
 10
360.999999999997
 20
29.00000000000005
 30
0.0
 40
7.0
 41
49.99999999999994
 71
     5
 72
     1
  1
姿図　　　　\Pよこ断面図　
  7
0_80
1001
ACAD
1000
MTEXTBEGIN
1070
    73
1070
     1
1070
    44
1040
1.0
1070
    74
1070
     0
1000
MTEXTEND
1000
MTEXTBEGIN
1070
    73
1070
     1
1070
    44
1040
1.0
1070
    74
1070
     0
1000
MTEXTEND
  0
MTEXT
  5
2351
330
A
100
AcDbEntity
  8
MOJI
100
AcDbMText
 10
255.9999999999998
 20
29.00000000000005
 30
0.0
 40
7.0
 41
60.0
 71
     5
 72
     1
  1
片引き又は両引き
  7
0_80
1001
ACAD
1000
MTEXTBEGIN
1070
    73
1070
     1
1070
    44
1040
1.0
1070
    74
1070
     0
1000
MTEXTEND
1000
MTEXTBEGIN
1070
    73
1070
     1
1070
    44
1040
1.0
1070
    74
1070
     0
1000
MTEXTEND
  0
POLYLINE
  5
2352
330
A
100
AcDbEntity
  8
SAISEN
100
AcDb2dPolyline
 66
     1
 10
0.0
 20
0.0
 30
0.0
 70
     1
  0
VERTEX
  5
23BC
330
2352
100
AcDbEntity
  8
SAISEN
100
AcDbVertex
100
AcDb2dVertex
 10
35.99999999999693
 20
17.0
 30
0.0
  0
VERTEX
  5
23BD
330
2352
100
AcDbEntity
  8
SAISEN
100
AcDbVertex
100
AcDb2dVertex
 10
385.9999999999968
 20
17.0
 30
0.0
  0
VERTEX
  5
23BE
330
2352
100
AcDbEntity
  8
SAISEN
100
AcDbVertex
100
AcDb2dVertex
 10
385.9999999999968
 20
41.00000000000017
 30
0.0
  0
VERTEX
  5
23BF
330
2352
100
AcDbEntity
  8
SAISEN
100
AcDbVertex
100
AcDb2dVertex
 10
35.99999999999693
 20
41.00000000000017
 30
0.0
  0
SEQEND
  5
23C0
330
2352
100
AcDbEntity
  8
SAISEN
  0
MTEXT
  5
2353
330
A
100
AcDbEntity
  8
MOJI
100
AcDbMText
 10
90.99999999999694
 20
29.00000000000008
 30
0.0
 40
6.0
 41
110.0
 71
     5
 72
     1
  1
ステンレスサッシ　枠見込120mm\Pドア･Fix共スリムセナージ･ドアＩ型納り
  7
0_8
1001
ACAD
1000
MTEXTBEGIN
1070
    73
1070
     1
1070
    44
1040
1.0
1070
    74
1070
     0
1000
MTEXTEND
1000
MTEXTBEGIN
1070
    73
1070
     1
1070
    44
1040
1.0
1070
    74
1070
     0
1000
MTEXTEND
  0
LINE
  5
2354
330
A
100
AcDbEntity
  8
SAISEN
100
AcDbLine
 10
145.9999999999969
 20
41.00000000000017
 30
0.0
 11
145.9999999999969
 21
17.0
 31
0.0
  0
MTEXT
  5
2355
330
A
100
AcDbEntity
  8
MOJI
100
AcDbMText
 10
185.9999999999969
 20
29.00000000000008
 30
0.0
 40
7.0
 41
80.0
 71
     5
 72
     1
  1
ＳＯＶ－２００ＫＤＣ
  7
0_8
1001
ACAD
1000
MTEXTBEGIN
1070
    73
1070
     1
1070
    44
1040
1.0
1070
    74
1070
     0
1000
MTEXTEND
1000
MTEXTBEGIN
1070
    73
1070
     1
1070
    44
1040
1.0
1070
    74
1070
     0
1000
MTEXTEND
  0
LINE
  5
2356
330
A
100
AcDbEntity
  8
SAISEN
100
AcDbLine
 10
225.9999999999969
 20
41.00000000000017
 30
0.0
 11
225.9999999999969
 21
17.0
 31
0.0
  0
LINE
  5
2357
330
A
100
AcDbEntity
  8
SAISEN
100
AcDbLine
 10
285.9999999999968
 20
41.00000000000017
 30
0.0
 11
285.9999999999968
 21
17.0
 31
0.0
  0
CIRCLE
  5
2360
330
A
100
AcDbEntity
  8
SAISEN
100
AcDbCircle
 10
392.0976380784291
 20
49.5430264122316
 30
0.0
 40
5.0
  0
TEXT
  5
2361
330
A
100
AcDbEntity
  8
MOJI
100
AcDbText
 10
389.0488190392129
 20
45.27151320611589
 30
0.0
 40
8.0
  1
Ｓ
 41
0.8
  7
0_8
 11
389.0488190392129
 21
53.2715132061159
 31
0.0
100
AcDbText
 73
     3
  0
VIEWPORT
  5
8CE
102
{ACAD_XDICTIONARY
360
2392
102
}
330
B
100
AcDbEntity
 67
     1
  8
0
100
AcDbViewport
 10
198.0508299538852
 20
285.1874487354477
 30
0.0
 40
1078.343208727591
 41
628.3535021666721
 68
     1
 69
     1
1001
ACAD
1000
MVIEW
1002
{
1070
    16
1010
0.0
1020
0.0
1030
0.0
1010
0.0
1020
0.0
1030
1.0
1040
0.0
1040
628.3535021666721
1040
198.0508299538852
1040
285.1874487354477
1040
50.0
1040
0.0
1040
0.0
1070
     0
1070
   100
1070
     1
1070
     1
1070
     0
1070
     0
1070
     0
1070
     0
1040
0.0
1040
0.0
1040
0.0
1040
10.0
1040
10.0
1040
10.0
1040
10.0
1070
     0
1002
{
1002
}
1002
}
  0
VIEWPORT
  5
237C
102
{ACAD_XDICTIONARY
360
2398
102
}
330
B
100
AcDbEntity
 67
     1
  8
DEFPOINTS
100
AcDbViewport
 10
198.0508309076477
 20
285.1874477816852
 30
0.0
 40
396.4883172119752
 41
570.409736121624
 68
     2
 69
     2
1001
ACAD
1000
MVIEW
1002
{
1070
    16
1010
0.0
1020
0.0
1030
0.0
1010
0.0
1020
0.0
1030
1.0
1040
0.0
1040
570.409736121624
1040
210.0
1040
297.0
1040
50.0
1040
0.0
1040
0.0
1070
     0
1070
   100
1070
     1
1070
     1
1070
     0
1070
     0
1070
     0
1070
     0
1040
0.0
1040
0.0
1040
0.0
1040
1.0
1040
1.0
1040
0.0
1040
0.0
1070
     0
1002
{
1002
}
1002
}
  0
ENDSEC
  0
SECTION
  2
OBJECTS
  0
DICTIONARY
  5
19
330
0
100
AcDbDictionary
  3
ACAD_COLOR
350
2339
  3
ACAD_GROUP
350
1A
  3
ACAD_LAYOUT
350
73A
  3
ACAD_MATERIAL
350
2338
  3
ACAD_MLINESTYLE
350
1B
  3
ACAD_PLOTSETTINGS
350
73B
  3
ACADDIM
350
8DC
  3
ASE_INDEX_DICTIONARY
350
2363
1001
ACAD
1000
TREAT_AS_HARD
1070
     0
1000
TREAT_AS_HARD
1070
     0
  0
DICTIONARY
  5
1E65
330
2
100
AcDbDictionary
  3
ACAD_LAYERFILTERS
350
1E66
  3
ACAD_LAYERSTATES
350
22B7
1001
ACAD
1000
TREAT_AS_HARD
1070
     1
1000
TREAT_AS_HARD
1070
     1
  0
DICTIONARY
  5
230C
330
A
100
AcDbDictionary
  3
ACAD_LAYOUTSELFREF
350
23A0
1001
ACAD
1000
TREAT_AS_HARD
1070
     1
  0
DICTIONARY
  5
230E
330
B
100
AcDbDictionary
  3
ACAD_LAYOUTSELFREF
350
23A1
1001
ACAD
1000
TREAT_AS_HARD
1070
     1
  0
DICTIONARY
  5
2392
330
8CE
100
AcDbDictionary
  3
ACAD_XREC_ROUNDTRIP
350
2393
1001
ACAD
1000
TREAT_AS_HARD
1070
     1
  0
DICTIONARY
  5
2398
330
237C
100
AcDbDictionary
  3
ACAD_XREC_ROUNDTRIP
350
2399
1001
ACAD
1000
TREAT_AS_HARD
1070
     1
  0
DICTIONARY
  5
2339
102
{ACAD_REACTORS
330
19
102
}
330
19
100
AcDbDictionary
1001
ACAD
1000
TREAT_AS_HARD
1070
     0
  0
DICTIONARY
  5
1A
102
{ACAD_REACTORS
330
19
102
}
330
19
100
AcDbDictionary
1001
ACAD
1000
TREAT_AS_HARD
1070
     0
1000
TREAT_AS_HARD
1070
     0
  0
DICTIONARY
  5
73A
102
{ACAD_REACTORS
330
19
102
}
330
19
100
AcDbDictionary
1001
ACAD
1000
TREAT_AS_HARD
1070
     0
1000
TREAT_AS_HARD
1070
     0
  0
DICTIONARY
  5
2338
102
{ACAD_REACTORS
330
19
102
}
330
19
100
AcDbDictionary
1001
ACAD
1000
TREAT_AS_HARD
1070
     0
  0
DICTIONARY
  5
1B
102
{ACAD_REACTORS
330
19
102
}
330
19
100
AcDbDictionary
  3
STANDARD
350
1C
1001
ACAD
1000
TREAT_AS_HARD
1070
     0
1000
TREAT_AS_HARD
1070
     0
  0
DICTIONARY
  5
73B
102
{ACAD_REACTORS
330
19
102
}
330
19
100
AcDbDictionary
1001
ACAD
1000
TREAT_AS_HARD
1070
     0
1000
TREAT_AS_HARD
1070
     0
  0
XRECORD
  5
8DC
102
{ACAD_REACTORS
330
19
102
}
330
19
100
AcDbXrecord
 90
   990106
  3

 60
     0
 61
     0
 62
     4
 63
     4
 64
     1
 65
     0
 66
     0
 67
     3
 68
     0
 69
     1
 70
     0
 71
     0
 72
     0
 40
0.0
170
     2
340
8E6
  0
DICTIONARY
  5
2363
102
{ACAD_REACTORS
330
19
102
}
330
19
100
AcDbDictionary
  3
ASEBLOCKHIERARCHYINDEXRECORD
350
2365
1001
DCO15
1040
1508666694.296
1001
ACAD
1000
TREAT_AS_HARD
1070
     0
  0
DICTIONARY
  5
1E66
102
{ACAD_REACTORS
330
1E65
102
}
330
1E65
100
AcDbDictionary
  3
HIHYOJI
350
1E67
1001
ACAD
1000
TREAT_AS_HARD
1070
     1
1000
TREAT_AS_HARD
1070
     0
  0
DICTIONARY
  5
22B7
102
{ACAD_REACTORS
330
1E65
102
}
330
1E65
100
AcDbDictionary
1001
ACAD
1000
TREAT_AS_HARD
1070
     0
1000
TREAT_AS_HARD
1070
     0
  0
XRECORD
  5
23A0
102
{ACAD_REACTORS
330
230C
102
}
330
230C
100
AcDbXrecord
340
A
  0
XRECORD
  5
23A1
102
{ACAD_REACTORS
330
230E
102
}
330
230E
100
AcDbXrecord
340
B
  0
XRECORD
  5
2393
102
{ACAD_REACTORS
330
2392
102
}
330
2392
100
AcDbXrecord
102
SHADEPLOT
 70
     0
  0
XRECORD
  5
2399
102
{ACAD_REACTORS
330
2398
102
}
330
2398
100
AcDbXrecord
102
SHADEPLOT
 70
     0
  0
MLINESTYLE
  5
1C
102
{ACAD_REACTORS
330
1B
102
}
330
1B
100
AcDbMlineStyle
  2
STANDARD
 70
     0
  3

 62
     0
 51
90.00000000000019
 52
90.00000000000019
 71
     2
 49
0.5
 62
   256
  6
BYLAYER
 49
-0.5
 62
   256
  6
BYLAYER
  0
XRECORD
  5
2365
102
{ACAD_REACTORS
330
2363
102
}
330
2363
100
AcDbXrecord
330
1E06
330
1E07
330
1DFC
330
1DFD
330
1DF3
330
1DF4
330
1DEB
330
1DEC
330
1DE1
330
1DE2
330
1DD8
330
1DD9
330
229E
330
229F
330
1DC5
330
1DC6
330
1DBC
330
1DBD
330
1DB1
330
1DB2
330
1DA8
330
1DA9
330
226E
330
226F
330
1D94
330
1D95
330
1D8B
330
1D8C
330
1D80
330
1D81
330
1D76
330
1D77
330
1D6D
330
1D6E
330
1D65
330
1D66
330
1D59
330
1D5A
330
1D50
330
1D51
330
1D48
330
1D47
330
1D3E
330
1D3F
330
2281
330
2282
330
1D2D
330
1D2E
330
2277
330
2278
  0
XRECORD
  5
1E67
102
{ACAD_REACTORS
330
1E66
102
}
330
1E66
100
AcDbXrecord
  1
hihyoji
  1
08,09,*_h
  1
*
  1
*
 70
     0
  1
*
  1
*
  0
ENDSEC
  0
EOF
