  0
SECTION
  2
HEADER
  9
$ACADVER
  1
AC1012
  9
$DWGCODEPAGE
  3
dos932
  9
$INSBASE
 10
0.0
 20
0.0
 30
0.0
  9
$EXTMIN
 10
0.0
 20
0.0
 30
0.0
  9
$EXTMAX
 10
420.0
 20
594.0
 30
0.0
  9
$LIMMIN
 10
0.0
 20
0.0
  9
$LIMMAX
 10
420.0
 20
594.0
  9
$ORTHOMODE
 70
     0
  9
$REGENMODE
 70
     1
  9
$FILLMODE
 70
     1
  9
$QTEXTMODE
 70
     0
  9
$MIRRTEXT
 70
     1
  9
$DRAGMODE
 70
     2
  9
$LTSCALE
 40
1.0
  9
$OSMODE
 70
    37
  9
$ATTMODE
 70
     1
  9
$TEXTSIZE
 40
6.0
  9
$TRACEWID
 40
0.05
  9
$TEXTSTYLE
  7
STANDARD
  9
$CLAYER
  8
DEFPOINTS
  9
$CELTYPE
  6
BYLAYER
  9
$CECOLOR
 62
   256
  9
$CELTSCALE
 40
1.0
  9
$DELOBJ
 70
     1
  9
$DISPSILH
 70
     0
  9
$DIMSCALE
 40
2.0
  9
$DIMASZ
 40
2.5
  9
$DIMEXO
 40
1.5
  9
$DIMDLI
 40
0.0
  9
$DIMRND
 40
0.0
  9
$DIMDLE
 40
0.0
  9
$DIMEXE
 40
1.0
  9
$DIMTP
 40
0.0
  9
$DIMTM
 40
0.0
  9
$DIMTXT
 40
2.5
  9
$DIMCEN
 40
0.0
  9
$DIMTSZ
 40
0.0
  9
$DIMTOL
 70
     0
  9
$DIMLIM
 70
     0
  9
$DIMTIH
 70
     0
  9
$DIMTOH
 70
     0
  9
$DIMSE1
 70
     0
  9
$DIMSE2
 70
     0
  9
$DIMTAD
 70
     1
  9
$DIMZIN
 70
     8
  9
$DIMBLK
  1
OPEN30
  9
$DIMASO
 70
     1
  9
$DIMSHO
 70
     1
  9
$DIMPOST
  1

  9
$DIMAPOST
  1

  9
$DIMALT
 70
     0
  9
$DIMALTD
 70
     2
  9
$DIMALTF
 40
25.4
  9
$DIMLFAC
 40
1.0
  9
$DIMTOFL
 70
     1
  9
$DIMTVP
 40
0.0
  9
$DIMTIX
 70
     0
  9
$DIMSOXD
 70
     0
  9
$DIMSAH
 70
     0
  9
$DIMBLK1
  1

  9
$DIMBLK2
  1

  9
$DIMSTYLE
  2
SUNPOU_2
  9
$DIMCLRD
 70
   256
  9
$DIMCLRE
 70
   256
  9
$DIMCLRT
 70
     6
  9
$DIMTFAC
 40
1.0
  9
$DIMGAP
 40
1.0
  9
$DIMJUST
 70
     0
  9
$DIMSD1
 70
     0
  9
$DIMSD2
 70
     0
  9
$DIMTOLJ
 70
     1
  9
$DIMTZIN
 70
     0
  9
$DIMALTZ
 70
     0
  9
$DIMALTTZ
 70
     0
  9
$DIMFIT
 70
     3
  9
$DIMUPT
 70
     0
  9
$DIMUNIT
 70
     2
  9
$DIMDEC
 70
     1
  9
$DIMTDEC
 70
     1
  9
$DIMALTU
 70
     2
  9
$DIMALTTD
 70
     2
  9
$DIMTXSTY
  7
SUNPOU
  9
$DIMAUNIT
 70
     0
  9
$LUNITS
 70
     2
  9
$LUPREC
 70
     4
  9
$SKETCHINC
 40
0.1
  9
$FILLETRAD
 40
0.0
  9
$AUNITS
 70
     0
  9
$AUPREC
 70
     0
  9
$MENU
  1
acad
  9
$ELEVATION
 40
0.0
  9
$PELEVATION
 40
0.0
  9
$THICKNESS
 40
0.0
  9
$LIMCHECK
 70
     0
  9
$BLIPMODE
 70
     0
  9
$CHAMFERA
 40
0.0
  9
$CHAMFERB
 40
0.0
  9
$CHAMFERC
 40
0.0
  9
$CHAMFERD
 40
0.0
  9
$SKPOLY
 70
     0
  9
$TDCREATE
 40
2444972.375000000
  9
$TDUPDATE
 40
2453266.400578703
  9
$TDINDWG
 40
0.4195659838
  9
$TDUSRTIMER
 40
0.4195658102
  9
$USRTIMER
 70
     1
  9
$ANGBASE
 50
0.0
  9
$ANGDIR
 70
     0
  9
$PDMODE
 70
     0
  9
$PDSIZE
 40
1.0
  9
$PLINEWID
 40
0.0
  9
$COORDS
 70
     1
  9
$SPLFRAME
 70
     0
  9
$SPLINETYPE
 70
     6
  9
$SPLINESEGS
 70
     8
  9
$ATTDIA
 70
     0
  9
$ATTREQ
 70
     1
  9
$HANDLING
 70
-16383
  9
$HANDSEED
  5
14C2
  9
$SURFTAB1
 70
     6
  9
$SURFTAB2
 70
     6
  9
$SURFTYPE
 70
     6
  9
$SURFU
 70
     6
  9
$SURFV
 70
     6
  9
$UCSNAME
  2

  9
$UCSORG
 10
0.0
 20
0.0
 30
0.0
  9
$UCSXDIR
 10
1.0
 20
0.0
 30
0.0
  9
$UCSYDIR
 10
0.0
 20
1.0
 30
0.0
  9
$PUCSNAME
  2

  9
$PUCSORG
 10
0.0
 20
0.0
 30
0.0
  9
$PUCSXDIR
 10
1.0
 20
0.0
 30
0.0
  9
$PUCSYDIR
 10
0.0
 20
1.0
 30
0.0
  9
$USERI1
 70
     0
  9
$USERI2
 70
     0
  9
$USERI3
 70
     0
  9
$USERI4
 70
     0
  9
$USERI5
 70
     0
  9
$USERR1
 40
0.0
  9
$USERR2
 40
0.0
  9
$USERR3
 40
0.0
  9
$USERR4
 40
0.0
  9
$USERR5
 40
0.0
  9
$WORLDVIEW
 70
     1
  9
$SHADEDGE
 70
     3
  9
$SHADEDIF
 70
    70
  9
$TILEMODE
 70
     1
  9
$MAXACTVP
 70
    16
  9
$PINSBASE
 10
0.0
 20
0.0
 30
0.0
  9
$PLIMCHECK
 70
     0
  9
$PEXTMIN
 10
-0.1933276983398855
 20
-0.0174202791267817
 30
-0.0015258207003583
  9
$PEXTMAX
 10
396.2949895136353
 20
570.3923158424973
 30
0.0000000349246037
  9
$PLIMMIN
 10
-11.94191342824454
 20
-11.76600219398141
  9
$PLIMMAX
 10
408.0435733360149
 20
582.1408996648768
  9
$UNITMODE
 70
     0
  9
$VISRETAIN
 70
     0
  9
$PLINEGEN
 70
     1
  9
$PSLTSCALE
 70
     0
  9
$TREEDEPTH
 70
  3020
  9
$PICKSTYLE
 70
     1
  9
$CMLSTYLE
  2
STANDARD
  9
$CMLJUST
 70
     0
  9
$CMLSCALE
 40
1.0
  9
$SAVEIMAGES
 70
     1
  0
ENDSEC
  0
SECTION
  2
CLASSES
  0
CLASS
  1
LWPOLYLINE
  2
AcDbPolyline
  3
AutoCAD 2000
 90
    32768
280
     0
281
     1
  0
CLASS
  1
IMAGE
  2
AcDbRasterImage
  3
ISM
 90
    32895
280
     0
281
     1
  0
CLASS
  1
OLE2FRAME
  2
AcDbOle2Frame
  3
AutoCAD 2000
 90
    32768
280
     0
281
     1
  0
CLASS
  1
HATCH
  2
AcDbHatch
  3
AutoCAD 2000
 90
    32768
280
     0
281
     1
  0
CLASS
  1
DICTIONARYVAR
  2
AcDbDictionaryVar
  3
AutoCAD 2000
 90
    32768
280
     0
281
     0
  0
CLASS
  1
RASTERVARIABLES
  2
AcDbRasterVariables
  3
ISM
 90
    32768
280
     0
281
     0
  0
CLASS
  1
IMAGEDEF
  2
AcDbRasterImageDef
  3
ISM
 90
    32768
280
     0
281
     0
  0
CLASS
  1
IMAGEDEF_REACTOR
  2
AcDbRasterImageDefReactor
  3
ISM
 90
    32769
280
     0
281
     0
  0
CLASS
  1
IDBUFFER
  2
AcDbIdBuffer
  3
AutoCAD 2000
 90
    32768
280
     0
281
     0
  0
CLASS
  1
SPATIAL_FILTER
  2
AcDbSpatialFilter
  3
AutoCAD 2000
 90
    32768
280
     0
281
     0
  0
CLASS
  1
XRECORD
  2
AcDbXrecord
  3
AutoCAD 2000
 90
    32768
280
     0
281
     0
  0
CLASS
  1
SORTENTSTABLE
  2
AcDbSortentsTable
  3
AutoCAD 2000
 90
    32768
280
     0
281
     0
  0
CLASS
  1
LAYER_INDEX
  2
AcDbLayerIndex
  3
AutoCAD 2000
 90
    32768
280
     0
281
     0
  0
CLASS
  1
SPATIAL_INDEX
  2
AcDbSpatialIndex
  3
AutoCAD 2000
 90
    32768
280
     0
281
     0
  0
CLASS
  1
OBJECT_PTR
  2
CAseDLPNTableRecord
  3
ASE-LPNTableRecord
 90
    32769
280
     0
281
     0
  0
CLASS
  1
ACDBDICTIONARYWDFLT
  2
AcDbDictionaryWithDefault
  3
AutoCAD 2000
 90
    32768
280
     0
281
     0
  0
CLASS
  1
ACDBPLACEHOLDER
  2
AcDbPlaceHolder
  3
AutoCAD 2000
 90
    32768
280
     0
281
     0
  0
CLASS
  1
LAYOUT
  2
AcDbLayout
  3
AutoCAD 2000
 90
    32768
280
     0
281
     0
  0
CLASS
  1
LONG_TRANSACTION
  2
AcDbLongTransaction
  3
AutoCAD 2000
 90
    32768
280
     0
281
     0
  0
CLASS
  1
LWPOLYLINE
  2
AcDbPolyline
  3
AutoCAD 2000
 90
    32768
280
     0
281
     1
  0
CLASS
  1
HATCH
  2
AcDbHatch
  3
AutoCAD 2000
 90
    32768
280
     0
281
     1
  0
CLASS
  1
XRECORD
  2
AcDbXrecord
  3
AutoCAD 2000
 90
    32768
280
     0
281
     0
  0
CLASS
  1
LONG_TRANSACTION
  2
AcDbLongTransaction
  3
AutoCAD 2000
 90
    32768
280
     0
281
     0
  0
CLASS
  1
LWPOLYLINE
  2
AcDbPolyline
  3
AutoCAD 2000
 90
    32768
280
     0
281
     1
  0
CLASS
  1
HATCH
  2
AcDbHatch
  3
AutoCAD 2000
 90
    32768
280
     0
281
     1
  0
CLASS
  1
XRECORD
  2
AcDbXrecord
  3
AutoCAD 2000
 90
    32768
280
     0
281
     0
  0
ENDSEC
  0
SECTION
  2
TABLES
  0
TABLE
  2
VPORT
  5
7
330
0
100
AcDbSymbolTable
 70
     2
  0
VPORT
  5
14A6
330
7
100
AcDbSymbolTableRecord
100
AcDbViewportTableRecord
  2
*ACTIVE
 70
     0
 10
0.0
 20
0.0
 11
1.0
 21
1.0
 12
229.3151477867754
 22
297.000001383014
 13
0.0
 23
0.0
 14
1.0
 24
1.0
 15
0.0
 25
0.0
 16
0.0
 26
0.0
 36
1.0
 17
0.0
 27
0.0
 37
0.0
 40
601.1419031335663
 41
1.780442804428044
 42
50.0
 43
0.0
 44
0.0
 50
0.0
 51
0.0
 71
     0
 72
   100
 73
     1
 74
     1
 75
     0
 76
     0
 77
     0
 78
     0
  0
ENDTAB
  0
TABLE
  2
LTYPE
  5
4
330
0
100
AcDbSymbolTable
 70
     4
  0
LTYPE
  5
11
330
4
100
AcDbSymbolTableRecord
100
AcDbLinetypeTableRecord
  2
BYBLOCK
 70
     0
  3

 72
    65
 73
     0
 40
0.0
  0
LTYPE
  5
12
330
4
100
AcDbSymbolTableRecord
100
AcDbLinetypeTableRecord
  2
BYLAYER
 70
     0
  3

 72
    65
 73
     0
 40
0.0
  0
LTYPE
  5
13
330
4
100
AcDbSymbolTableRecord
100
AcDbLinetypeTableRecord
  2
CONTINUOUS
 70
     0
  3
Solid line
 72
    65
 73
     0
 40
0.0
  0
LTYPE
  5
6B3
330
4
100
AcDbSymbolTableRecord
100
AcDbLinetypeTableRecord
  2
CENTER2
 70
     0
  3
Center (.5x) ___ _ ___ _ ___ _ ___ _ ___ _ ___
 72
    65
 73
     4
 40
28.57499999999999
 49
19.05
 74
     0
 49
-3.174999999999998
 74
     0
 49
3.174999999999998
 74
     0
 49
-3.174999999999998
 74
     0
  0
LTYPE
  5
6B6
330
4
100
AcDbSymbolTableRecord
100
AcDbLinetypeTableRecord
  2
DASHED2
 70
     0
  3
Dashed (.5x) _ _ _ _ _ _ _ _ _ _ _ _ _ _ _ _ _
 72
    65
 73
     2
 40
9.524999999999996
 49
6.349999999999998
 74
     0
 49
-3.174999999999998
 74
     0
  0
LTYPE
  5
6B9
330
4
100
AcDbSymbolTableRecord
100
AcDbLinetypeTableRecord
  2
PHANTOM2
 70
     0
  3
Phantom (.5x) ___ _ _ ___ _ _ ___ _ _ ___ _ _
 72
    65
 73
     6
 40
31.75
 49
15.875
 74
     0
 49
-3.174999999999998
 74
     0
 49
3.174999999999998
 74
     0
 49
-3.174999999999998
 74
     0
 49
3.174999999999998
 74
     0
 49
-3.174999999999998
 74
     0
  0
ENDTAB
  0
TABLE
  2
LAYER
  5
2
102
{ACAD_XDICTIONARY
360
ED3
102
}
330
0
100
AcDbSymbolTable
 70
    13
  0
LAYER
  5
14
330
2
100
AcDbSymbolTableRecord
100
AcDbLayerTableRecord
  2
0
 70
     0
 62
     7
  6
CONTINUOUS
  0
LAYER
  5
6AA
330
2
100
AcDbSymbolTableRecord
100
AcDbLayerTableRecord
  2
DEFPOINTS
 70
     0
 62
     7
  6
CONTINUOUS
  0
LAYER
  5
6AC
330
2
100
AcDbSymbolTableRecord
100
AcDbLayerTableRecord
  2
02
 70
     0
 62
     2
  6
CONTINUOUS
  0
LAYER
  5
6AD
330
2
100
AcDbSymbolTableRecord
100
AcDbLayerTableRecord
  2
03
 70
     0
 62
     3
  6
CONTINUOUS
  0
LAYER
  5
6B0
330
2
100
AcDbSymbolTableRecord
100
AcDbLayerTableRecord
  2
06
 70
     0
 62
     6
  6
CONTINUOUS
  0
LAYER
  5
6B2
330
2
100
AcDbSymbolTableRecord
100
AcDbLayerTableRecord
  2
CHUSIN
 70
     0
 62
     6
  6
CENTER2
  0
LAYER
  5
6B5
330
2
100
AcDbSymbolTableRecord
100
AcDbLayerTableRecord
  2
KAKURE
 70
     0
 62
     6
  6
DASHED2
  0
LAYER
  5
6B7
330
2
100
AcDbSymbolTableRecord
100
AcDbLayerTableRecord
  2
MOJI
 70
     0
 62
     3
  6
CONTINUOUS
  0
LAYER
  5
6B8
330
2
100
AcDbSymbolTableRecord
100
AcDbLayerTableRecord
  2
SOUZOU
 70
     0
 62
     6
  6
PHANTOM2
  0
LAYER
  5
6BA
330
2
100
AcDbSymbolTableRecord
100
AcDbLayerTableRecord
  2
SUNPOU
 70
     0
 62
     6
  6
CONTINUOUS
  0
LAYER
  5
C47
330
2
100
AcDbSymbolTableRecord
100
AcDbLayerTableRecord
  2
HIKIDASI
 70
     0
 62
     6
  6
CONTINUOUS
  0
LAYER
  5
1016
330
2
100
AcDbSymbolTableRecord
100
AcDbLayerTableRecord
  2
04
 70
     0
 62
     4
  6
CONTINUOUS
  0
LAYER
  5
1018
330
2
100
AcDbSymbolTableRecord
100
AcDbLayerTableRecord
  2
SAISEN
 70
     0
 62
     3
  6
CONTINUOUS
  0
ENDTAB
  0
TABLE
  2
STYLE
  5
3
330
0
100
AcDbSymbolTable
 70
     4
  0
STYLE
  5
17
330
3
100
AcDbSymbolTableRecord
100
AcDbTextStyleTableRecord
  2
STANDARD
 70
     0
 40
0.0
 41
0.7
 50
0.0
 71
     0
 42
6.0
  3
txt.shx
  4
bigfont.shx
  0
STYLE
  5
6BC
330
3
100
AcDbSymbolTableRecord
100
AcDbTextStyleTableRecord
  2
SUNPOU
 70
     0
 40
0.0
 41
0.8
 50
0.0
 71
     0
 42
0.2
  3
txt.shx
  4
extfont.shx
  0
STYLE
  5
C48
330
3
100
AcDbSymbolTableRecord
100
AcDbTextStyleTableRecord
  2
0_8
 70
     0
 40
0.0
 41
0.8
 50
0.0
 71
     0
 42
2.5
  3
txt.shx
  4
extfont.shx
  0
STYLE
  5
1447
330
3
100
AcDbSymbolTableRecord
100
AcDbTextStyleTableRecord
  2
0_80
 70
     0
 40
0.0
 41
0.8
 50
0.0
 71
     0
 42
7.0
  3
txt.shx
  4
extfont.shx
  0
ENDTAB
  0
TABLE
  2
VIEW
  5
5
330
0
100
AcDbSymbolTable
 70
     1
  0
VIEW
  5
136
330
5
100
AcDbSymbolTableRecord
100
AcDbViewTableRecord
  2
QQQQ
 70
     0
 40
598.9139148674715
 10
-4.37269163174264
 20
4.001771433245096
 41
411.2855114235501
 11
0.0
 21
0.0
 31
1.0
 12
100.0
 22
100.0
 32
0.0
 42
50.0
 43
0.0
 44
0.0
 50
0.0
 71
     0
  0
ENDTAB
  0
TABLE
  2
UCS
  5
6
330
0
100
AcDbSymbolTable
 70
     0
  0
ENDTAB
  0
TABLE
  2
APPID
  5
8
330
0
100
AcDbSymbolTable
 70
     3
  0
APPID
  5
16
330
8
100
AcDbSymbolTableRecord
100
AcDbRegAppTableRecord
  2
ACAD
 70
     0
  0
APPID
  5
13DD
330
8
100
AcDbSymbolTableRecord
100
AcDbRegAppTableRecord
  2
CONTENTBLOCKICON
 70
     0
  0
APPID
  5
146B
330
8
100
AcDbSymbolTableRecord
100
AcDbRegAppTableRecord
  2
DCO15
 70
     0
  0
ENDTAB
  0
TABLE
  2
DIMSTYLE
  5
9
330
0
100
AcDbSymbolTable
 70
     2
  0
DIMSTYLE
105
18
330
9
100
AcDbSymbolTableRecord
100
AcDbDimStyleTableRecord
  2
STANDARD
 70
     0
  3

  4

  5

  6

  7

 40
1.0
 41
0.18
 42
0.0625
 43
0.38
 44
0.18
 45
0.0
 46
0.0
 47
0.0
 48
0.0
140
0.18
141
0.09
142
0.0
143
25.4
144
1.0
145
0.0
146
1.0
147
0.09
 71
     0
 72
     0
 73
     1
 74
     1
 75
     0
 76
     0
 77
     0
 78
     0
170
     0
171
     2
172
     0
173
     0
174
     0
175
     0
176
     0
177
     0
178
     0
270
     2
271
     4
272
     4
273
     2
274
     2
340
17
275
     0
280
     0
281
     0
282
     0
283
     1
284
     0
285
     0
286
     0
287
     3
288
     0
  0
DIMSTYLE
105
6BB
102
{ACAD_REACTORS
330
6E7
330
70E
330
71B
330
728
330
735
330
74F
330
75C
330
7FD
330
80A
330
82F
330
845
330
852
330
85F
330
86C
330
879
330
886
330
895
330
8A2
330
8B1
330
8DA
330
8E9
330
8F6
330
F19
330
F77
330
6F4
330
701
330
903
330
10B5
330
10C4
330
10D1
330
1123
330
11FD
330
1344
330
1345
330
1346
330
134C
102
}
330
9
100
AcDbSymbolTableRecord
100
AcDbDimStyleTableRecord
  2
SUNPOU_2
 70
     0
  3

  4

  5
OPEN30
  6

  7

 40
2.0
 41
2.5
 42
1.5
 43
0.0
 44
1.0
 45
0.0
 46
0.0
 47
0.0
 48
0.0
140
2.5
141
0.0
142
0.0
143
25.4
144
1.0
145
0.0
146
1.0
147
1.0
 71
     0
 72
     0
 73
     0
 74
     0
 75
     0
 76
     0
 77
     1
 78
     8
170
     0
171
     2
172
     1
173
     0
174
     0
175
     0
176
   256
177
   256
178
     6
270
     2
271
     1
272
     1
273
     2
274
     2
340
6BC
275
     0
280
     0
281
     0
282
     0
283
     1
284
     0
285
     0
286
     0
287
     3
288
     0
  0
ENDTAB
  0
TABLE
  2
BLOCK_RECORD
  5
1
330
0
100
AcDbSymbolTable
 70
    40
  0
BLOCK_RECORD
  5
A
102
{ACAD_XDICTIONARY
360
13D9
102
}
330
1
100
AcDbSymbolTableRecord
100
AcDbBlockTableRecord
  2
*MODEL_SPACE
  0
BLOCK_RECORD
  5
B
102
{ACAD_XDICTIONARY
360
13DB
102
}
330
1
100
AcDbSymbolTableRecord
100
AcDbBlockTableRecord
  2
*PAPER_SPACE
  0
BLOCK_RECORD
  5
6BD
330
1
100
AcDbSymbolTableRecord
100
AcDbBlockTableRecord
  2
_OPEN30
1001
CONTENTBLOCKICON
1071
        0
1004
2800000020000000200000000100080000000000000400000000000000000000000000000000000000000000000080000080000000808000800000008000800080800000C0C0C000C0DCC000F0CAA6000020400000206000002080000020A0000020C0000020E00000400000004020000040400000406000004080000040A0
1004
000040C0000040E00000600000006020000060400000606000006080000060A0000060C0000060E00000800000008020000080400000806000008080000080A0000080C0000080E00000A0000000A0200000A0400000A0600000A0800000A0A00000A0C00000A0E00000C0000000C0200000C0400000C0600000C0800000C0
1004
A00000C0C00000C0E00000E0000000E0200000E0400000E0600000E0800000E0A00000E0C00000E0E00040000000400020004000400040006000400080004000A0004000C0004000E00040200000402020004020400040206000402080004020A0004020C0004020E000404000004040200040404000404060004040800040
1004
40A0004040C0004040E00040600000406020004060400040606000406080004060A0004060C0004060E00040800000408020004080400040806000408080004080A0004080C0004080E00040A0000040A0200040A0400040A0600040A0800040A0A00040A0C00040A0E00040C0000040C0200040C0400040C0600040C08000
1004
40C0A00040C0C00040C0E00040E0000040E0200040E0400040E0600040E0800040E0A00040E0C00040E0E00080000000800020008000400080006000800080008000A0008000C0008000E00080200000802020008020400080206000802080008020A0008020C0008020E00080400000804020008040400080406000804080
1004
008040A0008040C0008040E00080600000806020008060400080606000806080008060A0008060C0008060E00080800000808020008080400080806000808080008080A0008080C0008080E00080A0000080A0200080A0400080A0600080A0800080A0A00080A0C00080A0E00080C0000080C0200080C0400080C0600080C0
1004
800080C0A00080C0C00080C0E00080E0000080E0200080E0400080E0600080E0800080E0A00080E0C00080E0E000C0000000C0002000C0004000C0006000C0008000C000A000C000C000C000E000C0200000C0202000C0204000C0206000C0208000C020A000C020C000C020E000C0400000C0402000C0404000C0406000C0
1004
408000C040A000C040C000C040E000C0600000C0602000C0604000C0606000C0608000C060A000C060C000C060E000C0800000C0802000C0804000C0806000C0808000C080A000C080C000C080E000C0A00000C0A02000C0A04000C0A06000C0A08000C0A0A000C0A0C000C0A0E000C0C00000C0C02000C0C04000C0C06000
1004
C0C08000C0C0A000F0FBFF00A4A0A000808080000000FF0000FF000000FFFF00FF000000FF00FF00FFFF0000FFFFFF0000000000000000000000000000000000000000000000000000000000000000000000000000000000000000000000000000000000000000000000000000000000000000000000000000000000000000
1004
00000000000000000000000000000000000000000000000000000000000000000000000000000000000000000000000000000000000000000000000000000000000000000000000000000000000000000000000000000000000000000000000000000000000000000000000000000000000000000000000000000000000000
1004
000000000000000000000000000000000000000000000000000000000000000000000000000000000000000000000000000000FFFF0000000000000000000000000000000000000000000000000000000000000000FFFFFFFF0000000000000000000000000000000000000000000000000000000000000000FFFFFFFF0000
1004
000000000000000000000000000000000000000000000000000000000000FFFFFF0000000000000000000000000000000000000000000000000000000000000000FFFFFFFF0000000000000000000000000000000000000000000000000000000000000000FFFFFF0000000000000000000000000000000000000000000000
1004
000000000000000000FFFFFFFF0000000000000000000000000000000000000000000000000000000000000000FFFFFFFF00000000FFFFFFFFFFFFFFFFFFFFFFFFFFFFFFFFFFFFFFFFFFFFFFFFFFFFFFFFFFFF00000000000000000000000000000000000000000000000000FFFFFFFF000000000000000000000000000000
1004
000000000000000000FFFFFFFF000000000000000000000000000000000000000000000000FFFFFFFF000000000000000000000000000000000000000000000000FFFFFFFF000000000000000000000000000000000000000000000000FFFFFFFF000000000000000000000000000000000000000000000000FFFFFFFF0000
1004
0000000000000000000000000000000000000000000000FFFFFF0000000000000000000000000000000000000000000000000000000000000000000000000000000000000000000000000000000000000000000000000000000000000000000000000000000000000000000000000000000000000000000000000000000000
1004
00000000000000000000000000000000000000000000000000000000000000000000000000000000000000000000000000000000000000000000000000000000000000000000000000000000000000000000000000000000000000000000000000000000000000000000000000000000000000000000000000000000000000
1004
0000000000000000000000000000000000000000000000000000000000000000000000000000000000000000000000000000000000000000
  0
BLOCK_RECORD
  5
6E8
330
1
100
AcDbSymbolTableRecord
100
AcDbBlockTableRecord
  2
*D1
  0
BLOCK_RECORD
  5
6F5
330
1
100
AcDbSymbolTableRecord
100
AcDbBlockTableRecord
  2
*D2
  0
BLOCK_RECORD
  5
702
330
1
100
AcDbSymbolTableRecord
100
AcDbBlockTableRecord
  2
*D3
  0
BLOCK_RECORD
  5
70F
330
1
100
AcDbSymbolTableRecord
100
AcDbBlockTableRecord
  2
*D4
  0
BLOCK_RECORD
  5
71C
330
1
100
AcDbSymbolTableRecord
100
AcDbBlockTableRecord
  2
*D5
  0
BLOCK_RECORD
  5
729
330
1
100
AcDbSymbolTableRecord
100
AcDbBlockTableRecord
  2
*D6
  0
BLOCK_RECORD
  5
736
330
1
100
AcDbSymbolTableRecord
100
AcDbBlockTableRecord
  2
*D7
  0
BLOCK_RECORD
  5
750
330
1
100
AcDbSymbolTableRecord
100
AcDbBlockTableRecord
  2
*D8
  0
BLOCK_RECORD
  5
75D
330
1
100
AcDbSymbolTableRecord
100
AcDbBlockTableRecord
  2
*D9
  0
BLOCK_RECORD
  5
7FE
330
1
100
AcDbSymbolTableRecord
100
AcDbBlockTableRecord
  2
*D10
  0
BLOCK_RECORD
  5
80B
330
1
100
AcDbSymbolTableRecord
100
AcDbBlockTableRecord
  2
*D11
  0
BLOCK_RECORD
  5
830
330
1
100
AcDbSymbolTableRecord
100
AcDbBlockTableRecord
  2
*D12
  0
BLOCK_RECORD
  5
846
330
1
100
AcDbSymbolTableRecord
100
AcDbBlockTableRecord
  2
*D13
  0
BLOCK_RECORD
  5
853
330
1
100
AcDbSymbolTableRecord
100
AcDbBlockTableRecord
  2
*D14
  0
BLOCK_RECORD
  5
860
330
1
100
AcDbSymbolTableRecord
100
AcDbBlockTableRecord
  2
*D15
  0
BLOCK_RECORD
  5
86D
330
1
100
AcDbSymbolTableRecord
100
AcDbBlockTableRecord
  2
*D16
  0
BLOCK_RECORD
  5
87A
330
1
100
AcDbSymbolTableRecord
100
AcDbBlockTableRecord
  2
*D17
  0
BLOCK_RECORD
  5
887
330
1
100
AcDbSymbolTableRecord
100
AcDbBlockTableRecord
  2
*D18
  0
BLOCK_RECORD
  5
896
330
1
100
AcDbSymbolTableRecord
100
AcDbBlockTableRecord
  2
*D19
  0
BLOCK_RECORD
  5
8A3
330
1
100
AcDbSymbolTableRecord
100
AcDbBlockTableRecord
  2
*D20
  0
BLOCK_RECORD
  5
8B2
330
1
100
AcDbSymbolTableRecord
100
AcDbBlockTableRecord
  2
*D21
  0
BLOCK_RECORD
  5
8DB
330
1
100
AcDbSymbolTableRecord
100
AcDbBlockTableRecord
  2
*D22
  0
BLOCK_RECORD
  5
8EA
330
1
100
AcDbSymbolTableRecord
100
AcDbBlockTableRecord
  2
*D23
  0
BLOCK_RECORD
  5
8F7
330
1
100
AcDbSymbolTableRecord
100
AcDbBlockTableRecord
  2
*D24
  0
BLOCK_RECORD
  5
904
330
1
100
AcDbSymbolTableRecord
100
AcDbBlockTableRecord
  2
*D25
  0
BLOCK_RECORD
  5
F1A
330
1
100
AcDbSymbolTableRecord
100
AcDbBlockTableRecord
  2
*D26
  0
BLOCK_RECORD
  5
F78
330
1
100
AcDbSymbolTableRecord
100
AcDbBlockTableRecord
  2
*D27
  0
BLOCK_RECORD
  5
10B6
330
1
100
AcDbSymbolTableRecord
100
AcDbBlockTableRecord
  2
*D28
  0
BLOCK_RECORD
  5
10C5
330
1
100
AcDbSymbolTableRecord
100
AcDbBlockTableRecord
  2
*D29
  0
BLOCK_RECORD
  5
10D2
330
1
100
AcDbSymbolTableRecord
100
AcDbBlockTableRecord
  2
*D30
  0
BLOCK_RECORD
  5
1124
330
1
100
AcDbSymbolTableRecord
100
AcDbBlockTableRecord
  2
*D31
  0
BLOCK_RECORD
  5
11FF
330
1
100
AcDbSymbolTableRecord
100
AcDbBlockTableRecord
  2
*D32
  0
BLOCK_RECORD
  5
12D8
330
1
100
AcDbSymbolTableRecord
100
AcDbBlockTableRecord
  2
_DOTSMALL
1001
CONTENTBLOCKICON
1071
        0
1004
2800000020000000200000000100080000000000000400000000000000000000000000000000000000000000000080000080000000808000800000008000800080800000C0C0C000C0DCC000F0CAA6000020400000206000002080000020A0000020C0000020E00000400000004020000040400000406000004080000040A0
1004
000040C0000040E00000600000006020000060400000606000006080000060A0000060C0000060E00000800000008020000080400000806000008080000080A0000080C0000080E00000A0000000A0200000A0400000A0600000A0800000A0A00000A0C00000A0E00000C0000000C0200000C0400000C0600000C0800000C0
1004
A00000C0C00000C0E00000E0000000E0200000E0400000E0600000E0800000E0A00000E0C00000E0E00040000000400020004000400040006000400080004000A0004000C0004000E00040200000402020004020400040206000402080004020A0004020C0004020E000404000004040200040404000404060004040800040
1004
40A0004040C0004040E00040600000406020004060400040606000406080004060A0004060C0004060E00040800000408020004080400040806000408080004080A0004080C0004080E00040A0000040A0200040A0400040A0600040A0800040A0A00040A0C00040A0E00040C0000040C0200040C0400040C0600040C08000
1004
40C0A00040C0C00040C0E00040E0000040E0200040E0400040E0600040E0800040E0A00040E0C00040E0E00080000000800020008000400080006000800080008000A0008000C0008000E00080200000802020008020400080206000802080008020A0008020C0008020E00080400000804020008040400080406000804080
1004
008040A0008040C0008040E00080600000806020008060400080606000806080008060A0008060C0008060E00080800000808020008080400080806000808080008080A0008080C0008080E00080A0000080A0200080A0400080A0600080A0800080A0A00080A0C00080A0E00080C0000080C0200080C0400080C0600080C0
1004
800080C0A00080C0C00080C0E00080E0000080E0200080E0400080E0600080E0800080E0A00080E0C00080E0E000C0000000C0002000C0004000C0006000C0008000C000A000C000C000C000E000C0200000C0202000C0204000C0206000C0208000C020A000C020C000C020E000C0400000C0402000C0404000C0406000C0
1004
408000C040A000C040C000C040E000C0600000C0602000C0604000C0606000C0608000C060A000C060C000C060E000C0800000C0802000C0804000C0806000C0808000C080A000C080C000C080E000C0A00000C0A02000C0A04000C0A06000C0A08000C0A0A000C0A0C000C0A0E000C0C00000C0C02000C0C04000C0C06000
1004
C0C08000C0C0A000F0FBFF00A4A0A000808080000000FF0000FF000000FFFF00FF000000FF00FF00FFFF0000FFFFFF00000000FFFF000000FF0000000000000000000000000000FF000000FFFF00000000000000FFFF0000FF0000000000000000000000000000FF0000FFFF00000000000000000000FFFFFF000000000000
1004
0000000000000000FFFFFF0000000000000000000000000000FFFF000000000000000000000000FFFF00000000000000000000000000000000FF00FFFF0000000000000000FFFF00FF00000000000000000000000000000000FF0000FFFF000000000000FFFF0000FF00000000000000000000000000000000FF00000000FF
1004
FF0000FFFF00000000FF00000000000000000000000000000000FF000000000000FFFF000000000000FF00000000000000000000000000000000FF00000000FFFFFFFFFFFF00000000FF00000000000000000000000000000000FF000000FFFF00000000FFFF000000FF00000000000000000000000000000000FF00FFFF00
1004
00000000000000FFFF00FF00000000000000000000000000000000FFFFFF00000000000000000000FFFFFF000000000000000000000000000000FFFF0000000000000000000000000000FFFF000000000000000000000000FFFF00FF0000000000000000000000000000FF00FFFF0000000000000000FFFF000000FF000000
1004
0000000000000000000000FF000000FFFF000000FFFFFFFF00000000FF0000000000000000000000000000FF00000000FFFFFFFFFFFFFFFF00000000FF0000000000000000000000000000FF00000000FFFFFFFF000000FFFF000000FF0000000000000000000000000000FF000000FFFF0000000000000000FFFF00FF0000
1004
000000000000000000000000FF00FFFF000000000000000000000000FFFF0000000000000000000000000000FFFF000000000000000000000000000000FFFFFF00000000000000000000FFFFFF00000000000000000000000000000000FF00FFFF0000000000000000FFFF00FF00000000000000000000000000000000FF00
1004
0000FFFF00000000FFFF000000FF00000000000000000000000000000000FF00000000FFFFFFFFFFFF00000000FF00000000000000000000000000000000FF000000000000FFFF000000000000FF00000000000000000000000000000000FF00000000FFFF0000FFFF00000000FF00000000000000000000000000000000FF
1004
0000FFFF000000000000FFFF0000FF00000000000000000000000000000000FF00FFFF0000000000000000FFFF00FF00000000000000000000000000000000FFFF000000000000000000000000FFFF0000000000000000000000000000FFFFFF0000000000000000000000000000FFFFFF00000000000000000000FFFF0000
1004
FF0000000000000000000000000000FF0000FFFF00000000000000FFFF000000FF0000000000000000000000000000FF000000FFFF000000
  0
BLOCK_RECORD
  5
12DC
330
1
100
AcDbSymbolTableRecord
100
AcDbBlockTableRecord
  2
_NONE
  0
BLOCK_RECORD
  5
134D
330
1
100
AcDbSymbolTableRecord
100
AcDbBlockTableRecord
  2
*D35
  0
BLOCK_RECORD
  5
1359
330
1
100
AcDbSymbolTableRecord
100
AcDbBlockTableRecord
  2
*D36
  0
BLOCK_RECORD
  5
1367
330
1
100
AcDbSymbolTableRecord
100
AcDbBlockTableRecord
  2
*D37
  0
BLOCK_RECORD
  5
1374
330
1
100
AcDbSymbolTableRecord
100
AcDbBlockTableRecord
  2
*D38
  0
BLOCK_RECORD
  5
13F2
330
1
100
AcDbSymbolTableRecord
100
AcDbBlockTableRecord
  2
*X39
  0
ENDTAB
  0
ENDSEC
  0
SECTION
  2
BLOCKS
  0
BLOCK
  5
D
330
A
100
AcDbEntity
  8
0
100
AcDbBlockBegin
  2
*MODEL_SPACE
 70
     0
 10
0.0
 20
0.0
 30
0.0
  3
*MODEL_SPACE
  1

  0
ENDBLK
  5
E
330
A
100
AcDbEntity
  8
0
100
AcDbBlockEnd
  0
BLOCK
  5
F
330
B
100
AcDbEntity
 67
     1
  8
0
100
AcDbBlockBegin
  2
*PAPER_SPACE
 70
     0
 10
0.0
 20
0.0
 30
0.0
  3
*PAPER_SPACE
  1

  0
ENDBLK
  5
10
330
B
100
AcDbEntity
 67
     1
  8
0
100
AcDbBlockEnd
  0
BLOCK
  5
6C1
330
6BD
100
AcDbEntity
  8
0
100
AcDbBlockBegin
  2
_OPEN30
 70
     0
 10
0.0
 20
0.0
 30
0.0
  3
_OPEN30
  1

  0
LINE
  5
6BE
330
6BD
100
AcDbEntity
  8
0
  6
BYBLOCK
 62
     0
100
AcDbLine
 10
-1.0
 20
0.26794919
 30
0.0
 11
0.0
 21
0.0
 31
0.0
  0
LINE
  5
6BF
330
6BD
100
AcDbEntity
  8
0
  6
BYBLOCK
 62
     0
100
AcDbLine
 10
0.0
 20
0.0
 30
0.0
 11
-1.0
 21
-0.26794919
 31
0.0
  0
LINE
  5
6C0
330
6BD
100
AcDbEntity
  8
0
  6
BYBLOCK
 62
     0
100
AcDbLine
 10
0.0
 20
0.0
 30
0.0
 11
-1.0
 21
0.0
 31
0.0
  0
ENDBLK
  5
6C2
330
6BD
100
AcDbEntity
  8
0
100
AcDbBlockEnd
  0
BLOCK
  5
6F2
330
6E8
100
AcDbEntity
  8
0
100
AcDbBlockBegin
  2
*D1
 70
     1
 10
0.0
 20
0.0
 30
0.0
  3
*D1
  1

  0
LINE
  5
FF2
330
6E8
100
AcDbEntity
  8
SUNPOU
100
AcDbLine
 10
143.5939033250009
 20
501.4983266026461
 30
0.0
 11
92.21878610078062
 21
501.4983266026463
 31
0.0
  0
LINE
  5
FF3
330
6E8
100
AcDbEntity
  8
SUNPOU
100
AcDbLine
 10
138.5939033250009
 20
483.498326602647
 30
0.0
 11
92.21878610078062
 21
483.498326602647
 31
0.0
  0
LINE
  5
FF4
330
6E8
100
AcDbEntity
  8
SUNPOU
100
AcDbLine
 10
94.21878610078062
 20
496.4983266026463
 30
0.0
 11
94.21878610078062
 21
488.4983266026471
 31
0.0
  0
INSERT
  5
FF5
330
6E8
100
AcDbEntity
  8
SUNPOU
100
AcDbBlockReference
  2
_OPEN30
 10
94.21878610078062
 20
501.4983266026463
 30
0.0
 41
5.0
 42
5.0
 43
5.0
 50
90.0
  0
INSERT
  5
FF6
330
6E8
100
AcDbEntity
  8
SUNPOU
100
AcDbBlockReference
  2
_OPEN30
 10
94.21878610078062
 20
483.498326602647
 30
0.0
 41
5.0
 42
5.0
 43
5.0
 50
270.0
  0
MTEXT
  5
FF7
330
6E8
100
AcDbEntity
  8
SUNPOU
 62
     6
100
AcDbMText
 10
89.71878610078055
 20
492.4983266026465
 30
0.0
 40
5.0
 41
0.0
 71
     5
 72
     1
  1
\A1;18
  7
SUNPOU
 11
0.0000000000000001
 21
1.0
 31
0.0
1001
ACAD
1000
MTEXTBEGIN
1070
    73
1070
     1
1070
    44
1040
1.0
1070
    74
1070
     0
1000
MTEXTEND
1000
MTEXTBEGIN
1070
    73
1070
     1
1070
    44
1040
1.0
1070
    74
1070
     0
1000
MTEXTEND
  0
POINT
  5
FF8
330
6E8
100
AcDbEntity
  8
DEFPOINTS
 62
     0
100
AcDbPoint
 10
146.5939033250009
 20
501.4983266026461
 30
0.0
  0
POINT
  5
FF9
330
6E8
100
AcDbEntity
  8
DEFPOINTS
 62
     0
100
AcDbPoint
 10
141.5939033250009
 20
483.498326602647
 30
0.0
  0
POINT
  5
FFA
330
6E8
100
AcDbEntity
  8
DEFPOINTS
 62
     0
100
AcDbPoint
 10
94.21878610078062
 20
483.498326602647
 30
0.0
  0
ENDBLK
  5
6F3
330
6E8
100
AcDbEntity
  8
0
100
AcDbBlockEnd
  0
BLOCK
  5
6FF
330
6F5
100
AcDbEntity
  8
0
100
AcDbBlockBegin
  2
*D2
 70
     1
 10
0.0
 20
0.0
 30
0.0
  3
*D2
  1

  0
LINE
  5
10AA
330
6F5
100
AcDbEntity
  8
SUNPOU
100
AcDbLine
 10
138.5939033250009
 20
483.498326602647
 30
0.0
 11
92.21878610078055
 21
483.498326602647
 31
0.0
  0
LINE
  5
10AB
330
6F5
100
AcDbEntity
  8
SUNPOU
100
AcDbLine
 10
138.5939033250009
 20
231.4983266026469
 30
0.0
 11
92.2187861007805
 21
231.4983266026469
 31
0.0
  0
LINE
  5
10AC
330
6F5
100
AcDbEntity
  8
SUNPOU
100
AcDbLine
 10
94.21878610078056
 20
478.498326602647
 30
0.0
 11
94.21878610078051
 21
236.4983266026468
 31
0.0
  0
INSERT
  5
10AD
330
6F5
100
AcDbEntity
  8
SUNPOU
100
AcDbBlockReference
  2
_OPEN30
 10
94.21878610078056
 20
483.498326602647
 30
0.0
 41
5.0
 42
5.0
 43
5.0
 50
90.0
  0
INSERT
  5
10AE
330
6F5
100
AcDbEntity
  8
SUNPOU
100
AcDbBlockReference
  2
_OPEN30
 10
94.21878610078051
 20
231.4983266026469
 30
0.0
 41
5.0
 42
5.0
 43
5.0
 50
270.0
  0
MTEXT
  5
10AF
330
6F5
100
AcDbEntity
  8
SUNPOU
 62
     6
100
AcDbMText
 10
89.71878610078048
 20
357.498326602647
 30
0.0
 40
5.0
 41
0.0
 71
     5
 72
     1
  1
\A1;252
  7
SUNPOU
 11
0.0000000000000001
 21
1.0
 31
0.0
1001
ACAD
1000
MTEXTBEGIN
1070
    73
1070
     1
1070
    44
1040
1.0
1070
    74
1070
     0
1000
MTEXTEND
1000
MTEXTBEGIN
1070
    73
1070
     1
1070
    44
1040
1.0
1070
    74
1070
     0
1000
MTEXTEND
  0
POINT
  5
10B0
330
6F5
100
AcDbEntity
  8
DEFPOINTS
 62
     0
100
AcDbPoint
 10
141.5939033250009
 20
483.498326602647
 30
0.0
  0
POINT
  5
10B1
330
6F5
100
AcDbEntity
  8
DEFPOINTS
 62
     0
100
AcDbPoint
 10
141.5939033250009
 20
231.4983266026469
 30
0.0
  0
POINT
  5
10B2
330
6F5
100
AcDbEntity
  8
DEFPOINTS
 62
     0
100
AcDbPoint
 10
94.21878610078051
 20
231.4983266026469
 30
0.0
  0
ENDBLK
  5
700
330
6F5
100
AcDbEntity
  8
0
100
AcDbBlockEnd
  0
BLOCK
  5
70C
330
702
100
AcDbEntity
  8
0
100
AcDbBlockBegin
  2
*D3
 70
     1
 10
0.0
 20
0.0
 30
0.0
  3
*D3
  1

  0
LINE
  5
FC3
330
702
100
AcDbEntity
  8
SUNPOU
100
AcDbLine
 10
149.4275510015321
 20
401.4983266026471
 30
0.0
 11
107.7520462600045
 21
401.4983266026471
 31
0.0
  0
LINE
  5
FC4
330
702
100
AcDbEntity
  8
SUNPOU
100
AcDbLine
 10
138.5939033250009
 20
231.4983266026469
 30
0.0
 11
107.7520462600044
 21
231.4983266026469
 31
0.0
  0
LINE
  5
FC5
330
702
100
AcDbEntity
  8
SUNPOU
100
AcDbLine
 10
109.7520462600045
 20
396.498326602647
 30
0.0
 11
109.7520462600044
 21
236.4983266026468
 31
0.0
  0
INSERT
  5
FC6
330
702
100
AcDbEntity
  8
SUNPOU
100
AcDbBlockReference
  2
_OPEN30
 10
109.7520462600045
 20
401.4983266026471
 30
0.0
 41
5.0
 42
5.0
 43
5.0
 50
90.0
  0
INSERT
  5
FC7
330
702
100
AcDbEntity
  8
SUNPOU
100
AcDbBlockReference
  2
_OPEN30
 10
109.7520462600044
 20
231.4983266026469
 30
0.0
 41
5.0
 42
5.0
 43
5.0
 50
270.0
  0
MTEXT
  5
FC8
330
702
100
AcDbEntity
  8
SUNPOU
 62
     6
100
AcDbMText
 10
105.2520462600045
 20
316.498326602647
 30
0.0
 40
5.0
 41
0.0
 71
     5
 72
     1
  1
\A1;170
  7
SUNPOU
 11
0.0000000000000001
 21
1.0
 31
0.0
1001
ACAD
1000
MTEXTBEGIN
1070
    73
1070
     1
1070
    44
1040
1.0
1070
    74
1070
     0
1000
MTEXTEND
1000
MTEXTBEGIN
1070
    73
1070
     1
1070
    44
1040
1.0
1070
    74
1070
     0
1000
MTEXTEND
  0
POINT
  5
FC9
330
702
100
AcDbEntity
  8
DEFPOINTS
 62
     0
100
AcDbPoint
 10
152.4275510015321
 20
401.4983266026471
 30
0.0
  0
POINT
  5
FCA
330
702
100
AcDbEntity
  8
DEFPOINTS
 62
     0
100
AcDbPoint
 10
141.5939033250009
 20
231.4983266026469
 30
0.0
  0
POINT
  5
FCB
330
702
100
AcDbEntity
  8
DEFPOINTS
 62
     0
100
AcDbPoint
 10
109.7520462600044
 20
231.4983266026469
 30
0.0
  0
ENDBLK
  5
70D
330
702
100
AcDbEntity
  8
0
100
AcDbBlockEnd
  0
BLOCK
  5
719
330
70F
100
AcDbEntity
  8
0
100
AcDbBlockBegin
  2
*D4
 70
     1
 10
0.0
 20
0.0
 30
0.0
  3
*D4
  1

  0
LINE
  5
FD5
330
70F
100
AcDbEntity
  8
SUNPOU
100
AcDbLine
 10
178.0463671006301
 20
291.4983266026468
 30
0.0
 11
119.2824527369247
 21
291.4983266026471
 31
0.0
  0
LINE
  5
FD6
330
70F
100
AcDbEntity
  8
SUNPOU
100
AcDbLine
 10
138.5939033250009
 20
231.4983266026469
 30
0.0
 11
119.2824527369245
 21
231.4983266026469
 31
0.0
  0
LINE
  5
FD7
330
70F
100
AcDbEntity
  8
SUNPOU
100
AcDbLine
 10
121.2824527369245
 20
286.498326602647
 30
0.0
 11
121.2824527369245
 21
236.4983266026468
 31
0.0
  0
INSERT
  5
FD8
330
70F
100
AcDbEntity
  8
SUNPOU
100
AcDbBlockReference
  2
_OPEN30
 10
121.2824527369247
 20
291.4983266026471
 30
0.0
 41
5.0
 42
5.0
 43
5.0
 50
90.0
  0
INSERT
  5
FD9
330
70F
100
AcDbEntity
  8
SUNPOU
100
AcDbBlockReference
  2
_OPEN30
 10
121.2824527369245
 20
231.4983266026469
 30
0.0
 41
5.0
 42
5.0
 43
5.0
 50
270.0
  0
MTEXT
  5
FDA
330
70F
100
AcDbEntity
  8
SUNPOU
 62
     6
100
AcDbMText
 10
116.7824527369246
 20
261.498326602647
 30
0.0
 40
5.0
 41
0.0
 71
     5
 72
     1
  1
\A1;60
  7
SUNPOU
 11
0.0000000000000001
 21
1.0
 31
0.0
1001
ACAD
1000
MTEXTBEGIN
1070
    73
1070
     1
1070
    44
1040
1.0
1070
    74
1070
     0
1000
MTEXTEND
1000
MTEXTBEGIN
1070
    73
1070
     1
1070
    44
1040
1.0
1070
    74
1070
     0
1000
MTEXTEND
  0
POINT
  5
FDB
330
70F
100
AcDbEntity
  8
DEFPOINTS
 62
     0
100
AcDbPoint
 10
181.0463671006301
 20
291.4983266026468
 30
0.0
  0
POINT
  5
FDC
330
70F
100
AcDbEntity
  8
DEFPOINTS
 62
     0
100
AcDbPoint
 10
141.5939033250009
 20
231.4983266026469
 30
0.0
  0
POINT
  5
FDD
330
70F
100
AcDbEntity
  8
DEFPOINTS
 62
     0
100
AcDbPoint
 10
121.2824527369245
 20
231.4983266026469
 30
0.0
  0
ENDBLK
  5
71A
330
70F
100
AcDbEntity
  8
0
100
AcDbBlockEnd
  0
BLOCK
  5
726
330
71C
100
AcDbEntity
  8
0
100
AcDbBlockBegin
  2
*D5
 70
     1
 10
0.0
 20
0.0
 30
0.0
  3
*D5
  1

  0
LINE
  5
1241
330
71C
100
AcDbEntity
  8
SUNPOU
100
AcDbLine
 10
149.4275510015321
 20
401.4983266026471
 30
0.0
 11
121.1258487082643
 21
401.4983266026471
 31
0.0
  0
LINE
  5
1242
330
71C
100
AcDbEntity
  8
SUNPOU
100
AcDbLine
 10
152.9939033250009
 20
356.4983266026468
 30
0.0
 11
121.1258487082643
 21
356.4983266026469
 31
0.0
  0
LINE
  5
1243
330
71C
100
AcDbEntity
  8
SUNPOU
100
AcDbLine
 10
123.1258487082643
 20
396.498326602647
 30
0.0
 11
123.1258487082643
 21
361.498326602647
 31
0.0
  0
MTEXT
  5
1244
330
71C
100
AcDbEntity
  8
SUNPOU
 62
     6
100
AcDbMText
 10
118.2358270343746
 20
383.8644748686554
 30
0.0
 40
5.0
 41
0.0
 71
     5
 72
     1
  1
\A1;45
  7
SUNPOU
 11
0.0000000000000001
 21
1.0
 31
0.0
1001
ACAD
1000
MTEXTBEGIN
1070
    73
1070
     1
1070
    44
1040
1.0
1070
    74
1070
     0
1000
MTEXTEND
1000
MTEXTBEGIN
1070
    73
1070
     1
1070
    44
1040
1.0
1070
    74
1070
     0
1000
MTEXTEND
  0
INSERT
  5
1245
330
71C
100
AcDbEntity
  8
SUNPOU
100
AcDbBlockReference
  2
_OPEN30
 10
123.1258487082643
 20
401.4983266026471
 30
0.0
 41
5.0
 42
5.0
 43
5.0
 50
90.0
  0
INSERT
  5
1246
330
71C
100
AcDbEntity
  8
SUNPOU
100
AcDbBlockReference
  2
_OPEN30
 10
123.1258487082643
 20
356.4983266026469
 30
0.0
 41
5.0
 42
5.0
 43
5.0
 50
270.0
  0
POINT
  5
1247
330
71C
100
AcDbEntity
  8
DEFPOINTS
 62
     0
100
AcDbPoint
 10
152.4275510015321
 20
401.4983266026471
 30
0.0
  0
POINT
  5
1248
330
71C
100
AcDbEntity
  8
DEFPOINTS
 62
     0
100
AcDbPoint
 10
155.9939033250009
 20
356.4983266026468
 30
0.0
  0
POINT
  5
1249
330
71C
100
AcDbEntity
  8
DEFPOINTS
 62
     0
100
AcDbPoint
 10
123.1258487082643
 20
356.4983266026469
 30
0.0
  0
ENDBLK
  5
727
330
71C
100
AcDbEntity
  8
0
100
AcDbBlockEnd
  0
BLOCK
  5
733
330
729
100
AcDbEntity
  8
0
100
AcDbBlockBegin
  2
*D6
 70
     1
 10
0.0
 20
0.0
 30
0.0
  3
*D6
  1

  0
LINE
  5
1278
330
729
100
AcDbEntity
  8
SUNPOU
100
AcDbLine
 10
165.9939033250009
 20
386.2010274435581
 30
0.0
 11
165.9939033250009
 21
385.2010274435582
 31
0.0
  0
LINE
  5
1279
330
729
100
AcDbEntity
  8
SUNPOU
100
AcDbLine
 10
299.9939033250008
 20
386.2010274435581
 30
0.0
 11
299.9939033250008
 21
385.2010274435582
 31
0.0
  0
LINE
  5
127A
330
729
100
AcDbEntity
  8
SUNPOU
100
AcDbLine
 10
170.9939033250009
 20
383.2010274435582
 30
0.0
 11
294.9939033250008
 21
383.2010274435582
 31
0.0
  0
INSERT
  5
127B
330
729
100
AcDbEntity
  8
SUNPOU
100
AcDbBlockReference
  2
_OPEN30
 10
165.9939033250009
 20
383.2010274435582
 30
0.0
 41
5.0
 42
5.0
 43
5.0
 50
180.0
  0
INSERT
  5
127C
330
729
100
AcDbEntity
  8
SUNPOU
100
AcDbBlockReference
  2
_OPEN30
 10
299.9939033250008
 20
383.2010274435582
 30
0.0
 41
5.0
 42
5.0
 43
5.0
  0
MTEXT
  5
127D
330
729
100
AcDbEntity
  8
SUNPOU
 62
     6
100
AcDbMText
 10
232.9939033250009
 20
387.7010274435582
 30
0.0
 40
5.0
 41
0.0
 71
     5
 72
     1
  1
\A1;134
  7
SUNPOU
1001
ACAD
1000
MTEXTBEGIN
1070
    73
1070
     1
1070
    44
1040
1.0
1070
    74
1070
     0
1000
MTEXTEND
1000
MTEXTBEGIN
1070
    73
1070
     1
1070
    44
1040
1.0
1070
    74
1070
     0
1000
MTEXTEND
  0
POINT
  5
127E
330
729
100
AcDbEntity
  8
DEFPOINTS
 62
     0
100
AcDbPoint
 10
165.9939033250009
 20
383.2010274435582
 30
0.0
  0
POINT
  5
127F
330
729
100
AcDbEntity
  8
DEFPOINTS
 62
     0
100
AcDbPoint
 10
299.9939033250008
 20
383.2010274435582
 30
0.0
  0
POINT
  5
1280
330
729
100
AcDbEntity
  8
DEFPOINTS
 62
     0
100
AcDbPoint
 10
299.9939033250008
 20
383.2010274435582
 30
0.0
  0
ENDBLK
  5
734
330
729
100
AcDbEntity
  8
0
100
AcDbBlockEnd
  0
BLOCK
  5
740
330
736
100
AcDbEntity
  8
0
100
AcDbBlockBegin
  2
*D7
 70
     1
 10
0.0
 20
0.0
 30
0.0
  3
*D7
  1

  0
LINE
  5
1098
330
736
100
AcDbEntity
  8
SUNPOU
100
AcDbLine
 10
139.9939033250009
 20
324.3297255429999
 30
0.0
 11
139.9939033250009
 21
323.3297255429998
 31
0.0
  0
LINE
  5
1099
330
736
100
AcDbEntity
  8
SUNPOU
100
AcDbLine
 10
165.9939033250009
 20
318.5976747329998
 30
0.0
 11
165.9939033250009
 21
319.3297255429998
 31
0.0
  0
LINE
  5
109A
330
736
100
AcDbEntity
  8
SUNPOU
100
AcDbLine
 10
144.9939033250009
 20
321.3297255429998
 30
0.0
 11
160.9939033250009
 21
321.3297255429998
 31
0.0
  0
INSERT
  5
109B
330
736
100
AcDbEntity
  8
SUNPOU
100
AcDbBlockReference
  2
_OPEN30
 10
139.9939033250009
 20
321.3297255429998
 30
0.0
 41
5.0
 42
5.0
 43
5.0
 50
180.0
  0
INSERT
  5
109C
330
736
100
AcDbEntity
  8
SUNPOU
100
AcDbBlockReference
  2
_OPEN30
 10
165.9939033250009
 20
321.3297255429998
 30
0.0
 41
5.0
 42
5.0
 43
5.0
  0
MTEXT
  5
109D
330
736
100
AcDbEntity
  8
SUNPOU
 62
     6
100
AcDbMText
 10
152.9939033250009
 20
325.8297255429998
 30
0.0
 40
5.0
 41
0.0
 71
     5
 72
     1
  1
\A1;26
  7
SUNPOU
1001
ACAD
1000
MTEXTBEGIN
1070
    73
1070
     1
1070
    44
1040
1.0
1070
    74
1070
     0
1000
MTEXTEND
1000
MTEXTBEGIN
1070
    73
1070
     1
1070
    44
1040
1.0
1070
    74
1070
     0
1000
MTEXTEND
  0
POINT
  5
109E
330
736
100
AcDbEntity
  8
DEFPOINTS
 62
     0
100
AcDbPoint
 10
139.9939033250009
 20
321.3297255429998
 30
0.0
  0
POINT
  5
109F
330
736
100
AcDbEntity
  8
DEFPOINTS
 62
     0
100
AcDbPoint
 10
165.9939033250009
 20
321.5976747329997
 30
0.0
  0
POINT
  5
10A0
330
736
100
AcDbEntity
  8
DEFPOINTS
 62
     0
100
AcDbPoint
 10
165.9939033250009
 20
321.3297255429998
 30
0.0
  0
ENDBLK
  5
741
330
736
100
AcDbEntity
  8
0
100
AcDbBlockEnd
  0
BLOCK
  5
75A
330
750
100
AcDbEntity
  8
0
100
AcDbBlockBegin
  2
*D8
 70
     1
 10
0.0
 20
0.0
 30
0.0
  3
*D8
  1

  0
LINE
  5
102B
330
750
100
AcDbEntity
  8
SUNPOU
100
AcDbLine
 10
197.9939033250009
 20
324.5976747329998
 30
0.0
 11
197.9939033250009
 21
323.5976747329997
 31
0.0
  0
LINE
  5
102C
330
750
100
AcDbEntity
  8
SUNPOU
100
AcDbLine
 10
224.9939033250009
 20
324.5976747329998
 30
0.0
 11
224.9939033250009
 21
323.5976747329997
 31
0.0
  0
LINE
  5
102D
330
750
100
AcDbEntity
  8
SUNPOU
100
AcDbLine
 10
202.9939033250009
 20
321.5976747329997
 30
0.0
 11
219.9939033250009
 21
321.5976747329997
 31
0.0
  0
MTEXT
  5
102E
330
750
100
AcDbEntity
  8
SUNPOU
 62
     6
100
AcDbMText
 10
208.0459096772424
 20
326.0976747329998
 30
0.0
 40
5.0
 41
0.0
 71
     5
 72
     1
  1
\A1;27
  7
SUNPOU
1001
ACAD
1000
MTEXTBEGIN
1070
    73
1070
     1
1070
    44
1040
1.0
1070
    74
1070
     0
1000
MTEXTEND
1000
MTEXTBEGIN
1070
    73
1070
     1
1070
    44
1040
1.0
1070
    74
1070
     0
1000
MTEXTEND
  0
INSERT
  5
102F
330
750
100
AcDbEntity
  8
SUNPOU
100
AcDbBlockReference
  2
_OPEN30
 10
197.9939033250009
 20
321.5976747329997
 30
0.0
 41
5.0
 42
5.0
 43
5.0
 50
180.0
  0
INSERT
  5
1030
330
750
100
AcDbEntity
  8
SUNPOU
100
AcDbBlockReference
  2
_OPEN30
 10
224.9939033250009
 20
321.5976747329997
 30
0.0
 41
5.0
 42
5.0
 43
5.0
  0
POINT
  5
1031
330
750
100
AcDbEntity
  8
DEFPOINTS
 62
     0
100
AcDbPoint
 10
197.9939033250009
 20
321.5976747329997
 30
0.0
  0
POINT
  5
1032
330
750
100
AcDbEntity
  8
DEFPOINTS
 62
     0
100
AcDbPoint
 10
224.9939033250009
 20
321.5976747329997
 30
0.0
  0
POINT
  5
1033
330
750
100
AcDbEntity
  8
DEFPOINTS
 62
     0
100
AcDbPoint
 10
224.9939033250009
 20
321.5976747329997
 30
0.0
  0
ENDBLK
  5
75B
330
750
100
AcDbEntity
  8
0
100
AcDbBlockEnd
  0
BLOCK
  5
767
330
75D
100
AcDbEntity
  8
0
100
AcDbBlockBegin
  2
*D9
 70
     1
 10
0.0
 20
0.0
 30
0.0
  3
*D9
  1

  0
LINE
  5
1154
330
75D
100
AcDbEntity
  8
SUNPOU
100
AcDbLine
 10
237.993903325001
 20
336.498326602647
 30
0.0
 11
268.8438154515387
 21
336.498326602647
 31
0.0
  0
LINE
  5
1155
330
75D
100
AcDbEntity
  8
SUNPOU
100
AcDbLine
 10
237.993903325001
 20
276.498326602647
 30
0.0
 11
268.8438154515387
 21
276.498326602647
 31
0.0
  0
LINE
  5
1156
330
75D
100
AcDbEntity
  8
SUNPOU
100
AcDbLine
 10
266.8438154515387
 20
331.4983266026469
 30
0.0
 11
266.8438154515387
 21
281.4983266026468
 31
0.0
  0
INSERT
  5
1157
330
75D
100
AcDbEntity
  8
SUNPOU
100
AcDbBlockReference
  2
_OPEN30
 10
266.8438154515387
 20
336.498326602647
 30
0.0
 41
5.0
 42
5.0
 43
5.0
 50
90.0
  0
INSERT
  5
1158
330
75D
100
AcDbEntity
  8
SUNPOU
100
AcDbBlockReference
  2
_OPEN30
 10
266.8438154515387
 20
276.498326602647
 30
0.0
 41
5.0
 42
5.0
 43
5.0
 50
270.0
  0
MTEXT
  5
1159
330
75D
100
AcDbEntity
  8
SUNPOU
 62
     6
100
AcDbMText
 10
262.3438154515385
 20
306.4983266026471
 30
0.0
 40
5.0
 41
0.0
 71
     5
 72
     1
  1
\A1;φ60
  7
SUNPOU
 11
0.0000000000000001
 21
1.0
 31
0.0
1001
ACAD
1000
MTEXTBEGIN
1070
    73
1070
     1
1070
    44
1040
1.0
1070
    74
1070
     0
1000
MTEXTEND
1000
MTEXTBEGIN
1070
    73
1070
     1
1070
    44
1040
1.0
1070
    74
1070
     0
1000
MTEXTEND
  0
POINT
  5
115A
330
75D
100
AcDbEntity
  8
DEFPOINTS
 62
     0
100
AcDbPoint
 10
234.9939033250009
 20
336.498326602647
 30
0.0
  0
POINT
  5
115B
330
75D
100
AcDbEntity
  8
DEFPOINTS
 62
     0
100
AcDbPoint
 10
234.9939033250009
 20
276.498326602647
 30
0.0
  0
POINT
  5
115C
330
75D
100
AcDbEntity
  8
DEFPOINTS
 62
     0
100
AcDbPoint
 10
266.8438154515387
 20
276.498326602647
 30
0.0
  0
ENDBLK
  5
768
330
75D
100
AcDbEntity
  8
0
100
AcDbBlockEnd
  0
BLOCK
  5
808
330
7FE
100
AcDbEntity
  8
0
100
AcDbBlockBegin
  2
*D10
 70
     1
 10
0.0
 20
0.0
 30
0.0
  3
*D10
  1

  0
LINE
  5
114B
330
7FE
100
AcDbEntity
  8
SUNPOU
100
AcDbLine
 10
248.9939033250009
 20
337.4983266026468
 30
0.0
 11
282.3882253474423
 21
337.4983266026468
 31
0.0
  0
LINE
  5
114C
330
7FE
100
AcDbEntity
  8
SUNPOU
100
AcDbLine
 10
242.493903325001
 20
245.498326602647
 30
0.0
 11
282.3882253474423
 21
245.498326602647
 31
0.0
  0
LINE
  5
114D
330
7FE
100
AcDbEntity
  8
SUNPOU
100
AcDbLine
 10
280.3882253474424
 20
332.4983266026468
 30
0.0
 11
280.3882253474424
 21
250.498326602647
 31
0.0
  0
INSERT
  5
114E
330
7FE
100
AcDbEntity
  8
SUNPOU
100
AcDbBlockReference
  2
_OPEN30
 10
280.3882253474424
 20
337.4983266026468
 30
0.0
 41
5.0
 42
5.0
 43
5.0
 50
90.0
  0
INSERT
  5
114F
330
7FE
100
AcDbEntity
  8
SUNPOU
100
AcDbBlockReference
  2
_OPEN30
 10
280.3882253474424
 20
245.498326602647
 30
0.0
 41
5.0
 42
5.0
 43
5.0
 50
270.0
  0
MTEXT
  5
1150
330
7FE
100
AcDbEntity
  8
SUNPOU
 62
     6
100
AcDbMText
 10
275.8882253474424
 20
291.4983266026468
 30
0.0
 40
5.0
 41
0.0
 71
     5
 72
     1
  1
\A1;92
  7
SUNPOU
 11
0.0000000000000001
 21
1.0
 31
0.0
1001
ACAD
1000
MTEXTBEGIN
1070
    73
1070
     1
1070
    44
1040
1.0
1070
    74
1070
     0
1000
MTEXTEND
1000
MTEXTBEGIN
1070
    73
1070
     1
1070
    44
1040
1.0
1070
    74
1070
     0
1000
MTEXTEND
  0
POINT
  5
1151
330
7FE
100
AcDbEntity
  8
DEFPOINTS
 62
     0
100
AcDbPoint
 10
245.9939033250009
 20
337.4983266026468
 30
0.0
  0
POINT
  5
1152
330
7FE
100
AcDbEntity
  8
DEFPOINTS
 62
     0
100
AcDbPoint
 10
239.4939033250009
 20
245.498326602647
 30
0.0
  0
POINT
  5
1153
330
7FE
100
AcDbEntity
  8
DEFPOINTS
 62
     0
100
AcDbPoint
 10
280.3882253474424
 20
245.498326602647
 30
0.0
  0
ENDBLK
  5
809
330
7FE
100
AcDbEntity
  8
0
100
AcDbBlockEnd
  0
BLOCK
  5
817
330
80B
100
AcDbEntity
  8
0
100
AcDbBlockBegin
  2
*D11
 70
     1
 10
0.0
 20
0.0
 30
0.0
  3
*D11
  1

  0
LINE
  5
E81
330
80B
100
AcDbEntity
  8
SUNPOU
100
AcDbLine
 10
245.9939033250009
 20
241.498326602647
 30
0.0
 11
277.819886831828
 21
241.498326602647
 31
0.0
  0
LINE
  5
E82
330
80B
100
AcDbEntity
  8
SUNPOU
100
AcDbLine
 10
272.8198868318279
 20
231.4983266026469
 30
0.0
 11
273.819886831828
 21
231.4983266026469
 31
0.0
  0
LINE
  5
E83
330
80B
100
AcDbEntity
  8
SUNPOU
100
AcDbLine
 10
275.819886831828
 20
246.498326602647
 30
0.0
 11
275.819886831828
 21
251.498326602647
 31
0.0
  0
LINE
  5
E84
330
80B
100
AcDbEntity
  8
SUNPOU
100
AcDbLine
 10
275.819886831828
 20
226.498326602647
 30
0.0
 11
275.819886831828
 21
221.498326602647
 31
0.0
  0
LINE
  5
E85
330
80B
100
AcDbEntity
  8
SUNPOU
100
AcDbLine
 10
275.819886831828
 20
241.498326602647
 30
0.0
 11
275.819886831828
 21
231.4983266026469
 31
0.0
  0
INSERT
  5
E86
330
80B
100
AcDbEntity
  8
SUNPOU
100
AcDbBlockReference
  2
_OPEN30
 10
275.819886831828
 20
241.498326602647
 30
0.0
 41
5.0
 42
5.0
 43
5.0
 50
270.0
  0
INSERT
  5
E87
330
80B
100
AcDbEntity
  8
SUNPOU
100
AcDbBlockReference
  2
_OPEN30
 10
275.819886831828
 20
231.4983266026469
 30
0.0
 41
5.0
 42
5.0
 43
5.0
 50
90.0
  0
MTEXT
  5
E88
330
80B
100
AcDbEntity
  8
SUNPOU
 62
     6
100
AcDbMText
 10
271.319886831828
 20
236.498326602647
 30
0.0
 40
5.0
 41
0.0
 71
     5
 72
     1
  1
\A1;10
  7
SUNPOU
 11
0.0000000000000001
 21
1.0
 31
0.0
1001
ACAD
1000
MTEXTBEGIN
1070
    73
1070
     1
1070
    44
1040
1.0
1070
    74
1070
     0
1000
MTEXTEND
1000
MTEXTBEGIN
1070
    73
1070
     1
1070
    44
1040
1.0
1070
    74
1070
     0
1000
MTEXTEND
  0
POINT
  5
E89
330
80B
100
AcDbEntity
  8
DEFPOINTS
 62
     0
100
AcDbPoint
 10
242.9939033250009
 20
241.498326602647
 30
0.0
  0
POINT
  5
E8A
330
80B
100
AcDbEntity
  8
DEFPOINTS
 62
     0
100
AcDbPoint
 10
275.819886831828
 20
231.4983266026469
 30
0.0
  0
POINT
  5
E8B
330
80B
100
AcDbEntity
  8
DEFPOINTS
 62
     0
100
AcDbPoint
 10
275.819886831828
 20
231.4983266026469
 30
0.0
  0
ENDBLK
  5
818
330
80B
100
AcDbEntity
  8
0
100
AcDbBlockEnd
  0
BLOCK
  5
83A
330
830
100
AcDbEntity
  8
0
100
AcDbBlockBegin
  2
*D12
 70
     1
 10
0.0
 20
0.0
 30
0.0
  3
*D12
  1

  0
LINE
  5
E42
330
830
100
AcDbEntity
  8
SUNPOU
100
AcDbLine
 10
308.3939033250008
 20
501.4983266026468
 30
0.0
 11
347.0694745025053
 21
501.4983266026468
 31
0.0
  0
LINE
  5
E43
330
830
100
AcDbEntity
  8
SUNPOU
100
AcDbLine
 10
308.3939033250008
 20
231.4983266026469
 30
0.0
 11
347.0694745025053
 21
231.4983266026469
 31
0.0
  0
LINE
  5
E44
330
830
100
AcDbEntity
  8
SUNPOU
100
AcDbLine
 10
345.0694745025053
 20
496.4983266026468
 30
0.0
 11
345.0694745025053
 21
236.4983266026468
 31
0.0
  0
INSERT
  5
E45
330
830
100
AcDbEntity
  8
SUNPOU
100
AcDbBlockReference
  2
_OPEN30
 10
345.0694745025053
 20
501.4983266026468
 30
0.0
 41
5.0
 42
5.0
 43
5.0
 50
90.0
  0
INSERT
  5
E46
330
830
100
AcDbEntity
  8
SUNPOU
100
AcDbBlockReference
  2
_OPEN30
 10
345.0694745025053
 20
231.4983266026469
 30
0.0
 41
5.0
 42
5.0
 43
5.0
 50
270.0
  0
MTEXT
  5
E47
330
830
100
AcDbEntity
  8
SUNPOU
 62
     6
100
AcDbMText
 10
340.5694745025053
 20
366.498326602647
 30
0.0
 40
5.0
 41
0.0
 71
     5
 72
     1
  1
\A1;270
  7
SUNPOU
 11
0.0000000000000001
 21
1.0
 31
0.0
1001
ACAD
1000
MTEXTBEGIN
1070
    73
1070
     1
1070
    44
1040
1.0
1070
    74
1070
     0
1000
MTEXTEND
1000
MTEXTBEGIN
1070
    73
1070
     1
1070
    44
1040
1.0
1070
    74
1070
     0
1000
MTEXTEND
  0
POINT
  5
E48
330
830
100
AcDbEntity
  8
DEFPOINTS
 62
     0
100
AcDbPoint
 10
305.3939033250008
 20
501.4983266026468
 30
0.0
  0
POINT
  5
E49
330
830
100
AcDbEntity
  8
DEFPOINTS
 62
     0
100
AcDbPoint
 10
305.3939033250008
 20
231.4983266026469
 30
0.0
  0
POINT
  5
E4A
330
830
100
AcDbEntity
  8
DEFPOINTS
 62
     0
100
AcDbPoint
 10
345.0694745025053
 20
231.4983266026469
 30
0.0
  0
ENDBLK
  5
83B
330
830
100
AcDbEntity
  8
0
100
AcDbBlockEnd
  0
BLOCK
  5
850
330
846
100
AcDbEntity
  8
0
100
AcDbBlockBegin
  2
*D13
 70
     1
 10
0.0
 20
0.0
 30
0.0
  3
*D13
  1

  0
LINE
  5
E66
330
846
100
AcDbEntity
  8
SUNPOU
100
AcDbLine
 10
308.3939033250008
 20
231.4983266026469
 30
0.0
 11
347.0694745025053
 21
231.4983266026469
 31
0.0
  0
LINE
  5
E67
330
846
100
AcDbEntity
  8
SUNPOU
100
AcDbLine
 10
342.0694745025053
 20
78.2013143003623
 30
0.0
 11
343.0694745025053
 21
78.2013143003623
 31
0.0
  0
LINE
  5
E68
330
846
100
AcDbEntity
  8
SUNPOU
100
AcDbLine
 10
345.0694745025053
 20
226.4983266026468
 30
0.0
 11
345.0694745025053
 21
83.2013143003623
 31
0.0
  0
MTEXT
  5
E69
330
846
100
AcDbEntity
  8
SUNPOU
 62
     6
100
AcDbMText
 10
340.4672571744289
 20
144.9722165144641
 30
0.0
 40
5.0
 41
0.0
 71
     5
 72
     1
  1
\A1;H
  7
SUNPOU
 11
0.0000000000000001
 21
1.0
 31
0.0
1001
ACAD
1000
MTEXTBEGIN
1070
    73
1070
     1
1070
    44
1040
1.0
1070
    74
1070
     0
1000
MTEXTEND
1000
MTEXTBEGIN
1070
    73
1070
     1
1070
    44
1040
1.0
1070
    74
1070
     0
1000
MTEXTEND
  0
INSERT
  5
E6A
330
846
100
AcDbEntity
  8
SUNPOU
100
AcDbBlockReference
  2
_OPEN30
 10
345.0694745025053
 20
231.4983266026469
 30
0.0
 41
5.0
 42
5.0
 43
5.0
 50
90.0
  0
INSERT
  5
E6B
330
846
100
AcDbEntity
  8
SUNPOU
100
AcDbBlockReference
  2
_OPEN30
 10
345.0694745025053
 20
78.2013143003623
 30
0.0
 41
5.0
 42
5.0
 43
5.0
 50
270.0
  0
POINT
  5
E6C
330
846
100
AcDbEntity
  8
DEFPOINTS
 62
     0
100
AcDbPoint
 10
305.3939033250008
 20
231.4983266026469
 30
0.0
  0
POINT
  5
E6D
330
846
100
AcDbEntity
  8
DEFPOINTS
 62
     0
100
AcDbPoint
 10
345.0694745025053
 20
78.2013143003623
 30
0.0
  0
POINT
  5
E6E
330
846
100
AcDbEntity
  8
DEFPOINTS
 62
     0
100
AcDbPoint
 10
345.0694745025053
 20
78.2013143003623
 30
0.0
  0
ENDBLK
  5
851
330
846
100
AcDbEntity
  8
0
100
AcDbBlockEnd
  0
BLOCK
  5
85D
330
853
100
AcDbEntity
  8
0
100
AcDbBlockBegin
  2
*D14
 70
     1
 10
0.0
 20
0.0
 30
0.0
  3
*D14
  1

  0
LINE
  5
1139
330
853
100
AcDbEntity
  8
SUNPOU
100
AcDbLine
 10
245.9939033250009
 20
241.498326602647
 30
0.0
 11
328.2786133425756
 21
241.498326602647
 31
0.0
  0
LINE
  5
113A
330
853
100
AcDbEntity
  8
SUNPOU
100
AcDbLine
 10
247.9939033250008
 20
88.2013143003623
 30
0.0
 11
328.2786133425756
 21
88.20131430036228
 31
0.0
  0
LINE
  5
113B
330
853
100
AcDbEntity
  8
SUNPOU
100
AcDbLine
 10
326.2786133425756
 20
236.4983266026468
 30
0.0
 11
326.2786133425756
 21
93.20131430036228
 31
0.0
  0
MTEXT
  5
113C
330
853
100
AcDbEntity
  8
SUNPOU
 62
     6
100
AcDbMText
 10
320.7836121030653
 20
154.4591008143644
 30
0.0
 40
5.0
 41
0.0
 71
     5
 72
     1
  1
\A1;DH
  7
SUNPOU
 11
0.0000000000000001
 21
1.0
 31
0.0
1001
ACAD
1000
MTEXTBEGIN
1070
    73
1070
     1
1070
    44
1040
1.0
1070
    74
1070
     0
1000
MTEXTEND
1000
MTEXTBEGIN
1070
    73
1070
     1
1070
    44
1040
1.0
1070
    74
1070
     0
1000
MTEXTEND
  0
INSERT
  5
113D
330
853
100
AcDbEntity
  8
SUNPOU
100
AcDbBlockReference
  2
_OPEN30
 10
326.2786133425756
 20
241.498326602647
 30
0.0
 41
5.0
 42
5.0
 43
5.0
 50
90.0
  0
INSERT
  5
113E
330
853
100
AcDbEntity
  8
SUNPOU
100
AcDbBlockReference
  2
_OPEN30
 10
326.2786133425756
 20
88.20131430036228
 30
0.0
 41
5.0
 42
5.0
 43
5.0
 50
270.0
  0
POINT
  5
113F
330
853
100
AcDbEntity
  8
DEFPOINTS
 62
     0
100
AcDbPoint
 10
242.9939033250009
 20
241.498326602647
 30
0.0
  0
POINT
  5
1140
330
853
100
AcDbEntity
  8
DEFPOINTS
 62
     0
100
AcDbPoint
 10
244.9939033250008
 20
88.2013143003623
 30
0.0
  0
POINT
  5
1141
330
853
100
AcDbEntity
  8
DEFPOINTS
 62
     0
100
AcDbPoint
 10
326.2786133425756
 20
88.20131430036228
 30
0.0
  0
ENDBLK
  5
85E
330
853
100
AcDbEntity
  8
0
100
AcDbBlockEnd
  0
BLOCK
  5
86A
330
860
100
AcDbEntity
  8
0
100
AcDbBlockBegin
  2
*D15
 70
     1
 10
0.0
 20
0.0
 30
0.0
  3
*D15
  1

  0
LINE
  5
FFB
330
860
100
AcDbEntity
  8
SUNPOU
100
AcDbLine
 10
139.9939033250009
 20
208.3024882223509
 30
0.0
 11
139.9939033250009
 21
207.3024882223509
 31
0.0
  0
LINE
  5
FFC
330
860
100
AcDbEntity
  8
SUNPOU
100
AcDbLine
 10
161.9939033250008
 20
230.0983266026468
 30
0.0
 11
161.9939033250008
 21
203.3024882223509
 31
0.0
  0
LINE
  5
FFD
330
860
100
AcDbEntity
  8
SUNPOU
100
AcDbLine
 10
144.9939033250009
 20
205.3024882223509
 30
0.0
 11
156.9939033250008
 21
205.3024882223509
 31
0.0
  0
INSERT
  5
FFE
330
860
100
AcDbEntity
  8
SUNPOU
100
AcDbBlockReference
  2
_OPEN30
 10
139.9939033250009
 20
205.3024882223509
 30
0.0
 41
5.0
 42
5.0
 43
5.0
 50
180.0
  0
INSERT
  5
FFF
330
860
100
AcDbEntity
  8
SUNPOU
100
AcDbBlockReference
  2
_OPEN30
 10
161.9939033250008
 20
205.3024882223509
 30
0.0
 41
5.0
 42
5.0
 43
5.0
  0
MTEXT
  5
1000
330
860
100
AcDbEntity
  8
SUNPOU
 62
     6
100
AcDbMText
 10
150.9939033250009
 20
209.8024882223509
 30
0.0
 40
5.0
 41
0.0
 71
     5
 72
     1
  1
\A1;22
  7
SUNPOU
1001
ACAD
1000
MTEXTBEGIN
1070
    73
1070
     1
1070
    44
1040
1.0
1070
    74
1070
     0
1000
MTEXTEND
1000
MTEXTBEGIN
1070
    73
1070
     1
1070
    44
1040
1.0
1070
    74
1070
     0
1000
MTEXTEND
  0
POINT
  5
1001
330
860
100
AcDbEntity
  8
DEFPOINTS
 62
     0
100
AcDbPoint
 10
139.9939033250009
 20
205.3024882223509
 30
0.0
  0
POINT
  5
1002
330
860
100
AcDbEntity
  8
DEFPOINTS
 62
     0
100
AcDbPoint
 10
161.9939033250008
 20
233.0983266026469
 30
0.0
  0
POINT
  5
1003
330
860
100
AcDbEntity
  8
DEFPOINTS
 62
     0
100
AcDbPoint
 10
161.9939033250008
 20
205.3024882223509
 30
0.0
  0
ENDBLK
  5
86B
330
860
100
AcDbEntity
  8
0
100
AcDbBlockEnd
  0
BLOCK
  5
877
330
86D
100
AcDbEntity
  8
0
100
AcDbBlockBegin
  2
*D16
 70
     1
 10
0.0
 20
0.0
 30
0.0
  3
*D16
  1

  0
LINE
  5
E15
330
86D
100
AcDbEntity
  8
SUNPOU
100
AcDbLine
 10
161.9939033250008
 20
230.0983266026468
 30
0.0
 11
161.9939033250008
 21
203.5704374123509
 31
0.0
  0
LINE
  5
E16
330
86D
100
AcDbEntity
  8
SUNPOU
100
AcDbLine
 10
177.9939033250009
 20
230.098326602647
 30
0.0
 11
177.9939033250009
 21
203.5704374123509
 31
0.0
  0
LINE
  5
E17
330
86D
100
AcDbEntity
  8
SUNPOU
100
AcDbLine
 10
166.9939033250009
 20
205.5704374123509
 30
0.0
 11
172.9939033250009
 21
205.5704374123509
 31
0.0
  0
INSERT
  5
E18
330
86D
100
AcDbEntity
  8
SUNPOU
100
AcDbBlockReference
  2
_OPEN30
 10
161.9939033250008
 20
205.5704374123509
 30
0.0
 41
5.0
 42
5.0
 43
5.0
 50
180.0
  0
INSERT
  5
E19
330
86D
100
AcDbEntity
  8
SUNPOU
100
AcDbBlockReference
  2
_OPEN30
 10
177.9939033250009
 20
205.5704374123509
 30
0.0
 41
5.0
 42
5.0
 43
5.0
  0
MTEXT
  5
E1A
330
86D
100
AcDbEntity
  8
SUNPOU
 62
     6
100
AcDbMText
 10
169.9939033250009
 20
210.0704374123508
 30
0.0
 40
5.0
 41
0.0
 71
     5
 72
     1
  1
\A1;16
  7
SUNPOU
1001
ACAD
1000
MTEXTBEGIN
1070
    73
1070
     1
1070
    44
1040
1.0
1070
    74
1070
     0
1000
MTEXTEND
1000
MTEXTBEGIN
1070
    73
1070
     1
1070
    44
1040
1.0
1070
    74
1070
     0
1000
MTEXTEND
  0
POINT
  5
E1B
330
86D
100
AcDbEntity
  8
DEFPOINTS
 62
     0
100
AcDbPoint
 10
161.9939033250008
 20
233.0983266026469
 30
0.0
  0
POINT
  5
E1C
330
86D
100
AcDbEntity
  8
DEFPOINTS
 62
     0
100
AcDbPoint
 10
177.9939033250009
 20
233.0983266026469
 30
0.0
  0
POINT
  5
E1D
330
86D
100
AcDbEntity
  8
DEFPOINTS
 62
     0
100
AcDbPoint
 10
177.9939033250009
 20
205.5704374123509
 30
0.0
  0
ENDBLK
  5
878
330
86D
100
AcDbEntity
  8
0
100
AcDbBlockEnd
  0
BLOCK
  5
884
330
87A
100
AcDbEntity
  8
0
100
AcDbBlockBegin
  2
*D17
 70
     1
 10
0.0
 20
0.0
 30
0.0
  3
*D17
  1

  0
LINE
  5
103F
330
87A
100
AcDbEntity
  8
SUNPOU
100
AcDbLine
 10
177.9939033250009
 20
230.098326602647
 30
0.0
 11
177.9939033250009
 21
203.5704374123509
 31
0.0
  0
LINE
  5
1040
330
87A
100
AcDbEntity
  8
SUNPOU
100
AcDbLine
 10
199.9939033250009
 20
208.5704374123509
 30
0.0
 11
199.9939033250009
 21
207.5704374123509
 31
0.0
  0
LINE
  5
1041
330
87A
100
AcDbEntity
  8
SUNPOU
100
AcDbLine
 10
182.9939033250009
 20
205.5704374123509
 30
0.0
 11
194.9939033250009
 21
205.5704374123509
 31
0.0
  0
INSERT
  5
1042
330
87A
100
AcDbEntity
  8
SUNPOU
100
AcDbBlockReference
  2
_OPEN30
 10
177.9939033250009
 20
205.5704374123509
 30
0.0
 41
5.0
 42
5.0
 43
5.0
 50
180.0
  0
INSERT
  5
1043
330
87A
100
AcDbEntity
  8
SUNPOU
100
AcDbBlockReference
  2
_OPEN30
 10
199.9939033250009
 20
205.5704374123509
 30
0.0
 41
5.0
 42
5.0
 43
5.0
  0
MTEXT
  5
1044
330
87A
100
AcDbEntity
  8
SUNPOU
 62
     6
100
AcDbMText
 10
188.9939033250009
 20
210.0704374123508
 30
0.0
 40
5.0
 41
0.0
 71
     5
 72
     1
  1
\A1;22
  7
SUNPOU
1001
ACAD
1000
MTEXTBEGIN
1070
    73
1070
     1
1070
    44
1040
1.0
1070
    74
1070
     0
1000
MTEXTEND
1000
MTEXTBEGIN
1070
    73
1070
     1
1070
    44
1040
1.0
1070
    74
1070
     0
1000
MTEXTEND
  0
POINT
  5
1045
330
87A
100
AcDbEntity
  8
DEFPOINTS
 62
     0
100
AcDbPoint
 10
177.9939033250009
 20
233.0983266026469
 30
0.0
  0
POINT
  5
1046
330
87A
100
AcDbEntity
  8
DEFPOINTS
 62
     0
100
AcDbPoint
 10
199.9939033250009
 20
205.5704374123509
 30
0.0
  0
POINT
  5
1047
330
87A
100
AcDbEntity
  8
DEFPOINTS
 62
     0
100
AcDbPoint
 10
199.9939033250009
 20
205.5704374123509
 30
0.0
  0
ENDBLK
  5
885
330
87A
100
AcDbEntity
  8
0
100
AcDbBlockEnd
  0
BLOCK
  5
893
330
887
100
AcDbEntity
  8
0
100
AcDbBlockBegin
  2
*D18
 70
     1
 10
0.0
 20
0.0
 30
0.0
  3
*D18
  1

  0
LINE
  5
1051
330
887
100
AcDbEntity
  8
SUNPOU
100
AcDbLine
 10
199.9939033250009
 20
208.5704374123509
 30
0.0
 11
199.9939033250009
 21
207.5704374123509
 31
0.0
  0
LINE
  5
1052
330
887
100
AcDbEntity
  8
SUNPOU
100
AcDbLine
 10
204.9939033250009
 20
208.5704374123509
 30
0.0
 11
204.9939033250009
 21
207.5704374123509
 31
0.0
  0
LINE
  5
1053
330
887
100
AcDbEntity
  8
SUNPOU
100
AcDbLine
 10
194.9939033250009
 20
205.5704374123509
 30
0.0
 11
189.9939033250009
 21
205.5704374123509
 31
0.0
  0
LINE
  5
1054
330
887
100
AcDbEntity
  8
SUNPOU
100
AcDbLine
 10
209.9939033250009
 20
205.5704374123509
 30
0.0
 11
214.9939033250009
 21
205.5704374123509
 31
0.0
  0
MTEXT
  5
1055
330
887
100
AcDbEntity
  8
SUNPOU
 62
     6
100
AcDbMText
 10
202.43939177562
 20
210.3589421842684
 30
0.0
 40
5.0
 41
0.0
 71
     5
 72
     1
  1
\A1;5
  7
SUNPOU
1001
ACAD
1000
MTEXTBEGIN
1070
    73
1070
     1
1070
    44
1040
1.0
1070
    74
1070
     0
1000
MTEXTEND
1000
MTEXTBEGIN
1070
    73
1070
     1
1070
    44
1040
1.0
1070
    74
1070
     0
1000
MTEXTEND
  0
LINE
  5
1056
330
887
100
AcDbEntity
  8
SUNPOU
100
AcDbLine
 10
199.9939033250009
 20
205.5704374123509
 30
0.0
 11
204.9939033250009
 21
205.5704374123509
 31
0.0
  0
INSERT
  5
1057
330
887
100
AcDbEntity
  8
SUNPOU
100
AcDbBlockReference
  2
_OPEN30
 10
199.9939033250009
 20
205.5704374123509
 30
0.0
 41
5.0
 42
5.0
 43
5.0
  0
INSERT
  5
1058
330
887
100
AcDbEntity
  8
SUNPOU
100
AcDbBlockReference
  2
_OPEN30
 10
204.9939033250009
 20
205.5704374123509
 30
0.0
 41
5.0
 42
5.0
 43
5.0
 50
180.0
  0
POINT
  5
1059
330
887
100
AcDbEntity
  8
DEFPOINTS
 62
     0
100
AcDbPoint
 10
199.9939033250009
 20
205.5704374123509
 30
0.0
  0
POINT
  5
105A
330
887
100
AcDbEntity
  8
DEFPOINTS
 62
     0
100
AcDbPoint
 10
204.9939033250009
 20
205.5704374123509
 30
0.0
  0
POINT
  5
105B
330
887
100
AcDbEntity
  8
DEFPOINTS
 62
     0
100
AcDbPoint
 10
204.9939033250009
 20
205.5704374123509
 30
0.0
  0
ENDBLK
  5
894
330
887
100
AcDbEntity
  8
0
100
AcDbBlockEnd
  0
BLOCK
  5
8A0
330
896
100
AcDbEntity
  8
0
100
AcDbBlockBegin
  2
*D19
 70
     1
 10
0.0
 20
0.0
 30
0.0
  3
*D19
  1

  0
LINE
  5
1070
330
896
100
AcDbEntity
  8
SUNPOU
100
AcDbLine
 10
204.9939033250009
 20
208.5704374123509
 30
0.0
 11
204.9939033250009
 21
207.5704374123509
 31
0.0
  0
LINE
  5
1071
330
896
100
AcDbEntity
  8
SUNPOU
100
AcDbLine
 10
244.9939033250009
 20
208.5704374123509
 30
0.0
 11
244.9939033250009
 21
207.5704374123509
 31
0.0
  0
LINE
  5
1072
330
896
100
AcDbEntity
  8
SUNPOU
100
AcDbLine
 10
209.9939033250009
 20
205.5704374123509
 30
0.0
 11
239.9939033250009
 21
205.5704374123509
 31
0.0
  0
MTEXT
  5
1073
330
896
100
AcDbEntity
  8
SUNPOU
 62
     6
100
AcDbMText
 10
222.9939033250009
 20
210.6631462938143
 30
0.0
 40
5.0
 41
0.0
 71
     5
 72
     1
  1
\A1;40
  7
SUNPOU
1001
ACAD
1000
MTEXTBEGIN
1070
    73
1070
     1
1070
    44
1040
1.0
1070
    74
1070
     0
1000
MTEXTEND
1000
MTEXTBEGIN
1070
    73
1070
     1
1070
    44
1040
1.0
1070
    74
1070
     0
1000
MTEXTEND
  0
INSERT
  5
1074
330
896
100
AcDbEntity
  8
SUNPOU
100
AcDbBlockReference
  2
_OPEN30
 10
204.9939033250009
 20
205.5704374123509
 30
0.0
 41
5.0
 42
5.0
 43
5.0
 50
180.0
  0
INSERT
  5
1075
330
896
100
AcDbEntity
  8
SUNPOU
100
AcDbBlockReference
  2
_OPEN30
 10
244.9939033250009
 20
205.5704374123509
 30
0.0
 41
5.0
 42
5.0
 43
5.0
  0
POINT
  5
1076
330
896
100
AcDbEntity
  8
DEFPOINTS
 62
     0
100
AcDbPoint
 10
204.9939033250009
 20
205.5704374123509
 30
0.0
  0
POINT
  5
1077
330
896
100
AcDbEntity
  8
DEFPOINTS
 62
     0
100
AcDbPoint
 10
244.9939033250009
 20
205.5704374123509
 30
0.0
  0
POINT
  5
1078
330
896
100
AcDbEntity
  8
DEFPOINTS
 62
     0
100
AcDbPoint
 10
244.9939033250009
 20
205.5704374123509
 30
0.0
  0
ENDBLK
  5
8A1
330
896
100
AcDbEntity
  8
0
100
AcDbBlockEnd
  0
BLOCK
  5
8AF
330
8A3
100
AcDbEntity
  8
0
100
AcDbBlockBegin
  2
*D20
 70
     1
 10
0.0
 20
0.0
 30
0.0
  3
*D20
  1

  0
LINE
  5
108D
330
8A3
100
AcDbEntity
  8
SUNPOU
100
AcDbLine
 10
244.9939033250009
 20
208.5704374123509
 30
0.0
 11
244.9939033250009
 21
207.5704374123509
 31
0.0
  0
LINE
  5
108E
330
8A3
100
AcDbEntity
  8
SUNPOU
100
AcDbLine
 10
249.9939033250007
 20
230.098326602647
 30
0.0
 11
249.9939033250007
 21
203.5704374123509
 31
0.0
  0
LINE
  5
108F
330
8A3
100
AcDbEntity
  8
SUNPOU
100
AcDbLine
 10
239.9939033250009
 20
205.5704374123509
 30
0.0
 11
234.9939033250008
 21
205.5704374123509
 31
0.0
  0
LINE
  5
1090
330
8A3
100
AcDbEntity
  8
SUNPOU
100
AcDbLine
 10
254.9939033250009
 20
205.5704374123509
 30
0.0
 11
259.9939033250009
 21
205.5704374123509
 31
0.0
  0
MTEXT
  5
1091
330
8A3
100
AcDbEntity
  8
SUNPOU
 62
     6
100
AcDbMText
 10
247.4669212932413
 20
210.1354606372586
 30
0.0
 40
5.0
 41
0.0
 71
     5
 72
     1
  1
\A1;5
  7
SUNPOU
1001
ACAD
1000
MTEXTBEGIN
1070
    73
1070
     1
1070
    44
1040
1.0
1070
    74
1070
     0
1000
MTEXTEND
1000
MTEXTBEGIN
1070
    73
1070
     1
1070
    44
1040
1.0
1070
    74
1070
     0
1000
MTEXTEND
  0
LINE
  5
1092
330
8A3
100
AcDbEntity
  8
SUNPOU
100
AcDbLine
 10
244.9939033250009
 20
205.5704374123509
 30
0.0
 11
249.9939033250007
 21
205.5704374123509
 31
0.0
  0
INSERT
  5
1093
330
8A3
100
AcDbEntity
  8
SUNPOU
100
AcDbBlockReference
  2
_OPEN30
 10
244.9939033250009
 20
205.5704374123509
 30
0.0
 41
5.0
 42
5.0
 43
5.0
  0
INSERT
  5
1094
330
8A3
100
AcDbEntity
  8
SUNPOU
100
AcDbBlockReference
  2
_OPEN30
 10
249.9939033250007
 20
205.5704374123509
 30
0.0
 41
5.0
 42
5.0
 43
5.0
 50
180.0
  0
POINT
  5
1095
330
8A3
100
AcDbEntity
  8
DEFPOINTS
 62
     0
100
AcDbPoint
 10
244.9939033250009
 20
205.5704374123509
 30
0.0
  0
POINT
  5
1096
330
8A3
100
AcDbEntity
  8
DEFPOINTS
 62
     0
100
AcDbPoint
 10
249.9939033250007
 20
233.0983266026469
 30
0.0
  0
POINT
  5
1097
330
8A3
100
AcDbEntity
  8
DEFPOINTS
 62
     0
100
AcDbPoint
 10
249.9939033250007
 20
205.5704374123509
 30
0.0
  0
ENDBLK
  5
8B0
330
8A3
100
AcDbEntity
  8
0
100
AcDbBlockEnd
  0
BLOCK
  5
8BC
330
8B2
100
AcDbEntity
  8
0
100
AcDbBlockBegin
  2
*D21
 70
     1
 10
0.0
 20
0.0
 30
0.0
  3
*D21
  1

  0
LINE
  5
1084
330
8B2
100
AcDbEntity
  8
SUNPOU
100
AcDbLine
 10
249.9939033250007
 20
230.098326602647
 30
0.0
 11
249.9939033250007
 21
203.5704374123509
 31
0.0
  0
LINE
  5
1085
330
8B2
100
AcDbEntity
  8
SUNPOU
100
AcDbLine
 10
306.9939033250008
 20
230.098326602647
 30
0.0
 11
306.9939033250008
 21
203.5704374123509
 31
0.0
  0
LINE
  5
1086
330
8B2
100
AcDbEntity
  8
SUNPOU
100
AcDbLine
 10
254.9939033250009
 20
205.5704374123509
 30
0.0
 11
301.9939033250008
 21
205.5704374123509
 31
0.0
  0
INSERT
  5
1087
330
8B2
100
AcDbEntity
  8
SUNPOU
100
AcDbBlockReference
  2
_OPEN30
 10
249.9939033250007
 20
205.5704374123509
 30
0.0
 41
5.0
 42
5.0
 43
5.0
 50
180.0
  0
INSERT
  5
1088
330
8B2
100
AcDbEntity
  8
SUNPOU
100
AcDbBlockReference
  2
_OPEN30
 10
306.9939033250008
 20
205.5704374123509
 30
0.0
 41
5.0
 42
5.0
 43
5.0
  0
MTEXT
  5
1089
330
8B2
100
AcDbEntity
  8
SUNPOU
 62
     6
100
AcDbMText
 10
278.4939033250009
 20
210.0704374123508
 30
0.0
 40
5.0
 41
0.0
 71
     5
 72
     1
  1
\A1;57
  7
SUNPOU
1001
ACAD
1000
MTEXTBEGIN
1070
    73
1070
     1
1070
    44
1040
1.0
1070
    74
1070
     0
1000
MTEXTEND
1000
MTEXTBEGIN
1070
    73
1070
     1
1070
    44
1040
1.0
1070
    74
1070
     0
1000
MTEXTEND
  0
POINT
  5
108A
330
8B2
100
AcDbEntity
  8
DEFPOINTS
 62
     0
100
AcDbPoint
 10
249.9939033250007
 20
233.0983266026469
 30
0.0
  0
POINT
  5
108B
330
8B2
100
AcDbEntity
  8
DEFPOINTS
 62
     0
100
AcDbPoint
 10
306.9939033250008
 20
233.0983266026469
 30
0.0
  0
POINT
  5
108C
330
8B2
100
AcDbEntity
  8
DEFPOINTS
 62
     0
100
AcDbPoint
 10
306.9939033250008
 20
205.5704374123509
 30
0.0
  0
ENDBLK
  5
8BD
330
8B2
100
AcDbEntity
  8
0
100
AcDbBlockEnd
  0
BLOCK
  5
8E7
330
8DB
100
AcDbEntity
  8
0
100
AcDbBlockBegin
  2
*D22
 70
     1
 10
0.0
 20
0.0
 30
0.0
  3
*D22
  1

  0
LINE
  5
FE7
330
8DB
100
AcDbEntity
  8
SUNPOU
100
AcDbLine
 10
136.9939033250008
 20
190.4152993582544
 30
0.0
 11
136.9939033250008
 21
189.4152993582544
 31
0.0
  0
LINE
  5
FE8
330
8DB
100
AcDbEntity
  8
SUNPOU
100
AcDbLine
 10
139.9939033250009
 20
230.0983266026468
 30
0.0
 11
139.9939033250009
 21
185.4152993582544
 31
0.0
  0
LINE
  5
FE9
330
8DB
100
AcDbEntity
  8
SUNPOU
100
AcDbLine
 10
131.9939033250008
 20
187.4152993582544
 30
0.0
 11
126.9939033250009
 21
187.4152993582544
 31
0.0
  0
LINE
  5
FEA
330
8DB
100
AcDbEntity
  8
SUNPOU
100
AcDbLine
 10
144.9939033250009
 20
187.4152993582544
 30
0.0
 11
149.9939033250009
 21
187.4152993582544
 31
0.0
  0
MTEXT
  5
FEB
330
8DB
100
AcDbEntity
  8
SUNPOU
 62
     6
100
AcDbMText
 10
130.1992052963542
 20
193.1091558813982
 30
0.0
 40
5.0
 41
0.0
 71
     5
 72
     1
  1
\A1;3
  7
SUNPOU
1001
ACAD
1000
MTEXTBEGIN
1070
    73
1070
     1
1070
    44
1040
1.0
1070
    74
1070
     0
1000
MTEXTEND
1000
MTEXTBEGIN
1070
    73
1070
     1
1070
    44
1040
1.0
1070
    74
1070
     0
1000
MTEXTEND
  0
LINE
  5
FEC
330
8DB
100
AcDbEntity
  8
SUNPOU
100
AcDbLine
 10
136.9939033250008
 20
187.4152993582544
 30
0.0
 11
139.9939033250009
 21
187.4152993582544
 31
0.0
  0
INSERT
  5
FED
330
8DB
100
AcDbEntity
  8
SUNPOU
100
AcDbBlockReference
  2
_OPEN30
 10
136.9939033250008
 20
187.4152993582544
 30
0.0
 41
5.0
 42
5.0
 43
5.0
  0
INSERT
  5
FEE
330
8DB
100
AcDbEntity
  8
SUNPOU
100
AcDbBlockReference
  2
_OPEN30
 10
139.9939033250009
 20
187.4152993582544
 30
0.0
 41
5.0
 42
5.0
 43
5.0
 50
180.0
  0
POINT
  5
FEF
330
8DB
100
AcDbEntity
  8
DEFPOINTS
 62
     0
100
AcDbPoint
 10
136.9939033250008
 20
187.4152993582544
 30
0.0
  0
POINT
  5
FF0
330
8DB
100
AcDbEntity
  8
DEFPOINTS
 62
     0
100
AcDbPoint
 10
139.9939033250009
 20
233.0983266026469
 30
0.0
  0
POINT
  5
FF1
330
8DB
100
AcDbEntity
  8
DEFPOINTS
 62
     0
100
AcDbPoint
 10
139.9939033250009
 20
187.4152993582544
 30
0.0
  0
ENDBLK
  5
8E8
330
8DB
100
AcDbEntity
  8
0
100
AcDbBlockEnd
  0
BLOCK
  5
8F4
330
8EA
100
AcDbEntity
  8
0
100
AcDbBlockBegin
  2
*D23
 70
     1
 10
0.0
 20
0.0
 30
0.0
  3
*D23
  1

  0
LINE
  5
1048
330
8EA
100
AcDbEntity
  8
SUNPOU
100
AcDbLine
 10
139.9939033250009
 20
230.0983266026468
 30
0.0
 11
139.9939033250009
 21
185.4152993582544
 31
0.0
  0
LINE
  5
1049
330
8EA
100
AcDbEntity
  8
SUNPOU
100
AcDbLine
 10
199.9939033250009
 20
190.4152993582544
 30
0.0
 11
199.9939033250009
 21
189.4152993582544
 31
0.0
  0
LINE
  5
104A
330
8EA
100
AcDbEntity
  8
SUNPOU
100
AcDbLine
 10
144.9939033250009
 20
187.4152993582544
 30
0.0
 11
194.9939033250009
 21
187.4152993582544
 31
0.0
  0
INSERT
  5
104B
330
8EA
100
AcDbEntity
  8
SUNPOU
100
AcDbBlockReference
  2
_OPEN30
 10
139.9939033250009
 20
187.4152993582544
 30
0.0
 41
5.0
 42
5.0
 43
5.0
 50
180.0
  0
INSERT
  5
104C
330
8EA
100
AcDbEntity
  8
SUNPOU
100
AcDbBlockReference
  2
_OPEN30
 10
199.9939033250009
 20
187.4152993582544
 30
0.0
 41
5.0
 42
5.0
 43
5.0
  0
MTEXT
  5
104D
330
8EA
100
AcDbEntity
  8
SUNPOU
 62
     6
100
AcDbMText
 10
169.9939033250009
 20
191.9152993582543
 30
0.0
 40
5.0
 41
0.0
 71
     5
 72
     1
  1
\A1;60
  7
SUNPOU
1001
ACAD
1000
MTEXTBEGIN
1070
    73
1070
     1
1070
    44
1040
1.0
1070
    74
1070
     0
1000
MTEXTEND
1000
MTEXTBEGIN
1070
    73
1070
     1
1070
    44
1040
1.0
1070
    74
1070
     0
1000
MTEXTEND
  0
POINT
  5
104E
330
8EA
100
AcDbEntity
  8
DEFPOINTS
 62
     0
100
AcDbPoint
 10
139.9939033250009
 20
233.0983266026469
 30
0.0
  0
POINT
  5
104F
330
8EA
100
AcDbEntity
  8
DEFPOINTS
 62
     0
100
AcDbPoint
 10
199.9939033250009
 20
187.4152993582544
 30
0.0
  0
POINT
  5
1050
330
8EA
100
AcDbEntity
  8
DEFPOINTS
 62
     0
100
AcDbPoint
 10
199.9939033250009
 20
187.4152993582544
 30
0.0
  0
ENDBLK
  5
8F5
330
8EA
100
AcDbEntity
  8
0
100
AcDbBlockEnd
  0
BLOCK
  5
901
330
8F7
100
AcDbEntity
  8
0
100
AcDbBlockBegin
  2
*D24
 70
     1
 10
0.0
 20
0.0
 30
0.0
  3
*D24
  1

  0
LINE
  5
1116
330
8F7
100
AcDbEntity
  8
SUNPOU
100
AcDbLine
 10
136.9939033250008
 20
172.7110329570367
 30
0.0
 11
136.9939033250008
 21
179.9369021107659
 31
0.0
  0
LINE
  5
1117
330
8F7
100
AcDbEntity
  8
SUNPOU
100
AcDbLine
 10
306.9939033250008
 20
230.098326602647
 30
0.0
 11
306.9939033250008
 21
175.9369021107659
 31
0.0
  0
LINE
  5
1118
330
8F7
100
AcDbEntity
  8
SUNPOU
100
AcDbLine
 10
141.9939033250009
 20
177.9369021107659
 30
0.0
 11
301.9939033250008
 21
177.9369021107659
 31
0.0
  0
MTEXT
  5
1119
330
8F7
100
AcDbEntity
  8
SUNPOU
 62
     6
100
AcDbMText
 10
218.7518703123554
 20
183.5147052808015
 30
0.0
 40
5.0
 41
0.0
 71
     5
 72
     1
  1
\A1;170
  7
SUNPOU
1001
ACAD
1000
MTEXTBEGIN
1070
    73
1070
     1
1070
    44
1040
1.0
1070
    74
1070
     0
1000
MTEXTEND
1000
MTEXTBEGIN
1070
    73
1070
     1
1070
    44
1040
1.0
1070
    74
1070
     0
1000
MTEXTEND
  0
INSERT
  5
111A
330
8F7
100
AcDbEntity
  8
SUNPOU
100
AcDbBlockReference
  2
_OPEN30
 10
136.9939033250008
 20
177.9369021107659
 30
0.0
 41
5.0
 42
5.0
 43
5.0
 50
180.0
  0
INSERT
  5
111B
330
8F7
100
AcDbEntity
  8
SUNPOU
100
AcDbBlockReference
  2
_OPEN30
 10
306.9939033250008
 20
177.9369021107659
 30
0.0
 41
5.0
 42
5.0
 43
5.0
  0
POINT
  5
111C
330
8F7
100
AcDbEntity
  8
DEFPOINTS
 62
     0
100
AcDbPoint
 10
136.9939033250008
 20
169.7110329570366
 30
0.0
  0
POINT
  5
111D
330
8F7
100
AcDbEntity
  8
DEFPOINTS
 62
     0
100
AcDbPoint
 10
306.9939033250008
 20
233.0983266026469
 30
0.0
  0
POINT
  5
111E
330
8F7
100
AcDbEntity
  8
DEFPOINTS
 62
     0
100
AcDbPoint
 10
306.9939033250008
 20
177.9369021107659
 30
0.0
  0
ENDBLK
  5
902
330
8F7
100
AcDbEntity
  8
0
100
AcDbBlockEnd
  0
BLOCK
  5
90E
330
904
100
AcDbEntity
  8
0
100
AcDbBlockBegin
  2
*D25
 70
     1
 10
0.0
 20
0.0
 30
0.0
  3
*D25
  1

  0
LINE
  5
FCC
330
904
100
AcDbEntity
  8
SUNPOU
100
AcDbLine
 10
138.5939033250009
 20
483.498326602647
 30
0.0
 11
92.21878610078062
 21
483.498326602647
 31
0.0
  0
LINE
  5
FCD
330
904
100
AcDbEntity
  8
SUNPOU
100
AcDbLine
 10
138.5939033250009
 20
231.4983266026469
 30
0.0
 11
92.21878610078055
 21
231.4983266026469
 31
0.0
  0
LINE
  5
FCE
330
904
100
AcDbEntity
  8
SUNPOU
100
AcDbLine
 10
94.2187861007806
 20
478.498326602647
 30
0.0
 11
94.21878610078056
 21
236.4983266026468
 31
0.0
  0
INSERT
  5
FCF
330
904
100
AcDbEntity
  8
SUNPOU
100
AcDbBlockReference
  2
_OPEN30
 10
94.21878610078062
 20
483.498326602647
 30
0.0
 41
5.0
 42
5.0
 43
5.0
 50
90.0
  0
INSERT
  5
FD0
330
904
100
AcDbEntity
  8
SUNPOU
100
AcDbBlockReference
  2
_OPEN30
 10
94.21878610078056
 20
231.4983266026469
 30
0.0
 41
5.0
 42
5.0
 43
5.0
 50
270.0
  0
MTEXT
  5
FD1
330
904
100
AcDbEntity
  8
SUNPOU
 62
     6
100
AcDbMText
 10
89.71878610078055
 20
357.498326602647
 30
0.0
 40
5.0
 41
0.0
 71
     5
 72
     1
  1
\A1;252
  7
SUNPOU
 11
0.0000000000000001
 21
1.0
 31
0.0
1001
ACAD
1000
MTEXTBEGIN
1070
    73
1070
     1
1070
    44
1040
1.0
1070
    74
1070
     0
1000
MTEXTEND
1000
MTEXTBEGIN
1070
    73
1070
     1
1070
    44
1040
1.0
1070
    74
1070
     0
1000
MTEXTEND
  0
POINT
  5
FD2
330
904
100
AcDbEntity
  8
DEFPOINTS
 62
     0
100
AcDbPoint
 10
141.5939033250009
 20
483.498326602647
 30
0.0
  0
POINT
  5
FD3
330
904
100
AcDbEntity
  8
DEFPOINTS
 62
     0
100
AcDbPoint
 10
141.5939033250009
 20
231.4983266026469
 30
0.0
  0
POINT
  5
FD4
330
904
100
AcDbEntity
  8
DEFPOINTS
 62
     0
100
AcDbPoint
 10
94.21878610078056
 20
231.4983266026469
 30
0.0
  0
ENDBLK
  5
90F
330
904
100
AcDbEntity
  8
0
100
AcDbBlockEnd
  0
BLOCK
  5
F24
330
F1A
100
AcDbEntity
  8
0
100
AcDbBlockBegin
  2
*D26
 70
     1
 10
0.0
 20
0.0
 30
0.0
  3
*D26
  1

  0
LINE
  5
1212
330
F1A
100
AcDbEntity
  8
SUNPOU
  6
CONTINUOUS
100
AcDbLine
 10
149.4275510015321
 20
401.4983266026471
 30
0.0
 11
121.1258487082643
 21
401.4983266026471
 31
0.0
  0
LINE
  5
1213
330
F1A
100
AcDbEntity
  8
SUNPOU
  6
CONTINUOUS
100
AcDbLine
 10
152.9939033250009
 20
446.498326602647
 30
0.0
 11
121.1258487082644
 21
446.4983266026471
 31
0.0
  0
LINE
  5
1214
330
F1A
100
AcDbEntity
  8
SUNPOU
  6
CONTINUOUS
100
AcDbLine
 10
123.1258487082643
 20
406.498326602647
 30
0.0
 11
123.1258487082644
 21
441.498326602647
 31
0.0
  0
MTEXT
  5
1215
330
F1A
100
AcDbEntity
  8
SUNPOU
  6
CONTINUOUS
 62
     6
100
AcDbMText
 10
118.6258487082642
 20
427.2883226437699
 30
0.0
 40
5.0
 41
0.0
 71
     5
 72
     1
  1
\A1;45
  7
SUNPOU
 11
0.0000000000000001
 21
1.0
 31
0.0
1001
ACAD
1000
MTEXTBEGIN
1070
    73
1070
     1
1070
    44
1040
1.0
1070
    74
1070
     0
1000
MTEXTEND
1000
MTEXTBEGIN
1070
    73
1070
     1
1070
    44
1040
1.0
1070
    74
1070
     0
1000
MTEXTEND
  0
INSERT
  5
1216
330
F1A
100
AcDbEntity
  8
SUNPOU
  6
CONTINUOUS
100
AcDbBlockReference
  2
_OPEN30
 10
123.1258487082643
 20
401.4983266026471
 30
0.0
 41
5.0
 42
5.0
 43
5.0
 50
270.0
  0
INSERT
  5
1217
330
F1A
100
AcDbEntity
  8
SUNPOU
  6
CONTINUOUS
100
AcDbBlockReference
  2
_OPEN30
 10
123.1258487082644
 20
446.4983266026471
 30
0.0
 41
5.0
 42
5.0
 43
5.0
 50
90.0
  0
POINT
  5
1218
330
F1A
100
AcDbEntity
  8
DEFPOINTS
  6
CONTINUOUS
 62
     0
100
AcDbPoint
 10
152.4275510015321
 20
401.4983266026471
 30
0.0
  0
POINT
  5
1219
330
F1A
100
AcDbEntity
  8
DEFPOINTS
  6
CONTINUOUS
 62
     0
100
AcDbPoint
 10
155.9939033250009
 20
446.498326602647
 30
0.0
  0
POINT
  5
121A
330
F1A
100
AcDbEntity
  8
DEFPOINTS
  6
CONTINUOUS
 62
     0
100
AcDbPoint
 10
123.1258487082644
 20
446.4983266026471
 30
0.0
  0
ENDBLK
  5
F25
330
F1A
100
AcDbEntity
  8
0
100
AcDbBlockEnd
  0
BLOCK
  5
F82
330
F78
100
AcDbEntity
  8
0
100
AcDbBlockBegin
  2
*D27
 70
     1
 10
0.0
 20
0.0
 30
0.0
  3
*D27
  1

  0
LINE
  5
1019
330
F78
100
AcDbEntity
  8
SUNPOU
  6
CONTINUOUS
100
AcDbLine
 10
165.9939033250009
 20
324.5976747329998
 30
0.0
 11
165.9939033250009
 21
323.5976747329997
 31
0.0
  0
LINE
  5
101A
330
F78
100
AcDbEntity
  8
SUNPOU
  6
CONTINUOUS
100
AcDbLine
 10
197.9939033250009
 20
307.498326602647
 30
0.0
 11
197.9939033250009
 21
323.5976747329997
 31
0.0
  0
LINE
  5
101B
330
F78
100
AcDbEntity
  8
SUNPOU
  6
CONTINUOUS
100
AcDbLine
 10
170.9939033250009
 20
321.5976747329997
 30
0.0
 11
192.9939033250009
 21
321.5976747329997
 31
0.0
  0
INSERT
  5
101C
330
F78
100
AcDbEntity
  8
SUNPOU
  6
CONTINUOUS
100
AcDbBlockReference
  2
_OPEN30
 10
165.9939033250009
 20
321.5976747329997
 30
0.0
 41
5.0
 42
5.0
 43
5.0
 50
180.0
  0
INSERT
  5
101D
330
F78
100
AcDbEntity
  8
SUNPOU
  6
CONTINUOUS
100
AcDbBlockReference
  2
_OPEN30
 10
197.9939033250009
 20
321.5976747329997
 30
0.0
 41
5.0
 42
5.0
 43
5.0
  0
MTEXT
  5
101E
330
F78
100
AcDbEntity
  8
SUNPOU
  6
CONTINUOUS
 62
     6
100
AcDbMText
 10
181.9939033250009
 20
326.0976747329998
 30
0.0
 40
5.0
 41
0.0
 71
     5
 72
     1
  1
\A1;32
  7
SUNPOU
1001
ACAD
1000
MTEXTBEGIN
1070
    73
1070
     1
1070
    44
1040
1.0
1070
    74
1070
     0
1000
MTEXTEND
1000
MTEXTBEGIN
1070
    73
1070
     1
1070
    44
1040
1.0
1070
    74
1070
     0
1000
MTEXTEND
  0
POINT
  5
101F
330
F78
100
AcDbEntity
  8
DEFPOINTS
  6
CONTINUOUS
 62
     0
100
AcDbPoint
 10
165.9939033250009
 20
321.5976747329997
 30
0.0
  0
POINT
  5
1020
330
F78
100
AcDbEntity
  8
DEFPOINTS
  6
CONTINUOUS
 62
     0
100
AcDbPoint
 10
197.9939033250009
 20
304.498326602647
 30
0.0
  0
POINT
  5
1021
330
F78
100
AcDbEntity
  8
DEFPOINTS
  6
CONTINUOUS
 62
     0
100
AcDbPoint
 10
197.9939033250009
 20
321.5976747329997
 30
0.0
  0
ENDBLK
  5
F83
330
F78
100
AcDbEntity
  8
0
100
AcDbBlockEnd
  0
BLOCK
  5
10C2
330
10B6
100
AcDbEntity
  8
0
100
AcDbBlockBegin
  2
*D28
 70
     1
 10
0.0
 20
0.0
 30
0.0
  3
*D28
  1

  0
LINE
  5
1176
330
10B6
100
AcDbEntity
  8
SUNPOU
  6
CONTINUOUS
100
AcDbLine
 10
136.9939033250008
 20
518.8504429379022
 30
0.0
 11
136.9939033250008
 21
515.1499682782687
 31
0.0
  0
LINE
  5
1177
330
10B6
100
AcDbEntity
  8
SUNPOU
  6
CONTINUOUS
100
AcDbLine
 10
139.9939033250009
 20
529.9983266026462
 30
0.0
 11
139.9939033250009
 21
515.1499682782687
 31
0.0
  0
LINE
  5
1178
330
10B6
100
AcDbEntity
  8
SUNPOU
  6
CONTINUOUS
100
AcDbLine
 10
131.9939033250008
 20
517.1499682782687
 30
0.0
 11
126.9939033250009
 21
517.1499682782687
 31
0.0
  0
LINE
  5
1179
330
10B6
100
AcDbEntity
  8
SUNPOU
  6
CONTINUOUS
100
AcDbLine
 10
144.9939033250009
 20
517.1499682782687
 30
0.0
 11
149.9939033250009
 21
517.1499682782687
 31
0.0
  0
MTEXT
  5
117A
330
10B6
100
AcDbEntity
  8
SUNPOU
  6
CONTINUOUS
 62
     6
100
AcDbMText
 10
132.8674013475612
 20
522.5239056763752
 30
0.0
 40
5.0
 41
0.0
 71
     5
 72
     1
  1
\A1;3
  7
SUNPOU
1001
ACAD
1000
MTEXTBEGIN
1070
    73
1070
     1
1070
    44
1040
1.0
1070
    74
1070
     0
1000
MTEXTEND
1000
MTEXTBEGIN
1070
    73
1070
     1
1070
    44
1040
1.0
1070
    74
1070
     0
1000
MTEXTEND
  0
LINE
  5
117B
330
10B6
100
AcDbEntity
  8
SUNPOU
  6
CONTINUOUS
100
AcDbLine
 10
136.9939033250008
 20
517.1499682782687
 30
0.0
 11
139.9939033250009
 21
517.1499682782687
 31
0.0
  0
INSERT
  5
117C
330
10B6
100
AcDbEntity
  8
SUNPOU
  6
CONTINUOUS
100
AcDbBlockReference
  2
_OPEN30
 10
136.9939033250008
 20
517.1499682782687
 30
0.0
 41
5.0
 42
5.0
 43
5.0
  0
INSERT
  5
117D
330
10B6
100
AcDbEntity
  8
SUNPOU
  6
CONTINUOUS
100
AcDbBlockReference
  2
_OPEN30
 10
139.9939033250009
 20
517.1499682782687
 30
0.0
 41
5.0
 42
5.0
 43
5.0
 50
180.0
  0
POINT
  5
117E
330
10B6
100
AcDbEntity
  8
DEFPOINTS
  6
CONTINUOUS
 62
     0
100
AcDbPoint
 10
136.9939033250008
 20
521.8504429379022
 30
0.0
  0
POINT
  5
117F
330
10B6
100
AcDbEntity
  8
DEFPOINTS
  6
CONTINUOUS
 62
     0
100
AcDbPoint
 10
139.9939033250009
 20
532.9983266026462
 30
0.0
  0
POINT
  5
1180
330
10B6
100
AcDbEntity
  8
DEFPOINTS
  6
CONTINUOUS
 62
     0
100
AcDbPoint
 10
139.9939033250009
 20
517.1499682782687
 30
0.0
  0
ENDBLK
  5
10C3
330
10B6
100
AcDbEntity
  8
0
100
AcDbBlockEnd
  0
BLOCK
  5
10CF
330
10C5
100
AcDbEntity
  8
0
100
AcDbBlockBegin
  2
*D29
 70
     1
 10
0.0
 20
0.0
 30
0.0
  3
*D29
  1

  0
LINE
  5
10C6
330
10C5
100
AcDbEntity
  8
SUNPOU
  6
CONTINUOUS
100
AcDbLine
 10
139.9939033250009
 20
529.9983266026462
 30
0.0
 11
139.9939033250009
 21
515.1499682782687
 31
0.0
  0
LINE
  5
10C7
330
10C5
100
AcDbEntity
  8
SUNPOU
  6
CONTINUOUS
100
AcDbLine
 10
253.9939033250009
 20
529.9983266026462
 30
0.0
 11
253.9939033250009
 21
515.1499682782687
 31
0.0
  0
LINE
  5
10C8
330
10C5
100
AcDbEntity
  8
SUNPOU
  6
CONTINUOUS
100
AcDbLine
 10
144.9939033250009
 20
517.1499682782687
 30
0.0
 11
248.9939033250009
 21
517.1499682782687
 31
0.0
  0
INSERT
  5
10C9
330
10C5
100
AcDbEntity
  8
SUNPOU
  6
CONTINUOUS
100
AcDbBlockReference
  2
_OPEN30
 10
139.9939033250009
 20
517.1499682782687
 30
0.0
 41
5.0
 42
5.0
 43
5.0
 50
180.0
  0
INSERT
  5
10CA
330
10C5
100
AcDbEntity
  8
SUNPOU
  6
CONTINUOUS
100
AcDbBlockReference
  2
_OPEN30
 10
253.9939033250009
 20
517.1499682782687
 30
0.0
 41
5.0
 42
5.0
 43
5.0
  0
MTEXT
  5
10CB
330
10C5
100
AcDbEntity
  8
SUNPOU
  6
CONTINUOUS
 62
     6
100
AcDbMText
 10
196.9939033250009
 20
521.6499682782687
 30
0.0
 40
5.0
 41
0.0
 71
     5
 72
     1
  1
\A1;114
  7
SUNPOU
1001
ACAD
1000
MTEXTBEGIN
1070
    73
1070
     1
1070
    44
1040
1.0
1070
    74
1070
     0
1000
MTEXTEND
1000
MTEXTBEGIN
1070
    73
1070
     1
1070
    44
1040
1.0
1070
    74
1070
     0
1000
MTEXTEND
  0
POINT
  5
10CC
330
10C5
100
AcDbEntity
  8
DEFPOINTS
  6
CONTINUOUS
 62
     0
100
AcDbPoint
 10
139.9939033250009
 20
532.9983266026462
 30
0.0
  0
POINT
  5
10CD
330
10C5
100
AcDbEntity
  8
DEFPOINTS
  6
CONTINUOUS
 62
     0
100
AcDbPoint
 10
253.9939033250009
 20
532.9983266026462
 30
0.0
  0
POINT
  5
10CE
330
10C5
100
AcDbEntity
  8
DEFPOINTS
  6
CONTINUOUS
 62
     0
100
AcDbPoint
 10
253.9939033250009
 20
517.1499682782687
 30
0.0
  0
ENDBLK
  5
10D0
330
10C5
100
AcDbEntity
  8
0
100
AcDbBlockEnd
  0
BLOCK
  5
10DE
330
10D2
100
AcDbEntity
  8
0
100
AcDbBlockBegin
  2
*D30
 70
     1
 10
0.0
 20
0.0
 30
0.0
  3
*D30
  1

  0
LINE
  5
1181
330
10D2
100
AcDbEntity
  8
SUNPOU
  6
CONTINUOUS
100
AcDbLine
 10
253.9939033250009
 20
529.9983266026462
 30
0.0
 11
253.9939033250009
 21
515.1499682782687
 31
0.0
  0
LINE
  5
1182
330
10D2
100
AcDbEntity
  8
SUNPOU
  6
CONTINUOUS
100
AcDbLine
 10
256.9939033250009
 20
514.8941542947616
 30
0.0
 11
256.9939033250009
 21
515.1499682782687
 31
0.0
  0
LINE
  5
1183
330
10D2
100
AcDbEntity
  8
SUNPOU
  6
CONTINUOUS
100
AcDbLine
 10
248.9939033250009
 20
517.1499682782687
 30
0.0
 11
243.9939033250009
 21
517.1499682782687
 31
0.0
  0
LINE
  5
1184
330
10D2
100
AcDbEntity
  8
SUNPOU
  6
CONTINUOUS
100
AcDbLine
 10
261.9939033250009
 20
517.1499682782687
 30
0.0
 11
266.9939033250009
 21
517.1499682782687
 31
0.0
  0
MTEXT
  5
1185
330
10D2
100
AcDbEntity
  8
SUNPOU
  6
CONTINUOUS
 62
     6
100
AcDbMText
 10
261.9111452549395
 20
522.4965041209696
 30
0.0
 40
5.0
 41
0.0
 71
     5
 72
     1
  1
\A1;3
  7
SUNPOU
1001
ACAD
1000
MTEXTBEGIN
1070
    73
1070
     1
1070
    44
1040
1.0
1070
    74
1070
     0
1000
MTEXTEND
1000
MTEXTBEGIN
1070
    73
1070
     1
1070
    44
1040
1.0
1070
    74
1070
     0
1000
MTEXTEND
  0
LINE
  5
1186
330
10D2
100
AcDbEntity
  8
SUNPOU
  6
CONTINUOUS
100
AcDbLine
 10
253.9939033250009
 20
517.1499682782687
 30
0.0
 11
256.9939033250009
 21
517.1499682782687
 31
0.0
  0
INSERT
  5
1187
330
10D2
100
AcDbEntity
  8
SUNPOU
  6
CONTINUOUS
100
AcDbBlockReference
  2
_OPEN30
 10
253.9939033250009
 20
517.1499682782687
 30
0.0
 41
5.0
 42
5.0
 43
5.0
  0
INSERT
  5
1188
330
10D2
100
AcDbEntity
  8
SUNPOU
  6
CONTINUOUS
100
AcDbBlockReference
  2
_OPEN30
 10
256.9939033250009
 20
517.1499682782687
 30
0.0
 41
5.0
 42
5.0
 43
5.0
 50
180.0
  0
POINT
  5
1189
330
10D2
100
AcDbEntity
  8
DEFPOINTS
  6
CONTINUOUS
 62
     0
100
AcDbPoint
 10
253.9939033250009
 20
532.9983266026462
 30
0.0
  0
POINT
  5
118A
330
10D2
100
AcDbEntity
  8
DEFPOINTS
  6
CONTINUOUS
 62
     0
100
AcDbPoint
 10
256.9939033250009
 20
517.8941542947616
 30
0.0
  0
POINT
  5
118B
330
10D2
100
AcDbEntity
  8
DEFPOINTS
  6
CONTINUOUS
 62
     0
100
AcDbPoint
 10
256.9939033250009
 20
517.1499682782687
 30
0.0
  0
ENDBLK
  5
10DF
330
10D2
100
AcDbEntity
  8
0
100
AcDbBlockEnd
  0
BLOCK
  5
112E
330
1124
100
AcDbEntity
  8
0
100
AcDbBlockBegin
  2
*D31
 70
     1
 10
0.0
 20
0.0
 30
0.0
  3
*D31
  1

  0
LINE
  5
11C4
330
1124
100
AcDbEntity
  8
SUNPOU
  6
CONTINUOUS
100
AcDbLine
 10
115.5635143762961
 20
78.2013143003623
 30
0.0
 11
119.8606065479332
 21
78.2013143003623
 31
0.0
  0
LINE
  5
11C5
330
1124
100
AcDbEntity
  8
SUNPOU
  6
CONTINUOUS
100
AcDbLine
 10
154.0309351647558
 20
146.3708260105448
 30
0.0
 11
115.8606065479331
 21
146.3708260105448
 31
0.0
  0
LINE
  5
11C6
330
1124
100
AcDbEntity
  8
SUNPOU
  6
CONTINUOUS
100
AcDbLine
 10
117.8606065479331
 20
83.2013143003623
 30
0.0
 11
117.8606065479331
 21
141.3708260105448
 31
0.0
  0
INSERT
  5
11C7
330
1124
100
AcDbEntity
  8
SUNPOU
  6
CONTINUOUS
100
AcDbBlockReference
  2
_OPEN30
 10
117.8606065479331
 20
78.2013143003623
 30
0.0
 41
5.0
 42
5.0
 43
5.0
 50
270.0
  0
INSERT
  5
11C8
330
1124
100
AcDbEntity
  8
SUNPOU
  6
CONTINUOUS
100
AcDbBlockReference
  2
_OPEN30
 10
117.8606065479331
 20
146.3708260105448
 30
0.0
 41
5.0
 42
5.0
 43
5.0
 50
90.0
  0
MTEXT
  5
11C9
330
1124
100
AcDbEntity
  8
SUNPOU
  6
CONTINUOUS
 62
     6
100
AcDbMText
 10
113.3606065479332
 20
112.2860701554534
 30
0.0
 40
5.0
 41
0.0
 71
     5
 72
     1
  1
\A1;600
  7
SUNPOU
 11
0.0000000000000001
 21
1.0
 31
0.0
1001
ACAD
1000
MTEXTBEGIN
1070
    73
1070
     1
1070
    44
1040
1.0
1070
    74
1070
     0
1000
MTEXTEND
1000
MTEXTBEGIN
1070
    73
1070
     1
1070
    44
1040
1.0
1070
    74
1070
     0
1000
MTEXTEND
  0
POINT
  5
11CA
330
1124
100
AcDbEntity
  8
DEFPOINTS
  6
CONTINUOUS
 62
     0
100
AcDbPoint
 10
112.5635143762961
 20
78.2013143003623
 30
0.0
  0
POINT
  5
11CB
330
1124
100
AcDbEntity
  8
DEFPOINTS
  6
CONTINUOUS
 62
     0
100
AcDbPoint
 10
157.0309351647559
 20
146.3708260105448
 30
0.0
  0
POINT
  5
11CC
330
1124
100
AcDbEntity
  8
DEFPOINTS
  6
CONTINUOUS
 62
     0
100
AcDbPoint
 10
117.8606065479331
 20
146.3708260105448
 30
0.0
  0
ENDBLK
  5
112F
330
1124
100
AcDbEntity
  8
0
100
AcDbBlockEnd
  0
BLOCK
  5
1208
330
11FF
100
AcDbEntity
  8
0
100
AcDbBlockBegin
  2
*D32
 70
     1
 10
0.0
 20
0.0
 30
0.0
  3
*D32
  1

  0
LINE
  5
120A
330
11FF
100
AcDbEntity
  8
SUNPOU
100
AcDbLine
 10
245.812911882844
 20
443.8907997085632
 30
0.0
 11
250.0457377815862
 21
446.5522250618163
 31
0.0
  0
LINE
  5
120B
330
11FF
100
AcDbEntity
  8
SUNPOU
100
AcDbLine
 10
211.9503046929076
 20
422.5993968825381
 30
0.0
 11
207.7174787941656
 21
419.937971529285
 31
0.0
  0
MTEXT
  5
120C
330
11FF
100
AcDbEntity
  8
SUNPOU
 62
     6
100
AcDbMText
 10
228.634523963911
 20
433.0289204570586
 30
0.0
 40
5.0
 41
0.0
 71
     5
 72
     1
  1
\A1;φ30通線穴\P両端
  7
SUNPOU
 11
0.846565179748411
 21
0.5322850706506249
 31
0.0
1001
ACAD
1000
MTEXTBEGIN
1070
    73
1070
     1
1070
    44
1040
1.0
1070
    74
1070
     0
1000
MTEXTEND
1000
MTEXTBEGIN
1070
    73
1070
     1
1070
    44
1040
1.0
1070
    74
1070
     0
1000
MTEXTEND
  0
LINE
  5
120D
330
11FF
100
AcDbEntity
  8
SUNPOU
100
AcDbLine
 10
241.580085984102
 20
441.22937435531
 30
0.0
 11
216.1831305916495
 21
425.2608222357912
 31
0.0
  0
INSERT
  5
120E
330
11FF
100
AcDbEntity
  8
SUNPOU
100
AcDbBlockReference
  2
_OPEN30
 10
241.580085984102
 20
441.22937435531
 30
0.0
 41
5.0
 42
5.0
 43
5.0
 50
212.159978251943
  0
INSERT
  5
120F
330
11FF
100
AcDbEntity
  8
SUNPOU
100
AcDbBlockReference
  2
_OPEN30
 10
216.1831305916495
 20
425.2608222357912
 30
0.0
 41
5.0
 42
5.0
 43
5.0
 50
32.15997825194302
  0
POINT
  5
1210
330
11FF
100
AcDbEntity
  8
DEFPOINTS
 62
     0
100
AcDbPoint
 10
216.1831305916495
 20
425.2608222357912
 30
0.0
  0
POINT
  5
1211
330
11FF
100
AcDbEntity
  8
DEFPOINTS
 62
     0
100
AcDbPoint
 10
241.580085984102
 20
441.22937435531
 30
0.0
  0
ENDBLK
  5
1209
330
11FF
100
AcDbEntity
  8
0
100
AcDbBlockEnd
  0
BLOCK
  5
12DA
330
12D8
100
AcDbEntity
  8
0
100
AcDbBlockBegin
  2
_DOTSMALL
 70
     0
 10
0.0
 20
0.0
 30
0.0
  3
_DOTSMALL
  1

  0
POLYLINE
  5
12D9
330
12D8
100
AcDbEntity
  8
0
  6
BYBLOCK
 62
     0
100
AcDb2dPolyline
 66
     1
 10
0.0
 20
0.0
 30
0.0
 70
     1
 40
0.5
 41
0.5
  0
VERTEX
  5
14BA
330
12D9
100
AcDbEntity
  8
0
  6
BYBLOCK
 62
     0
100
AcDbVertex
100
AcDb2dVertex
 10
-0.0625
 20
0.0
 30
0.0
 42
1.0
  0
VERTEX
  5
14BB
330
12D9
100
AcDbEntity
  8
0
  6
BYBLOCK
 62
     0
100
AcDbVertex
100
AcDb2dVertex
 10
0.0625
 20
0.0
 30
0.0
 42
1.0
  0
SEQEND
  5
14BC
330
12D9
100
AcDbEntity
  8
0
  6
BYBLOCK
 62
     0
  0
ENDBLK
  5
12DB
330
12D8
100
AcDbEntity
  8
0
100
AcDbBlockEnd
  0
BLOCK
  5
12DD
330
12DC
100
AcDbEntity
  8
0
100
AcDbBlockBegin
  2
_NONE
 70
     0
 10
0.0
 20
0.0
 30
0.0
  3
_NONE
  1

  0
ENDBLK
  5
12DE
330
12DC
100
AcDbEntity
  8
0
100
AcDbBlockEnd
  0
BLOCK
  5
1357
330
134D
100
AcDbEntity
  8
0
100
AcDbBlockBegin
  2
*D35
 70
     1
 10
0.0
 20
0.0
 30
0.0
  3
*D35
  1

  0
LINE
  5
13BC
330
134D
100
AcDbEntity
  8
SUNPOU
100
AcDbLine
 10
236.4939033267958
 20
56.20131430036227
 30
0.0
 11
275.9213334428685
 21
56.20131430036225
 31
0.0
  0
LINE
  5
13BD
330
134D
100
AcDbEntity
  8
SUNPOU
100
AcDbLine
 10
246.2439033267958
 20
81.20131430036215
 30
0.0
 11
275.9213334428685
 21
81.20131430036215
 31
0.0
  0
LINE
  5
13BE
330
134D
100
AcDbEntity
  8
SUNPOU
100
AcDbLine
 10
273.9213334428685
 20
61.20131430036225
 30
0.0
 11
273.9213334428685
 21
76.20131430036216
 31
0.0
  0
INSERT
  5
13BF
330
134D
100
AcDbEntity
  8
SUNPOU
100
AcDbBlockReference
  2
_OPEN30
 10
273.9213334428685
 20
56.20131430036225
 30
0.0
 41
5.0
 42
5.0
 43
5.0
 50
270.0
  0
INSERT
  5
13C0
330
134D
100
AcDbEntity
  8
SUNPOU
100
AcDbBlockReference
  2
_OPEN30
 10
273.9213334428685
 20
81.20131430036215
 30
0.0
 41
5.0
 42
5.0
 43
5.0
 50
90.0
  0
MTEXT
  5
13C1
330
134D
100
AcDbEntity
  8
SUNPOU
 62
     6
100
AcDbMText
 10
269.4213334428685
 20
68.70131430036225
 30
0.0
 40
5.0
 41
0.0
 71
     5
 72
     1
  1
\A1;25
  7
SUNPOU
 11
0.0000000000000001
 21
1.0
 31
0.0
1001
ACAD
1000
MTEXTBEGIN
1070
    73
1070
     1
1070
    44
1040
1.0
1070
    74
1070
     0
1000
MTEXTEND
1000
MTEXTBEGIN
1070
    73
1070
     1
1070
    44
1040
1.0
1070
    74
1070
     0
1000
MTEXTEND
  0
POINT
  5
13C2
330
134D
100
AcDbEntity
  8
DEFPOINTS
 62
     0
100
AcDbPoint
 10
233.4939033267958
 20
56.20131430036227
 30
0.0
  0
POINT
  5
13C3
330
134D
100
AcDbEntity
  8
DEFPOINTS
 62
     0
100
AcDbPoint
 10
243.2439033267959
 20
81.20131430036215
 30
0.0
  0
POINT
  5
13C4
330
134D
100
AcDbEntity
  8
DEFPOINTS
 62
     0
100
AcDbPoint
 10
273.9213334428685
 20
81.20131430036215
 30
0.0
  0
ENDBLK
  5
1358
330
134D
100
AcDbEntity
  8
0
100
AcDbBlockEnd
  0
BLOCK
  5
1365
330
1359
100
AcDbEntity
  8
0
100
AcDbBlockBegin
  2
*D36
 70
     1
 10
0.0
 20
0.0
 30
0.0
  3
*D36
  1

  0
LINE
  5
1422
330
1359
100
AcDbEntity
  8
SUNPOU
100
AcDbLine
 10
246.9939033267959
 20
78.20131430036233
 30
0.0
 11
290.4935550310538
 21
78.20131430036231
 31
0.0
  0
LINE
  5
1423
330
1359
100
AcDbEntity
  8
SUNPOU
100
AcDbLine
 10
246.2439033267958
 20
81.20131430036215
 30
0.0
 11
290.4935550310538
 21
81.20131430036215
 31
0.0
  0
LINE
  5
1424
330
1359
100
AcDbEntity
  8
SUNPOU
100
AcDbLine
 10
288.4935550310538
 20
73.20131430036231
 30
0.0
 11
288.4935550310538
 21
68.20131430036231
 31
0.0
  0
LINE
  5
1425
330
1359
100
AcDbEntity
  8
SUNPOU
100
AcDbLine
 10
288.4935550310538
 20
81.20131430036215
 30
0.0
 11
288.4935550310538
 21
86.20131430036215
 31
0.0
  0
MTEXT
  5
1426
330
1359
100
AcDbEntity
  8
SUNPOU
 62
     6
100
AcDbMText
 10
284.0312722802863
 20
72.94800271107982
 30
0.0
 40
5.0
 41
0.0
 71
     5
 72
     1
  1
\A1;3
  7
SUNPOU
 11
0.0000000000000001
 21
1.0
 31
0.0
1001
ACAD
1000
MTEXTBEGIN
1070
    73
1070
     1
1070
    44
1040
1.0
1070
    74
1070
     0
1000
MTEXTEND
1000
MTEXTBEGIN
1070
    73
1070
     1
1070
    44
1040
1.0
1070
    74
1070
     0
1000
MTEXTEND
  0
LINE
  5
1427
330
1359
100
AcDbEntity
  8
SUNPOU
100
AcDbLine
 10
288.4935550310538
 20
78.20131430036231
 30
0.0
 11
288.4935550310538
 21
81.20131430036215
 31
0.0
  0
INSERT
  5
1428
330
1359
100
AcDbEntity
  8
SUNPOU
100
AcDbBlockReference
  2
_OPEN30
 10
288.4935550310538
 20
78.20131430036231
 30
0.0
 41
5.0
 42
5.0
 43
5.0
 50
90.0
  0
INSERT
  5
1429
330
1359
100
AcDbEntity
  8
SUNPOU
100
AcDbBlockReference
  2
_DOTSMALL
 10
288.4935550310538
 20
81.20131430036215
 30
0.0
 41
5.0
 42
5.0
 43
5.0
 50
270.0
  0
POINT
  5
142A
330
1359
100
AcDbEntity
  8
DEFPOINTS
 62
     0
100
AcDbPoint
 10
243.9939033267958
 20
78.20131430036233
 30
0.0
  0
POINT
  5
142B
330
1359
100
AcDbEntity
  8
DEFPOINTS
 62
     0
100
AcDbPoint
 10
243.2439033267959
 20
81.20131430036215
 30
0.0
  0
POINT
  5
142C
330
1359
100
AcDbEntity
  8
DEFPOINTS
 62
     0
100
AcDbPoint
 10
288.4935550310538
 20
81.20131430036215
 30
0.0
  0
ENDBLK
  5
1366
330
1359
100
AcDbEntity
  8
0
100
AcDbBlockEnd
  0
BLOCK
  5
1372
330
1367
100
AcDbEntity
  8
0
100
AcDbBlockBegin
  2
*D37
 70
     1
 10
0.0
 20
0.0
 30
0.0
  3
*D37
  1

  0
LINE
  5
142D
330
1367
100
AcDbEntity
  8
SUNPOU
100
AcDbLine
 10
246.2439033267958
 20
81.20131430036215
 30
0.0
 11
290.4935550310538
 21
81.20131430036215
 31
0.0
  0
LINE
  5
142E
330
1367
100
AcDbEntity
  8
SUNPOU
100
AcDbLine
 10
247.9939033250009
 20
88.20131430036232
 30
0.0
 11
290.4935550310538
 21
88.20131430036232
 31
0.0
  0
LINE
  5
142F
330
1367
100
AcDbEntity
  8
SUNPOU
100
AcDbLine
 10
288.4935550310538
 20
81.20131430036215
 30
0.0
 11
288.4935550310538
 21
76.20131430036214
 31
0.0
  0
LINE
  5
1430
330
1367
100
AcDbEntity
  8
SUNPOU
100
AcDbLine
 10
288.4935550310538
 20
93.20131430036232
 30
0.0
 11
288.4935550310538
 21
98.20131430036234
 31
0.0
  0
LINE
  5
1431
330
1367
100
AcDbEntity
  8
SUNPOU
100
AcDbLine
 10
288.4935550310538
 20
81.20131430036215
 30
0.0
 11
288.4935550310538
 21
88.20131430036232
 31
0.0
  0
INSERT
  5
1432
330
1367
100
AcDbEntity
  8
SUNPOU
100
AcDbBlockReference
  2
_OPEN30
 10
288.4935550310538
 20
88.20131430036232
 30
0.0
 41
5.0
 42
5.0
 43
5.0
 50
270.0
  0
MTEXT
  5
1433
330
1367
100
AcDbEntity
  8
SUNPOU
 62
     6
100
AcDbMText
 10
283.9935550310538
 20
84.7013143003623
 30
0.0
 40
5.0
 41
0.0
 71
     5
 72
     1
  1
\A1;7
  7
SUNPOU
 11
0.0000000000000001
 21
1.0
 31
0.0
1001
ACAD
1000
MTEXTBEGIN
1070
    73
1070
     1
1070
    44
1040
1.0
1070
    74
1070
     0
1000
MTEXTEND
1000
MTEXTBEGIN
1070
    73
1070
     1
1070
    44
1040
1.0
1070
    74
1070
     0
1000
MTEXTEND
  0
POINT
  5
1434
330
1367
100
AcDbEntity
  8
DEFPOINTS
 62
     0
100
AcDbPoint
 10
243.2439033267959
 20
81.20131430036215
 30
0.0
  0
POINT
  5
1435
330
1367
100
AcDbEntity
  8
DEFPOINTS
 62
     0
100
AcDbPoint
 10
244.9939033250009
 20
88.20131430036232
 30
0.0
  0
POINT
  5
1436
330
1367
100
AcDbEntity
  8
DEFPOINTS
 62
     0
100
AcDbPoint
 10
288.4935550310538
 20
88.20131430036232
 30
0.0
  0
ENDBLK
  5
1373
330
1367
100
AcDbEntity
  8
0
100
AcDbBlockEnd
  0
BLOCK
  5
137E
330
1374
100
AcDbEntity
  8
0
100
AcDbBlockBegin
  2
*D38
 70
     1
 10
0.0
 20
0.0
 30
0.0
  3
*D38
  1

  0
LINE
  5
139E
330
1374
100
AcDbEntity
  8
SUNPOU
100
AcDbLine
 10
216.4939033267958
 20
53.20131430036227
 30
0.0
 11
216.4939033267958
 21
40.65163233936615
 31
0.0
  0
LINE
  5
139F
330
1374
100
AcDbEntity
  8
SUNPOU
100
AcDbLine
 10
233.4939033267958
 20
53.20131430036227
 30
0.0
 11
233.4939033267958
 21
40.65163233936615
 31
0.0
  0
LINE
  5
13A0
330
1374
100
AcDbEntity
  8
SUNPOU
100
AcDbLine
 10
221.4939033267958
 20
42.65163233936615
 30
0.0
 11
228.4939033267958
 21
42.65163233936615
 31
0.0
  0
INSERT
  5
13A1
330
1374
100
AcDbEntity
  8
SUNPOU
100
AcDbBlockReference
  2
_OPEN30
 10
216.4939033267958
 20
42.65163233936615
 30
0.0
 41
5.0
 42
5.0
 43
5.0
 50
180.0
  0
INSERT
  5
13A2
330
1374
100
AcDbEntity
  8
SUNPOU
100
AcDbBlockReference
  2
_OPEN30
 10
233.4939033267958
 20
42.65163233936615
 30
0.0
 41
5.0
 42
5.0
 43
5.0
  0
MTEXT
  5
13A3
330
1374
100
AcDbEntity
  8
SUNPOU
 62
     6
100
AcDbMText
 10
224.9939033267958
 20
47.15163233936616
 30
0.0
 40
5.0
 41
0.0
 71
     5
 72
     1
  1
\A1;17
  7
SUNPOU
1001
ACAD
1000
MTEXTBEGIN
1070
    73
1070
     1
1070
    44
1040
1.0
1070
    74
1070
     0
1000
MTEXTEND
1000
MTEXTBEGIN
1070
    73
1070
     1
1070
    44
1040
1.0
1070
    74
1070
     0
1000
MTEXTEND
  0
POINT
  5
13A4
330
1374
100
AcDbEntity
  8
DEFPOINTS
 62
     0
100
AcDbPoint
 10
216.4939033267958
 20
56.20131430036227
 30
0.0
  0
POINT
  5
13A5
330
1374
100
AcDbEntity
  8
DEFPOINTS
 62
     0
100
AcDbPoint
 10
233.4939033267958
 20
56.20131430036227
 30
0.0
  0
POINT
  5
13A6
330
1374
100
AcDbEntity
  8
DEFPOINTS
 62
     0
100
AcDbPoint
 10
233.4939033267958
 20
42.65163233936615
 30
0.0
  0
ENDBLK
  5
137F
330
1374
100
AcDbEntity
  8
0
100
AcDbBlockEnd
  0
BLOCK
  5
141C
330
13F2
100
AcDbEntity
  8
0
100
AcDbBlockBegin
  2
*X39
 70
     1
 10
0.0
 20
0.0
 30
0.0
  3
*X39
  1

  0
LINE
  5
13F3
330
13F2
100
AcDbEntity
  8
0
 62
     0
100
AcDbLine
 10
175.0002177197169
 20
233.0983266026469
 30
0.0
 11
175.9939033250009
 21
234.0920122079309
 31
0.0
  0
LINE
  5
13F4
330
13F2
100
AcDbEntity
  8
0
 62
     0
100
AcDbLine
 10
173.4002177197169
 20
231.4983266026469
 30
0.0
 11
175.0002177197168
 21
233.0983266026469
 31
0.0
  0
LINE
  5
13F5
330
13F2
100
AcDbEntity
  8
0
 62
     0
100
AcDbLine
 10
172.3485672902672
 20
233.0983266026469
 30
0.0
 11
175.7131649568906
 21
236.4629242692704
 31
0.0
  0
LINE
  5
13F6
330
13F2
100
AcDbEntity
  8
0
 62
     0
100
AcDbLine
 10
175.7131649568908
 20
236.4629242692704
 30
0.0
 11
175.9939033250008
 21
236.7436626373804
 31
0.0
  0
LINE
  5
13F7
330
13F2
100
AcDbEntity
  8
0
 62
     0
100
AcDbLine
 10
170.7485672902673
 20
231.4983266026469
 30
0.0
 11
172.3485672902671
 21
233.0983266026469
 31
0.0
  0
LINE
  5
13F8
330
13F2
100
AcDbEntity
  8
0
 62
     0
100
AcDbLine
 10
169.9939033250008
 20
233.3953130668301
 30
0.0
 11
175.3993601723404
 21
238.8007699141696
 31
0.0
  0
LINE
  5
13F9
330
13F2
100
AcDbEntity
  8
0
 62
     0
100
AcDbLine
 10
169.6969168608178
 20
233.0983266026469
 30
0.0
 11
169.9939033250008
 21
233.3953130668301
 31
0.0
  0
LINE
  5
13FA
330
13F2
100
AcDbEntity
  8
0
 62
     0
100
AcDbLine
 10
175.3993601723404
 20
238.8007699141696
 30
0.0
 11
175.9939033250008
 21
239.3953130668301
 31
0.0
  0
LINE
  5
13FB
330
13F2
100
AcDbEntity
  8
0
 62
     0
100
AcDbLine
 10
168.0969168608176
 20
231.4983266026469
 30
0.0
 11
169.6969168608176
 21
233.0983266026469
 31
0.0
  0
LINE
  5
13FC
330
13F2
100
AcDbEntity
  8
0
 62
     0
100
AcDbLine
 10
169.9939033250008
 20
236.0469634962796
 30
0.0
 11
175.0855553877901
 21
241.1386155590689
 31
0.0
  0
LINE
  5
13FD
330
13F2
100
AcDbEntity
  8
0
 62
     0
100
AcDbLine
 10
167.0452664313681
 20
233.0983266026469
 30
0.0
 11
169.9939033250008
 21
236.0469634962796
 31
0.0
  0
LINE
  5
13FE
330
13F2
100
AcDbEntity
  8
0
 62
     0
100
AcDbLine
 10
175.0855553877901
 20
241.1386155590689
 30
0.0
 11
175.9939033250008
 21
242.0469634962795
 31
0.0
  0
LINE
  5
13FF
330
13F2
100
AcDbEntity
  8
0
 62
     0
100
AcDbLine
 10
165.4452664313681
 20
231.4983266026469
 30
0.0
 11
167.0452664313681
 21
233.0983266026469
 31
0.0
  0
LINE
  5
1400
330
13F2
100
AcDbEntity
  8
0
 62
     0
100
AcDbLine
 10
169.9939033250008
 20
238.6986139257291
 30
0.0
 11
174.7717506032399
 21
243.4764612039684
 31
0.0
  0
LINE
  5
1401
330
13F2
100
AcDbEntity
  8
0
 62
     0
100
AcDbLine
 10
164.3936160019186
 20
233.0983266026469
 30
0.0
 11
169.9939033250008
 21
238.6986139257291
 31
0.0
  0
LINE
  5
1402
330
13F2
100
AcDbEntity
  8
0
 62
     0
100
AcDbLine
 10
174.7717506032399
 20
243.4764612039684
 30
0.0
 11
175.9939033250008
 21
244.6986139257291
 31
0.0
  0
LINE
  5
1403
330
13F2
100
AcDbEntity
  8
0
 62
     0
100
AcDbLine
 10
163.9939033250008
 20
232.6986139257291
 30
0.0
 11
164.3936160019186
 21
233.0983266026469
 31
0.0
  0
LINE
  5
1404
330
13F2
100
AcDbEntity
  8
0
 62
     0
100
AcDbLine
 10
174.4579458186898
 20
245.8143068488677
 30
0.0
 11
174.8943783240145
 21
246.2507393541923
 31
0.0
  0
LINE
  5
1405
330
13F2
100
AcDbEntity
  8
0
 62
     0
100
AcDbLine
 10
169.9939033250009
 20
241.3502643551786
 30
0.0
 11
174.4579458186898
 21
245.8143068488677
 31
0.0
  0
LINE
  5
1406
330
13F2
100
AcDbEntity
  8
0
 62
     0
100
AcDbLine
 10
174.8943783240145
 20
246.2507393541923
 30
0.0
 11
175.041965572469
 21
246.3983266026469
 31
0.0
  0
LINE
  5
1407
330
13F2
100
AcDbEntity
  8
0
 62
     0
100
AcDbLine
 10
164.1456616084626
 20
235.5020226386406
 30
0.0
 11
169.9939033250009
 21
241.3502643551786
 31
0.0
  0
LINE
  5
1408
330
13F2
100
AcDbEntity
  8
0
 62
     0
100
AcDbLine
 10
175.0419655724691
 20
246.3983266026469
 30
0.0
 11
175.9939033250009
 21
247.3502643551788
 31
0.0
  0
LINE
  5
1409
330
13F2
100
AcDbEntity
  8
0
 62
     0
100
AcDbLine
 10
163.9939033250008
 20
235.3502643551788
 30
0.0
 11
164.1456616084626
 21
235.5020226386406
 31
0.0
  0
LINE
  5
140A
330
13F2
100
AcDbEntity
  8
0
 62
     0
100
AcDbLine
 10
169.9939033250009
 20
244.0019147846283
 30
0.0
 11
172.3903151430194
 21
246.3983266026469
 31
0.0
  0
LINE
  5
140B
330
13F2
100
AcDbEntity
  8
0
 62
     0
100
AcDbLine
 10
172.3903151430194
 20
246.3983266026469
 30
0.0
 11
173.8903151430194
 21
247.898326602647
 31
0.0
  0
LINE
  5
140C
330
13F2
100
AcDbEntity
  8
0
 62
     0
100
AcDbLine
 10
164.5567702021758
 20
238.5647816618033
 30
0.0
 11
169.9939033250009
 21
244.0019147846283
 31
0.0
  0
LINE
  5
140D
330
13F2
100
AcDbEntity
  8
0
 62
     0
100
AcDbLine
 10
173.8903151430194
 20
247.898326602647
 30
0.0
 11
175.4903151430194
 21
249.498326602647
 31
0.0
  0
LINE
  5
140E
330
13F2
100
AcDbEntity
  8
0
 62
     0
100
AcDbLine
 10
163.9939033250008
 20
238.0019147846283
 30
0.0
 11
164.5567702021758
 21
238.5647816618033
 31
0.0
  0
LINE
  5
140F
330
13F2
100
AcDbEntity
  8
0
 62
     0
100
AcDbLine
 10
169.7386647135699
 20
246.3983266026469
 30
0.0
 11
171.2386647135699
 21
247.898326602647
 31
0.0
  0
LINE
  5
1410
330
13F2
100
AcDbEntity
  8
0
 62
     0
100
AcDbLine
 10
164.9678787958889
 20
241.6275406849659
 30
0.0
 11
169.7386647135699
 21
246.3983266026469
 31
0.0
  0
LINE
  5
1411
330
13F2
100
AcDbEntity
  8
0
 62
     0
100
AcDbLine
 10
171.23866471357
 20
247.898326602647
 30
0.0
 11
172.8386647135699
 21
249.498326602647
 31
0.0
  0
LINE
  5
1412
330
13F2
100
AcDbEntity
  8
0
 62
     0
100
AcDbLine
 10
163.9939033250009
 20
240.6535652140779
 30
0.0
 11
164.9678787958889
 21
241.6275406849659
 31
0.0
  0
LINE
  5
1413
330
13F2
100
AcDbEntity
  8
0
 62
     0
100
AcDbLine
 10
167.0870142841204
 20
246.3983266026469
 30
0.0
 11
168.5870142841204
 21
247.898326602647
 31
0.0
  0
LINE
  5
1414
330
13F2
100
AcDbEntity
  8
0
 62
     0
100
AcDbLine
 10
165.378987389602
 20
244.6902997081287
 30
0.0
 11
167.0870142841204
 21
246.3983266026469
 31
0.0
  0
LINE
  5
1415
330
13F2
100
AcDbEntity
  8
0
 62
     0
100
AcDbLine
 10
168.5870142841204
 20
247.898326602647
 30
0.0
 11
170.1870142841205
 21
249.498326602647
 31
0.0
  0
LINE
  5
1416
330
13F2
100
AcDbEntity
  8
0
 62
     0
100
AcDbLine
 10
163.9939033250009
 20
243.3052156435274
 30
0.0
 11
165.378987389602
 21
244.6902997081285
 31
0.0
  0
LINE
  5
1417
330
13F2
100
AcDbEntity
  8
0
 62
     0
100
AcDbLine
 10
164.4353638546708
 20
246.3983266026469
 30
0.0
 11
165.9353638546708
 21
247.8983266026469
 31
0.0
  0
LINE
  5
1418
330
13F2
100
AcDbEntity
  8
0
 62
     0
100
AcDbLine
 10
164.3831200050058
 20
246.3460827529819
 30
0.0
 11
164.4353638546708
 21
246.3983266026469
 31
0.0
  0
LINE
  5
1419
330
13F2
100
AcDbEntity
  8
0
 62
     0
100
AcDbLine
 10
165.9353638546708
 20
247.898326602647
 30
0.0
 11
167.5353638546709
 21
249.498326602647
 31
0.0
  0
LINE
  5
141A
330
13F2
100
AcDbEntity
  8
0
 62
     0
100
AcDbLine
 10
163.9939033250009
 20
245.9568660729769
 30
0.0
 11
164.3831200050058
 21
246.3460827529819
 31
0.0
  0
LINE
  5
141B
330
13F2
100
AcDbEntity
  8
0
 62
     0
100
AcDbLine
 10
163.9939033250009
 20
248.6085165024265
 30
0.0
 11
164.8837134252214
 21
249.4983266026471
 31
0.0
  0
ENDBLK
  5
141D
330
13F2
100
AcDbEntity
  8
0
100
AcDbBlockEnd
  0
ENDSEC
  0
SECTION
  2
ENTITIES
  0
LINE
  5
31F
330
A
100
AcDbEntity
  8
03
100
AcDbLine
 10
306.9939033250008
 20
233.0983266026469
 30
0.0
 11
306.9939033250008
 21
499.8983266026469
 31
0.0
  0
LINE
  5
320
330
A
100
AcDbEntity
  8
03
100
AcDbLine
 10
139.9939033250009
 20
481.898326602647
 30
0.0
 11
139.9939033250009
 21
233.0983266026469
 31
0.0
  0
LINE
  5
321
330
A
100
AcDbEntity
  8
03
100
AcDbLine
 10
275.9939033250009
 20
499.8983266026462
 30
0.0
 11
275.9939033250009
 21
483.4983266026461
 31
0.0
  0
LINE
  5
322
330
A
100
AcDbEntity
  8
03
100
AcDbLine
 10
286.9939033250009
 20
483.4983266026461
 30
0.0
 11
275.9939033250009
 21
483.4983266026461
 31
0.0
  0
LINE
  5
323
330
A
100
AcDbEntity
  8
03
100
AcDbLine
 10
277.9939033250009
 20
499.8983266026462
 30
0.0
 11
277.9939033250009
 21
484.4983266026461
 31
0.0
  0
LINE
  5
324
330
A
100
AcDbEntity
  8
03
100
AcDbLine
 10
277.9939033250009
 20
484.4983266026461
 30
0.0
 11
279.4939033250009
 21
484.4983266026461
 31
0.0
  0
LINE
  5
325
330
A
100
AcDbEntity
  8
03
100
AcDbLine
 10
279.4939033250009
 20
499.9983266026461
 30
0.0
 11
305.4939033250008
 21
499.9983266026467
 31
0.0
  0
LINE
  5
326
330
A
100
AcDbEntity
  8
03
100
AcDbLine
 10
279.4939033250009
 20
499.9983266026461
 30
0.0
 11
279.4939033250009
 21
484.4983266026461
 31
0.0
  0
LINE
  5
327
330
A
100
AcDbEntity
  8
03
100
AcDbLine
 10
305.4939033250008
 20
499.8983266026469
 30
0.0
 11
305.4939033250008
 21
232.998326602647
 31
0.0
  0
LINE
  5
328
330
A
100
AcDbEntity
  8
03
100
AcDbLine
 10
305.3939033250008
 20
501.4983266026468
 30
0.0
 11
279.5939033250009
 21
501.4983266026468
 31
0.0
  0
LINE
  5
329
330
A
100
AcDbEntity
  8
03
100
AcDbLine
 10
274.3939033250009
 20
501.4983266026461
 30
0.0
 11
181.5939033250009
 21
501.4983266026461
 31
0.0
  0
LINE
  5
32A
330
A
100
AcDbEntity
  8
03
100
AcDbLine
 10
251.4939033250009
 20
232.998326602647
 30
0.0
 11
305.4939033250008
 21
232.998326602647
 31
0.0
  0
LINE
  5
32B
330
A
100
AcDbEntity
  8
03
100
AcDbLine
 10
249.9939033250009
 20
233.0983266026469
 30
0.0
 11
249.9939033250009
 21
241.498326602647
 31
0.0
  0
LINE
  5
32C
330
A
100
AcDbEntity
  8
03
100
AcDbLine
 10
251.4939033250009
 20
241.498326602647
 30
0.0
 11
251.4939033250009
 21
232.998326602647
 31
0.0
  0
LINE
  5
32D
330
A
100
AcDbEntity
  8
03
100
AcDbLine
 10
249.9939033250009
 20
241.498326602647
 30
0.0
 11
251.4939033250009
 21
241.498326602647
 31
0.0
  0
LINE
  5
32E
330
A
100
AcDbEntity
  8
03
100
AcDbLine
 10
251.5939033250008
 20
231.4983266026469
 30
0.0
 11
305.3939033250008
 21
231.4983266026469
 31
0.0
  0
LINE
  5
32F
330
A
100
AcDbEntity
  8
03
100
AcDbLine
 10
274.4939033250009
 20
499.9983266026461
 30
0.0
 11
181.4939033250009
 21
499.9983266026461
 31
0.0
  0
LINE
  5
330
330
A
100
AcDbEntity
  8
03
100
AcDbLine
 10
276.0939033250009
 20
481.998326602646
 30
0.0
 11
286.9939033250009
 21
481.998326602646
 31
0.0
  0
LINE
  5
331
330
A
100
AcDbEntity
  8
03
100
AcDbLine
 10
286.9939033250009
 20
483.4983266026461
 30
0.0
 11
286.9939033250009
 21
481.998326602646
 31
0.0
  0
LINE
  5
332
330
A
100
AcDbEntity
  8
03
100
AcDbLine
 10
274.4939033250009
 20
499.9983266026461
 30
0.0
 11
274.4939033250009
 21
483.5983266026461
 31
0.0
  0
LINE
  5
333
330
A
100
AcDbEntity
  8
03
100
AcDbLine
 10
179.9939033250009
 20
551.4983266026462
 30
0.0
 11
179.9939033250009
 21
483.4983266026461
 31
0.0
  0
LINE
  5
334
330
A
100
AcDbEntity
  8
03
100
AcDbLine
 10
181.4939033250009
 20
499.9983266026461
 30
0.0
 11
181.4939033250009
 21
483.5983266026464
 31
0.0
  0
LINE
  5
335
330
A
100
AcDbEntity
  8
03
100
AcDbLine
 10
179.9939033250009
 20
483.4983266026461
 30
0.0
 11
141.5939033250009
 21
483.498326602647
 31
0.0
  0
LINE
  5
336
330
A
100
AcDbEntity
  8
03
100
AcDbLine
 10
141.4939033250009
 20
481.9983266026468
 30
0.0
 11
272.8939033250008
 21
481.9983266026451
 31
0.0
  0
LINE
  5
337
330
A
100
AcDbEntity
  8
03
100
AcDbLine
 10
141.4939033250009
 20
481.9983266026468
 30
0.0
 11
141.4939033250009
 21
232.998326602647
 31
0.0
  0
LINE
  5
338
330
A
100
AcDbEntity
  8
03
100
AcDbLine
 10
198.4939033250009
 20
247.898326602647
 30
0.0
 11
198.4939033250009
 21
232.998326602647
 31
0.0
  0
LINE
  5
339
330
A
100
AcDbEntity
  8
03
100
AcDbLine
 10
198.4939033250009
 20
241.498326602647
 30
0.0
 11
199.9939033250009
 21
241.498326602647
 31
0.0
  0
LINE
  5
33A
330
A
100
AcDbEntity
  8
03
100
AcDbLine
 10
163.9939033250009
 20
483.4983266026465
 30
0.0
 11
163.9939033250009
 21
551.4983266026462
 31
0.0
  0
LINE
  5
33B
330
A
100
AcDbEntity
  8
03
100
AcDbLine
 10
144.9939033250009
 20
483.4983266026465
 30
0.0
 11
144.9939033250009
 21
499.8983266026462
 31
0.0
  0
LINE
  5
33C
330
A
100
AcDbEntity
  8
03
100
AcDbLine
 10
146.5939033250009
 20
501.4983266026461
 30
0.0
 11
162.3939033250008
 21
501.4983266026461
 31
0.0
  0
LINE
  5
33D
330
A
100
AcDbEntity
  8
03
100
AcDbLine
 10
146.4939033250009
 20
483.4983266026467
 30
0.0
 11
146.4939033250009
 21
499.9983266026461
 31
0.0
  0
LINE
  5
33E
330
A
100
AcDbEntity
  8
03
100
AcDbLine
 10
162.4939033250009
 20
499.9983266026461
 30
0.0
 11
162.4939033250009
 21
483.4983266026465
 31
0.0
  0
LINE
  5
33F
330
A
100
AcDbEntity
  8
03
100
AcDbLine
 10
146.4939033250009
 20
499.9983266026461
 30
0.0
 11
162.4939033250009
 21
499.9983266026461
 31
0.0
  0
LINE
  5
340
330
A
100
AcDbEntity
  8
03
100
AcDbLine
 10
161.9939033250009
 20
233.0983266026469
 30
0.0
 11
161.9939033250009
 21
246.3983266026469
 31
0.0
  0
LINE
  5
341
330
A
100
AcDbEntity
  8
03
100
AcDbLine
 10
177.9939033250009
 20
233.0983266026469
 30
0.0
 11
177.9939033250009
 21
246.3983266026469
 31
0.0
  0
LINE
  5
342
330
A
100
AcDbEntity
  8
03
100
AcDbLine
 10
143.0939033250008
 20
249.498326602647
 30
0.0
 11
196.8939033250009
 21
249.498326602647
 31
0.0
  0
LINE
  5
343
330
A
100
AcDbEntity
  8
03
100
AcDbLine
 10
196.8939033250009
 20
247.898326602647
 30
0.0
 11
143.0939033250008
 21
247.898326602647
 31
0.0
  0
LINE
  5
344
330
A
100
AcDbEntity
  8
03
100
AcDbLine
 10
196.8939033250009
 20
247.898326602647
 30
0.0
 11
196.8939033250009
 21
232.998326602647
 31
0.0
  0
LINE
  5
345
330
A
100
AcDbEntity
  8
03
100
AcDbLine
 10
143.0939033250008
 20
480.3983266026468
 30
0.0
 11
143.0939033250008
 21
249.498326602647
 31
0.0
  0
LINE
  5
346
330
A
100
AcDbEntity
  8
03
100
AcDbLine
 10
161.9939033250009
 20
246.3983266026469
 30
0.0
 11
177.9939033250009
 21
246.3983266026469
 31
0.0
  0
LINE
  5
347
330
A
100
AcDbEntity
  8
03
100
AcDbLine
 10
179.4939033250009
 20
246.2983266026469
 30
0.0
 11
179.4939033250009
 21
232.998326602647
 31
0.0
  0
LINE
  5
348
330
A
100
AcDbEntity
  8
03
100
AcDbLine
 10
160.4939033250009
 20
246.298326602647
 30
0.0
 11
160.4939033250009
 21
232.998326602647
 31
0.0
  0
LINE
  5
349
330
A
100
AcDbEntity
  8
03
100
AcDbLine
 10
141.4939033250009
 20
232.998326602647
 30
0.0
 11
160.3939033250009
 21
232.998326602647
 31
0.0
  0
LINE
  5
34A
330
A
100
AcDbEntity
  8
03
100
AcDbLine
 10
179.5939033250009
 20
232.998326602647
 30
0.0
 11
198.4939033250009
 21
232.998326602647
 31
0.0
  0
LINE
  5
34B
330
A
100
AcDbEntity
  8
03
100
AcDbLine
 10
143.0939033250008
 20
480.3983266026468
 30
0.0
 11
272.8939033250008
 21
480.3983266026468
 31
0.0
  0
LINE
  5
34C
330
A
100
AcDbEntity
  8
03
100
AcDbLine
 10
272.8939033250008
 20
499.9983266026461
 30
0.0
 11
272.8939033250008
 21
481.9983266026451
 31
0.0
  0
CIRCLE
  5
34D
330
A
100
AcDbEntity
  8
03
100
AcDbCircle
 10
276.9939033250009
 20
506.4983266026461
 30
0.0
 40
4.0
  0
ARC
  5
34E
330
A
100
AcDbEntity
  8
03
100
AcDbCircle
 10
272.8939033250008
 20
481.9983266026468
 30
0.0
 40
1.6
100
AcDbArc
 50
270.0
 51
0.0
  0
ARC
  5
34F
330
A
100
AcDbEntity
  8
03
100
AcDbCircle
 10
143.0939033250008
 20
480.3983266026468
 30
0.0
 40
1.6
100
AcDbArc
 50
90.0
 51
180.0
  0
ARC
  5
350
330
A
100
AcDbEntity
  8
03
100
AcDbCircle
 10
143.0939033250008
 20
249.498326602647
 30
0.0
 40
1.6
100
AcDbArc
 50
180.0
 51
270.0
  0
ARC
  5
351
330
A
100
AcDbEntity
  8
03
100
AcDbCircle
 10
196.8939033250009
 20
247.898326602647
 30
0.0
 40
1.6
100
AcDbArc
 50
0.0
 51
90.0
  0
LINE
  5
352
330
A
100
AcDbEntity
  8
03
100
AcDbLine
 10
141.5939033250009
 20
231.4983266026469
 30
0.0
 11
160.3939033250009
 21
231.4983266026469
 31
0.0
  0
LINE
  5
361
330
A
100
AcDbEntity
  8
03
100
AcDbLine
 10
168.9939033250009
 20
539.4983266026462
 30
0.0
 11
168.9939033250009
 21
492.9983266026463
 31
0.0
  0
LINE
  5
362
330
A
100
AcDbEntity
  8
03
100
AcDbLine
 10
174.9939033250009
 20
539.4983266026462
 30
0.0
 11
174.9939033250009
 21
492.9983266026463
 31
0.0
  0
LINE
  5
363
330
A
100
AcDbEntity
  8
03
100
AcDbLine
 10
164.9939033250009
 20
492.9983266026463
 30
0.0
 11
178.9939033250009
 21
492.9983266026463
 31
0.0
  0
LINE
  5
364
330
A
100
AcDbEntity
  8
03
100
AcDbLine
 10
178.9939033250009
 20
492.9983266026463
 30
0.0
 11
178.9939033250009
 21
483.4983266026461
 31
0.0
  0
LINE
  5
365
330
A
100
AcDbEntity
  8
03
100
AcDbLine
 10
164.9939033250009
 20
483.4983266026465
 30
0.0
 11
164.9939033250009
 21
492.9983266026463
 31
0.0
  0
LINE
  5
366
330
A
100
AcDbEntity
  8
03
100
AcDbLine
 10
163.9939033250009
 20
501.4983266026461
 30
0.0
 11
168.9939033250009
 21
503.4983266026461
 31
0.0
  0
LINE
  5
367
330
A
100
AcDbEntity
  8
03
100
AcDbLine
 10
179.9939033250009
 20
501.4983266026461
 30
0.0
 11
174.9939033250009
 21
503.4983266026461
 31
0.0
  0
LINE
  5
36B
330
A
100
AcDbEntity
  8
04
100
AcDbLine
 10
212.9939033250009
 20
245.498326602647
 30
0.0
 11
212.9939033250009
 21
241.498326602647
 31
0.0
  0
LINE
  5
36C
330
A
100
AcDbEntity
  8
04
100
AcDbLine
 10
236.9939033250009
 20
241.498326602647
 30
0.0
 11
236.9939033250009
 21
245.498326602647
 31
0.0
  0
LINE
  5
36D
330
A
100
AcDbEntity
  8
03
100
AcDbLine
 10
256.9939033250009
 20
501.4983266026461
 30
0.0
 11
256.9939033250009
 21
561.4983266026462
 31
0.0
  0
ARC
  5
36E
330
A
100
AcDbEntity
  8
03
100
AcDbCircle
 10
179.5939033250009
 20
233.0983266026469
 30
0.0
 40
1.6
100
AcDbArc
 50
180.0
 51
270.0
  0
ARC
  5
36F
330
A
100
AcDbEntity
  8
03
100
AcDbCircle
 10
160.3939033250009
 20
233.0983266026469
 30
0.0
 40
1.6
100
AcDbArc
 50
270.0
 51
0.0
  0
ARC
  5
370
330
A
100
AcDbEntity
  8
03
100
AcDbCircle
 10
141.5939033250009
 20
233.0983266026469
 30
0.0
 40
1.6
100
AcDbArc
 50
180.0
 51
270.0
  0
ARC
  5
371
330
A
100
AcDbEntity
  8
03
100
AcDbCircle
 10
305.3939033250008
 20
499.8983266026469
 30
0.0
 40
1.6
100
AcDbArc
 50
0.0
 51
90.0
  0
ARC
  5
372
330
A
100
AcDbEntity
  8
03
100
AcDbCircle
 10
279.5939033250009
 20
499.8983266026462
 30
0.0
 40
1.6
100
AcDbArc
 50
90.0
 51
180.0
  0
ARC
  5
373
330
A
100
AcDbEntity
  8
03
100
AcDbCircle
 10
274.3939033250009
 20
499.8983266026462
 30
0.0
 40
1.6
100
AcDbArc
 50
0.0
 51
90.0
  0
ARC
  5
374
330
A
100
AcDbEntity
  8
03
100
AcDbCircle
 10
276.0939033250009
 20
483.5983266026461
 30
0.0
 40
1.6
100
AcDbArc
 50
180.0
 51
270.0
  0
ARC
  5
375
330
A
100
AcDbEntity
  8
03
100
AcDbCircle
 10
146.5939033250009
 20
499.8983266026462
 30
0.0
 40
1.6
100
AcDbArc
 50
90.0
 51
180.0
  0
ARC
  5
376
330
A
100
AcDbEntity
  8
03
100
AcDbCircle
 10
141.5939033250009
 20
481.898326602647
 30
0.0
 40
1.6
100
AcDbArc
 50
90.0
 51
180.0
  0
ARC
  5
377
330
A
100
AcDbEntity
  8
03
100
AcDbCircle
 10
305.3939033250008
 20
233.0983266026469
 30
0.0
 40
1.6
100
AcDbArc
 50
270.0
 51
0.0
  0
ARC
  5
378
330
A
100
AcDbEntity
  8
03
100
AcDbCircle
 10
251.5939033250008
 20
233.0983266026469
 30
0.0
 40
1.6
100
AcDbArc
 50
180.0
 51
270.0
  0
LINE
  5
379
330
A
100
AcDbEntity
  8
03
100
AcDbLine
 10
163.9939033250009
 20
531.4983266026461
 30
0.0
 11
168.9939033250009
 21
529.4983266026462
 31
0.0
  0
LINE
  5
37A
330
A
100
AcDbEntity
  8
03
100
AcDbLine
 10
179.9939033250009
 20
531.4983266026461
 30
0.0
 11
174.9939033250009
 21
529.4983266026462
 31
0.0
  0
LINE
  5
37B
330
A
100
AcDbEntity
  8
02
100
AcDbLine
 10
165.9939033250009
 20
249.498326602647
 30
0.0
 11
165.9939033250009
 21
480.3983266026468
 31
0.0
  0
LINE
  5
37C
330
A
100
AcDbEntity
  8
02
100
AcDbLine
 10
159.9939033250009
 20
480.3983266026468
 30
0.0
 11
159.9939033250009
 21
249.4983266026469
 31
0.0
  0
LINE
  5
37D
330
A
100
AcDbEntity
  8
03
100
AcDbLine
 10
199.9939033250009
 20
129.0138642981979
 30
0.0
 11
199.9939033250009
 21
162.5816440611519
 31
0.0
  0
LINE
  5
37E
330
A
100
AcDbEntity
  8
03
100
AcDbLine
 10
141.9939033250009
 20
155.3708260105448
 30
0.0
 11
141.9939033250009
 21
157.3759496031839
 31
0.0
  0
LINE
  5
37F
330
A
100
AcDbEntity
  8
03
100
AcDbLine
 10
136.9939033250008
 20
167.5816440611519
 30
0.0
 11
136.9939033250009
 21
561.4983266026462
 31
0.0
  0
LINE
  5
380
330
A
100
AcDbEntity
  8
02
100
AcDbLine
 10
191.9939033250009
 20
304.4983266026468
 30
0.0
 11
165.9939033250009
 21
304.4983266026468
 31
0.0
  0
ARC
  5
381
330
A
100
AcDbEntity
  8
02
100
AcDbCircle
 10
191.9939033250009
 20
304.4983266026468
 30
0.0
 40
6.0
100
AcDbArc
 50
0.0
 51
90.0
  0
LINE
  5
382
330
A
100
AcDbEntity
  8
02
100
AcDbLine
 10
197.9939033250009
 20
304.4983266026468
 30
0.0
 11
197.9939033250009
 21
255.498326602647
 31
0.0
  0
LINE
  5
383
330
A
100
AcDbEntity
  8
02
100
AcDbLine
 10
191.9939033250009
 20
304.4983266026468
 30
0.0
 11
191.9939033250009
 21
255.498326602647
 31
0.0
  0
LINE
  5
384
330
A
100
AcDbEntity
  8
02
100
AcDbLine
 10
165.9939033250009
 20
255.498326602647
 30
0.0
 11
191.9939033250009
 21
255.498326602647
 31
0.0
  0
ARC
  5
385
330
A
100
AcDbEntity
  8
02
100
AcDbCircle
 10
191.9939033250009
 20
255.498326602647
 30
0.0
 40
6.0
100
AcDbArc
 50
270.0
 51
0.0
  0
LINE
  5
386
330
A
100
AcDbEntity
  8
03
100
AcDbLine
 10
199.9939033250009
 20
78.2013143003623
 30
0.0
 11
199.9939033250009
 21
124.0138642981978
 31
0.0
  0
LINE
  5
388
330
A
100
AcDbEntity
  8
03
100
AcDbLine
 10
141.9939033250009
 20
78.2013143003623
 30
0.0
 11
141.9939033250009
 21
124.0138642981978
 31
0.0
  0
LINE
  5
389
330
A
100
AcDbEntity
  8
03
100
AcDbLine
 10
141.9939033250009
 20
129.0138642981979
 30
0.0
 11
141.9939033250009
 21
162.5816440611519
 31
0.0
  0
LINE
  5
38A
330
A
100
AcDbEntity
  8
03
100
AcDbLine
 10
136.9939033250008
 20
78.2013143003623
 30
0.0
 11
136.9939033250008
 21
124.0138642981978
 31
0.0
  0
LINE
  5
38B
330
A
100
AcDbEntity
  8
03
100
AcDbLine
 10
136.9939033250008
 20
129.0138642981979
 30
0.0
 11
136.9939033250008
 21
162.5816440611519
 31
0.0
  0
LINE
  5
38C
330
A
100
AcDbEntity
  8
CHUSIN
 48
0.3
100
AcDbLine
 10
276.9939033250009
 20
512.457903541622
 30
0.0
 11
276.9939033250009
 21
494.7527209128436
 31
0.0
  0
LINE
  5
38D
330
A
100
AcDbEntity
  8
CHUSIN
 48
0.3
100
AcDbLine
 10
272.4528405547648
 20
506.4983266026461
 30
0.0
 11
280.8096867555481
 21
506.4983266026461
 31
0.0
  0
LINE
  5
38E
330
A
100
AcDbEntity
  8
CHUSIN
100
AcDbLine
 10
171.9939033250009
 20
566.0035428664902
 30
0.0
 11
171.9939033250009
 21
483.4983266026463
 31
0.0
  0
LINE
  5
38F
330
A
100
AcDbEntity
  8
CHUSIN
100
AcDbLine
 10
224.9939033250009
 20
55.92535687369537
 30
0.0
 11
224.9939033250009
 21
124.0138642981978
 31
0.0
  0
LINE
  5
390
330
A
100
AcDbEntity
  8
CHUSIN
100
AcDbLine
 10
224.9939033250009
 20
129.0138642981979
 30
0.0
 11
224.9939033250009
 21
162.5816440611519
 31
0.0
  0
LINE
  5
391
330
A
100
AcDbEntity
  8
03
100
AcDbLine
 10
178.9939033250009
 20
492.9983266026463
 30
0.0
 11
164.9939033250009
 21
483.4983266026465
 31
0.0
  0
LINE
  5
392
330
A
100
AcDbEntity
  8
KAKURE
100
AcDbLine
 10
256.9939033250009
 20
524.7665578139556
 30
0.0
 11
256.9939033250009
 21
231.4983266026469
 31
0.0
  0
LINE
  5
393
330
A
100
AcDbEntity
  8
KAKURE
100
AcDbLine
 10
147.9939033250009
 20
559.9983266026462
 30
0.0
 11
245.9939033250009
 21
559.9983266026462
 31
0.0
  0
LINE
  5
394
330
A
100
AcDbEntity
  8
KAKURE
100
AcDbLine
 10
245.9939033250009
 20
556.998326602646
 30
0.0
 11
147.9939033250009
 21
556.998326602646
 31
0.0
  0
LINE
  5
395
330
A
100
AcDbEntity
  8
KAKURE
100
AcDbLine
 10
147.9939033250009
 20
556.998326602646
 30
0.0
 11
147.9939033250009
 21
559.9983266026462
 31
0.0
  0
LINE
  5
396
330
A
100
AcDbEntity
  8
KAKURE
100
AcDbLine
 10
245.9939033250009
 20
559.9983266026462
 30
0.0
 11
245.9939033250009
 21
556.998326602646
 31
0.0
  0
LINE
  5
397
330
A
100
AcDbEntity
  8
KAKURE
100
AcDbLine
 10
136.9939033250008
 20
78.2013143003623
 30
0.0
 11
136.9939033250008
 21
58.2013143003623
 31
0.0
  0
LINE
  5
398
330
A
100
AcDbEntity
  8
KAKURE
100
AcDbLine
 10
256.9939033250009
 20
78.2013143003623
 30
0.0
 11
256.9939033250009
 21
58.2013143003623
 31
0.0
  0
LINE
  5
399
330
A
100
AcDbEntity
  8
KAKURE
100
AcDbLine
 10
136.9939033250008
 20
58.2013143003623
 30
0.0
 11
256.9939033250009
 21
58.2013143003623
 31
0.0
  0
LINE
  5
39A
330
A
100
AcDbEntity
  8
03
100
AcDbLine
 10
163.8230178452421
 20
231.4983266026469
 30
0.0
 11
176.1647888047596
 21
231.4983266026469
 31
0.0
  0
LINE
  5
39B
330
A
100
AcDbEntity
  8
03
100
AcDbLine
 10
163.9939033250009
 20
246.3983266026469
 30
0.0
 11
162.2372397175541
 21
233.3111827271689
 31
0.0
  0
LINE
  5
39C
330
A
100
AcDbEntity
  8
03
100
AcDbLine
 10
175.9939033250009
 20
246.3983266026469
 30
0.0
 11
177.7505669324475
 21
233.3111827271688
 31
0.0
  0
LINE
  5
39D
330
A
100
AcDbEntity
  8
03
100
AcDbLine
 10
174.4081251973129
 20
246.185470478125
 30
0.0
 11
176.1647888047596
 21
233.0983266026469
 31
0.0
  0
LINE
  5
39E
330
A
100
AcDbEntity
  8
03
100
AcDbLine
 10
176.1647888047596
 20
233.0983266026469
 30
0.0
 11
163.8230178452421
 21
233.0983266026469
 31
0.0
  0
LINE
  5
39F
330
A
100
AcDbEntity
  8
03
100
AcDbLine
 10
163.8230178452421
 20
233.0983266026469
 30
0.0
 11
165.5796814526888
 21
246.185470478125
 31
0.0
  0
ARC
  5
3A0
330
A
100
AcDbEntity
  8
03
100
AcDbCircle
 10
176.1647888047596
 20
233.0983266026469
 30
0.0
 40
1.6
100
AcDbArc
 50
270.0
 51
7.645013271669327
  0
ARC
  5
3A1
330
A
100
AcDbEntity
  8
03
100
AcDbCircle
 10
163.8230178452421
 20
233.0983266026469
 30
0.0
 40
1.6
100
AcDbArc
 50
172.3549867283285
 51
270.0
  0
LINE
  5
3A2
330
A
100
AcDbEntity
  8
03
100
AcDbLine
 10
163.9939033250009
 20
246.3983266026469
 30
0.0
 11
165.5796814526888
 21
246.185470478125
 31
0.0
  0
LINE
  5
3A3
330
A
100
AcDbEntity
  8
03
100
AcDbLine
 10
175.9939033250009
 20
246.3983266026469
 30
0.0
 11
174.4081251973129
 21
246.185470478125
 31
0.0
  0
LINE
  5
3A4
330
A
100
AcDbEntity
  8
03
100
AcDbLine
 10
199.9939033250009
 20
241.498326602647
 30
0.0
 11
199.9939033250009
 21
233.0983266026469
 31
0.0
  0
ARC
  5
3A5
330
A
100
AcDbEntity
  8
03
100
AcDbCircle
 10
198.3939033250009
 20
233.0983266026469
 30
0.0
 40
1.6
100
AcDbArc
 50
270.0
 51
0.0
  0
LINE
  5
3A6
330
A
100
AcDbEntity
  8
03
100
AcDbLine
 10
162.0939033250009
 20
247.898326602647
 30
0.0
 11
177.8939033250009
 21
247.898326602647
 31
0.0
  0
ARC
  5
3A7
330
A
100
AcDbEntity
  8
03
100
AcDbCircle
 10
177.8939033250009
 20
246.2983266026469
 30
0.0
 40
1.6
100
AcDbArc
 50
0.0
 51
90.0
  0
ARC
  5
3A8
330
A
100
AcDbEntity
  8
03
100
AcDbCircle
 10
162.0939033250009
 20
246.298326602647
 30
0.0
 40
1.6
100
AcDbArc
 50
90.0
 51
180.0
  0
LINE
  5
3A9
330
A
100
AcDbEntity
  8
03
100
AcDbLine
 10
274.4939033250009
 20
499.9983266026461
 30
0.0
 11
274.4939033250009
 21
481.9983266026468
 31
0.0
  0
LINE
  5
3AA
330
A
100
AcDbEntity
  8
03
100
AcDbLine
 10
163.9939033250009
 20
499.8983266026462
 30
0.0
 11
163.9939033250009
 21
483.4983266026465
 31
0.0
  0
LINE
  5
3AB
330
A
100
AcDbEntity
  8
03
100
AcDbLine
 10
179.9939033250009
 20
499.8983266026462
 30
0.0
 11
179.9939033250009
 21
483.4983266026461
 31
0.0
  0
LINE
  5
3AC
330
A
100
AcDbEntity
  8
03
100
AcDbLine
 10
179.8939033250007
 20
481.9983266026463
 30
0.0
 11
142.4939033250009
 21
481.9983266026468
 31
0.0
  0
ARC
  5
3AD
330
A
100
AcDbEntity
  8
03
100
AcDbCircle
 10
181.5939033250009
 20
499.8983266026462
 30
0.0
 40
1.6
100
AcDbArc
 50
90.0
 51
180.0
  0
ARC
  5
3AE
330
A
100
AcDbEntity
  8
03
100
AcDbCircle
 10
162.3939033250008
 20
499.8983266026462
 30
0.0
 40
1.6
100
AcDbArc
 50
0.0
 51
90.0
  0
ARC
  5
3AF
330
A
100
AcDbEntity
  8
03
100
AcDbCircle
 10
179.8939033250007
 20
483.5983266026464
 30
0.0
 40
1.6
100
AcDbArc
 50
270.0
 51
0.0
  0
LINE
  5
3B0
330
A
100
AcDbEntity
  8
03
100
AcDbLine
 10
61.82445625186324
 20
78.2013143003623
 30
0.0
 11
376.9939033250008
 21
78.2013143003623
 31
0.0
  0
LINE
  5
3B1
330
A
100
AcDbEntity
  8
03
100
AcDbLine
 10
139.9939033250009
 20
532.9983266026462
 30
0.0
 11
139.9939033250009
 21
559.9983266026462
 31
0.0
  0
LINE
  5
3B2
330
A
100
AcDbEntity
  8
03
100
AcDbLine
 10
253.9939033250009
 20
559.9983266026462
 30
0.0
 11
253.9939033250009
 21
532.9983266026462
 31
0.0
  0
LINE
  5
3B3
330
A
100
AcDbEntity
  8
03
100
AcDbLine
 10
252.4939033250009
 20
559.9983266026462
 30
0.0
 11
252.4939033250009
 21
532.9983266026462
 31
0.0
  0
LINE
  5
3B4
330
A
100
AcDbEntity
  8
03
100
AcDbLine
 10
141.4939033250009
 20
532.9983266026462
 30
0.0
 11
141.4939033250009
 21
559.9983266026462
 31
0.0
  0
LINE
  5
3B5
330
A
100
AcDbEntity
  8
03
100
AcDbLine
 10
238.9939033250009
 20
561.4983266026462
 30
0.0
 11
238.9939033250009
 21
559.9983266026462
 31
0.0
  0
LINE
  5
3B6
330
A
100
AcDbEntity
  8
03
100
AcDbLine
 10
154.9939033250009
 20
561.4983266026462
 30
0.0
 11
154.9939033250009
 21
559.9983266026462
 31
0.0
  0
LINE
  5
3B7
330
A
100
AcDbEntity
  8
03
100
AcDbLine
 10
141.4939033250009
 20
561.4983266026462
 30
0.0
 11
154.9939033250009
 21
561.4983266026462
 31
0.0
  0
LINE
  5
3B8
330
A
100
AcDbEntity
  8
03
100
AcDbLine
 10
238.9939033250009
 20
561.4983266026462
 30
0.0
 11
252.4939033250009
 21
561.4983266026462
 31
0.0
  0
LINE
  5
3B9
330
A
100
AcDbEntity
  8
03
100
AcDbLine
 10
141.4939033250009
 20
559.9983266026462
 30
0.0
 11
154.9939033250009
 21
559.9983266026462
 31
0.0
  0
LINE
  5
3BA
330
A
100
AcDbEntity
  8
03
100
AcDbLine
 10
238.9939033250009
 20
559.9983266026462
 30
0.0
 11
252.4939033250009
 21
559.9983266026462
 31
0.0
  0
ARC
  5
3BB
330
A
100
AcDbEntity
  8
03
100
AcDbCircle
 10
252.4939033250009
 20
559.9983266026462
 30
0.0
 40
1.5
100
AcDbArc
 50
0.0
 51
90.0
  0
ARC
  5
3BC
330
A
100
AcDbEntity
  8
03
100
AcDbCircle
 10
252.4939033250009
 20
532.9983266026462
 30
0.0
 40
1.5
100
AcDbArc
 50
270.0
 51
0.0
  0
ARC
  5
3BD
330
A
100
AcDbEntity
  8
03
100
AcDbCircle
 10
141.4939033250009
 20
532.9983266026462
 30
0.0
 40
1.5
100
AcDbArc
 50
180.0
 51
270.0
  0
ARC
  5
3BE
330
A
100
AcDbEntity
  8
03
100
AcDbCircle
 10
141.4939033250009
 20
559.9983266026462
 30
0.0
 40
1.5
100
AcDbArc
 50
90.0
 51
180.0
  0
LINE
  5
3BF
330
A
100
AcDbEntity
  8
03
100
AcDbLine
 10
256.9939033250009
 20
561.4983266026462
 30
0.0
 11
252.4939033250009
 21
561.4983266026462
 31
0.0
  0
LINE
  5
3C0
330
A
100
AcDbEntity
  8
03
100
AcDbLine
 10
136.9939033250009
 20
561.4983266026462
 30
0.0
 11
141.4939033250009
 21
561.4983266026462
 31
0.0
  0
LINE
  5
3C1
330
A
100
AcDbEntity
  8
03
100
AcDbLine
 10
163.9939033250009
 20
532.9983266026462
 30
0.0
 11
163.9939033250009
 21
551.4983266026462
 31
0.0
  0
LINE
  5
3C2
330
A
100
AcDbEntity
  8
03
100
AcDbLine
 10
179.9939033250009
 20
532.9983266026462
 30
0.0
 11
179.9939033250009
 21
551.4983266026462
 31
0.0
  0
LINE
  5
3C3
330
A
100
AcDbEntity
  8
03
100
AcDbLine
 10
163.9939033250009
 20
551.4983266026462
 30
0.0
 11
179.9939033250009
 21
551.4983266026462
 31
0.0
  0
LINE
  5
3C4
330
A
100
AcDbEntity
  8
03
100
AcDbLine
 10
252.4939033250009
 20
531.4983266026461
 30
0.0
 11
181.4939033250009
 21
531.4983266026461
 31
0.0
  0
LINE
  5
3C5
330
A
100
AcDbEntity
  8
03
100
AcDbLine
 10
162.4939033250009
 20
531.4983266026461
 30
0.0
 11
141.4939033250009
 21
531.4983266026461
 31
0.0
  0
LINE
  5
3C6
330
A
100
AcDbEntity
  8
03
100
AcDbLine
 10
252.4939033250009
 20
532.9983266026462
 30
0.0
 11
181.4939033250009
 21
532.9983266026462
 31
0.0
  0
LINE
  5
3C7
330
A
100
AcDbEntity
  8
03
100
AcDbLine
 10
162.4939033250009
 20
532.9983266026462
 30
0.0
 11
141.4939033250009
 21
532.9983266026462
 31
0.0
  0
LINE
  5
3C8
330
A
100
AcDbEntity
  8
03
100
AcDbLine
 10
162.4939033250009
 20
532.9983266026462
 30
0.0
 11
162.4939033250009
 21
551.4983266026462
 31
0.0
  0
LINE
  5
3C9
330
A
100
AcDbEntity
  8
03
100
AcDbLine
 10
181.4939033250009
 20
532.9983266026462
 30
0.0
 11
181.4939033250009
 21
551.4983266026462
 31
0.0
  0
LINE
  5
3CA
330
A
100
AcDbEntity
  8
03
100
AcDbLine
 10
163.9939033250009
 20
552.998326602646
 30
0.0
 11
179.9939033250009
 21
552.998326602646
 31
0.0
  0
ARC
  5
3CB
330
A
100
AcDbEntity
  8
03
100
AcDbCircle
 10
179.9939033250009
 20
551.4983266026462
 30
0.0
 40
1.5
100
AcDbArc
 50
0.0
 51
90.0
  0
ARC
  5
3CC
330
A
100
AcDbEntity
  8
03
100
AcDbCircle
 10
163.9939033250009
 20
551.4983266026462
 30
0.0
 40
1.5
100
AcDbArc
 50
90.0
 51
180.0
  0
ARC
  5
3CD
330
A
100
AcDbEntity
  8
03
100
AcDbCircle
 10
162.4939033250009
 20
532.9983266026462
 30
0.0
 40
1.5
100
AcDbArc
 50
270.0
 51
0.0
  0
ARC
  5
3CE
330
A
100
AcDbEntity
  8
03
100
AcDbCircle
 10
181.4939033250009
 20
532.9983266026462
 30
0.0
 40
1.5
100
AcDbArc
 50
180.0
 51
270.0
  0
LINE
  5
3CF
330
A
100
AcDbEntity
  8
03
100
AcDbLine
 10
168.9939033250009
 20
539.4983266026462
 30
0.0
 11
174.9939033250009
 21
539.4983266026462
 31
0.0
  0
LINE
  5
3D0
330
A
100
AcDbEntity
  8
04
100
AcDbLine
 10
212.9939033250009
 20
241.498326602647
 30
0.0
 11
236.9939033250009
 21
241.498326602647
 31
0.0
  0
LINE
  5
3D1
330
A
100
AcDbEntity
  8
03
100
AcDbLine
 10
179.5939033250009
 20
231.4983266026469
 30
0.0
 11
198.3939033250009
 21
231.4983266026469
 31
0.0
  0
LINE
  5
3D2
330
A
100
AcDbEntity
  8
04
100
AcDbLine
 10
212.9939033250009
 20
245.498326602647
 30
0.0
 11
236.9939033250009
 21
245.498326602647
 31
0.0
  0
LINE
  5
3D3
330
A
100
AcDbEntity
  8
03
100
AcDbLine
 10
256.9939033250009
 20
167.5816440611519
 30
0.0
 11
256.9939033250009
 21
231.4983266026469
 31
0.0
  0
LINE
  5
3D4
330
A
100
AcDbEntity
  8
02
100
AcDbLine
 10
165.9939033250009
 20
304.4983266026468
 30
0.0
 11
165.9939033250009
 21
310.4983266026468
 31
0.0
  0
LINE
  5
3D5
330
A
100
AcDbEntity
  8
02
100
AcDbLine
 10
165.9939033250009
 20
310.498326602647
 30
0.0
 11
191.9939033250009
 21
310.4983266026468
 31
0.0
  0
LINE
  5
3D6
330
A
100
AcDbEntity
  8
02
100
AcDbLine
 10
165.9939033250009
 20
249.498326602647
 30
0.0
 11
191.9939033250009
 21
249.498326602647
 31
0.0
  0
LINE
  5
3D7
330
A
100
AcDbEntity
  8
02
100
AcDbLine
 10
165.9939033250009
 20
261.498326602647
 30
0.0
 11
165.9939033250009
 21
255.498326602647
 31
0.0
  0
LINE
  5
3D8
330
A
100
AcDbEntity
  8
03
100
AcDbLine
 10
256.9939033250009
 20
78.2013143003623
 30
0.0
 11
256.9939033250009
 21
124.0138642981978
 31
0.0
  0
LINE
  5
3D9
330
A
100
AcDbEntity
  8
03
100
AcDbLine
 10
256.9939033250009
 20
129.0138642981979
 30
0.0
 11
256.9939033250009
 21
162.5816440611519
 31
0.0
  0
LINE
  5
3DA
330
A
100
AcDbEntity
  8
06
100
AcDbLine
 10
263.9939033250009
 20
446.498326602647
 30
0.0
 11
281.9939033250008
 21
446.498326602647
 31
0.0
  0
LINE
  5
3DB
330
A
100
AcDbEntity
  8
06
100
AcDbLine
 10
267.9939033250009
 20
435.498326602647
 30
0.0
 11
277.9939033250009
 21
435.498326602647
 31
0.0
  0
LINE
  5
3DC
330
A
100
AcDbEntity
  8
06
100
AcDbLine
 10
281.9939033250008
 20
446.498326602647
 30
0.0
 11
277.9939033250009
 21
435.498326602647
 31
0.0
  0
LINE
  5
3DD
330
A
100
AcDbEntity
  8
06
100
AcDbLine
 10
263.9939033250009
 20
446.498326602647
 30
0.0
 11
267.9939033250009
 21
435.498326602647
 31
0.0
  0
LINE
  5
3DE
330
A
100
AcDbEntity
  8
06
100
AcDbLine
 10
263.9939033250009
 20
356.4983266026468
 30
0.0
 11
281.9939033250008
 21
356.4983266026468
 31
0.0
  0
LINE
  5
3DF
330
A
100
AcDbEntity
  8
06
100
AcDbLine
 10
267.9939033250009
 20
367.498326602647
 30
0.0
 11
277.9939033250009
 21
367.498326602647
 31
0.0
  0
LINE
  5
3E0
330
A
100
AcDbEntity
  8
06
100
AcDbLine
 10
281.9939033250008
 20
356.4983266026468
 30
0.0
 11
277.9939033250009
 21
367.498326602647
 31
0.0
  0
LINE
  5
3E1
330
A
100
AcDbEntity
  8
06
100
AcDbLine
 10
263.9939033250009
 20
356.4983266026468
 30
0.0
 11
267.9939033250009
 21
367.498326602647
 31
0.0
  0
LINE
  5
3E2
330
A
100
AcDbEntity
  8
KAKURE
100
AcDbLine
 10
165.9939033250009
 20
399.3983266026468
 30
0.0
 11
159.9939033250009
 21
399.3983266026468
 31
0.0
  0
LINE
  5
3E3
330
A
100
AcDbEntity
  8
KAKURE
100
AcDbLine
 10
165.9939033250009
 20
403.598326602647
 30
0.0
 11
159.9939033250009
 21
403.598326602647
 31
0.0
  0
LINE
  5
3E5
330
A
100
AcDbEntity
  8
KAKURE
100
AcDbLine
 10
165.9939033250009
 20
444.398326602647
 30
0.0
 11
159.9939033250008
 21
444.398326602647
 31
0.0
  0
LINE
  5
3E6
330
A
100
AcDbEntity
  8
KAKURE
100
AcDbLine
 10
165.9939033250009
 20
448.598326602647
 30
0.0
 11
159.9939033250008
 21
448.598326602647
 31
0.0
  0
LINE
  5
3E8
330
A
100
AcDbEntity
  8
KAKURE
100
AcDbLine
 10
165.9939033250009
 20
354.398326602647
 30
0.0
 11
159.9939033250009
 21
354.398326602647
 31
0.0
  0
LINE
  5
3E9
330
A
100
AcDbEntity
  8
KAKURE
100
AcDbLine
 10
165.9939033250009
 20
358.598326602647
 30
0.0
 11
159.9939033250009
 21
358.598326602647
 31
0.0
  0
LINE
  5
3EB
330
A
100
AcDbEntity
  8
CHUSIN
100
AcDbLine
 10
272.9939033250009
 20
345.498326602647
 30
0.0
 11
272.9939033250009
 21
454.675907180706
 31
0.0
  0
LINE
  5
3EC
330
A
100
AcDbEntity
  8
CHUSIN
100
AcDbLine
 10
152.4275510015321
 20
401.4983266026471
 30
0.0
 11
303.6317766607908
 21
401.4983266026471
 31
0.0
  0
LINE
  5
3ED
330
A
100
AcDbEntity
  8
KAKURE
100
AcDbLine
 10
165.9939033250009
 20
398.998326602647
 30
0.0
 11
159.9939033250009
 21
398.998326602647
 31
0.0
  0
LINE
  5
3EE
330
A
100
AcDbEntity
  8
KAKURE
100
AcDbLine
 10
165.9939033250009
 20
403.998326602647
 30
0.0
 11
159.9939033250009
 21
403.998326602647
 31
0.0
  0
LINE
  5
3EF
330
A
100
AcDbEntity
  8
KAKURE
100
AcDbLine
 10
165.9939033250009
 20
443.9983266026468
 30
0.0
 11
159.9939033250008
 21
443.9983266026468
 31
0.0
  0
LINE
  5
3F0
330
A
100
AcDbEntity
  8
KAKURE
100
AcDbLine
 10
165.9939033250009
 20
448.9983266026468
 30
0.0
 11
159.9939033250008
 21
448.9983266026468
 31
0.0
  0
LINE
  5
3F1
330
A
100
AcDbEntity
  8
KAKURE
100
AcDbLine
 10
165.9939033250009
 20
353.998326602647
 30
0.0
 11
159.9939033250009
 21
353.998326602647
 31
0.0
  0
LINE
  5
3F2
330
A
100
AcDbEntity
  8
KAKURE
100
AcDbLine
 10
165.9939033250009
 20
358.998326602647
 30
0.0
 11
159.9939033250009
 21
358.998326602647
 31
0.0
  0
LINE
  5
3F3
330
A
100
AcDbEntity
  8
CHUSIN
 48
0.3
100
AcDbLine
 10
155.9939033250009
 20
356.4983266026468
 30
0.0
 11
175.9939033250009
 21
356.4983266026468
 31
0.0
  0
LINE
  5
3F4
330
A
100
AcDbEntity
  8
CHUSIN
 48
0.3
100
AcDbLine
 10
175.9939033250009
 20
446.498326602647
 30
0.0
 11
155.9939033250009
 21
446.498326602647
 31
0.0
  0
LINE
  5
3F5
330
A
100
AcDbEntity
  8
03
100
AcDbLine
 10
204.9939033250009
 20
241.498326602647
 30
0.0
 11
244.9939033250009
 21
241.498326602647
 31
0.0
  0
LINE
  5
3F6
330
A
100
AcDbEntity
  8
03
100
AcDbLine
 10
204.9939033250009
 20
88.2013143003623
 30
0.0
 11
244.9939033250008
 21
88.2013143003623
 31
0.0
  0
LINE
  5
3F7
330
A
100
AcDbEntity
  8
03
100
AcDbLine
 10
204.9939033250009
 20
88.2013143003623
 30
0.0
 11
204.9939033250009
 21
124.0138642981978
 31
0.0
  0
LINE
  5
3F8
330
A
100
AcDbEntity
  8
03
100
AcDbLine
 10
204.9939033250009
 20
129.0138642981979
 30
0.0
 11
204.9939033250009
 21
162.5816440611519
 31
0.0
  0
LINE
  5
3F9
330
A
100
AcDbEntity
  8
03
100
AcDbLine
 10
244.9939033250008
 20
88.2013143003623
 30
0.0
 11
244.9939033250009
 21
124.0138642981978
 31
0.0
  0
LINE
  5
3FA
330
A
100
AcDbEntity
  8
03
100
AcDbLine
 10
244.9939033250009
 20
129.0138642981979
 30
0.0
 11
244.9939033250009
 21
162.5816440611519
 31
0.0
  0
LINE
  5
3FB
330
A
100
AcDbEntity
  8
03
100
AcDbLine
 10
130.1822385373893
 20
129.0138642981979
 30
0.0
 11
276.9939033250009
 21
129.0138642981979
 31
0.0
  0
LINE
  5
3FC
330
A
100
AcDbEntity
  8
03
100
AcDbLine
 10
130.1822385373893
 20
124.0138642981978
 30
0.0
 11
276.9939033250009
 21
124.0138642981978
 31
0.0
  0
LINE
  5
501
330
A
100
AcDbEntity
  8
CHUSIN
100
AcDbLine
 10
183.0463671006301
 20
291.4983266026468
 30
0.0
 11
215.2530080192645
 21
291.4983266026468
 31
0.0
  0
LINE
  5
502
330
A
100
AcDbEntity
  8
CHUSIN
100
AcDbLine
 10
210.4939033250009
 20
306.4983266026468
 30
0.0
 11
250.9939033250009
 21
306.4983266026468
 31
0.0
  0
LINE
  5
525
330
A
100
AcDbEntity
  8
04
100
AcDbLine
 10
197.9939033250009
 20
267.498326602647
 30
0.0
 11
228.9939033250009
 21
267.498326602647
 31
0.0
  0
LINE
  5
526
330
A
100
AcDbEntity
  8
04
100
AcDbLine
 10
197.9939033250009
 20
301.498326602647
 30
0.0
 11
202.9939033250009
 21
301.498326602647
 31
0.0
  0
LINE
  5
527
330
A
100
AcDbEntity
  8
04
100
AcDbLine
 10
203.9939033250009
 20
300.498326602647
 30
0.0
 11
203.9939033250009
 21
279.4983266026469
 31
0.0
  0
LINE
  5
528
330
A
100
AcDbEntity
  8
04
100
AcDbLine
 10
209.9939033250009
 20
273.498326602647
 30
0.0
 11
216.9939033250009
 21
273.498326602647
 31
0.0
  0
LINE
  5
529
330
A
100
AcDbEntity
  8
04
100
AcDbLine
 10
220.9939033250009
 20
281.4983266026468
 30
0.0
 11
228.9939033250009
 21
281.4983266026468
 31
0.0
  0
LINE
  5
52A
330
A
100
AcDbEntity
  8
04
100
AcDbLine
 10
219.9939033250009
 20
280.498326602647
 30
0.0
 11
219.9939033250009
 21
276.498326602647
 31
0.0
  0
LINE
  5
52B
330
A
100
AcDbEntity
  8
04
100
AcDbLine
 10
228.9939033250009
 20
276.498326602647
 30
0.0
 11
226.9939033250009
 21
276.498326602647
 31
0.0
  0
LINE
  5
52C
330
A
100
AcDbEntity
  8
04
100
AcDbLine
 10
226.9939033250009
 20
271.498326602647
 30
0.0
 11
229.9939033250009
 21
271.498326602647
 31
0.0
  0
LINE
  5
52D
330
A
100
AcDbEntity
  8
04
100
AcDbLine
 10
225.9939033250009
 20
275.498326602647
 30
0.0
 11
225.9939033250009
 21
272.498326602647
 31
0.0
  0
LINE
  5
52E
330
A
100
AcDbEntity
  8
04
100
AcDbLine
 10
229.9939033250009
 20
280.498326602647
 30
0.0
 11
229.9939033250009
 21
277.498326602647
 31
0.0
  0
LINE
  5
52F
330
A
100
AcDbEntity
  8
04
100
AcDbLine
 10
229.9939033250009
 20
271.498326602647
 30
0.0
 11
229.9939033250009
 21
268.498326602647
 31
0.0
  0
ARC
  5
530
330
A
100
AcDbEntity
  8
04
100
AcDbCircle
 10
220.9939033250009
 20
280.498326602647
 30
0.0
 40
1.0
100
AcDbArc
 50
90.0
 51
180.0
  0
ARC
  5
531
330
A
100
AcDbEntity
  8
04
100
AcDbCircle
 10
228.9939033250009
 20
280.498326602647
 30
0.0
 40
1.0
100
AcDbArc
 50
0.0
 51
90.0
  0
ARC
  5
532
330
A
100
AcDbEntity
  8
04
100
AcDbCircle
 10
228.9939033250009
 20
268.498326602647
 30
0.0
 40
1.0
100
AcDbArc
 50
270.0
 51
0.0
  0
ARC
  5
533
330
A
100
AcDbEntity
  8
04
100
AcDbCircle
 10
226.9939033250009
 20
272.498326602647
 30
0.0
 40
1.0
100
AcDbArc
 50
180.0
 51
270.0
  0
ARC
  5
534
330
A
100
AcDbEntity
  8
04
100
AcDbCircle
 10
226.9939033250009
 20
275.498326602647
 30
0.0
 40
1.0
100
AcDbArc
 50
90.0
 51
180.0
  0
ARC
  5
535
330
A
100
AcDbEntity
  8
04
100
AcDbCircle
 10
228.9939033250009
 20
277.498326602647
 30
0.0
 40
1.0
100
AcDbArc
 50
270.0
 51
0.0
  0
ARC
  5
536
330
A
100
AcDbEntity
  8
04
100
AcDbCircle
 10
202.9939033250009
 20
300.498326602647
 30
0.0
 40
1.0
100
AcDbArc
 50
0.0
 51
90.0
  0
ARC
  5
537
330
A
100
AcDbEntity
  8
04
100
AcDbCircle
 10
209.9939033250009
 20
279.4983266026469
 30
0.0
 40
6.0
100
AcDbArc
 50
180.0
 51
270.0
  0
ARC
  5
538
330
A
100
AcDbEntity
  8
04
100
AcDbCircle
 10
216.9939033250009
 20
276.498326602647
 30
0.0
 40
3.0
100
AcDbArc
 50
270.0
 51
0.0
  0
LINE
  5
539
330
A
100
AcDbEntity
  8
04
100
AcDbLine
 10
205.5939132834054
 20
300.4983341703551
 30
0.0
 11
203.9953052664364
 21
300.4983282825926
 31
0.0
  0
LINE
  5
53A
330
A
100
AcDbEntity
  8
04
100
AcDbLine
 10
203.9953503589666
 20
282.4983337498076
 30
0.0
 11
205.5938343982877
 21
282.4983202572024
 31
0.0
  0
LINE
  5
53D
330
A
100
AcDbEntity
  8
04
100
AcDbLine
 10
207.193854742466
 20
299.0038793262643
 30
0.0
 11
211.9988534145313
 21
299.0038827098305
 31
0.0
  0
LINE
  5
53E
330
A
100
AcDbEntity
  8
04
100
AcDbLine
 10
207.1938412631271
 20
283.9926914962073
 30
0.0
 11
211.998900214042
 21
283.9928255742297
 31
0.0
  0
LINE
  5
53F
330
A
100
AcDbEntity
  8
04
100
AcDbLine
 10
211.998965547552
 20
299.0039385550841
 30
0.0
 11
212.6947860351308
 21
297.7983503517954
 31
0.0
  0
LINE
  5
540
330
A
100
AcDbEntity
  8
04
100
AcDbLine
 10
211.9988326659695
 20
283.9927780115083
 30
0.0
 11
212.6948604848024
 21
285.1983420296081
 31
0.0
  0
LINE
  5
541
330
A
100
AcDbEntity
  8
04
100
AcDbLine
 10
212.6948910024129
 20
285.1983307825037
 30
0.0
 11
212.6949215195288
 21
297.7983371403997
 31
0.0
  0
LINE
  5
547
330
A
100
AcDbEntity
  8
04
100
AcDbLine
 10
207.1937994515233
 20
299.1983321488861
 30
0.0
 11
205.5938700103893
 21
299.1983348190629
 31
0.0
  0
LINE
  5
548
330
A
100
AcDbEntity
  8
04
100
AcDbLine
 10
207.193937148931
 20
283.7983315778469
 30
0.0
 11
205.5938984289535
 21
283.7983343214796
 31
0.0
  0
LINE
  5
557
330
A
100
AcDbEntity
  8
04
100
AcDbLine
 10
241.4939033250009
 20
293.9983266026468
 30
0.0
 11
236.9939033250009
 21
293.9983266026468
 31
0.0
  0
LINE
  5
558
330
A
100
AcDbEntity
  8
04
100
AcDbLine
 10
228.9939033250009
 20
265.498326602647
 30
0.0
 11
236.9939033250009
 21
265.498326602647
 31
0.0
  0
LINE
  5
559
330
A
100
AcDbEntity
  8
04
100
AcDbLine
 10
228.9939033250009
 20
266.9983266026469
 30
0.0
 11
218.4939033250009
 21
266.9983266026469
 31
0.0
  0
LINE
  5
55A
330
A
100
AcDbEntity
  8
04
100
AcDbLine
 10
234.9939033250009
 20
295.5286714880441
 30
0.0
 11
241.4939033250009
 21
295.5286714880441
 31
0.0
  0
LINE
  5
55C
330
A
100
AcDbEntity
  8
04
100
AcDbLine
 10
219.9939033250009
 20
281.4983266026468
 30
0.0
 11
229.9939033250009
 21
281.4983266026468
 31
0.0
  0
LINE
  5
55D
330
A
100
AcDbEntity
  8
04
100
AcDbLine
 10
229.9939033250009
 20
281.4983266026468
 30
0.0
 11
231.3336492871564
 21
276.498326602647
 31
0.0
  0
LINE
  5
55E
330
A
100
AcDbEntity
  8
04
100
AcDbLine
 10
231.3336492871564
 20
276.498326602647
 30
0.0
 11
234.9939033250009
 21
276.498326602647
 31
0.0
  0
LINE
  5
55F
330
A
100
AcDbEntity
  8
04
100
AcDbLine
 10
219.9939033250009
 20
281.4983266026468
 30
0.0
 11
218.6541573628452
 21
276.498326602647
 31
0.0
  0
LINE
  5
560
330
A
100
AcDbEntity
  8
04
100
AcDbLine
 10
218.6541573628452
 20
276.498326602647
 30
0.0
 11
214.9939033250009
 21
276.498326602647
 31
0.0
  0
LINE
  5
561
330
A
100
AcDbEntity
  8
04
100
AcDbLine
 10
214.4939033250009
 20
298.998326602647
 30
0.0
 11
214.9939033250009
 21
298.998326602647
 31
0.0
  0
LINE
  5
562
330
A
100
AcDbEntity
  8
04
100
AcDbLine
 10
245.9939033250009
 20
337.498326602647
 30
0.0
 11
241.4939033250009
 21
337.498326602647
 31
0.0
  0
LINE
  5
563
330
A
100
AcDbEntity
  8
04
100
AcDbLine
 10
217.493903325001
 20
264.9868886943348
 30
0.0
 11
218.4939033250009
 21
264.9868886943348
 31
0.0
  0
LINE
  5
564
330
A
100
AcDbEntity
  8
04
100
AcDbLine
 10
215.9939033250009
 20
262.998326602647
 30
0.0
 11
217.493903325001
 21
262.998326602647
 31
0.0
  0
LINE
  5
565
330
A
100
AcDbEntity
  8
04
100
AcDbLine
 10
241.9939033250009
 20
264.998326602647
 30
0.0
 11
241.4939033250009
 21
264.998326602647
 31
0.0
  0
LINE
  5
566
330
A
100
AcDbEntity
  8
04
100
AcDbLine
 10
241.4939033250009
 20
317.4679817172498
 30
0.0
 11
234.9939033250009
 21
317.4679817172498
 31
0.0
  0
LINE
  5
568
330
A
100
AcDbEntity
  8
04
100
AcDbLine
 10
234.9939033250009
 20
336.498326602647
 30
0.0
 11
234.9939033250009
 21
276.498326602647
 31
0.0
  0
LINE
  5
569
330
A
100
AcDbEntity
  8
04
100
AcDbLine
 10
219.9939033250009
 20
331.4983266026468
 30
0.0
 11
229.9939033250009
 21
331.4983266026468
 31
0.0
  0
LINE
  5
56A
330
A
100
AcDbEntity
  8
04
100
AcDbLine
 10
229.9939033250009
 20
331.4983266026468
 30
0.0
 11
231.3336492871564
 21
336.498326602647
 31
0.0
  0
LINE
  5
56B
330
A
100
AcDbEntity
  8
04
100
AcDbLine
 10
231.3336492871564
 20
336.498326602647
 30
0.0
 11
234.9939033250009
 21
336.498326602647
 31
0.0
  0
LINE
  5
56C
330
A
100
AcDbEntity
  8
04
100
AcDbLine
 10
219.9939033250009
 20
331.4983266026468
 30
0.0
 11
218.6541573628452
 21
336.498326602647
 31
0.0
  0
LINE
  5
56D
330
A
100
AcDbEntity
  8
04
100
AcDbLine
 10
218.6541573628452
 20
336.498326602647
 30
0.0
 11
214.9939033250009
 21
336.498326602647
 31
0.0
  0
LINE
  5
56E
330
A
100
AcDbEntity
  8
04
100
AcDbLine
 10
214.9939033250009
 20
336.498326602647
 30
0.0
 11
214.9939033250009
 21
276.498326602647
 31
0.0
  0
LINE
  5
573
330
A
100
AcDbEntity
  8
04
100
AcDbLine
 10
214.9939033250009
 20
313.998326602647
 30
0.0
 11
214.4939033250009
 21
313.998326602647
 31
0.0
  0
LINE
  5
574
330
A
100
AcDbEntity
  8
04
100
AcDbLine
 10
214.4939033250009
 20
313.998326602647
 30
0.0
 11
214.4939033250009
 21
298.998326602647
 31
0.0
  0
LINE
  5
575
330
A
100
AcDbEntity
  8
04
100
AcDbLine
 10
245.9939033250009
 20
314.998326602647
 30
0.0
 11
246.9939033250009
 21
314.998326602647
 31
0.0
  0
LINE
  5
576
330
A
100
AcDbEntity
  8
04
100
AcDbLine
 10
246.9939033250009
 20
314.998326602647
 30
0.0
 11
246.9939033250009
 21
297.998326602647
 31
0.0
  0
LINE
  5
577
330
A
100
AcDbEntity
  8
04
100
AcDbLine
 10
246.9939033250009
 20
297.998326602647
 30
0.0
 11
245.9939033250009
 21
297.998326602647
 31
0.0
  0
LINE
  5
578
330
A
100
AcDbEntity
  8
04
100
AcDbLine
 10
245.9939033250009
 20
292.248326602647
 30
0.0
 11
247.5939033250009
 21
292.248326602647
 31
0.0
  0
LINE
  5
57A
330
A
100
AcDbEntity
  8
04
100
AcDbLine
 10
247.5939033250009
 20
279.748326602647
 30
0.0
 11
245.9939033250009
 21
279.748326602647
 31
0.0
  0
LINE
  5
57B
330
A
100
AcDbEntity
  8
04
100
AcDbLine
 10
247.5939033250007
 20
279.8983266026469
 30
0.0
 11
249.0939033250008
 21
279.8983266026469
 31
0.0
  0
LINE
  5
57D
330
A
100
AcDbEntity
  8
04
100
AcDbLine
 10
249.0939033250008
 20
292.098326602647
 30
0.0
 11
247.5939033250007
 21
292.098326602647
 31
0.0
  0
LINE
  5
57E
330
A
100
AcDbEntity
  8
04
100
AcDbLine
 10
249.0939033250009
 20
291.771826602647
 30
0.0
 11
252.589588100001
 21
291.771826602647
 31
0.0
  0
LINE
  5
57F
330
A
100
AcDbEntity
  8
04
100
AcDbLine
 10
249.0939033250009
 20
280.224826602647
 30
0.0
 11
252.5895881000009
 21
280.224826602647
 31
0.0
  0
LINE
  5
580
330
A
100
AcDbEntity
  8
04
100
AcDbLine
 10
252.589588100001
 20
291.771826602647
 30
0.0
 11
253.0939033250009
 21
290.8983266026469
 31
0.0
  0
LINE
  5
581
330
A
100
AcDbEntity
  8
04
100
AcDbLine
 10
252.5895881000009
 20
280.224826602647
 30
0.0
 11
253.0939033250009
 21
281.098326602647
 31
0.0
  0
LINE
  5
582
330
A
100
AcDbEntity
  8
04
100
AcDbLine
 10
253.0939033250009
 20
281.098326602647
 30
0.0
 11
253.0939033250009
 21
290.8983266026469
 31
0.0
  0
LINE
  5
58B
330
A
100
AcDbEntity
  8
04
100
AcDbLine
 10
247.5939033250007
 20
269.748326602647
 30
0.0
 11
245.9939033250009
 21
269.748326602647
 31
0.0
  0
LINE
  5
58C
330
A
100
AcDbEntity
  8
04
100
AcDbLine
 10
247.5939033250007
 20
269.8983266026469
 30
0.0
 11
249.0939033250008
 21
269.8983266026469
 31
0.0
  0
LINE
  5
58E
330
A
100
AcDbEntity
  8
04
100
AcDbLine
 10
249.0939033250008
 20
270.224826602647
 30
0.0
 11
252.5895881000008
 21
270.224826602647
 31
0.0
  0
LINE
  5
58F
330
A
100
AcDbEntity
  8
04
100
AcDbLine
 10
252.5895881000008
 20
270.224826602647
 30
0.0
 11
253.0939033250009
 21
271.098326602647
 31
0.0
  0
LINE
  5
590
330
A
100
AcDbEntity
  8
04
100
AcDbLine
 10
253.0939033250009
 20
271.098326602647
 30
0.0
 11
253.0939033250009
 21
278.8983266026469
 31
0.0
  0
LINE
  5
596
330
A
100
AcDbEntity
  8
04
100
AcDbLine
 10
245.9939033250009
 20
335.4983266026471
 30
0.0
 11
245.9939033250009
 21
321.4983266026471
 31
0.0
  0
LINE
  5
597
330
A
100
AcDbEntity
  8
04
100
AcDbLine
 10
247.5020234681661
 20
334.2718266013833
 30
0.0
 11
251.4895881000009
 21
334.2718266026471
 31
0.0
  0
LINE
  5
598
330
A
100
AcDbEntity
  8
04
100
AcDbLine
 10
247.5020234308916
 20
322.7248266013833
 30
0.0
 11
251.4895881000009
 21
322.7248266026471
 31
0.0
  0
LINE
  5
599
330
A
100
AcDbEntity
  8
04
100
AcDbLine
 10
251.4895881000009
 20
334.2718266026471
 30
0.0
 11
251.9939033250009
 21
333.398326602647
 31
0.0
  0
LINE
  5
59A
330
A
100
AcDbEntity
  8
04
100
AcDbLine
 10
251.4895881000009
 20
322.7248266026471
 30
0.0
 11
251.9939033250009
 21
323.598326602647
 31
0.0
  0
LINE
  5
59B
330
A
100
AcDbEntity
  8
04
100
AcDbLine
 10
251.9939033250009
 20
323.598326602647
 30
0.0
 11
251.9939033250009
 21
333.398326602647
 31
0.0
  0
LINE
  5
5A1
330
A
100
AcDbEntity
  8
04
100
AcDbLine
 10
246.7939033250009
 20
335.4983266026471
 30
0.0
 11
245.9939033250009
 21
335.4983266026471
 31
0.0
  0
LINE
  5
5A2
330
A
100
AcDbEntity
  8
04
100
AcDbLine
 10
246.7939033250009
 20
321.4983266026471
 30
0.0
 11
245.9939033250009
 21
321.4983266026471
 31
0.0
  0
LINE
  5
5A4
330
A
100
AcDbEntity
  8
04
100
AcDbLine
 10
246.7939033250009
 20
321.4983266026471
 30
0.0
 11
247.5020234308916
 21
322.7248266013833
 31
0.0
  0
LINE
  5
5A5
330
A
100
AcDbEntity
  8
04
100
AcDbLine
 10
246.7939033250009
 20
335.4983266026471
 30
0.0
 11
247.5020234308916
 21
334.2718266013833
 31
0.0
  0
LINE
  5
5A9
330
A
100
AcDbEntity
  8
04
100
AcDbLine
 10
251.9939033250009
 20
325.4983266026471
 30
0.0
 11
252.993903325001
 21
325.4983266026471
 31
0.0
  0
LINE
  5
5AA
330
A
100
AcDbEntity
  8
04
100
AcDbLine
 10
251.9939033250009
 20
331.4983266026471
 30
0.0
 11
252.993903325001
 21
331.4983266026471
 31
0.0
  0
LINE
  5
5AB
330
A
100
AcDbEntity
  8
04
100
AcDbLine
 10
252.993903325001
 20
325.4983266026471
 30
0.0
 11
253.9939033250009
 21
326.4983266026471
 31
0.0
  0
LINE
  5
5AC
330
A
100
AcDbEntity
  8
04
100
AcDbLine
 10
252.993903325001
 20
331.4983266026471
 30
0.0
 11
253.9939033250009
 21
330.4983266026471
 31
0.0
  0
LINE
  5
5AD
330
A
100
AcDbEntity
  8
04
100
AcDbLine
 10
253.9939033250009
 20
330.4983266026471
 30
0.0
 11
253.9939033250009
 21
326.4983266026471
 31
0.0
  0
LINE
  5
5BC
330
A
100
AcDbEntity
  8
04
100
AcDbLine
 10
245.9939033250009
 20
337.498326602647
 30
0.0
 11
245.9939033250009
 21
256.4983266026469
 31
0.0
  0
LINE
  5
5BD
330
A
100
AcDbEntity
  8
04
100
AcDbLine
 10
241.9939033250009
 20
256.4983266026469
 30
0.0
 11
245.9939033250009
 21
256.4983266026469
 31
0.0
  0
LINE
  5
5BF
330
A
100
AcDbEntity
  8
04
100
AcDbLine
 10
232.4995428449938
 20
253.1968400530726
 30
0.0
 11
232.4994087669713
 21
258.0018990039874
 31
0.0
  0
LINE
  5
5C0
330
A
100
AcDbEntity
  8
04
100
AcDbLine
 10
232.4994563296927
 20
258.0018314559148
 30
0.0
 11
231.2938923115928
 21
258.6978592747478
 31
0.0
  0
LINE
  5
5C3
330
A
100
AcDbEntity
  8
04
100
AcDbLine
 10
232.6939027633541
 20
253.1969359388765
 30
0.0
 11
232.6939000197214
 21
251.5968972188988
 31
0.0
  0
LINE
  5
5C6
330
A
100
AcDbEntity
  8
04
100
AcDbLine
 10
241.4939033250009
 20
337.498326602647
 30
0.0
 11
241.4939033250009
 21
245.498326602647
 31
0.0
  0
LINE
  5
5C7
330
A
100
AcDbEntity
  8
04
100
AcDbLine
 10
236.9939033250009
 20
293.9983266026468
 30
0.0
 11
236.9939033250009
 21
249.998326602647
 31
0.0
  0
LINE
  5
5C8
330
A
100
AcDbEntity
  8
04
100
AcDbLine
 10
241.9939033250009
 20
250.998326602647
 30
0.0
 11
241.9939033250009
 21
264.998326602647
 31
0.0
  0
LINE
  5
5C9
330
A
100
AcDbEntity
  8
04
100
AcDbLine
 10
236.9939033250009
 20
250.498326602647
 30
0.0
 11
233.993904811641
 21
250.4983266028574
 31
0.0
  0
LINE
  5
5CA
330
A
100
AcDbEntity
  8
04
100
AcDbLine
 10
241.4939033250009
 20
250.998326602647
 30
0.0
 11
241.9939033250009
 21
250.998326602647
 31
0.0
  0
LINE
  5
5CB
330
A
100
AcDbEntity
  8
04
100
AcDbLine
 10
233.9939005913934
 20
249.998349148912
 30
0.0
 11
233.9939140839984
 21
251.5968331882331
 31
0.0
  0
LINE
  5
5CC
330
A
100
AcDbEntity
  8
04
100
AcDbLine
 10
241.4939033250009
 20
249.998326602647
 30
0.0
 11
213.4939033250009
 21
249.998326602647
 31
0.0
  0
LINE
  5
5CE
330
A
100
AcDbEntity
  8
04
100
AcDbLine
 10
217.2939018610787
 20
252.9983266051857
 30
0.0
 11
215.9939033250009
 21
252.998326602647
 31
0.0
  0
LINE
  5
5CF
330
A
100
AcDbEntity
  8
04
100
AcDbLine
 10
215.9939033250009
 20
252.998326602647
 30
0.0
 11
215.9939033250009
 21
262.998326602647
 31
0.0
  0
LINE
  5
5D1
330
A
100
AcDbEntity
  8
04
100
AcDbLine
 10
215.9939001708459
 20
251.5969120733508
 30
0.0
 11
215.9939060586083
 21
249.9983040563819
 31
0.0
  0
LINE
  5
5D4
330
A
100
AcDbEntity
  8
04
100
AcDbLine
 10
217.4883550149365
 20
253.1968535324114
 30
0.0
 11
217.4883516313705
 21
258.0018522044766
 31
0.0
  0
LINE
  5
5D5
330
A
100
AcDbEntity
  8
04
100
AcDbLine
 10
217.4882957861169
 20
258.0019643374975
 30
0.0
 11
218.6938839894055
 21
258.6977848250761
 31
0.0
  0
LINE
  5
5D6
330
A
100
AcDbEntity
  8
04
100
AcDbLine
 10
231.2939035586973
 20
258.6978897923585
 30
0.0
 11
218.6938972008014
 21
258.6979203094741
 31
0.0
  0
LINE
  5
5DA
330
A
100
AcDbEntity
  8
04
100
AcDbLine
 10
217.2939021923149
 20
253.1967982414689
 30
0.0
 11
217.2938995221379
 21
251.5968688003348
 31
0.0
  0
LINE
  5
5E1
330
A
100
AcDbEntity
  8
04
100
AcDbLine
 10
213.4939033250009
 20
249.998326602647
 30
0.0
 11
213.4939033250009
 21
245.498326602647
 31
0.0
  0
LINE
  5
5E2
330
A
100
AcDbEntity
  8
04
100
AcDbLine
 10
213.4939033250009
 20
245.498326602647
 30
0.0
 11
241.4939033250009
 21
245.498326602647
 31
0.0
  0
LINE
  5
5EC
330
A
100
AcDbEntity
  8
06
100
AcDbLine
 10
264.3517677012699
 20
356.4983266026468
 30
0.0
 11
264.0893338253393
 21
356.7607604785776
 31
0.0
  0
LINE
  5
5F5
330
A
100
AcDbEntity
  8
06
100
AcDbLine
 10
281.6360389487318
 20
356.4983266026468
 30
0.0
 11
281.8984728246625
 21
356.7607604785776
 31
0.0
  0
LINE
  5
5FE
330
A
100
AcDbEntity
  8
06
100
AcDbLine
 10
264.3517677012699
 20
446.498326602647
 30
0.0
 11
264.0893338253393
 21
446.2358927267163
 31
0.0
  0
LINE
  5
607
330
A
100
AcDbEntity
  8
06
100
AcDbLine
 10
281.6360389487318
 20
446.498326602647
 30
0.0
 11
281.8984728246625
 21
446.2358927267163
 31
0.0
  0
LINE
  5
60B
330
A
100
AcDbEntity
  8
SOUZOU
100
AcDbLine
 10
165.9939033250009
 20
459.998326602647
 30
0.0
 11
203.9939033250009
 21
459.998326602647
 31
0.0
  0
LINE
  5
60D
330
A
100
AcDbEntity
  8
SOUZOU
100
AcDbLine
 10
203.9939033250009
 20
342.998326602647
 30
0.0
 11
165.9939033250009
 21
342.998326602647
 31
0.0
  0
LINE
  5
60E
330
A
100
AcDbEntity
  8
02
100
AcDbLine
 10
165.9939033250009
 20
342.998326602647
 30
0.0
 11
165.9939033250009
 21
459.998326602647
 31
0.0
  0
LINE
  5
60F
330
A
100
AcDbEntity
  8
SOUZOU
100
AcDbLine
 10
203.9939033250009
 20
460.498326602647
 30
0.0
 11
299.9939033250008
 21
460.498326602647
 31
0.0
  0
LINE
  5
610
330
A
100
AcDbEntity
  8
SOUZOU
100
AcDbLine
 10
299.9939033250008
 20
460.498326602647
 30
0.0
 11
299.9939033250008
 21
342.498326602647
 31
0.0
  0
LINE
  5
611
330
A
100
AcDbEntity
  8
SOUZOU
100
AcDbLine
 10
299.9939033250008
 20
342.498326602647
 30
0.0
 11
203.9939033250009
 21
342.498326602647
 31
0.0
  0
LINE
  5
612
330
A
100
AcDbEntity
  8
SOUZOU
100
AcDbLine
 10
203.9939033250009
 20
342.498326602647
 30
0.0
 11
203.9939033250009
 21
460.498326602647
 31
0.0
  0
POLYLINE
  5
6D9
330
A
100
AcDbEntity
  8
DEFPOINTS
100
AcDb2dPolyline
 66
     1
 10
0.0
 20
0.0
 30
0.0
 70
     1
  0
VERTEX
  5
14AA
330
6D9
100
AcDbEntity
  8
DEFPOINTS
100
AcDbVertex
100
AcDb2dVertex
 10
0.0
 20
0.0
 30
0.0
  0
VERTEX
  5
14AB
330
6D9
100
AcDbEntity
  8
DEFPOINTS
100
AcDbVertex
100
AcDb2dVertex
 10
420.0
 20
0.0
 30
0.0
  0
VERTEX
  5
14AC
330
6D9
100
AcDbEntity
  8
DEFPOINTS
100
AcDbVertex
100
AcDb2dVertex
 10
420.0
 20
594.0
 30
0.0
  0
VERTEX
  5
14AD
330
6D9
100
AcDbEntity
  8
DEFPOINTS
100
AcDbVertex
100
AcDb2dVertex
 10
0.0
 20
594.0
 30
0.0
  0
SEQEND
  5
14AE
330
6D9
100
AcDbEntity
  8
DEFPOINTS
  0
LEADER
  5
6DE
330
A
100
AcDbEntity
  8
HIKIDASI
100
AcDbLeader
  3
SUNPOU_2
 73
     0
 75
     1
 40
5.0
 41
33.2
 76
     3
 10
196.030531496407
 20
267.8116677850816
 30
0.0
 10
78.76710715499418
 20
313.5081448946428
 30
0.0
 10
73.76710715499418
 20
313.5081448946428
 30
0.0
340
6DF
213
-2.477723732250979
223
0.0
233
0.0
1001
ACAD
1000
DSTYLE
1002
{
1070
     5
1000
OPEN30
1070
    77
1070
     1
1070
   147
1040
1.0
1070
   342
1005
6BD
1002
}
1000
LEANOF
1010
-2.477723732250979
1020
0.0
1030
0.0
1000
LEANOF
1010
-2.477723732250979
1020
0.0
1030
0.0
  0
MTEXT
  5
6DF
330
A
100
AcDbEntity
  8
HIKIDASI
100
AcDbMText
 10
41.04483088724514
 20
315.5081448946428
 30
0.0
 40
5.0
 41
0.0
 71
     7
 72
     1
  1
R FB-50×6
  7
SUNPOU
1001
ACAD
1000
MTEXTBEGIN
1070
    73
1070
     1
1070
    44
1040
1.0
1070
    74
1070
     0
1000
MTEXTEND
1000
MTEXTBEGIN
1070
    73
1070
     1
1070
    44
1040
1.0
1070
    74
1070
     0
1000
MTEXTEND
  0
LEADER
  5
6E0
330
A
100
AcDbEntity
  8
HIKIDASI
100
AcDbLeader
  3
SUNPOU_2
 73
     0
 75
     1
 40
5.0
 41
33.2
 76
     3
 10
161.5311211159971
 20
421.6789283536113
 30
0.0
 10
77.91497132767358
 20
458.8220298650051
 30
0.0
 10
72.91497132767358
 20
458.8220298650051
 30
0.0
340
6E1
213
-2.913178505788437
223
0.0
233
0.0
1001
ACAD
1000
DSTYLE
1002
{
1070
     5
1000
OPEN30
1070
    77
1070
     1
1070
   147
1040
1.0
1070
   342
1005
6BD
1002
}
1000
LEANOF
1010
-2.913178505788437
1020
0.0
1030
0.0
1000
LEANOF
1010
-2.913178505788437
1020
0.0
1030
0.0
  0
MTEXT
  5
6E1
330
A
100
AcDbEntity
  8
HIKIDASI
100
AcDbMText
 10
40.62814983346203
 20
460.8220298650051
 30
0.0
 40
5.0
 41
0.0
 71
     7
 72
     1
  1
E FB-50×6
  7
SUNPOU
1001
ACAD
1000
MTEXTBEGIN
1070
    73
1070
     1
1070
    44
1040
1.0
1070
    74
1070
     0
1000
MTEXTEND
1000
MTEXTBEGIN
1070
    73
1070
     1
1070
    44
1040
1.0
1070
    74
1070
     0
1000
MTEXTEND
  0
LEADER
  5
6E5
330
A
100
AcDbEntity
  8
HIKIDASI
100
AcDbLeader
  3
SUNPOU_2
 73
     0
 74
     0
 75
     1
 40
5.0
 41
13.06666666666666
 76
     3
 10
224.9939033250009
 20
115.4603217520616
 30
0.0
 10
262.095430971344
 20
98.43605561502158
 30
0.0
 10
267.095430971344
 20
98.43605561502158
 30
0.0
340
6E6
1001
ACAD
1000
DSTYLE
1002
{
1070
     5
1000
OPEN30
1070
    77
1070
     1
1070
   147
1040
1.0
1070
   342
1005
6BD
1002
}
1000
LEANOF
1010
0.0
1020
0.0
1030
0.0
1000
LEANOF
1010
0.0
1020
0.0
1030
0.0
  0
MTEXT
  5
6E6
330
A
100
AcDbEntity
  8
HIKIDASI
100
AcDbMText
 10
269.0954309713439
 20
100.4360556150215
 30
0.0
 40
5.0
 41
0.0
 71
     7
 72
     1
  1
框ドア
  7
SUNPOU
1001
ACAD
1000
MTEXTBEGIN
1070
    73
1070
     1
1070
    44
1040
1.0
1070
    74
1070
     0
1000
MTEXTEND
1000
MTEXTBEGIN
1070
    73
1070
     1
1070
    44
1040
1.0
1070
    74
1070
     0
1000
MTEXTEND
  0
DIMENSION
  5
6E7
330
A
100
AcDbEntity
  8
SUNPOU
100
AcDbDimension
  2
*D1
 10
94.21878610078062
 20
483.498326602647
 30
0.0
 11
89.71878610078055
 21
492.4983266026465
 31
0.0
 70
    32
  3
SUNPOU_2
100
AcDbAlignedDimension
 13
146.5939033250009
 23
501.4983266026461
 33
0.0
 14
141.5939033250009
 24
483.498326602647
 34
0.0
 50
90.0
100
AcDbRotatedDimension
  0
DIMENSION
  5
6F4
330
A
100
AcDbEntity
  8
SUNPOU
100
AcDbDimension
  2
*D2
 10
94.21878610078051
 20
231.4983266026469
 30
0.0
 11
89.71878610078048
 21
357.498326602647
 31
0.0
 70
    32
  3
SUNPOU_2
100
AcDbAlignedDimension
 13
141.5939033250009
 23
483.498326602647
 33
0.0
 14
141.5939033250009
 24
231.4983266026469
 34
0.0
 50
90.0
100
AcDbRotatedDimension
  0
DIMENSION
  5
701
330
A
100
AcDbEntity
  8
SUNPOU
100
AcDbDimension
  2
*D3
 10
109.7520462600044
 20
231.4983266026469
 30
0.0
 11
105.2520462600045
 21
316.498326602647
 31
0.0
 70
    32
  3
SUNPOU_2
100
AcDbAlignedDimension
 13
152.4275510015321
 23
401.4983266026471
 33
0.0
 14
141.5939033250009
 24
231.4983266026469
 34
0.0
 50
90.0
100
AcDbRotatedDimension
  0
DIMENSION
  5
70E
330
A
100
AcDbEntity
  8
SUNPOU
100
AcDbDimension
  2
*D4
 10
121.2824527369245
 20
231.4983266026469
 30
0.0
 11
116.7824527369246
 21
261.498326602647
 31
0.0
 70
    32
  3
SUNPOU_2
100
AcDbAlignedDimension
 13
181.0463671006301
 23
291.4983266026468
 33
0.0
 14
141.5939033250009
 24
231.4983266026469
 34
0.0
 50
90.0
100
AcDbRotatedDimension
  0
DIMENSION
  5
71B
330
A
100
AcDbEntity
  8
SUNPOU
100
AcDbDimension
  2
*D5
 10
123.1258487082643
 20
356.4983266026469
 30
0.0
 11
118.2358270343746
 21
383.8644748686554
 31
0.0
 70
   160
  3
SUNPOU_2
100
AcDbAlignedDimension
 13
152.4275510015321
 23
401.4983266026471
 33
0.0
 14
155.9939033250009
 24
356.4983266026468
 34
0.0
 50
90.0
100
AcDbRotatedDimension
  0
DIMENSION
  5
728
330
A
100
AcDbEntity
  8
SUNPOU
100
AcDbDimension
  2
*D6
 10
299.9939033250008
 20
383.2010274435582
 30
0.0
 11
232.9939033250009
 21
387.7010274435582
 31
0.0
 70
    32
  3
SUNPOU_2
100
AcDbAlignedDimension
 13
165.9939033250009
 23
383.2010274435582
 33
0.0
 14
299.9939033250008
 24
383.2010274435582
 34
0.0
100
AcDbRotatedDimension
  0
DIMENSION
  5
735
330
A
100
AcDbEntity
  8
SUNPOU
100
AcDbDimension
  2
*D7
 10
165.9939033250009
 20
321.3297255429998
 30
0.0
 11
152.9939033250009
 21
325.8297255429998
 31
0.0
 70
    32
  3
SUNPOU_2
100
AcDbAlignedDimension
 13
139.9939033250009
 23
321.3297255429998
 33
0.0
 14
165.9939033250009
 24
321.5976747329997
 34
0.0
100
AcDbRotatedDimension
  0
DIMENSION
  5
74F
330
A
100
AcDbEntity
  8
SUNPOU
100
AcDbDimension
  2
*D8
 10
224.9939033250009
 20
321.5976747329997
 30
0.0
 11
208.0459096772424
 21
326.0976747329998
 31
0.0
 70
   160
  3
SUNPOU_2
100
AcDbAlignedDimension
 13
197.9939033250009
 23
321.5976747329997
 33
0.0
 14
224.9939033250009
 24
321.5976747329997
 34
0.0
100
AcDbRotatedDimension
  0
DIMENSION
  5
75C
330
A
100
AcDbEntity
  8
SUNPOU
100
AcDbDimension
  2
*D9
 10
266.8438154515387
 20
276.498326602647
 30
0.0
 11
262.3438154515385
 21
306.4983266026471
 31
0.0
 70
    32
  1
φ60
  3
SUNPOU_2
100
AcDbAlignedDimension
 13
234.9939033250009
 23
336.498326602647
 33
0.0
 14
234.9939033250009
 24
276.498326602647
 34
0.0
 50
90.0
100
AcDbRotatedDimension
  0
DIMENSION
  5
7FD
330
A
100
AcDbEntity
  8
SUNPOU
100
AcDbDimension
  2
*D10
 10
280.3882253474424
 20
245.498326602647
 30
0.0
 11
275.8882253474424
 21
291.4983266026468
 31
0.0
 70
    32
  3
SUNPOU_2
100
AcDbAlignedDimension
 13
245.9939033250009
 23
337.4983266026468
 33
0.0
 14
239.4939033250009
 24
245.498326602647
 34
0.0
 50
90.0
100
AcDbRotatedDimension
  0
DIMENSION
  5
80A
330
A
100
AcDbEntity
  8
SUNPOU
100
AcDbDimension
  2
*D11
 10
275.819886831828
 20
231.4983266026469
 30
0.0
 11
271.319886831828
 21
236.498326602647
 31
0.0
 70
    32
  3
SUNPOU_2
100
AcDbAlignedDimension
 13
242.9939033250009
 23
241.498326602647
 33
0.0
 14
275.819886831828
 24
231.4983266026469
 34
0.0
 50
90.0
100
AcDbRotatedDimension
  0
DIMENSION
  5
82F
330
A
100
AcDbEntity
  8
SUNPOU
100
AcDbDimension
  2
*D12
 10
345.0694745025053
 20
231.4983266026469
 30
0.0
 11
340.5694745025053
 21
366.498326602647
 31
0.0
 70
    32
  3
SUNPOU_2
100
AcDbAlignedDimension
 13
305.3939033250008
 23
501.4983266026468
 33
0.0
 14
305.3939033250008
 24
231.4983266026469
 34
0.0
 50
90.0
100
AcDbRotatedDimension
  0
DIMENSION
  5
845
330
A
100
AcDbEntity
  8
SUNPOU
100
AcDbDimension
  2
*D13
 10
345.0694745025053
 20
78.2013143003623
 30
0.0
 11
340.4672571744289
 21
144.9722165144641
 31
0.0
 70
   160
  1
H
  3
SUNPOU_2
100
AcDbAlignedDimension
 13
305.3939033250008
 23
231.4983266026469
 33
0.0
 14
345.0694745025053
 24
78.2013143003623
 34
0.0
 50
90.0
100
AcDbRotatedDimension
  0
DIMENSION
  5
852
330
A
100
AcDbEntity
  8
SUNPOU
100
AcDbDimension
  2
*D14
 10
326.2786133425756
 20
88.20131430036228
 30
0.0
 11
320.7836121030653
 21
154.4591008143644
 31
0.0
 70
   160
  1
DH
  3
SUNPOU_2
100
AcDbAlignedDimension
 13
242.9939033250009
 23
241.498326602647
 33
0.0
 14
244.9939033250008
 24
88.2013143003623
 34
0.0
 50
90.0
100
AcDbRotatedDimension
  0
DIMENSION
  5
85F
330
A
100
AcDbEntity
  8
SUNPOU
100
AcDbDimension
  2
*D15
 10
161.9939033250008
 20
205.3024882223509
 30
0.0
 11
150.9939033250009
 21
209.8024882223509
 31
0.0
 70
    32
  3
SUNPOU_2
100
AcDbAlignedDimension
 13
139.9939033250009
 23
205.3024882223509
 33
0.0
 14
161.9939033250008
 24
233.0983266026469
 34
0.0
100
AcDbRotatedDimension
  0
DIMENSION
  5
86C
330
A
100
AcDbEntity
  8
SUNPOU
100
AcDbDimension
  2
*D16
 10
177.9939033250009
 20
205.5704374123509
 30
0.0
 11
169.9939033250009
 21
210.0704374123508
 31
0.0
 70
    32
  3
SUNPOU_2
100
AcDbAlignedDimension
 13
161.9939033250008
 23
233.0983266026469
 33
0.0
 14
177.9939033250009
 24
233.0983266026469
 34
0.0
100
AcDbRotatedDimension
  0
DIMENSION
  5
879
330
A
100
AcDbEntity
  8
SUNPOU
100
AcDbDimension
  2
*D17
 10
199.9939033250009
 20
205.5704374123509
 30
0.0
 11
188.9939033250009
 21
210.0704374123508
 31
0.0
 70
    32
  3
SUNPOU_2
100
AcDbAlignedDimension
 13
177.9939033250009
 23
233.0983266026469
 33
0.0
 14
199.9939033250009
 24
205.5704374123509
 34
0.0
100
AcDbRotatedDimension
  0
DIMENSION
  5
886
330
A
100
AcDbEntity
  8
SUNPOU
100
AcDbDimension
  2
*D18
 10
204.9939033250009
 20
205.5704374123509
 30
0.0
 11
202.43939177562
 21
210.3589421842684
 31
0.0
 70
   160
  3
SUNPOU_2
100
AcDbAlignedDimension
 13
199.9939033250009
 23
205.5704374123509
 33
0.0
 14
204.9939033250009
 24
205.5704374123509
 34
0.0
100
AcDbRotatedDimension
  0
DIMENSION
  5
895
330
A
100
AcDbEntity
  8
SUNPOU
100
AcDbDimension
  2
*D19
 10
244.9939033250009
 20
205.5704374123509
 30
0.0
 11
222.9939033250009
 21
210.6631462938143
 31
0.0
 70
   160
  3
SUNPOU_2
100
AcDbAlignedDimension
 13
204.9939033250009
 23
205.5704374123509
 33
0.0
 14
244.9939033250009
 24
205.5704374123509
 34
0.0
100
AcDbRotatedDimension
  0
DIMENSION
  5
8A2
330
A
100
AcDbEntity
  8
SUNPOU
100
AcDbDimension
  2
*D20
 10
249.9939033250007
 20
205.5704374123509
 30
0.0
 11
247.4669212932413
 21
210.1354606372586
 31
0.0
 70
   160
  3
SUNPOU_2
100
AcDbAlignedDimension
 13
244.9939033250009
 23
205.5704374123509
 33
0.0
 14
249.9939033250007
 24
233.0983266026469
 34
0.0
100
AcDbRotatedDimension
  0
DIMENSION
  5
8B1
330
A
100
AcDbEntity
  8
SUNPOU
100
AcDbDimension
  2
*D21
 10
306.9939033250008
 20
205.5704374123509
 30
0.0
 11
278.4939033250009
 21
210.0704374123508
 31
0.0
 70
    32
  3
SUNPOU_2
100
AcDbAlignedDimension
 13
249.9939033250007
 23
233.0983266026469
 33
0.0
 14
306.9939033250008
 24
233.0983266026469
 34
0.0
100
AcDbRotatedDimension
  0
DIMENSION
  5
8DA
330
A
100
AcDbEntity
  8
SUNPOU
100
AcDbDimension
  2
*D22
 10
139.9939033250009
 20
187.4152993582544
 30
0.0
 11
130.1992052963542
 21
193.1091558813982
 31
0.0
 70
   160
  3
SUNPOU_2
100
AcDbAlignedDimension
 13
136.9939033250008
 23
187.4152993582544
 33
0.0
 14
139.9939033250009
 24
233.0983266026469
 34
0.0
100
AcDbRotatedDimension
  0
DIMENSION
  5
8E9
330
A
100
AcDbEntity
  8
SUNPOU
100
AcDbDimension
  2
*D23
 10
199.9939033250009
 20
187.4152993582544
 30
0.0
 11
169.9939033250009
 21
191.9152993582543
 31
0.0
 70
    32
  3
SUNPOU_2
100
AcDbAlignedDimension
 13
139.9939033250009
 23
233.0983266026469
 33
0.0
 14
199.9939033250009
 24
187.4152993582544
 34
0.0
100
AcDbRotatedDimension
  0
DIMENSION
  5
8F6
330
A
100
AcDbEntity
  8
SUNPOU
100
AcDbDimension
  2
*D24
 10
306.9939033250008
 20
177.9369021107659
 30
0.0
 11
218.7518703123554
 21
183.5147052808015
 31
0.0
 70
   160
  3
SUNPOU_2
100
AcDbAlignedDimension
 13
136.9939033250008
 23
169.7110329570366
 33
0.0
 14
306.9939033250008
 24
233.0983266026469
 34
0.0
100
AcDbRotatedDimension
  0
DIMENSION
  5
903
330
A
100
AcDbEntity
  8
SUNPOU
100
AcDbDimension
  2
*D25
 10
94.21878610078056
 20
231.4983266026469
 30
0.0
 11
89.71878610078055
 21
357.498326602647
 31
0.0
 70
    32
  3
SUNPOU_2
100
AcDbAlignedDimension
 13
141.5939033250009
 23
483.498326602647
 33
0.0
 14
141.5939033250009
 24
231.4983266026469
 34
0.0
 50
90.0
100
AcDbRotatedDimension
  0
CIRCLE
  5
C35
330
A
100
AcDbEntity
  8
SAISEN
100
AcDbCircle
 10
42.1240248668862
 20
317.9872442271362
 30
0.0
 40
4.0
  0
CIRCLE
  5
C36
330
A
100
AcDbEntity
  8
SAISEN
100
AcDbCircle
 10
41.70734381310308
 20
463.3988825571823
 30
0.0
 40
4.0
  0
MTEXT
  5
C4E
330
A
100
AcDbEntity
  8
MOJI
  6
CONTINUOUS
100
AcDbMText
 10
30.66786544727824
 20
99.97670748117393
 30
0.0
 40
6.0
 41
0.0
 71
     4
 72
     1
  1
\U+203B扉１枚質量１００kg以内\P（１００kgを超える場合\P　は係員にご相談下さい。）
  7
0_8
1001
ACAD
1000
MTEXTBEGIN
1070
    73
1070
     1
1070
    44
1040
1.0
1070
    74
1070
     0
1000
MTEXTEND
1000
MTEXTBEGIN
1070
    73
1070
     1
1070
    44
1040
1.0
1070
    74
1070
     0
1000
MTEXTEND
  0
LINE
  5
D65
330
A
100
AcDbEntity
  8
04
  6
CONTINUOUS
100
AcDbLine
 10
247.5939033250007
 20
279.8983266026469
 30
0.0
 11
247.5939033250009
 21
279.748326602647
 31
0.0
  0
LINE
  5
D66
330
A
100
AcDbEntity
  8
04
  6
CONTINUOUS
100
AcDbLine
 10
249.0939033250008
 20
280.224826602647
 30
0.0
 11
249.0939033250008
 21
279.8983266026469
 31
0.0
  0
LINE
  5
D67
330
A
100
AcDbEntity
  8
04
  6
CONTINUOUS
100
AcDbLine
 10
247.5939033250007
 20
292.098326602647
 30
0.0
 11
247.5939033250009
 21
292.248326602647
 31
0.0
  0
LINE
  5
D68
330
A
100
AcDbEntity
  8
04
  6
CONTINUOUS
100
AcDbLine
 10
249.0939033250009
 20
291.771826602647
 30
0.0
 11
249.0939033250008
 21
292.098326602647
 31
0.0
  0
LINE
  5
D69
330
A
100
AcDbEntity
  8
04
  6
CONTINUOUS
100
AcDbLine
 10
247.5939033250007
 20
269.8983266026469
 30
0.0
 11
247.5939033250009
 21
269.748326602647
 31
0.0
  0
LINE
  5
D6A
330
A
100
AcDbEntity
  8
04
  6
CONTINUOUS
100
AcDbLine
 10
249.0939033250008
 20
270.224826602647
 30
0.0
 11
249.0939033250009
 21
269.8983266026469
 31
0.0
  0
LINE
  5
D6B
330
A
100
AcDbEntity
  8
04
  6
CONTINUOUS
100
AcDbLine
 10
218.4939033250009
 20
266.9983266026469
 30
0.0
 11
218.4939033250009
 21
264.9868886943348
 31
0.0
  0
LINE
  5
D6D
330
A
100
AcDbEntity
  8
04
  6
CONTINUOUS
100
AcDbLine
 10
217.493903325001
 20
264.9868886943348
 30
0.0
 11
217.493903325001
 21
262.998326602647
 31
0.0
  0
LINE
  5
D6E
330
A
100
AcDbEntity
  8
04
  6
CONTINUOUS
100
AcDbLine
 10
228.9939033250009
 20
266.9983266026469
 30
0.0
 11
228.9939033250009
 21
265.498326602647
 31
0.0
  0
LINE
  5
D70
330
A
100
AcDbEntity
  8
04
  6
CONTINUOUS
100
AcDbLine
 10
217.2939021923149
 20
253.1967982414689
 30
0.0
 11
217.4883550149365
 21
253.1968535324114
 31
0.0
  0
LINE
  5
D71
330
A
100
AcDbEntity
  8
04
  6
CONTINUOUS
100
AcDbLine
 10
215.9939001708459
 20
251.5969120733508
 30
0.0
 11
217.2938995222065
 21
251.5969099037374
 31
0.0
  0
LINE
  5
D72
330
A
100
AcDbEntity
  8
04
  6
CONTINUOUS
100
AcDbLine
 10
232.6939027633541
 20
253.1969359388765
 30
0.0
 11
232.4995428449938
 21
253.1968400530726
 31
0.0
  0
LINE
  5
D73
330
A
100
AcDbEntity
  8
04
  6
CONTINUOUS
100
AcDbLine
 10
233.9939140839984
 20
251.5968331882331
 30
0.0
 11
232.6939000197202
 21
251.5968964769888
 31
0.0
  0
LINE
  5
D74
330
A
100
AcDbEntity
  8
04
  6
CONTINUOUS
100
AcDbLine
 10
205.5939132834054
 20
300.4983341703551
 30
0.0
 11
205.593911113792
 21
299.1983348189943
 31
0.0
  0
LINE
  5
D75
330
A
100
AcDbEntity
  8
04
  6
CONTINUOUS
100
AcDbLine
 10
207.1937994515233
 20
299.1983321488861
 30
0.0
 11
207.193854742466
 21
299.0038793262643
 31
0.0
  0
LINE
  5
D77
330
A
100
AcDbEntity
  8
04
  6
CONTINUOUS
100
AcDbLine
 10
207.193937148931
 20
283.7983315778469
 30
0.0
 11
207.1939317256066
 21
283.9926914987315
 31
0.0
  0
LINE
  5
D79
330
A
100
AcDbEntity
  8
04
  6
CONTINUOUS
100
AcDbLine
 10
205.5938343982877
 20
282.4983202572024
 30
0.0
 11
205.5938366274594
 21
283.7983343215855
 31
0.0
  0
LEADER
  5
ECD
330
A
100
AcDbEntity
  8
HIKIDASI
  6
CONTINUOUS
100
AcDbLeader
  3
SUNPOU_2
 73
     0
 75
     1
 40
13.33333333333333
 41
28.0
 76
     3
 10
159.9939033250009
 20
446.498326602647
 30
0.0
 10
74.44812238897886
 20
487.5758702720575
 30
0.0
 10
69.44812238897886
 20
487.5758702720575
 30
0.0
340
ECE
213
0.0
223
8.172667794372046
233
0.0
1001
ACAD
1000
DSTYLE
1002
{
1070
     5
1000
OPEN30
1070
    77
1070
     1
1070
   147
1040
1.0
1070
   342
1005
6BD
1002
}
1000
LEANOF
1010
0.0
1020
8.172667794372046
1030
0.0
1000
LEANOF
1010
0.0
1020
8.172667794372046
1030
0.0
  0
MTEXT
  5
ECE
330
A
100
AcDbEntity
  8
HIKIDASI
  6
CONTINUOUS
 62
     6
100
AcDbMText
 10
39.44812238897884
 20
481.4032024776854
 30
0.0
 40
5.0
 41
0.0
 71
     7
 72
     1
  1
M5タップ\P(サッシ工事)
  7
SUNPOU
1001
ACAD
1000
MTEXTBEGIN
1070
    73
1070
     1
1070
    44
1040
1.0
1070
    74
1070
     0
1000
MTEXTEND
1000
MTEXTBEGIN
1070
    73
1070
     1
1070
    44
1040
1.0
1070
    74
1070
     0
1000
MTEXTEND
  0
LEADER
  5
ECF
330
A
100
AcDbEntity
  8
HIKIDASI
  6
CONTINUOUS
100
AcDbLeader
  3
SUNPOU_2
 73
     0
 75
     1
 40
13.33333333333333
 41
28.0
 76
     3
 10
159.9939033250009
 20
401.498326602647
 30
0.0
 10
74.44812238897886
 20
442.3223285869664
 30
0.0
 10
69.44812238897886
 20
442.3223285869664
 30
0.0
340
ED0
213
0.0
223
8.339573763344558
233
0.0
1001
ACAD
1000
DSTYLE
1002
{
1070
     5
1000
OPEN30
1070
    77
1070
     1
1070
   147
1040
1.0
1070
   342
1005
6BD
1002
}
1000
LEANOF
1010
0.0
1020
8.339573763344558
1030
0.0
1000
LEANOF
1010
0.0
1020
8.339573763344558
1030
0.0
  0
MTEXT
  5
ED0
330
A
100
AcDbEntity
  8
HIKIDASI
  6
CONTINUOUS
 62
     6
100
AcDbMText
 10
39.44812238897887
 20
435.9827548236219
 30
0.0
 40
5.0
 41
0.0
 71
     7
 72
     1
  1
M5タップ\P(サッシ工事)
  7
SUNPOU
1001
ACAD
1000
MTEXTBEGIN
1070
    73
1070
     1
1070
    44
1040
1.0
1070
    74
1070
     0
1000
MTEXTEND
1000
MTEXTBEGIN
1070
    73
1070
     1
1070
    44
1040
1.0
1070
    74
1070
     0
1000
MTEXTEND
  0
LEADER
  5
ED1
330
A
100
AcDbEntity
  8
HIKIDASI
  6
CONTINUOUS
100
AcDbLeader
  3
SUNPOU_2
 73
     0
 75
     1
 40
13.33333333333333
 41
28.0
 76
     3
 10
159.9939033250009
 20
356.4983266026468
 30
0.0
 10
74.44812238897886
 20
398.0117805101478
 30
0.0
 10
69.44812238897886
 20
398.0117805101478
 30
0.0
340
ED2
213
0.0
223
8.813843168585208
233
0.0
1001
ACAD
1000
DSTYLE
1002
{
1070
     5
1000
OPEN30
1070
    77
1070
     1
1070
   147
1040
1.0
1070
   342
1005
6BD
1002
}
1000
LEANOF
1010
0.0
1020
8.813843168585208
1030
0.0
1000
LEANOF
1010
0.0
1020
8.813843168585208
1030
0.0
  0
MTEXT
  5
ED2
330
A
100
AcDbEntity
  8
HIKIDASI
  6
CONTINUOUS
 62
     6
100
AcDbMText
 10
39.44812238897887
 20
391.1979373415626
 30
0.0
 40
5.0
 41
0.0
 71
     7
 72
     1
  1
M5タップ\P(サッシ工事)
  7
SUNPOU
1001
ACAD
1000
MTEXTBEGIN
1070
    73
1070
     1
1070
    44
1040
1.0
1070
    74
1070
     0
1000
MTEXTEND
1000
MTEXTBEGIN
1070
    73
1070
     1
1070
    44
1040
1.0
1070
    74
1070
     0
1000
MTEXTEND
  0
POLYLINE
  5
EDF
330
A
100
AcDbEntity
  8
SAISEN
100
AcDb2dPolyline
 66
     1
 10
0.0
 20
0.0
 30
0.0
 70
     1
  0
VERTEX
  5
14AF
330
EDF
100
AcDbEntity
  8
SAISEN
100
AcDbVertex
100
AcDb2dVertex
 10
83.72629688066991
 20
157.7803355889525
 30
0.0
  0
VERTEX
  5
14B0
330
EDF
100
AcDbEntity
  8
SAISEN
100
AcDbVertex
100
AcDb2dVertex
 10
93.72629688066991
 20
157.7803355889525
 30
0.0
  0
VERTEX
  5
14B1
330
EDF
100
AcDbEntity
  8
SAISEN
100
AcDbVertex
100
AcDb2dVertex
 10
93.72629688066991
 20
187.7803355889525
 30
0.0
  0
VERTEX
  5
14B2
330
EDF
100
AcDbEntity
  8
SAISEN
100
AcDbVertex
100
AcDb2dVertex
 10
83.72629688066991
 20
187.7803355889525
 30
0.0
  0
SEQEND
  5
14B3
330
EDF
100
AcDbEntity
  8
SAISEN
  0
MTEXT
  5
EE0
330
A
100
AcDbEntity
  8
MOJI
100
AcDbMText
 10
88.72629688066989
 20
172.7803355889526
 30
0.0
 40
6.0
 41
10.0
 71
     5
 72
     1
  1
外\P\P部
  7
0_8
1001
ACAD
1000
MTEXTBEGIN
1070
    73
1070
     1
1070
    44
1040
1.0
1070
    74
1070
     0
1000
MTEXTEND
1000
MTEXTBEGIN
1070
    73
1070
     1
1070
    44
1040
1.0
1070
    74
1070
     0
1000
MTEXTEND
  0
POLYLINE
  5
EE1
330
A
100
AcDbEntity
  8
SAISEN
100
AcDb2dPolyline
 66
     1
 10
0.0
 20
0.0
 30
0.0
 70
     1
  0
VERTEX
  5
14B4
330
EE1
100
AcDbEntity
  8
SAISEN
100
AcDbVertex
100
AcDb2dVertex
 10
370.2853340870416
 20
157.7803355889525
 30
0.0
  0
VERTEX
  5
14B5
330
EE1
100
AcDbEntity
  8
SAISEN
100
AcDbVertex
100
AcDb2dVertex
 10
380.2853340870417
 20
157.7803355889525
 30
0.0
  0
VERTEX
  5
14B6
330
EE1
100
AcDbEntity
  8
SAISEN
100
AcDbVertex
100
AcDb2dVertex
 10
380.2853340870417
 20
187.7803355889525
 30
0.0
  0
VERTEX
  5
14B7
330
EE1
100
AcDbEntity
  8
SAISEN
100
AcDbVertex
100
AcDb2dVertex
 10
370.2853340870416
 20
187.7803355889525
 30
0.0
  0
SEQEND
  5
14B8
330
EE1
100
AcDbEntity
  8
SAISEN
  0
MTEXT
  5
EE2
330
A
100
AcDbEntity
  8
MOJI
100
AcDbMText
 10
375.2853340870416
 20
172.7803355889526
 30
0.0
 40
6.0
 41
10.0
 71
     5
 72
     1
  1
内\P\P部
  7
0_8
1001
ACAD
1000
MTEXTBEGIN
1070
    73
1070
     1
1070
    44
1040
1.0
1070
    74
1070
     0
1000
MTEXTEND
1000
MTEXTBEGIN
1070
    73
1070
     1
1070
    44
1040
1.0
1070
    74
1070
     0
1000
MTEXTEND
  0
LINE
  5
EF5
330
A
100
AcDbEntity
  8
CHUSIN
100
AcDbLine
 10
224.9939033250009
 20
216.13136600203
 30
0.0
 11
224.9939033250009
 21
341.498326602647
 31
0.0
  0
LINE
  5
EF6
330
A
100
AcDbEntity
  8
CHUSIN
100
AcDbLine
 10
224.9939033250009
 20
171.221198326543
 30
0.0
 11
224.9939033250009
 21
203.4346430906416
 31
0.0
  0
DIMENSION
  5
F19
330
A
100
AcDbEntity
  8
SUNPOU
  6
CONTINUOUS
100
AcDbDimension
  2
*D26
 10
123.1258487082644
 20
446.4983266026471
 30
0.0
 11
118.6258487082642
 21
427.2883226437699
 31
0.0
 70
   160
  3
SUNPOU_2
100
AcDbAlignedDimension
 13
152.4275510015321
 23
401.4983266026471
 33
0.0
 14
155.9939033250009
 24
446.498326602647
 34
0.0
 50
90.0
100
AcDbRotatedDimension
  0
DIMENSION
  5
F77
330
A
100
AcDbEntity
  8
SUNPOU
  6
CONTINUOUS
100
AcDbDimension
  2
*D27
 10
197.9939033250009
 20
321.5976747329997
 30
0.0
 11
181.9939033250009
 21
326.0976747329998
 31
0.0
 70
    32
  3
SUNPOU_2
100
AcDbAlignedDimension
 13
165.9939033250009
 23
321.5976747329997
 33
0.0
 14
197.9939033250009
 24
304.498326602647
 34
0.0
100
AcDbRotatedDimension
  0
LINE
  5
1017
330
A
100
AcDbEntity
  8
04
  6
CONTINUOUS
100
AcDbLine
 10
197.9939033250009
 20
301.498326602647
 30
0.0
 11
197.9939033250009
 21
267.498326602647
 31
0.0
  0
DIMENSION
  5
10B5
330
A
100
AcDbEntity
  8
SUNPOU
  6
CONTINUOUS
100
AcDbDimension
  2
*D28
 10
139.9939033250009
 20
517.1499682782687
 30
0.0
 11
132.8674013475612
 21
522.5239056763752
 31
0.0
 70
   160
  3
SUNPOU_2
100
AcDbAlignedDimension
 13
136.9939033250008
 23
521.8504429379022
 33
0.0
 14
139.9939033250009
 24
532.9983266026462
 34
0.0
100
AcDbRotatedDimension
  0
DIMENSION
  5
10C4
330
A
100
AcDbEntity
  8
SUNPOU
  6
CONTINUOUS
100
AcDbDimension
  2
*D29
 10
253.9939033250009
 20
517.1499682782687
 30
0.0
 11
196.9939033250009
 21
521.6499682782687
 31
0.0
 70
    32
  3
SUNPOU_2
100
AcDbAlignedDimension
 13
139.9939033250009
 23
532.9983266026462
 33
0.0
 14
253.9939033250009
 24
532.9983266026462
 34
0.0
100
AcDbRotatedDimension
  0
DIMENSION
  5
10D1
330
A
100
AcDbEntity
  8
SUNPOU
  6
CONTINUOUS
100
AcDbDimension
  2
*D30
 10
256.9939033250009
 20
517.1499682782687
 30
0.0
 11
261.9111452549395
 21
522.4965041209696
 31
0.0
 70
   160
  3
SUNPOU_2
100
AcDbAlignedDimension
 13
253.9939033250009
 23
532.9983266026462
 33
0.0
 14
256.9939033250009
 24
517.8941542947616
 34
0.0
100
AcDbRotatedDimension
  0
LINE
  5
10F1
330
A
100
AcDbEntity
  8
CHUSIN
 48
0.3
100
AcDbLine
 10
169.9939033250009
 20
159.3337941707898
 30
0.0
 11
169.9939033250009
 21
133.4078578502998
 31
0.0
  0
CIRCLE
  5
10F2
330
A
100
AcDbEntity
  8
03
100
AcDbCircle
 10
169.9939033250009
 20
146.3708260105448
 30
0.0
 40
6.0
  0
LINE
  5
10F3
330
A
100
AcDbEntity
  8
CHUSIN
 48
0.3
100
AcDbLine
 10
182.9568714852459
 20
146.3708260105448
 30
0.0
 11
157.0309351647559
 21
146.3708260105448
 31
0.0
  0
MTEXT
  5
10F4
330
A
100
AcDbEntity
  8
HIKIDASI
100
AcDbMText
 10
60.18481270120628
 20
199.6721291815663
 30
0.0
 40
5.0
 41
0.0
 71
     5
 72
     1
  1
補助光電スイッチ取付穴φ12\P(サッシ工事)
  7
SUNPOU
1001
ACAD
1000
MTEXTBEGIN
1070
    73
1070
     1
1070
    44
1040
1.0
1070
    74
1070
     0
1000
MTEXTEND
1000
MTEXTBEGIN
1070
    73
1070
     1
1070
    44
1040
1.0
1070
    74
1070
     0
1000
MTEXTEND
  0
LEADER
  5
10F5
330
A
100
AcDbEntity
  8
HIKIDASI
100
AcDbLeader
  3
SUNPOU_2
 73
     0
 75
     1
 40
13.33333333333333
 41
62.93333333333333
 76
     3
 10
165.0986755299489
 20
150.0310884530418
 30
0.0
 10
94.09606500700872
 20
199.6721291815663
 30
0.0
 10
89.09606500700872
 20
199.6721291815663
 30
0.0
340
10F4
213
-4.555414360864205
223
8.666666666666657
233
0.0
1001
ACAD
1000
DSTYLE
1002
{
1070
     5
1000
OPEN30
1070
    77
1070
     1
1070
   147
1040
1.0
1070
   342
1005
6BD
1002
}
1000
LEANOF
1010
-4.555414360864205
1020
8.666666666666657
1030
0.0
1000
LEANOF
1010
-4.555414360864205
1020
8.666666666666657
1030
0.0
  0
LINE
  5
10F6
330
A
100
AcDbEntity
  8
03
100
AcDbLine
 10
130.1822385373893
 20
167.5816440611519
 30
0.0
 11
276.9939033250009
 21
167.5816440611519
 31
0.0
  0
LINE
  5
10F7
330
A
100
AcDbEntity
  8
03
100
AcDbLine
 10
130.1822385373893
 20
162.5816440611519
 30
0.0
 11
276.9939033250009
 21
162.5816440611519
 31
0.0
  0
LINE
  5
111F
330
A
100
AcDbEntity
  8
03
100
AcDbLine
 10
204.9939033250009
 20
167.5816440611519
 30
0.0
 11
204.9939033250009
 21
241.498326602647
 31
0.0
  0
LINE
  5
1120
330
A
100
AcDbEntity
  8
03
100
AcDbLine
 10
199.9939033250009
 20
167.5816440611519
 30
0.0
 11
199.9939033250009
 21
241.498326602647
 31
0.0
  0
LINE
  5
1121
330
A
100
AcDbEntity
  8
03
100
AcDbLine
 10
141.9939033250009
 20
167.5816440611519
 30
0.0
 11
141.9939033250009
 21
231.4983266026469
 31
0.0
  0
LINE
  5
1122
330
A
100
AcDbEntity
  8
03
100
AcDbLine
 10
244.9939033250009
 20
167.5816440611519
 30
0.0
 11
244.9939033250009
 21
241.498326602647
 31
0.0
  0
DIMENSION
  5
1123
330
A
100
AcDbEntity
  8
SUNPOU
  6
CONTINUOUS
100
AcDbDimension
  2
*D31
 10
117.8606065479331
 20
146.3708260105448
 30
0.0
 11
113.3606065479332
 21
112.2860701554534
 31
0.0
 70
    32
  1
600
  3
SUNPOU_2
100
AcDbAlignedDimension
 13
112.5635143762961
 23
78.2013143003623
 33
0.0
 14
157.0309351647559
 24
146.3708260105448
 34
0.0
 50
90.0
100
AcDbRotatedDimension
  0
LEADER
  5
118C
330
A
100
AcDbEntity
  8
HIKIDASI
  6
CONTINUOUS
100
AcDbLeader
  3
SUNPOU_2
 73
     0
 75
     1
 40
13.33333333333333
 41
28.0
 76
     3
 10
191.9939033250009
 20
291.4983266026468
 30
0.0
 10
74.44812238897886
 20
346.6212937186441
 30
0.0
 10
69.44812238897886
 20
346.6212937186441
 30
0.0
340
118D
213
0.0
223
8.110156588552174
233
0.0
1001
ACAD
1000
DSTYLE
1002
{
1070
     5
1000
OPEN30
1070
    77
1070
     1
1070
   147
1040
1.0
1070
   342
1005
6BD
1002
}
1000
LEANOF
1010
0.0
1020
8.110156588552174
1030
0.0
1000
LEANOF
1010
0.0
1020
8.110156588552174
1030
0.0
  0
MTEXT
  5
118D
330
A
100
AcDbEntity
  8
HIKIDASI
  6
CONTINUOUS
 62
     6
100
AcDbMText
 10
39.44812238897884
 20
340.511137130092
 30
0.0
 40
5.0
 41
0.0
 71
     7
 72
     1
  1
M8タップ\P(サッシ工事)
  7
SUNPOU
1001
ACAD
1000
MTEXTBEGIN
1070
    73
1070
     1
1070
    44
1040
1.0
1070
    74
1070
     0
1000
MTEXTEND
1000
MTEXTBEGIN
1070
    73
1070
     1
1070
    44
1040
1.0
1070
    74
1070
     0
1000
MTEXTEND
  0
MTEXT
  5
11D5
330
A
100
AcDbEntity
  8
MOJI
100
AcDbMText
 10
373.1655936850916
 20
85.14092586537065
 30
0.0
 40
5.0
 41
0.0
 71
     5
 72
     1
  1
F.L
  7
0_8
1001
ACAD
1000
MTEXTBEGIN
1070
    73
1070
     1
1070
    44
1040
1.0
1070
    74
1070
     0
1000
MTEXTEND
1000
MTEXTBEGIN
1070
    73
1070
     1
1070
    44
1040
1.0
1070
    74
1070
     0
1000
MTEXTEND
  0
LEADER
  5
11E3
330
A
100
AcDbEntity
  8
HIKIDASI
  6
CONTINUOUS
100
AcDbLeader
  3
SUNPOU_2
 73
     0
 75
     1
 40
13.33333333333333
 41
46.66666666666665
 76
     3
 10
163.9939033250009
 20
231.4983266026469
 30
0.0
 10
132.7039169118472
 20
217.6951462389206
 30
0.0
 10
127.7039169118472
 20
217.6951462389206
 30
0.0
340
11E4
213
0.0
223
8.693629509859135
233
0.0
1001
ACAD
1000
DSTYLE
1002
{
1070
     5
1000
OPEN30
1070
    77
1070
     1
1070
   147
1040
1.0
1070
   342
1005
6BD
1002
}
1000
LEANOF
1010
0.0
1020
8.693629509859135
1030
0.0
1000
LEANOF
1010
0.0
1020
8.693629509859135
1030
0.0
  0
MTEXT
  5
11E4
330
A
100
AcDbEntity
  8
HIKIDASI
  6
CONTINUOUS
 62
     6
100
AcDbMText
 10
102.3705835785138
 20
217.6681833957281
 30
0.0
 40
5.0
 41
0.0
 71
     5
 72
     1
  1
方立上部φ１２穴加工\P(サッシ工事)
  7
SUNPOU
1001
ACAD
1000
MTEXTBEGIN
1070
    73
1070
     1
1070
    44
1040
1.0
1070
    74
1070
     0
1000
MTEXTEND
1000
MTEXTBEGIN
1070
    73
1070
     1
1070
    44
1040
1.0
1070
    74
1070
     0
1000
MTEXTEND
  0
INSERT
  5
11E8
330
A
100
AcDbEntity
  8
KAKURE
  6
CONTINUOUS
100
AcDbBlockReference
  2
*X39
 10
0.0
 20
0.0
 30
0.0
1001
ACAD
1000
HATCH
1002
{
1070
    19
1000
ANSI31
1040
15.0
1040
0.0
1000
R14_HATCH_DATA
1000
11E8
1011
1.0
1021
0.0
1031
0.0
1011
0.0
1021
1.0
1031
0.0
1011
0.0
1021
0.0
1031
1.0
1040
0.0
1010
0.0
1020
0.0
1030
1.0
1000
ANSI31
1070
     0
1070
     0
1071
        8
1071
        7
1070
     0
1070
     1
1071
        6
1040
174.4081251973129
1040
246.185470478125
1040
175.9939033250009
1040
246.3983266026469
1040
169.9939033250009
1040
246.3983266026469
1040
169.9939033250009
1040
233.0983266026469
1040
175.9939033250009
1040
233.0983266026469
1040
175.9939033250009
1040
234.37142342685
1071
        0
1071
        7
1070
     0
1070
     1
1071
        6
1040
169.9939033250009
1040
246.3983266026469
1040
163.9939033250009
1040
246.3983266026469
1040
165.5796814526889
1040
246.185470478125
1040
163.9939033250009
1040
234.3714234268499
1040
163.9939033250009
1040
233.0983266026469
1040
169.9939033250009
1040
233.0983266026469
1071
        0
1071
        7
1070
     0
1070
     1
1071
        3
1040
165.5796814526888
1040
246.185470478125
1040
163.9939033250009
1040
246.398326602647
1040
163.9939033250009
1040
234.3714234268496
1071
        0
1071
        7
1070
     0
1070
     1
1071
        4
1040
175.9939033250009
1040
247.898326602647
1040
163.9939033250009
1040
247.8983266026469
1040
163.9939033250009
1040
246.3983266026469
1040
175.9939033250009
1040
246.3983266026469
1071
        0
1071
        7
1070
     0
1070
     1
1071
        4
1040
175.9939033250009
1040
249.498326602647
1040
163.9939033250009
1040
249.498326602647
1040
163.9939033250009
1040
247.8983266026469
1040
175.9939033250009
1040
247.898326602647
1071
        0
1071
       22
1070
     0
1070
     1
1071
        3
1040
175.9939033250009
1040
246.3983266026469
1040
174.4081251973129
1040
246.185470478125
1040
175.9939033250009
1040
234.3714234268496
1071
        0
1071
        7
1070
     0
1070
     1
1071
        4
1040
175.9939033250009
1040
233.0983266026469
1040
169.9939033250009
1040
233.0983266026469
1040
169.9939033250009
1040
231.4983266026469
1040
175.9939033250009
1040
231.4983266026469
1071
        0
1071
        7
1070
     0
1070
     1
1071
        4
1040
169.9939033250009
1040
233.0983266026469
1040
163.9939033250009
1040
233.0983266026469
1040
163.9939033250009
1040
231.4983266026469
1040
169.9939033250009
1040
231.4983266026469
1071
        0
1070
     0
1070
     1
1040
0.0
1040
15.0
1070
     0
1070
     1
1040
0.7853981633974483
1040
-9.773839557700283
1040
-71.0
1040
-1.325825214724775
1040
1.325825214724775
1070
     0
1040
0.079219829712842
1071
        8
1040
172.0506877504853
1040
241.0088127914562
1040
0.0
1040
167.6127653891929
1040
240.2166140749468
1040
0.0
1040
164.9975643052935
1040
244.969803275719
1040
0.0
1040
165.4730570781433
1040
247.2671793986823
1040
0.0
1040
166.0277935538156
1040
248.21781661918
1040
0.0
1040
175.2998812352456
1040
244.0191660552216
1040
0.0
1040
174.1904021727181
1040
232.1361915041483
1040
0.0
1040
168.9599938937366
1040
232.2154115307137
1040
0.0
1002
}
  0
LINE
  5
11E9
330
A
100
AcDbEntity
  8
CHUSIN
 48
0.3
100
AcDbLine
 10
169.9939033250009
 20
246.3983266026469
 30
0.0
 11
169.9939033250009
 21
221.7028169402528
 31
0.0
  0
LINE
  5
11EA
330
A
100
AcDbEntity
  8
KAKURE
 48
0.3
100
AcDbLine
 10
163.9939033250009
 20
231.4983266026469
 30
0.0
 11
163.9939033250009
 21
249.498326602647
 31
0.0
  0
LINE
  5
11EB
330
A
100
AcDbEntity
  8
KAKURE
 48
0.3
100
AcDbLine
 10
175.9939033250009
 20
249.498326602647
 30
0.0
 11
175.9939033250009
 21
231.4983266026469
 31
0.0
  0
DIMENSION
  5
11FD
330
A
100
AcDbEntity
  8
SUNPOU
100
AcDbDimension
  2
*D32
 10
241.580085984102
 20
441.22937435531
 30
0.0
 11
228.634523963911
 21
433.0289204570586
 31
0.0
 70
   163
  1
φ30通線穴\P両端
  3
SUNPOU_2
100
AcDbDiametricDimension
 15
216.1831305916495
 25
425.2608222357912
 35
0.0
 40
0.0
1001
ACAD
1000
DSTYLE
1002
{
1070
   288
1070
     1
1002
}
  0
CIRCLE
  5
11FE
330
A
100
AcDbEntity
  8
CHUSIN
100
AcDbCircle
 10
228.8816082878759
 20
433.2450982955506
 30
0.0
 40
15.0
  0
LINE
  5
125F
330
A
100
AcDbEntity
  8
KAKURE
100
AcDbLine
 10
197.9939033250009
 20
295.498326602647
 30
0.0
 11
191.9939033250009
 21
295.498326602647
 31
0.0
  0
LINE
  5
1260
330
A
100
AcDbEntity
  8
KAKURE
100
AcDbLine
 10
191.9939033250009
 20
294.748326602647
 30
0.0
 11
197.9939033250009
 21
294.748326602647
 31
0.0
  0
LINE
  5
1261
330
A
100
AcDbEntity
  8
KAKURE
100
AcDbLine
 10
197.9939033250009
 20
288.248326602647
 30
0.0
 11
191.9939033250009
 21
288.248326602647
 31
0.0
  0
LINE
  5
1262
330
A
100
AcDbEntity
  8
KAKURE
100
AcDbLine
 10
191.9939033250009
 20
287.498326602647
 30
0.0
 11
197.9939033250009
 21
287.498326602647
 31
0.0
  0
LINE
  5
1319
330
A
100
AcDbEntity
  8
03
100
AcDbLine
 10
211.2759344906618
 20
54.70131430036236
 30
0.0
 11
213.5759344906619
 21
52.40131430036234
 31
0.0
  0
LINE
  5
131A
330
A
100
AcDbEntity
  8
03
100
AcDbLine
 10
241.4939033267958
 20
52.40131430036234
 30
0.0
 11
202.4939033267957
 21
52.40131430036234
 31
0.0
  0
LINE
  5
131B
330
A
100
AcDbEntity
  8
03
100
AcDbLine
 10
214.9939033267957
 20
79.7013143003623
 30
0.0
 11
201.4939033267958
 21
79.7013143003623
 31
0.0
  0
LINE
  5
131C
330
A
100
AcDbEntity
  8
03
100
AcDbLine
 10
240.1939033267958
 20
54.7013143003623
 30
0.0
 11
203.7939033267957
 21
54.7013143003623
 31
0.0
  0
LINE
  5
131D
330
A
100
AcDbEntity
  8
03
100
AcDbLine
 10
215.7439033267959
 20
81.20131430036229
 30
0.0
 11
200.7439033267958
 21
81.20131430036229
 31
0.0
  0
LINE
  5
131E
330
A
100
AcDbEntity
  8
03
100
AcDbLine
 10
203.7939033267957
 20
79.7013143003623
 30
0.0
 11
203.7939033267957
 21
54.7013143003623
 31
0.0
  0
LINE
  5
131F
330
A
100
AcDbEntity
  8
03
100
AcDbLine
 10
201.4939033267958
 20
79.7013143003623
 30
0.0
 11
201.4939033267956
 21
53.40131430036233
 31
0.0
  0
ARC
  5
1320
330
A
100
AcDbEntity
  8
03
100
AcDbCircle
 10
202.4939033267957
 20
53.40131430036233
 30
0.0
 40
1.0
100
AcDbArc
 50
180.0
 51
270.0
  0
LINE
  5
1321
330
A
100
AcDbEntity
  8
03
100
AcDbLine
 10
209.2759344906618
 20
54.70131430036236
 30
0.0
 11
211.5759344906618
 21
52.40131430036239
 31
0.0
  0
LINE
  5
1322
330
A
100
AcDbEntity
  8
03
100
AcDbLine
 10
201.4939033267956
 20
68.26138312049749
 30
0.0
 11
203.7939033267957
 21
65.96138312049754
 31
0.0
  0
LINE
  5
1323
330
A
100
AcDbEntity
  8
03
100
AcDbLine
 10
201.4939033267956
 20
66.2613831204975
 30
0.0
 11
203.7939033267957
 21
63.96138312049754
 31
0.0
  0
LINE
  5
1324
330
A
100
AcDbEntity
  8
03
100
AcDbLine
 10
199.9939033267958
 20
80.4513143003623
 30
0.0
 11
199.9939033267958
 21
71.2013143003623
 31
0.0
  0
LINE
  5
1325
330
A
100
AcDbEntity
  8
03
100
AcDbLine
 10
201.4939033267956
 20
71.2013143003623
 30
0.0
 11
199.9939033267958
 21
71.2013143003623
 31
0.0
  0
LINE
  5
1326
330
A
100
AcDbEntity
  8
03
100
AcDbLine
 10
199.9939033267958
 20
75.39090166968731
 30
0.0
 11
201.4939033267956
 21
73.89090166968748
 31
0.0
  0
ARC
  5
1327
330
A
100
AcDbEntity
  8
03
100
AcDbCircle
 10
200.7439033267958
 20
80.4513143003623
 30
0.0
 40
0.75
100
AcDbArc
 50
90.0
 51
180.0
  0
LINE
  5
1328
330
A
100
AcDbEntity
  8
03
100
AcDbLine
 10
210.1051968087781
 20
81.20131430036229
 30
0.0
 11
211.6051968087779
 21
79.70131430036236
 31
0.0
  0
LINE
  5
1329
330
A
100
AcDbEntity
  8
03
100
AcDbLine
 10
233.4939033267958
 20
56.2013143003623
 30
0.0
 11
216.4939033267958
 21
56.2013143003623
 31
0.0
  0
LINE
  5
132A
330
A
100
AcDbEntity
  8
03
100
AcDbLine
 10
217.4939033267958
 20
63.2013143003623
 30
0.0
 11
232.4939033267958
 21
63.20131430036235
 31
0.0
  0
LINE
  5
132B
330
A
100
AcDbEntity
  8
03
100
AcDbLine
 10
214.9939033267957
 20
79.7013143003623
 30
0.0
 11
214.9939033267957
 21
55.4513143003623
 31
0.0
  0
LINE
  5
132C
330
A
100
AcDbEntity
  8
03
100
AcDbLine
 10
216.4939033267959
 20
80.4513143003623
 30
0.0
 11
216.4939033267958
 21
56.2013143003623
 31
0.0
  0
ARC
  5
132D
330
A
100
AcDbEntity
  8
03
100
AcDbCircle
 10
215.7439033267956
 20
55.4513143003623
 30
0.0
 40
0.75
100
AcDbArc
 50
180.0
 51
270.0
  0
LINE
  5
132E
330
A
100
AcDbEntity
  8
03
100
AcDbLine
 10
221.6554735565749
 20
56.20131430036217
 30
0.0
 11
223.1554735565748
 21
54.7013143003623
 31
0.0
  0
LINE
  5
132F
330
A
100
AcDbEntity
  8
03
100
AcDbLine
 10
214.9939033267958
 20
68.68610664211208
 30
0.0
 11
216.4939033267958
 21
67.18610664211206
 31
0.0
  0
ARC
  5
1330
330
A
100
AcDbEntity
  8
03
100
AcDbCircle
 10
215.7439033267959
 20
80.4513143003623
 30
0.0
 40
0.75
100
AcDbArc
 50
0.0
 51
90.0
  0
LINE
  5
1331
330
A
100
AcDbEntity
  8
03
100
AcDbLine
 10
240.1939033267958
 20
79.7013143003623
 30
0.0
 11
240.1939033267958
 21
54.7013143003623
 31
0.0
  0
LINE
  5
1332
330
A
100
AcDbEntity
  8
03
100
AcDbLine
 10
234.9939033267958
 20
79.7013143003623
 30
0.0
 11
234.9939033267957
 21
55.45131430036235
 31
0.0
  0
LINE
  5
1333
330
A
100
AcDbEntity
  8
03
100
AcDbLine
 10
242.4939033267958
 20
79.7013143003623
 30
0.0
 11
242.4939033267958
 21
53.40131430036233
 31
0.0
  0
LINE
  5
1334
330
A
100
AcDbEntity
  8
03
100
AcDbLine
 10
233.4939033267958
 20
80.4513143003624
 30
0.0
 11
233.4939033267958
 21
56.2013143003623
 31
0.0
  0
LINE
  5
1335
330
A
100
AcDbEntity
  8
03
100
AcDbLine
 10
230.7947986848768
 20
54.7013143003623
 30
0.0
 11
233.0947986848769
 21
52.40131430036234
 31
0.0
  0
LINE
  5
1336
330
A
100
AcDbEntity
  8
03
100
AcDbLine
 10
228.7947986848768
 20
54.7013143003623
 30
0.0
 11
231.0947986848769
 21
52.40131430036234
 31
0.0
  0
ARC
  5
1337
330
A
100
AcDbEntity
  8
03
100
AcDbCircle
 10
234.2439033267956
 20
55.45131430036235
 30
0.0
 40
0.75
100
AcDbArc
 50
270.0
 51
0.0
  0
ARC
  5
1338
330
A
100
AcDbEntity
  8
03
100
AcDbCircle
 10
241.4939033267958
 20
53.40131430036233
 30
0.0
 40
1.0
100
AcDbArc
 50
270.0
 51
0.0
  0
LINE
  5
1339
330
A
100
AcDbEntity
  8
03
100
AcDbLine
 10
242.4939033267958
 20
79.7013143003623
 30
0.0
 11
234.9939033267958
 21
79.7013143003623
 31
0.0
  0
LINE
  5
133A
330
A
100
AcDbEntity
  8
03
100
AcDbLine
 10
243.2439033267959
 20
81.20131430036218
 30
0.0
 11
234.2439033267958
 21
81.20131430036241
 31
0.0
  0
LINE
  5
133B
330
A
100
AcDbEntity
  8
03
100
AcDbLine
 10
233.4939033267958
 20
68.85632456701336
 30
0.0
 11
234.9939033267959
 21
67.35632456701336
 31
0.0
  0
ARC
  5
133C
330
A
100
AcDbEntity
  8
03
100
AcDbCircle
 10
234.2439033267958
 20
80.4513143003624
 30
0.0
 40
0.75
100
AcDbArc
 50
89.99999999999836
 51
180.0
  0
LINE
  5
133D
330
A
100
AcDbEntity
  8
03
100
AcDbLine
 10
243.9939033267958
 20
80.45131430036219
 30
0.0
 11
243.9939033267958
 21
71.2013143003623
 31
0.0
  0
LINE
  5
133E
330
A
100
AcDbEntity
  8
03
100
AcDbLine
 10
242.4939033267958
 20
64.82753525262005
 30
0.0
 11
240.1939033267959
 21
67.12753525262013
 31
0.0
  0
LINE
  5
133F
330
A
100
AcDbEntity
  8
03
100
AcDbLine
 10
242.4939033267958
 20
66.82753525262007
 30
0.0
 11
240.1939033267959
 21
69.12753525262013
 31
0.0
  0
LINE
  5
1340
330
A
100
AcDbEntity
  8
03
100
AcDbLine
 10
243.9939033267958
 20
71.2013143003623
 30
0.0
 11
242.4939033267957
 21
71.2013143003623
 31
0.0
  0
LINE
  5
1341
330
A
100
AcDbEntity
  8
03
100
AcDbLine
 10
237.2618774268163
 20
81.20131430036218
 30
0.0
 11
238.7618774268164
 21
79.70131430036218
 31
0.0
  0
LINE
  5
1342
330
A
100
AcDbEntity
  8
03
100
AcDbLine
 10
242.4939033267958
 20
75.73190908637906
 30
0.0
 11
243.9939033267958
 21
74.23190908637906
 31
0.0
  0
ARC
  5
1343
330
A
100
AcDbEntity
  8
03
100
AcDbCircle
 10
243.2439033267959
 20
80.45131430036219
 30
0.0
 40
0.75
100
AcDbArc
 50
0.0
 51
90.0
  0
DIMENSION
  5
1344
330
A
100
AcDbEntity
  8
SUNPOU
100
AcDbDimension
  2
*D35
 10
273.9213334428685
 20
81.20131430036215
 30
0.0
 11
269.4213334428685
 21
68.70131430036225
 31
0.0
 70
    32
  3
SUNPOU_2
100
AcDbAlignedDimension
 13
233.4939033267958
 23
56.20131430036227
 33
0.0
 14
243.2439033267959
 24
81.20131430036215
 34
0.0
 50
90.0
100
AcDbRotatedDimension
  0
DIMENSION
  5
1345
330
A
100
AcDbEntity
  8
SUNPOU
100
AcDbDimension
  2
*D36
 10
288.4935550310538
 20
81.20131430036215
 30
0.0
 11
284.0312722802863
 21
72.94800271107982
 31
0.0
 70
   160
  3
SUNPOU_2
100
AcDbAlignedDimension
 13
243.9939033267958
 23
78.20131430036233
 33
0.0
 14
243.2439033267959
 24
81.20131430036215
 34
0.0
 50
90.0
100
AcDbRotatedDimension
1001
ACAD
1000
DSTYLE
1002
{
1070
     7
1000
DOTSMALL
1070
     5
1000

1070
   173
1070
     1
1070
     6
1000
OPEN30
1002
}
  0
DIMENSION
  5
1346
330
A
100
AcDbEntity
  8
SUNPOU
100
AcDbDimension
  2
*D37
 10
288.4935550310538
 20
88.20131430036232
 30
0.0
 11
283.9935550310538
 21
84.7013143003623
 31
0.0
 70
    32
  3
SUNPOU_2
100
AcDbAlignedDimension
 13
243.2439033267959
 23
81.20131430036215
 33
0.0
 14
244.9939033250009
 24
88.20131430036232
 34
0.0
 50
90.0
100
AcDbRotatedDimension
1001
ACAD
1000
DSTYLE
1002
{
1070
     6
1000
NONE
1070
     5
1000

1070
   173
1070
     1
1070
     7
1000
OPEN30
1002
}
  0
LINE
  5
1347
330
A
100
AcDbEntity
  8
03
100
AcDbLine
 10
217.4939033267957
 20
88.2013143003623
 30
0.0
 11
232.4939033267956
 21
63.20131430036235
 31
0.0
  0
LINE
  5
1348
330
A
100
AcDbEntity
  8
03
100
AcDbLine
 10
232.4939033267958
 20
88.2013143003623
 30
0.0
 11
217.4939033267958
 21
63.20131430036235
 31
0.0
  0
LINE
  5
1349
330
A
100
AcDbEntity
  8
03
100
AcDbLine
 10
232.4939033267958
 20
88.2013143003623
 30
0.0
 11
232.4939033267956
 21
63.20131430036235
 31
0.0
  0
LINE
  5
134A
330
A
100
AcDbEntity
  8
03
100
AcDbLine
 10
217.4939033267957
 20
88.2013143003623
 30
0.0
 11
217.4939033267958
 21
63.20131430036235
 31
0.0
  0
LINE
  5
134B
330
A
100
AcDbEntity
  8
03
100
AcDbLine
 10
217.4939033267957
 20
88.2013143003623
 30
0.0
 11
232.4939033267958
 21
88.2013143003623
 31
0.0
  0
DIMENSION
  5
134C
330
A
100
AcDbEntity
  8
SUNPOU
100
AcDbDimension
  2
*D38
 10
233.4939033267958
 20
42.65163233936615
 30
0.0
 11
224.9939033267958
 21
47.15163233936616
 31
0.0
 70
    32
  3
SUNPOU_2
100
AcDbAlignedDimension
 13
216.4939033267958
 23
56.20131430036227
 33
0.0
 14
233.4939033267958
 24
56.20131430036227
 34
0.0
100
AcDbRotatedDimension
  0
LINE
  5
13D0
330
A
100
AcDbEntity
  8
KAKURE
100
AcDbLine
 10
141.9939033250009
 20
78.2013143003623
 30
0.0
 11
141.9939033250009
 21
58.2013143003623
 31
0.0
  0
LINE
  5
13D1
330
A
100
AcDbEntity
  8
KAKURE
100
AcDbLine
 10
199.9939033250009
 20
78.2013143003623
 30
0.0
 11
199.9939033250009
 21
58.2013143003623
 31
0.0
  0
MTEXT
  5
1457
330
A
100
AcDbEntity
  8
MOJI
100
AcDbMText
 10
310.999999999997
 20
29.00000000000005
 30
0.0
 40
7.0
 41
50.0
 71
     5
 72
     1
  1
図番４－８
  7
0_80
1001
ACAD
1000
MTEXTBEGIN
1070
    73
1070
     1
1070
    44
1040
1.0
1070
    74
1070
     0
1000
MTEXTEND
1000
MTEXTBEGIN
1070
    73
1070
     1
1070
    44
1040
1.0
1070
    74
1070
     0
1000
MTEXTEND
  0
MTEXT
  5
1458
330
A
100
AcDbEntity
  8
MOJI
100
AcDbMText
 10
360.999999999997
 20
29.00000000000005
 30
0.0
 40
7.0
 41
49.99999999999994
 71
     5
 72
     1
  1
たて断面図　
  7
0_80
1001
ACAD
1000
MTEXTBEGIN
1070
    73
1070
     1
1070
    44
1040
1.0
1070
    74
1070
     0
1000
MTEXTEND
1000
MTEXTBEGIN
1070
    73
1070
     1
1070
    44
1040
1.0
1070
    74
1070
     0
1000
MTEXTEND
  0
MTEXT
  5
1459
330
A
100
AcDbEntity
  8
MOJI
100
AcDbMText
 10
255.9999999999998
 20
29.00000000000005
 30
0.0
 40
7.0
 41
60.0
 71
     5
 72
     1
  1
片引き又は両引き
  7
0_80
1001
ACAD
1000
MTEXTBEGIN
1070
    73
1070
     1
1070
    44
1040
1.0
1070
    74
1070
     0
1000
MTEXTEND
1000
MTEXTBEGIN
1070
    73
1070
     1
1070
    44
1040
1.0
1070
    74
1070
     0
1000
MTEXTEND
  0
POLYLINE
  5
145A
330
A
100
AcDbEntity
  8
SAISEN
100
AcDb2dPolyline
 66
     1
 10
0.0
 20
0.0
 30
0.0
 70
     1
  0
VERTEX
  5
14BD
330
145A
100
AcDbEntity
  8
SAISEN
100
AcDbVertex
100
AcDb2dVertex
 10
35.99999999999693
 20
17.0
 30
0.0
  0
VERTEX
  5
14BE
330
145A
100
AcDbEntity
  8
SAISEN
100
AcDbVertex
100
AcDb2dVertex
 10
385.9999999999968
 20
17.0
 30
0.0
  0
VERTEX
  5
14BF
330
145A
100
AcDbEntity
  8
SAISEN
100
AcDbVertex
100
AcDb2dVertex
 10
385.9999999999968
 20
41.00000000000017
 30
0.0
  0
VERTEX
  5
14C0
330
145A
100
AcDbEntity
  8
SAISEN
100
AcDbVertex
100
AcDb2dVertex
 10
35.99999999999693
 20
41.00000000000017
 30
0.0
  0
SEQEND
  5
14C1
330
145A
100
AcDbEntity
  8
SAISEN
  0
MTEXT
  5
145B
330
A
100
AcDbEntity
  8
MOJI
100
AcDbMText
 10
90.99999999999694
 20
29.00000000000008
 30
0.0
 40
6.0
 41
110.0
 71
     5
 72
     1
  1
ステンレスサッシ　エンジンＢＯＸ通し\P引き残し無し　納り例
  7
0_8
1001
ACAD
1000
MTEXTBEGIN
1070
    73
1070
     1
1070
    44
1040
1.0
1070
    74
1070
     0
1000
MTEXTEND
1000
MTEXTBEGIN
1070
    73
1070
     1
1070
    44
1040
1.0
1070
    74
1070
     0
1000
MTEXTEND
  0
LINE
  5
145C
330
A
100
AcDbEntity
  8
SAISEN
100
AcDbLine
 10
145.9999999999969
 20
41.00000000000017
 30
0.0
 11
145.9999999999969
 21
17.0
 31
0.0
  0
MTEXT
  5
145D
330
A
100
AcDbEntity
  8
MOJI
100
AcDbMText
 10
185.9999999999969
 20
29.00000000000008
 30
0.0
 40
7.0
 41
80.0
 71
     5
 72
     1
  1
ＳＯＶ－２００ＫＤＣ
  7
0_8
1001
ACAD
1000
MTEXTBEGIN
1070
    73
1070
     1
1070
    44
1040
1.0
1070
    74
1070
     0
1000
MTEXTEND
1000
MTEXTBEGIN
1070
    73
1070
     1
1070
    44
1040
1.0
1070
    74
1070
     0
1000
MTEXTEND
  0
LINE
  5
145E
330
A
100
AcDbEntity
  8
SAISEN
100
AcDbLine
 10
225.9999999999969
 20
41.00000000000017
 30
0.0
 11
225.9999999999969
 21
17.0
 31
0.0
  0
LINE
  5
145F
330
A
100
AcDbEntity
  8
SAISEN
100
AcDbLine
 10
285.9999999999968
 20
41.00000000000017
 30
0.0
 11
285.9999999999968
 21
17.0
 31
0.0
  0
CIRCLE
  5
1467
330
A
100
AcDbEntity
  8
SAISEN
100
AcDbCircle
 10
392.0976380784291
 20
49.5430264122316
 30
0.0
 40
5.0
  0
TEXT
  5
1468
330
A
100
AcDbEntity
  8
MOJI
100
AcDbText
 10
389.0488190392129
 20
45.27151320611589
 30
0.0
 40
8.0
  1
Ｓ
 41
0.8
  7
0_8
 11
389.0488190392129
 21
53.2715132061159
 31
0.0
100
AcDbText
 73
     3
  0
VIEWPORT
  5
6D4
102
{ACAD_XDICTIONARY
360
1499
102
}
330
B
100
AcDbEntity
 67
     1
  8
0
100
AcDbViewport
 10
198.0508299538852
 20
285.1874487354477
 30
0.0
 40
1078.343208727591
 41
628.3535021666721
 68
     1
 69
     1
1001
ACAD
1000
MVIEW
1002
{
1070
    16
1010
0.0
1020
0.0
1030
0.0
1010
0.0
1020
0.0
1030
1.0
1040
0.0
1040
628.3535021666721
1040
198.0508299538852
1040
285.1874487354477
1040
50.0
1040
0.0
1040
0.0
1070
     0
1070
   100
1070
     1
1070
     1
1070
     0
1070
     0
1070
     0
1070
     0
1040
0.0
1040
0.0
1040
0.0
1040
10.0
1040
10.0
1040
10.0
1040
10.0
1070
     0
1002
{
1002
}
1002
}
  0
VIEWPORT
  5
1483
102
{ACAD_XDICTIONARY
360
149F
102
}
330
B
100
AcDbEntity
 67
     1
  8
DEFPOINTS
100
AcDbViewport
 10
198.0508309076477
 20
285.1874477816852
 30
0.0
 40
396.4883172119752
 41
570.409736121624
 68
     2
 69
     2
1001
ACAD
1000
MVIEW
1002
{
1070
    16
1010
0.0
1020
0.0
1030
0.0
1010
0.0
1020
0.0
1030
1.0
1040
0.0
1040
570.409736121624
1040
210.0
1040
297.0
1040
50.0
1040
0.0
1040
0.0
1070
     0
1070
   100
1070
     1
1070
     1
1070
     0
1070
     0
1070
     0
1070
     0
1040
0.0
1040
0.0
1040
0.0
1040
1.0
1040
1.0
1040
0.0
1040
0.0
1070
     0
1002
{
1002
}
1002
}
  0
ENDSEC
  0
SECTION
  2
OBJECTS
  0
DICTIONARY
  5
19
330
0
100
AcDbDictionary
  3
ACAD_COLOR
350
1441
  3
ACAD_GROUP
350
1A
  3
ACAD_LAYOUT
350
474
  3
ACAD_MATERIAL
350
1440
  3
ACAD_MLINESTYLE
350
1B
  3
ACAD_PLOTSETTINGS
350
475
  3
ACADDIM
350
D9B
  3
ASE_INDEX_DICTIONARY
350
146A
1001
ACAD
1000
TREAT_AS_HARD
1070
     0
1000
TREAT_AS_HARD
1070
     0
  0
DICTIONARY
  5
ED3
330
2
100
AcDbDictionary
  3
ACAD_LAYERFILTERS
350
ED4
  3
ACAD_LAYERSTATES
350
118F
1001
ACAD
1000
TREAT_AS_HARD
1070
     1
1000
TREAT_AS_HARD
1070
     1
  0
DICTIONARY
  5
13D9
330
A
100
AcDbDictionary
  3
ACAD_LAYOUTSELFREF
350
14A7
1001
ACAD
1000
TREAT_AS_HARD
1070
     1
  0
DICTIONARY
  5
13DB
330
B
100
AcDbDictionary
  3
ACAD_LAYOUTSELFREF
350
14A8
1001
ACAD
1000
TREAT_AS_HARD
1070
     1
  0
DICTIONARY
  5
1499
330
6D4
100
AcDbDictionary
  3
ACAD_XREC_ROUNDTRIP
350
149A
1001
ACAD
1000
TREAT_AS_HARD
1070
     1
  0
DICTIONARY
  5
149F
330
1483
100
AcDbDictionary
  3
ACAD_XREC_ROUNDTRIP
350
14A0
1001
ACAD
1000
TREAT_AS_HARD
1070
     1
  0
DICTIONARY
  5
1441
102
{ACAD_REACTORS
330
19
102
}
330
19
100
AcDbDictionary
1001
ACAD
1000
TREAT_AS_HARD
1070
     0
  0
DICTIONARY
  5
1A
102
{ACAD_REACTORS
330
19
102
}
330
19
100
AcDbDictionary
  3
DAGROUP40C
350
40C
  3
DAGROUP410
350
410
  3
DAGROUP414
350
414
  3
DAGROUP45E
350
45E
  3
DAGROUP462
350
462
  3
DAGROUP466
350
466
1001
ACAD
1000
TREAT_AS_HARD
1070
     0
1000
TREAT_AS_HARD
1070
     0
  0
DICTIONARY
  5
474
102
{ACAD_REACTORS
330
19
102
}
330
19
100
AcDbDictionary
1001
ACAD
1000
TREAT_AS_HARD
1070
     0
1000
TREAT_AS_HARD
1070
     0
  0
DICTIONARY
  5
1440
102
{ACAD_REACTORS
330
19
102
}
330
19
100
AcDbDictionary
1001
ACAD
1000
TREAT_AS_HARD
1070
     0
  0
DICTIONARY
  5
1B
102
{ACAD_REACTORS
330
19
102
}
330
19
100
AcDbDictionary
  3
STANDARD
350
1C
1001
ACAD
1000
TREAT_AS_HARD
1070
     0
1000
TREAT_AS_HARD
1070
     0
  0
DICTIONARY
  5
475
102
{ACAD_REACTORS
330
19
102
}
330
19
100
AcDbDictionary
1001
ACAD
1000
TREAT_AS_HARD
1070
     0
1000
TREAT_AS_HARD
1070
     0
  0
XRECORD
  5
D9B
102
{ACAD_REACTORS
330
19
102
}
330
19
100
AcDbXrecord
 90
   990106
  3

 60
     0
 61
     0
 62
     4
 63
     4
 64
     1
 65
     0
 66
     0
 67
     3
 68
     0
 69
     1
 70
     0
 71
     0
 72
     0
 40
0.0
170
     1
340
ECE
  0
DICTIONARY
  5
146A
102
{ACAD_REACTORS
330
19
102
}
330
19
100
AcDbDictionary
  3
ASEBLOCKHIERARCHYINDEXRECORD
350
146C
1001
DCO15
1040
1508666618.312
1001
ACAD
1000
TREAT_AS_HARD
1070
     0
  0
DICTIONARY
  5
ED4
102
{ACAD_REACTORS
330
ED3
102
}
330
ED3
100
AcDbDictionary
  3
HIHYOJI
350
10E7
1001
ACAD
1000
TREAT_AS_HARD
1070
     1
1000
TREAT_AS_HARD
1070
     0
  0
DICTIONARY
  5
118F
102
{ACAD_REACTORS
330
ED3
102
}
330
ED3
100
AcDbDictionary
1001
ACAD
1000
TREAT_AS_HARD
1070
     0
1000
TREAT_AS_HARD
1070
     0
  0
XRECORD
  5
14A7
102
{ACAD_REACTORS
330
13D9
102
}
330
13D9
100
AcDbXrecord
340
A
  0
XRECORD
  5
14A8
102
{ACAD_REACTORS
330
13DB
102
}
330
13DB
100
AcDbXrecord
340
B
  0
XRECORD
  5
149A
102
{ACAD_REACTORS
330
1499
102
}
330
1499
100
AcDbXrecord
102
SHADEPLOT
 70
     0
  0
XRECORD
  5
14A0
102
{ACAD_REACTORS
330
149F
102
}
330
149F
100
AcDbXrecord
102
SHADEPLOT
 70
     0
  0
GROUP
  5
40C
102
{ACAD_REACTORS
330
1A
102
}
330
1A
100
AcDbGroup
300

 70
     0
 71
     1
  0
GROUP
  5
410
102
{ACAD_REACTORS
330
1A
102
}
330
1A
100
AcDbGroup
300

 70
     0
 71
     1
  0
GROUP
  5
414
102
{ACAD_REACTORS
330
1A
102
}
330
1A
100
AcDbGroup
300

 70
     0
 71
     1
  0
GROUP
  5
45E
102
{ACAD_REACTORS
330
1A
102
}
330
1A
100
AcDbGroup
300

 70
     0
 71
     1
  0
GROUP
  5
462
102
{ACAD_REACTORS
330
1A
102
}
330
1A
100
AcDbGroup
300

 70
     0
 71
     1
  0
GROUP
  5
466
102
{ACAD_REACTORS
330
1A
102
}
330
1A
100
AcDbGroup
300

 70
     0
 71
     1
  0
MLINESTYLE
  5
1C
102
{ACAD_REACTORS
330
1B
102
}
330
1B
100
AcDbMlineStyle
  2
STANDARD
 70
     0
  3

 62
     0
 51
90.00000000000019
 52
90.00000000000019
 71
     2
 49
0.5
 62
   256
  6
BYLAYER
 49
-0.5
 62
   256
  6
BYLAYER
  0
XRECORD
  5
146C
102
{ACAD_REACTORS
330
146A
102
}
330
146A
100
AcDbXrecord
330
11E8
330
FF5
330
FF6
330
10AD
330
10AE
330
FC6
330
FC7
330
FD8
330
FD9
330
1245
330
1246
330
127B
330
127C
330
109B
330
109C
330
102F
330
1030
330
1157
330
1158
330
114E
330
114F
330
E86
330
E87
330
E45
330
E46
330
E6A
330
E6B
330
113D
330
113E
330
FFE
330
FFF
330
E18
330
E19
330
1042
330
1043
330
1057
330
1058
330
1074
330
1075
330
1093
330
1094
330
1087
330
1088
330
FED
330
FEE
330
104B
330
104C
330
111A
330
111B
330
FCF
330
FD0
330
1216
330
1217
330
101C
330
101D
330
117C
330
117D
330
10C9
330
10CA
330
1187
330
1188
330
11C7
330
11C8
330
120E
330
120F
330
13C0
330
13BF
330
1428
330
1429
330
1432
330
13A1
330
13A2
  0
XRECORD
  5
10E7
102
{ACAD_REACTORS
330
ED4
102
}
330
ED4
100
AcDbXrecord
  1
hihyoji
  1
08,09,*_h
  1
*
  1
*
 70
     0
  1
*
  1
*
  0
ENDSEC
  0
EOF
