  0
SECTION
  2
HEADER
  9
$ACADVER
  1
AC1012
  9
$DWGCODEPAGE
  3
dos932
  9
$INSBASE
 10
0.0
 20
0.0
 30
0.0
  9
$EXTMIN
 10
0.0
 20
0.0
 30
0.0
  9
$EXTMAX
 10
420.0
 20
594.0
 30
0.0
  9
$LIMMIN
 10
0.0
 20
0.0
  9
$LIMMAX
 10
420.0
 20
594.0
  9
$ORTHOMODE
 70
     0
  9
$REGENMODE
 70
     1
  9
$FILLMODE
 70
     1
  9
$QTEXTMODE
 70
     0
  9
$MIRRTEXT
 70
     1
  9
$DRAGMODE
 70
     2
  9
$LTSCALE
 40
1.0
  9
$OSMODE
 70
    37
  9
$ATTMODE
 70
     1
  9
$TEXTSIZE
 40
6.0
  9
$TRACEWID
 40
0.05
  9
$TEXTSTYLE
  7
STANDARD
  9
$CLAYER
  8
DEFPOINTS
  9
$CELTYPE
  6
CONTINUOUS
  9
$CECOLOR
 62
   256
  9
$CELTSCALE
 40
1.0
  9
$DELOBJ
 70
     1
  9
$DISPSILH
 70
     0
  9
$DIMSCALE
 40
2.0
  9
$DIMASZ
 40
2.5
  9
$DIMEXO
 40
1.5
  9
$DIMDLI
 40
0.0
  9
$DIMRND
 40
0.0
  9
$DIMDLE
 40
0.0
  9
$DIMEXE
 40
1.0
  9
$DIMTP
 40
0.0
  9
$DIMTM
 40
0.0
  9
$DIMTXT
 40
2.5
  9
$DIMCEN
 40
0.0
  9
$DIMTSZ
 40
0.0
  9
$DIMTOL
 70
     0
  9
$DIMLIM
 70
     0
  9
$DIMTIH
 70
     0
  9
$DIMTOH
 70
     0
  9
$DIMSE1
 70
     0
  9
$DIMSE2
 70
     0
  9
$DIMTAD
 70
     1
  9
$DIMZIN
 70
     8
  9
$DIMBLK
  1
OPEN30
  9
$DIMASO
 70
     1
  9
$DIMSHO
 70
     1
  9
$DIMPOST
  1

  9
$DIMAPOST
  1

  9
$DIMALT
 70
     0
  9
$DIMALTD
 70
     2
  9
$DIMALTF
 40
25.4
  9
$DIMLFAC
 40
1.0
  9
$DIMTOFL
 70
     1
  9
$DIMTVP
 40
0.0
  9
$DIMTIX
 70
     0
  9
$DIMSOXD
 70
     0
  9
$DIMSAH
 70
     0
  9
$DIMBLK1
  1

  9
$DIMBLK2
  1

  9
$DIMSTYLE
  2
SUNPOU_2
  9
$DIMCLRD
 70
   256
  9
$DIMCLRE
 70
   256
  9
$DIMCLRT
 70
     6
  9
$DIMTFAC
 40
1.0
  9
$DIMGAP
 40
1.0
  9
$DIMJUST
 70
     0
  9
$DIMSD1
 70
     0
  9
$DIMSD2
 70
     0
  9
$DIMTOLJ
 70
     1
  9
$DIMTZIN
 70
     0
  9
$DIMALTZ
 70
     0
  9
$DIMALTTZ
 70
     0
  9
$DIMFIT
 70
     3
  9
$DIMUPT
 70
     0
  9
$DIMUNIT
 70
     2
  9
$DIMDEC
 70
     1
  9
$DIMTDEC
 70
     1
  9
$DIMALTU
 70
     2
  9
$DIMALTTD
 70
     2
  9
$DIMTXSTY
  7
SUNPOU
  9
$DIMAUNIT
 70
     0
  9
$LUNITS
 70
     2
  9
$LUPREC
 70
     4
  9
$SKETCHINC
 40
0.1
  9
$FILLETRAD
 40
0.0
  9
$AUNITS
 70
     0
  9
$AUPREC
 70
     0
  9
$MENU
  1
acad
  9
$ELEVATION
 40
0.0
  9
$PELEVATION
 40
0.0
  9
$THICKNESS
 40
0.0
  9
$LIMCHECK
 70
     0
  9
$BLIPMODE
 70
     0
  9
$CHAMFERA
 40
0.0
  9
$CHAMFERB
 40
0.0
  9
$CHAMFERC
 40
0.0
  9
$CHAMFERD
 40
0.0
  9
$SKPOLY
 70
     0
  9
$TDCREATE
 40
2444972.375000000
  9
$TDUPDATE
 40
2453266.400466215
  9
$TDINDWG
 40
0.5203709491
  9
$TDUSRTIMER
 40
0.5203707639
  9
$USRTIMER
 70
     1
  9
$ANGBASE
 50
0.0
  9
$ANGDIR
 70
     0
  9
$PDMODE
 70
     0
  9
$PDSIZE
 40
1.0
  9
$PLINEWID
 40
0.0
  9
$COORDS
 70
     1
  9
$SPLFRAME
 70
     0
  9
$SPLINETYPE
 70
     6
  9
$SPLINESEGS
 70
     8
  9
$ATTDIA
 70
     0
  9
$ATTREQ
 70
     1
  9
$HANDLING
 70
-16383
  9
$HANDSEED
  5
1065
  9
$SURFTAB1
 70
     6
  9
$SURFTAB2
 70
     6
  9
$SURFTYPE
 70
     6
  9
$SURFU
 70
     6
  9
$SURFV
 70
     6
  9
$UCSNAME
  2

  9
$UCSORG
 10
0.0
 20
0.0
 30
0.0
  9
$UCSXDIR
 10
1.0
 20
0.0
 30
0.0
  9
$UCSYDIR
 10
0.0
 20
1.0
 30
0.0
  9
$PUCSNAME
  2

  9
$PUCSORG
 10
0.0
 20
0.0
 30
0.0
  9
$PUCSXDIR
 10
1.0
 20
0.0
 30
0.0
  9
$PUCSYDIR
 10
0.0
 20
1.0
 30
0.0
  9
$USERI1
 70
     0
  9
$USERI2
 70
     0
  9
$USERI3
 70
     0
  9
$USERI4
 70
     0
  9
$USERI5
 70
     0
  9
$USERR1
 40
0.0
  9
$USERR2
 40
0.0
  9
$USERR3
 40
0.0
  9
$USERR4
 40
0.0
  9
$USERR5
 40
0.0
  9
$WORLDVIEW
 70
     1
  9
$SHADEDGE
 70
     3
  9
$SHADEDIF
 70
    70
  9
$TILEMODE
 70
     1
  9
$MAXACTVP
 70
    16
  9
$PINSBASE
 10
0.0
 20
0.0
 30
0.0
  9
$PLIMCHECK
 70
     0
  9
$PEXTMIN
 10
-0.1933276983398855
 20
-0.0174202791267817
 30
-0.0000000349181948
  9
$PEXTMAX
 10
396.2949895136353
 20
570.3923158424973
 30
0.0000000814935747
  9
$PLIMMIN
 10
-11.94191342824454
 20
-11.76600219398141
  9
$PLIMMAX
 10
408.0435733360149
 20
582.1408996648768
  9
$UNITMODE
 70
     0
  9
$VISRETAIN
 70
     0
  9
$PLINEGEN
 70
     1
  9
$PSLTSCALE
 70
     0
  9
$TREEDEPTH
 70
  3020
  9
$PICKSTYLE
 70
     1
  9
$CMLSTYLE
  2
STANDARD
  9
$CMLJUST
 70
     0
  9
$CMLSCALE
 40
1.0
  9
$SAVEIMAGES
 70
     1
  0
ENDSEC
  0
SECTION
  2
CLASSES
  0
CLASS
  1
LWPOLYLINE
  2
AcDbPolyline
  3
AutoCAD 2000
 90
    32768
280
     0
281
     1
  0
CLASS
  1
IMAGE
  2
AcDbRasterImage
  3
ISM
 90
    32895
280
     0
281
     1
  0
CLASS
  1
OLE2FRAME
  2
AcDbOle2Frame
  3
AutoCAD 2000
 90
    32768
280
     0
281
     1
  0
CLASS
  1
HATCH
  2
AcDbHatch
  3
AutoCAD 2000
 90
    32768
280
     0
281
     1
  0
CLASS
  1
DICTIONARYVAR
  2
AcDbDictionaryVar
  3
AutoCAD 2000
 90
    32768
280
     0
281
     0
  0
CLASS
  1
RASTERVARIABLES
  2
AcDbRasterVariables
  3
ISM
 90
    32768
280
     0
281
     0
  0
CLASS
  1
IMAGEDEF
  2
AcDbRasterImageDef
  3
ISM
 90
    32768
280
     0
281
     0
  0
CLASS
  1
IMAGEDEF_REACTOR
  2
AcDbRasterImageDefReactor
  3
ISM
 90
    32769
280
     0
281
     0
  0
CLASS
  1
IDBUFFER
  2
AcDbIdBuffer
  3
AutoCAD 2000
 90
    32768
280
     0
281
     0
  0
CLASS
  1
SPATIAL_FILTER
  2
AcDbSpatialFilter
  3
AutoCAD 2000
 90
    32768
280
     0
281
     0
  0
CLASS
  1
XRECORD
  2
AcDbXrecord
  3
AutoCAD 2000
 90
    32768
280
     0
281
     0
  0
CLASS
  1
SORTENTSTABLE
  2
AcDbSortentsTable
  3
AutoCAD 2000
 90
    32768
280
     0
281
     0
  0
CLASS
  1
LAYER_INDEX
  2
AcDbLayerIndex
  3
AutoCAD 2000
 90
    32768
280
     0
281
     0
  0
CLASS
  1
SPATIAL_INDEX
  2
AcDbSpatialIndex
  3
AutoCAD 2000
 90
    32768
280
     0
281
     0
  0
CLASS
  1
OBJECT_PTR
  2
CAseDLPNTableRecord
  3
ASE-LPNTableRecord
 90
    32769
280
     0
281
     0
  0
CLASS
  1
ACDBDICTIONARYWDFLT
  2
AcDbDictionaryWithDefault
  3
AutoCAD 2000
 90
    32768
280
     0
281
     0
  0
CLASS
  1
ACDBPLACEHOLDER
  2
AcDbPlaceHolder
  3
AutoCAD 2000
 90
    32768
280
     0
281
     0
  0
CLASS
  1
LAYOUT
  2
AcDbLayout
  3
AutoCAD 2000
 90
    32768
280
     0
281
     0
  0
CLASS
  1
LONG_TRANSACTION
  2
AcDbLongTransaction
  3
AutoCAD 2000
 90
    32768
280
     0
281
     0
  0
CLASS
  1
LWPOLYLINE
  2
AcDbPolyline
  3
AutoCAD 2000
 90
    32768
280
     0
281
     1
  0
CLASS
  1
HATCH
  2
AcDbHatch
  3
AutoCAD 2000
 90
    32768
280
     0
281
     1
  0
CLASS
  1
XRECORD
  2
AcDbXrecord
  3
AutoCAD 2000
 90
    32768
280
     0
281
     0
  0
CLASS
  1
LONG_TRANSACTION
  2
AcDbLongTransaction
  3
AutoCAD 2000
 90
    32768
280
     0
281
     0
  0
CLASS
  1
LWPOLYLINE
  2
AcDbPolyline
  3
AutoCAD 2000
 90
    32768
280
     0
281
     1
  0
CLASS
  1
HATCH
  2
AcDbHatch
  3
AutoCAD 2000
 90
    32768
280
     0
281
     1
  0
CLASS
  1
XRECORD
  2
AcDbXrecord
  3
AutoCAD 2000
 90
    32768
280
     0
281
     0
  0
ENDSEC
  0
SECTION
  2
TABLES
  0
TABLE
  2
VPORT
  5
7
330
0
100
AcDbSymbolTable
 70
     2
  0
VPORT
  5
104D
330
7
100
AcDbSymbolTableRecord
100
AcDbViewportTableRecord
  2
*ACTIVE
 70
     0
 10
0.0
 20
0.0
 11
1.0
 21
1.0
 12
228.3534136753863
 22
297.000001383014
 13
0.0
 23
0.0
 14
1.0
 24
1.0
 15
0.0
 25
0.0
 16
0.0
 26
0.0
 36
1.0
 17
0.0
 27
0.0
 37
0.0
 40
601.1004228510313
 41
1.780442804428044
 42
50.0
 43
0.0
 44
0.0
 50
0.0
 51
0.0
 71
     0
 72
   100
 73
     1
 74
     1
 75
     0
 76
     0
 77
     0
 78
     0
  0
ENDTAB
  0
TABLE
  2
LTYPE
  5
4
330
0
100
AcDbSymbolTable
 70
     4
  0
LTYPE
  5
11
330
4
100
AcDbSymbolTableRecord
100
AcDbLinetypeTableRecord
  2
BYBLOCK
 70
     0
  3

 72
    65
 73
     0
 40
0.0
  0
LTYPE
  5
12
330
4
100
AcDbSymbolTableRecord
100
AcDbLinetypeTableRecord
  2
BYLAYER
 70
     0
  3

 72
    65
 73
     0
 40
0.0
  0
LTYPE
  5
13
330
4
100
AcDbSymbolTableRecord
100
AcDbLinetypeTableRecord
  2
CONTINUOUS
 70
     0
  3
Solid line
 72
    65
 73
     0
 40
0.0
  0
LTYPE
  5
21
330
4
100
AcDbSymbolTableRecord
100
AcDbLinetypeTableRecord
  2
DASHED2
 70
     0
  3
CADPAC FUSION LINETYPE
 72
    65
 73
     2
 40
13.365
 49
8.91
 74
     0
 49
-4.455
 74
     0
  0
LTYPE
  5
632
330
4
100
AcDbSymbolTableRecord
100
AcDbLinetypeTableRecord
  2
CENTER2
 70
     0
  3
Center (.5x) ___ _ ___ _ ___ _ ___ _ ___ _ ___
 72
    65
 73
     4
 40
28.57499999999999
 49
19.05
 74
     0
 49
-3.174999999999998
 74
     0
 49
3.174999999999998
 74
     0
 49
-3.174999999999998
 74
     0
  0
LTYPE
  5
633
330
4
100
AcDbSymbolTableRecord
100
AcDbLinetypeTableRecord
  2
PHANTOM2
 70
     0
  3
Phantom (.5x) ___ _ _ ___ _ _ ___ _ _ ___ _ _
 72
    65
 73
     6
 40
31.75
 49
15.875
 74
     0
 49
-3.174999999999998
 74
     0
 49
3.174999999999998
 74
     0
 49
-3.174999999999998
 74
     0
 49
3.174999999999998
 74
     0
 49
-3.174999999999998
 74
     0
  0
ENDTAB
  0
TABLE
  2
LAYER
  5
2
102
{ACAD_XDICTIONARY
360
B8E
102
}
330
0
100
AcDbSymbolTable
 70
    13
  0
LAYER
  5
14
330
2
100
AcDbSymbolTableRecord
100
AcDbLayerTableRecord
  2
0
 70
     0
 62
     7
  6
CONTINUOUS
  0
LAYER
  5
634
330
2
100
AcDbSymbolTableRecord
100
AcDbLayerTableRecord
  2
DEFPOINTS
 70
     0
 62
     7
  6
CONTINUOUS
  0
LAYER
  5
637
330
2
100
AcDbSymbolTableRecord
100
AcDbLayerTableRecord
  2
03
 70
     0
 62
     3
  6
CONTINUOUS
  0
LAYER
  5
638
330
2
100
AcDbSymbolTableRecord
100
AcDbLayerTableRecord
  2
04
 70
     0
 62
     4
  6
CONTINUOUS
  0
LAYER
  5
63A
330
2
100
AcDbSymbolTableRecord
100
AcDbLayerTableRecord
  2
06
 70
     0
 62
     6
  6
CONTINUOUS
  0
LAYER
  5
63C
330
2
100
AcDbSymbolTableRecord
100
AcDbLayerTableRecord
  2
CHUSIN
 70
     0
 62
     6
  6
CENTER2
  0
LAYER
  5
63D
330
2
100
AcDbSymbolTableRecord
100
AcDbLayerTableRecord
  2
HIKIDASI
 70
     0
 62
     6
  6
CONTINUOUS
  0
LAYER
  5
63E
330
2
100
AcDbSymbolTableRecord
100
AcDbLayerTableRecord
  2
KAKURE
 70
     0
 62
     6
  6
DASHED2
  0
LAYER
  5
63F
330
2
100
AcDbSymbolTableRecord
100
AcDbLayerTableRecord
  2
MOJI
 70
     0
 62
     3
  6
CONTINUOUS
  0
LAYER
  5
640
330
2
100
AcDbSymbolTableRecord
100
AcDbLayerTableRecord
  2
SOUZOU
 70
     0
 62
     6
  6
PHANTOM2
  0
LAYER
  5
641
330
2
100
AcDbSymbolTableRecord
100
AcDbLayerTableRecord
  2
SUNPOU
 70
     0
 62
     6
  6
CONTINUOUS
  0
LAYER
  5
D25
330
2
100
AcDbSymbolTableRecord
100
AcDbLayerTableRecord
  2
02
 70
     0
 62
     2
  6
CONTINUOUS
  0
LAYER
  5
D5F
330
2
100
AcDbSymbolTableRecord
100
AcDbLayerTableRecord
  2
SAISEN
 70
     0
 62
     3
  6
CONTINUOUS
  0
ENDTAB
  0
TABLE
  2
STYLE
  5
3
330
0
100
AcDbSymbolTable
 70
     4
  0
STYLE
  5
17
330
3
100
AcDbSymbolTableRecord
100
AcDbTextStyleTableRecord
  2
STANDARD
 70
     0
 40
0.0
 41
0.8
 50
0.0
 71
     0
 42
6.0
  3
txt.shx
  4
bigfont.shx
  0
STYLE
  5
64C
330
3
100
AcDbSymbolTableRecord
100
AcDbTextStyleTableRecord
  2
SUNPOU
 70
     0
 40
0.0
 41
0.8
 50
0.0
 71
     0
 42
0.2
  3
txt.shx
  4
extfont.shx
  0
STYLE
  5
657
330
3
100
AcDbSymbolTableRecord
100
AcDbTextStyleTableRecord
  2
0_8
 70
     0
 40
0.0
 41
0.8
 50
0.0
 71
     0
 42
2.5
  3
txt.shx
  4
extfont.shx
  0
STYLE
  5
FED
330
3
100
AcDbSymbolTableRecord
100
AcDbTextStyleTableRecord
  2
0_80
 70
     0
 40
0.0
 41
0.8
 50
0.0
 71
     0
 42
7.0
  3
txt.shx
  4
extfont.shx
  0
ENDTAB
  0
TABLE
  2
VIEW
  5
5
330
0
100
AcDbSymbolTable
 70
     1
  0
VIEW
  5
135
330
5
100
AcDbSymbolTableRecord
100
AcDbViewTableRecord
  2
QQQQ
 70
     0
 40
591.9537434094904
 10
-8.154035419764767
 20
0.8523725834798483
 41
402.5604182776802
 11
0.0
 21
0.0
 31
1.0
 12
100.0
 22
100.0
 32
0.0
 42
50.0
 43
0.0
 44
0.0
 50
0.0
 71
     0
  0
ENDTAB
  0
TABLE
  2
UCS
  5
6
330
0
100
AcDbSymbolTable
 70
     0
  0
ENDTAB
  0
TABLE
  2
APPID
  5
8
330
0
100
AcDbSymbolTable
 70
     3
  0
APPID
  5
16
330
8
100
AcDbSymbolTableRecord
100
AcDbRegAppTableRecord
  2
ACAD
 70
     0
  0
APPID
  5
FAC
330
8
100
AcDbSymbolTableRecord
100
AcDbRegAppTableRecord
  2
CONTENTBLOCKICON
 70
     0
  0
APPID
  5
1012
330
8
100
AcDbSymbolTableRecord
100
AcDbRegAppTableRecord
  2
DCO15
 70
     0
  0
ENDTAB
  0
TABLE
  2
DIMSTYLE
  5
9
330
0
100
AcDbSymbolTable
 70
     2
  0
DIMSTYLE
105
18
330
9
100
AcDbSymbolTableRecord
100
AcDbDimStyleTableRecord
  2
STANDARD
 70
     0
  3

  4

  5

  6

  7

 40
1.0
 41
0.18
 42
0.0625
 43
0.38
 44
0.18
 45
0.0
 46
0.0
 47
0.0
 48
0.0
140
0.18
141
0.09
142
0.0
143
25.4
144
1.0
145
0.0
146
1.0
147
0.09
 71
     0
 72
     0
 73
     1
 74
     1
 75
     0
 76
     0
 77
     0
 78
     0
170
     0
171
     2
172
     0
173
     0
174
     0
175
     0
176
     0
177
     0
178
     0
270
     2
271
     4
272
     4
273
     2
274
     2
340
17
275
     0
280
     0
281
     0
282
     0
283
     1
284
     0
285
     0
286
     0
287
     3
288
     0
  0
DIMSTYLE
105
64D
102
{ACAD_REACTORS
330
6A8
330
6C2
330
6CF
330
6EB
330
6FA
330
707
330
716
330
723
330
732
330
73F
330
75B
330
768
330
777
330
784
330
791
330
7DF
330
7EE
330
803
330
830
330
927
330
B3F
330
67B
330
67D
330
67F
330
681
330
685
330
687
330
D51
330
F0A
102
}
330
9
100
AcDbSymbolTableRecord
100
AcDbDimStyleTableRecord
  2
SUNPOU_2
 70
     0
  3

  4

  5
OPEN30
  6

  7

 40
2.0
 41
2.5
 42
1.5
 43
0.0
 44
1.0
 45
0.0
 46
0.0
 47
0.0
 48
0.0
140
2.5
141
0.0
142
0.0
143
25.4
144
1.0
145
0.0
146
1.0
147
1.0
 71
     0
 72
     0
 73
     0
 74
     0
 75
     0
 76
     0
 77
     1
 78
     8
170
     0
171
     2
172
     1
173
     0
174
     0
175
     0
176
   256
177
   256
178
     6
270
     2
271
     1
272
     1
273
     2
274
     2
340
64C
275
     0
280
     0
281
     0
282
     0
283
     1
284
     0
285
     0
286
     0
287
     3
288
     0
  0
ENDTAB
  0
TABLE
  2
BLOCK_RECORD
  5
1
330
0
100
AcDbSymbolTable
 70
    25
  0
BLOCK_RECORD
  5
A
102
{ACAD_XDICTIONARY
360
FA8
102
}
330
1
100
AcDbSymbolTableRecord
100
AcDbBlockTableRecord
  2
*MODEL_SPACE
  0
BLOCK_RECORD
  5
B
102
{ACAD_XDICTIONARY
360
FAA
102
}
330
1
100
AcDbSymbolTableRecord
100
AcDbBlockTableRecord
  2
*PAPER_SPACE
  0
BLOCK_RECORD
  5
646
330
1
100
AcDbSymbolTableRecord
100
AcDbBlockTableRecord
  2
_OPEN30
1001
CONTENTBLOCKICON
1071
        0
1004
2800000020000000200000000100080000000000000400000000000000000000000000000000000000000000000080000080000000808000800000008000800080800000C0C0C000C0DCC000F0CAA6000020400000206000002080000020A0000020C0000020E00000400000004020000040400000406000004080000040A0
1004
000040C0000040E00000600000006020000060400000606000006080000060A0000060C0000060E00000800000008020000080400000806000008080000080A0000080C0000080E00000A0000000A0200000A0400000A0600000A0800000A0A00000A0C00000A0E00000C0000000C0200000C0400000C0600000C0800000C0
1004
A00000C0C00000C0E00000E0000000E0200000E0400000E0600000E0800000E0A00000E0C00000E0E00040000000400020004000400040006000400080004000A0004000C0004000E00040200000402020004020400040206000402080004020A0004020C0004020E000404000004040200040404000404060004040800040
1004
40A0004040C0004040E00040600000406020004060400040606000406080004060A0004060C0004060E00040800000408020004080400040806000408080004080A0004080C0004080E00040A0000040A0200040A0400040A0600040A0800040A0A00040A0C00040A0E00040C0000040C0200040C0400040C0600040C08000
1004
40C0A00040C0C00040C0E00040E0000040E0200040E0400040E0600040E0800040E0A00040E0C00040E0E00080000000800020008000400080006000800080008000A0008000C0008000E00080200000802020008020400080206000802080008020A0008020C0008020E00080400000804020008040400080406000804080
1004
008040A0008040C0008040E00080600000806020008060400080606000806080008060A0008060C0008060E00080800000808020008080400080806000808080008080A0008080C0008080E00080A0000080A0200080A0400080A0600080A0800080A0A00080A0C00080A0E00080C0000080C0200080C0400080C0600080C0
1004
800080C0A00080C0C00080C0E00080E0000080E0200080E0400080E0600080E0800080E0A00080E0C00080E0E000C0000000C0002000C0004000C0006000C0008000C000A000C000C000C000E000C0200000C0202000C0204000C0206000C0208000C020A000C020C000C020E000C0400000C0402000C0404000C0406000C0
1004
408000C040A000C040C000C040E000C0600000C0602000C0604000C0606000C0608000C060A000C060C000C060E000C0800000C0802000C0804000C0806000C0808000C080A000C080C000C080E000C0A00000C0A02000C0A04000C0A06000C0A08000C0A0A000C0A0C000C0A0E000C0C00000C0C02000C0C04000C0C06000
1004
C0C08000C0C0A000F0FBFF00A4A0A000808080000000FF0000FF000000FFFF00FF000000FF00FF00FFFF0000FFFFFF0000000000000000000000000000000000000000000000000000000000000000000000000000000000000000000000000000000000000000000000000000000000000000000000000000000000000000
1004
00000000000000000000000000000000000000000000000000000000000000000000000000000000000000000000000000000000000000000000000000000000000000000000000000000000000000000000000000000000000000000000000000000000000000000000000000000000000000000000000000000000000000
1004
000000000000000000000000000000000000000000000000000000000000000000000000000000000000000000000000000000FFFF0000000000000000000000000000000000000000000000000000000000000000FFFFFFFF0000000000000000000000000000000000000000000000000000000000000000FFFFFFFF0000
1004
000000000000000000000000000000000000000000000000000000000000FFFFFF0000000000000000000000000000000000000000000000000000000000000000FFFFFFFF0000000000000000000000000000000000000000000000000000000000000000FFFFFF0000000000000000000000000000000000000000000000
1004
000000000000000000FFFFFFFF0000000000000000000000000000000000000000000000000000000000000000FFFFFFFF00000000FFFFFFFFFFFFFFFFFFFFFFFFFFFFFFFFFFFFFFFFFFFFFFFFFFFFFFFFFFFF00000000000000000000000000000000000000000000000000FFFFFFFF000000000000000000000000000000
1004
000000000000000000FFFFFFFF000000000000000000000000000000000000000000000000FFFFFFFF000000000000000000000000000000000000000000000000FFFFFFFF000000000000000000000000000000000000000000000000FFFFFFFF000000000000000000000000000000000000000000000000FFFFFFFF0000
1004
0000000000000000000000000000000000000000000000FFFFFF0000000000000000000000000000000000000000000000000000000000000000000000000000000000000000000000000000000000000000000000000000000000000000000000000000000000000000000000000000000000000000000000000000000000
1004
00000000000000000000000000000000000000000000000000000000000000000000000000000000000000000000000000000000000000000000000000000000000000000000000000000000000000000000000000000000000000000000000000000000000000000000000000000000000000000000000000000000000000
1004
0000000000000000000000000000000000000000000000000000000000000000000000000000000000000000000000000000000000000000
  0
BLOCK_RECORD
  5
6A9
330
1
100
AcDbSymbolTableRecord
100
AcDbBlockTableRecord
  2
*D1
  0
BLOCK_RECORD
  5
6C3
330
1
100
AcDbSymbolTableRecord
100
AcDbBlockTableRecord
  2
*D2
  0
BLOCK_RECORD
  5
6D0
330
1
100
AcDbSymbolTableRecord
100
AcDbBlockTableRecord
  2
*D3
  0
BLOCK_RECORD
  5
6EC
330
1
100
AcDbSymbolTableRecord
100
AcDbBlockTableRecord
  2
*D4
  0
BLOCK_RECORD
  5
6FB
330
1
100
AcDbSymbolTableRecord
100
AcDbBlockTableRecord
  2
*D5
  0
BLOCK_RECORD
  5
708
330
1
100
AcDbSymbolTableRecord
100
AcDbBlockTableRecord
  2
*D6
  0
BLOCK_RECORD
  5
717
330
1
100
AcDbSymbolTableRecord
100
AcDbBlockTableRecord
  2
*D7
  0
BLOCK_RECORD
  5
724
330
1
100
AcDbSymbolTableRecord
100
AcDbBlockTableRecord
  2
*D8
  0
BLOCK_RECORD
  5
733
330
1
100
AcDbSymbolTableRecord
100
AcDbBlockTableRecord
  2
*D9
  0
BLOCK_RECORD
  5
740
330
1
100
AcDbSymbolTableRecord
100
AcDbBlockTableRecord
  2
*D10
  0
BLOCK_RECORD
  5
75C
330
1
100
AcDbSymbolTableRecord
100
AcDbBlockTableRecord
  2
*D11
  0
BLOCK_RECORD
  5
769
330
1
100
AcDbSymbolTableRecord
100
AcDbBlockTableRecord
  2
*D12
  0
BLOCK_RECORD
  5
778
330
1
100
AcDbSymbolTableRecord
100
AcDbBlockTableRecord
  2
*D13
  0
BLOCK_RECORD
  5
785
330
1
100
AcDbSymbolTableRecord
100
AcDbBlockTableRecord
  2
*D14
  0
BLOCK_RECORD
  5
792
330
1
100
AcDbSymbolTableRecord
100
AcDbBlockTableRecord
  2
*D15
  0
BLOCK_RECORD
  5
7E0
330
1
100
AcDbSymbolTableRecord
100
AcDbBlockTableRecord
  2
*D16
  0
BLOCK_RECORD
  5
7EF
330
1
100
AcDbSymbolTableRecord
100
AcDbBlockTableRecord
  2
*D17
  0
BLOCK_RECORD
  5
804
330
1
100
AcDbSymbolTableRecord
100
AcDbBlockTableRecord
  2
*D18
  0
BLOCK_RECORD
  5
831
330
1
100
AcDbSymbolTableRecord
100
AcDbBlockTableRecord
  2
*D19
  0
BLOCK_RECORD
  5
928
330
1
100
AcDbSymbolTableRecord
100
AcDbBlockTableRecord
  2
*D20
  0
BLOCK_RECORD
  5
B40
330
1
100
AcDbSymbolTableRecord
100
AcDbBlockTableRecord
  2
*D21
  0
BLOCK_RECORD
  5
D52
330
1
100
AcDbSymbolTableRecord
100
AcDbBlockTableRecord
  2
*D22
  0
BLOCK_RECORD
  5
F0B
330
1
100
AcDbSymbolTableRecord
100
AcDbBlockTableRecord
  2
*D23
  0
BLOCK_RECORD
  5
FB7
330
1
100
AcDbSymbolTableRecord
100
AcDbBlockTableRecord
  2
*X24
  0
ENDTAB
  0
ENDSEC
  0
SECTION
  2
BLOCKS
  0
BLOCK
  5
D
330
A
100
AcDbEntity
  8
0
100
AcDbBlockBegin
  2
*MODEL_SPACE
 70
     0
 10
0.0
 20
0.0
 30
0.0
  3
*MODEL_SPACE
  1

  0
ENDBLK
  5
E
330
A
100
AcDbEntity
  8
0
100
AcDbBlockEnd
  0
BLOCK
  5
F
330
B
100
AcDbEntity
 67
     1
  8
0
100
AcDbBlockBegin
  2
*PAPER_SPACE
 70
     0
 10
0.0
 20
0.0
 30
0.0
  3
*PAPER_SPACE
  1

  0
ENDBLK
  5
10
330
B
100
AcDbEntity
 67
     1
  8
0
100
AcDbBlockEnd
  0
BLOCK
  5
64A
330
646
100
AcDbEntity
  8
0
100
AcDbBlockBegin
  2
_OPEN30
 70
     0
 10
0.0
 20
0.0
 30
0.0
  3
_OPEN30
  1

  0
LINE
  5
647
330
646
100
AcDbEntity
  8
0
  6
BYBLOCK
 62
     0
100
AcDbLine
 10
-1.0
 20
0.26794919
 30
0.0
 11
0.0
 21
0.0
 31
0.0
  0
LINE
  5
648
330
646
100
AcDbEntity
  8
0
  6
BYBLOCK
 62
     0
100
AcDbLine
 10
0.0
 20
0.0
 30
0.0
 11
-1.0
 21
-0.26794919
 31
0.0
  0
LINE
  5
649
330
646
100
AcDbEntity
  8
0
  6
BYBLOCK
 62
     0
100
AcDbLine
 10
0.0
 20
0.0
 30
0.0
 11
-1.0
 21
0.0
 31
0.0
  0
ENDBLK
  5
64B
330
646
100
AcDbEntity
  8
0
100
AcDbBlockEnd
  0
BLOCK
  5
6B3
330
6A9
100
AcDbEntity
  8
0
100
AcDbBlockBegin
  2
*D1
 70
     1
 10
0.0
 20
0.0
 30
0.0
  3
*D1
  1

  0
LINE
  5
EAC
330
6A9
100
AcDbEntity
  8
SUNPOU
100
AcDbLine
 10
137.8203325672569
 20
471.4983266026488
 30
0.0
 11
114.4874678923887
 21
471.4983266026488
 31
0.0
  0
LINE
  5
EAD
330
6A9
100
AcDbEntity
  8
SUNPOU
100
AcDbLine
 10
137.8203325672569
 20
421.498326602647
 30
0.0
 11
114.4874678923887
 21
421.4983266026472
 31
0.0
  0
LINE
  5
EAE
330
6A9
100
AcDbEntity
  8
SUNPOU
100
AcDbLine
 10
116.4874678923887
 20
466.498326602649
 30
0.0
 11
116.4874678923887
 21
426.4983266026471
 31
0.0
  0
MTEXT
  5
EAF
330
6A9
100
AcDbEntity
  8
SUNPOU
 62
     6
100
AcDbMText
 10
111.9874678923887
 20
438.498326602648
 30
0.0
 40
5.0
 41
0.0
 71
     5
 72
     1
  1
\A1;50
  7
SUNPOU
 11
0.0000000000000001
 21
1.0
 31
0.0
1001
ACAD
1000
MTEXTBEGIN
1070
    73
1070
     1
1070
    44
1040
1.0
1070
    74
1070
     0
1000
MTEXTEND
1000
MTEXTBEGIN
1070
    73
1070
     1
1070
    44
1040
1.0
1070
    74
1070
     0
1000
MTEXTEND
  0
INSERT
  5
EB0
330
6A9
100
AcDbEntity
  8
SUNPOU
100
AcDbBlockReference
  2
_OPEN30
 10
116.4874678923887
 20
471.4983266026488
 30
0.0
 41
5.0
 42
5.0
 43
5.0
 50
90.0
  0
INSERT
  5
EB1
330
6A9
100
AcDbEntity
  8
SUNPOU
100
AcDbBlockReference
  2
_OPEN30
 10
116.4874678923887
 20
421.4983266026472
 30
0.0
 41
5.0
 42
5.0
 43
5.0
 50
270.0
  0
POINT
  5
EB2
330
6A9
100
AcDbEntity
  8
DEFPOINTS
 62
     0
100
AcDbPoint
 10
140.8203325672569
 20
471.4983266026488
 30
0.0
  0
POINT
  5
EB3
330
6A9
100
AcDbEntity
  8
DEFPOINTS
 62
     0
100
AcDbPoint
 10
140.8203325672569
 20
421.498326602647
 30
0.0
  0
POINT
  5
EB4
330
6A9
100
AcDbEntity
  8
DEFPOINTS
 62
     0
100
AcDbPoint
 10
116.4874678923887
 20
421.4983266026472
 30
0.0
  0
ENDBLK
  5
6B4
330
6A9
100
AcDbEntity
  8
0
100
AcDbBlockEnd
  0
BLOCK
  5
6CD
330
6C3
100
AcDbEntity
  8
0
100
AcDbBlockBegin
  2
*D2
 70
     1
 10
0.0
 20
0.0
 30
0.0
  3
*D2
  1

  0
LINE
  5
EA3
330
6C3
100
AcDbEntity
  8
SUNPOU
100
AcDbLine
 10
137.8203325672569
 20
421.498326602647
 30
0.0
 11
97.68365553602814
 21
421.4983266026472
 31
0.0
  0
LINE
  5
EA4
330
6C3
100
AcDbEntity
  8
SUNPOU
100
AcDbLine
 10
134.8293497363795
 20
241.498326602647
 30
0.0
 11
97.6836555360281
 21
241.498326602647
 31
0.0
  0
LINE
  5
EA5
330
6C3
100
AcDbEntity
  8
SUNPOU
100
AcDbLine
 10
99.68365553602815
 20
416.4983266026472
 30
0.0
 11
99.6836555360281
 21
246.4983266026471
 31
0.0
  0
MTEXT
  5
EA6
330
6C3
100
AcDbEntity
  8
SUNPOU
 62
     6
100
AcDbMText
 10
94.22928771353554
 20
343.2603933337341
 30
0.0
 40
5.0
 41
0.0
 71
     5
 72
     1
  1
\A1;180
  7
SUNPOU
 11
0.0000000000000001
 21
1.0
 31
0.0
1001
ACAD
1000
MTEXTBEGIN
1070
    73
1070
     1
1070
    44
1040
1.0
1070
    74
1070
     0
1000
MTEXTEND
1000
MTEXTBEGIN
1070
    73
1070
     1
1070
    44
1040
1.0
1070
    74
1070
     0
1000
MTEXTEND
  0
INSERT
  5
EA7
330
6C3
100
AcDbEntity
  8
SUNPOU
100
AcDbBlockReference
  2
_OPEN30
 10
99.68365553602815
 20
421.4983266026472
 30
0.0
 41
5.0
 42
5.0
 43
5.0
 50
90.0
  0
INSERT
  5
EA8
330
6C3
100
AcDbEntity
  8
SUNPOU
100
AcDbBlockReference
  2
_OPEN30
 10
99.6836555360281
 20
241.498326602647
 30
0.0
 41
5.0
 42
5.0
 43
5.0
 50
270.0
  0
POINT
  5
EA9
330
6C3
100
AcDbEntity
  8
DEFPOINTS
 62
     0
100
AcDbPoint
 10
140.8203325672569
 20
421.498326602647
 30
0.0
  0
POINT
  5
EAA
330
6C3
100
AcDbEntity
  8
DEFPOINTS
 62
     0
100
AcDbPoint
 10
137.8293497363795
 20
241.498326602647
 30
0.0
  0
POINT
  5
EAB
330
6C3
100
AcDbEntity
  8
DEFPOINTS
 62
     0
100
AcDbPoint
 10
99.6836555360281
 20
241.498326602647
 30
0.0
  0
ENDBLK
  5
6CE
330
6C3
100
AcDbEntity
  8
0
100
AcDbBlockEnd
  0
BLOCK
  5
6DA
330
6D0
100
AcDbEntity
  8
0
100
AcDbBlockBegin
  2
*D3
 70
     1
 10
0.0
 20
0.0
 30
0.0
  3
*D3
  1

  0
LINE
  5
EB5
330
6D0
100
AcDbEntity
  8
SUNPOU
100
AcDbLine
 10
178.781825621987
 20
306.4983339614518
 30
0.0
 11
114.4874678923887
 21
306.4983339614518
 31
0.0
  0
LINE
  5
EB6
330
6D0
100
AcDbEntity
  8
SUNPOU
100
AcDbLine
 10
134.8293497363795
 20
241.498326602647
 30
0.0
 11
114.4874678923887
 21
241.498326602647
 31
0.0
  0
LINE
  5
EB7
330
6D0
100
AcDbEntity
  8
SUNPOU
100
AcDbLine
 10
116.4874678923887
 20
301.4983339614518
 30
0.0
 11
116.4874678923887
 21
246.4983266026471
 31
0.0
  0
INSERT
  5
EB8
330
6D0
100
AcDbEntity
  8
SUNPOU
100
AcDbBlockReference
  2
_OPEN30
 10
116.4874678923887
 20
306.4983339614518
 30
0.0
 41
5.0
 42
5.0
 43
5.0
 50
90.0
  0
INSERT
  5
EB9
330
6D0
100
AcDbEntity
  8
SUNPOU
100
AcDbBlockReference
  2
_OPEN30
 10
116.4874678923887
 20
241.498326602647
 30
0.0
 41
5.0
 42
5.0
 43
5.0
 50
270.0
  0
MTEXT
  5
EBA
330
6D0
100
AcDbEntity
  8
SUNPOU
 62
     6
100
AcDbMText
 10
111.9874678923887
 20
273.9983302820494
 30
0.0
 40
5.0
 41
0.0
 71
     5
 72
     1
  1
\A1;65
  7
SUNPOU
 11
0.0000000000000001
 21
1.0
 31
0.0
1001
ACAD
1000
MTEXTBEGIN
1070
    73
1070
     1
1070
    44
1040
1.0
1070
    74
1070
     0
1000
MTEXTEND
1000
MTEXTBEGIN
1070
    73
1070
     1
1070
    44
1040
1.0
1070
    74
1070
     0
1000
MTEXTEND
  0
POINT
  5
EBB
330
6D0
100
AcDbEntity
  8
DEFPOINTS
 62
     0
100
AcDbPoint
 10
181.781825621987
 20
306.4983339614518
 30
0.0
  0
POINT
  5
EBC
330
6D0
100
AcDbEntity
  8
DEFPOINTS
 62
     0
100
AcDbPoint
 10
137.8293497363795
 20
241.498326602647
 30
0.0
  0
POINT
  5
EBD
330
6D0
100
AcDbEntity
  8
DEFPOINTS
 62
     0
100
AcDbPoint
 10
116.4874678923887
 20
241.498326602647
 30
0.0
  0
ENDBLK
  5
6DB
330
6D0
100
AcDbEntity
  8
0
100
AcDbBlockEnd
  0
BLOCK
  5
6F8
330
6EC
100
AcDbEntity
  8
0
100
AcDbBlockBegin
  2
*D4
 70
     1
 10
0.0
 20
0.0
 30
0.0
  3
*D4
  1

  0
LINE
  5
BE2
330
6EC
100
AcDbEntity
  8
SUNPOU
100
AcDbLine
 10
136.2293497363795
 20
240.0983266026471
 30
0.0
 11
136.2293497363795
 21
212.3959093457068
 31
0.0
  0
LINE
  5
BE3
330
6EC
100
AcDbEntity
  8
SUNPOU
100
AcDbLine
 10
139.2293497363795
 20
238.4983266026471
 30
0.0
 11
139.2293497363795
 21
212.3959093457068
 31
0.0
  0
LINE
  5
BE4
330
6EC
100
AcDbEntity
  8
SUNPOU
100
AcDbLine
 10
131.2293497363795
 20
214.3959093457068
 30
0.0
 11
126.2293497363795
 21
214.3959093457068
 31
0.0
  0
LINE
  5
BE5
330
6EC
100
AcDbEntity
  8
SUNPOU
100
AcDbLine
 10
144.2293497363795
 20
214.3959093457068
 30
0.0
 11
149.2293497363796
 21
214.3959093457068
 31
0.0
  0
MTEXT
  5
BE6
330
6EC
100
AcDbEntity
  8
SUNPOU
 62
     6
100
AcDbMText
 10
129.6670600457813
 20
220.2642059267224
 30
0.0
 40
5.0
 41
0.0
 71
     5
 72
     1
  1
\A1;3
  7
SUNPOU
1001
ACAD
1000
MTEXTBEGIN
1070
    73
1070
     1
1070
    44
1040
1.0
1070
    74
1070
     0
1000
MTEXTEND
1000
MTEXTBEGIN
1070
    73
1070
     1
1070
    44
1040
1.0
1070
    74
1070
     0
1000
MTEXTEND
  0
LINE
  5
BE7
330
6EC
100
AcDbEntity
  8
SUNPOU
100
AcDbLine
 10
136.2293497363795
 20
214.3959093457068
 30
0.0
 11
139.2293497363795
 21
214.3959093457068
 31
0.0
  0
INSERT
  5
BE8
330
6EC
100
AcDbEntity
  8
SUNPOU
100
AcDbBlockReference
  2
_OPEN30
 10
136.2293497363795
 20
214.3959093457068
 30
0.0
 41
5.0
 42
5.0
 43
5.0
  0
INSERT
  5
BE9
330
6EC
100
AcDbEntity
  8
SUNPOU
100
AcDbBlockReference
  2
_OPEN30
 10
139.2293497363795
 20
214.3959093457068
 30
0.0
 41
5.0
 42
5.0
 43
5.0
 50
180.0
  0
POINT
  5
BEA
330
6EC
100
AcDbEntity
  8
DEFPOINTS
 62
     0
100
AcDbPoint
 10
136.2293497363795
 20
243.098326602647
 30
0.0
  0
POINT
  5
BEB
330
6EC
100
AcDbEntity
  8
DEFPOINTS
 62
     0
100
AcDbPoint
 10
139.2293497363795
 20
241.498326602647
 30
0.0
  0
POINT
  5
BEC
330
6EC
100
AcDbEntity
  8
DEFPOINTS
 62
     0
100
AcDbPoint
 10
139.2293497363795
 20
214.3959093457068
 30
0.0
  0
ENDBLK
  5
6F9
330
6EC
100
AcDbEntity
  8
0
100
AcDbBlockEnd
  0
BLOCK
  5
705
330
6FB
100
AcDbEntity
  8
0
100
AcDbBlockBegin
  2
*D5
 70
     1
 10
0.0
 20
0.0
 30
0.0
  3
*D5
  1

  0
LINE
  5
BED
330
6FB
100
AcDbEntity
  8
SUNPOU
100
AcDbLine
 10
139.2293497363795
 20
238.4983266026471
 30
0.0
 11
139.2293497363795
 21
212.3959093457068
 31
0.0
  0
LINE
  5
BEE
330
6FB
100
AcDbEntity
  8
SUNPOU
100
AcDbLine
 10
196.2293497363796
 20
217.3959093457066
 30
0.0
 11
196.2293497363796
 21
216.3959093457068
 31
0.0
  0
LINE
  5
BEF
330
6FB
100
AcDbEntity
  8
SUNPOU
100
AcDbLine
 10
144.2293497363795
 20
214.3959093457068
 30
0.0
 11
191.2293497363796
 21
214.3959093457068
 31
0.0
  0
INSERT
  5
BF0
330
6FB
100
AcDbEntity
  8
SUNPOU
100
AcDbBlockReference
  2
_OPEN30
 10
139.2293497363795
 20
214.3959093457068
 30
0.0
 41
5.0
 42
5.0
 43
5.0
 50
180.0
  0
INSERT
  5
BF1
330
6FB
100
AcDbEntity
  8
SUNPOU
100
AcDbBlockReference
  2
_OPEN30
 10
196.2293497363796
 20
214.3959093457068
 30
0.0
 41
5.0
 42
5.0
 43
5.0
  0
MTEXT
  5
BF2
330
6FB
100
AcDbEntity
  8
SUNPOU
 62
     6
100
AcDbMText
 10
167.7293497363795
 20
218.8959093457067
 30
0.0
 40
5.0
 41
0.0
 71
     5
 72
     1
  1
\A1;57
  7
SUNPOU
1001
ACAD
1000
MTEXTBEGIN
1070
    73
1070
     1
1070
    44
1040
1.0
1070
    74
1070
     0
1000
MTEXTEND
1000
MTEXTBEGIN
1070
    73
1070
     1
1070
    44
1040
1.0
1070
    74
1070
     0
1000
MTEXTEND
  0
POINT
  5
BF3
330
6FB
100
AcDbEntity
  8
DEFPOINTS
 62
     0
100
AcDbPoint
 10
139.2293497363795
 20
241.498326602647
 30
0.0
  0
POINT
  5
BF4
330
6FB
100
AcDbEntity
  8
DEFPOINTS
 62
     0
100
AcDbPoint
 10
196.2293497363796
 20
214.3959093457068
 30
0.0
  0
POINT
  5
BF5
330
6FB
100
AcDbEntity
  8
DEFPOINTS
 62
     0
100
AcDbPoint
 10
196.2293497363796
 20
214.3959093457068
 30
0.0
  0
ENDBLK
  5
706
330
6FB
100
AcDbEntity
  8
0
100
AcDbBlockEnd
  0
BLOCK
  5
714
330
708
100
AcDbEntity
  8
0
100
AcDbBlockBegin
  2
*D6
 70
     1
 10
0.0
 20
0.0
 30
0.0
  3
*D6
  1

  0
LINE
  5
BF6
330
708
100
AcDbEntity
  8
SUNPOU
100
AcDbLine
 10
196.2293497363796
 20
217.3959093457066
 30
0.0
 11
196.2293497363796
 21
216.3959093457068
 31
0.0
  0
LINE
  5
BF7
330
708
100
AcDbEntity
  8
SUNPOU
100
AcDbLine
 10
201.2293497363796
 20
217.3959093457066
 30
0.0
 11
201.2293497363796
 21
216.3959093457068
 31
0.0
  0
LINE
  5
BF8
330
708
100
AcDbEntity
  8
SUNPOU
100
AcDbLine
 10
191.2293497363796
 20
214.3959093457068
 30
0.0
 11
186.2293497363795
 21
214.3959093457068
 31
0.0
  0
LINE
  5
BF9
330
708
100
AcDbEntity
  8
SUNPOU
100
AcDbLine
 10
206.2293497363795
 20
214.3959093457068
 30
0.0
 11
211.2293497363796
 21
214.3959093457068
 31
0.0
  0
MTEXT
  5
BFA
330
708
100
AcDbEntity
  8
SUNPOU
 62
     6
100
AcDbMText
 10
198.6234051858406
 20
220.1252476686538
 30
0.0
 40
5.0
 41
0.0
 71
     5
 72
     1
  1
\A1;5
  7
SUNPOU
1001
ACAD
1000
MTEXTBEGIN
1070
    73
1070
     1
1070
    44
1040
1.0
1070
    74
1070
     0
1000
MTEXTEND
1000
MTEXTBEGIN
1070
    73
1070
     1
1070
    44
1040
1.0
1070
    74
1070
     0
1000
MTEXTEND
  0
LINE
  5
BFB
330
708
100
AcDbEntity
  8
SUNPOU
100
AcDbLine
 10
196.2293497363796
 20
214.3959093457068
 30
0.0
 11
201.2293497363796
 21
214.3959093457068
 31
0.0
  0
INSERT
  5
BFC
330
708
100
AcDbEntity
  8
SUNPOU
100
AcDbBlockReference
  2
_OPEN30
 10
196.2293497363796
 20
214.3959093457068
 30
0.0
 41
5.0
 42
5.0
 43
5.0
  0
INSERT
  5
BFD
330
708
100
AcDbEntity
  8
SUNPOU
100
AcDbBlockReference
  2
_OPEN30
 10
201.2293497363796
 20
214.3959093457068
 30
0.0
 41
5.0
 42
5.0
 43
5.0
 50
180.0
  0
POINT
  5
BFE
330
708
100
AcDbEntity
  8
DEFPOINTS
 62
     0
100
AcDbPoint
 10
196.2293497363796
 20
214.3959093457068
 30
0.0
  0
POINT
  5
BFF
330
708
100
AcDbEntity
  8
DEFPOINTS
 62
     0
100
AcDbPoint
 10
201.2293497363796
 20
214.3959093457068
 30
0.0
  0
POINT
  5
C00
330
708
100
AcDbEntity
  8
DEFPOINTS
 62
     0
100
AcDbPoint
 10
201.2293497363796
 20
214.3959093457068
 30
0.0
  0
ENDBLK
  5
715
330
708
100
AcDbEntity
  8
0
100
AcDbBlockEnd
  0
BLOCK
  5
721
330
717
100
AcDbEntity
  8
0
100
AcDbBlockBegin
  2
*D7
 70
     1
 10
0.0
 20
0.0
 30
0.0
  3
*D7
  1

  0
LINE
  5
C01
330
717
100
AcDbEntity
  8
SUNPOU
100
AcDbLine
 10
201.2293497363796
 20
217.3959093457066
 30
0.0
 11
201.2293497363796
 21
216.3959093457068
 31
0.0
  0
LINE
  5
C02
330
717
100
AcDbEntity
  8
SUNPOU
100
AcDbLine
 10
246.2293497363794
 20
211.3959093457068
 30
0.0
 11
246.2293497363794
 21
212.3959093457068
 31
0.0
  0
LINE
  5
C03
330
717
100
AcDbEntity
  8
SUNPOU
100
AcDbLine
 10
206.2293497363795
 20
214.3959093457068
 30
0.0
 11
241.2293497363795
 21
214.3959093457068
 31
0.0
  0
INSERT
  5
C04
330
717
100
AcDbEntity
  8
SUNPOU
100
AcDbBlockReference
  2
_OPEN30
 10
201.2293497363796
 20
214.3959093457068
 30
0.0
 41
5.0
 42
5.0
 43
5.0
 50
180.0
  0
INSERT
  5
C05
330
717
100
AcDbEntity
  8
SUNPOU
100
AcDbBlockReference
  2
_OPEN30
 10
246.2293497363794
 20
214.3959093457068
 30
0.0
 41
5.0
 42
5.0
 43
5.0
  0
MTEXT
  5
C06
330
717
100
AcDbEntity
  8
SUNPOU
 62
     6
100
AcDbMText
 10
223.7293497363796
 20
218.8959093457067
 30
0.0
 40
5.0
 41
0.0
 71
     5
 72
     1
  1
\A1;45
  7
SUNPOU
1001
ACAD
1000
MTEXTBEGIN
1070
    73
1070
     1
1070
    44
1040
1.0
1070
    74
1070
     0
1000
MTEXTEND
1000
MTEXTBEGIN
1070
    73
1070
     1
1070
    44
1040
1.0
1070
    74
1070
     0
1000
MTEXTEND
  0
POINT
  5
C07
330
717
100
AcDbEntity
  8
DEFPOINTS
 62
     0
100
AcDbPoint
 10
201.2293497363796
 20
214.3959093457068
 30
0.0
  0
POINT
  5
C08
330
717
100
AcDbEntity
  8
DEFPOINTS
 62
     0
100
AcDbPoint
 10
246.2293497363794
 20
214.3959093457068
 30
0.0
  0
POINT
  5
C09
330
717
100
AcDbEntity
  8
DEFPOINTS
 62
     0
100
AcDbPoint
 10
246.2293497363794
 20
214.3959093457068
 30
0.0
  0
ENDBLK
  5
722
330
717
100
AcDbEntity
  8
0
100
AcDbBlockEnd
  0
BLOCK
  5
730
330
724
100
AcDbEntity
  8
0
100
AcDbBlockBegin
  2
*D8
 70
     1
 10
0.0
 20
0.0
 30
0.0
  3
*D8
  1

  0
LINE
  5
D6E
330
724
100
AcDbEntity
  8
SUNPOU
100
AcDbLine
 10
246.2293497363794
 20
211.3959093457068
 30
0.0
 11
246.2293497363794
 21
212.3959093457068
 31
0.0
  0
LINE
  5
D6F
330
724
100
AcDbEntity
  8
SUNPOU
100
AcDbLine
 10
251.2293497363796
 20
240.0983266026471
 30
0.0
 11
251.2293497363796
 21
212.3959093457068
 31
0.0
  0
LINE
  5
D70
330
724
100
AcDbEntity
  8
SUNPOU
100
AcDbLine
 10
241.2293497363795
 20
214.3959093457068
 30
0.0
 11
236.2293497363796
 21
214.3959093457068
 31
0.0
  0
LINE
  5
D71
330
724
100
AcDbEntity
  8
SUNPOU
100
AcDbLine
 10
256.2293497363795
 20
214.3959093457068
 30
0.0
 11
261.2293497363795
 21
214.3959093457068
 31
0.0
  0
MTEXT
  5
D72
330
724
100
AcDbEntity
  8
SUNPOU
 62
     6
100
AcDbMText
 10
248.8536614711216
 20
219.9619660509764
 30
0.0
 40
5.0
 41
0.0
 71
     5
 72
     1
  1
\A1;5
  7
SUNPOU
1001
ACAD
1000
MTEXTBEGIN
1070
    73
1070
     1
1070
    44
1040
1.0
1070
    74
1070
     0
1000
MTEXTEND
1000
MTEXTBEGIN
1070
    73
1070
     1
1070
    44
1040
1.0
1070
    74
1070
     0
1000
MTEXTEND
  0
LINE
  5
D73
330
724
100
AcDbEntity
  8
SUNPOU
100
AcDbLine
 10
246.2293497363794
 20
214.3959093457068
 30
0.0
 11
251.2293497363796
 21
214.3959093457068
 31
0.0
  0
INSERT
  5
D74
330
724
100
AcDbEntity
  8
SUNPOU
100
AcDbBlockReference
  2
_OPEN30
 10
246.2293497363794
 20
214.3959093457068
 30
0.0
 41
5.0
 42
5.0
 43
5.0
  0
INSERT
  5
D75
330
724
100
AcDbEntity
  8
SUNPOU
100
AcDbBlockReference
  2
_OPEN30
 10
251.2293497363796
 20
214.3959093457068
 30
0.0
 41
5.0
 42
5.0
 43
5.0
 50
180.0
  0
POINT
  5
D76
330
724
100
AcDbEntity
  8
DEFPOINTS
 62
     0
100
AcDbPoint
 10
246.2293497363794
 20
214.3959093457068
 30
0.0
  0
POINT
  5
D77
330
724
100
AcDbEntity
  8
DEFPOINTS
 62
     0
100
AcDbPoint
 10
251.2293497363796
 20
243.098326602647
 30
0.0
  0
POINT
  5
D78
330
724
100
AcDbEntity
  8
DEFPOINTS
 62
     0
100
AcDbPoint
 10
251.2293497363796
 20
214.3959093457068
 30
0.0
  0
ENDBLK
  5
731
330
724
100
AcDbEntity
  8
0
100
AcDbBlockEnd
  0
BLOCK
  5
73D
330
733
100
AcDbEntity
  8
0
100
AcDbBlockBegin
  2
*D9
 70
     1
 10
0.0
 20
0.0
 30
0.0
  3
*D9
  1

  0
LINE
  5
D79
330
733
100
AcDbEntity
  8
SUNPOU
100
AcDbLine
 10
251.2293497363796
 20
240.0983266026471
 30
0.0
 11
251.2293497363796
 21
212.3959093457068
 31
0.0
  0
LINE
  5
D7A
330
733
100
AcDbEntity
  8
SUNPOU
100
AcDbLine
 10
330.2293497363796
 20
244.298326602647
 30
0.0
 11
330.2293497363796
 21
212.3959093457068
 31
0.0
  0
LINE
  5
D7B
330
733
100
AcDbEntity
  8
SUNPOU
100
AcDbLine
 10
256.2293497363795
 20
214.3959093457068
 30
0.0
 11
325.2293497363796
 21
214.3959093457068
 31
0.0
  0
INSERT
  5
D7C
330
733
100
AcDbEntity
  8
SUNPOU
100
AcDbBlockReference
  2
_OPEN30
 10
251.2293497363796
 20
214.3959093457068
 30
0.0
 41
5.0
 42
5.0
 43
5.0
 50
180.0
  0
INSERT
  5
D7D
330
733
100
AcDbEntity
  8
SUNPOU
100
AcDbBlockReference
  2
_OPEN30
 10
330.2293497363796
 20
214.3959093457068
 30
0.0
 41
5.0
 42
5.0
 43
5.0
  0
MTEXT
  5
D7E
330
733
100
AcDbEntity
  8
SUNPOU
 62
     6
100
AcDbMText
 10
290.7293497363795
 20
218.8959093457067
 30
0.0
 40
5.0
 41
0.0
 71
     5
 72
     1
  1
\A1;79
  7
SUNPOU
1001
ACAD
1000
MTEXTBEGIN
1070
    73
1070
     1
1070
    44
1040
1.0
1070
    74
1070
     0
1000
MTEXTEND
1000
MTEXTBEGIN
1070
    73
1070
     1
1070
    44
1040
1.0
1070
    74
1070
     0
1000
MTEXTEND
  0
POINT
  5
D7F
330
733
100
AcDbEntity
  8
DEFPOINTS
 62
     0
100
AcDbPoint
 10
251.2293497363796
 20
243.098326602647
 30
0.0
  0
POINT
  5
D80
330
733
100
AcDbEntity
  8
DEFPOINTS
 62
     0
100
AcDbPoint
 10
330.2293497363796
 20
247.2983266026471
 30
0.0
  0
POINT
  5
D81
330
733
100
AcDbEntity
  8
DEFPOINTS
 62
     0
100
AcDbPoint
 10
330.2293497363796
 20
214.3959093457068
 30
0.0
  0
ENDBLK
  5
73E
330
733
100
AcDbEntity
  8
0
100
AcDbBlockEnd
  0
BLOCK
  5
74C
330
740
100
AcDbEntity
  8
0
100
AcDbBlockBegin
  2
*D10
 70
     1
 10
0.0
 20
0.0
 30
0.0
  3
*D10
  1

  0
LINE
  5
C1E
330
740
100
AcDbEntity
  8
SUNPOU
100
AcDbLine
 10
333.2293497363796
 20
244.298326602647
 30
0.0
 11
333.2293497363796
 21
199.3638819124296
 31
0.0
  0
LINE
  5
C1F
330
740
100
AcDbEntity
  8
SUNPOU
100
AcDbLine
 10
330.2293497363796
 20
244.298326602647
 30
0.0
 11
330.2293497363796
 21
199.3638819124296
 31
0.0
  0
LINE
  5
C20
330
740
100
AcDbEntity
  8
SUNPOU
100
AcDbLine
 10
338.2293497363796
 20
201.3638819124297
 30
0.0
 11
343.2293497363796
 21
201.3638819124297
 31
0.0
  0
LINE
  5
C21
330
740
100
AcDbEntity
  8
SUNPOU
100
AcDbLine
 10
325.2293497363796
 20
201.3638819124297
 30
0.0
 11
320.2293497363796
 21
201.3638819124297
 31
0.0
  0
MTEXT
  5
C22
330
740
100
AcDbEntity
  8
SUNPOU
 62
     6
100
AcDbMText
 10
336.9496701244103
 20
207.2989609478764
 30
0.0
 40
5.0
 41
0.0
 71
     5
 72
     1
  1
\A1;3
  7
SUNPOU
1001
ACAD
1000
MTEXTBEGIN
1070
    73
1070
     1
1070
    44
1040
1.0
1070
    74
1070
     0
1000
MTEXTEND
1000
MTEXTBEGIN
1070
    73
1070
     1
1070
    44
1040
1.0
1070
    74
1070
     0
1000
MTEXTEND
  0
LINE
  5
C23
330
740
100
AcDbEntity
  8
SUNPOU
100
AcDbLine
 10
333.2293497363796
 20
201.3638819124297
 30
0.0
 11
330.2293497363796
 21
201.3638819124297
 31
0.0
  0
INSERT
  5
C24
330
740
100
AcDbEntity
  8
SUNPOU
100
AcDbBlockReference
  2
_OPEN30
 10
333.2293497363796
 20
201.3638819124297
 30
0.0
 41
5.0
 42
5.0
 43
5.0
 50
180.0
  0
INSERT
  5
C25
330
740
100
AcDbEntity
  8
SUNPOU
100
AcDbBlockReference
  2
_OPEN30
 10
330.2293497363796
 20
201.3638819124297
 30
0.0
 41
5.0
 42
5.0
 43
5.0
  0
POINT
  5
C26
330
740
100
AcDbEntity
  8
DEFPOINTS
 62
     0
100
AcDbPoint
 10
333.2293497363796
 20
247.2983266026471
 30
0.0
  0
POINT
  5
C27
330
740
100
AcDbEntity
  8
DEFPOINTS
 62
     0
100
AcDbPoint
 10
330.2293497363796
 20
247.2983266026471
 30
0.0
  0
POINT
  5
C28
330
740
100
AcDbEntity
  8
DEFPOINTS
 62
     0
100
AcDbPoint
 10
330.2293497363796
 20
201.3638819124297
 30
0.0
  0
ENDBLK
  5
74D
330
740
100
AcDbEntity
  8
0
100
AcDbBlockEnd
  0
BLOCK
  5
766
330
75C
100
AcDbEntity
  8
0
100
AcDbBlockBegin
  2
*D11
 70
     1
 10
0.0
 20
0.0
 30
0.0
  3
*D11
  1

  0
LINE
  5
CF2
330
75C
100
AcDbEntity
  8
SUNPOU
100
AcDbLine
 10
330.2293497363796
 20
244.298326602647
 30
0.0
 11
330.2293497363796
 21
199.3638819124296
 31
0.0
  0
LINE
  5
CF3
330
75C
100
AcDbEntity
  8
SUNPOU
100
AcDbLine
 10
136.2293497363795
 20
240.0983266026471
 30
0.0
 11
136.2293497363795
 21
199.3638819124296
 31
0.0
  0
LINE
  5
CF4
330
75C
100
AcDbEntity
  8
SUNPOU
100
AcDbLine
 10
325.2293497363796
 20
201.3638819124297
 30
0.0
 11
141.2293497363795
 21
201.3638819124297
 31
0.0
  0
MTEXT
  5
CF5
330
75C
100
AcDbEntity
  8
SUNPOU
 62
     6
100
AcDbMText
 10
223.7293497363796
 20
205.8638819124297
 30
0.0
 40
5.0
 41
0.0
 71
     5
 72
     1
  1
\A1;194
  7
SUNPOU
1001
ACAD
1000
MTEXTBEGIN
1070
    73
1070
     1
1070
    44
1040
1.0
1070
    74
1070
     0
1000
MTEXTEND
1000
MTEXTBEGIN
1070
    73
1070
     1
1070
    44
1040
1.0
1070
    74
1070
     0
1000
MTEXTEND
  0
INSERT
  5
CF6
330
75C
100
AcDbEntity
  8
SUNPOU
100
AcDbBlockReference
  2
_OPEN30
 10
330.2293497363796
 20
201.3638819124297
 30
0.0
 41
5.0
 42
5.0
 43
5.0
  0
INSERT
  5
CF7
330
75C
100
AcDbEntity
  8
SUNPOU
100
AcDbBlockReference
  2
_OPEN30
 10
136.2293497363795
 20
201.3638819124297
 30
0.0
 41
5.0
 42
5.0
 43
5.0
 50
180.0
  0
POINT
  5
CF8
330
75C
100
AcDbEntity
  8
DEFPOINTS
 62
     0
100
AcDbPoint
 10
330.2293497363796
 20
247.2983266026471
 30
0.0
  0
POINT
  5
CF9
330
75C
100
AcDbEntity
  8
DEFPOINTS
 62
     0
100
AcDbPoint
 10
136.2293497363795
 20
243.098326602647
 30
0.0
  0
POINT
  5
CFA
330
75C
100
AcDbEntity
  8
DEFPOINTS
 62
     0
100
AcDbPoint
 10
136.2293497363795
 20
201.3638819124297
 30
0.0
  0
ENDBLK
  5
767
330
75C
100
AcDbEntity
  8
0
100
AcDbBlockEnd
  0
BLOCK
  5
775
330
769
100
AcDbEntity
  8
0
100
AcDbBlockBegin
  2
*D12
 70
     1
 10
0.0
 20
0.0
 30
0.0
  3
*D12
  1

  0
LINE
  5
DA0
330
769
100
AcDbEntity
  8
SUNPOU
100
AcDbLine
 10
136.2293497363795
 20
240.0983266026471
 30
0.0
 11
136.2293497363795
 21
199.3638819124296
 31
0.0
  0
LINE
  5
DA1
330
769
100
AcDbEntity
  8
SUNPOU
100
AcDbLine
 10
133.2293497363795
 20
204.3638819124296
 30
0.0
 11
133.2293497363795
 21
203.3638819124298
 31
0.0
  0
LINE
  5
DA2
330
769
100
AcDbEntity
  8
SUNPOU
100
AcDbLine
 10
141.2293497363795
 20
201.3638819124297
 30
0.0
 11
146.2293497363796
 21
201.3638819124297
 31
0.0
  0
LINE
  5
DA3
330
769
100
AcDbEntity
  8
SUNPOU
100
AcDbLine
 10
128.2293497363795
 20
201.3638819124297
 30
0.0
 11
123.2293497363796
 21
201.3638819124297
 31
0.0
  0
MTEXT
  5
DA4
330
769
100
AcDbEntity
  8
SUNPOU
 62
     6
100
AcDbMText
 10
129.7829208987955
 20
207.3066645955156
 30
0.0
 40
5.0
 41
0.0
 71
     5
 72
     1
  1
\A1;3
  7
SUNPOU
1001
ACAD
1000
MTEXTBEGIN
1070
    73
1070
     1
1070
    44
1040
1.0
1070
    74
1070
     0
1000
MTEXTEND
1000
MTEXTBEGIN
1070
    73
1070
     1
1070
    44
1040
1.0
1070
    74
1070
     0
1000
MTEXTEND
  0
LINE
  5
DA5
330
769
100
AcDbEntity
  8
SUNPOU
100
AcDbLine
 10
136.2293497363795
 20
201.3638819124297
 30
0.0
 11
133.2293497363795
 21
201.3638819124297
 31
0.0
  0
INSERT
  5
DA6
330
769
100
AcDbEntity
  8
SUNPOU
100
AcDbBlockReference
  2
_OPEN30
 10
136.2293497363795
 20
201.3638819124297
 30
0.0
 41
5.0
 42
5.0
 43
5.0
 50
180.0
  0
INSERT
  5
DA7
330
769
100
AcDbEntity
  8
SUNPOU
100
AcDbBlockReference
  2
_OPEN30
 10
133.2293497363795
 20
201.3638819124297
 30
0.0
 41
5.0
 42
5.0
 43
5.0
  0
POINT
  5
DA8
330
769
100
AcDbEntity
  8
DEFPOINTS
 62
     0
100
AcDbPoint
 10
136.2293497363795
 20
243.098326602647
 30
0.0
  0
POINT
  5
DA9
330
769
100
AcDbEntity
  8
DEFPOINTS
 62
     0
100
AcDbPoint
 10
133.2293497363795
 20
201.3638819124297
 30
0.0
  0
POINT
  5
DAA
330
769
100
AcDbEntity
  8
DEFPOINTS
 62
     0
100
AcDbPoint
 10
133.2293497363795
 20
201.3638819124297
 30
0.0
  0
ENDBLK
  5
776
330
769
100
AcDbEntity
  8
0
100
AcDbBlockEnd
  0
BLOCK
  5
782
330
778
100
AcDbEntity
  8
0
100
AcDbBlockBegin
  2
*D13
 70
     1
 10
0.0
 20
0.0
 30
0.0
  3
*D13
  1

  0
LINE
  5
CFB
330
778
100
AcDbEntity
  8
SUNPOU
100
AcDbLine
 10
133.2293497363794
 20
190.3293908304391
 30
0.0
 11
133.2293497363794
 21
189.3293908304391
 31
0.0
  0
LINE
  5
CFC
330
778
100
AcDbEntity
  8
SUNPOU
100
AcDbLine
 10
333.2293497363796
 20
190.3293908304391
 30
0.0
 11
333.2293497363796
 21
189.3293908304391
 31
0.0
  0
LINE
  5
CFD
330
778
100
AcDbEntity
  8
SUNPOU
100
AcDbLine
 10
138.2293497363795
 20
187.3293908304391
 30
0.0
 11
328.2293497363796
 21
187.3293908304391
 31
0.0
  0
MTEXT
  5
CFE
330
778
100
AcDbEntity
  8
SUNPOU
 62
     6
100
AcDbMText
 10
223.7293497363796
 20
191.8293908304391
 30
0.0
 40
5.0
 41
0.0
 71
     5
 72
     1
  1
\A1;200
  7
SUNPOU
1001
ACAD
1000
MTEXTBEGIN
1070
    73
1070
     1
1070
    44
1040
1.0
1070
    74
1070
     0
1000
MTEXTEND
1000
MTEXTBEGIN
1070
    73
1070
     1
1070
    44
1040
1.0
1070
    74
1070
     0
1000
MTEXTEND
  0
INSERT
  5
CFF
330
778
100
AcDbEntity
  8
SUNPOU
100
AcDbBlockReference
  2
_OPEN30
 10
133.2293497363794
 20
187.3293908304391
 30
0.0
 41
5.0
 42
5.0
 43
5.0
 50
180.0
  0
INSERT
  5
D00
330
778
100
AcDbEntity
  8
SUNPOU
100
AcDbBlockReference
  2
_OPEN30
 10
333.2293497363796
 20
187.3293908304391
 30
0.0
 41
5.0
 42
5.0
 43
5.0
  0
POINT
  5
D01
330
778
100
AcDbEntity
  8
DEFPOINTS
 62
     0
100
AcDbPoint
 10
133.2293497363794
 20
187.3293908304391
 30
0.0
  0
POINT
  5
D02
330
778
100
AcDbEntity
  8
DEFPOINTS
 62
     0
100
AcDbPoint
 10
333.2293497363796
 20
187.3293908304391
 30
0.0
  0
POINT
  5
D03
330
778
100
AcDbEntity
  8
DEFPOINTS
 62
     0
100
AcDbPoint
 10
333.2293497363796
 20
187.3293908304391
 30
0.0
  0
ENDBLK
  5
783
330
778
100
AcDbEntity
  8
0
100
AcDbBlockEnd
  0
BLOCK
  5
78F
330
785
100
AcDbEntity
  8
0
100
AcDbBlockBegin
  2
*D14
 70
     1
 10
0.0
 20
0.0
 30
0.0
  3
*D14
  1

  0
LINE
  5
C46
330
785
100
AcDbEntity
  8
SUNPOU
100
AcDbLine
 10
331.6293497363794
 20
541.498326602647
 30
0.0
 11
376.7820197377314
 21
541.498326602647
 31
0.0
  0
LINE
  5
C47
330
785
100
AcDbEntity
  8
SUNPOU
100
AcDbLine
 10
331.6293497363794
 20
241.498326602647
 30
0.0
 11
376.7820197377313
 21
241.498326602647
 31
0.0
  0
LINE
  5
C48
330
785
100
AcDbEntity
  8
SUNPOU
100
AcDbLine
 10
374.7820197377315
 20
536.4983266026468
 30
0.0
 11
374.7820197377315
 21
246.4983266026471
 31
0.0
  0
INSERT
  5
C49
330
785
100
AcDbEntity
  8
SUNPOU
100
AcDbBlockReference
  2
_OPEN30
 10
374.7820197377315
 20
541.498326602647
 30
0.0
 41
5.0
 42
5.0
 43
5.0
 50
90.0
  0
INSERT
  5
C4A
330
785
100
AcDbEntity
  8
SUNPOU
100
AcDbBlockReference
  2
_OPEN30
 10
374.7820197377315
 20
241.498326602647
 30
0.0
 41
5.0
 42
5.0
 43
5.0
 50
270.0
  0
MTEXT
  5
C4B
330
785
100
AcDbEntity
  8
SUNPOU
 62
     6
100
AcDbMText
 10
370.2820197377314
 20
391.4983266026471
 30
0.0
 40
5.0
 41
0.0
 71
     5
 72
     1
  1
\A1;300
  7
SUNPOU
 11
0.0000000000000001
 21
1.0
 31
0.0
1001
ACAD
1000
MTEXTBEGIN
1070
    73
1070
     1
1070
    44
1040
1.0
1070
    74
1070
     0
1000
MTEXTEND
1000
MTEXTBEGIN
1070
    73
1070
     1
1070
    44
1040
1.0
1070
    74
1070
     0
1000
MTEXTEND
  0
POINT
  5
C4C
330
785
100
AcDbEntity
  8
DEFPOINTS
 62
     0
100
AcDbPoint
 10
328.6293497363796
 20
541.498326602647
 30
0.0
  0
POINT
  5
C4D
330
785
100
AcDbEntity
  8
DEFPOINTS
 62
     0
100
AcDbPoint
 10
328.6293497363796
 20
241.498326602647
 30
0.0
  0
POINT
  5
C4E
330
785
100
AcDbEntity
  8
DEFPOINTS
 62
     0
100
AcDbPoint
 10
374.7820197377315
 20
241.498326602647
 30
0.0
  0
ENDBLK
  5
790
330
785
100
AcDbEntity
  8
0
100
AcDbBlockEnd
  0
BLOCK
  5
79C
330
792
100
AcDbEntity
  8
0
100
AcDbBlockBegin
  2
*D15
 70
     1
 10
0.0
 20
0.0
 30
0.0
  3
*D15
  1

  0
LINE
  5
C4F
330
792
100
AcDbEntity
  8
SUNPOU
100
AcDbLine
 10
377.7820197377315
 20
241.498326602647
 30
0.0
 11
376.7820197377314
 21
241.498326602647
 31
0.0
  0
LINE
  5
C50
330
792
100
AcDbEntity
  8
SUNPOU
100
AcDbLine
 10
374.7820197377315
 20
236.4983266026471
 30
0.0
 11
374.7820197377315
 21
94.89832660264701
 31
0.0
  0
INSERT
  5
C51
330
792
100
AcDbEntity
  8
SUNPOU
100
AcDbBlockReference
  2
_OPEN30
 10
374.7820197377315
 20
241.498326602647
 30
0.0
 41
5.0
 42
5.0
 43
5.0
 50
90.0
  0
INSERT
  5
C52
330
792
100
AcDbEntity
  8
SUNPOU
100
AcDbBlockReference
  2
_OPEN30
 10
374.7820197377315
 20
89.89832660264697
 30
0.0
 41
5.0
 42
5.0
 43
5.0
 50
270.0
  0
MTEXT
  5
C53
330
792
100
AcDbEntity
  8
SUNPOU
 62
     6
100
AcDbMText
 10
370.2820197377314
 20
165.698326602647
 30
0.0
 40
5.0
 41
0.0
 71
     5
 72
     1
  1
\A1;H
  7
SUNPOU
 11
0.0000000000000001
 21
1.0
 31
0.0
1001
ACAD
1000
MTEXTBEGIN
1070
    73
1070
     1
1070
    44
1040
1.0
1070
    74
1070
     0
1000
MTEXTEND
1000
MTEXTBEGIN
1070
    73
1070
     1
1070
    44
1040
1.0
1070
    74
1070
     0
1000
MTEXTEND
  0
POINT
  5
C54
330
792
100
AcDbEntity
  8
DEFPOINTS
 62
     0
100
AcDbPoint
 10
374.7820197377315
 20
241.498326602647
 30
0.0
  0
POINT
  5
C55
330
792
100
AcDbEntity
  8
DEFPOINTS
 62
     0
100
AcDbPoint
 10
374.7820197377315
 20
89.89832660264697
 30
0.0
  0
POINT
  5
C56
330
792
100
AcDbEntity
  8
DEFPOINTS
 62
     0
100
AcDbPoint
 10
374.7820197377315
 20
89.89832660264697
 30
0.0
  0
ENDBLK
  5
79D
330
792
100
AcDbEntity
  8
0
100
AcDbBlockEnd
  0
BLOCK
  5
7EC
330
7E0
100
AcDbEntity
  8
0
100
AcDbBlockBegin
  2
*D16
 70
     1
 10
0.0
 20
0.0
 30
0.0
  3
*D16
  1

  0
LINE
  5
D95
330
7E0
100
AcDbEntity
  8
SUNPOU
100
AcDbLine
 10
249.2293497363796
 20
251.4983266026471
 30
0.0
 11
284.5283493308096
 21
251.4983266026471
 31
0.0
  0
LINE
  5
D96
330
7E0
100
AcDbEntity
  8
SUNPOU
100
AcDbLine
 10
279.5283493308096
 20
241.498326602647
 30
0.0
 11
280.5283493308096
 21
241.498326602647
 31
0.0
  0
LINE
  5
D97
330
7E0
100
AcDbEntity
  8
SUNPOU
100
AcDbLine
 10
282.5283493308096
 20
256.498326602647
 30
0.0
 11
282.5283493308096
 21
261.4983266026472
 31
0.0
  0
LINE
  5
D98
330
7E0
100
AcDbEntity
  8
SUNPOU
100
AcDbLine
 10
282.5283493308096
 20
236.4983266026471
 30
0.0
 11
282.5283493308096
 21
231.498326602647
 31
0.0
  0
MTEXT
  5
D99
330
7E0
100
AcDbEntity
  8
SUNPOU
 62
     6
100
AcDbMText
 10
276.884133655919
 20
246.4128168496312
 30
0.0
 40
5.0
 41
0.0
 71
     5
 72
     1
  1
\A1;10
  7
SUNPOU
 11
0.0000000000000001
 21
1.0
 31
0.0
1001
ACAD
1000
MTEXTBEGIN
1070
    73
1070
     1
1070
    44
1040
1.0
1070
    74
1070
     0
1000
MTEXTEND
1000
MTEXTBEGIN
1070
    73
1070
     1
1070
    44
1040
1.0
1070
    74
1070
     0
1000
MTEXTEND
  0
LINE
  5
D9A
330
7E0
100
AcDbEntity
  8
SUNPOU
100
AcDbLine
 10
282.5283493308096
 20
251.4983266026471
 30
0.0
 11
282.5283493308096
 21
241.498326602647
 31
0.0
  0
INSERT
  5
D9B
330
7E0
100
AcDbEntity
  8
SUNPOU
100
AcDbBlockReference
  2
_OPEN30
 10
282.5283493308096
 20
251.4983266026471
 30
0.0
 41
5.0
 42
5.0
 43
5.0
 50
270.0
  0
INSERT
  5
D9C
330
7E0
100
AcDbEntity
  8
SUNPOU
100
AcDbBlockReference
  2
_OPEN30
 10
282.5283493308096
 20
241.498326602647
 30
0.0
 41
5.0
 42
5.0
 43
5.0
 50
90.0
  0
POINT
  5
D9D
330
7E0
100
AcDbEntity
  8
DEFPOINTS
 62
     0
100
AcDbPoint
 10
246.2293497363794
 20
251.4983266026471
 30
0.0
  0
POINT
  5
D9E
330
7E0
100
AcDbEntity
  8
DEFPOINTS
 62
     0
100
AcDbPoint
 10
282.5283493308096
 20
241.498326602647
 30
0.0
  0
POINT
  5
D9F
330
7E0
100
AcDbEntity
  8
DEFPOINTS
 62
     0
100
AcDbPoint
 10
282.5283493308096
 20
241.498326602647
 30
0.0
  0
ENDBLK
  5
7ED
330
7E0
100
AcDbEntity
  8
0
100
AcDbBlockEnd
  0
BLOCK
  5
7F9
330
7EF
100
AcDbEntity
  8
0
100
AcDbBlockBegin
  2
*D17
 70
     1
 10
0.0
 20
0.0
 30
0.0
  3
*D17
  1

  0
LINE
  5
D8D
330
7EF
100
AcDbEntity
  8
SUNPOU
100
AcDbLine
 10
249.2293497363796
 20
251.4983266026471
 30
0.0
 11
360.2573746113288
 21
251.498326602647
 31
0.0
  0
LINE
  5
D8E
330
7EF
100
AcDbEntity
  8
SUNPOU
100
AcDbLine
 10
358.2573746113289
 20
246.498326602647
 30
0.0
 11
358.2573746113288
 21
94.89832660264701
 31
0.0
  0
INSERT
  5
D8F
330
7EF
100
AcDbEntity
  8
SUNPOU
100
AcDbBlockReference
  2
_OPEN30
 10
358.2573746113289
 20
251.498326602647
 30
0.0
 41
5.0
 42
5.0
 43
5.0
 50
90.0
  0
INSERT
  5
D90
330
7EF
100
AcDbEntity
  8
SUNPOU
100
AcDbBlockReference
  2
_OPEN30
 10
358.2573746113288
 20
89.89832660264697
 30
0.0
 41
5.0
 42
5.0
 43
5.0
 50
270.0
  0
MTEXT
  5
D91
330
7EF
100
AcDbEntity
  8
SUNPOU
 62
     6
100
AcDbMText
 10
353.7573746113289
 20
170.6983266026471
 30
0.0
 40
5.0
 41
0.0
 71
     5
 72
     1
  1
\A1;DH
  7
SUNPOU
 11
0.0000000000000001
 21
1.0
 31
0.0
1001
ACAD
1000
MTEXTBEGIN
1070
    73
1070
     1
1070
    44
1040
1.0
1070
    74
1070
     0
1000
MTEXTEND
1000
MTEXTBEGIN
1070
    73
1070
     1
1070
    44
1040
1.0
1070
    74
1070
     0
1000
MTEXTEND
  0
POINT
  5
D92
330
7EF
100
AcDbEntity
  8
DEFPOINTS
 62
     0
100
AcDbPoint
 10
246.2293497363794
 20
251.4983266026471
 30
0.0
  0
POINT
  5
D93
330
7EF
100
AcDbEntity
  8
DEFPOINTS
 62
     0
100
AcDbPoint
 10
358.2573746113288
 20
89.89832660264697
 30
0.0
  0
POINT
  5
D94
330
7EF
100
AcDbEntity
  8
DEFPOINTS
 62
     0
100
AcDbPoint
 10
358.2573746113288
 20
89.89832660264697
 30
0.0
  0
ENDBLK
  5
7FA
330
7EF
100
AcDbEntity
  8
0
100
AcDbBlockEnd
  0
BLOCK
  5
80E
330
804
100
AcDbEntity
  8
0
100
AcDbBlockBegin
  2
*D18
 70
     1
 10
0.0
 20
0.0
 30
0.0
  3
*D18
  1

  0
LINE
  5
C6A
330
804
100
AcDbEntity
  8
SUNPOU
100
AcDbLine
 10
140.4004675650837
 20
126.1254915425022
 30
0.0
 11
105.0515344696089
 21
126.1254915425022
 31
0.0
  0
LINE
  5
C6B
330
804
100
AcDbEntity
  8
SUNPOU
100
AcDbLine
 10
107.0515344696089
 20
121.1254915425022
 30
0.0
 11
107.0515344696089
 21
94.89832660264701
 31
0.0
  0
INSERT
  5
C6C
330
804
100
AcDbEntity
  8
SUNPOU
100
AcDbBlockReference
  2
_OPEN30
 10
107.0515344696089
 20
126.1254915425022
 30
0.0
 41
5.0
 42
5.0
 43
5.0
 50
90.0
  0
INSERT
  5
C6D
330
804
100
AcDbEntity
  8
SUNPOU
100
AcDbBlockReference
  2
_OPEN30
 10
107.0515344696089
 20
89.89832660264697
 30
0.0
 41
5.0
 42
5.0
 43
5.0
 50
270.0
  0
MTEXT
  5
C6E
330
804
100
AcDbEntity
  8
SUNPOU
 62
     6
100
AcDbMText
 10
102.551534469609
 20
108.0119090725746
 30
0.0
 40
5.0
 41
0.0
 71
     5
 72
     1
  1
\A1;FL+600
  7
SUNPOU
 11
0.0000000000000001
 21
1.0
 31
0.0
1001
ACAD
1000
MTEXTBEGIN
1070
    73
1070
     1
1070
    44
1040
1.0
1070
    74
1070
     0
1000
MTEXTEND
1000
MTEXTBEGIN
1070
    73
1070
     1
1070
    44
1040
1.0
1070
    74
1070
     0
1000
MTEXTEND
  0
POINT
  5
C6F
330
804
100
AcDbEntity
  8
DEFPOINTS
 62
     0
100
AcDbPoint
 10
143.4004675650838
 20
126.1254915425022
 30
0.0
  0
POINT
  5
C70
330
804
100
AcDbEntity
  8
DEFPOINTS
 62
     0
100
AcDbPoint
 10
107.0515344696089
 20
89.89832660264697
 30
0.0
  0
POINT
  5
C71
330
804
100
AcDbEntity
  8
DEFPOINTS
 62
     0
100
AcDbPoint
 10
107.0515344696089
 20
89.89832660264697
 30
0.0
  0
ENDBLK
  5
80F
330
804
100
AcDbEntity
  8
0
100
AcDbBlockEnd
  0
BLOCK
  5
839
330
831
100
AcDbEntity
  8
0
100
AcDbBlockBegin
  2
*D19
 70
     1
 10
0.0
 20
0.0
 30
0.0
  3
*D19
  1

  0
LINE
  5
EE7
330
831
100
AcDbEntity
  8
SUNPOU
100
AcDbLine
 10
249.6541173261842
 20
501.1164501062272
 30
0.0
 11
253.7603092236353
 21
503.9693763410441
 31
0.0
  0
LINE
  5
EE8
330
831
100
AcDbEntity
  8
SUNPOU
100
AcDbLine
 10
216.8045821465748
 20
478.2930402276921
 30
0.0
 11
212.6983902491238
 21
475.4401139928752
 31
0.0
  0
MTEXT
  5
EE9
330
831
100
AcDbEntity
  8
SUNPOU
 62
     6
100
AcDbMText
 10
233.2293497363794
 20
489.7047451669595
 30
0.0
 40
5.0
 41
0.0
 71
     5
 72
     1
  1
\A1;φ30通線穴\P(両端)
  7
SUNPOU
 11
0.8212383794902317
 21
0.5705852469633772
 31
0.0
1001
ACAD
1000
MTEXTBEGIN
1070
    73
1070
     1
1070
    44
1040
1.0
1070
    74
1070
     0
1000
MTEXTEND
1000
MTEXTBEGIN
1070
    73
1070
     1
1070
    44
1040
1.0
1070
    74
1070
     0
1000
MTEXTEND
  0
LINE
  5
EEA
330
831
100
AcDbEntity
  8
SUNPOU
100
AcDbLine
 10
245.5479254287331
 20
498.2635238714102
 30
0.0
 11
220.9107740440261
 21
481.145966462509
 31
0.0
  0
INSERT
  5
EEB
330
831
100
AcDbEntity
  8
SUNPOU
100
AcDbBlockReference
  2
_OPEN30
 10
245.5479254287331
 20
498.2635238714102
 30
0.0
 41
5.0
 42
5.0
 43
5.0
 50
214.7910468932223
  0
INSERT
  5
EEC
330
831
100
AcDbEntity
  8
SUNPOU
100
AcDbBlockReference
  2
_OPEN30
 10
220.9107740440261
 20
481.145966462509
 30
0.0
 41
5.0
 42
5.0
 43
5.0
 50
34.79104689322245
  0
POINT
  5
EED
330
831
100
AcDbEntity
  8
DEFPOINTS
 62
     0
100
AcDbPoint
 10
220.9107740440261
 20
481.145966462509
 30
0.0
  0
POINT
  5
EEE
330
831
100
AcDbEntity
  8
DEFPOINTS
 62
     0
100
AcDbPoint
 10
245.5479254287331
 20
498.2635238714102
 30
0.0
  0
ENDBLK
  5
83A
330
831
100
AcDbEntity
  8
0
100
AcDbBlockEnd
  0
BLOCK
  5
932
330
928
100
AcDbEntity
  8
0
100
AcDbBlockBegin
  2
*D20
 70
     1
 10
0.0
 20
0.0
 30
0.0
  3
*D20
  1

  0
LINE
  5
E91
330
928
100
AcDbEntity
  8
SUNPOU
100
AcDbLine
 10
137.8203325672569
 20
421.498326602647
 30
0.0
 11
114.6105344593556
 21
421.4983266026472
 31
0.0
  0
LINE
  5
E92
330
928
100
AcDbEntity
  8
SUNPOU
100
AcDbLine
 10
137.8203325672569
 20
371.4983266026453
 30
0.0
 11
114.6105344593556
 21
371.4983266026453
 31
0.0
  0
LINE
  5
E93
330
928
100
AcDbEntity
  8
SUNPOU
100
AcDbLine
 10
116.6105344593556
 20
416.4983266026472
 30
0.0
 11
116.6105344593556
 21
376.4983266026453
 31
0.0
  0
MTEXT
  5
E94
330
928
100
AcDbEntity
  8
SUNPOU
 62
     6
100
AcDbMText
 10
111.0068960163678
 20
388.1818234471581
 30
0.0
 40
5.0
 41
0.0
 71
     5
 72
     1
  1
\A1;50
  7
SUNPOU
 11
0.0000000000000001
 21
1.0
 31
0.0
1001
ACAD
1000
MTEXTBEGIN
1070
    73
1070
     1
1070
    44
1040
1.0
1070
    74
1070
     0
1000
MTEXTEND
1000
MTEXTBEGIN
1070
    73
1070
     1
1070
    44
1040
1.0
1070
    74
1070
     0
1000
MTEXTEND
  0
INSERT
  5
E95
330
928
100
AcDbEntity
  8
SUNPOU
100
AcDbBlockReference
  2
_OPEN30
 10
116.6105344593556
 20
421.4983266026472
 30
0.0
 41
5.0
 42
5.0
 43
5.0
 50
90.0
  0
INSERT
  5
E96
330
928
100
AcDbEntity
  8
SUNPOU
100
AcDbBlockReference
  2
_OPEN30
 10
116.6105344593556
 20
371.4983266026453
 30
0.0
 41
5.0
 42
5.0
 43
5.0
 50
270.0
  0
POINT
  5
E97
330
928
100
AcDbEntity
  8
DEFPOINTS
 62
     0
100
AcDbPoint
 10
140.8203325672569
 20
421.498326602647
 30
0.0
  0
POINT
  5
E98
330
928
100
AcDbEntity
  8
DEFPOINTS
 62
     0
100
AcDbPoint
 10
140.8203325672569
 20
371.4983266026453
 30
0.0
  0
POINT
  5
E99
330
928
100
AcDbEntity
  8
DEFPOINTS
 62
     0
100
AcDbPoint
 10
116.6105344593556
 20
371.4983266026453
 30
0.0
  0
ENDBLK
  5
933
330
928
100
AcDbEntity
  8
0
100
AcDbBlockEnd
  0
BLOCK
  5
B4A
330
B40
100
AcDbEntity
  8
0
100
AcDbBlockBegin
  2
*D21
 70
     1
 10
0.0
 20
0.0
 30
0.0
  3
*D21
  1

  0
LINE
  5
F01
330
B40
100
AcDbEntity
  8
SUNPOU
  6
CONTINUOUS
100
AcDbLine
 10
150.3293497363794
 20
508.398326602647
 30
0.0
 11
150.3293497363794
 21
513.1272921709719
 31
0.0
  0
LINE
  5
F02
330
B40
100
AcDbEntity
  8
SUNPOU
  6
CONTINUOUS
100
AcDbLine
 10
321.3293497363796
 20
431.2983266026466
 30
0.0
 11
321.3293497363796
 21
513.1272921709719
 31
0.0
  0
LINE
  5
F03
330
B40
100
AcDbEntity
  8
SUNPOU
  6
CONTINUOUS
100
AcDbLine
 10
155.3293497363795
 20
511.1272921709718
 30
0.0
 11
316.3293497363795
 21
511.1272921709718
 31
0.0
  0
INSERT
  5
F04
330
B40
100
AcDbEntity
  8
SUNPOU
  6
CONTINUOUS
100
AcDbBlockReference
  2
_OPEN30
 10
150.3293497363794
 20
511.1272921709718
 30
0.0
 41
5.0
 42
5.0
 43
5.0
 50
180.0
  0
INSERT
  5
F05
330
B40
100
AcDbEntity
  8
SUNPOU
  6
CONTINUOUS
100
AcDbBlockReference
  2
_OPEN30
 10
321.3293497363796
 20
511.1272921709718
 30
0.0
 41
5.0
 42
5.0
 43
5.0
  0
MTEXT
  5
F06
330
B40
100
AcDbEntity
  8
SUNPOU
  6
CONTINUOUS
 62
     6
100
AcDbMText
 10
235.8293497363795
 20
515.6272921709719
 30
0.0
 40
5.0
 41
0.0
 71
     5
 72
     1
  1
\A1;171
  7
SUNPOU
1001
ACAD
1000
MTEXTBEGIN
1070
    73
1070
     1
1070
    44
1040
1.0
1070
    74
1070
     0
1000
MTEXTEND
1000
MTEXTBEGIN
1070
    73
1070
     1
1070
    44
1040
1.0
1070
    74
1070
     0
1000
MTEXTEND
  0
POINT
  5
F07
330
B40
100
AcDbEntity
  8
DEFPOINTS
  6
CONTINUOUS
 62
     0
100
AcDbPoint
 10
150.3293497363794
 20
505.398326602647
 30
0.0
  0
POINT
  5
F08
330
B40
100
AcDbEntity
  8
DEFPOINTS
  6
CONTINUOUS
 62
     0
100
AcDbPoint
 10
321.3293497363796
 20
428.2983266026467
 30
0.0
  0
POINT
  5
F09
330
B40
100
AcDbEntity
  8
DEFPOINTS
  6
CONTINUOUS
 62
     0
100
AcDbPoint
 10
321.3293497363796
 20
511.1272921709718
 30
0.0
  0
ENDBLK
  5
B4B
330
B40
100
AcDbEntity
  8
0
100
AcDbBlockEnd
  0
BLOCK
  5
D5C
330
D52
100
AcDbEntity
  8
0
100
AcDbBlockBegin
  2
*D22
 70
     1
 10
0.0
 20
0.0
 30
0.0
  3
*D22
  1

  0
LINE
  5
F4B
330
D52
100
AcDbEntity
  8
SUNPOU
  6
CONTINUOUS
100
AcDbLine
 10
196.3293497363795
 20
321.5983266026471
 30
0.0
 11
196.3293497363795
 21
361.9069828408647
 31
0.0
  0
LINE
  5
F4C
330
D52
100
AcDbEntity
  8
SUNPOU
  6
CONTINUOUS
100
AcDbLine
 10
223.3293497363795
 20
358.5221752799701
 30
0.0
 11
223.3293497363795
 21
361.9069828408647
 31
0.0
  0
LINE
  5
F4D
330
D52
100
AcDbEntity
  8
SUNPOU
  6
CONTINUOUS
100
AcDbLine
 10
201.3293497363795
 20
359.9069828408647
 30
0.0
 11
218.3293497363795
 21
359.9069828408647
 31
0.0
  0
INSERT
  5
F4E
330
D52
100
AcDbEntity
  8
SUNPOU
  6
CONTINUOUS
100
AcDbBlockReference
  2
_OPEN30
 10
196.3293497363795
 20
359.9069828408647
 30
0.0
 41
5.0
 42
5.0
 43
5.0
 50
180.0
  0
INSERT
  5
F4F
330
D52
100
AcDbEntity
  8
SUNPOU
  6
CONTINUOUS
100
AcDbBlockReference
  2
_OPEN30
 10
223.3293497363795
 20
359.9069828408647
 30
0.0
 41
5.0
 42
5.0
 43
5.0
  0
MTEXT
  5
F50
330
D52
100
AcDbEntity
  8
SUNPOU
  6
CONTINUOUS
 62
     6
100
AcDbMText
 10
209.8293497363795
 20
364.4069828408647
 30
0.0
 40
5.0
 41
0.0
 71
     5
 72
     1
  1
\A1;27
  7
SUNPOU
1001
ACAD
1000
MTEXTBEGIN
1070
    73
1070
     1
1070
    44
1040
1.0
1070
    74
1070
     0
1000
MTEXTEND
1000
MTEXTBEGIN
1070
    73
1070
     1
1070
    44
1040
1.0
1070
    74
1070
     0
1000
MTEXTEND
  0
POINT
  5
F51
330
D52
100
AcDbEntity
  8
DEFPOINTS
  6
CONTINUOUS
 62
     0
100
AcDbPoint
 10
196.3293497363795
 20
318.598326602647
 30
0.0
  0
POINT
  5
F52
330
D52
100
AcDbEntity
  8
DEFPOINTS
  6
CONTINUOUS
 62
     0
100
AcDbPoint
 10
223.3293497363795
 20
355.5221752799701
 30
0.0
  0
POINT
  5
F53
330
D52
100
AcDbEntity
  8
DEFPOINTS
  6
CONTINUOUS
 62
     0
100
AcDbPoint
 10
223.3293497363795
 20
359.9069828408647
 30
0.0
  0
ENDBLK
  5
D5D
330
D52
100
AcDbEntity
  8
0
100
AcDbBlockEnd
  0
BLOCK
  5
F15
330
F0B
100
AcDbEntity
  8
0
100
AcDbBlockBegin
  2
*D23
 70
     1
 10
0.0
 20
0.0
 30
0.0
  3
*D23
  1

  0
LINE
  5
F54
330
F0B
100
AcDbEntity
  8
SUNPOU
  6
CONTINUOUS
100
AcDbLine
 10
150.3293497363794
 20
343.1652134520143
 30
0.0
 11
150.3293497363794
 21
361.9069828408647
 31
0.0
  0
LINE
  5
F55
330
F0B
100
AcDbEntity
  8
SUNPOU
  6
CONTINUOUS
100
AcDbLine
 10
196.3293497363795
 20
321.5983266026471
 30
0.0
 11
196.3293497363795
 21
361.9069828408647
 31
0.0
  0
LINE
  5
F56
330
F0B
100
AcDbEntity
  8
SUNPOU
  6
CONTINUOUS
100
AcDbLine
 10
155.3293497363795
 20
359.9069828408647
 30
0.0
 11
191.3293497363795
 21
359.9069828408647
 31
0.0
  0
INSERT
  5
F57
330
F0B
100
AcDbEntity
  8
SUNPOU
  6
CONTINUOUS
100
AcDbBlockReference
  2
_OPEN30
 10
150.3293497363794
 20
359.9069828408647
 30
0.0
 41
5.0
 42
5.0
 43
5.0
 50
180.0
  0
INSERT
  5
F58
330
F0B
100
AcDbEntity
  8
SUNPOU
  6
CONTINUOUS
100
AcDbBlockReference
  2
_OPEN30
 10
196.3293497363795
 20
359.9069828408647
 30
0.0
 41
5.0
 42
5.0
 43
5.0
  0
MTEXT
  5
F59
330
F0B
100
AcDbEntity
  8
SUNPOU
  6
CONTINUOUS
 62
     6
100
AcDbMText
 10
173.3293497363795
 20
364.4069828408647
 30
0.0
 40
5.0
 41
0.0
 71
     5
 72
     1
  1
\A1;46
  7
SUNPOU
1001
ACAD
1000
MTEXTBEGIN
1070
    73
1070
     1
1070
    44
1040
1.0
1070
    74
1070
     0
1000
MTEXTEND
1000
MTEXTBEGIN
1070
    73
1070
     1
1070
    44
1040
1.0
1070
    74
1070
     0
1000
MTEXTEND
  0
POINT
  5
F5A
330
F0B
100
AcDbEntity
  8
DEFPOINTS
  6
CONTINUOUS
 62
     0
100
AcDbPoint
 10
150.3293497363794
 20
340.1652134520143
 30
0.0
  0
POINT
  5
F5B
330
F0B
100
AcDbEntity
  8
DEFPOINTS
  6
CONTINUOUS
 62
     0
100
AcDbPoint
 10
196.3293497363795
 20
318.598326602647
 30
0.0
  0
POINT
  5
F5C
330
F0B
100
AcDbEntity
  8
DEFPOINTS
  6
CONTINUOUS
 62
     0
100
AcDbPoint
 10
196.3293497363795
 20
359.9069828408647
 30
0.0
  0
ENDBLK
  5
F16
330
F0B
100
AcDbEntity
  8
0
100
AcDbBlockEnd
  0
BLOCK
  5
FD1
330
FB7
100
AcDbEntity
  8
0
100
AcDbBlockBegin
  2
*X24
 70
     1
 10
0.0
 20
0.0
 30
0.0
  3
*X24
  1

  0
LINE
  5
FB8
330
FB7
100
AcDbEntity
  8
0
  6
CONTINUOUS
 62
     0
100
AcDbLine
 10
174.1554154369586
 20
243.098326602647
 30
0.0
 11
174.2293497363795
 21
243.1722609020678
 31
0.0
  0
LINE
  5
FB9
330
FB7
100
AcDbEntity
  8
0
  6
CONTINUOUS
 62
     0
100
AcDbLine
 10
172.5554154369586
 20
241.498326602647
 30
0.0
 11
174.1554154369586
 21
243.098326602647
 31
0.0
  0
LINE
  5
FBA
330
FB7
100
AcDbEntity
  8
0
  6
CONTINUOUS
 62
     0
100
AcDbLine
 10
171.5037650075092
 20
243.098326602647
 30
0.0
 11
174.2293497363795
 21
245.8239113315174
 31
0.0
  0
LINE
  5
FBB
330
FB7
100
AcDbEntity
  8
0
  6
CONTINUOUS
 62
     0
100
AcDbLine
 10
169.9037650075092
 20
241.498326602647
 30
0.0
 11
171.5037650075092
 21
243.098326602647
 31
0.0
  0
LINE
  5
FBC
330
FB7
100
AcDbEntity
  8
0
  6
CONTINUOUS
 62
     0
100
AcDbLine
 10
168.8521145780596
 20
243.098326602647
 30
0.0
 11
174.2293497363796
 21
248.4755617609669
 31
0.0
  0
LINE
  5
FBD
330
FB7
100
AcDbEntity
  8
0
  6
CONTINUOUS
 62
     0
100
AcDbLine
 10
167.2521145780596
 20
241.498326602647
 30
0.0
 11
168.8521145780596
 21
243.098326602647
 31
0.0
  0
LINE
  5
FBE
330
FB7
100
AcDbEntity
  8
0
  6
CONTINUOUS
 62
     0
100
AcDbLine
 10
166.20046414861
 20
243.098326602647
 30
0.0
 11
174.2293497363796
 21
251.1272121904166
 31
0.0
  0
LINE
  5
FBF
330
FB7
100
AcDbEntity
  8
0
  6
CONTINUOUS
 62
     0
100
AcDbLine
 10
164.60046414861
 20
241.498326602647
 30
0.0
 11
166.20046414861
 21
243.098326602647
 31
0.0
  0
LINE
  5
FC0
330
FB7
100
AcDbEntity
  8
0
  6
CONTINUOUS
 62
     0
100
AcDbLine
 10
163.5488137191605
 20
243.098326602647
 30
0.0
 11
174.2293497363796
 21
253.7788626198661
 31
0.0
  0
LINE
  5
FC1
330
FB7
100
AcDbEntity
  8
0
  6
CONTINUOUS
 62
     0
100
AcDbLine
 10
162.2293497363795
 20
241.7788626198661
 30
0.0
 11
163.5488137191603
 21
243.098326602647
 31
0.0
  0
LINE
  5
FC2
330
FB7
100
AcDbEntity
  8
0
  6
CONTINUOUS
 62
     0
100
AcDbLine
 10
162.2293497363795
 20
244.4305130493157
 30
0.0
 11
174.2293497363796
 21
256.4305130493156
 31
0.0
  0
LINE
  5
FC3
330
FB7
100
AcDbEntity
  8
0
  6
CONTINUOUS
 62
     0
100
AcDbLine
 10
171.6455128602613
 20
256.498326602647
 30
0.0
 11
173.1455128602614
 21
257.998326602647
 31
0.0
  0
LINE
  5
FC4
330
FB7
100
AcDbEntity
  8
0
  6
CONTINUOUS
 62
     0
100
AcDbLine
 10
173.1455128602614
 20
257.998326602647
 30
0.0
 11
174.2293497363796
 21
259.0821634787652
 31
0.0
  0
LINE
  5
FC5
330
FB7
100
AcDbEntity
  8
0
  6
CONTINUOUS
 62
     0
100
AcDbLine
 10
162.2293497363795
 20
247.0821634787651
 30
0.0
 11
171.6455128602613
 21
256.498326602647
 31
0.0
  0
LINE
  5
FC6
330
FB7
100
AcDbEntity
  8
0
  6
CONTINUOUS
 62
     0
100
AcDbLine
 10
168.9938624308119
 20
256.498326602647
 30
0.0
 11
170.4938624308119
 21
257.998326602647
 31
0.0
  0
LINE
  5
FC7
330
FB7
100
AcDbEntity
  8
0
  6
CONTINUOUS
 62
     0
100
AcDbLine
 10
170.4938624308119
 20
257.998326602647
 30
0.0
 11
172.0938624308119
 21
259.5983266026471
 31
0.0
  0
LINE
  5
FC8
330
FB7
100
AcDbEntity
  8
0
  6
CONTINUOUS
 62
     0
100
AcDbLine
 10
162.2293497363795
 20
249.7338139082148
 30
0.0
 11
168.9938624308119
 21
256.498326602647
 31
0.0
  0
LINE
  5
FC9
330
FB7
100
AcDbEntity
  8
0
  6
CONTINUOUS
 62
     0
100
AcDbLine
 10
166.3422120013624
 20
256.498326602647
 30
0.0
 11
167.8422120013623
 21
257.998326602647
 31
0.0
  0
LINE
  5
FCA
330
FB7
100
AcDbEntity
  8
0
  6
CONTINUOUS
 62
     0
100
AcDbLine
 10
167.8422120013623
 20
257.998326602647
 30
0.0
 11
169.4422120013622
 21
259.5983266026471
 31
0.0
  0
LINE
  5
FCB
330
FB7
100
AcDbEntity
  8
0
  6
CONTINUOUS
 62
     0
100
AcDbLine
 10
162.2293497363795
 20
252.3854643376643
 30
0.0
 11
166.3422120013622
 21
256.498326602647
 31
0.0
  0
LINE
  5
FCC
330
FB7
100
AcDbEntity
  8
0
  6
CONTINUOUS
 62
     0
100
AcDbLine
 10
163.6905615719128
 20
256.498326602647
 30
0.0
 11
165.1905615719128
 21
257.998326602647
 31
0.0
  0
LINE
  5
FCD
330
FB7
100
AcDbEntity
  8
0
  6
CONTINUOUS
 62
     0
100
AcDbLine
 10
165.1905615719128
 20
257.998326602647
 30
0.0
 11
166.7905615719128
 21
259.5983266026471
 31
0.0
  0
LINE
  5
FCE
330
FB7
100
AcDbEntity
  8
0
  6
CONTINUOUS
 62
     0
100
AcDbLine
 10
162.2293497363795
 20
255.0371147671139
 30
0.0
 11
163.6905615719128
 21
256.498326602647
 31
0.0
  0
LINE
  5
FCF
330
FB7
100
AcDbEntity
  8
0
  6
CONTINUOUS
 62
     0
100
AcDbLine
 10
162.5389111424631
 20
257.998326602647
 30
0.0
 11
164.1389111424631
 21
259.5983266026471
 31
0.0
  0
LINE
  5
FD0
330
FB7
100
AcDbEntity
  8
0
  6
CONTINUOUS
 62
     0
100
AcDbLine
 10
162.2293497363795
 20
257.6887651965634
 30
0.0
 11
162.5389111424631
 21
257.998326602647
 31
0.0
  0
ENDBLK
  5
FD2
330
FB7
100
AcDbEntity
  8
0
100
AcDbBlockEnd
  0
ENDSEC
  0
SECTION
  2
ENTITIES
  0
LINE
  5
2D5
330
A
100
AcDbEntity
  8
03
100
AcDbLine
 10
177.2293497363795
 20
523.4983266026463
 30
0.0
 11
177.2293497363795
 21
559.7047451669595
 31
0.0
  0
LINE
  5
2D6
330
A
100
AcDbEntity
  8
03
100
AcDbLine
 10
161.2293497363795
 20
523.4983266026464
 30
0.0
 11
161.2293497363795
 21
559.7047451669595
 31
0.0
  0
LINE
  5
2D7
330
A
100
AcDbEntity
  8
03
100
AcDbLine
 10
166.2293497363795
 20
532.9983266026466
 30
0.0
 11
166.2293497363795
 21
559.7047451669595
 31
0.0
  0
LINE
  5
2D8
330
A
100
AcDbEntity
  8
03
100
AcDbLine
 10
172.2293497363795
 20
532.9983266026466
 30
0.0
 11
172.2293497363795
 21
559.7047451669595
 31
0.0
  0
LINE
  5
2D9
330
A
100
AcDbEntity
  8
03
100
AcDbLine
 10
330.2293497363796
 20
243.098326602647
 30
0.0
 11
330.2293497363796
 21
539.8983266026468
 31
0.0
  0
LINE
  5
2DA
330
A
100
AcDbEntity
  8
03
100
AcDbLine
 10
136.2293497363795
 20
521.8983266026469
 30
0.0
 11
136.2293497363795
 21
243.098326602647
 31
0.0
  0
LINE
  5
2DB
330
A
100
AcDbEntity
  8
03
100
AcDbLine
 10
273.2293497363795
 20
539.8983266026463
 30
0.0
 11
273.2293497363795
 21
523.4983266026463
 31
0.0
  0
LINE
  5
2DC
330
A
100
AcDbEntity
  8
03
100
AcDbLine
 10
284.2293497363796
 20
523.4983266026463
 30
0.0
 11
273.2293497363795
 21
523.4983266026463
 31
0.0
  0
LINE
  5
2DD
330
A
100
AcDbEntity
  8
03
100
AcDbLine
 10
275.2293497363795
 20
539.8983266026463
 30
0.0
 11
275.2293497363795
 21
524.4983266026463
 31
0.0
  0
LINE
  5
2DE
330
A
100
AcDbEntity
  8
03
100
AcDbLine
 10
275.2293497363795
 20
524.4983266026463
 30
0.0
 11
276.7293497363795
 21
524.4983266026463
 31
0.0
  0
LINE
  5
2DF
330
A
100
AcDbEntity
  8
03
100
AcDbLine
 10
276.7293497363795
 20
539.9983266026463
 30
0.0
 11
328.7293497363796
 21
539.9983266026477
 31
0.0
  0
LINE
  5
2E0
330
A
100
AcDbEntity
  8
03
100
AcDbLine
 10
276.7293497363795
 20
539.9983266026463
 30
0.0
 11
276.7293497363795
 21
524.4983266026463
 31
0.0
  0
LINE
  5
2E1
330
A
100
AcDbEntity
  8
03
100
AcDbLine
 10
328.7293497363796
 20
539.9983266026477
 30
0.0
 11
328.7293497363796
 21
242.9983266026471
 31
0.0
  0
LINE
  5
2E2
330
A
100
AcDbEntity
  8
03
100
AcDbLine
 10
328.6293497363796
 20
541.498326602647
 30
0.0
 11
276.8293497363795
 21
541.498326602647
 31
0.0
  0
LINE
  5
2E3
330
A
100
AcDbEntity
  8
03
100
AcDbLine
 10
271.6293497363796
 20
541.4983266026463
 30
0.0
 11
178.8293497363795
 21
541.4983266026463
 31
0.0
  0
LINE
  5
2E4
330
A
100
AcDbEntity
  8
03
100
AcDbLine
 10
252.7293497363796
 20
242.9983266026471
 30
0.0
 11
328.6293497363796
 21
242.9983266026471
 31
0.0
  0
LINE
  5
2E5
330
A
100
AcDbEntity
  8
03
100
AcDbLine
 10
251.2293497363796
 20
243.098326602647
 30
0.0
 11
251.2293497363796
 21
251.4983266026471
 31
0.0
  0
LINE
  5
2E6
330
A
100
AcDbEntity
  8
03
100
AcDbLine
 10
252.7293497363796
 20
251.4983266026471
 30
0.0
 11
252.7293497363796
 21
242.9983266026471
 31
0.0
  0
LINE
  5
2E7
330
A
100
AcDbEntity
  8
03
100
AcDbLine
 10
251.2293497363796
 20
251.4983266026471
 30
0.0
 11
252.7293497363796
 21
251.4983266026471
 31
0.0
  0
LINE
  5
2E8
330
A
100
AcDbEntity
  8
03
100
AcDbLine
 10
252.8293497363796
 20
241.498326602647
 30
0.0
 11
328.6293497363796
 21
241.498326602647
 31
0.0
  0
LINE
  5
2E9
330
A
100
AcDbEntity
  8
03
100
AcDbLine
 10
271.7293497363795
 20
539.9983266026463
 30
0.0
 11
178.7293497363795
 21
539.9983266026463
 31
0.0
  0
LINE
  5
2EA
330
A
100
AcDbEntity
  8
03
100
AcDbLine
 10
273.3293497363795
 20
521.9983266026463
 30
0.0
 11
284.2293497363796
 21
521.9983266026463
 31
0.0
  0
LINE
  5
2EB
330
A
100
AcDbEntity
  8
03
100
AcDbLine
 10
284.2293497363796
 20
523.4983266026463
 30
0.0
 11
284.2293497363796
 21
521.9983266026463
 31
0.0
  0
LINE
  5
2EC
330
A
100
AcDbEntity
  8
03
100
AcDbLine
 10
271.7293497363795
 20
539.9983266026463
 30
0.0
 11
271.7293497363795
 21
523.5983266026461
 31
0.0
  0
LINE
  5
2ED
330
A
100
AcDbEntity
  8
03
100
AcDbLine
 10
178.7293497363795
 20
539.9983266026463
 30
0.0
 11
178.7293497363795
 21
523.5983266026464
 31
0.0
  0
LINE
  5
2EE
330
A
100
AcDbEntity
  8
03
100
AcDbLine
 10
177.2293497363795
 20
523.4983266026463
 30
0.0
 11
137.8293497363795
 21
523.4983266026471
 31
0.0
  0
LINE
  5
2EF
330
A
100
AcDbEntity
  8
03
100
AcDbLine
 10
137.7293497363796
 20
521.9983266026471
 30
0.0
 11
137.7293497363796
 21
242.9983266026471
 31
0.0
  0
LINE
  5
2F0
330
A
100
AcDbEntity
  8
03
100
AcDbLine
 10
194.7293497363795
 20
251.4983266026471
 30
0.0
 11
196.2293497363796
 21
251.4983266026471
 31
0.0
  0
LINE
  5
2F1
330
A
100
AcDbEntity
  8
03
100
AcDbLine
 10
142.2293497363795
 20
523.4983266026464
 30
0.0
 11
142.2293497363795
 21
539.8983266026463
 31
0.0
  0
LINE
  5
2F2
330
A
100
AcDbEntity
  8
03
100
AcDbLine
 10
143.8293497363796
 20
541.4983266026463
 30
0.0
 11
159.6293497363795
 21
541.4983266026463
 31
0.0
  0
LINE
  5
2F3
330
A
100
AcDbEntity
  8
03
100
AcDbLine
 10
143.7293497363795
 20
523.4983266026469
 30
0.0
 11
143.7293497363795
 21
539.9983266026463
 31
0.0
  0
LINE
  5
2F4
330
A
100
AcDbEntity
  8
03
100
AcDbLine
 10
159.7293497363795
 20
539.9983266026463
 30
0.0
 11
159.7293497363795
 21
523.4983266026467
 31
0.0
  0
LINE
  5
2F5
330
A
100
AcDbEntity
  8
03
100
AcDbLine
 10
143.7293497363795
 20
539.9983266026463
 30
0.0
 11
159.7293497363795
 21
539.9983266026463
 31
0.0
  0
LINE
  5
2F6
330
A
100
AcDbEntity
  8
03
100
AcDbLine
 10
160.2293497363795
 20
243.098326602647
 30
0.0
 11
160.2293497363795
 21
256.398326602647
 31
0.0
  0
LINE
  5
2F7
330
A
100
AcDbEntity
  8
03
100
AcDbLine
 10
176.2293497363796
 20
243.098326602647
 30
0.0
 11
176.2293497363796
 21
256.498326602647
 31
0.0
  0
LINE
  5
2F8
330
A
100
AcDbEntity
  8
03
100
AcDbLine
 10
160.2293497363795
 20
256.498326602647
 30
0.0
 11
176.2293497363796
 21
256.498326602647
 31
0.0
  0
LINE
  5
2F9
330
A
100
AcDbEntity
  8
03
100
AcDbLine
 10
177.7293497363795
 20
256.298326602647
 30
0.0
 11
177.7293497363795
 21
242.9983266026471
 31
0.0
  0
LINE
  5
2FA
330
A
100
AcDbEntity
  8
03
100
AcDbLine
 10
158.7293497363796
 20
256.298326602647
 30
0.0
 11
158.7293497363796
 21
242.9983266026471
 31
0.0
  0
LINE
  5
2FB
330
A
100
AcDbEntity
  8
03
100
AcDbLine
 10
137.7293497363796
 20
242.9983266026471
 30
0.0
 11
158.7293497363796
 21
242.9983266026471
 31
0.0
  0
LINE
  5
2FC
330
A
100
AcDbEntity
  8
03
100
AcDbLine
 10
177.8293497363795
 20
242.9983266026471
 30
0.0
 11
194.7293497363795
 21
242.9983266026471
 31
0.0
  0
CIRCLE
  5
2FD
330
A
100
AcDbEntity
  8
03
100
AcDbCircle
 10
274.2293497363795
 20
546.4983266026463
 30
0.0
 40
4.0
  0
LINE
  5
2FE
330
A
100
AcDbEntity
  8
03
100
AcDbLine
 10
137.8293497363795
 20
241.498326602647
 30
0.0
 11
158.6293497363795
 21
241.498326602647
 31
0.0
  0
LINE
  5
300
330
A
100
AcDbEntity
  8
02
100
AcDbLine
 10
150.3293497363794
 20
324.598326602647
 30
0.0
 11
190.3293497363795
 21
324.598326602647
 31
0.0
  0
LINE
  5
30D
330
A
100
AcDbEntity
  8
03
100
AcDbLine
 10
162.2293497363795
 20
532.9983266026466
 30
0.0
 11
176.2293497363796
 21
532.9983266026466
 31
0.0
  0
LINE
  5
30E
330
A
100
AcDbEntity
  8
03
100
AcDbLine
 10
176.2293497363796
 20
532.9983266026466
 30
0.0
 11
176.2293497363796
 21
523.4983266026463
 31
0.0
  0
LINE
  5
30F
330
A
100
AcDbEntity
  8
03
100
AcDbLine
 10
162.2293497363795
 20
523.4983266026464
 30
0.0
 11
162.2293497363795
 21
532.9983266026466
 31
0.0
  0
LINE
  5
310
330
A
100
AcDbEntity
  8
03
100
AcDbLine
 10
161.2293497363795
 20
541.4983266026463
 30
0.0
 11
166.2293497363795
 21
543.4983266026462
 31
0.0
  0
LINE
  5
311
330
A
100
AcDbEntity
  8
03
100
AcDbLine
 10
177.2293497363795
 20
541.4983266026463
 30
0.0
 11
172.2293497363795
 21
543.4983266026462
 31
0.0
  0
LINE
  5
315
330
A
100
AcDbEntity
  8
04
100
AcDbLine
 10
211.7293497363795
 20
260.498326602647
 30
0.0
 11
211.7293497363796
 21
251.4983266026471
 31
0.0
  0
LINE
  5
316
330
A
100
AcDbEntity
  8
04
100
AcDbLine
 10
235.7293497363795
 20
251.4983266026471
 30
0.0
 11
235.7293497363795
 21
260.498326602647
 31
0.0
  0
ARC
  5
317
330
A
100
AcDbEntity
  8
03
100
AcDbCircle
 10
177.8293497363795
 20
243.098326602647
 30
0.0
 40
1.6
100
AcDbArc
 50
180.0
 51
270.0
  0
ARC
  5
318
330
A
100
AcDbEntity
  8
03
100
AcDbCircle
 10
158.6293497363795
 20
243.098326602647
 30
0.0
 40
1.6
100
AcDbArc
 50
270.0
 51
0.0
  0
ARC
  5
319
330
A
100
AcDbEntity
  8
03
100
AcDbCircle
 10
137.8293497363795
 20
243.098326602647
 30
0.0
 40
1.6
100
AcDbArc
 50
180.0
 51
270.0
  0
ARC
  5
31A
330
A
100
AcDbEntity
  8
03
100
AcDbCircle
 10
328.6293497363796
 20
539.8983266026468
 30
0.0
 40
1.6
100
AcDbArc
 50
0.0
 51
90.0
  0
ARC
  5
31B
330
A
100
AcDbEntity
  8
03
100
AcDbCircle
 10
276.8293497363795
 20
539.8983266026463
 30
0.0
 40
1.6
100
AcDbArc
 50
90.0
 51
180.0
  0
ARC
  5
31C
330
A
100
AcDbEntity
  8
03
100
AcDbCircle
 10
271.6293497363796
 20
539.8983266026463
 30
0.0
 40
1.6
100
AcDbArc
 50
0.0
 51
90.0
  0
ARC
  5
31D
330
A
100
AcDbEntity
  8
03
100
AcDbCircle
 10
273.3293497363795
 20
523.5983266026461
 30
0.0
 40
1.6
100
AcDbArc
 50
180.0
 51
270.0
  0
ARC
  5
31E
330
A
100
AcDbEntity
  8
03
100
AcDbCircle
 10
143.8293497363796
 20
539.8983266026463
 30
0.0
 40
1.6
100
AcDbArc
 50
90.0
 51
180.0
  0
ARC
  5
31F
330
A
100
AcDbEntity
  8
03
100
AcDbCircle
 10
137.8293497363795
 20
521.8983266026469
 30
0.0
 40
1.6
100
AcDbArc
 50
90.0
 51
180.0
  0
ARC
  5
320
330
A
100
AcDbEntity
  8
03
100
AcDbCircle
 10
328.6293497363796
 20
243.098326602647
 30
0.0
 40
1.6
100
AcDbArc
 50
270.0
 51
0.0
  0
ARC
  5
321
330
A
100
AcDbEntity
  8
03
100
AcDbCircle
 10
252.8293497363796
 20
243.098326602647
 30
0.0
 40
1.6
100
AcDbArc
 50
180.0
 51
270.0
  0
LINE
  5
322
330
A
100
AcDbEntity
  8
02
100
AcDbLine
 10
150.3293497363794
 20
274.598326602647
 30
0.0
 11
150.3293497363794
 21
505.398326602647
 31
0.0
  0
LINE
  5
323
330
A
100
AcDbEntity
  8
02
100
AcDbLine
 10
144.3293497363795
 20
505.398326602647
 30
0.0
 11
144.3293497363795
 21
274.598326602647
 31
0.0
  0
LINE
  5
324
330
A
100
AcDbEntity
  8
02
100
AcDbLine
 10
190.3293497363794
 20
318.598326602647
 30
0.0
 11
150.3293497363794
 21
318.598326602647
 31
0.0
  0
ARC
  5
325
330
A
100
AcDbEntity
  8
02
100
AcDbCircle
 10
190.3293497363795
 20
318.598326602647
 30
0.0
 40
6.0
100
AcDbArc
 50
0.0
 51
90.0
  0
LINE
  5
326
330
A
100
AcDbEntity
  8
02
100
AcDbLine
 10
196.3293497363795
 20
318.598326602647
 30
0.0
 11
196.3293497363795
 21
270.598326602647
 31
0.0
  0
LINE
  5
327
330
A
100
AcDbEntity
  8
02
100
AcDbLine
 10
190.3293497363794
 20
318.598326602647
 30
0.0
 11
190.3293497363795
 21
270.598326602647
 31
0.0
  0
LINE
  5
328
330
A
100
AcDbEntity
  8
02
100
AcDbLine
 10
165.3293497363794
 20
270.598326602647
 30
0.0
 11
190.3293497363795
 21
270.598326602647
 31
0.0
  0
ARC
  5
329
330
A
100
AcDbEntity
  8
02
100
AcDbCircle
 10
190.3293497363795
 20
270.598326602647
 30
0.0
 40
6.0
100
AcDbArc
 50
270.0
 51
0.0
  0
LINE
  5
32A
330
A
100
AcDbEntity
  8
03
100
AcDbLine
 10
133.2293497363795
 20
89.89832660264697
 30
0.0
 11
133.2293497363795
 21
142.3526564823577
 31
0.0
  0
LINE
  5
32B
330
A
100
AcDbEntity
  8
03
100
AcDbLine
 10
133.2293497363795
 20
147.3526564823577
 30
0.0
 11
133.2293497363795
 21
559.7047451669595
 31
0.0
  0
LINE
  5
32C
330
A
100
AcDbEntity
  8
03
100
AcDbLine
 10
139.2293497363795
 20
89.89832660264697
 30
0.0
 11
139.2293497363795
 21
142.3526564823577
 31
0.0
  0
LINE
  5
32D
330
A
100
AcDbEntity
  8
03
100
AcDbLine
 10
139.2293497363795
 20
147.3526564823577
 30
0.0
 11
139.2293497363795
 21
241.498326602647
 31
0.0
  0
LINE
  5
32E
330
A
100
AcDbEntity
  8
03
100
AcDbLine
 10
196.2293497363796
 20
89.89832660264697
 30
0.0
 11
196.2293497363796
 21
142.3526564823577
 31
0.0
  0
LINE
  5
32F
330
A
100
AcDbEntity
  8
03
100
AcDbLine
 10
196.2293497363796
 20
147.3526564823577
 30
0.0
 11
196.2293497363796
 21
251.4983266026471
 31
0.0
  0
LINE
  5
330
330
A
100
AcDbEntity
  8
CHUSIN
100
AcDbLine
 10
169.2293497363795
 20
523.4983266026464
 30
0.0
 11
169.2293497363795
 21
559.7047451669595
 31
0.0
  0
LINE
  5
331
330
A
100
AcDbEntity
  8
CHUSIN
100
AcDbLine
 10
223.3293497363795
 20
280.9983266026471
 30
0.0
 11
223.3293497363795
 21
356.498326602647
 31
0.0
  0
LINE
  5
332
330
A
100
AcDbEntity
  8
CHUSIN
 48
0.3
100
AcDbLine
 10
274.2293497363795
 20
552.457903541622
 30
0.0
 11
274.2293497363795
 21
534.7527209128437
 31
0.0
  0
LINE
  5
333
330
A
100
AcDbEntity
  8
CHUSIN
 48
0.3
100
AcDbLine
 10
269.6882869661434
 20
546.4983266026463
 30
0.0
 11
278.0451331669269
 21
546.4983266026463
 31
0.0
  0
LINE
  5
334
330
A
100
AcDbEntity
  8
03
100
AcDbLine
 10
176.2293497363796
 20
532.9983266026466
 30
0.0
 11
162.2293497363795
 21
523.4983266026464
 31
0.0
  0
LINE
  5
335
330
A
100
AcDbEntity
  8
03
100
AcDbLine
 10
194.7293497363795
 20
257.998326602647
 30
0.0
 11
194.7293497363795
 21
242.9983266026471
 31
0.0
  0
LINE
  5
336
330
A
100
AcDbEntity
  8
03
100
AcDbLine
 10
139.3293497363794
 20
259.5983266026471
 30
0.0
 11
193.1293497363796
 21
259.5983266026471
 31
0.0
  0
LINE
  5
337
330
A
100
AcDbEntity
  8
03
100
AcDbLine
 10
193.1293497363796
 20
257.998326602647
 30
0.0
 11
139.3293497363794
 21
257.998326602647
 31
0.0
  0
LINE
  5
338
330
A
100
AcDbEntity
  8
03
100
AcDbLine
 10
193.1293497363796
 20
257.998326602647
 30
0.0
 11
193.1293497363796
 21
242.9983266026471
 31
0.0
  0
LINE
  5
339
330
A
100
AcDbEntity
  8
03
100
AcDbLine
 10
139.3293497363794
 20
520.3983266026471
 30
0.0
 11
139.3293497363794
 21
259.5983266026471
 31
0.0
  0
LINE
  5
33A
330
A
100
AcDbEntity
  8
03
100
AcDbLine
 10
139.3293497363794
 20
520.3983266026471
 30
0.0
 11
270.1293497363796
 21
520.3983266026471
 31
0.0
  0
LINE
  5
33B
330
A
100
AcDbEntity
  8
03
100
AcDbLine
 10
270.1293497363796
 20
539.9983266026463
 30
0.0
 11
270.1293497363796
 21
521.9983266026452
 31
0.0
  0
ARC
  5
33C
330
A
100
AcDbEntity
  8
03
100
AcDbCircle
 10
270.1293497363796
 20
521.998326602647
 30
0.0
 40
1.6
100
AcDbArc
 50
270.0
 51
0.0
  0
ARC
  5
33D
330
A
100
AcDbEntity
  8
03
100
AcDbCircle
 10
139.3293497363794
 20
520.3983266026471
 30
0.0
 40
1.6
100
AcDbArc
 50
90.0
 51
180.0
  0
ARC
  5
33E
330
A
100
AcDbEntity
  8
03
100
AcDbCircle
 10
139.3293497363794
 20
259.5983266026471
 30
0.0
 40
1.6
100
AcDbArc
 50
180.0
 51
270.0
  0
ARC
  5
33F
330
A
100
AcDbEntity
  8
03
100
AcDbCircle
 10
193.1293497363796
 20
257.998326602647
 30
0.0
 40
1.6
100
AcDbArc
 50
0.0
 51
90.0
  0
LINE
  5
340
330
A
100
AcDbEntity
  8
03
100
AcDbLine
 10
162.0584642566208
 20
241.498326602647
 30
0.0
 11
174.4002352161382
 21
241.498326602647
 31
0.0
  0
LINE
  5
341
330
A
100
AcDbEntity
  8
03
100
AcDbLine
 10
162.2293497363795
 20
256.398326602647
 30
0.0
 11
160.4726861289328
 21
243.311182727169
 31
0.0
  0
LINE
  5
342
330
A
100
AcDbEntity
  8
03
100
AcDbLine
 10
174.2293497363796
 20
256.398326602647
 30
0.0
 11
175.9860133438263
 21
243.3111827271689
 31
0.0
  0
LINE
  5
343
330
A
100
AcDbEntity
  8
03
100
AcDbLine
 10
172.6435716086915
 20
256.1854704781251
 30
0.0
 11
174.4002352161382
 21
243.098326602647
 31
0.0
  0
LINE
  5
344
330
A
100
AcDbEntity
  8
03
100
AcDbLine
 10
174.4002352161382
 20
243.098326602647
 30
0.0
 11
162.0584642566208
 21
243.098326602647
 31
0.0
  0
LINE
  5
345
330
A
100
AcDbEntity
  8
03
100
AcDbLine
 10
162.0584642566208
 20
243.098326602647
 30
0.0
 11
163.8151278640675
 21
256.1854704781251
 31
0.0
  0
ARC
  5
346
330
A
100
AcDbEntity
  8
03
100
AcDbCircle
 10
174.4002352161382
 20
243.098326602647
 30
0.0
 40
1.6
100
AcDbArc
 50
270.0
 51
7.645013271669327
  0
ARC
  5
347
330
A
100
AcDbEntity
  8
03
100
AcDbCircle
 10
162.0584642566208
 20
243.098326602647
 30
0.0
 40
1.6
100
AcDbArc
 50
172.3549867283285
 51
270.0
  0
LINE
  5
348
330
A
100
AcDbEntity
  8
03
100
AcDbLine
 10
162.2293497363795
 20
256.498326602647
 30
0.0
 11
163.8151278640675
 21
256.2854704781252
 31
0.0
  0
LINE
  5
349
330
A
100
AcDbEntity
  8
03
100
AcDbLine
 10
174.2293497363796
 20
256.498326602647
 30
0.0
 11
172.6435716086915
 21
256.2854704781252
 31
0.0
  0
LINE
  5
34A
330
A
100
AcDbEntity
  8
03
100
AcDbLine
 10
196.2293497363796
 20
251.4983266026471
 30
0.0
 11
196.2293497363796
 21
243.098326602647
 31
0.0
  0
ARC
  5
34B
330
A
100
AcDbEntity
  8
03
100
AcDbCircle
 10
194.6293497363796
 20
243.098326602647
 30
0.0
 40
1.6
100
AcDbArc
 50
270.0
 51
0.0
  0
LINE
  5
34C
330
A
100
AcDbEntity
  8
03
100
AcDbLine
 10
160.3293497363795
 20
257.998326602647
 30
0.0
 11
176.1293497363794
 21
257.998326602647
 31
0.0
  0
ARC
  5
34D
330
A
100
AcDbEntity
  8
03
100
AcDbCircle
 10
176.1293497363794
 20
256.398326602647
 30
0.0
 40
1.6
100
AcDbArc
 50
0.0
 51
90.0
  0
ARC
  5
34E
330
A
100
AcDbEntity
  8
03
100
AcDbCircle
 10
160.3293497363795
 20
256.398326602647
 30
0.0
 40
1.6
100
AcDbArc
 50
90.0
 51
180.0
  0
LINE
  5
34F
330
A
100
AcDbEntity
  8
03
100
AcDbLine
 10
161.2293497363795
 20
539.8983266026463
 30
0.0
 11
161.2293497363795
 21
523.4983266026464
 31
0.0
  0
LINE
  5
350
330
A
100
AcDbEntity
  8
03
100
AcDbLine
 10
177.2293497363795
 20
539.8983266026463
 30
0.0
 11
177.2293497363795
 21
523.4983266026463
 31
0.0
  0
LINE
  5
351
330
A
100
AcDbEntity
  8
03
100
AcDbLine
 10
177.1293497363795
 20
521.9983266026464
 30
0.0
 11
137.7293497363796
 21
521.9983266026471
 31
0.0
  0
ARC
  5
352
330
A
100
AcDbEntity
  8
03
100
AcDbCircle
 10
178.8293497363795
 20
539.8983266026463
 30
0.0
 40
1.6
100
AcDbArc
 50
90.0
 51
180.0
  0
ARC
  5
353
330
A
100
AcDbEntity
  8
03
100
AcDbCircle
 10
159.6293497363795
 20
539.8983266026463
 30
0.0
 40
1.6
100
AcDbArc
 50
0.0
 51
90.0
  0
ARC
  5
354
330
A
100
AcDbEntity
  8
03
100
AcDbCircle
 10
177.1293497363795
 20
523.5983266026464
 30
0.0
 40
1.6
100
AcDbArc
 50
270.0
 51
0.0
  0
LINE
  5
355
330
A
100
AcDbEntity
  8
04
100
AcDbLine
 10
211.7293497363796
 20
251.4983266026471
 30
0.0
 11
235.7293497363795
 21
251.4983266026471
 31
0.0
  0
LINE
  5
356
330
A
100
AcDbEntity
  8
03
100
AcDbLine
 10
177.8293497363795
 20
241.498326602647
 30
0.0
 11
194.6293497363796
 21
241.498326602647
 31
0.0
  0
LINE
  5
357
330
A
100
AcDbEntity
  8
04
100
AcDbLine
 10
211.7293497363795
 20
260.498326602647
 30
0.0
 11
235.7293497363794
 21
260.498326602647
 31
0.0
  0
LINE
  5
358
330
A
100
AcDbEntity
  8
02
100
AcDbLine
 10
150.3293497363794
 20
319.5983266026471
 30
0.0
 11
150.3293497363794
 21
325.5983266026471
 31
0.0
  0
LINE
  5
35A
330
A
100
AcDbEntity
  8
02
100
AcDbLine
 10
165.3293497363794
 20
264.598326602647
 30
0.0
 11
190.3293497363795
 21
264.598326602647
 31
0.0
  0
LINE
  5
35B
330
A
100
AcDbEntity
  8
02
100
AcDbLine
 10
165.3293497363794
 20
270.598326602647
 30
0.0
 11
165.3293497363794
 21
264.598326602647
 31
0.0
  0
LINE
  5
35C
330
A
100
AcDbEntity
  8
03
100
AcDbLine
 10
201.2293497363796
 20
251.4983266026471
 30
0.0
 11
246.2293497363795
 21
251.4983266026471
 31
0.0
  0
LINE
  5
35D
330
A
100
AcDbEntity
  8
02
100
AcDbLine
 10
144.3293497363795
 20
505.398326602647
 30
0.0
 11
150.3293497363794
 21
505.398326602647
 31
0.0
  0
LINE
  5
35E
330
A
100
AcDbEntity
  8
02
100
AcDbLine
 10
144.3293497363795
 20
274.598326602647
 30
0.0
 11
150.3293497363794
 21
274.598326602647
 31
0.0
  0
LINE
  5
35F
330
A
100
AcDbEntity
  8
03
100
AcDbLine
 10
203.5293497363795
 20
166.414762741652
 30
0.0
 11
203.5293497363795
 21
251.4983266026471
 31
0.0
  0
LINE
  5
360
330
A
100
AcDbEntity
  8
03
100
AcDbLine
 10
243.9293497363795
 20
166.414762741652
 30
0.0
 11
243.9293497363795
 21
251.4983266026471
 31
0.0
  0
LINE
  5
361
330
A
100
AcDbEntity
  8
03
100
AcDbLine
 10
203.5293497363795
 20
251.4983266026471
 30
0.0
 11
243.9293497363795
 21
251.4983266026471
 31
0.0
  0
LINE
  5
362
330
A
100
AcDbEntity
  8
03
100
AcDbLine
 10
203.5293497363795
 20
162.9983266026471
 30
0.0
 11
203.5293497363795
 21
251.4983266026471
 31
0.0
  0
LINE
  5
363
330
A
100
AcDbEntity
  8
03
100
AcDbLine
 10
243.9293497363795
 20
251.4983266026471
 30
0.0
 11
243.9293497363795
 21
162.9983266026471
 31
0.0
  0
LINE
  5
364
330
A
100
AcDbEntity
  8
03
100
AcDbLine
 10
205.0293497363795
 20
249.998326602647
 30
0.0
 11
242.4293497363795
 21
249.998326602647
 31
0.0
  0
LINE
  5
365
330
A
100
AcDbEntity
  8
03
100
AcDbLine
 10
242.4293497363795
 20
249.998326602647
 30
0.0
 11
242.4293497363795
 21
162.9983266026471
 31
0.0
  0
LINE
  5
366
330
A
100
AcDbEntity
  8
03
100
AcDbLine
 10
205.0293497363795
 20
162.9983266026471
 30
0.0
 11
205.0293497363795
 21
249.998326602647
 31
0.0
  0
LINE
  5
367
330
A
100
AcDbEntity
  8
03
100
AcDbLine
 10
216.7293497363794
 20
176.4983266026471
 30
0.0
 11
216.7293497363794
 21
162.9983266026471
 31
0.0
  0
LINE
  5
368
330
A
100
AcDbEntity
  8
03
100
AcDbLine
 10
230.7293497363795
 20
176.4983266026471
 30
0.0
 11
230.7293497363795
 21
162.9983266026471
 31
0.0
  0
LINE
  5
369
330
A
100
AcDbEntity
  8
03
100
AcDbLine
 10
232.2293497363796
 20
176.4983266026471
 30
0.0
 11
232.2293497363796
 21
162.9983266026471
 31
0.0
  0
LINE
  5
36A
330
A
100
AcDbEntity
  8
03
100
AcDbLine
 10
215.2293497363796
 20
176.4983266026471
 30
0.0
 11
215.2293497363796
 21
162.9983266026471
 31
0.0
  0
LINE
  5
36B
330
A
100
AcDbEntity
  8
03
100
AcDbLine
 10
205.0293497363795
 20
162.9983266026471
 30
0.0
 11
215.2293497363796
 21
162.9983266026471
 31
0.0
  0
LINE
  5
36C
330
A
100
AcDbEntity
  8
03
100
AcDbLine
 10
232.2293497363796
 20
162.9983266026471
 30
0.0
 11
242.4293497363795
 21
162.9983266026471
 31
0.0
  0
LINE
  5
36D
330
A
100
AcDbEntity
  8
03
100
AcDbLine
 10
205.0293497363795
 20
161.498326602647
 30
0.0
 11
215.2293497363796
 21
161.498326602647
 31
0.0
  0
LINE
  5
36E
330
A
100
AcDbEntity
  8
03
100
AcDbLine
 10
232.2293497363796
 20
161.498326602647
 30
0.0
 11
242.4293497363795
 21
161.498326602647
 31
0.0
  0
ARC
  5
36F
330
A
100
AcDbEntity
  8
03
100
AcDbCircle
 10
215.2293497363796
 20
162.9983266026471
 30
0.0
 40
1.5
100
AcDbArc
 50
270.0
 51
0.0
  0
ARC
  5
370
330
A
100
AcDbEntity
  8
03
100
AcDbCircle
 10
205.0293497363795
 20
162.9983266026471
 30
0.0
 40
1.5
100
AcDbArc
 50
180.0
 51
270.0
  0
ARC
  5
371
330
A
100
AcDbEntity
  8
03
100
AcDbCircle
 10
232.2293497363796
 20
162.9983266026471
 30
0.0
 40
1.5
100
AcDbArc
 50
180.0
 51
270.0
  0
ARC
  5
372
330
A
100
AcDbEntity
  8
03
100
AcDbCircle
 10
242.4293497363795
 20
162.9983266026471
 30
0.0
 40
1.5
100
AcDbArc
 50
270.0
 51
0.0
  0
LINE
  5
373
330
A
100
AcDbEntity
  8
03
100
AcDbLine
 10
201.2293497363796
 20
89.89832660264697
 30
0.0
 11
201.2293497363796
 21
142.3526564823577
 31
0.0
  0
LINE
  5
374
330
A
100
AcDbEntity
  8
03
100
AcDbLine
 10
201.2293497363796
 20
147.3526564823577
 30
0.0
 11
201.2293497363796
 21
251.4983266026471
 31
0.0
  0
LINE
  5
375
330
A
100
AcDbEntity
  8
03
100
AcDbLine
 10
216.7293497363794
 20
176.4983266026471
 30
0.0
 11
216.7293497363794
 21
147.3526564823577
 31
0.0
  0
LINE
  5
376
330
A
100
AcDbEntity
  8
03
100
AcDbLine
 10
216.7293497363794
 20
142.3526564823577
 30
0.0
 11
216.7293497363794
 21
89.89832660264697
 31
0.0
  0
LINE
  5
377
330
A
100
AcDbEntity
  8
03
100
AcDbLine
 10
230.7293497363795
 20
176.4983266026471
 30
0.0
 11
230.7293497363795
 21
147.3526564823577
 31
0.0
  0
LINE
  5
378
330
A
100
AcDbEntity
  8
03
100
AcDbLine
 10
230.7293497363795
 20
142.3526564823577
 30
0.0
 11
230.7293497363795
 21
89.89832660264697
 31
0.0
  0
LINE
  5
379
330
A
100
AcDbEntity
  8
03
100
AcDbLine
 10
246.2293497363795
 20
89.89832660264697
 30
0.0
 11
246.2293497363795
 21
142.3526564823577
 31
0.0
  0
LINE
  5
37A
330
A
100
AcDbEntity
  8
03
100
AcDbLine
 10
246.2293497363795
 20
147.3526564823577
 30
0.0
 11
246.2293497363795
 21
251.4983266026471
 31
0.0
  0
LINE
  5
37B
330
A
100
AcDbEntity
  8
03
100
AcDbLine
 10
333.2293497363796
 20
559.7047451669595
 30
0.0
 11
333.2293497363796
 21
147.3526564823577
 31
0.0
  0
LINE
  5
37C
330
A
100
AcDbEntity
  8
03
100
AcDbLine
 10
333.2293497363796
 20
142.3526564823577
 30
0.0
 11
333.2293497363796
 21
89.89832660264697
 31
0.0
  0
LINE
  5
37D
330
A
100
AcDbEntity
  8
03
100
AcDbLine
 10
271.7293497363795
 20
539.9983266026463
 30
0.0
 11
271.7293497363795
 21
521.998326602647
 31
0.0
  0
LINE
  5
37E
330
A
100
AcDbEntity
  8
03
100
AcDbLine
 10
270.1293497363796
 20
539.9983266026463
 30
0.0
 11
271.7293497363795
 21
539.9983266026463
 31
0.0
  0
LINE
  5
37F
330
A
100
AcDbEntity
  8
03
100
AcDbLine
 10
139.3293497363794
 20
521.9983266026471
 30
0.0
 11
270.1293497363796
 21
521.9983266026452
 31
0.0
  0
LINE
  5
380
330
A
100
AcDbEntity
  8
03
100
AcDbLine
 10
137.7293497363796
 20
520.3983266026471
 30
0.0
 11
137.7293497363796
 21
259.5983266026471
 31
0.0
  0
LINE
  5
381
330
A
100
AcDbEntity
  8
03
100
AcDbLine
 10
193.1293497363796
 20
242.9983266026471
 30
0.0
 11
194.7293497363795
 21
242.9983266026471
 31
0.0
  0
LINE
  5
39B
330
A
100
AcDbEntity
  8
SAISEN
100
AcDbLine
 10
119.7708202075802
 20
147.3526564823577
 30
0.0
 11
345.0838818516431
 21
147.3526564823577
 31
0.0
  0
LINE
  5
39C
330
A
100
AcDbEntity
  8
SAISEN
100
AcDbLine
 10
119.7708202075802
 20
142.3526564823577
 30
0.0
 11
345.0838818516431
 21
142.3526564823577
 31
0.0
  0
CIRCLE
  5
39D
330
A
100
AcDbEntity
  8
03
100
AcDbCircle
 10
167.7293497363795
 20
126.1254915425022
 30
0.0
 40
6.0
  0
LINE
  5
39E
330
A
100
AcDbEntity
  8
KAKURE
100
AcDbLine
 10
150.3293497363794
 20
468.8983266026489
 30
0.0
 11
144.3293497363795
 21
468.8983266026489
 31
0.0
  0
LINE
  5
39F
330
A
100
AcDbEntity
  8
KAKURE
100
AcDbLine
 10
150.3293497363795
 20
474.0983266026488
 30
0.0
 11
144.3293497363795
 21
474.0983266026488
 31
0.0
  0
LINE
  5
3A0
330
A
100
AcDbEntity
  8
KAKURE
100
AcDbLine
 10
150.3293497363794
 20
418.8983266026471
 30
0.0
 11
144.3293497363795
 21
418.8983266026471
 31
0.0
  0
LINE
  5
3A1
330
A
100
AcDbEntity
  8
KAKURE
100
AcDbLine
 10
150.3293497363795
 20
424.0983266026471
 30
0.0
 11
144.3293497363795
 21
424.0983266026471
 31
0.0
  0
LINE
  5
3A2
330
A
100
AcDbEntity
  8
KAKURE
100
AcDbLine
 10
150.3293497363794
 20
368.8983266026453
 30
0.0
 11
144.3293497363795
 21
368.8983266026453
 31
0.0
  0
LINE
  5
3A3
330
A
100
AcDbEntity
  8
KAKURE
100
AcDbLine
 10
150.3293497363795
 20
374.0983266026453
 30
0.0
 11
144.3293497363795
 21
374.0983266026453
 31
0.0
  0
CIRCLE
  5
3A4
330
A
100
AcDbEntity
  8
SAISEN
100
AcDbCircle
 10
58.81319453832634
 20
493.2718265751548
 30
0.0
 40
4.0
  0
CIRCLE
  5
3A5
330
A
100
AcDbEntity
  8
SAISEN
100
AcDbCircle
 10
40.57196160605649
 20
342.7497105245653
 30
0.0
 40
4.0
  0
CIRCLE
  5
3A9
330
A
100
AcDbEntity
  8
SOUZOU
 48
0.5
100
AcDbCircle
 10
233.2293497363795
 20
489.7047451669597
 30
0.0
 40
15.0
  0
LINE
  5
3AA
330
A
100
AcDbEntity
  8
CHUSIN
100
AcDbLine
 10
223.7293497363796
 20
89.89832660264697
 30
0.0
 11
223.7293497363796
 21
185.746331759206
 31
0.0
  0
LINE
  5
3AB
330
A
100
AcDbEntity
  8
03
100
AcDbLine
 10
220.7293497363794
 20
168.498326602647
 30
0.0
 11
226.7293497363795
 21
168.498326602647
 31
0.0
  0
LINE
  5
3AC
330
A
100
AcDbEntity
  8
03
100
AcDbLine
 10
220.7293497363794
 20
89.89832660264697
 30
0.0
 11
220.7293497363794
 21
142.3526564823577
 31
0.0
  0
LINE
  5
3AD
330
A
100
AcDbEntity
  8
03
100
AcDbLine
 10
220.7293497363794
 20
147.3526564823577
 30
0.0
 11
220.7293497363794
 21
168.498326602647
 31
0.0
  0
LINE
  5
3AE
330
A
100
AcDbEntity
  8
03
100
AcDbLine
 10
226.7293497363795
 20
168.498326602647
 30
0.0
 11
226.7293497363795
 21
147.3526564823577
 31
0.0
  0
LINE
  5
3AF
330
A
100
AcDbEntity
  8
03
100
AcDbLine
 10
226.7293497363795
 20
142.3526564823577
 30
0.0
 11
226.7293497363795
 21
89.89832660264697
 31
0.0
  0
LINE
  5
3B0
330
A
100
AcDbEntity
  8
KAKURE
 48
0.3
100
AcDbLine
 10
162.2293497363795
 20
241.498326602647
 30
0.0
 11
162.2293497363795
 21
259.5983266026471
 31
0.0
  0
LINE
  5
3B1
330
A
100
AcDbEntity
  8
KAKURE
 48
0.3
100
AcDbLine
 10
174.2293497363796
 20
259.5983266026471
 30
0.0
 11
174.2293497363796
 21
241.498326602647
 31
0.0
  0
LINE
  5
3B2
330
A
100
AcDbEntity
  8
KAKURE
100
AcDbLine
 10
150.3293497363794
 20
468.4983266026488
 30
0.0
 11
144.3293497363795
 21
468.4983266026488
 31
0.0
  0
LINE
  5
3B3
330
A
100
AcDbEntity
  8
KAKURE
100
AcDbLine
 10
150.3293497363795
 20
474.4983266026488
 30
0.0
 11
144.3293497363795
 21
474.4983266026488
 31
0.0
  0
LINE
  5
3B4
330
A
100
AcDbEntity
  8
KAKURE
100
AcDbLine
 10
150.3293497363794
 20
418.498326602647
 30
0.0
 11
144.3293497363795
 21
418.498326602647
 31
0.0
  0
LINE
  5
3B5
330
A
100
AcDbEntity
  8
KAKURE
100
AcDbLine
 10
150.3293497363795
 20
424.498326602647
 30
0.0
 11
144.3293497363795
 21
424.498326602647
 31
0.0
  0
LINE
  5
3B6
330
A
100
AcDbEntity
  8
KAKURE
100
AcDbLine
 10
150.3293497363794
 20
368.4983266026453
 30
0.0
 11
144.3293497363795
 21
368.4983266026453
 31
0.0
  0
LINE
  5
3B7
330
A
100
AcDbEntity
  8
KAKURE
100
AcDbLine
 10
150.3293497363795
 20
374.4983266026453
 30
0.0
 11
144.3293497363795
 21
374.4983266026453
 31
0.0
  0
LINE
  5
3BA
330
A
100
AcDbEntity
  8
CHUSIN
 48
0.5
100
AcDbLine
 10
192.0582319076753
 20
126.1254915425022
 30
0.0
 11
143.4004675650838
 21
126.1254915425022
 31
0.0
  0
LINE
  5
3BB
330
A
100
AcDbEntity
  8
CHUSIN
 48
0.5
100
AcDbLine
 10
167.7293497363795
 20
150.454373713798
 30
0.0
 11
167.7293497363795
 21
101.7966093712064
 31
0.0
  0
TEXT
  5
3D6
330
A
100
AcDbEntity
  8
HIKIDASI
100
AcDbText
 10
67.64169181284613
 20
230.8675175088676
 30
0.0
 40
5.0
  1

 41
0.8
  7
SUNPOU
 11
67.64169181284613
 21
235.8675175088676
 31
0.0
100
AcDbText
 73
     3
  0
TEXT
  5
3D7
330
A
100
AcDbEntity
  8
HIKIDASI
100
AcDbText
 10
72.11781675896145
 20
222.0303095849668
 30
0.0
 40
5.0
  1

 41
0.8
  7
SUNPOU
 11
72.11781675896145
 21
227.0303095849667
 31
0.0
100
AcDbText
 73
     3
  0
LINE
  5
3E9
330
A
100
AcDbEntity
  8
CHUSIN
100
AcDbLine
 10
211.3293497363796
 20
321.4983266026471
 30
0.0
 11
262.3293497363797
 21
321.498326602647
 31
0.0
  0
LINE
  5
3EC
330
A
100
AcDbEntity
  8
04
100
AcDbLine
 10
218.3293497363795
 20
346.498326602647
 30
0.0
 11
216.9893495837917
 21
351.498326602647
 31
0.0
  0
LINE
  5
3ED
330
A
100
AcDbEntity
  8
04
100
AcDbLine
 10
213.3293497363796
 20
351.498326602647
 30
0.0
 11
216.9893495837917
 21
351.498326602647
 31
0.0
  0
LINE
  5
3EE
330
A
100
AcDbEntity
  8
04
100
AcDbLine
 10
228.3293497363795
 20
346.498326602647
 30
0.0
 11
218.3293497363795
 21
346.498326602647
 31
0.0
  0
LINE
  5
3EF
330
A
100
AcDbEntity
  8
04
100
AcDbLine
 10
228.3293497363795
 20
346.498326602647
 30
0.0
 11
229.6693498889675
 21
351.498326602647
 31
0.0
  0
LINE
  5
3F0
330
A
100
AcDbEntity
  8
04
100
AcDbLine
 10
233.3293497363795
 20
351.498326602647
 30
0.0
 11
229.6693498889675
 21
351.498326602647
 31
0.0
  0
LINE
  5
3F2
330
A
100
AcDbEntity
  8
04
100
AcDbLine
 10
218.3293497363795
 20
296.4983266026471
 30
0.0
 11
216.9893495837917
 21
291.4983266026471
 31
0.0
  0
LINE
  5
3F3
330
A
100
AcDbEntity
  8
04
100
AcDbLine
 10
213.3293497363796
 20
351.498326602647
 30
0.0
 11
213.3293497363796
 21
291.4983266026471
 31
0.0
  0
LINE
  5
3F4
330
A
100
AcDbEntity
  8
04
100
AcDbLine
 10
213.3293497363796
 20
291.4983266026471
 30
0.0
 11
216.9893495837917
 21
291.4983266026471
 31
0.0
  0
LINE
  5
3F7
330
A
100
AcDbEntity
  8
04
100
AcDbLine
 10
228.3293497363795
 20
296.4983266026471
 30
0.0
 11
218.3293497363795
 21
296.4983266026471
 31
0.0
  0
LINE
  5
3F8
330
A
100
AcDbEntity
  8
04
100
AcDbLine
 10
228.3293497363795
 20
296.4983266026471
 30
0.0
 11
229.6693498889675
 21
291.4983266026471
 31
0.0
  0
LINE
  5
3F9
330
A
100
AcDbEntity
  8
04
100
AcDbLine
 10
233.3293497363795
 20
351.498326602647
 30
0.0
 11
233.3293497363795
 21
291.4983266026471
 31
0.0
  0
LINE
  5
3FA
330
A
100
AcDbEntity
  8
04
100
AcDbLine
 10
233.3293497363795
 20
291.4983266026471
 30
0.0
 11
229.6693498889675
 21
291.4983266026471
 31
0.0
  0
LINE
  5
3FD
330
A
100
AcDbEntity
  8
04
100
AcDbLine
 10
255.3293497363795
 20
289.0083268315289
 30
0.0
 11
260.12934897344
 21
289.0083268315289
 31
0.0
  0
LINE
  5
3FE
330
A
100
AcDbEntity
  8
04
100
AcDbLine
 10
255.3293497363795
 20
273.9883266121838
 30
0.0
 11
260.12934897344
 21
273.9883266121838
 31
0.0
  0
LINE
  5
3FF
330
A
100
AcDbEntity
  8
04
100
AcDbLine
 10
260.12934897344
 20
289.0083268315289
 30
0.0
 11
260.8293497363795
 21
287.7983258397076
 31
0.0
  0
LINE
  5
400
330
A
100
AcDbEntity
  8
04
100
AcDbLine
 10
260.12934897344
 20
273.9883266121838
 30
0.0
 11
260.8293497363795
 21
275.1983266503307
 31
0.0
  0
LINE
  5
401
330
A
100
AcDbEntity
  8
04
100
AcDbLine
 10
260.8293497363795
 20
275.1983266503307
 30
0.0
 11
260.8293497363795
 21
287.7983258397076
 31
0.0
  0
LINE
  5
407
330
A
100
AcDbEntity
  8
04
100
AcDbLine
 10
253.3293497363795
 20
289.1983273655865
 30
0.0
 11
255.3293497363795
 21
289.1983273655865
 31
0.0
  0
LINE
  5
408
330
A
100
AcDbEntity
  8
04
100
AcDbLine
 10
255.3293497363795
 20
273.7983265549634
 30
0.0
 11
253.3293497363795
 21
273.7983265549634
 31
0.0
  0
LINE
  5
40A
330
A
100
AcDbEntity
  8
04
100
AcDbLine
 10
255.3293497363795
 20
302.0083268315289
 30
0.0
 11
260.12934897344
 21
302.0083268315289
 31
0.0
  0
LINE
  5
40B
330
A
100
AcDbEntity
  8
04
100
AcDbLine
 10
260.12934897344
 20
302.0083268315289
 30
0.0
 11
260.8293497363795
 21
300.7983258397076
 31
0.0
  0
LINE
  5
40C
330
A
100
AcDbEntity
  8
04
100
AcDbLine
 10
260.7136469457009
 20
287.9983263238352
 30
0.0
 11
260.8293497363795
 21
288.1983266503307
 31
0.0
  0
LINE
  5
40D
330
A
100
AcDbEntity
  8
04
100
AcDbLine
 10
260.8293497363795
 20
288.1983266503307
 30
0.0
 11
260.8293497363795
 21
300.7983258397076
 31
0.0
  0
LINE
  5
413
330
A
100
AcDbEntity
  8
04
100
AcDbLine
 10
253.3293497363795
 20
302.1983273655865
 30
0.0
 11
255.3293497363795
 21
302.1983273655865
 31
0.0
  0
LINE
  5
416
330
A
100
AcDbEntity
  8
04
100
AcDbLine
 10
242.8293497363795
 20
309.4983266026472
 30
0.0
 11
242.8293497363795
 21
303.4983266026471
 31
0.0
  0
LINE
  5
417
330
A
100
AcDbEntity
  8
04
100
AcDbLine
 10
247.3293497363797
 20
266.498326602647
 30
0.0
 11
212.3293497363794
 21
266.498326602647
 31
0.0
  0
LINE
  5
418
330
A
100
AcDbEntity
  8
04
100
AcDbLine
 10
253.3293497363796
 20
269.4983266026475
 30
0.0
 11
253.3293497363796
 21
352.4983266026473
 31
0.0
  0
LINE
  5
419
330
A
100
AcDbEntity
  8
04
100
AcDbLine
 10
247.3293497363797
 20
269.4983266026475
 30
0.0
 11
247.3293497363797
 21
352.4983266026473
 31
0.0
  0
LINE
  5
41A
330
A
100
AcDbEntity
  8
04
100
AcDbLine
 10
242.3293497363796
 20
352.4983266026473
 30
0.0
 11
242.3293497363796
 21
306.4983266026473
 31
0.0
  0
LINE
  5
41B
330
A
100
AcDbEntity
  8
04
100
AcDbLine
 10
236.3293497363796
 20
306.4983266026473
 30
0.0
 11
236.3293497363796
 21
352.4983266026473
 31
0.0
  0
LINE
  5
41C
330
A
100
AcDbEntity
  8
04
100
AcDbLine
 10
236.3293497363796
 20
332.448326602647
 30
0.0
 11
233.3293497363795
 21
332.448326602647
 31
0.0
  0
LINE
  5
41E
330
A
100
AcDbEntity
  8
04
100
AcDbLine
 10
236.3293497363796
 20
310.5483266026471
 30
0.0
 11
233.3293497363795
 21
310.5483266026471
 31
0.0
  0
LINE
  5
420
330
A
100
AcDbEntity
  8
04
100
AcDbLine
 10
247.3293497363797
 20
352.4983266026473
 30
0.0
 11
253.3293497363796
 21
352.4983266026473
 31
0.0
  0
LINE
  5
421
330
A
100
AcDbEntity
  8
04
100
AcDbLine
 10
247.3293497363797
 20
269.4983266026475
 30
0.0
 11
253.3293497363796
 21
269.4983266026475
 31
0.0
  0
LINE
  5
422
330
A
100
AcDbEntity
  8
04
100
AcDbLine
 10
209.3293497363791
 20
260.498326602647
 30
0.0
 11
247.3293497363797
 21
260.498326602647
 31
0.0
  0
LINE
  5
423
330
A
100
AcDbEntity
  8
04
100
AcDbLine
 10
235.3293497363797
 20
266.498326602647
 30
0.0
 11
209.3293497363791
 21
266.498326602647
 31
0.0
  0
LINE
  5
424
330
A
100
AcDbEntity
  8
04
100
AcDbLine
 10
209.3293497363791
 20
260.498326602647
 30
0.0
 11
209.3293497363791
 21
266.498326602647
 31
0.0
  0
ARC
  5
425
330
A
100
AcDbEntity
  8
04
100
AcDbCircle
 10
235.3293497363797
 20
272.498326602647
 30
0.0
 40
6.0
100
AcDbArc
 50
270.0
 51
0.0
  0
LINE
  5
426
330
A
100
AcDbEntity
  8
04
100
AcDbLine
 10
241.3293497363797
 20
272.498326602647
 30
0.0
 11
241.3293497363797
 21
303.4983266026471
 31
0.0
  0
LINE
  5
427
330
A
100
AcDbEntity
  8
04
100
AcDbLine
 10
241.3293497363797
 20
303.4983266026471
 30
0.0
 11
247.3293497363797
 21
303.4983266026471
 31
0.0
  0
LINE
  5
428
330
A
100
AcDbEntity
  8
04
100
AcDbLine
 10
247.3293497363797
 20
260.498326602647
 30
0.0
 11
247.3293497363797
 21
303.4983266026471
 31
0.0
  0
LINE
  5
429
330
A
100
AcDbEntity
  8
04
100
AcDbLine
 10
247.3293497363797
 20
351.4983266026474
 30
0.0
 11
242.3293497363796
 21
351.4983266026474
 31
0.0
  0
LINE
  5
42A
330
A
100
AcDbEntity
  8
04
100
AcDbLine
 10
242.3293497363796
 20
319.4983266026473
 30
0.0
 11
247.3293497363797
 21
319.4983266026473
 31
0.0
  0
LINE
  5
42B
330
A
100
AcDbEntity
  8
04
100
AcDbLine
 10
236.3293497363796
 20
352.4983266026473
 30
0.0
 11
242.3293497363796
 21
352.4983266026473
 31
0.0
  0
LINE
  5
42C
330
A
100
AcDbEntity
  8
04
100
AcDbLine
 10
236.3293497363796
 20
306.4983266026473
 30
0.0
 11
242.3293497363796
 21
306.4983266026473
 31
0.0
  0
LINE
  5
42D
330
A
100
AcDbEntity
  8
04
100
AcDbLine
 10
226.8293497363795
 20
279.9983266026472
 30
0.0
 11
241.3293497363797
 21
279.9983266026472
 31
0.0
  0
LINE
  5
42F
330
A
100
AcDbEntity
  8
04
100
AcDbLine
 10
242.8293497363795
 20
309.4983266026472
 30
0.0
 11
247.3293497363797
 21
309.4983266026472
 31
0.0
  0
LINE
  5
432
330
A
100
AcDbEntity
  8
04
100
AcDbLine
 10
215.3293497363796
 20
279.4868886943351
 30
0.0
 11
216.3293497363795
 21
279.4868886943351
 31
0.0
  0
LINE
  5
433
330
A
100
AcDbEntity
  8
04
100
AcDbLine
 10
215.2293497363796
 20
267.4983266026472
 30
0.0
 11
213.8293497363795
 21
267.4983266026472
 31
0.0
  0
LINE
  5
434
330
A
100
AcDbEntity
  8
04
100
AcDbLine
 10
213.8293497363795
 20
267.4983266026472
 30
0.0
 11
213.8293497363795
 21
277.4983266026471
 31
0.0
  0
LINE
  5
435
330
A
100
AcDbEntity
  8
04
100
AcDbLine
 10
213.8293497363795
 20
277.4983266026471
 30
0.0
 11
215.3293497363796
 21
277.4983266026471
 31
0.0
  0
LINE
  5
43A
330
A
100
AcDbEntity
  8
04
100
AcDbLine
 10
216.3293497363795
 20
280.9983266026471
 30
0.0
 11
226.8293497363795
 21
280.9983266026471
 31
0.0
  0
LINE
  5
43F
330
A
100
AcDbEntity
  8
04
100
AcDbLine
 10
253.3293497363796
 20
350.4983266026473
 30
0.0
 11
253.3293497363796
 21
336.4983266026473
 31
0.0
  0
LINE
  5
440
330
A
100
AcDbEntity
  8
04
100
AcDbLine
 10
254.8374698795448
 20
349.2718266013836
 30
0.0
 11
258.8250345113797
 21
349.2718266026473
 31
0.0
  0
LINE
  5
441
330
A
100
AcDbEntity
  8
04
100
AcDbLine
 10
254.8374698422703
 20
337.7248266013836
 30
0.0
 11
258.8250345113797
 21
337.7248266026473
 31
0.0
  0
LINE
  5
442
330
A
100
AcDbEntity
  8
04
100
AcDbLine
 10
258.8250345113797
 20
349.2718266026473
 30
0.0
 11
259.3293497363795
 21
348.3983266026474
 31
0.0
  0
LINE
  5
443
330
A
100
AcDbEntity
  8
04
100
AcDbLine
 10
258.8250345113797
 20
337.7248266026473
 30
0.0
 11
259.3293497363795
 21
338.5983266026473
 31
0.0
  0
LINE
  5
444
330
A
100
AcDbEntity
  8
04
100
AcDbLine
 10
259.3293497363795
 20
338.5983266026473
 30
0.0
 11
259.3293497363795
 21
348.3983266026474
 31
0.0
  0
LINE
  5
449
330
A
100
AcDbEntity
  8
04
100
AcDbLine
 10
254.1293497363795
 20
350.4983266026474
 30
0.0
 11
253.3293497363796
 21
350.4983266026473
 31
0.0
  0
LINE
  5
44A
330
A
100
AcDbEntity
  8
04
100
AcDbLine
 10
254.1293497363795
 20
336.4983266026473
 30
0.0
 11
253.3293497363796
 21
336.4983266026473
 31
0.0
  0
LINE
  5
44C
330
A
100
AcDbEntity
  8
04
100
AcDbLine
 10
254.1293497363795
 20
336.4983266026473
 30
0.0
 11
254.8374698422703
 21
337.7248266013836
 31
0.0
  0
LINE
  5
44D
330
A
100
AcDbEntity
  8
04
100
AcDbLine
 10
254.1293497363795
 20
350.4983266026474
 30
0.0
 11
254.8374698422703
 21
349.2718266013835
 31
0.0
  0
LINE
  5
451
330
A
100
AcDbEntity
  8
04
100
AcDbLine
 10
259.3293497363795
 20
340.4983266026472
 30
0.0
 11
260.3293497363797
 21
340.4983266026472
 31
0.0
  0
LINE
  5
452
330
A
100
AcDbEntity
  8
04
100
AcDbLine
 10
259.3293497363795
 20
346.4983266026472
 30
0.0
 11
260.3293497363797
 21
346.4983266026472
 31
0.0
  0
LINE
  5
453
330
A
100
AcDbEntity
  8
04
100
AcDbLine
 10
260.3293497363797
 20
340.4983266026472
 30
0.0
 11
261.3293497363796
 21
341.4983266026473
 31
0.0
  0
LINE
  5
454
330
A
100
AcDbEntity
  8
04
100
AcDbLine
 10
260.3293497363797
 20
346.4983266026472
 30
0.0
 11
261.3293497363796
 21
345.4983266026473
 31
0.0
  0
LINE
  5
455
330
A
100
AcDbEntity
  8
04
100
AcDbLine
 10
261.3293497363796
 20
345.4983266026473
 30
0.0
 11
261.3293497363796
 21
341.4983266026473
 31
0.0
  0
LINE
  5
45A
330
A
100
AcDbEntity
  8
04
100
AcDbLine
 10
247.3293497363797
 20
269.498326602647
 30
0.0
 11
240.5255021590863
 21
269.498326602647
 31
0.0
  0
LINE
  5
473
330
A
100
AcDbEntity
  8
04
100
AcDbLine
 10
231.2293497363795
 20
270.098326602647
 30
0.0
 11
231.2293497363795
 21
274.9055062796196
 31
0.0
  0
LINE
  5
475
330
A
100
AcDbEntity
  8
04
100
AcDbLine
 10
229.3529613615133
 20
275.5983266026471
 30
0.0
 11
218.1057381112458
 21
275.5983266026471
 31
0.0
  0
LINE
  5
476
330
A
100
AcDbEntity
  8
04
100
AcDbLine
 10
216.2293497363795
 20
270.098326602647
 30
0.0
 11
216.2293497363795
 21
274.9055062796196
 31
0.0
  0
LINE
  5
47B
330
A
100
AcDbEntity
  8
04
100
AcDbLine
 10
216.0293497363795
 20
268.098326602647
 30
0.0
 11
216.0293497363795
 21
270.098326602647
 31
0.0
  0
LINE
  5
47C
330
A
100
AcDbEntity
  8
04
100
AcDbLine
 10
231.4293497363795
 20
268.098326602647
 30
0.0
 11
231.4293497363795
 21
270.098326602647
 31
0.0
  0
LINE
  5
480
330
A
100
AcDbEntity
  8
04
100
AcDbLine
 10
215.2293497363796
 20
266.498326602647
 30
0.0
 11
215.2293497363796
 21
268.098326602647
 31
0.0
  0
LINE
  5
481
330
A
100
AcDbEntity
  8
04
100
AcDbLine
 10
232.2293497363796
 20
266.498326602647
 30
0.0
 11
215.2293497363796
 21
266.498326602647
 31
0.0
  0
LINE
  5
482
330
A
100
AcDbEntity
  8
04
100
AcDbLine
 10
232.2293497363796
 20
266.498326602647
 30
0.0
 11
232.2293497363796
 21
268.098326602647
 31
0.0
  0
LINE
  5
48C
330
A
100
AcDbEntity
  8
06
100
AcDbLine
 10
294.3088282342983
 20
466.498326602647
 30
0.0
 11
290.3051556573698
 21
455.4983266026471
 31
0.0
  0
LINE
  5
48D
330
A
100
AcDbEntity
  8
06
100
AcDbLine
 10
290.3051556573698
 20
455.4983266026471
 30
0.0
 11
281.8125008112265
 21
455.4983266026471
 31
0.0
  0
LINE
  5
48E
330
A
100
AcDbEntity
  8
06
100
AcDbLine
 10
277.8088282342981
 20
466.498326602647
 30
0.0
 11
281.8125008112265
 21
455.4983266026471
 31
0.0
  0
LINE
  5
48F
330
A
100
AcDbEntity
  8
06
100
AcDbLine
 10
277.8088282342981
 20
466.498326602647
 30
0.0
 11
294.3088282342983
 21
466.498326602647
 31
0.0
  0
LINE
  5
490
330
A
100
AcDbEntity
  8
06
100
AcDbLine
 10
294.3088282342983
 20
376.498326602647
 30
0.0
 11
290.3051556573698
 21
387.498326602647
 31
0.0
  0
LINE
  5
491
330
A
100
AcDbEntity
  8
06
100
AcDbLine
 10
290.3051556573698
 20
387.498326602647
 30
0.0
 11
281.8125008112265
 21
387.498326602647
 31
0.0
  0
LINE
  5
492
330
A
100
AcDbEntity
  8
06
100
AcDbLine
 10
277.8088282342981
 20
376.498326602647
 30
0.0
 11
281.8125008112265
 21
387.498326602647
 31
0.0
  0
LINE
  5
493
330
A
100
AcDbEntity
  8
06
100
AcDbLine
 10
277.8088282342981
 20
376.498326602647
 30
0.0
 11
294.3088282342983
 21
376.498326602647
 31
0.0
  0
LINE
  5
4AC
330
A
100
AcDbEntity
  8
SOUZOU
 48
0.5
100
AcDbLine
 10
312.3293497363798
 20
409.9983266026474
 30
0.0
 11
312.3293497363798
 21
413.4983266026472
 31
0.0
  0
LINE
  5
4AD
330
A
100
AcDbEntity
  8
SOUZOU
 48
0.5
100
AcDbLine
 10
310.9685901251435
 20
407.6414915828062
 30
0.0
 11
312.3293497363798
 21
409.9983266026474
 31
0.0
  0
LINE
  5
4AE
330
A
100
AcDbEntity
  8
SOUZOU
 48
0.5
100
AcDbLine
 10
310.9685901701453
 20
435.3551615567367
 30
0.0
 11
312.3293497363798
 21
432.9983266026474
 31
0.0
  0
LINE
  5
4AF
330
A
100
AcDbEntity
  8
SOUZOU
 48
0.5
100
AcDbLine
 10
305.3293497363795
 20
407.6414919362953
 30
0.0
 11
310.9685901251435
 21
407.6414915828062
 31
0.0
  0
LINE
  5
4B0
330
A
100
AcDbEntity
  8
SOUZOU
 48
0.5
100
AcDbLine
 10
305.3293497363795
 20
435.3551615567367
 30
0.0
 11
310.9685901701453
 21
435.3551615567367
 31
0.0
  0
LINE
  5
4B4
330
A
100
AcDbEntity
  8
SOUZOU
 48
0.5
100
AcDbLine
 10
321.3293497363796
 20
428.4983266026465
 30
0.0
 11
321.3293497363796
 21
414.4983266026474
 31
0.0
  0
LINE
  5
4B5
330
A
100
AcDbEntity
  8
SOUZOU
 48
0.5
100
AcDbLine
 10
320.3293497363795
 20
429.4983266026465
 30
0.0
 11
321.3293497363796
 21
428.4983266026465
 31
0.0
  0
LINE
  5
4B6
330
A
100
AcDbEntity
  8
SOUZOU
 48
0.5
100
AcDbLine
 10
312.3293497363798
 20
429.4983266026465
 30
0.0
 11
320.3293497363795
 21
429.4983266026465
 31
0.0
  0
LINE
  5
4B7
330
A
100
AcDbEntity
  8
SOUZOU
 48
0.5
100
AcDbLine
 10
312.3293497363798
 20
413.4983266026472
 30
0.0
 11
320.3293497363795
 21
413.4983266026472
 31
0.0
  0
LINE
  5
4B8
330
A
100
AcDbEntity
  8
SOUZOU
 48
0.5
100
AcDbLine
 10
215.3293497363796
 20
356.4983266026461
 30
0.0
 11
215.3293497363796
 21
486.498326602648
 31
0.0
  0
LINE
  5
4B9
330
A
100
AcDbEntity
  8
SOUZOU
 48
0.5
100
AcDbLine
 10
215.3293497363796
 20
486.498326602648
 30
0.0
 11
150.3293497363794
 21
486.498326602648
 31
0.0
  0
LINE
  5
4BA
330
A
100
AcDbEntity
  8
SOUZOU
 48
0.5
100
AcDbLine
 10
150.3293497363794
 20
356.4983266026461
 30
0.0
 11
215.3293497363796
 21
356.4983266026461
 31
0.0
  0
LINE
  5
4BB
330
A
100
AcDbEntity
  8
SOUZOU
 48
0.5
100
AcDbLine
 10
305.3293497363795
 20
468.4983266776468
 30
0.0
 11
305.3293497363795
 21
435.3551615567367
 31
0.0
  0
LINE
  5
4BC
330
A
100
AcDbEntity
  8
SOUZOU
 48
0.5
100
AcDbLine
 10
150.3293497363794
 20
486.498326602648
 30
0.0
 11
150.3293497363794
 21
356.4983266026461
 31
0.0
  0
LINE
  5
4BD
330
A
100
AcDbEntity
  8
SOUZOU
 48
0.5
100
AcDbLine
 10
215.3293497363796
 20
471.4983266026471
 30
0.0
 11
302.3293495863798
 21
471.4983266026471
 31
0.0
  0
LINE
  5
4BE
330
A
100
AcDbEntity
  8
SOUZOU
 48
0.5
100
AcDbLine
 10
302.3293497363798
 20
371.498326602647
 30
0.0
 11
215.3293497363796
 21
371.498326602647
 31
0.0
  0
ARC
  5
4C2
330
A
100
AcDbEntity
  8
SOUZOU
 48
0.5
100
AcDbCircle
 10
302.3293497363798
 20
468.498326602647
 30
0.0
 40
3.0
100
AcDbArc
 50
0.0000014323956241
 51
90.00000286478963
  0
ARC
  5
4C3
330
A
100
AcDbEntity
  8
SOUZOU
 48
0.5
100
AcDbCircle
 10
302.3293497363798
 20
374.498326602647
 30
0.0
 40
3.000000000000013
100
AcDbArc
 50
270.0
 51
0.0000014323956241
  0
LINE
  5
4C4
330
A
100
AcDbEntity
  8
SOUZOU
100
AcDbLine
 10
320.3293497363795
 20
413.4983266026472
 30
0.0
 11
321.3293497363796
 21
414.4983266026474
 31
0.0
  0
LINE
  5
4C5
330
A
100
AcDbEntity
  8
CHUSIN
100
AcDbLine
 10
286.0588282342981
 20
473.9286708800782
 30
0.0
 11
286.0588282342981
 21
364.2801891758779
 31
0.0
  0
LINE
  5
4C6
330
A
100
AcDbEntity
  8
CHUSIN
 48
0.3
100
AcDbLine
 10
158.5941861627449
 20
371.4983266026453
 30
0.0
 11
140.8203325672569
 21
371.4983266026453
 31
0.0
  0
LINE
  5
4C7
330
A
100
AcDbEntity
  8
CHUSIN
 48
0.3
100
AcDbLine
 10
158.5941861627449
 20
471.4983266026488
 30
0.0
 11
140.8203325672569
 21
471.4983266026488
 31
0.0
  0
LINE
  5
4C8
330
A
100
AcDbEntity
  8
CHUSIN
100
AcDbLine
 10
140.8203325672569
 20
421.498326602647
 30
0.0
 11
327.7072150100426
 21
421.498326602647
 31
0.0
  0
LINE
  5
574
330
A
100
AcDbEntity
  8
04
100
AcDbLine
 10
203.9293596947842
 20
315.4983341703553
 30
0.0
 11
202.3307516778153
 21
315.4983282825928
 31
0.0
  0
LINE
  5
575
330
A
100
AcDbEntity
  8
04
100
AcDbLine
 10
202.3307967703452
 20
297.4983337498077
 30
0.0
 11
203.9292808096663
 21
297.4983202572025
 31
0.0
  0
LINE
  5
578
330
A
100
AcDbEntity
  8
04
100
AcDbLine
 10
205.5293011538445
 20
314.0038793262645
 30
0.0
 11
210.3342998259099
 21
314.0038827098306
 31
0.0
  0
LINE
  5
579
330
A
100
AcDbEntity
  8
04
100
AcDbLine
 10
205.5292876745059
 20
298.9926914962073
 30
0.0
 11
210.3343466254208
 21
298.9928255742298
 31
0.0
  0
LINE
  5
57A
330
A
100
AcDbEntity
  8
04
100
AcDbLine
 10
210.3344119589308
 20
314.0039385550843
 30
0.0
 11
211.0302324465095
 21
312.7983503517957
 31
0.0
  0
LINE
  5
57B
330
A
100
AcDbEntity
  8
04
100
AcDbLine
 10
210.3342790773481
 20
298.9927780115083
 30
0.0
 11
211.030306896181
 21
300.1983420296082
 31
0.0
  0
LINE
  5
57C
330
A
100
AcDbEntity
  8
04
100
AcDbLine
 10
211.0303374137918
 20
300.1983307825038
 30
0.0
 11
211.0303679309075
 21
312.7983371403997
 31
0.0
  0
LINE
  5
582
330
A
100
AcDbEntity
  8
04
100
AcDbLine
 10
205.5292458629021
 20
314.1983321488863
 30
0.0
 11
203.9293164217681
 21
314.1983348190631
 31
0.0
  0
LINE
  5
583
330
A
100
AcDbEntity
  8
04
100
AcDbLine
 10
205.52938356031
 20
298.7983315778471
 30
0.0
 11
203.929344840332
 21
298.7983343214796
 31
0.0
  0
LINE
  5
598
330
A
100
AcDbEntity
  8
04
100
AcDbLine
 10
202.3293497363795
 20
315.4983266026471
 30
0.0
 11
202.3293497363795
 21
294.4983266026471
 31
0.0
  0
LINE
  5
599
330
A
100
AcDbEntity
  8
04
100
AcDbLine
 10
197.3293497363795
 20
316.4983266026471
 30
0.0
 11
201.3293497363795
 21
316.4983266026471
 31
0.0
  0
ARC
  5
59A
330
A
100
AcDbEntity
  8
04
100
AcDbCircle
 10
201.3293497363795
 20
315.4983266026471
 30
0.0
 40
1.0
100
AcDbArc
 50
0.0
 51
90.0
  0
ARC
  5
59B
330
A
100
AcDbEntity
  8
04
100
AcDbCircle
 10
197.3293497363795
 20
315.4983266026471
 30
0.0
 40
1.0
100
AcDbArc
 50
90.0
 51
180.0
  0
LINE
  5
59C
330
A
100
AcDbEntity
  8
04
100
AcDbLine
 10
196.3293497363795
 20
315.4983266026471
 30
0.0
 11
196.3293497363795
 21
283.4983266026471
 31
0.0
  0
ARC
  5
59D
330
A
100
AcDbEntity
  8
04
100
AcDbCircle
 10
208.3293497363795
 20
294.4983266026471
 30
0.0
 40
6.0
100
AcDbArc
 50
180.0
 51
270.0
  0
ARC
  5
59E
330
A
100
AcDbEntity
  8
04
100
AcDbCircle
 10
197.3293497363795
 20
283.4983266026471
 30
0.0
 40
1.0
100
AcDbArc
 50
180.0
 51
270.0
  0
LINE
  5
59F
330
A
100
AcDbEntity
  8
04
100
AcDbLine
 10
197.3293497363795
 20
282.4983266026471
 30
0.0
 11
227.3293497363795
 21
282.4983266026471
 31
0.0
  0
LINE
  5
5A0
330
A
100
AcDbEntity
  8
04
100
AcDbLine
 10
208.3293497363795
 20
288.4983266026471
 30
0.0
 11
215.3293497363796
 21
288.4983266026471
 31
0.0
  0
ARC
  5
5A1
330
A
100
AcDbEntity
  8
04
100
AcDbCircle
 10
215.3293497363796
 20
291.4983266026471
 30
0.0
 40
3.0
100
AcDbArc
 50
270.0
 51
0.0
  0
LINE
  5
5A2
330
A
100
AcDbEntity
  8
04
100
AcDbLine
 10
218.3293497363795
 20
295.4983266026471
 30
0.0
 11
218.3293497363795
 21
291.4983266026471
 31
0.0
  0
ARC
  5
5A3
330
A
100
AcDbEntity
  8
04
100
AcDbCircle
 10
219.3293497363796
 20
295.4983266026471
 30
0.0
 40
1.0
100
AcDbArc
 50
90.0
 51
180.0
  0
LINE
  5
5A4
330
A
100
AcDbEntity
  8
04
100
AcDbLine
 10
219.3293497363796
 20
296.4983266026471
 30
0.0
 11
227.3293497363795
 21
296.4983266026471
 31
0.0
  0
LINE
  5
5A5
330
A
100
AcDbEntity
  8
04
100
AcDbLine
 10
228.3293497363795
 20
295.4983266026471
 30
0.0
 11
228.3293497363795
 21
292.4983266026471
 31
0.0
  0
LINE
  5
5A6
330
A
100
AcDbEntity
  8
04
100
AcDbLine
 10
227.3293497363795
 20
291.4983266026471
 30
0.0
 11
225.3293497363795
 21
291.4983266026471
 31
0.0
  0
LINE
  5
5A7
330
A
100
AcDbEntity
  8
04
100
AcDbLine
 10
225.3293497363795
 20
286.4983266026471
 30
0.0
 11
228.3293497363795
 21
286.4983266026471
 31
0.0
  0
LINE
  5
5A8
330
A
100
AcDbEntity
  8
04
100
AcDbLine
 10
224.3293497363795
 20
290.4983266026471
 30
0.0
 11
224.3293497363795
 21
287.4983266026471
 31
0.0
  0
LINE
  5
5A9
330
A
100
AcDbEntity
  8
04
100
AcDbLine
 10
228.3293497363795
 20
286.4983266026471
 30
0.0
 11
228.3293497363795
 21
283.4983266026471
 31
0.0
  0
ARC
  5
5AA
330
A
100
AcDbEntity
  8
04
100
AcDbCircle
 10
225.3293497363795
 20
287.4983266026471
 30
0.0
 40
1.0
100
AcDbArc
 50
180.0
 51
270.0
  0
ARC
  5
5AB
330
A
100
AcDbEntity
  8
04
100
AcDbCircle
 10
225.3293497363795
 20
290.4983266026471
 30
0.0
 40
1.0
100
AcDbArc
 50
90.0
 51
180.0
  0
ARC
  5
5AC
330
A
100
AcDbEntity
  8
04
100
AcDbCircle
 10
227.3293497363795
 20
292.4983266026471
 30
0.0
 40
1.0
100
AcDbArc
 50
270.0
 51
0.0
  0
ARC
  5
5AD
330
A
100
AcDbEntity
  8
04
100
AcDbCircle
 10
227.3293497363795
 20
283.4983266026471
 30
0.0
 40
1.0
100
AcDbArc
 50
270.0
 51
0.0
  0
ARC
  5
5AE
330
A
100
AcDbEntity
  8
04
100
AcDbCircle
 10
227.3293497363795
 20
295.4983266026471
 30
0.0
 40
1.0
100
AcDbArc
 50
0.0
 51
90.0
  0
LINE
  5
5AF
330
A
100
AcDbEntity
  8
CHUSIN
100
AcDbLine
 10
181.381825621987
 20
306.4983339614518
 30
0.0
 11
213.5884665406214
 21
306.4983339614518
 31
0.0
  0
POLYLINE
  5
664
330
A
100
AcDbEntity
  8
DEFPOINTS
100
AcDb2dPolyline
 66
     1
 10
0.0
 20
0.0
 30
0.0
 70
     1
  0
VERTEX
  5
1051
330
664
100
AcDbEntity
  8
DEFPOINTS
100
AcDbVertex
100
AcDb2dVertex
 10
0.0
 20
0.0
 30
0.0
  0
VERTEX
  5
1052
330
664
100
AcDbEntity
  8
DEFPOINTS
100
AcDbVertex
100
AcDb2dVertex
 10
420.0
 20
0.0
 30
0.0
  0
VERTEX
  5
1053
330
664
100
AcDbEntity
  8
DEFPOINTS
100
AcDbVertex
100
AcDb2dVertex
 10
420.0
 20
594.0
 30
0.0
  0
VERTEX
  5
1054
330
664
100
AcDbEntity
  8
DEFPOINTS
100
AcDbVertex
100
AcDb2dVertex
 10
0.0
 20
594.0
 30
0.0
  0
SEQEND
  5
1055
330
664
100
AcDbEntity
  8
DEFPOINTS
  0
LEADER
  5
67B
330
A
100
AcDbEntity
  8
HIKIDASI
100
AcDbLeader
  3
SUNPOU_2
 73
     0
 75
     1
 40
13.33333333333333
 41
28.0
 76
     3
 10
145.3293497363794
 20
471.4983266026488
 30
0.0
 10
89.92625352647499
 20
530.411304720876
 30
0.0
 10
84.92625352647499
 20
530.411304720876
 30
0.0
340
67C
213
0.0
223
8.504821242085428
233
0.0
1001
ACAD
1000
DSTYLE
1002
{
1070
     5
1000
OPEN30
1070
    77
1070
     1
1070
   147
1040
1.0
1070
   342
1005
646
1002
}
1000
LEANOF
1010
0.0
1020
8.504821242085428
1030
0.0
1000
LEANOF
1010
0.0
1020
8.504821242085428
1030
0.0
  0
MTEXT
  5
67C
330
A
100
AcDbEntity
  8
HIKIDASI
100
AcDbMText
 10
54.926253526475
 20
523.9064834787906
 30
0.0
 40
5.0
 41
0.0
 71
     7
 72
     1
  1
M6タップ\P(サッシ工事)
  7
SUNPOU
1001
ACAD
1000
MTEXTBEGIN
1070
    73
1070
     1
1070
    44
1040
1.0
1070
    74
1070
     0
1000
MTEXTEND
1000
MTEXTBEGIN
1070
    73
1070
     1
1070
    44
1040
1.0
1070
    74
1070
     0
1000
MTEXTEND
  0
LEADER
  5
67D
330
A
100
AcDbEntity
  8
HIKIDASI
100
AcDbLeader
  3
SUNPOU_2
 73
     0
 75
     1
 40
5.0
 41
35.6
 76
     3
 10
147.8693073838859
 20
448.8189536298498
 30
0.0
 10
100.0270271272978
 20
488.481541856987
 30
0.0
 10
95.02702712729783
 20
488.481541856987
 30
0.0
340
67E
213
0.0
223
-0.3371131333858557
233
0.0
1001
ACAD
1000
DSTYLE
1002
{
1070
     5
1000
OPEN30
1070
    77
1070
     1
1070
   147
1040
1.0
1070
   342
1005
646
1002
}
1000
LEANOF
1010
0.0
1020
-0.3371131333858557
1030
0.0
1000
LEANOF
1010
0.0
1020
-0.3371131333858557
1030
0.0
  0
MTEXT
  5
67E
330
A
100
AcDbEntity
  8
HIKIDASI
100
AcDbMText
 10
57.42702712729784
 20
490.818654990373
 30
0.0
 40
5.0
 41
0.0
 71
     7
 72
     1
  1
E  FB-50×6
  7
SUNPOU
1001
ACAD
1000
MTEXTBEGIN
1070
    73
1070
     1
1070
    44
1040
1.0
1070
    74
1070
     0
1000
MTEXTEND
1000
MTEXTBEGIN
1070
    73
1070
     1
1070
    44
1040
1.0
1070
    74
1070
     0
1000
MTEXTEND
  0
LEADER
  5
67F
330
A
100
AcDbEntity
  8
HIKIDASI
100
AcDbLeader
  3
SUNPOU_2
 73
     0
 75
     1
 40
5.0
 41
35.6
 76
     3
 10
194.4146915974833
 20
282.6796854774111
 30
0.0
 10
82.04682260203284
 20
337.1107262260609
 30
0.0
 10
77.04682260203284
 20
337.1107262260609
 30
0.0
340
680
213
0.0
223
-1.344651048364084
233
0.0
1001
ACAD
1000
DSTYLE
1002
{
1070
     5
1000
OPEN30
1070
    77
1070
     1
1070
   147
1040
1.0
1070
   342
1005
646
1002
}
1000
LEANOF
1010
0.0
1020
-1.344651048364084
1030
0.0
1000
LEANOF
1010
0.0
1020
-1.344651048364084
1030
0.0
  0
MTEXT
  5
680
330
A
100
AcDbEntity
  8
HIKIDASI
100
AcDbMText
 10
39.44682260203285
 20
340.455377274425
 30
0.0
 40
5.0
 41
0.0
 71
     7
 72
     1
  1
R　FB-50×6
  7
SUNPOU
1001
ACAD
1000
MTEXTBEGIN
1070
    73
1070
     1
1070
    44
1040
1.0
1070
    74
1070
     0
1000
MTEXTEND
1000
MTEXTBEGIN
1070
    73
1070
     1
1070
    44
1040
1.0
1070
    74
1070
     0
1000
MTEXTEND
  0
LEADER
  5
681
330
A
100
AcDbEntity
  8
HIKIDASI
100
AcDbLeader
  3
SUNPOU_2
 73
     0
 75
     1
 40
13.33333333333333
 41
28.0
 76
     3
 10
190.5293427553162
 20
306.4983266026471
 30
0.0
 10
74.0726969314992
 20
395.1428690937966
 30
0.0
 10
69.0726969314992
 20
395.1428690937966
 30
0.0
340
682
213
0.0
223
8.467595334164343
233
0.0
1001
ACAD
1000
DSTYLE
1002
{
1070
     5
1000
OPEN30
1070
    77
1070
     1
1070
   147
1040
1.0
1070
   342
1005
646
1002
}
1000
LEANOF
1010
0.0
1020
8.467595334164343
1030
0.0
1000
LEANOF
1010
0.0
1020
8.467595334164343
1030
0.0
  0
MTEXT
  5
682
330
A
100
AcDbEntity
  8
HIKIDASI
100
AcDbMText
 10
39.07269693149919
 20
388.6752737596323
 30
0.0
 40
5.0
 41
0.0
 71
     7
 72
     1
  1
M8タップ\P(サッシ工事)
  7
SUNPOU
1001
ACAD
1000
MTEXTBEGIN
1070
    73
1070
     1
1070
    44
1040
1.0
1070
    74
1070
     0
1000
MTEXTEND
1000
MTEXTBEGIN
1070
    73
1070
     1
1070
    44
1040
1.0
1070
    74
1070
     0
1000
MTEXTEND
  0
LEADER
  5
685
330
A
100
AcDbEntity
  8
HIKIDASI
100
AcDbLeader
  3
SUNPOU_2
 73
     0
 74
     0
 75
     1
 40
5.000000000000003
 41
48.40000000000005
 76
     3
 10
252.3323191962065
 20
326.0027170308716
 30
0.0
 10
261.2757712422301
 20
335.0349279780987
 30
0.0
 10
266.2757712422301
 20
335.0349279780987
 30
0.0
340
686
213
2.889787059453453
223
-1.656428381664909
233
0.0
1001
ACAD
1000
DSTYLE
1002
{
1070
     5
1000
OPEN30
1070
    77
1070
     1
1070
   147
1040
1.0
1070
   342
1005
646
1002
}
1000
LEANOF
1010
2.889787059453453
1020
-1.656428381664909
1030
0.0
1000
LEANOF
1010
2.889787059453453
1020
-1.656428381664909
1030
0.0
  0
MTEXT
  5
686
330
A
100
AcDbEntity
  8
HIKIDASI
100
AcDbMText
 10
265.3859841827766
 20
338.6913563597636
 30
0.0
 40
5.0
 41
0.0
 71
     7
 72
     1
  1
φ60ダブル戸車ハンガ
  7
SUNPOU
1001
ACAD
1000
MTEXTBEGIN
1070
    73
1070
     1
1070
    44
1040
1.0
1070
    74
1070
     0
1000
MTEXTEND
1000
MTEXTBEGIN
1070
    73
1070
     1
1070
    44
1040
1.0
1070
    74
1070
     0
1000
MTEXTEND
  0
LEADER
  5
687
330
A
100
AcDbEntity
  8
HIKIDASI
100
AcDbLeader
  3
SUNPOU_2
 73
     0
 75
     1
 40
13.33333333333333
 41
58.13333333333332
 76
     3
 10
163.4867090492603
 20
130.3681322296216
 30
0.0
 10
107.280981380091
 20
190.31846248983
 30
0.0
 10
102.280981380091
 20
190.31846248983
 30
0.0
340
688
213
0.0
223
9.301681298814116
233
0.0
1001
ACAD
1000
DSTYLE
1002
{
1070
     5
1000
OPEN30
1070
    77
1070
     1
1070
   147
1040
1.0
1070
   342
1005
646
1002
}
1000
LEANOF
1010
0.0
1020
9.301681298814116
1030
0.0
1000
LEANOF
1010
0.0
1020
9.301681298814116
1030
0.0
  0
MTEXT
  5
688
330
A
100
AcDbEntity
  8
HIKIDASI
100
AcDbMText
 10
42.14764804675769
 20
183.0167811910158
 30
0.0
 40
5.0
 41
0.0
 71
     7
 72
     1
  1
補助光電スイッチ取付φ12\P　　　(サッシ工事)
  7
SUNPOU
1001
ACAD
1000
MTEXTBEGIN
1070
    73
1070
     1
1070
    44
1040
1.0
1070
    74
1070
     0
1000
MTEXTEND
1000
MTEXTBEGIN
1070
    73
1070
     1
1070
    44
1040
1.0
1070
    74
1070
     0
1000
MTEXTEND
  0
DIMENSION
  5
6A8
330
A
100
AcDbEntity
  8
SUNPOU
100
AcDbDimension
  2
*D1
 10
116.4874678923887
 20
421.4983266026472
 30
0.0
 11
111.9874678923887
 21
438.498326602648
 31
0.0
 70
   160
  3
SUNPOU_2
100
AcDbAlignedDimension
 13
140.8203325672569
 23
471.4983266026488
 33
0.0
 14
140.8203325672569
 24
421.498326602647
 34
0.0
 50
90.0
100
AcDbRotatedDimension
  0
DIMENSION
  5
6C2
330
A
100
AcDbEntity
  8
SUNPOU
100
AcDbDimension
  2
*D2
 10
99.6836555360281
 20
241.498326602647
 30
0.0
 11
94.22928771353554
 21
343.2603933337341
 31
0.0
 70
   160
  3
SUNPOU_2
100
AcDbAlignedDimension
 13
140.8203325672569
 23
421.498326602647
 33
0.0
 14
137.8293497363795
 24
241.498326602647
 34
0.0
 50
90.0
100
AcDbRotatedDimension
  0
DIMENSION
  5
6CF
330
A
100
AcDbEntity
  8
SUNPOU
100
AcDbDimension
  2
*D3
 10
116.4874678923887
 20
241.498326602647
 30
0.0
 11
111.9874678923887
 21
273.9983302820494
 31
0.0
 70
    32
  3
SUNPOU_2
100
AcDbAlignedDimension
 13
181.781825621987
 23
306.4983339614518
 33
0.0
 14
137.8293497363795
 24
241.498326602647
 34
0.0
 50
90.0
100
AcDbRotatedDimension
  0
DIMENSION
  5
6EB
330
A
100
AcDbEntity
  8
SUNPOU
100
AcDbDimension
  2
*D4
 10
139.2293497363795
 20
214.3959093457068
 30
0.0
 11
129.6670600457813
 21
220.2642059267224
 31
0.0
 70
   160
  3
SUNPOU_2
100
AcDbAlignedDimension
 13
136.2293497363795
 23
243.098326602647
 33
0.0
 14
139.2293497363795
 24
241.498326602647
 34
0.0
100
AcDbRotatedDimension
  0
DIMENSION
  5
6FA
330
A
100
AcDbEntity
  8
SUNPOU
100
AcDbDimension
  2
*D5
 10
196.2293497363796
 20
214.3959093457068
 30
0.0
 11
167.7293497363795
 21
218.8959093457067
 31
0.0
 70
    32
  3
SUNPOU_2
100
AcDbAlignedDimension
 13
139.2293497363795
 23
241.498326602647
 33
0.0
 14
196.2293497363796
 24
214.3959093457068
 34
0.0
100
AcDbRotatedDimension
  0
DIMENSION
  5
707
330
A
100
AcDbEntity
  8
SUNPOU
100
AcDbDimension
  2
*D6
 10
201.2293497363796
 20
214.3959093457068
 30
0.0
 11
198.6234051858406
 21
220.1252476686538
 31
0.0
 70
   160
  3
SUNPOU_2
100
AcDbAlignedDimension
 13
196.2293497363796
 23
214.3959093457068
 33
0.0
 14
201.2293497363796
 24
214.3959093457068
 34
0.0
100
AcDbRotatedDimension
  0
DIMENSION
  5
716
330
A
100
AcDbEntity
  8
SUNPOU
100
AcDbDimension
  2
*D7
 10
246.2293497363794
 20
214.3959093457068
 30
0.0
 11
223.7293497363796
 21
218.8959093457067
 31
0.0
 70
    32
  3
SUNPOU_2
100
AcDbAlignedDimension
 13
201.2293497363796
 23
214.3959093457068
 33
0.0
 14
246.2293497363794
 24
214.3959093457068
 34
0.0
100
AcDbRotatedDimension
  0
DIMENSION
  5
723
330
A
100
AcDbEntity
  8
SUNPOU
100
AcDbDimension
  2
*D8
 10
251.2293497363796
 20
214.3959093457068
 30
0.0
 11
248.8536614711216
 21
219.9619660509764
 31
0.0
 70
   160
  3
SUNPOU_2
100
AcDbAlignedDimension
 13
246.2293497363794
 23
214.3959093457068
 33
0.0
 14
251.2293497363796
 24
243.098326602647
 34
0.0
100
AcDbRotatedDimension
  0
DIMENSION
  5
732
330
A
100
AcDbEntity
  8
SUNPOU
100
AcDbDimension
  2
*D9
 10
330.2293497363796
 20
214.3959093457068
 30
0.0
 11
290.7293497363795
 21
218.8959093457067
 31
0.0
 70
    32
  3
SUNPOU_2
100
AcDbAlignedDimension
 13
251.2293497363796
 23
243.098326602647
 33
0.0
 14
330.2293497363796
 24
247.2983266026471
 34
0.0
100
AcDbRotatedDimension
  0
DIMENSION
  5
73F
330
A
100
AcDbEntity
  8
SUNPOU
100
AcDbDimension
  2
*D10
 10
330.2293497363796
 20
201.3638819124297
 30
0.0
 11
336.9496701244103
 21
207.2989609478764
 31
0.0
 70
   160
  3
SUNPOU_2
100
AcDbAlignedDimension
 13
333.2293497363796
 23
247.2983266026471
 33
0.0
 14
330.2293497363796
 24
247.2983266026471
 34
0.0
100
AcDbRotatedDimension
  0
DIMENSION
  5
75B
330
A
100
AcDbEntity
  8
SUNPOU
100
AcDbDimension
  2
*D11
 10
136.2293497363795
 20
201.3638819124297
 30
0.0
 11
223.7293497363796
 21
205.8638819124297
 31
0.0
 70
   160
  3
SUNPOU_2
100
AcDbAlignedDimension
 13
330.2293497363796
 23
247.2983266026471
 33
0.0
 14
136.2293497363795
 24
243.098326602647
 34
0.0
100
AcDbRotatedDimension
  0
DIMENSION
  5
768
330
A
100
AcDbEntity
  8
SUNPOU
100
AcDbDimension
  2
*D12
 10
133.2293497363795
 20
201.3638819124297
 30
0.0
 11
129.7829208987955
 21
207.3066645955156
 31
0.0
 70
   160
  3
SUNPOU_2
100
AcDbAlignedDimension
 13
136.2293497363795
 23
243.098326602647
 33
0.0
 14
133.2293497363795
 24
201.3638819124297
 34
0.0
100
AcDbRotatedDimension
  0
DIMENSION
  5
777
330
A
100
AcDbEntity
  8
SUNPOU
100
AcDbDimension
  2
*D13
 10
333.2293497363796
 20
187.3293908304391
 30
0.0
 11
223.7293497363796
 21
191.8293908304391
 31
0.0
 70
   160
  3
SUNPOU_2
100
AcDbAlignedDimension
 13
133.2293497363794
 23
187.3293908304391
 33
0.0
 14
333.2293497363796
 24
187.3293908304391
 34
0.0
100
AcDbRotatedDimension
  0
DIMENSION
  5
784
330
A
100
AcDbEntity
  8
SUNPOU
100
AcDbDimension
  2
*D14
 10
374.7820197377315
 20
241.498326602647
 30
0.0
 11
370.2820197377314
 21
391.4983266026471
 31
0.0
 70
    32
  3
SUNPOU_2
100
AcDbAlignedDimension
 13
328.6293497363796
 23
541.498326602647
 33
0.0
 14
328.6293497363796
 24
241.498326602647
 34
0.0
 50
90.0
100
AcDbRotatedDimension
  0
DIMENSION
  5
791
330
A
100
AcDbEntity
  8
SUNPOU
100
AcDbDimension
  2
*D15
 10
374.7820197377315
 20
89.89832660264697
 30
0.0
 11
370.2820197377314
 21
165.698326602647
 31
0.0
 70
    32
  1
H
  3
SUNPOU_2
100
AcDbAlignedDimension
 13
374.7820197377315
 23
241.498326602647
 33
0.0
 14
374.7820197377315
 24
89.89832660264697
 34
0.0
 50
90.0
100
AcDbRotatedDimension
1001
ACAD
1000
DSTYLE
1002
{
1070
    76
1070
     1
1070
   282
1070
     0
1002
}
  0
DIMENSION
  5
7DF
330
A
100
AcDbEntity
  8
SUNPOU
100
AcDbDimension
  2
*D16
 10
282.5283493308096
 20
241.498326602647
 30
0.0
 11
276.884133655919
 21
246.4128168496312
 31
0.0
 70
   160
  3
SUNPOU_2
100
AcDbAlignedDimension
 13
246.2293497363794
 23
251.4983266026471
 33
0.0
 14
282.5283493308096
 24
241.498326602647
 34
0.0
 50
90.0
100
AcDbRotatedDimension
  0
DIMENSION
  5
7EE
330
A
100
AcDbEntity
  8
SUNPOU
100
AcDbDimension
  2
*D17
 10
358.2573746113288
 20
89.89832660264697
 30
0.0
 11
353.7573746113289
 21
170.6983266026471
 31
0.0
 70
    32
  1
DH
  3
SUNPOU_2
100
AcDbAlignedDimension
 13
246.2293497363794
 23
251.4983266026471
 33
0.0
 14
358.2573746113288
 24
89.89832660264697
 34
0.0
 50
90.0
100
AcDbRotatedDimension
1001
ACAD
1000
DSTYLE
1002
{
1070
    76
1070
     1
1002
}
  0
DIMENSION
  5
803
330
A
100
AcDbEntity
  8
SUNPOU
100
AcDbDimension
  2
*D18
 10
107.0515344696089
 20
89.89832660264697
 30
0.0
 11
102.551534469609
 21
108.0119090725746
 31
0.0
 70
    32
  1
FL+600
  3
SUNPOU_2
100
AcDbAlignedDimension
 13
143.4004675650838
 23
126.1254915425022
 33
0.0
 14
107.0515344696089
 24
89.89832660264697
 34
0.0
 50
90.0
100
AcDbRotatedDimension
1001
ACAD
1000
DSTYLE
1002
{
1070
    76
1070
     1
1002
}
  0
DIMENSION
  5
830
330
A
100
AcDbEntity
  8
SUNPOU
100
AcDbDimension
  2
*D19
 10
245.5479254287331
 20
498.2635238714102
 30
0.0
 11
233.2293497363794
 21
489.7047451669595
 31
0.0
 70
   163
  1
φ30通線穴\P(両端)
  3
SUNPOU_2
100
AcDbDiametricDimension
 15
220.9107740440261
 25
481.145966462509
 35
0.0
 40
0.0
1001
ACAD
1000
DSTYLE
1002
{
1070
   288
1070
     1
1002
}
  0
DIMENSION
  5
927
330
A
100
AcDbEntity
  8
SUNPOU
100
AcDbDimension
  2
*D20
 10
116.6105344593556
 20
371.4983266026453
 30
0.0
 11
111.0068960163678
 21
388.1818234471581
 31
0.0
 70
   161
  3
SUNPOU_2
100
AcDbAlignedDimension
 13
140.8203325672569
 23
421.498326602647
 33
0.0
 14
140.8203325672569
 24
371.4983266026453
 34
0.0
  0
LINE
  5
958
330
A
100
AcDbEntity
  8
CHUSIN
100
AcDbLine
 10
223.7293497363796
 20
225.5477558111544
 30
0.0
 11
223.7293497363796
 21
275.9983266026472
 31
0.0
  0
DIMENSION
  5
B3F
330
A
100
AcDbEntity
  8
SUNPOU
  6
CONTINUOUS
100
AcDbDimension
  2
*D21
 10
321.3293497363796
 20
511.1272921709718
 30
0.0
 11
235.8293497363795
 21
515.6272921709719
 31
0.0
 70
    32
  3
SUNPOU_2
100
AcDbAlignedDimension
 13
150.3293497363794
 23
505.398326602647
 33
0.0
 14
321.3293497363796
 24
428.2983266026467
 34
0.0
100
AcDbRotatedDimension
  0
LINE
  5
B82
330
A
100
AcDbEntity
  8
04
  6
CONTINUOUS
100
AcDbLine
 10
255.3293497363795
 20
273.9883266121838
 30
0.0
 11
255.3293497363795
 21
273.7983265549634
 31
0.0
  0
LINE
  5
B83
330
A
100
AcDbEntity
  8
04
  6
CONTINUOUS
100
AcDbLine
 10
255.3293497363795
 20
289.0083268315289
 30
0.0
 11
255.3293497363795
 21
289.1983273655865
 31
0.0
  0
LINE
  5
B84
330
A
100
AcDbEntity
  8
04
  6
CONTINUOUS
100
AcDbLine
 10
255.3293497363795
 20
302.0083268315289
 30
0.0
 11
255.3293497363795
 21
302.1983273655865
 31
0.0
  0
LINE
  5
B86
330
A
100
AcDbEntity
  8
04
  6
CONTINUOUS
100
AcDbLine
 10
215.2293497363796
 20
268.098326602647
 30
0.0
 11
216.0293497363795
 21
268.098326602647
 31
0.0
  0
LINE
  5
B87
330
A
100
AcDbEntity
  8
04
  6
CONTINUOUS
100
AcDbLine
 10
232.2293497363796
 20
268.098326602647
 30
0.0
 11
231.4293497363795
 21
268.098326602647
 31
0.0
  0
LINE
  5
B88
330
A
100
AcDbEntity
  8
04
  6
CONTINUOUS
100
AcDbLine
 10
231.4293497363795
 20
270.098326602647
 30
0.0
 11
231.2293497363795
 21
270.098326602647
 31
0.0
  0
LINE
  5
B89
330
A
100
AcDbEntity
  8
04
  6
CONTINUOUS
100
AcDbLine
 10
216.0293497363795
 20
270.098326602647
 30
0.0
 11
216.2293497363795
 21
270.098326602647
 31
0.0
  0
LINE
  5
B8A
330
A
100
AcDbEntity
  8
04
  6
CONTINUOUS
100
AcDbLine
 10
216.2293497363795
 20
274.9055062796196
 30
0.0
 11
218.1057381112458
 21
275.5983266026471
 31
0.0
  0
LINE
  5
B8B
330
A
100
AcDbEntity
  8
04
  6
CONTINUOUS
100
AcDbLine
 10
231.2293497363795
 20
274.9055062796196
 30
0.0
 11
229.3529613615133
 21
275.5983266026471
 31
0.0
  0
LINE
  5
CA1
330
A
100
AcDbEntity
  8
03
  6
CONTINUOUS
100
AcDbLine
 10
215.2293497363796
 20
176.4983266026471
 30
0.0
 11
232.2293497363796
 21
176.4983266026471
 31
0.0
  0
LINE
  5
CAB
330
A
100
AcDbEntity
  8
04
  6
CONTINUOUS
100
AcDbLine
 10
203.9293596947842
 20
315.4983341703553
 30
0.0
 11
203.9293596947842
 21
314.1983348189908
 31
0.0
  0
LINE
  5
CAC
330
A
100
AcDbEntity
  8
04
  6
CONTINUOUS
100
AcDbLine
 10
205.5292458629021
 20
314.1983321488863
 30
0.0
 11
205.5293011538445
 21
314.0038793262645
 31
0.0
  0
LINE
  5
CAD
330
A
100
AcDbEntity
  8
04
  6
CONTINUOUS
100
AcDbLine
 10
205.5292876745059
 20
298.9926914962073
 30
0.0
 11
205.5292873412314
 21
298.798331578012
 31
0.0
  0
LINE
  5
CAE
330
A
100
AcDbEntity
  8
04
  6
CONTINUOUS
100
AcDbLine
 10
203.929344840332
 20
298.7983343214796
 30
0.0
 11
203.9292808096663
 21
297.4983202572025
 31
0.0
  0
LINE
  5
CAF
330
A
100
AcDbEntity
  8
04
  6
CONTINUOUS
100
AcDbLine
 10
215.3293497363796
 20
277.4983266026471
 30
0.0
 11
215.3293497363796
 21
279.4868886943351
 31
0.0
  0
LINE
  5
CB1
330
A
100
AcDbEntity
  8
04
  6
CONTINUOUS
100
AcDbLine
 10
216.3293497363795
 20
279.4868886943351
 30
0.0
 11
216.3293497363795
 21
280.9983266026471
 31
0.0
  0
LINE
  5
CB3
330
A
100
AcDbEntity
  8
04
  6
CONTINUOUS
100
AcDbLine
 10
226.8293497363795
 20
280.9983266026471
 30
0.0
 11
226.8293497363795
 21
279.9983266026472
 31
0.0
  0
MTEXT
  5
CC2
330
A
100
AcDbEntity
  8
MOJI
  6
CONTINUOUS
100
AcDbMText
 10
24.48871071209237
 20
104.925614739176
 30
0.0
 40
6.0
 41
0.0
 71
     4
 72
     1
  1
\U+203B扉１枚質量１５０kg以内\P（１５０kgを超える場合\P　は係員にご相談下さい。）
  7
0_8
1001
ACAD
1000
MTEXTBEGIN
1070
    73
1070
     1
1070
    44
1040
1.0
1070
    74
1070
     0
1000
MTEXTEND
1000
MTEXTBEGIN
1070
    73
1070
     1
1070
    44
1040
1.0
1070
    74
1070
     0
1000
MTEXTEND
  0
LINE
  5
D04
330
A
100
AcDbEntity
  8
CHUSIN
100
AcDbLine
 10
223.7293497363796
 20
209.7034063784161
 30
0.0
 11
223.7293497363796
 21
211.9642428419862
 31
0.0
  0
LINE
  5
D05
330
A
100
AcDbEntity
  8
CHUSIN
100
AcDbLine
 10
223.7293497363796
 20
195.4905493170386
 30
0.0
 11
223.7293497363796
 21
198.776561366817
 31
0.0
  0
LEADER
  5
D08
330
A
100
AcDbEntity
  8
HIKIDASI
100
AcDbLeader
  3
SUNPOU_2
 73
     0
 75
     1
 40
13.33333333333333
 41
28.0
 76
     3
 10
145.3293497363794
 20
421.498326602647
 30
0.0
 10
91.46148505385712
 20
473.4825516496306
 30
0.0
 10
86.46148505385712
 20
473.4825516496306
 30
0.0
340
D09
213
0.0
223
8.283313065340053
233
0.0
1001
ACAD
1000
DSTYLE
1002
{
1070
     5
1000
OPEN30
1070
    77
1070
     1
1070
   147
1040
1.0
1070
   342
1005
646
1002
}
1000
LEANOF
1010
0.0
1020
8.283313065340053
1030
0.0
1000
LEANOF
1010
0.0
1020
8.283313065340053
1030
0.0
  0
MTEXT
  5
D09
330
A
100
AcDbEntity
  8
HIKIDASI
100
AcDbMText
 10
56.46148505385713
 20
467.1992385842907
 30
0.0
 40
5.0
 41
0.0
 71
     7
 72
     1
  1
M6タップ\P(サッシ工事)
  7
SUNPOU
1001
ACAD
1000
MTEXTBEGIN
1070
    73
1070
     1
1070
    44
1040
1.0
1070
    74
1070
     0
1000
MTEXTEND
1000
MTEXTBEGIN
1070
    73
1070
     1
1070
    44
1040
1.0
1070
    74
1070
     0
1000
MTEXTEND
  0
INSERT
  5
D43
330
A
100
AcDbEntity
  8
KAKURE
  6
CONTINUOUS
100
AcDbBlockReference
  2
*X24
 10
0.0
 20
0.0
 30
0.0
1001
ACAD
1000
HATCH
1002
{
1070
    19
1000
ANSI31
1040
15.0
1040
0.0
1000
R14_HATCH_DATA
1000
D43
1011
1.0
1021
0.0
1031
0.0
1011
0.0
1021
1.0
1031
0.0
1011
0.0
1021
0.0
1031
1.0
1040
0.0
1010
0.0
1020
0.0
1030
1.0
1000
ANSI31
1070
     0
1070
     0
1071
        4
1071
        7
1070
     0
1070
     1
1071
        4
1040
174.2293497363796
1040
243.098326602647
1040
162.2293497363795
1040
243.098326602647
1040
162.2293497363795
1040
241.498326602647
1040
174.2293497363796
1040
241.498326602647
1071
        0
1071
        7
1070
     0
1070
     1
1071
        4
1040
174.2293497363796
1040
256.498326602647
1040
162.2293497363795
1040
256.498326602647
1040
162.2293497363795
1040
243.098326602647
1040
174.2293497363796
1040
243.098326602647
1071
        0
1071
        7
1070
     0
1070
     1
1071
        4
1040
174.2293497363795
1040
257.998326602647
1040
162.2293497363795
1040
257.998326602647
1040
162.2293497363795
1040
256.498326602647
1040
174.2293497363796
1040
256.498326602647
1071
        0
1071
        7
1070
     0
1070
     1
1071
        4
1040
174.2293497363796
1040
259.5983266026471
1040
162.2293497363795
1040
259.5983266026471
1040
162.2293497363795
1040
257.998326602647
1040
174.2293497363796
1040
257.998326602647
1071
        0
1070
     0
1070
     1
1040
0.0
1040
15.0
1070
     0
1070
     1
1040
0.7853981633974483
1040
0.0
1040
0.0
1040
-1.325825214724775
1040
1.325825214724775
1070
     0
1040
0.0804587391230054
1071
        4
1040
165.9522961116086
1040
242.3191333522163
1040
0.0
1040
166.0327842426769
1040
246.1811534404636
1040
0.0
1040
164.5035132354315
1040
257.364917586245
1040
0.0
1040
165.8718079805405
1040
258.8936336089799
1040
0.0
1002
}
  0
DIMENSION
  5
D51
330
A
100
AcDbEntity
  8
SUNPOU
  6
CONTINUOUS
100
AcDbDimension
  2
*D22
 10
223.3293497363795
 20
359.9069828408647
 30
0.0
 11
209.8293497363795
 21
364.4069828408647
 31
0.0
 70
    32
  3
SUNPOU_2
100
AcDbAlignedDimension
 13
196.3293497363795
 23
318.598326602647
 33
0.0
 14
223.3293497363795
 24
355.5221752799701
 34
0.0
100
AcDbRotatedDimension
  0
POLYLINE
  5
D6A
330
A
100
AcDbEntity
  8
SAISEN
100
AcDb2dPolyline
 66
     1
 10
0.0
 20
0.0
 30
0.0
 70
     1
  0
VERTEX
  5
1056
330
D6A
100
AcDbEntity
  8
SAISEN
100
AcDbVertex
100
AcDb2dVertex
 10
91.03029746079746
 20
152.3236222729348
 30
0.0
  0
VERTEX
  5
1057
330
D6A
100
AcDbEntity
  8
SAISEN
100
AcDbVertex
100
AcDb2dVertex
 10
101.0302974607973
 20
152.3236222729348
 30
0.0
  0
VERTEX
  5
1058
330
D6A
100
AcDbEntity
  8
SAISEN
100
AcDbVertex
100
AcDb2dVertex
 10
101.0302974607973
 20
182.3236222729348
 30
0.0
  0
VERTEX
  5
1059
330
D6A
100
AcDbEntity
  8
SAISEN
100
AcDbVertex
100
AcDb2dVertex
 10
91.03029746079746
 20
182.3236222729348
 30
0.0
  0
SEQEND
  5
105A
330
D6A
100
AcDbEntity
  8
SAISEN
  0
MTEXT
  5
D6B
330
A
100
AcDbEntity
  8
MOJI
100
AcDbMText
 10
96.03029746079748
 20
167.3236222729348
 30
0.0
 40
6.0
 41
10.0
 71
     5
 72
     1
  1
外\P\P部
  7
0_8
1001
ACAD
1000
MTEXTBEGIN
1070
    73
1070
     1
1070
    44
1040
1.0
1070
    74
1070
     0
1000
MTEXTEND
1000
MTEXTBEGIN
1070
    73
1070
     1
1070
    44
1040
1.0
1070
    74
1070
     0
1000
MTEXTEND
  0
POLYLINE
  5
D6C
330
A
100
AcDbEntity
  8
SAISEN
100
AcDb2dPolyline
 66
     1
 10
0.0
 20
0.0
 30
0.0
 70
     1
  0
VERTEX
  5
105B
330
D6C
100
AcDbEntity
  8
SAISEN
100
AcDbVertex
100
AcDb2dVertex
 10
387.6667019918741
 20
152.3236222729348
 30
0.0
  0
VERTEX
  5
105C
330
D6C
100
AcDbEntity
  8
SAISEN
100
AcDbVertex
100
AcDb2dVertex
 10
397.6667019918741
 20
152.3236222729348
 30
0.0
  0
VERTEX
  5
105D
330
D6C
100
AcDbEntity
  8
SAISEN
100
AcDbVertex
100
AcDb2dVertex
 10
397.6667019918741
 20
182.3236222729348
 30
0.0
  0
VERTEX
  5
105E
330
D6C
100
AcDbEntity
  8
SAISEN
100
AcDbVertex
100
AcDb2dVertex
 10
387.6667019918741
 20
182.3236222729348
 30
0.0
  0
SEQEND
  5
105F
330
D6C
100
AcDbEntity
  8
SAISEN
  0
MTEXT
  5
D6D
330
A
100
AcDbEntity
  8
MOJI
100
AcDbMText
 10
392.666701991874
 20
167.3236222729348
 30
0.0
 40
6.0
 41
10.0
 71
     5
 72
     1
  1
内\P\P部
  7
0_8
1001
ACAD
1000
MTEXTBEGIN
1070
    73
1070
     1
1070
    44
1040
1.0
1070
    74
1070
     0
1000
MTEXTEND
1000
MTEXTBEGIN
1070
    73
1070
     1
1070
    44
1040
1.0
1070
    74
1070
     0
1000
MTEXTEND
  0
MTEXT
  5
DAC
330
A
100
AcDbEntity
  8
MOJI
  6
CONTINUOUS
100
AcDbMText
 10
244.3587842165973
 20
442.5370129590458
 30
0.0
 40
6.0
 41
0.0
 71
     5
 72
     1
  1
SOV-300KDC\P(防振ゴムタイプ)
  7
0_8
1001
ACAD
1000
MTEXTBEGIN
1070
    73
1070
     1
1070
    44
1040
1.0
1070
    74
1070
     0
1000
MTEXTEND
1000
MTEXTBEGIN
1070
    73
1070
     1
1070
    44
1040
1.0
1070
    74
1070
     0
1000
MTEXTEND
  0
LEADER
  5
E00
330
A
100
AcDbEntity
  8
HIKIDASI
100
AcDbLeader
  3
SUNPOU_2
 73
     0
 75
     1
 40
13.33333333333333
 41
28.0
 76
     3
 10
145.3293497363794
 20
371.4983266026453
 30
0.0
 10
89.92625352647499
 20
439.0823679037902
 30
0.0
 10
84.92625352647499
 20
439.0823679037902
 30
0.0
340
E01
213
0.0
223
8.956091804871844
233
0.0
1001
ACAD
1000
DSTYLE
1002
{
1070
     5
1000
OPEN30
1070
    77
1070
     1
1070
   147
1040
1.0
1070
   342
1005
646
1002
}
1000
LEANOF
1010
0.0
1020
8.956091804871844
1030
0.0
1000
LEANOF
1010
0.0
1020
8.956091804871844
1030
0.0
  0
MTEXT
  5
E01
330
A
100
AcDbEntity
  8
HIKIDASI
100
AcDbMText
 10
54.926253526475
 20
432.1262760989183
 30
0.0
 40
5.0
 41
0.0
 71
     7
 72
     1
  1
M6タップ\P(サッシ工事)
  7
SUNPOU
1001
ACAD
1000
MTEXTBEGIN
1070
    73
1070
     1
1070
    44
1040
1.0
1070
    74
1070
     0
1000
MTEXTEND
1000
MTEXTBEGIN
1070
    73
1070
     1
1070
    44
1040
1.0
1070
    74
1070
     0
1000
MTEXTEND
  0
LINE
  5
E4D
330
A
100
AcDbEntity
  8
03
100
AcDbLine
 10
139.3293497363794
 20
299.5983266026471
 30
0.0
 11
141.3293497363794
 21
299.5983266026471
 31
0.0
  0
ARC
  5
E4E
330
A
100
AcDbEntity
  8
03
100
AcDbCircle
 10
141.3293497363794
 20
296.5983266026471
 30
0.0
 40
3.0
100
AcDbArc
 50
0.0
 51
90.0
  0
LINE
  5
E4F
330
A
100
AcDbEntity
  8
03
100
AcDbLine
 10
139.3293497363794
 20
259.5983266026471
 30
0.0
 11
139.3293497363794
 21
299.5983266026471
 31
0.0
  0
LINE
  5
E50
330
A
100
AcDbEntity
  8
03
100
AcDbLine
 10
139.3293497363794
 20
289.1143195727701
 30
0.0
 11
144.3293497363795
 21
284.1143195727701
 31
0.0
  0
LINE
  5
E51
330
A
100
AcDbEntity
  8
03
100
AcDbLine
 10
139.3293497363794
 20
286.1143195727701
 30
0.0
 11
144.3293497363795
 21
281.11431957277
 31
0.0
  0
ARC
  5
E52
330
A
100
AcDbEntity
  8
03
100
AcDbCircle
 10
149.3293497363795
 20
269.5983266026471
 30
0.0
 40
5.0
100
AcDbArc
 50
180.0
 51
270.0
  0
LINE
  5
E53
330
A
100
AcDbEntity
  8
03
100
AcDbLine
 10
149.3293497363795
 20
264.598326602647
 30
0.0
 11
176.3293497363795
 21
264.598326602647
 31
0.0
  0
LINE
  5
E54
330
A
100
AcDbEntity
  8
03
100
AcDbLine
 10
144.3293497363795
 20
296.5983266026471
 30
0.0
 11
144.3293497363795
 21
269.5983266026471
 31
0.0
  0
LINE
  5
E55
330
A
100
AcDbEntity
  8
03
100
AcDbLine
 10
179.3293497363795
 20
261.5983266026471
 30
0.0
 11
179.3293497363795
 21
259.5983266026471
 31
0.0
  0
ARC
  5
E56
330
A
100
AcDbEntity
  8
03
100
AcDbCircle
 10
176.3293497363795
 20
261.5983266026471
 30
0.0
 40
3.0
100
AcDbArc
 50
0.0
 51
90.0
  0
LINE
  5
E57
330
A
100
AcDbEntity
  8
03
100
AcDbLine
 10
179.3293497363795
 20
259.5983266026471
 30
0.0
 11
139.3293497363794
 21
259.5983266026471
 31
0.0
  0
LINE
  5
E58
330
A
100
AcDbEntity
  8
03
100
AcDbLine
 10
158.8453427065025
 20
264.598326602647
 30
0.0
 11
163.8453427065025
 21
259.5983266026471
 31
0.0
  0
LINE
  5
E59
330
A
100
AcDbEntity
  8
03
100
AcDbLine
 10
155.8453427065025
 20
264.598326602647
 30
0.0
 11
160.8453427065025
 21
259.5983266026471
 31
0.0
  0
LINE
  5
E5B
330
A
100
AcDbEntity
  8
03
100
AcDbLine
 10
149.3293497363795
 20
515.3983266026471
 30
0.0
 11
176.3293497363795
 21
515.3983266026471
 31
0.0
  0
LINE
  5
E5C
330
A
100
AcDbEntity
  8
03
100
AcDbLine
 10
179.3293497363795
 20
520.3983266026471
 30
0.0
 11
139.3293497363794
 21
520.3983266026471
 31
0.0
  0
ARC
  5
E5D
330
A
100
AcDbEntity
  8
03
100
AcDbCircle
 10
141.3293497363794
 20
483.398326602647
 30
0.0
 40
3.0
100
AcDbArc
 50
270.0
 51
0.0
  0
LINE
  5
E5E
330
A
100
AcDbEntity
  8
03
100
AcDbLine
 10
139.3293497363794
 20
490.882333632524
 30
0.0
 11
144.3293497363795
 21
495.8823336325241
 31
0.0
  0
LINE
  5
E5F
330
A
100
AcDbEntity
  8
03
100
AcDbLine
 10
139.3293497363794
 20
493.882333632524
 30
0.0
 11
144.3293497363795
 21
498.882333632524
 31
0.0
  0
LINE
  5
E60
330
A
100
AcDbEntity
  8
03
100
AcDbLine
 10
139.3293497363794
 20
520.3983266026471
 30
0.0
 11
139.3293497363794
 21
480.398326602647
 31
0.0
  0
LINE
  5
E61
330
A
100
AcDbEntity
  8
03
100
AcDbLine
 10
139.3293497363794
 20
480.398326602647
 30
0.0
 11
141.3293497363794
 21
480.398326602647
 31
0.0
  0
LINE
  5
E62
330
A
100
AcDbEntity
  8
03
100
AcDbLine
 10
155.8453427065025
 20
515.3983266026471
 30
0.0
 11
160.8453427065025
 21
520.3983266026471
 31
0.0
  0
LINE
  5
E63
330
A
100
AcDbEntity
  8
03
100
AcDbLine
 10
144.3293497363795
 20
483.398326602647
 30
0.0
 11
144.3293497363795
 21
510.3983266026471
 31
0.0
  0
ARC
  5
E64
330
A
100
AcDbEntity
  8
03
100
AcDbCircle
 10
149.3293497363795
 20
510.3983266026471
 30
0.0
 40
5.0
100
AcDbArc
 50
90.00000000000005
 51
180.0
  0
LINE
  5
E65
330
A
100
AcDbEntity
  8
03
100
AcDbLine
 10
158.8453427065025
 20
515.3983266026471
 30
0.0
 11
163.8453427065025
 21
520.3983266026471
 31
0.0
  0
ARC
  5
E66
330
A
100
AcDbEntity
  8
03
100
AcDbCircle
 10
176.3293497363795
 20
518.3983266026471
 30
0.0
 40
3.0
100
AcDbArc
 50
270.0
 51
0.0
  0
LINE
  5
E67
330
A
100
AcDbEntity
  8
03
100
AcDbLine
 10
179.3293497363795
 20
518.3983266026471
 30
0.0
 11
179.3293497363795
 21
520.3983266026471
 31
0.0
  0
LEADER
  5
EBE
330
A
100
AcDbEntity
  8
HIKIDASI
100
AcDbLeader
  3
SUNPOU_2
 73
     0
 75
     1
 40
5.0
 41
34.93333333333333
 76
     3
 10
141.9766861007232
 20
507.2196406848243
 30
0.0
 10
93.64125954429438
 20
547.9332160427791
 30
0.0
 10
88.64125954429438
 20
547.9332160427791
 30
0.0
340
EBF
213
-3.21832731551396
223
-0.5774618577702313
233
0.0
1001
ACAD
1000
DSTYLE
1002
{
1070
     5
1000
OPEN30
1070
    77
1070
     1
1070
   147
1040
1.0
1070
   342
1005
646
1002
}
1000
LEANOF
1010
-3.21832731551396
1020
-0.5774618577702313
1030
0.0
1000
LEANOF
1010
-3.21832731551396
1020
-0.5774618577702313
1030
0.0
  0
MTEXT
  5
EBF
330
A
100
AcDbEntity
  8
HIKIDASI
100
AcDbMText
 10
54.926253526475
 20
550.5106779005493
 30
0.0
 40
5.0
 41
0.0
 71
     7
 72
     1
  1
L-40×40×5
  7
SUNPOU
1001
ACAD
1000
MTEXTBEGIN
1070
    73
1070
     1
1070
    44
1040
1.0
1070
    74
1070
     0
1000
MTEXTEND
1000
MTEXTBEGIN
1070
    73
1070
     1
1070
    44
1040
1.0
1070
    74
1070
     0
1000
MTEXTEND
  0
LEADER
  5
EC1
330
A
100
AcDbEntity
  8
HIKIDASI
100
AcDbLeader
  3
SUNPOU_2
 73
     0
 75
     1
 40
5.0
 41
34.93333333333333
 76
     3
 10
141.9766861007232
 20
269.6634251520064
 30
0.0
 10
93.64125954429438
 20
310.3770005099613
 30
0.0
 10
88.64125954429438
 20
310.3770005099613
 30
0.0
340
EC2
213
-3.21832731551396
223
-0.5774618577702313
233
0.0
1001
ACAD
1000
DSTYLE
1002
{
1070
     5
1000
OPEN30
1070
    77
1070
     1
1070
   147
1040
1.0
1070
   342
1005
646
1002
}
1000
LEANOF
1010
-3.21832731551396
1020
-0.5774618577702313
1030
0.0
1000
LEANOF
1010
-3.21832731551396
1020
-0.5774618577702313
1030
0.0
  0
MTEXT
  5
EC2
330
A
100
AcDbEntity
  8
HIKIDASI
100
AcDbMText
 10
54.926253526475
 20
312.9544623677316
 30
0.0
 40
5.0
 41
0.0
 71
     7
 72
     1
  1
L-40×40×5
  7
SUNPOU
1001
ACAD
1000
MTEXTBEGIN
1070
    73
1070
     1
1070
    44
1040
1.0
1070
    74
1070
     0
1000
MTEXTEND
1000
MTEXTBEGIN
1070
    73
1070
     1
1070
    44
1040
1.0
1070
    74
1070
     0
1000
MTEXTEND
  0
DIMENSION
  5
F0A
330
A
100
AcDbEntity
  8
SUNPOU
  6
CONTINUOUS
100
AcDbDimension
  2
*D23
 10
196.3293497363795
 20
359.9069828408647
 30
0.0
 11
173.3293497363795
 21
364.4069828408647
 31
0.0
 70
    32
  3
SUNPOU_2
100
AcDbAlignedDimension
 13
150.3293497363794
 23
340.1652134520143
 33
0.0
 14
196.3293497363795
 24
318.598326602647
 34
0.0
100
AcDbRotatedDimension
  0
LINE
  5
F63
330
A
100
AcDbEntity
  8
KAKURE
  6
CONTINUOUS
100
AcDbLine
 10
190.3293497363795
 20
310.4983266026471
 30
0.0
 11
196.3293497363795
 21
310.4983266026471
 31
0.0
  0
LINE
  5
F64
330
A
100
AcDbEntity
  8
KAKURE
  6
CONTINUOUS
100
AcDbLine
 10
190.3293497363794
 20
309.7483266026471
 30
0.0
 11
196.3293497363795
 21
309.7483266026471
 31
0.0
  0
LINE
  5
F65
330
A
100
AcDbEntity
  8
KAKURE
  6
CONTINUOUS
100
AcDbLine
 10
190.3293497363795
 20
303.2483266026471
 30
0.0
 11
196.3293497363795
 21
303.2483266026471
 31
0.0
  0
LINE
  5
F66
330
A
100
AcDbEntity
  8
KAKURE
  6
CONTINUOUS
100
AcDbLine
 10
190.3293497363795
 20
302.4983266026471
 30
0.0
 11
196.3293497363795
 21
302.4983266026471
 31
0.0
  0
LEADER
  5
F6F
330
A
100
AcDbEntity
  8
HIKIDASI
  6
CONTINUOUS
100
AcDbLeader
  3
SUNPOU_2
 73
     0
 40
13.33333333333333
 41
46.66666666666665
 76
     2
 10
167.2521145780596
 20
241.498326602647
 30
0.0
 10
122.18817611671
 20
230.4254767327771
 30
0.0
340
F70
213
0.0
223
8.768911257162244
233
0.0
1001
ACAD
1000
DSTYLE
1002
{
1070
     5
1000
OPEN30
1070
    77
1070
     1
1070
   147
1040
1.0
1070
   342
1005
646
1002
}
1000
LEANOF
1010
0.0
1020
8.768911257162244
1030
0.0
1000
LEANOF
1010
0.0
1020
8.768911257162244
1030
0.0
  0
MTEXT
  5
F70
330
A
100
AcDbEntity
  8
HIKIDASI
  6
CONTINUOUS
 62
     6
100
AcDbMText
 10
73.52150945004345
 20
223.6565654756149
 30
0.0
 40
5.0
 41
0.0
 71
     7
 72
     1
  1
方立上部φ１２穴加工\P（サッシ工事）
  7
SUNPOU
1001
ACAD
1000
MTEXTBEGIN
1070
    73
1070
     1
1070
    44
1040
1.0
1070
    74
1070
     0
1000
MTEXTEND
1000
MTEXTBEGIN
1070
    73
1070
     1
1070
    44
1040
1.0
1070
    74
1070
     0
1000
MTEXTEND
  0
LINE
  5
F8C
330
A
100
AcDbEntity
  8
SOUZOU
 48
0.5
100
AcDbLine
 10
312.3293497363798
 20
429.4983266026465
 30
0.0
 11
312.3293497363798
 21
432.9983266026474
 31
0.0
  0
LINE
  5
F8D
330
A
100
AcDbEntity
  8
SOUZOU
 48
0.5
100
AcDbLine
 10
305.3293484312026
 20
407.6414919362955
 30
0.0
 11
305.3293497363795
 21
374.4983266776467
 31
0.0
  0
MTEXT
  5
FFD
330
A
100
AcDbEntity
  8
MOJI
100
AcDbMText
 10
360.9999999999969
 20
29.00000000000005
 30
0.0
 40
7.0
 41
49.99999999999994
 71
     5
 72
     1
  1
たて断面図　
  7
0_80
1001
ACAD
1000
MTEXTBEGIN
1070
    73
1070
     1
1070
    44
1040
1.0
1070
    74
1070
     0
1000
MTEXTEND
1000
MTEXTBEGIN
1070
    73
1070
     1
1070
    44
1040
1.0
1070
    74
1070
     0
1000
MTEXTEND
  0
MTEXT
  5
FFE
330
A
100
AcDbEntity
  8
MOJI
100
AcDbMText
 10
310.9999999999969
 20
29.00000000000005
 30
0.0
 40
7.0
 41
50.0
 71
     5
 72
     1
  1
図番４－９
  7
0_80
1001
ACAD
1000
MTEXTBEGIN
1070
    73
1070
     1
1070
    44
1040
1.0
1070
    74
1070
     0
1000
MTEXTEND
1000
MTEXTBEGIN
1070
    73
1070
     1
1070
    44
1040
1.0
1070
    74
1070
     0
1000
MTEXTEND
  0
POLYLINE
  5
FFF
330
A
100
AcDbEntity
  8
SAISEN
100
AcDb2dPolyline
 66
     1
 10
0.0
 20
0.0
 30
0.0
 70
     1
  0
VERTEX
  5
1060
330
FFF
100
AcDbEntity
  8
SAISEN
100
AcDbVertex
100
AcDb2dVertex
 10
35.99999999999693
 20
17.0
 30
0.0
  0
VERTEX
  5
1061
330
FFF
100
AcDbEntity
  8
SAISEN
100
AcDbVertex
100
AcDb2dVertex
 10
385.9999999999969
 20
17.0
 30
0.0
  0
VERTEX
  5
1062
330
FFF
100
AcDbEntity
  8
SAISEN
100
AcDbVertex
100
AcDb2dVertex
 10
385.9999999999969
 20
41.00000000000017
 30
0.0
  0
VERTEX
  5
1063
330
FFF
100
AcDbEntity
  8
SAISEN
100
AcDbVertex
100
AcDb2dVertex
 10
35.99999999999693
 20
41.00000000000017
 30
0.0
  0
SEQEND
  5
1064
330
FFF
100
AcDbEntity
  8
SAISEN
  0
MTEXT
  5
1000
330
A
100
AcDbEntity
  8
MOJI
100
AcDbMText
 10
185.9999999999969
 20
28.91340743005207
 30
0.0
 40
7.0
 41
80.0
 71
     5
 72
     1
  1
ＳＯＶ－３００ＫＤＣ
  7
0_80
1001
ACAD
1000
MTEXTBEGIN
1070
    73
1070
     1
1070
    44
1040
1.0
1070
    74
1070
     0
1000
MTEXTEND
1000
MTEXTBEGIN
1070
    73
1070
     1
1070
    44
1040
1.0
1070
    74
1070
     0
1000
MTEXTEND
  0
MTEXT
  5
1001
330
A
100
AcDbEntity
  8
MOJI
100
AcDbMText
 10
90.99999999999694
 20
29.00000000000005
 30
0.0
 40
7.0
 41
110.0
 71
     5
 72
     1
  1
ステンレスサッシ\Pダブル戸車使用　中重量扉納り例
  7
0_80
1001
ACAD
1000
MTEXTBEGIN
1070
    73
1070
     1
1070
    44
1040
1.0
1070
    74
1070
     0
1000
MTEXTEND
1000
MTEXTBEGIN
1070
    73
1070
     1
1070
    44
1040
1.0
1070
    74
1070
     0
1000
MTEXTEND
  0
LINE
  5
1002
330
A
100
AcDbEntity
  8
SAISEN
100
AcDbLine
 10
145.9999999999969
 20
41.00000000000017
 30
0.0
 11
145.9999999999969
 21
17.0
 31
0.0
  0
MTEXT
  5
1003
330
A
100
AcDbEntity
  8
MOJI
100
AcDbMText
 10
255.9999999999998
 20
29.00000000000005
 30
0.0
 40
7.0
 41
60.0
 71
     5
 72
     1
  1
片引き又は両引き
  7
0_80
1001
ACAD
1000
MTEXTBEGIN
1070
    73
1070
     1
1070
    44
1040
1.0
1070
    74
1070
     0
1000
MTEXTEND
1000
MTEXTBEGIN
1070
    73
1070
     1
1070
    44
1040
1.0
1070
    74
1070
     0
1000
MTEXTEND
  0
LINE
  5
1004
330
A
100
AcDbEntity
  8
SAISEN
100
AcDbLine
 10
225.9999999999969
 20
41.00000000000017
 30
0.0
 11
225.9999999999969
 21
17.0
 31
0.0
  0
LINE
  5
1005
330
A
100
AcDbEntity
  8
SAISEN
100
AcDbLine
 10
285.9999999999969
 20
41.00000000000017
 30
0.0
 11
285.9999999999969
 21
17.0
 31
0.0
  0
CIRCLE
  5
100E
330
A
100
AcDbEntity
  8
SAISEN
100
AcDbCircle
 10
392.0976380784292
 20
49.5430264122316
 30
0.0
 40
5.0
  0
TEXT
  5
100F
330
A
100
AcDbEntity
  8
MOJI
100
AcDbText
 10
389.048819039213
 20
45.27151320611589
 30
0.0
 40
8.0
  1
Ｓ
 41
0.8
  7
0_8
 11
389.048819039213
 21
53.2715132061159
 31
0.0
100
AcDbText
 73
     3
  0
VIEWPORT
  5
674
102
{ACAD_XDICTIONARY
360
1040
102
}
330
B
100
AcDbEntity
 67
     1
  8
0
100
AcDbViewport
 10
198.0508299538852
 20
285.1874487354477
 30
0.0
 40
1078.343208727591
 41
628.3535021666721
 68
     1
 69
     1
1001
ACAD
1000
MVIEW
1002
{
1070
    16
1010
0.0
1020
0.0
1030
0.0
1010
0.0
1020
0.0
1030
1.0
1040
0.0
1040
628.3535021666721
1040
198.0508299538852
1040
285.1874487354477
1040
50.0
1040
0.0
1040
0.0
1070
     0
1070
   100
1070
     1
1070
     1
1070
     0
1070
     0
1070
     0
1070
     0
1040
0.0
1040
0.0
1040
0.0
1040
10.0
1040
10.0
1040
10.0
1040
10.0
1070
     0
1002
{
1002
}
1002
}
  0
VIEWPORT
  5
102A
102
{ACAD_XDICTIONARY
360
1046
102
}
330
B
100
AcDbEntity
 67
     1
  8
DEFPOINTS
  6
CONTINUOUS
100
AcDbViewport
 10
198.0508309076477
 20
285.1874477816852
 30
0.0
 40
396.4883172119752
 41
570.409736121624
 68
     2
 69
     2
1001
ACAD
1000
MVIEW
1002
{
1070
    16
1010
0.0
1020
0.0
1030
0.0
1010
0.0
1020
0.0
1030
1.0
1040
0.0
1040
570.409736121624
1040
210.0
1040
297.0
1040
50.0
1040
0.0
1040
0.0
1070
     0
1070
   100
1070
     1
1070
     1
1070
     0
1070
     0
1070
     0
1070
     0
1040
0.0
1040
0.0
1040
0.0
1040
1.0
1040
1.0
1040
0.0
1040
0.0
1070
     0
1002
{
1002
}
1002
}
  0
ENDSEC
  0
SECTION
  2
OBJECTS
  0
DICTIONARY
  5
19
330
0
100
AcDbDictionary
  3
ACAD_COLOR
350
FE7
  3
ACAD_GROUP
350
1A
  3
ACAD_LAYOUT
350
466
  3
ACAD_MATERIAL
350
FE6
  3
ACAD_MLINESTYLE
350
1B
  3
ACAD_PLOTSETTINGS
350
467
  3
ACADDIM
350
67A
  3
ASE_INDEX_DICTIONARY
350
1011
1001
ACAD
1000
TREAT_AS_HARD
1070
     0
1000
TREAT_AS_HARD
1070
     0
  0
DICTIONARY
  5
B8E
330
2
100
AcDbDictionary
  3
ACAD_LAYERFILTERS
350
B8F
  3
ACAD_LAYERSTATES
350
D61
1001
ACAD
1000
TREAT_AS_HARD
1070
     1
1000
TREAT_AS_HARD
1070
     1
  0
DICTIONARY
  5
FA8
330
A
100
AcDbDictionary
  3
ACAD_LAYOUTSELFREF
350
104E
1001
ACAD
1000
TREAT_AS_HARD
1070
     1
  0
DICTIONARY
  5
FAA
330
B
100
AcDbDictionary
  3
ACAD_LAYOUTSELFREF
350
104F
1001
ACAD
1000
TREAT_AS_HARD
1070
     1
  0
DICTIONARY
  5
1040
330
674
100
AcDbDictionary
  3
ACAD_XREC_ROUNDTRIP
350
1041
1001
ACAD
1000
TREAT_AS_HARD
1070
     1
  0
DICTIONARY
  5
1046
330
102A
100
AcDbDictionary
  3
ACAD_XREC_ROUNDTRIP
350
1047
1001
ACAD
1000
TREAT_AS_HARD
1070
     1
  0
DICTIONARY
  5
FE7
102
{ACAD_REACTORS
330
19
102
}
330
19
100
AcDbDictionary
1001
ACAD
1000
TREAT_AS_HARD
1070
     0
  0
DICTIONARY
  5
1A
102
{ACAD_REACTORS
330
19
102
}
330
19
100
AcDbDictionary
1001
ACAD
1000
TREAT_AS_HARD
1070
     0
1000
TREAT_AS_HARD
1070
     0
  0
DICTIONARY
  5
466
102
{ACAD_REACTORS
330
19
102
}
330
19
100
AcDbDictionary
1001
ACAD
1000
TREAT_AS_HARD
1070
     0
1000
TREAT_AS_HARD
1070
     0
  0
DICTIONARY
  5
FE6
102
{ACAD_REACTORS
330
19
102
}
330
19
100
AcDbDictionary
1001
ACAD
1000
TREAT_AS_HARD
1070
     0
  0
DICTIONARY
  5
1B
102
{ACAD_REACTORS
330
19
102
}
330
19
100
AcDbDictionary
  3
STANDARD
350
1C
1001
ACAD
1000
TREAT_AS_HARD
1070
     0
1000
TREAT_AS_HARD
1070
     0
  0
DICTIONARY
  5
467
102
{ACAD_REACTORS
330
19
102
}
330
19
100
AcDbDictionary
1001
ACAD
1000
TREAT_AS_HARD
1070
     0
1000
TREAT_AS_HARD
1070
     0
  0
XRECORD
  5
67A
102
{ACAD_REACTORS
330
19
102
}
330
19
100
AcDbXrecord
 90
   990106
  3

 60
     0
 61
     0
 62
     4
 63
     4
 64
     1
 65
     0
 66
     0
 67
     3
 68
     1
 69
     1
 70
     0
 71
     0
 72
     0
 40
0.0
170
     2
340
F70
  0
DICTIONARY
  5
1011
102
{ACAD_REACTORS
330
19
102
}
330
19
100
AcDbDictionary
  3
ASEBLOCKHIERARCHYINDEXRECORD
350
1013
1001
DCO15
1040
1508666669.812
1001
ACAD
1000
TREAT_AS_HARD
1070
     0
  0
DICTIONARY
  5
B8F
102
{ACAD_REACTORS
330
B8E
102
}
330
B8E
100
AcDbDictionary
  3
HIHYOJI
350
D5E
1001
ACAD
1000
TREAT_AS_HARD
1070
     1
1000
TREAT_AS_HARD
1070
     0
  0
DICTIONARY
  5
D61
102
{ACAD_REACTORS
330
B8E
102
}
330
B8E
100
AcDbDictionary
1001
ACAD
1000
TREAT_AS_HARD
1070
     0
1000
TREAT_AS_HARD
1070
     0
  0
XRECORD
  5
104E
102
{ACAD_REACTORS
330
FA8
102
}
330
FA8
100
AcDbXrecord
340
A
  0
XRECORD
  5
104F
102
{ACAD_REACTORS
330
FAA
102
}
330
FAA
100
AcDbXrecord
340
B
  0
XRECORD
  5
1041
102
{ACAD_REACTORS
330
1040
102
}
330
1040
100
AcDbXrecord
102
SHADEPLOT
 70
     0
  0
XRECORD
  5
1047
102
{ACAD_REACTORS
330
1046
102
}
330
1046
100
AcDbXrecord
102
SHADEPLOT
 70
     0
  0
MLINESTYLE
  5
1C
102
{ACAD_REACTORS
330
1B
102
}
330
1B
100
AcDbMlineStyle
  2
STANDARD
 70
     0
  3

 62
     0
 51
90.00000000000019
 52
90.00000000000019
 71
     2
 49
0.5
 62
   256
  6
BYLAYER
 49
-0.5
 62
   256
  6
BYLAYER
  0
XRECORD
  5
1013
102
{ACAD_REACTORS
330
1011
102
}
330
1011
100
AcDbXrecord
330
D43
330
EB0
330
EB1
330
EA7
330
EA8
330
EB8
330
EB9
330
BE8
330
BE9
330
BF0
330
BF1
330
BFC
330
BFD
330
C04
330
C05
330
D74
330
D75
330
D7C
330
D7D
330
C24
330
C25
330
CF6
330
CF7
330
DA6
330
DA7
330
CFF
330
D00
330
C49
330
C4A
330
C51
330
C52
330
D9B
330
D9C
330
D90
330
D8F
330
C6C
330
C6D
330
EEB
330
EEC
330
E95
330
E96
330
F04
330
F05
330
F4E
330
F4F
330
F57
330
F58
  0
XRECORD
  5
D5E
102
{ACAD_REACTORS
330
B8F
102
}
330
B8F
100
AcDbXrecord
  1
hihyoji
  1
08,09,*_h
  1
*
  1
*
 70
     0
  1
*
  1
*
  0
ENDSEC
  0
EOF
