  0
SECTION
  2
HEADER
  9
$ACADVER
  1
AC1012
  9
$DWGCODEPAGE
  3
dos932
  9
$INSBASE
 10
0.0
 20
0.0
 30
0.0
  9
$EXTMIN
 10
0.0
 20
0.0
 30
0.0
  9
$EXTMAX
 10
420.0000000000001
 20
594.0
 30
0.0
  9
$LIMMIN
 10
0.0
 20
0.0
  9
$LIMMAX
 10
420.0000000000001
 20
594.0
  9
$ORTHOMODE
 70
     1
  9
$REGENMODE
 70
     1
  9
$FILLMODE
 70
     1
  9
$QTEXTMODE
 70
     0
  9
$MIRRTEXT
 70
     1
  9
$DRAGMODE
 70
     2
  9
$LTSCALE
 40
0.3
  9
$OSMODE
 70
    37
  9
$ATTMODE
 70
     1
  9
$TEXTSIZE
 40
7.0
  9
$TRACEWID
 40
0.05
  9
$TEXTSTYLE
  7
0_8
  9
$CLAYER
  8
DEFPOINTS
  9
$CELTYPE
  6
BYLAYER
  9
$CECOLOR
 62
   256
  9
$CELTSCALE
 40
1.0
  9
$DELOBJ
 70
     1
  9
$DISPSILH
 70
     0
  9
$DIMSCALE
 40
2.0
  9
$DIMASZ
 40
2.0
  9
$DIMEXO
 40
0.5
  9
$DIMDLI
 40
0.0
  9
$DIMRND
 40
0.0
  9
$DIMDLE
 40
0.0
  9
$DIMEXE
 40
0.5
  9
$DIMTP
 40
0.0
  9
$DIMTM
 40
0.0
  9
$DIMTXT
 40
2.0
  9
$DIMCEN
 40
0.0
  9
$DIMTSZ
 40
0.0
  9
$DIMTOL
 70
     0
  9
$DIMLIM
 70
     0
  9
$DIMTIH
 70
     0
  9
$DIMTOH
 70
     0
  9
$DIMSE1
 70
     0
  9
$DIMSE2
 70
     0
  9
$DIMTAD
 70
     1
  9
$DIMZIN
 70
     8
  9
$DIMBLK
  1
OPEN30
  9
$DIMASO
 70
     1
  9
$DIMSHO
 70
     1
  9
$DIMPOST
  1

  9
$DIMAPOST
  1

  9
$DIMALT
 70
     0
  9
$DIMALTD
 70
     2
  9
$DIMALTF
 40
25.4
  9
$DIMLFAC
 40
20.0
  9
$DIMTOFL
 70
     1
  9
$DIMTVP
 40
0.0
  9
$DIMTIX
 70
     0
  9
$DIMSOXD
 70
     0
  9
$DIMSAH
 70
     0
  9
$DIMBLK1
  1

  9
$DIMBLK2
  1

  9
$DIMSTYLE
  2
SUNPOU_2_20
  9
$DIMCLRD
 70
   256
  9
$DIMCLRE
 70
   256
  9
$DIMCLRT
 70
   256
  9
$DIMTFAC
 40
1.0
  9
$DIMGAP
 40
1.0
  9
$DIMJUST
 70
     0
  9
$DIMSD1
 70
     0
  9
$DIMSD2
 70
     0
  9
$DIMTOLJ
 70
     1
  9
$DIMTZIN
 70
     0
  9
$DIMALTZ
 70
     0
  9
$DIMALTTZ
 70
     0
  9
$DIMFIT
 70
     3
  9
$DIMUPT
 70
     0
  9
$DIMUNIT
 70
     2
  9
$DIMDEC
 70
     1
  9
$DIMTDEC
 70
     1
  9
$DIMALTU
 70
     2
  9
$DIMALTTD
 70
     2
  9
$DIMTXSTY
  7
SUNPOU
  9
$DIMAUNIT
 70
     0
  9
$LUNITS
 70
     2
  9
$LUPREC
 70
     4
  9
$SKETCHINC
 40
0.1
  9
$FILLETRAD
 40
0.0
  9
$AUNITS
 70
     0
  9
$AUPREC
 70
     0
  9
$MENU
  1
acad
  9
$ELEVATION
 40
0.0
  9
$PELEVATION
 40
0.0
  9
$THICKNESS
 40
0.0
  9
$LIMCHECK
 70
     0
  9
$BLIPMODE
 70
     0
  9
$CHAMFERA
 40
0.0
  9
$CHAMFERB
 40
0.0
  9
$CHAMFERC
 40
0.0
  9
$CHAMFERD
 40
0.0
  9
$SKPOLY
 70
     0
  9
$TDCREATE
 40
2444972.375000000
  9
$TDUPDATE
 40
2453266.400284282
  9
$TDINDWG
 40
0.4008248380
  9
$TDUSRTIMER
 40
0.4008248380
  9
$USRTIMER
 70
     1
  9
$ANGBASE
 50
0.0
  9
$ANGDIR
 70
     0
  9
$PDMODE
 70
     0
  9
$PDSIZE
 40
1.0
  9
$PLINEWID
 40
0.0
  9
$COORDS
 70
     1
  9
$SPLFRAME
 70
     0
  9
$SPLINETYPE
 70
     6
  9
$SPLINESEGS
 70
     8
  9
$ATTDIA
 70
     0
  9
$ATTREQ
 70
     1
  9
$HANDLING
 70
-16383
  9
$HANDSEED
  5
25AB
  9
$SURFTAB1
 70
     6
  9
$SURFTAB2
 70
     6
  9
$SURFTYPE
 70
     6
  9
$SURFU
 70
     6
  9
$SURFV
 70
     6
  9
$UCSNAME
  2

  9
$UCSORG
 10
0.0
 20
0.0
 30
0.0
  9
$UCSXDIR
 10
1.0
 20
0.0
 30
0.0
  9
$UCSYDIR
 10
0.0
 20
1.0
 30
0.0
  9
$PUCSNAME
  2

  9
$PUCSORG
 10
0.0
 20
0.0
 30
0.0
  9
$PUCSXDIR
 10
1.0
 20
0.0
 30
0.0
  9
$PUCSYDIR
 10
0.0
 20
1.0
 30
0.0
  9
$USERI1
 70
     0
  9
$USERI2
 70
     0
  9
$USERI3
 70
     0
  9
$USERI4
 70
     0
  9
$USERI5
 70
     0
  9
$USERR1
 40
0.0
  9
$USERR2
 40
0.0
  9
$USERR3
 40
0.0
  9
$USERR4
 40
0.0
  9
$USERR5
 40
0.0
  9
$WORLDVIEW
 70
     1
  9
$SHADEDGE
 70
     3
  9
$SHADEDIF
 70
    70
  9
$TILEMODE
 70
     1
  9
$MAXACTVP
 70
    16
  9
$PINSBASE
 10
0.0
 20
0.0
 30
0.0
  9
$PLIMCHECK
 70
     0
  9
$PEXTMIN
 10
-0.1949928459867465
 20
-0.028443850137819
 30
-0.0000000349181948
  9
$PEXTMAX
 10
396.299797239621
 20
570.3906045008266
 30
0.0000000814935747
  9
$PLIMMIN
 10
-11.9437703775347
 20
-11.77721756657347
  9
$PLIMMAX
 10
408.0485728636128
 20
582.1393801248184
  9
$UNITMODE
 70
     0
  9
$VISRETAIN
 70
     0
  9
$PLINEGEN
 70
     1
  9
$PSLTSCALE
 70
     0
  9
$TREEDEPTH
 70
  3020
  9
$PICKSTYLE
 70
     1
  9
$CMLSTYLE
  2
STANDARD
  9
$CMLJUST
 70
     0
  9
$CMLSCALE
 40
1.0
  9
$SAVEIMAGES
 70
     1
  0
ENDSEC
  0
SECTION
  2
CLASSES
  0
CLASS
  1
LWPOLYLINE
  2
AcDbPolyline
  3
AutoCAD 2000
 90
    32768
280
     0
281
     1
  0
CLASS
  1
IMAGE
  2
AcDbRasterImage
  3
ISM
 90
    32895
280
     0
281
     1
  0
CLASS
  1
OLE2FRAME
  2
AcDbOle2Frame
  3
AutoCAD 2000
 90
    32768
280
     0
281
     1
  0
CLASS
  1
HATCH
  2
AcDbHatch
  3
AutoCAD 2000
 90
    32768
280
     0
281
     1
  0
CLASS
  1
DICTIONARYVAR
  2
AcDbDictionaryVar
  3
AutoCAD 2000
 90
    32768
280
     0
281
     0
  0
CLASS
  1
RASTERVARIABLES
  2
AcDbRasterVariables
  3
ISM
 90
    32768
280
     0
281
     0
  0
CLASS
  1
IMAGEDEF
  2
AcDbRasterImageDef
  3
ISM
 90
    32768
280
     0
281
     0
  0
CLASS
  1
IMAGEDEF_REACTOR
  2
AcDbRasterImageDefReactor
  3
ISM
 90
    32769
280
     0
281
     0
  0
CLASS
  1
IDBUFFER
  2
AcDbIdBuffer
  3
AutoCAD 2000
 90
    32768
280
     0
281
     0
  0
CLASS
  1
SPATIAL_FILTER
  2
AcDbSpatialFilter
  3
AutoCAD 2000
 90
    32768
280
     0
281
     0
  0
CLASS
  1
XRECORD
  2
AcDbXrecord
  3
AutoCAD 2000
 90
    32768
280
     0
281
     0
  0
CLASS
  1
SORTENTSTABLE
  2
AcDbSortentsTable
  3
AutoCAD 2000
 90
    32768
280
     0
281
     0
  0
CLASS
  1
LAYER_INDEX
  2
AcDbLayerIndex
  3
AutoCAD 2000
 90
    32768
280
     0
281
     0
  0
CLASS
  1
SPATIAL_INDEX
  2
AcDbSpatialIndex
  3
AutoCAD 2000
 90
    32768
280
     0
281
     0
  0
CLASS
  1
OBJECT_PTR
  2
CAseDLPNTableRecord
  3
ASE-LPNTableRecord
 90
    32769
280
     0
281
     0
  0
CLASS
  1
ACDBDICTIONARYWDFLT
  2
AcDbDictionaryWithDefault
  3
AutoCAD 2000
 90
    32768
280
     0
281
     0
  0
CLASS
  1
ACDBPLACEHOLDER
  2
AcDbPlaceHolder
  3
AutoCAD 2000
 90
    32768
280
     0
281
     0
  0
CLASS
  1
LAYOUT
  2
AcDbLayout
  3
AutoCAD 2000
 90
    32768
280
     0
281
     0
  0
CLASS
  1
LONG_TRANSACTION
  2
AcDbLongTransaction
  3
AutoCAD 2000
 90
    32768
280
     0
281
     0
  0
CLASS
  1
LWPOLYLINE
  2
AcDbPolyline
  3
AutoCAD 2000
 90
    32768
280
     0
281
     1
  0
CLASS
  1
HATCH
  2
AcDbHatch
  3
AutoCAD 2000
 90
    32768
280
     0
281
     1
  0
CLASS
  1
XRECORD
  2
AcDbXrecord
  3
AutoCAD 2000
 90
    32768
280
     0
281
     0
  0
CLASS
  1
LONG_TRANSACTION
  2
AcDbLongTransaction
  3
AutoCAD 2000
 90
    32768
280
     0
281
     0
  0
CLASS
  1
LWPOLYLINE
  2
AcDbPolyline
  3
AutoCAD 2000
 90
    32768
280
     0
281
     1
  0
CLASS
  1
HATCH
  2
AcDbHatch
  3
AutoCAD 2000
 90
    32768
280
     0
281
     1
  0
CLASS
  1
XRECORD
  2
AcDbXrecord
  3
AutoCAD 2000
 90
    32768
280
     0
281
     0
  0
CLASS
  1
LONG_TRANSACTION
  2
AcDbLongTransaction
  3
AutoCAD 2000
 90
    32768
280
     0
281
     0
  0
CLASS
  1
LWPOLYLINE
  2
AcDbPolyline
  3
AutoCAD 2000
 90
    32768
280
     0
281
     1
  0
CLASS
  1
HATCH
  2
AcDbHatch
  3
AutoCAD 2000
 90
    32768
280
     0
281
     1
  0
CLASS
  1
XRECORD
  2
AcDbXrecord
  3
AutoCAD 2000
 90
    32768
280
     0
281
     0
  0
ENDSEC
  0
SECTION
  2
TABLES
  0
TABLE
  2
VPORT
  5
7
330
0
100
AcDbSymbolTable
 70
     2
  0
VPORT
  5
258A
330
7
100
AcDbSymbolTableRecord
100
AcDbViewportTableRecord
  2
*ACTIVE
 70
     0
 10
0.0
 20
0.0
 11
1.0
 21
1.0
 12
229.3110108690602
 22
297.000001383014
 13
0.0
 23
0.0
 14
1.0
 24
1.0
 15
0.0
 25
0.0
 16
0.0
 26
0.0
 36
1.0
 17
0.0
 27
0.0
 37
0.0
 40
601.1783316453787
 41
1.780442804428044
 42
50.0
 43
0.0
 44
0.0
 50
0.0
 51
0.0
 71
     0
 72
   100
 73
     1
 74
     1
 75
     0
 76
     0
 77
     0
 78
     0
  0
ENDTAB
  0
TABLE
  2
LTYPE
  5
4
330
0
100
AcDbSymbolTable
 70
     3
  0
LTYPE
  5
11
330
4
100
AcDbSymbolTableRecord
100
AcDbLinetypeTableRecord
  2
BYBLOCK
 70
     0
  3

 72
    65
 73
     0
 40
0.0
  0
LTYPE
  5
12
330
4
100
AcDbSymbolTableRecord
100
AcDbLinetypeTableRecord
  2
BYLAYER
 70
     0
  3

 72
    65
 73
     0
 40
0.0
  0
LTYPE
  5
13
330
4
100
AcDbSymbolTableRecord
100
AcDbLinetypeTableRecord
  2
CONTINUOUS
 70
     0
  3
Solid line
 72
    65
 73
     0
 40
0.0
  0
LTYPE
  5
86B
330
4
100
AcDbSymbolTableRecord
100
AcDbLinetypeTableRecord
  2
CENTER2
 70
     0
  3
Center (.5x) ___ _ ___ _ ___ _ ___ _ ___ _ ___
 72
    65
 73
     4
 40
28.57499999999999
 49
19.05
 74
     0
 49
-3.174999999999998
 74
     0
 49
3.174999999999998
 74
     0
 49
-3.174999999999998
 74
     0
  0
LTYPE
  5
86C
330
4
100
AcDbSymbolTableRecord
100
AcDbLinetypeTableRecord
  2
DASHED2
 70
     0
  3
Dashed (.5x) _ _ _ _ _ _ _ _ _ _ _ _ _ _ _ _ _
 72
    65
 73
     2
 40
9.524999999999996
 49
6.349999999999997
 74
     0
 49
-3.174999999999998
 74
     0
  0
ENDTAB
  0
TABLE
  2
LAYER
  5
2
102
{ACAD_XDICTIONARY
360
2536
102
}
330
0
100
AcDbSymbolTable
 70
    11
  0
LAYER
  5
14
330
2
100
AcDbSymbolTableRecord
100
AcDbLayerTableRecord
  2
0
 70
     0
 62
     7
  6
CONTINUOUS
  0
LAYER
  5
82D
330
2
100
AcDbSymbolTableRecord
100
AcDbLayerTableRecord
  2
DEFPOINTS
 70
     0
 62
     7
  6
CONTINUOUS
  0
LAYER
  5
82E
330
2
100
AcDbSymbolTableRecord
100
AcDbLayerTableRecord
  2
03
 70
     0
 62
     3
  6
CONTINUOUS
  0
LAYER
  5
84F
330
2
100
AcDbSymbolTableRecord
100
AcDbLayerTableRecord
  2
06
 70
     0
 62
     6
  6
CONTINUOUS
  0
LAYER
  5
850
330
2
100
AcDbSymbolTableRecord
100
AcDbLayerTableRecord
  2
MOJI
 70
     0
 62
     3
  6
CONTINUOUS
  0
LAYER
  5
86D
330
2
100
AcDbSymbolTableRecord
100
AcDbLayerTableRecord
  2
04
 70
     0
 62
     4
  6
CONTINUOUS
  0
LAYER
  5
86E
330
2
100
AcDbSymbolTableRecord
100
AcDbLayerTableRecord
  2
CHUSIN
 70
     0
 62
     6
  6
CENTER2
  0
LAYER
  5
86F
330
2
100
AcDbSymbolTableRecord
100
AcDbLayerTableRecord
  2
HIKIDASI
 70
     0
 62
     6
  6
CONTINUOUS
  0
LAYER
  5
870
330
2
100
AcDbSymbolTableRecord
100
AcDbLayerTableRecord
  2
KAKURE
 70
     0
 62
     6
  6
DASHED2
  0
LAYER
  5
871
330
2
100
AcDbSymbolTableRecord
100
AcDbLayerTableRecord
  2
SUNPOU
 70
     0
 62
     6
  6
CONTINUOUS
  0
LAYER
  5
1F6C
330
2
100
AcDbSymbolTableRecord
100
AcDbLayerTableRecord
  2
SAISEN
 70
     0
 62
     3
  6
CONTINUOUS
  0
ENDTAB
  0
TABLE
  2
STYLE
  5
3
330
0
100
AcDbSymbolTable
 70
     4
  0
STYLE
  5
17
330
3
100
AcDbSymbolTableRecord
100
AcDbTextStyleTableRecord
  2
STANDARD
 70
     0
 40
0.0
 41
0.7
 50
0.0
 71
     0
 42
7.0
  3
txt.shx
  4
bigfont.shx
  0
STYLE
  5
82F
330
3
100
AcDbSymbolTableRecord
100
AcDbTextStyleTableRecord
  2
SUNPOU
 70
     0
 40
0.0
 41
0.8
 50
0.0
 71
     0
 42
3.5
  3
txt.shx
  4
extfont.shx
  0
STYLE
  5
851
330
3
100
AcDbSymbolTableRecord
100
AcDbTextStyleTableRecord
  2
0_8
 70
     0
 40
0.0
 41
0.8
 50
0.0
 71
     0
 42
7.0
  3
txt.shx
  4
extfont.shx
  0
STYLE
  5
2534
330
3
100
AcDbSymbolTableRecord
100
AcDbTextStyleTableRecord
  2
0_80
 70
     0
 40
0.0
 41
0.8
 50
0.0
 71
     0
 42
7.0
  3
txt.shx
  4
extfont.shx
  0
ENDTAB
  0
TABLE
  2
VIEW
  5
5
330
0
100
AcDbSymbolTable
 70
     1
  0
VIEW
  5
136
330
5
100
AcDbSymbolTableRecord
100
AcDbViewTableRecord
  2
QQQQ
 70
     0
 40
614.086147975519
 10
-7.462653778558887
 20
4.367035283040278
 41
401.0324648506149
 11
0.0
 21
0.0
 31
1.0
 12
100.0
 22
100.0
 32
0.0
 42
50.0
 43
0.0
 44
0.0
 50
0.0
 71
     0
  0
ENDTAB
  0
TABLE
  2
UCS
  5
6
330
0
100
AcDbSymbolTable
 70
     0
  0
ENDTAB
  0
TABLE
  2
APPID
  5
8
330
0
100
AcDbSymbolTable
 70
     3
  0
APPID
  5
16
330
8
100
AcDbSymbolTableRecord
100
AcDbRegAppTableRecord
  2
ACAD
 70
     0
  0
APPID
  5
842
330
8
100
AcDbSymbolTableRecord
100
AcDbRegAppTableRecord
  2
DCO15
 70
     0
  0
APPID
  5
24D7
330
8
100
AcDbSymbolTableRecord
100
AcDbRegAppTableRecord
  2
CONTENTBLOCKICON
 70
     0
  0
ENDTAB
  0
TABLE
  2
DIMSTYLE
  5
9
330
0
100
AcDbSymbolTable
 70
     3
  0
DIMSTYLE
105
830
102
{ACAD_REACTORS
330
890
330
89D
330
8AA
330
8B7
330
8C4
330
8DA
330
8E7
330
8F4
330
903
330
910
330
91D
330
92A
330
937
330
963
330
970
330
97D
330
98A
330
997
330
9A3
330
9AE
330
9BB
102
}
330
9
100
AcDbSymbolTableRecord
100
AcDbDimStyleTableRecord
  2
SUNPOU_2
 70
     0
  3

  4

  5
OPEN30
  6

  7

 40
2.0
 41
2.5
 42
1.5
 43
0.0
 44
1.0
 45
0.0
 46
0.0
 47
0.0
 48
0.0
140
2.5
141
0.0
142
0.0
143
25.4
144
1.0
145
0.0
146
1.0
147
1.0
 71
     0
 72
     0
 73
     0
 74
     0
 75
     0
 76
     0
 77
     1
 78
     8
170
     0
171
     2
172
     1
173
     0
174
     0
175
     0
176
   256
177
   256
178
   256
270
     2
271
     1
272
     1
273
     2
274
     2
340
82F
275
     0
280
     0
281
     0
282
     0
283
     1
284
     0
285
     0
286
     0
287
     3
288
     0
  0
DIMSTYLE
105
831
102
{ACAD_REACTORS
330
1A51
330
1A65
330
1A66
330
1A67
330
1A68
330
1A93
330
1AA7
102
}
330
9
100
AcDbSymbolTableRecord
100
AcDbDimStyleTableRecord
  2
SUNPOU_2_20
 70
     0
  3

  4

  5
OPEN30
  6

  7

 40
2.0
 41
2.0
 42
0.5
 43
0.0
 44
0.5
 45
0.0
 46
0.0
 47
0.0
 48
0.0
140
2.0
141
0.0
142
0.0
143
25.4
144
20.0
145
0.0
146
1.0
147
1.0
 71
     0
 72
     0
 73
     0
 74
     0
 75
     0
 76
     0
 77
     1
 78
     8
170
     0
171
     2
172
     1
173
     0
174
     0
175
     0
176
   256
177
   256
178
   256
270
     2
271
     1
272
     1
273
     2
274
     2
340
82F
275
     0
280
     0
281
     0
282
     0
283
     1
284
     0
285
     0
286
     0
287
     3
288
     0
  0
DIMSTYLE
105
1FAF
102
{ACAD_REACTORS
330
E40
330
DC6
330
DB7
330
DA8
330
E27
330
E1A
330
E0D
330
E02
330
DF5
330
DEA
330
DDF
330
DD3
330
E88
330
E79
330
E6E
330
E63
330
E58
330
E4D
102
}
330
9
100
AcDbSymbolTableRecord
100
AcDbDimStyleTableRecord
  2
SUNPOU_2_20A
 70
     0
  3

  4

  5
DOTSMALL
  6

  7

 40
2.0
 41
2.0
 42
0.5
 43
0.0
 44
0.5
 45
0.0
 46
0.0
 47
0.0
 48
0.0
140
2.0
141
0.0
142
0.0
143
25.4
144
20.0
145
0.0
146
1.0
147
1.0
 71
     0
 72
     0
 73
     0
 74
     0
 75
     0
 76
     0
 77
     1
 78
     8
170
     0
171
     2
172
     1
173
     0
174
     0
175
     0
176
   256
177
   256
178
   256
270
     2
271
     1
272
     1
273
     2
274
     2
340
82F
275
     0
280
     0
281
     0
282
     0
283
     1
284
     0
285
     0
286
     0
287
     3
288
     0
  0
ENDTAB
  0
TABLE
  2
BLOCK_RECORD
  5
1
330
0
100
AcDbSymbolTable
 70
    48
  0
BLOCK_RECORD
  5
A
102
{ACAD_XDICTIONARY
360
24D3
102
}
330
1
100
AcDbSymbolTableRecord
100
AcDbBlockTableRecord
  2
*MODEL_SPACE
  0
BLOCK_RECORD
  5
B
102
{ACAD_XDICTIONARY
360
24D5
102
}
330
1
100
AcDbSymbolTableRecord
100
AcDbBlockTableRecord
  2
*PAPER_SPACE
  0
BLOCK_RECORD
  5
827
330
1
100
AcDbSymbolTableRecord
100
AcDbBlockTableRecord
  2
_OPEN30
1001
CONTENTBLOCKICON
1071
        0
1004
2800000020000000200000000100080000000000000400000000000000000000000000000000000000000000000080000080000000808000800000008000800080800000C0C0C000C0DCC000F0CAA6000020400000206000002080000020A0000020C0000020E00000400000004020000040400000406000004080000040A0
1004
000040C0000040E00000600000006020000060400000606000006080000060A0000060C0000060E00000800000008020000080400000806000008080000080A0000080C0000080E00000A0000000A0200000A0400000A0600000A0800000A0A00000A0C00000A0E00000C0000000C0200000C0400000C0600000C0800000C0
1004
A00000C0C00000C0E00000E0000000E0200000E0400000E0600000E0800000E0A00000E0C00000E0E00040000000400020004000400040006000400080004000A0004000C0004000E00040200000402020004020400040206000402080004020A0004020C0004020E000404000004040200040404000404060004040800040
1004
40A0004040C0004040E00040600000406020004060400040606000406080004060A0004060C0004060E00040800000408020004080400040806000408080004080A0004080C0004080E00040A0000040A0200040A0400040A0600040A0800040A0A00040A0C00040A0E00040C0000040C0200040C0400040C0600040C08000
1004
40C0A00040C0C00040C0E00040E0000040E0200040E0400040E0600040E0800040E0A00040E0C00040E0E00080000000800020008000400080006000800080008000A0008000C0008000E00080200000802020008020400080206000802080008020A0008020C0008020E00080400000804020008040400080406000804080
1004
008040A0008040C0008040E00080600000806020008060400080606000806080008060A0008060C0008060E00080800000808020008080400080806000808080008080A0008080C0008080E00080A0000080A0200080A0400080A0600080A0800080A0A00080A0C00080A0E00080C0000080C0200080C0400080C0600080C0
1004
800080C0A00080C0C00080C0E00080E0000080E0200080E0400080E0600080E0800080E0A00080E0C00080E0E000C0000000C0002000C0004000C0006000C0008000C000A000C000C000C000E000C0200000C0202000C0204000C0206000C0208000C020A000C020C000C020E000C0400000C0402000C0404000C0406000C0
1004
408000C040A000C040C000C040E000C0600000C0602000C0604000C0606000C0608000C060A000C060C000C060E000C0800000C0802000C0804000C0806000C0808000C080A000C080C000C080E000C0A00000C0A02000C0A04000C0A06000C0A08000C0A0A000C0A0C000C0A0E000C0C00000C0C02000C0C04000C0C06000
1004
C0C08000C0C0A000F0FBFF00A4A0A000808080000000FF0000FF000000FFFF00FF000000FF00FF00FFFF0000FFFFFF0000000000000000000000000000000000000000000000000000000000000000000000000000000000000000000000000000000000000000000000000000000000000000000000000000000000000000
1004
00000000000000000000000000000000000000000000000000000000000000000000000000000000000000000000000000000000000000000000000000000000000000000000000000000000000000000000000000000000000000000000000000000000000000000000000000000000000000000000000000000000000000
1004
000000000000000000000000000000000000000000000000000000000000000000000000000000000000000000000000000000FFFF0000000000000000000000000000000000000000000000000000000000000000FFFFFFFF0000000000000000000000000000000000000000000000000000000000000000FFFFFFFF0000
1004
000000000000000000000000000000000000000000000000000000000000FFFFFF0000000000000000000000000000000000000000000000000000000000000000FFFFFFFF0000000000000000000000000000000000000000000000000000000000000000FFFFFF0000000000000000000000000000000000000000000000
1004
000000000000000000FFFFFFFF0000000000000000000000000000000000000000000000000000000000000000FFFFFFFF00000000FFFFFFFFFFFFFFFFFFFFFFFFFFFFFFFFFFFFFFFFFFFFFFFFFFFFFFFFFFFF00000000000000000000000000000000000000000000000000FFFFFFFF000000000000000000000000000000
1004
000000000000000000FFFFFFFF000000000000000000000000000000000000000000000000FFFFFFFF000000000000000000000000000000000000000000000000FFFFFFFF000000000000000000000000000000000000000000000000FFFFFFFF000000000000000000000000000000000000000000000000FFFFFFFF0000
1004
0000000000000000000000000000000000000000000000FFFFFF0000000000000000000000000000000000000000000000000000000000000000000000000000000000000000000000000000000000000000000000000000000000000000000000000000000000000000000000000000000000000000000000000000000000
1004
00000000000000000000000000000000000000000000000000000000000000000000000000000000000000000000000000000000000000000000000000000000000000000000000000000000000000000000000000000000000000000000000000000000000000000000000000000000000000000000000000000000000000
1004
0000000000000000000000000000000000000000000000000000000000000000000000000000000000000000000000000000000000000000
  0
BLOCK_RECORD
  5
891
330
1
100
AcDbSymbolTableRecord
100
AcDbBlockTableRecord
  2
*D1
  0
BLOCK_RECORD
  5
89E
330
1
100
AcDbSymbolTableRecord
100
AcDbBlockTableRecord
  2
*D2
  0
BLOCK_RECORD
  5
8AB
330
1
100
AcDbSymbolTableRecord
100
AcDbBlockTableRecord
  2
*D3
  0
BLOCK_RECORD
  5
8B8
330
1
100
AcDbSymbolTableRecord
100
AcDbBlockTableRecord
  2
*D4
  0
BLOCK_RECORD
  5
8C5
330
1
100
AcDbSymbolTableRecord
100
AcDbBlockTableRecord
  2
*D5
  0
BLOCK_RECORD
  5
8DB
330
1
100
AcDbSymbolTableRecord
100
AcDbBlockTableRecord
  2
*D6
  0
BLOCK_RECORD
  5
8E8
330
1
100
AcDbSymbolTableRecord
100
AcDbBlockTableRecord
  2
*D7
  0
BLOCK_RECORD
  5
8F5
330
1
100
AcDbSymbolTableRecord
100
AcDbBlockTableRecord
  2
*D8
  0
BLOCK_RECORD
  5
904
330
1
100
AcDbSymbolTableRecord
100
AcDbBlockTableRecord
  2
*D9
  0
BLOCK_RECORD
  5
911
330
1
100
AcDbSymbolTableRecord
100
AcDbBlockTableRecord
  2
*D10
  0
BLOCK_RECORD
  5
91E
330
1
100
AcDbSymbolTableRecord
100
AcDbBlockTableRecord
  2
*D11
  0
BLOCK_RECORD
  5
92B
330
1
100
AcDbSymbolTableRecord
100
AcDbBlockTableRecord
  2
*D12
  0
BLOCK_RECORD
  5
938
330
1
100
AcDbSymbolTableRecord
100
AcDbBlockTableRecord
  2
*D13
  0
BLOCK_RECORD
  5
964
330
1
100
AcDbSymbolTableRecord
100
AcDbBlockTableRecord
  2
*D14
  0
BLOCK_RECORD
  5
971
330
1
100
AcDbSymbolTableRecord
100
AcDbBlockTableRecord
  2
*D15
  0
BLOCK_RECORD
  5
97E
330
1
100
AcDbSymbolTableRecord
100
AcDbBlockTableRecord
  2
*D16
  0
BLOCK_RECORD
  5
98B
330
1
100
AcDbSymbolTableRecord
100
AcDbBlockTableRecord
  2
*D17
  0
BLOCK_RECORD
  5
998
330
1
100
AcDbSymbolTableRecord
100
AcDbBlockTableRecord
  2
*D18
  0
BLOCK_RECORD
  5
9A4
330
1
100
AcDbSymbolTableRecord
100
AcDbBlockTableRecord
  2
*D19
  0
BLOCK_RECORD
  5
9AF
330
1
100
AcDbSymbolTableRecord
100
AcDbBlockTableRecord
  2
*D20
  0
BLOCK_RECORD
  5
9BC
330
1
100
AcDbSymbolTableRecord
100
AcDbBlockTableRecord
  2
*D21
  0
BLOCK_RECORD
  5
DA9
330
1
100
AcDbSymbolTableRecord
100
AcDbBlockTableRecord
  2
*D22
  0
BLOCK_RECORD
  5
DB8
330
1
100
AcDbSymbolTableRecord
100
AcDbBlockTableRecord
  2
*D23
  0
BLOCK_RECORD
  5
DC7
330
1
100
AcDbSymbolTableRecord
100
AcDbBlockTableRecord
  2
*D24
  0
BLOCK_RECORD
  5
DD4
330
1
100
AcDbSymbolTableRecord
100
AcDbBlockTableRecord
  2
*D25
  0
BLOCK_RECORD
  5
DE0
330
1
100
AcDbSymbolTableRecord
100
AcDbBlockTableRecord
  2
*D26
  0
BLOCK_RECORD
  5
DEB
330
1
100
AcDbSymbolTableRecord
100
AcDbBlockTableRecord
  2
*D27
  0
BLOCK_RECORD
  5
DF6
330
1
100
AcDbSymbolTableRecord
100
AcDbBlockTableRecord
  2
*D28
  0
BLOCK_RECORD
  5
E03
330
1
100
AcDbSymbolTableRecord
100
AcDbBlockTableRecord
  2
*D29
  0
BLOCK_RECORD
  5
E0E
330
1
100
AcDbSymbolTableRecord
100
AcDbBlockTableRecord
  2
*D30
  0
BLOCK_RECORD
  5
E1B
330
1
100
AcDbSymbolTableRecord
100
AcDbBlockTableRecord
  2
*D31
  0
BLOCK_RECORD
  5
E28
330
1
100
AcDbSymbolTableRecord
100
AcDbBlockTableRecord
  2
*D32
  0
BLOCK_RECORD
  5
E41
330
1
100
AcDbSymbolTableRecord
100
AcDbBlockTableRecord
  2
*D33
  0
BLOCK_RECORD
  5
E4E
330
1
100
AcDbSymbolTableRecord
100
AcDbBlockTableRecord
  2
*D34
  0
BLOCK_RECORD
  5
E59
330
1
100
AcDbSymbolTableRecord
100
AcDbBlockTableRecord
  2
*D35
  0
BLOCK_RECORD
  5
E64
330
1
100
AcDbSymbolTableRecord
100
AcDbBlockTableRecord
  2
*D36
  0
BLOCK_RECORD
  5
E6F
330
1
100
AcDbSymbolTableRecord
100
AcDbBlockTableRecord
  2
*D37
  0
BLOCK_RECORD
  5
E7A
330
1
100
AcDbSymbolTableRecord
100
AcDbBlockTableRecord
  2
*D38
  0
BLOCK_RECORD
  5
E89
330
1
100
AcDbSymbolTableRecord
100
AcDbBlockTableRecord
  2
*D39
  0
BLOCK_RECORD
  5
E96
330
1
100
AcDbSymbolTableRecord
100
AcDbBlockTableRecord
  2
_DOTSMALL
1001
CONTENTBLOCKICON
1071
        0
1004
2800000020000000200000000100080000000000000400000000000000000000000000000000000000000000000080000080000000808000800000008000800080800000C0C0C000C0DCC000F0CAA6000020400000206000002080000020A0000020C0000020E00000400000004020000040400000406000004080000040A0
1004
000040C0000040E00000600000006020000060400000606000006080000060A0000060C0000060E00000800000008020000080400000806000008080000080A0000080C0000080E00000A0000000A0200000A0400000A0600000A0800000A0A00000A0C00000A0E00000C0000000C0200000C0400000C0600000C0800000C0
1004
A00000C0C00000C0E00000E0000000E0200000E0400000E0600000E0800000E0A00000E0C00000E0E00040000000400020004000400040006000400080004000A0004000C0004000E00040200000402020004020400040206000402080004020A0004020C0004020E000404000004040200040404000404060004040800040
1004
40A0004040C0004040E00040600000406020004060400040606000406080004060A0004060C0004060E00040800000408020004080400040806000408080004080A0004080C0004080E00040A0000040A0200040A0400040A0600040A0800040A0A00040A0C00040A0E00040C0000040C0200040C0400040C0600040C08000
1004
40C0A00040C0C00040C0E00040E0000040E0200040E0400040E0600040E0800040E0A00040E0C00040E0E00080000000800020008000400080006000800080008000A0008000C0008000E00080200000802020008020400080206000802080008020A0008020C0008020E00080400000804020008040400080406000804080
1004
008040A0008040C0008040E00080600000806020008060400080606000806080008060A0008060C0008060E00080800000808020008080400080806000808080008080A0008080C0008080E00080A0000080A0200080A0400080A0600080A0800080A0A00080A0C00080A0E00080C0000080C0200080C0400080C0600080C0
1004
800080C0A00080C0C00080C0E00080E0000080E0200080E0400080E0600080E0800080E0A00080E0C00080E0E000C0000000C0002000C0004000C0006000C0008000C000A000C000C000C000E000C0200000C0202000C0204000C0206000C0208000C020A000C020C000C020E000C0400000C0402000C0404000C0406000C0
1004
408000C040A000C040C000C040E000C0600000C0602000C0604000C0606000C0608000C060A000C060C000C060E000C0800000C0802000C0804000C0806000C0808000C080A000C080C000C080E000C0A00000C0A02000C0A04000C0A06000C0A08000C0A0A000C0A0C000C0A0E000C0C00000C0C02000C0C04000C0C06000
1004
C0C08000C0C0A000F0FBFF00A4A0A000808080000000FF0000FF000000FFFF00FF000000FF00FF00FFFF0000FFFFFF0000000000000000000000FFFF0000000000000000FFFF00000000000000000000FF000000000000000000FFFF0000000000000000FFFF000000000000000000FFFFFF000000000000000000FF000000
1004
0000000000FF000000000000000000FFFF00FF000000000000000000FFFF000000000000FFFF000000000000000000FF0000FFFF0000000000000000FFFFFF00000000FFFFFF0000000000000000FFFF000000FFFF00000000000000FF00FFFF0000FFFF00FF00000000000000FFFF0000FFFF00FF00000000000000FF0000
1004
FF0000FF0000FF00000000000000FF00FFFF00FFFFFFFFFF0000000000FF000000FFFF000000FF0000000000FFFFFFFFFF0000000000FFFFFFFFFF0000FF000000FFFF000000FF0000FFFFFFFFFF000000000000000000FFFF00FFFFFFFF000000FFFF000000FFFFFFFF00FFFF0000000000000000000000FF00000000FFFF
1004
FFFF0000FFFFFFFF00000000FF00000000000000000000000000FF000000FF00FFFFFFFFFFFF00FF000000FF0000000000000000000000000000FFFF0000FFFFFFFF0000FFFFFFFF0000FFFF000000000000000000000000000000FFFFFFFFFF000000000000FFFFFFFFFF00000000000000000000000000FFFFFFFFFF00FF
1004
0000000000000000FF00FFFFFFFFFF0000000000FFFFFFFFFFFF000000FFFFFF0000000000000000FFFFFF000000FFFFFFFFFFFFFFFFFFFFFFFF000000FFFFFF0000000000000000FFFFFF000000FFFFFFFFFFFF0000000000FFFFFFFFFF00FF0000000000000000FF00FFFFFFFFFF00000000000000000000000000FFFFFF
1004
FFFF000000000000FFFFFFFFFF000000000000000000000000000000FFFF0000FFFFFFFF0000FFFFFFFF0000FFFF0000000000000000000000000000FF000000FF00FFFFFFFFFFFF00FF000000FF00000000000000000000000000FF00000000FFFFFFFF0000FFFFFFFF00000000FF0000000000000000000000FFFF00FFFF
1004
FFFF000000FFFF000000FFFFFFFF00FFFF000000000000000000FFFFFFFFFF0000FF000000FFFF000000FF0000FFFFFFFFFF0000000000FFFFFFFFFF0000000000FF000000FFFF000000FF0000000000FFFFFFFFFF00FFFF00FF00000000000000FF0000FF0000FF0000FF00000000000000FF00FFFF0000FFFF0000000000
1004
0000FF00FFFF0000FFFF00FF00000000000000FFFF000000FFFF0000000000000000FFFFFF00000000FFFFFF0000000000000000FFFF0000FF000000000000000000FFFF000000000000FFFF000000000000000000FF00FFFF000000000000000000FF0000000000000000FF000000000000000000FFFFFF00000000000000
1004
0000FFFF0000000000000000FFFF000000000000000000FF00000000000000000000FFFF0000000000000000FFFF00000000000000000000
  0
BLOCK_RECORD
  5
1AB7
330
1
100
AcDbSymbolTableRecord
100
AcDbBlockTableRecord
  2
*D41
  0
BLOCK_RECORD
  5
1AC3
330
1
100
AcDbSymbolTableRecord
100
AcDbBlockTableRecord
  2
*D42
  0
BLOCK_RECORD
  5
1ACF
330
1
100
AcDbSymbolTableRecord
100
AcDbBlockTableRecord
  2
*D43
  0
BLOCK_RECORD
  5
1ADD
330
1
100
AcDbSymbolTableRecord
100
AcDbBlockTableRecord
  2
*D44
  0
BLOCK_RECORD
  5
1AE9
330
1
100
AcDbSymbolTableRecord
100
AcDbBlockTableRecord
  2
*D45
  0
BLOCK_RECORD
  5
1AF5
330
1
100
AcDbSymbolTableRecord
100
AcDbBlockTableRecord
  2
*D46
  0
BLOCK_RECORD
  5
1B03
330
1
100
AcDbSymbolTableRecord
100
AcDbBlockTableRecord
  2
*D47
  0
ENDTAB
  0
ENDSEC
  0
SECTION
  2
BLOCKS
  0
BLOCK
  5
D
330
A
100
AcDbEntity
  8
0
100
AcDbBlockBegin
  2
*MODEL_SPACE
 70
     0
 10
0.0
 20
0.0
 30
0.0
  3
*MODEL_SPACE
  1

  0
ENDBLK
  5
E
330
A
100
AcDbEntity
  8
0
100
AcDbBlockEnd
  0
BLOCK
  5
F
330
B
100
AcDbEntity
 67
     1
  8
0
100
AcDbBlockBegin
  2
*PAPER_SPACE
 70
     0
 10
0.0
 20
0.0
 30
0.0
  3
*PAPER_SPACE
  1

  0
ENDBLK
  5
10
330
B
100
AcDbEntity
 67
     1
  8
0
100
AcDbBlockEnd
  0
BLOCK
  5
828
330
827
100
AcDbEntity
  8
0
100
AcDbBlockBegin
  2
_OPEN30
 70
     0
 10
0.0
 20
0.0
 30
0.0
  3
_OPEN30
  1

  0
LINE
  5
829
330
827
100
AcDbEntity
  8
0
  6
BYBLOCK
 62
     0
100
AcDbLine
 10
-1.0
 20
0.26794919
 30
0.0
 11
0.0
 21
0.0
 31
0.0
  0
LINE
  5
82A
330
827
100
AcDbEntity
  8
0
  6
BYBLOCK
 62
     0
100
AcDbLine
 10
0.0
 20
0.0
 30
0.0
 11
-1.0
 21
-0.26794919
 31
0.0
  0
LINE
  5
82B
330
827
100
AcDbEntity
  8
0
  6
BYBLOCK
 62
     0
100
AcDbLine
 10
0.0
 20
0.0
 30
0.0
 11
-1.0
 21
0.0
 31
0.0
  0
ENDBLK
  5
82C
330
827
100
AcDbEntity
  8
0
100
AcDbBlockEnd
  0
BLOCK
  5
89B
330
891
100
AcDbEntity
  8
0
100
AcDbBlockBegin
  2
*D1
 70
     1
 10
0.0
 20
0.0
 30
0.0
  3
*D1
  1

  0
LINE
  5
1478
330
891
100
AcDbEntity
  8
SUNPOU
100
AcDbLine
 10
212.0000000000004
 20
121.0070298769777
 30
0.0
 11
202.1063268892794
 21
121.0070298769777
 31
0.0
  0
LINE
  5
1479
330
891
100
AcDbEntity
  8
SUNPOU
100
AcDbLine
 10
212.0000000000004
 20
171.0070298769775
 30
0.0
 11
202.1063268892794
 21
171.0070298769775
 31
0.0
  0
LINE
  5
147A
330
891
100
AcDbEntity
  8
SUNPOU
100
AcDbLine
 10
204.1063268892794
 20
126.0070298769777
 30
0.0
 11
204.1063268892794
 21
166.0070298769777
 31
0.0
  0
INSERT
  5
147B
330
891
100
AcDbEntity
  8
SUNPOU
100
AcDbBlockReference
  2
_OPEN30
 10
204.1063268892794
 20
121.0070298769777
 30
0.0
 41
5.0
 42
5.0
 43
5.0
 50
270.0
  0
INSERT
  5
147C
330
891
100
AcDbEntity
  8
SUNPOU
100
AcDbBlockReference
  2
_OPEN30
 10
204.1063268892794
 20
171.0070298769775
 30
0.0
 41
5.0
 42
5.0
 43
5.0
 50
90.0
  0
MTEXT
  5
147D
330
891
100
AcDbEntity
  8
SUNPOU
100
AcDbMText
 10
199.6063268892794
 20
146.0070298769778
 30
0.0
 40
5.0
 41
0.0
 71
     5
 72
     1
  1
\A1;50
  7
SUNPOU
 11
0.0000000000000001
 21
1.0
 31
0.0
1001
ACAD
1000
MTEXTBEGIN
1070
    73
1070
     1
1070
    44
1040
1.0
1070
    74
1070
     0
1000
MTEXTEND
1000
MTEXTBEGIN
1070
    73
1070
     1
1070
    44
1040
1.0
1070
    74
1070
     0
1000
MTEXTEND
  0
POINT
  5
147E
330
891
100
AcDbEntity
  8
DEFPOINTS
 62
     0
100
AcDbPoint
 10
215.0000000000003
 20
121.0070298769777
 30
0.0
  0
POINT
  5
147F
330
891
100
AcDbEntity
  8
DEFPOINTS
 62
     0
100
AcDbPoint
 10
215.0000000000003
 20
171.0070298769775
 30
0.0
  0
POINT
  5
1480
330
891
100
AcDbEntity
  8
DEFPOINTS
 62
     0
100
AcDbPoint
 10
204.1063268892794
 20
171.0070298769775
 30
0.0
  0
ENDBLK
  5
89C
330
891
100
AcDbEntity
  8
0
100
AcDbBlockEnd
  0
BLOCK
  5
8A8
330
89E
100
AcDbEntity
  8
0
100
AcDbBlockBegin
  2
*D2
 70
     1
 10
0.0
 20
0.0
 30
0.0
  3
*D2
  1

  0
LINE
  5
1481
330
89E
100
AcDbEntity
  8
SUNPOU
100
AcDbLine
 10
212.0000000000004
 20
171.0070298769775
 30
0.0
 11
202.1063268892794
 21
171.0070298769775
 31
0.0
  0
LINE
  5
1482
330
89E
100
AcDbEntity
  8
SUNPOU
100
AcDbLine
 10
212.0
 20
359.0
 30
0.0
 11
202.1063268892795
 21
359.0
 31
0.0
  0
LINE
  5
1483
330
89E
100
AcDbEntity
  8
SUNPOU
100
AcDbLine
 10
204.1063268892794
 20
176.0070298769775
 30
0.0
 11
204.1063268892795
 21
354.0
 31
0.0
  0
INSERT
  5
1484
330
89E
100
AcDbEntity
  8
SUNPOU
100
AcDbBlockReference
  2
_OPEN30
 10
204.1063268892794
 20
171.0070298769775
 30
0.0
 41
5.0
 42
5.0
 43
5.0
 50
270.0
  0
INSERT
  5
1485
330
89E
100
AcDbEntity
  8
SUNPOU
100
AcDbBlockReference
  2
_OPEN30
 10
204.1063268892795
 20
359.0
 30
0.0
 41
5.0
 42
5.0
 43
5.0
 50
90.0
  0
MTEXT
  5
1486
330
89E
100
AcDbEntity
  8
SUNPOU
100
AcDbMText
 10
199.6063268892794
 20
265.0035149384889
 30
0.0
 40
5.0
 41
0.0
 71
     5
 72
     1
  1
\A1;開口Ｗ
  7
SUNPOU
 11
0.0000000000000001
 21
1.0
 31
0.0
1001
ACAD
1000
MTEXTBEGIN
1070
    73
1070
     1
1070
    44
1040
1.0
1070
    74
1070
     0
1000
MTEXTEND
1000
MTEXTBEGIN
1070
    73
1070
     1
1070
    44
1040
1.0
1070
    74
1070
     0
1000
MTEXTEND
  0
POINT
  5
1487
330
89E
100
AcDbEntity
  8
DEFPOINTS
 62
     0
100
AcDbPoint
 10
215.0000000000003
 20
171.0070298769775
 30
0.0
  0
POINT
  5
1488
330
89E
100
AcDbEntity
  8
DEFPOINTS
 62
     0
100
AcDbPoint
 10
215.0
 20
359.0
 30
0.0
  0
POINT
  5
1489
330
89E
100
AcDbEntity
  8
DEFPOINTS
 62
     0
100
AcDbPoint
 10
204.1063268892795
 20
359.0
 30
0.0
  0
ENDBLK
  5
8A9
330
89E
100
AcDbEntity
  8
0
100
AcDbBlockEnd
  0
BLOCK
  5
8B5
330
8AB
100
AcDbEntity
  8
0
100
AcDbBlockBegin
  2
*D3
 70
     1
 10
0.0
 20
0.0
 30
0.0
  3
*D3
  1

  0
LINE
  5
148A
330
8AB
100
AcDbEntity
  8
SUNPOU
100
AcDbLine
 10
212.0
 20
359.0
 30
0.0
 11
202.1063268892795
 21
359.0
 31
0.0
  0
LINE
  5
148B
330
8AB
100
AcDbEntity
  8
SUNPOU
100
AcDbLine
 10
212.0
 20
409.0
 30
0.0
 11
202.1063268892795
 21
409.0
 31
0.0
  0
LINE
  5
148C
330
8AB
100
AcDbEntity
  8
SUNPOU
100
AcDbLine
 10
204.1063268892795
 20
364.0
 30
0.0
 11
204.1063268892795
 21
404.0
 31
0.0
  0
INSERT
  5
148D
330
8AB
100
AcDbEntity
  8
SUNPOU
100
AcDbBlockReference
  2
_OPEN30
 10
204.1063268892795
 20
359.0
 30
0.0
 41
5.0
 42
5.0
 43
5.0
 50
270.0
  0
INSERT
  5
148E
330
8AB
100
AcDbEntity
  8
SUNPOU
100
AcDbBlockReference
  2
_OPEN30
 10
204.1063268892795
 20
409.0
 30
0.0
 41
5.0
 42
5.0
 43
5.0
 50
90.0
  0
MTEXT
  5
148F
330
8AB
100
AcDbEntity
  8
SUNPOU
100
AcDbMText
 10
199.6063268892794
 20
384.0
 30
0.0
 40
5.0
 41
0.0
 71
     5
 72
     1
  1
\A1;50
  7
SUNPOU
 11
0.0000000000000001
 21
1.0
 31
0.0
1001
ACAD
1000
MTEXTBEGIN
1070
    73
1070
     1
1070
    44
1040
1.0
1070
    74
1070
     0
1000
MTEXTEND
1000
MTEXTBEGIN
1070
    73
1070
     1
1070
    44
1040
1.0
1070
    74
1070
     0
1000
MTEXTEND
  0
POINT
  5
1490
330
8AB
100
AcDbEntity
  8
DEFPOINTS
 62
     0
100
AcDbPoint
 10
215.0
 20
359.0
 30
0.0
  0
POINT
  5
1491
330
8AB
100
AcDbEntity
  8
DEFPOINTS
 62
     0
100
AcDbPoint
 10
215.0
 20
409.0
 30
0.0
  0
POINT
  5
1492
330
8AB
100
AcDbEntity
  8
DEFPOINTS
 62
     0
100
AcDbPoint
 10
204.1063268892795
 20
409.0
 30
0.0
  0
ENDBLK
  5
8B6
330
8AB
100
AcDbEntity
  8
0
100
AcDbBlockEnd
  0
BLOCK
  5
8C2
330
8B8
100
AcDbEntity
  8
0
100
AcDbBlockBegin
  2
*D4
 70
     1
 10
0.0
 20
0.0
 30
0.0
  3
*D4
  1

  0
LINE
  5
1493
330
8B8
100
AcDbEntity
  8
SUNPOU
100
AcDbLine
 10
212.0
 20
409.0
 30
0.0
 11
202.1063268892795
 21
409.0
 31
0.0
  0
LINE
  5
1494
330
8B8
100
AcDbEntity
  8
SUNPOU
100
AcDbLine
 10
212.0
 20
527.5
 30
0.0
 11
202.1063268892795
 21
527.5
 31
0.0
  0
LINE
  5
1495
330
8B8
100
AcDbEntity
  8
SUNPOU
100
AcDbLine
 10
204.1063268892795
 20
414.0
 30
0.0
 11
204.1063268892795
 21
522.5
 31
0.0
  0
INSERT
  5
1496
330
8B8
100
AcDbEntity
  8
SUNPOU
100
AcDbBlockReference
  2
_OPEN30
 10
204.1063268892795
 20
409.0
 30
0.0
 41
5.0
 42
5.0
 43
5.0
 50
270.0
  0
INSERT
  5
1497
330
8B8
100
AcDbEntity
  8
SUNPOU
100
AcDbBlockReference
  2
_OPEN30
 10
204.1063268892795
 20
527.5
 30
0.0
 41
5.0
 42
5.0
 43
5.0
 50
90.0
  0
MTEXT
  5
1498
330
8B8
100
AcDbEntity
  8
SUNPOU
100
AcDbMText
 10
199.6063268892794
 20
468.25
 30
0.0
 40
5.0
 41
0.0
 71
     5
 72
     1
  1
\A1;118.5
  7
SUNPOU
 11
0.0000000000000001
 21
1.0
 31
0.0
1001
ACAD
1000
MTEXTBEGIN
1070
    73
1070
     1
1070
    44
1040
1.0
1070
    74
1070
     0
1000
MTEXTEND
1000
MTEXTBEGIN
1070
    73
1070
     1
1070
    44
1040
1.0
1070
    74
1070
     0
1000
MTEXTEND
  0
POINT
  5
1499
330
8B8
100
AcDbEntity
  8
DEFPOINTS
 62
     0
100
AcDbPoint
 10
215.0
 20
409.0
 30
0.0
  0
POINT
  5
149A
330
8B8
100
AcDbEntity
  8
DEFPOINTS
 62
     0
100
AcDbPoint
 10
215.0
 20
527.5
 30
0.0
  0
POINT
  5
149B
330
8B8
100
AcDbEntity
  8
DEFPOINTS
 62
     0
100
AcDbPoint
 10
204.1063268892795
 20
527.5
 30
0.0
  0
ENDBLK
  5
8C3
330
8B8
100
AcDbEntity
  8
0
100
AcDbBlockEnd
  0
BLOCK
  5
8CF
330
8C5
100
AcDbEntity
  8
0
100
AcDbBlockBegin
  2
*D5
 70
     1
 10
0.0
 20
0.0
 30
0.0
  3
*D5
  1

  0
LINE
  5
149C
330
8C5
100
AcDbEntity
  8
SUNPOU
100
AcDbLine
 10
212.0
 20
527.5
 30
0.0
 11
202.1063268892795
 21
527.5
 31
0.0
  0
LINE
  5
149D
330
8C5
100
AcDbEntity
  8
SUNPOU
100
AcDbLine
 10
212.0
 20
557.5
 30
0.0
 11
202.1063268892795
 21
557.5
 31
0.0
  0
LINE
  5
149E
330
8C5
100
AcDbEntity
  8
SUNPOU
100
AcDbLine
 10
204.1063268892795
 20
532.5
 30
0.0
 11
204.1063268892795
 21
552.5
 31
0.0
  0
INSERT
  5
149F
330
8C5
100
AcDbEntity
  8
SUNPOU
100
AcDbBlockReference
  2
_OPEN30
 10
204.1063268892795
 20
527.5
 30
0.0
 41
5.0
 42
5.0
 43
5.0
 50
270.0
  0
INSERT
  5
14A0
330
8C5
100
AcDbEntity
  8
SUNPOU
100
AcDbBlockReference
  2
_OPEN30
 10
204.1063268892795
 20
557.5
 30
0.0
 41
5.0
 42
5.0
 43
5.0
 50
90.0
  0
MTEXT
  5
14A1
330
8C5
100
AcDbEntity
  8
SUNPOU
100
AcDbMText
 10
199.6063268892794
 20
542.4999999999998
 30
0.0
 40
5.0
 41
0.0
 71
     5
 72
     1
  1
\A1;30
  7
SUNPOU
 11
0.0000000000000001
 21
1.0
 31
0.0
1001
ACAD
1000
MTEXTBEGIN
1070
    73
1070
     1
1070
    44
1040
1.0
1070
    74
1070
     0
1000
MTEXTEND
1000
MTEXTBEGIN
1070
    73
1070
     1
1070
    44
1040
1.0
1070
    74
1070
     0
1000
MTEXTEND
  0
POINT
  5
14A2
330
8C5
100
AcDbEntity
  8
DEFPOINTS
 62
     0
100
AcDbPoint
 10
215.0
 20
527.5
 30
0.0
  0
POINT
  5
14A3
330
8C5
100
AcDbEntity
  8
DEFPOINTS
 62
     0
100
AcDbPoint
 10
215.0
 20
557.5
 30
0.0
  0
POINT
  5
14A4
330
8C5
100
AcDbEntity
  8
DEFPOINTS
 62
     0
100
AcDbPoint
 10
204.1063268892795
 20
557.5
 30
0.0
  0
ENDBLK
  5
8D0
330
8C5
100
AcDbEntity
  8
0
100
AcDbBlockEnd
  0
BLOCK
  5
8E5
330
8DB
100
AcDbEntity
  8
0
100
AcDbBlockBegin
  2
*D6
 70
     1
 10
0.0
 20
0.0
 30
0.0
  3
*D6
  1

  0
LINE
  5
14A5
330
8DB
100
AcDbEntity
  8
SUNPOU
100
AcDbLine
 10
353.5000000000004
 20
146.0070298769775
 30
0.0
 11
371.1545725120638
 21
146.0070298769775
 31
0.0
  0
LINE
  5
14A6
330
8DB
100
AcDbEntity
  8
SUNPOU
100
AcDbLine
 10
353.5000000000004
 20
171.0070298769778
 30
0.0
 11
371.1545725120638
 21
171.0070298769778
 31
0.0
  0
LINE
  5
14A7
330
8DB
100
AcDbEntity
  8
SUNPOU
100
AcDbLine
 10
369.1545725120638
 20
151.0070298769775
 30
0.0
 11
369.1545725120638
 21
166.0070298769778
 31
0.0
  0
INSERT
  5
14A8
330
8DB
100
AcDbEntity
  8
SUNPOU
100
AcDbBlockReference
  2
_OPEN30
 10
369.1545725120638
 20
146.0070298769775
 30
0.0
 41
5.0
 42
5.0
 43
5.0
 50
270.0
  0
INSERT
  5
14A9
330
8DB
100
AcDbEntity
  8
SUNPOU
100
AcDbBlockReference
  2
_OPEN30
 10
369.1545725120638
 20
171.0070298769778
 30
0.0
 41
5.0
 42
5.0
 43
5.0
 50
90.0
  0
MTEXT
  5
14AA
330
8DB
100
AcDbEntity
  8
SUNPOU
100
AcDbMText
 10
364.6545725120637
 20
158.5070298769778
 30
0.0
 40
5.0
 41
0.0
 71
     5
 72
     1
  1
\A1;25
  7
SUNPOU
 11
0.0000000000000001
 21
1.0
 31
0.0
1001
ACAD
1000
MTEXTBEGIN
1070
    73
1070
     1
1070
    44
1040
1.0
1070
    74
1070
     0
1000
MTEXTEND
1000
MTEXTBEGIN
1070
    73
1070
     1
1070
    44
1040
1.0
1070
    74
1070
     0
1000
MTEXTEND
  0
POINT
  5
14AB
330
8DB
100
AcDbEntity
  8
DEFPOINTS
 62
     0
100
AcDbPoint
 10
350.5000000000003
 20
146.0070298769775
 30
0.0
  0
POINT
  5
14AC
330
8DB
100
AcDbEntity
  8
DEFPOINTS
 62
     0
100
AcDbPoint
 10
350.5000000000003
 20
171.0070298769778
 30
0.0
  0
POINT
  5
14AD
330
8DB
100
AcDbEntity
  8
DEFPOINTS
 62
     0
100
AcDbPoint
 10
369.1545725120638
 20
171.0070298769778
 30
0.0
  0
ENDBLK
  5
8E6
330
8DB
100
AcDbEntity
  8
0
100
AcDbBlockEnd
  0
BLOCK
  5
8F2
330
8E8
100
AcDbEntity
  8
0
100
AcDbBlockBegin
  2
*D7
 70
     1
 10
0.0
 20
0.0
 30
0.0
  3
*D7
  1

  0
LINE
  5
14AE
330
8E8
100
AcDbEntity
  8
SUNPOU
100
AcDbLine
 10
353.5000000000004
 20
146.0070298769775
 30
0.0
 11
384.1175938430723
 21
146.0070298769775
 31
0.0
  0
LINE
  5
14AF
330
8E8
100
AcDbEntity
  8
SUNPOU
100
AcDbLine
 10
353.5000000000004
 20
262.5035149384887
 30
0.0
 11
384.1175938430723
 21
262.5035149384887
 31
0.0
  0
LINE
  5
14B0
330
8E8
100
AcDbEntity
  8
SUNPOU
100
AcDbLine
 10
382.1175938430723
 20
151.0070298769775
 30
0.0
 11
382.1175938430723
 21
257.5035149384887
 31
0.0
  0
INSERT
  5
14B1
330
8E8
100
AcDbEntity
  8
SUNPOU
100
AcDbBlockReference
  2
_OPEN30
 10
382.1175938430723
 20
146.0070298769775
 30
0.0
 41
5.0
 42
5.0
 43
5.0
 50
270.0
  0
INSERT
  5
14B2
330
8E8
100
AcDbEntity
  8
SUNPOU
100
AcDbBlockReference
  2
_OPEN30
 10
382.1175938430723
 20
262.5035149384887
 30
0.0
 41
5.0
 42
5.0
 43
5.0
 50
90.0
  0
MTEXT
  5
14B3
330
8E8
100
AcDbEntity
  8
SUNPOU
100
AcDbMText
 10
377.6175938430722
 20
204.2552724077333
 30
0.0
 40
5.0
 41
0.0
 71
     5
 72
     1
  1
\A1;DW
  7
SUNPOU
 11
0.0000000000000001
 21
1.0
 31
0.0
1001
ACAD
1000
MTEXTBEGIN
1070
    73
1070
     1
1070
    44
1040
1.0
1070
    74
1070
     0
1000
MTEXTEND
1000
MTEXTBEGIN
1070
    73
1070
     1
1070
    44
1040
1.0
1070
    74
1070
     0
1000
MTEXTEND
  0
POINT
  5
14B4
330
8E8
100
AcDbEntity
  8
DEFPOINTS
 62
     0
100
AcDbPoint
 10
350.5000000000003
 20
146.0070298769775
 30
0.0
  0
POINT
  5
14B5
330
8E8
100
AcDbEntity
  8
DEFPOINTS
 62
     0
100
AcDbPoint
 10
350.5000000000003
 20
262.5035149384887
 30
0.0
  0
POINT
  5
14B6
330
8E8
100
AcDbEntity
  8
DEFPOINTS
 62
     0
100
AcDbPoint
 10
382.1175938430723
 20
262.5035149384887
 30
0.0
  0
ENDBLK
  5
8F3
330
8E8
100
AcDbEntity
  8
0
100
AcDbBlockEnd
  0
BLOCK
  5
901
330
8F5
100
AcDbEntity
  8
0
100
AcDbBlockBegin
  2
*D8
 70
     1
 10
0.0
 20
0.0
 30
0.0
  3
*D8
  1

  0
LINE
  5
14B7
330
8F5
100
AcDbEntity
  8
SUNPOU
100
AcDbLine
 10
353.5000000000004
 20
262.5035149384887
 30
0.0
 11
384.1175938430723
 21
262.5035149384887
 31
0.0
  0
LINE
  5
14B8
330
8F5
100
AcDbEntity
  8
SUNPOU
100
AcDbLine
 10
353.5000000000001
 20
267.5035149384888
 30
0.0
 11
384.1175938430723
 21
267.5035149384886
 31
0.0
  0
LINE
  5
14B9
330
8F5
100
AcDbEntity
  8
SUNPOU
100
AcDbLine
 10
382.1175938430723
 20
257.5035149384887
 30
0.0
 11
382.1175938430723
 21
252.5035149384887
 31
0.0
  0
LINE
  5
14BA
330
8F5
100
AcDbEntity
  8
SUNPOU
100
AcDbLine
 10
382.1175938430723
 20
272.5035149384888
 30
0.0
 11
382.1175938430723
 21
277.5035149384888
 31
0.0
  0
MTEXT
  5
14BB
330
8F5
100
AcDbEntity
  8
SUNPOU
100
AcDbMText
 10
386.7544690009387
 20
265.0035149384888
 30
0.0
 40
5.0
 41
0.0
 71
     5
 72
     1
  1
\A1;5
  7
SUNPOU
 11
0.0000000000000001
 21
1.0
 31
0.0
1001
ACAD
1000
MTEXTBEGIN
1070
    73
1070
     1
1070
    44
1040
1.0
1070
    74
1070
     0
1000
MTEXTEND
1000
MTEXTBEGIN
1070
    73
1070
     1
1070
    44
1040
1.0
1070
    74
1070
     0
1000
MTEXTEND
  0
LINE
  5
14BC
330
8F5
100
AcDbEntity
  8
SUNPOU
100
AcDbLine
 10
382.1175938430723
 20
262.5035149384887
 30
0.0
 11
382.1175938430723
 21
267.5035149384888
 31
0.0
  0
INSERT
  5
14BD
330
8F5
100
AcDbEntity
  8
SUNPOU
100
AcDbBlockReference
  2
_OPEN30
 10
382.1175938430723
 20
262.5035149384887
 30
0.0
 41
5.0
 42
5.0
 43
5.0
 50
90.0
  0
INSERT
  5
14BE
330
8F5
100
AcDbEntity
  8
SUNPOU
100
AcDbBlockReference
  2
_OPEN30
 10
382.1175938430723
 20
267.5035149384888
 30
0.0
 41
5.0
 42
5.0
 43
5.0
 50
270.0
  0
POINT
  5
14BF
330
8F5
100
AcDbEntity
  8
DEFPOINTS
 62
     0
100
AcDbPoint
 10
350.5000000000003
 20
262.5035149384887
 30
0.0
  0
POINT
  5
14C0
330
8F5
100
AcDbEntity
  8
DEFPOINTS
 62
     0
100
AcDbPoint
 10
350.5000000000001
 20
267.5035149384888
 30
0.0
  0
POINT
  5
14C1
330
8F5
100
AcDbEntity
  8
DEFPOINTS
 62
     0
100
AcDbPoint
 10
382.1175938430723
 20
267.5035149384888
 30
0.0
  0
ENDBLK
  5
902
330
8F5
100
AcDbEntity
  8
0
100
AcDbBlockEnd
  0
BLOCK
  5
90E
330
904
100
AcDbEntity
  8
0
100
AcDbBlockBegin
  2
*D9
 70
     1
 10
0.0
 20
0.0
 30
0.0
  3
*D9
  1

  0
LINE
  5
14C2
330
904
100
AcDbEntity
  8
SUNPOU
100
AcDbLine
 10
353.5000000000001
 20
267.5035149384888
 30
0.0
 11
384.1175938430723
 21
267.5035149384886
 31
0.0
  0
LINE
  5
14C3
330
904
100
AcDbEntity
  8
SUNPOU
100
AcDbLine
 10
353.5
 20
384.0
 30
0.0
 11
384.1175938430726
 21
384.0
 31
0.0
  0
LINE
  5
14C4
330
904
100
AcDbEntity
  8
SUNPOU
100
AcDbLine
 10
382.1175938430723
 20
272.5035149384888
 30
0.0
 11
382.1175938430723
 21
379.0
 31
0.0
  0
INSERT
  5
14C5
330
904
100
AcDbEntity
  8
SUNPOU
100
AcDbBlockReference
  2
_OPEN30
 10
382.1175938430723
 20
267.5035149384888
 30
0.0
 41
5.0
 42
5.0
 43
5.0
 50
270.0
  0
INSERT
  5
14C6
330
904
100
AcDbEntity
  8
SUNPOU
100
AcDbBlockReference
  2
_OPEN30
 10
382.1175938430726
 20
384.0
 30
0.0
 41
5.0
 42
5.0
 43
5.0
 50
90.0
  0
MTEXT
  5
14C7
330
904
100
AcDbEntity
  8
SUNPOU
100
AcDbMText
 10
377.6175938430722
 20
325.7517574692444
 30
0.0
 40
5.0
 41
0.0
 71
     5
 72
     1
  1
\A1;DW
  7
SUNPOU
 11
0.0000000000000001
 21
1.0
 31
0.0
1001
ACAD
1000
MTEXTBEGIN
1070
    73
1070
     1
1070
    44
1040
1.0
1070
    74
1070
     0
1000
MTEXTEND
1000
MTEXTBEGIN
1070
    73
1070
     1
1070
    44
1040
1.0
1070
    74
1070
     0
1000
MTEXTEND
  0
POINT
  5
14C8
330
904
100
AcDbEntity
  8
DEFPOINTS
 62
     0
100
AcDbPoint
 10
350.5000000000001
 20
267.5035149384888
 30
0.0
  0
POINT
  5
14C9
330
904
100
AcDbEntity
  8
DEFPOINTS
 62
     0
100
AcDbPoint
 10
350.4999999999998
 20
384.0
 30
0.0
  0
POINT
  5
14CA
330
904
100
AcDbEntity
  8
DEFPOINTS
 62
     0
100
AcDbPoint
 10
382.1175938430726
 20
384.0
 30
0.0
  0
ENDBLK
  5
90F
330
904
100
AcDbEntity
  8
0
100
AcDbBlockEnd
  0
BLOCK
  5
91B
330
911
100
AcDbEntity
  8
0
100
AcDbBlockBegin
  2
*D10
 70
     1
 10
0.0
 20
0.0
 30
0.0
  3
*D10
  1

  0
LINE
  5
14CB
330
911
100
AcDbEntity
  8
SUNPOU
100
AcDbLine
 10
353.5000000000001
 20
237.5035149384887
 30
0.0
 11
371.1545725120638
 21
237.5035149384887
 31
0.0
  0
LINE
  5
14CC
330
911
100
AcDbEntity
  8
SUNPOU
100
AcDbLine
 10
353.5000000000001
 20
262.5035149384888
 30
0.0
 11
371.1545725120638
 21
262.5035149384888
 31
0.0
  0
LINE
  5
14CD
330
911
100
AcDbEntity
  8
SUNPOU
100
AcDbLine
 10
369.1545725120638
 20
242.5035149384886
 30
0.0
 11
369.1545725120638
 21
257.5035149384888
 31
0.0
  0
INSERT
  5
14CE
330
911
100
AcDbEntity
  8
SUNPOU
100
AcDbBlockReference
  2
_OPEN30
 10
369.1545725120638
 20
237.5035149384887
 30
0.0
 41
5.0
 42
5.0
 43
5.0
 50
270.0
  0
INSERT
  5
14CF
330
911
100
AcDbEntity
  8
SUNPOU
100
AcDbBlockReference
  2
_OPEN30
 10
369.1545725120638
 20
262.5035149384888
 30
0.0
 41
5.0
 42
5.0
 43
5.0
 50
90.0
  0
MTEXT
  5
14D0
330
911
100
AcDbEntity
  8
SUNPOU
100
AcDbMText
 10
364.6545725120637
 20
250.0035149384888
 30
0.0
 40
5.0
 41
0.0
 71
     5
 72
     1
  1
\A1;25
  7
SUNPOU
 11
0.0000000000000001
 21
1.0
 31
0.0
1001
ACAD
1000
MTEXTBEGIN
1070
    73
1070
     1
1070
    44
1040
1.0
1070
    74
1070
     0
1000
MTEXTEND
1000
MTEXTBEGIN
1070
    73
1070
     1
1070
    44
1040
1.0
1070
    74
1070
     0
1000
MTEXTEND
  0
POINT
  5
14D1
330
911
100
AcDbEntity
  8
DEFPOINTS
 62
     0
100
AcDbPoint
 10
350.5000000000003
 20
237.5035149384887
 30
0.0
  0
POINT
  5
14D2
330
911
100
AcDbEntity
  8
DEFPOINTS
 62
     0
100
AcDbPoint
 10
350.5000000000001
 20
262.5035149384888
 30
0.0
  0
POINT
  5
14D3
330
911
100
AcDbEntity
  8
DEFPOINTS
 62
     0
100
AcDbPoint
 10
369.1545725120638
 20
262.5035149384888
 30
0.0
  0
ENDBLK
  5
91C
330
911
100
AcDbEntity
  8
0
100
AcDbBlockEnd
  0
BLOCK
  5
928
330
91E
100
AcDbEntity
  8
0
100
AcDbBlockBegin
  2
*D11
 70
     1
 10
0.0
 20
0.0
 30
0.0
  3
*D11
  1

  0
LINE
  5
14D4
330
91E
100
AcDbEntity
  8
SUNPOU
100
AcDbLine
 10
353.5000000000001
 20
267.5035149384888
 30
0.0
 11
371.1545725120638
 21
267.5035149384888
 31
0.0
  0
LINE
  5
14D5
330
91E
100
AcDbEntity
  8
SUNPOU
100
AcDbLine
 10
353.5000000000001
 20
292.5035149384888
 30
0.0
 11
371.1545725120638
 21
292.5035149384888
 31
0.0
  0
LINE
  5
14D6
330
91E
100
AcDbEntity
  8
SUNPOU
100
AcDbLine
 10
369.1545725120638
 20
272.5035149384888
 30
0.0
 11
369.1545725120638
 21
287.5035149384888
 31
0.0
  0
INSERT
  5
14D7
330
91E
100
AcDbEntity
  8
SUNPOU
100
AcDbBlockReference
  2
_OPEN30
 10
369.1545725120638
 20
267.5035149384888
 30
0.0
 41
5.0
 42
5.0
 43
5.0
 50
270.0
  0
INSERT
  5
14D8
330
91E
100
AcDbEntity
  8
SUNPOU
100
AcDbBlockReference
  2
_OPEN30
 10
369.1545725120638
 20
292.5035149384888
 30
0.0
 41
5.0
 42
5.0
 43
5.0
 50
90.0
  0
MTEXT
  5
14D9
330
91E
100
AcDbEntity
  8
SUNPOU
100
AcDbMText
 10
364.6545725120637
 20
280.0035149384888
 30
0.0
 40
5.0
 41
0.0
 71
     5
 72
     1
  1
\A1;25
  7
SUNPOU
 11
0.0000000000000001
 21
1.0
 31
0.0
1001
ACAD
1000
MTEXTBEGIN
1070
    73
1070
     1
1070
    44
1040
1.0
1070
    74
1070
     0
1000
MTEXTEND
1000
MTEXTBEGIN
1070
    73
1070
     1
1070
    44
1040
1.0
1070
    74
1070
     0
1000
MTEXTEND
  0
POINT
  5
14DA
330
91E
100
AcDbEntity
  8
DEFPOINTS
 62
     0
100
AcDbPoint
 10
350.5000000000001
 20
267.5035149384888
 30
0.0
  0
POINT
  5
14DB
330
91E
100
AcDbEntity
  8
DEFPOINTS
 62
     0
100
AcDbPoint
 10
350.5000000000001
 20
292.5035149384888
 30
0.0
  0
POINT
  5
14DC
330
91E
100
AcDbEntity
  8
DEFPOINTS
 62
     0
100
AcDbPoint
 10
369.1545725120638
 20
292.5035149384888
 30
0.0
  0
ENDBLK
  5
929
330
91E
100
AcDbEntity
  8
0
100
AcDbBlockEnd
  0
BLOCK
  5
935
330
92B
100
AcDbEntity
  8
0
100
AcDbBlockBegin
  2
*D12
 70
     1
 10
0.0
 20
0.0
 30
0.0
  3
*D12
  1

  0
LINE
  5
14DD
330
92B
100
AcDbEntity
  8
SUNPOU
100
AcDbLine
 10
353.5
 20
359.0000000000001
 30
0.0
 11
371.1545725120636
 21
359.0000000000001
 31
0.0
  0
LINE
  5
14DE
330
92B
100
AcDbEntity
  8
SUNPOU
100
AcDbLine
 10
353.4999999999998
 20
384.0
 30
0.0
 11
371.1545725120638
 21
384.0
 31
0.0
  0
LINE
  5
14DF
330
92B
100
AcDbEntity
  8
SUNPOU
100
AcDbLine
 10
369.1545725120636
 20
364.0000000000001
 30
0.0
 11
369.1545725120636
 21
379.0
 31
0.0
  0
INSERT
  5
14E0
330
92B
100
AcDbEntity
  8
SUNPOU
100
AcDbBlockReference
  2
_OPEN30
 10
369.1545725120636
 20
359.0000000000001
 30
0.0
 41
5.0
 42
5.0
 43
5.0
 50
270.0
  0
INSERT
  5
14E1
330
92B
100
AcDbEntity
  8
SUNPOU
100
AcDbBlockReference
  2
_OPEN30
 10
369.1545725120638
 20
384.0
 30
0.0
 41
5.0
 42
5.0
 43
5.0
 50
90.0
  0
MTEXT
  5
14E2
330
92B
100
AcDbEntity
  8
SUNPOU
100
AcDbMText
 10
364.6545725120637
 20
371.5000000000001
 30
0.0
 40
5.0
 41
0.0
 71
     5
 72
     1
  1
\A1;25
  7
SUNPOU
 11
0.0000000000000001
 21
1.0
 31
0.0
1001
ACAD
1000
MTEXTBEGIN
1070
    73
1070
     1
1070
    44
1040
1.0
1070
    74
1070
     0
1000
MTEXTEND
1000
MTEXTBEGIN
1070
    73
1070
     1
1070
    44
1040
1.0
1070
    74
1070
     0
1000
MTEXTEND
  0
POINT
  5
14E3
330
92B
100
AcDbEntity
  8
DEFPOINTS
 62
     0
100
AcDbPoint
 10
350.4999999999998
 20
359.0000000000001
 30
0.0
  0
POINT
  5
14E4
330
92B
100
AcDbEntity
  8
DEFPOINTS
 62
     0
100
AcDbPoint
 10
350.4999999999998
 20
384.0
 30
0.0
  0
POINT
  5
14E5
330
92B
100
AcDbEntity
  8
DEFPOINTS
 62
     0
100
AcDbPoint
 10
369.1545725120638
 20
384.0
 30
0.0
  0
ENDBLK
  5
936
330
92B
100
AcDbEntity
  8
0
100
AcDbBlockEnd
  0
BLOCK
  5
942
330
938
100
AcDbEntity
  8
0
100
AcDbBlockBegin
  2
*D13
 70
     1
 10
0.0
 20
0.0
 30
0.0
  3
*D13
  1

  0
LINE
  5
1EFE
330
938
100
AcDbEntity
  8
SUNPOU
100
AcDbLine
 10
213.5
 20
357.5
 30
0.0
 11
213.5
 21
338.881843990807
 31
0.0
  0
LINE
  5
1EFF
330
938
100
AcDbEntity
  8
SUNPOU
100
AcDbLine
 10
313.5
 20
357.5
 30
0.0
 11
313.5
 21
338.881843990807
 31
0.0
  0
LINE
  5
1F00
330
938
100
AcDbEntity
  8
SUNPOU
100
AcDbLine
 10
218.5
 20
340.881843990807
 30
0.0
 11
308.4999999999999
 21
340.881843990807
 31
0.0
  0
MTEXT
  5
1F01
330
938
100
AcDbEntity
  8
SUNPOU
100
AcDbMText
 10
255.870201136677
 20
336.2913569759996
 30
0.0
 40
5.0
 41
0.0
 71
     5
 72
     1
  1
\A1;100
  7
SUNPOU
 11
-1.0
 21
0.0000000000000001
 31
0.0
1001
ACAD
1000
MTEXTBEGIN
1070
    73
1070
     1
1070
    44
1040
1.0
1070
    74
1070
     0
1000
MTEXTEND
1000
MTEXTBEGIN
1070
    73
1070
     1
1070
    44
1040
1.0
1070
    74
1070
     0
1000
MTEXTEND
  0
INSERT
  5
1F02
330
938
100
AcDbEntity
  8
SUNPOU
100
AcDbBlockReference
  2
_OPEN30
 10
213.5
 20
340.881843990807
 30
0.0
 41
5.0
 42
5.0
 43
5.0
 50
180.0
  0
INSERT
  5
1F03
330
938
100
AcDbEntity
  8
SUNPOU
100
AcDbBlockReference
  2
_OPEN30
 10
313.5
 20
340.881843990807
 30
0.0
 41
5.0
 42
5.0
 43
5.0
  0
POINT
  5
1F04
330
938
100
AcDbEntity
  8
DEFPOINTS
 62
     0
100
AcDbPoint
 10
213.5
 20
360.4999999999998
 30
0.0
  0
POINT
  5
1F05
330
938
100
AcDbEntity
  8
DEFPOINTS
 62
     0
100
AcDbPoint
 10
313.5
 20
360.4999999999998
 30
0.0
  0
POINT
  5
1F06
330
938
100
AcDbEntity
  8
DEFPOINTS
 62
     0
100
AcDbPoint
 10
313.5
 20
340.881843990807
 30
0.0
  0
ENDBLK
  5
943
330
938
100
AcDbEntity
  8
0
100
AcDbBlockEnd
  0
BLOCK
  5
96E
330
964
100
AcDbEntity
  8
0
100
AcDbBlockBegin
  2
*D14
 70
     1
 10
0.0
 20
0.0
 30
0.0
  3
*D14
  1

  0
LINE
  5
1E0E
330
964
100
AcDbEntity
  8
SUNPOU
100
AcDbLine
 10
213.5
 20
410.5
 30
0.0
 11
213.5
 21
461.2071109909421
 31
0.0
  0
LINE
  5
1E0F
330
964
100
AcDbEntity
  8
SUNPOU
100
AcDbLine
 10
255.5
 20
410.5
 30
0.0
 11
255.5
 21
461.2071109909421
 31
0.0
  0
LINE
  5
1E10
330
964
100
AcDbEntity
  8
SUNPOU
100
AcDbLine
 10
218.5
 20
459.2071109909421
 30
0.0
 11
250.4999999999999
 21
459.2071109909421
 31
0.0
  0
MTEXT
  5
1E11
330
964
100
AcDbEntity
  8
SUNPOU
100
AcDbMText
 10
232.997892337355
 20
454.6234982666788
 30
0.0
 40
5.0
 41
0.0
 71
     5
 72
     1
  1
\A1;42
  7
SUNPOU
 11
-1.0
 21
0.0000000000000001
 31
0.0
1001
ACAD
1000
MTEXTBEGIN
1070
    73
1070
     1
1070
    44
1040
1.0
1070
    74
1070
     0
1000
MTEXTEND
1000
MTEXTBEGIN
1070
    73
1070
     1
1070
    44
1040
1.0
1070
    74
1070
     0
1000
MTEXTEND
  0
INSERT
  5
1E12
330
964
100
AcDbEntity
  8
SUNPOU
100
AcDbBlockReference
  2
_OPEN30
 10
213.5
 20
459.2071109909421
 30
0.0
 41
5.0
 42
5.0
 43
5.0
 50
180.0
  0
INSERT
  5
1E13
330
964
100
AcDbEntity
  8
SUNPOU
100
AcDbBlockReference
  2
_OPEN30
 10
255.5
 20
459.2071109909421
 30
0.0
 41
5.0
 42
5.0
 43
5.0
  0
POINT
  5
1E14
330
964
100
AcDbEntity
  8
DEFPOINTS
 62
     0
100
AcDbPoint
 10
213.5
 20
407.5
 30
0.0
  0
POINT
  5
1E15
330
964
100
AcDbEntity
  8
DEFPOINTS
 62
     0
100
AcDbPoint
 10
255.5
 20
407.5
 30
0.0
  0
POINT
  5
1E16
330
964
100
AcDbEntity
  8
DEFPOINTS
 62
     0
100
AcDbPoint
 10
255.5
 20
459.2071109909421
 30
0.0
  0
ENDBLK
  5
96F
330
964
100
AcDbEntity
  8
0
100
AcDbBlockEnd
  0
BLOCK
  5
97B
330
971
100
AcDbEntity
  8
0
100
AcDbBlockBegin
  2
*D15
 70
     1
 10
0.0
 20
0.0
 30
0.0
  3
*D15
  1

  0
LINE
  5
1E20
330
971
100
AcDbEntity
  8
SUNPOU
100
AcDbLine
 10
255.5
 20
410.5
 30
0.0
 11
255.5
 21
461.2071109909421
 31
0.0
  0
LINE
  5
1E21
330
971
100
AcDbEntity
  8
SUNPOU
100
AcDbLine
 10
271.4999999999999
 20
410.5
 30
0.0
 11
271.4999999999999
 21
461.2071109909421
 31
0.0
  0
LINE
  5
1E22
330
971
100
AcDbEntity
  8
SUNPOU
100
AcDbLine
 10
260.4999999999999
 20
459.2071109909421
 30
0.0
 11
266.5
 21
459.2071109909421
 31
0.0
  0
MTEXT
  5
1E23
330
971
100
AcDbEntity
  8
SUNPOU
100
AcDbMText
 10
262.827946765643
 20
454.6730748981945
 30
0.0
 40
5.0
 41
0.0
 71
     5
 72
     1
  1
\A1;16
  7
SUNPOU
 11
-1.0
 21
0.0000000000000001
 31
0.0
1001
ACAD
1000
MTEXTBEGIN
1070
    73
1070
     1
1070
    44
1040
1.0
1070
    74
1070
     0
1000
MTEXTEND
1000
MTEXTBEGIN
1070
    73
1070
     1
1070
    44
1040
1.0
1070
    74
1070
     0
1000
MTEXTEND
  0
INSERT
  5
1E24
330
971
100
AcDbEntity
  8
SUNPOU
100
AcDbBlockReference
  2
_OPEN30
 10
255.5
 20
459.2071109909421
 30
0.0
 41
5.0
 42
5.0
 43
5.0
 50
180.0
  0
INSERT
  5
1E25
330
971
100
AcDbEntity
  8
SUNPOU
100
AcDbBlockReference
  2
_OPEN30
 10
271.4999999999999
 20
459.2071109909421
 30
0.0
 41
5.0
 42
5.0
 43
5.0
  0
POINT
  5
1E26
330
971
100
AcDbEntity
  8
DEFPOINTS
 62
     0
100
AcDbPoint
 10
255.5
 20
407.5
 30
0.0
  0
POINT
  5
1E27
330
971
100
AcDbEntity
  8
DEFPOINTS
 62
     0
100
AcDbPoint
 10
271.4999999999999
 20
407.5
 30
0.0
  0
POINT
  5
1E28
330
971
100
AcDbEntity
  8
DEFPOINTS
 62
     0
100
AcDbPoint
 10
271.4999999999999
 20
459.2071109909421
 30
0.0
  0
ENDBLK
  5
97C
330
971
100
AcDbEntity
  8
0
100
AcDbBlockEnd
  0
BLOCK
  5
988
330
97E
100
AcDbEntity
  8
0
100
AcDbBlockBegin
  2
*D16
 70
     1
 10
0.0
 20
0.0
 30
0.0
  3
*D16
  1

  0
LINE
  5
1E17
330
97E
100
AcDbEntity
  8
SUNPOU
100
AcDbLine
 10
271.4999999999999
 20
410.5
 30
0.0
 11
271.4999999999999
 21
461.2071109909421
 31
0.0
  0
LINE
  5
1E18
330
97E
100
AcDbEntity
  8
SUNPOU
100
AcDbLine
 10
313.5
 20
410.5
 30
0.0
 11
313.5
 21
461.2071109909421
 31
0.0
  0
LINE
  5
1E19
330
97E
100
AcDbEntity
  8
SUNPOU
100
AcDbLine
 10
276.5
 20
459.2071109909421
 30
0.0
 11
308.4999999999999
 21
459.2071109909421
 31
0.0
  0
MTEXT
  5
1E1A
330
97E
100
AcDbEntity
  8
SUNPOU
100
AcDbMText
 10
293.7622615843896
 20
454.6230578030225
 30
0.0
 40
5.0
 41
0.0
 71
     5
 72
     1
  1
\A1;42
  7
SUNPOU
 11
-1.0
 21
0.0000000000000001
 31
0.0
1001
ACAD
1000
MTEXTBEGIN
1070
    73
1070
     1
1070
    44
1040
1.0
1070
    74
1070
     0
1000
MTEXTEND
1000
MTEXTBEGIN
1070
    73
1070
     1
1070
    44
1040
1.0
1070
    74
1070
     0
1000
MTEXTEND
  0
INSERT
  5
1E1B
330
97E
100
AcDbEntity
  8
SUNPOU
100
AcDbBlockReference
  2
_OPEN30
 10
271.4999999999999
 20
459.2071109909421
 30
0.0
 41
5.0
 42
5.0
 43
5.0
 50
180.0
  0
INSERT
  5
1E1C
330
97E
100
AcDbEntity
  8
SUNPOU
100
AcDbBlockReference
  2
_OPEN30
 10
313.5
 20
459.2071109909421
 30
0.0
 41
5.0
 42
5.0
 43
5.0
  0
POINT
  5
1E1D
330
97E
100
AcDbEntity
  8
DEFPOINTS
 62
     0
100
AcDbPoint
 10
271.4999999999999
 20
407.5
 30
0.0
  0
POINT
  5
1E1E
330
97E
100
AcDbEntity
  8
DEFPOINTS
 62
     0
100
AcDbPoint
 10
313.5
 20
407.5000000000001
 30
0.0
  0
POINT
  5
1E1F
330
97E
100
AcDbEntity
  8
DEFPOINTS
 62
     0
100
AcDbPoint
 10
313.5
 20
459.2071109909421
 30
0.0
  0
ENDBLK
  5
989
330
97E
100
AcDbEntity
  8
0
100
AcDbBlockEnd
  0
BLOCK
  5
995
330
98B
100
AcDbEntity
  8
0
100
AcDbBlockBegin
  2
*D17
 70
     1
 10
0.0
 20
0.0
 30
0.0
  3
*D17
  1

  0
LINE
  5
150A
330
98B
100
AcDbEntity
  8
SUNPOU
100
AcDbLine
 10
213.5
 20
410.5
 30
0.0
 11
213.5
 21
432.5598215492767
 31
0.0
  0
LINE
  5
150B
330
98B
100
AcDbEntity
  8
SUNPOU
100
AcDbLine
 10
238.5
 20
412.0
 30
0.0
 11
238.5
 21
432.5598215492767
 31
0.0
  0
LINE
  5
150C
330
98B
100
AcDbEntity
  8
SUNPOU
100
AcDbLine
 10
218.5
 20
430.5598215492766
 30
0.0
 11
233.4999999999999
 21
430.5598215492766
 31
0.0
  0
MTEXT
  5
150D
330
98B
100
AcDbEntity
  8
SUNPOU
100
AcDbMText
 10
226.0
 20
426.048814294502
 30
0.0
 40
5.0
 41
0.0
 71
     5
 72
     1
  1
\A1;25
  7
SUNPOU
 11
-1.0
 21
0.0000000000000001
 31
0.0
1001
ACAD
1000
MTEXTBEGIN
1070
    73
1070
     1
1070
    44
1040
1.0
1070
    74
1070
     0
1000
MTEXTEND
1000
MTEXTBEGIN
1070
    73
1070
     1
1070
    44
1040
1.0
1070
    74
1070
     0
1000
MTEXTEND
  0
INSERT
  5
150E
330
98B
100
AcDbEntity
  8
SUNPOU
100
AcDbBlockReference
  2
_OPEN30
 10
213.5
 20
430.5598215492766
 30
0.0
 41
5.0
 42
5.0
 43
5.0
 50
180.0
  0
INSERT
  5
150F
330
98B
100
AcDbEntity
  8
SUNPOU
100
AcDbBlockReference
  2
_OPEN30
 10
238.5
 20
430.5598215492766
 30
0.0
 41
5.0
 42
5.0
 43
5.0
  0
POINT
  5
1510
330
98B
100
AcDbEntity
  8
DEFPOINTS
 62
     0
100
AcDbPoint
 10
213.5
 20
407.5
 30
0.0
  0
POINT
  5
1511
330
98B
100
AcDbEntity
  8
DEFPOINTS
 62
     0
100
AcDbPoint
 10
238.5
 20
409.0
 30
0.0
  0
POINT
  5
1512
330
98B
100
AcDbEntity
  8
DEFPOINTS
 62
     0
100
AcDbPoint
 10
238.5
 20
430.5598215492766
 30
0.0
  0
ENDBLK
  5
996
330
98B
100
AcDbEntity
  8
0
100
AcDbBlockEnd
  0
BLOCK
  5
9A1
330
998
100
AcDbEntity
  8
0
100
AcDbBlockBegin
  2
*D18
 70
     1
 10
0.0
 20
0.0
 30
0.0
  3
*D18
  1

  0
LINE
  5
1E05
330
998
100
AcDbEntity
  8
SUNPOU
100
AcDbLine
 10
238.5
 20
412.0
 30
0.0
 11
238.5
 21
432.5598215492767
 31
0.0
  0
LINE
  5
1E06
330
998
100
AcDbEntity
  8
SUNPOU
100
AcDbLine
 10
288.5
 20
412.0
 30
0.0
 11
288.5
 21
432.5598215492767
 31
0.0
  0
LINE
  5
1E07
330
998
100
AcDbEntity
  8
SUNPOU
100
AcDbLine
 10
243.5
 20
430.5598215492766
 30
0.0
 11
283.4999999999999
 21
430.5598215492766
 31
0.0
  0
MTEXT
  5
1E08
330
998
100
AcDbEntity
  8
SUNPOU
100
AcDbMText
 10
276.4495086153646
 20
426.0079532501879
 30
0.0
 40
5.0
 41
0.0
 71
     5
 72
     1
  1
\A1;50
  7
SUNPOU
 11
-1.0
 21
0.0000000000000001
 31
0.0
1001
ACAD
1000
MTEXTBEGIN
1070
    73
1070
     1
1070
    44
1040
1.0
1070
    74
1070
     0
1000
MTEXTEND
1000
MTEXTBEGIN
1070
    73
1070
     1
1070
    44
1040
1.0
1070
    74
1070
     0
1000
MTEXTEND
  0
INSERT
  5
1E09
330
998
100
AcDbEntity
  8
SUNPOU
100
AcDbBlockReference
  2
_OPEN30
 10
238.5
 20
430.5598215492766
 30
0.0
 41
5.0
 42
5.0
 43
5.0
 50
180.0
  0
INSERT
  5
1E0A
330
998
100
AcDbEntity
  8
SUNPOU
100
AcDbBlockReference
  2
_OPEN30
 10
288.5
 20
430.5598215492766
 30
0.0
 41
5.0
 42
5.0
 43
5.0
  0
POINT
  5
1E0B
330
998
100
AcDbEntity
  8
DEFPOINTS
 62
     0
100
AcDbPoint
 10
238.5
 20
409.0
 30
0.0
  0
POINT
  5
1E0C
330
998
100
AcDbEntity
  8
DEFPOINTS
 62
     0
100
AcDbPoint
 10
288.5
 20
409.0
 30
0.0
  0
POINT
  5
1E0D
330
998
100
AcDbEntity
  8
DEFPOINTS
 62
     0
100
AcDbPoint
 10
288.5
 20
430.5598215492766
 30
0.0
  0
ENDBLK
  5
9A2
330
998
100
AcDbEntity
  8
0
100
AcDbBlockEnd
  0
BLOCK
  5
9AC
330
9A4
100
AcDbEntity
  8
0
100
AcDbBlockBegin
  2
*D19
 70
     1
 10
0.0
 20
0.0
 30
0.0
  3
*D19
  1

  0
LINE
  5
151C
330
9A4
100
AcDbEntity
  8
SUNPOU
100
AcDbLine
 10
288.5
 20
412.0
 30
0.0
 11
288.5
 21
432.5598215492767
 31
0.0
  0
LINE
  5
151D
330
9A4
100
AcDbEntity
  8
SUNPOU
100
AcDbLine
 10
313.5
 20
410.5
 30
0.0
 11
313.5
 21
432.5598215492767
 31
0.0
  0
LINE
  5
151E
330
9A4
100
AcDbEntity
  8
SUNPOU
100
AcDbLine
 10
293.5
 20
430.5598215492763
 30
0.0
 11
308.4999999999999
 21
430.5598215492763
 31
0.0
  0
MTEXT
  5
151F
330
9A4
100
AcDbEntity
  8
SUNPOU
100
AcDbMText
 10
301.0
 20
425.9629756185607
 30
0.0
 40
5.0
 41
0.0
 71
     5
 72
     1
  1
\A1;25
  7
SUNPOU
 11
-1.0
 21
0.0000000000000001
 31
0.0
1001
ACAD
1000
MTEXTBEGIN
1070
    73
1070
     1
1070
    44
1040
1.0
1070
    74
1070
     0
1000
MTEXTEND
1000
MTEXTBEGIN
1070
    73
1070
     1
1070
    44
1040
1.0
1070
    74
1070
     0
1000
MTEXTEND
  0
INSERT
  5
1520
330
9A4
100
AcDbEntity
  8
SUNPOU
100
AcDbBlockReference
  2
_OPEN30
 10
288.5
 20
430.5598215492763
 30
0.0
 41
5.0
 42
5.0
 43
5.0
 50
180.0
  0
INSERT
  5
1521
330
9A4
100
AcDbEntity
  8
SUNPOU
100
AcDbBlockReference
  2
_OPEN30
 10
313.5
 20
430.5598215492763
 30
0.0
 41
5.0
 42
5.0
 43
5.0
  0
POINT
  5
1522
330
9A4
100
AcDbEntity
  8
DEFPOINTS
 62
     0
100
AcDbPoint
 10
288.5
 20
409.0
 30
0.0
  0
POINT
  5
1523
330
9A4
100
AcDbEntity
  8
DEFPOINTS
 62
     0
100
AcDbPoint
 10
313.5
 20
407.5000000000001
 30
0.0
  0
POINT
  5
1524
330
9A4
100
AcDbEntity
  8
DEFPOINTS
 62
     0
100
AcDbPoint
 10
313.5
 20
430.5598215492763
 30
0.0
  0
ENDBLK
  5
9AD
330
9A4
100
AcDbEntity
  8
0
100
AcDbBlockEnd
  0
BLOCK
  5
9B9
330
9AF
100
AcDbEntity
  8
0
100
AcDbBlockBegin
  2
*D20
 70
     1
 10
0.0
 20
0.0
 30
0.0
  3
*D20
  1

  0
LINE
  5
1525
330
9AF
100
AcDbEntity
  8
SUNPOU
100
AcDbLine
 10
313.5
 20
410.5
 30
0.0
 11
313.5
 21
432.5598215492767
 31
0.0
  0
LINE
  5
1526
330
9AF
100
AcDbEntity
  8
SUNPOU
100
AcDbLine
 10
318.4999999999998
 20
387.0
 30
0.0
 11
318.4999999999998
 21
432.5598215492767
 31
0.0
  0
LINE
  5
1527
330
9AF
100
AcDbEntity
  8
SUNPOU
100
AcDbLine
 10
308.4999999999999
 20
430.5598215492763
 30
0.0
 11
303.5
 21
430.5598215492763
 31
0.0
  0
LINE
  5
1528
330
9AF
100
AcDbEntity
  8
SUNPOU
100
AcDbLine
 10
323.4999999999998
 20
430.5598215492763
 30
0.0
 11
328.4999999999998
 21
430.5598215492763
 31
0.0
  0
MTEXT
  5
1529
330
9AF
100
AcDbEntity
  8
SUNPOU
100
AcDbMText
 10
316.0
 20
435.1269030852324
 30
0.0
 40
5.0
 41
0.0
 71
     5
 72
     1
  1
\A1;5
  7
SUNPOU
 11
-1.0
 21
0.0000000000000001
 31
0.0
1001
ACAD
1000
MTEXTBEGIN
1070
    73
1070
     1
1070
    44
1040
1.0
1070
    74
1070
     0
1000
MTEXTEND
1000
MTEXTBEGIN
1070
    73
1070
     1
1070
    44
1040
1.0
1070
    74
1070
     0
1000
MTEXTEND
  0
LINE
  5
152A
330
9AF
100
AcDbEntity
  8
SUNPOU
100
AcDbLine
 10
313.5
 20
430.5598215492763
 30
0.0
 11
318.4999999999998
 21
430.5598215492763
 31
0.0
  0
INSERT
  5
152B
330
9AF
100
AcDbEntity
  8
SUNPOU
100
AcDbBlockReference
  2
_OPEN30
 10
313.5
 20
430.5598215492763
 30
0.0
 41
5.0
 42
5.0
 43
5.0
  0
INSERT
  5
152C
330
9AF
100
AcDbEntity
  8
SUNPOU
100
AcDbBlockReference
  2
_OPEN30
 10
318.4999999999998
 20
430.5598215492763
 30
0.0
 41
5.0
 42
5.0
 43
5.0
 50
180.0
  0
POINT
  5
152D
330
9AF
100
AcDbEntity
  8
DEFPOINTS
 62
     0
100
AcDbPoint
 10
313.5
 20
407.5
 30
0.0
  0
POINT
  5
152E
330
9AF
100
AcDbEntity
  8
DEFPOINTS
 62
     0
100
AcDbPoint
 10
318.4999999999998
 20
384.0
 30
0.0
  0
POINT
  5
152F
330
9AF
100
AcDbEntity
  8
DEFPOINTS
 62
     0
100
AcDbPoint
 10
318.4999999999998
 20
430.5598215492763
 30
0.0
  0
ENDBLK
  5
9BA
330
9AF
100
AcDbEntity
  8
0
100
AcDbBlockEnd
  0
BLOCK
  5
9C4
330
9BC
100
AcDbEntity
  8
0
100
AcDbBlockBegin
  2
*D21
 70
     1
 10
0.0
 20
0.0
 30
0.0
  3
*D21
  1

  0
LINE
  5
1EE1
330
9BC
100
AcDbEntity
  8
SUNPOU
100
AcDbLine
 10
318.4999999999998
 20
387.0
 30
0.0
 11
318.4999999999998
 21
432.5598215492767
 31
0.0
  0
LINE
  5
1EE2
330
9BC
100
AcDbEntity
  8
SUNPOU
100
AcDbLine
 10
350.4999999999998
 20
387.0
 30
0.0
 11
350.4999999999998
 21
432.5598215492767
 31
0.0
  0
LINE
  5
1EE3
330
9BC
100
AcDbEntity
  8
SUNPOU
100
AcDbLine
 10
323.4999999999998
 20
430.5598215492766
 30
0.0
 11
345.4999999999998
 21
430.5598215492766
 31
0.0
  0
MTEXT
  5
1EE4
330
9BC
100
AcDbEntity
  8
SUNPOU
100
AcDbMText
 10
339.1551014587793
 20
425.9681633016216
 30
0.0
 40
5.0
 41
0.0
 71
     5
 72
     1
  1
\A1;32
  7
SUNPOU
 11
-1.0
 21
0.0000000000000001
 31
0.0
1001
ACAD
1000
MTEXTBEGIN
1070
    73
1070
     1
1070
    44
1040
1.0
1070
    74
1070
     0
1000
MTEXTEND
1000
MTEXTBEGIN
1070
    73
1070
     1
1070
    44
1040
1.0
1070
    74
1070
     0
1000
MTEXTEND
  0
INSERT
  5
1EE5
330
9BC
100
AcDbEntity
  8
SUNPOU
100
AcDbBlockReference
  2
_OPEN30
 10
318.4999999999998
 20
430.5598215492766
 30
0.0
 41
5.0
 42
5.0
 43
5.0
 50
180.0
  0
INSERT
  5
1EE6
330
9BC
100
AcDbEntity
  8
SUNPOU
100
AcDbBlockReference
  2
_OPEN30
 10
350.4999999999998
 20
430.5598215492766
 30
0.0
 41
5.0
 42
5.0
 43
5.0
  0
POINT
  5
1EE7
330
9BC
100
AcDbEntity
  8
DEFPOINTS
 62
     0
100
AcDbPoint
 10
318.4999999999998
 20
384.0
 30
0.0
  0
POINT
  5
1EE8
330
9BC
100
AcDbEntity
  8
DEFPOINTS
 62
     0
100
AcDbPoint
 10
350.4999999999998
 20
384.0
 30
0.0
  0
POINT
  5
1EE9
330
9BC
100
AcDbEntity
  8
DEFPOINTS
 62
     0
100
AcDbPoint
 10
350.4999999999998
 20
430.5598215492766
 30
0.0
  0
ENDBLK
  5
9C5
330
9BC
100
AcDbEntity
  8
0
100
AcDbBlockEnd
  0
BLOCK
  5
DB5
330
DA9
100
AcDbEntity
  8
0
100
AcDbBlockBegin
  2
*D22
 70
     1
 10
0.0
 20
0.0
 30
0.0
  3
*D22
  1

  0
LINE
  5
20C2
330
DA9
100
AcDbEntity
  8
SUNPOU
100
AcDbLine
 10
107.1401778714474
 20
361.1329755063767
 30
0.0
 11
116.1996924428823
 21
361.1329755063767
 31
0.0
  0
LINE
  5
20C3
330
DA9
100
AcDbEntity
  8
SUNPOU
100
AcDbLine
 10
112.1401778714474
 20
363.6329755063767
 30
0.0
 11
116.1996924428823
 21
363.6329755063767
 31
0.0
  0
LINE
  5
20C4
330
DA9
100
AcDbEntity
  8
SUNPOU
100
AcDbLine
 10
115.1996924428823
 20
361.1329755063767
 30
0.0
 11
115.1996924428823
 21
357.1329755063767
 31
0.0
  0
LINE
  5
20C5
330
DA9
100
AcDbEntity
  8
SUNPOU
100
AcDbLine
 10
115.1996924428823
 20
363.6329755063767
 30
0.0
 11
115.1996924428823
 21
367.6329755063767
 31
0.0
  0
MTEXT
  5
20C6
330
DA9
100
AcDbEntity
  8
SUNPOU
100
AcDbMText
 10
111.2145083532379
 20
357.7230533495224
 30
0.0
 40
4.0
 41
0.0
 71
     5
 72
     1
  1
\A1;50
  7
SUNPOU
 11
0.0000000000000001
 21
1.0
 31
0.0
1001
ACAD
1000
MTEXTBEGIN
1070
    73
1070
     1
1070
    44
1040
1.0
1070
    74
1070
     0
1000
MTEXTEND
1000
MTEXTBEGIN
1070
    73
1070
     1
1070
    44
1040
1.0
1070
    74
1070
     0
1000
MTEXTEND
  0
LINE
  5
20C7
330
DA9
100
AcDbEntity
  8
SUNPOU
100
AcDbLine
 10
115.1996924428823
 20
361.1329755063767
 30
0.0
 11
115.1996924428823
 21
363.6329755063767
 31
0.0
  0
INSERT
  5
20C8
330
DA9
100
AcDbEntity
  8
SUNPOU
100
AcDbBlockReference
  2
_DOTSMALL
 10
115.1996924428823
 20
361.1329755063767
 30
0.0
 41
4.0
 42
4.0
 43
4.0
 50
90.0
  0
INSERT
  5
20C9
330
DA9
100
AcDbEntity
  8
SUNPOU
100
AcDbBlockReference
  2
_DOTSMALL
 10
115.1996924428823
 20
363.6329755063767
 30
0.0
 41
4.0
 42
4.0
 43
4.0
 50
270.0
  0
POINT
  5
20CA
330
DA9
100
AcDbEntity
  8
DEFPOINTS
 62
     0
100
AcDbPoint
 10
106.1401778714474
 20
361.1329755063767
 30
0.0
  0
POINT
  5
20CB
330
DA9
100
AcDbEntity
  8
DEFPOINTS
 62
     0
100
AcDbPoint
 10
111.1401778714474
 20
363.6329755063767
 30
0.0
  0
POINT
  5
20CC
330
DA9
100
AcDbEntity
  8
DEFPOINTS
 62
     0
100
AcDbPoint
 10
115.1996924428823
 20
363.6329755063767
 30
0.0
  0
ENDBLK
  5
DB6
330
DA9
100
AcDbEntity
  8
0
100
AcDbBlockEnd
  0
BLOCK
  5
DC4
330
DB8
100
AcDbEntity
  8
0
100
AcDbBlockBegin
  2
*D23
 70
     1
 10
0.0
 20
0.0
 30
0.0
  3
*D23
  1

  0
LINE
  5
20B9
330
DB8
100
AcDbEntity
  8
SUNPOU
100
AcDbLine
 10
112.1401778714474
 20
363.6329755063767
 30
0.0
 11
116.1996924428823
 21
363.6329755063767
 31
0.0
  0
LINE
  5
20BA
330
DB8
100
AcDbEntity
  8
SUNPOU
100
AcDbLine
 10
112.1401778714474
 20
368.8829755063768
 30
0.0
 11
116.1996924428823
 21
368.8829755063768
 31
0.0
  0
LINE
  5
20BB
330
DB8
100
AcDbEntity
  8
SUNPOU
100
AcDbLine
 10
115.1996924428823
 20
363.6329755063767
 30
0.0
 11
115.1996924428823
 21
368.8829755063768
 31
0.0
  0
MTEXT
  5
20BC
330
DB8
100
AcDbEntity
  8
SUNPOU
100
AcDbMText
 10
119.2531663319547
 20
366.2579755063767
 30
0.0
 40
4.0
 41
0.0
 71
     5
 72
     1
  1
\A1;105
  7
SUNPOU
 11
0.0000000000000001
 21
1.0
 31
0.0
1001
ACAD
1000
MTEXTBEGIN
1070
    73
1070
     1
1070
    44
1040
1.0
1070
    74
1070
     0
1000
MTEXTEND
1000
MTEXTBEGIN
1070
    73
1070
     1
1070
    44
1040
1.0
1070
    74
1070
     0
1000
MTEXTEND
  0
INSERT
  5
20BD
330
DB8
100
AcDbEntity
  8
SUNPOU
100
AcDbBlockReference
  2
_DOTSMALL
 10
115.1996924428823
 20
363.6329755063767
 30
0.0
 41
4.0
 42
4.0
 43
4.0
 50
270.0
  0
INSERT
  5
20BE
330
DB8
100
AcDbEntity
  8
SUNPOU
100
AcDbBlockReference
  2
_DOTSMALL
 10
115.1996924428823
 20
368.8829755063768
 30
0.0
 41
4.0
 42
4.0
 43
4.0
 50
90.0
  0
POINT
  5
20BF
330
DB8
100
AcDbEntity
  8
DEFPOINTS
 62
     0
100
AcDbPoint
 10
111.1401778714474
 20
363.6329755063767
 30
0.0
  0
POINT
  5
20C0
330
DB8
100
AcDbEntity
  8
DEFPOINTS
 62
     0
100
AcDbPoint
 10
111.1401778714474
 20
368.8829755063768
 30
0.0
  0
POINT
  5
20C1
330
DB8
100
AcDbEntity
  8
DEFPOINTS
 62
     0
100
AcDbPoint
 10
115.1996924428823
 20
368.8829755063768
 30
0.0
  0
ENDBLK
  5
DC5
330
DB8
100
AcDbEntity
  8
0
100
AcDbBlockEnd
  0
BLOCK
  5
DD1
330
DC7
100
AcDbEntity
  8
0
100
AcDbBlockBegin
  2
*D24
 70
     1
 10
0.0
 20
0.0
 30
0.0
  3
*D24
  1

  0
LINE
  5
20B0
330
DC7
100
AcDbEntity
  8
SUNPOU
100
AcDbLine
 10
112.1401778714474
 20
380.8829755063768
 30
0.0
 11
116.1996924428823
 21
380.8829755063768
 31
0.0
  0
LINE
  5
20B1
330
DC7
100
AcDbEntity
  8
SUNPOU
100
AcDbLine
 10
112.1401778714474
 20
394.8829755063767
 30
0.0
 11
116.1996924428823
 21
394.8829755063767
 31
0.0
  0
LINE
  5
20B2
330
DC7
100
AcDbEntity
  8
SUNPOU
100
AcDbLine
 10
115.1996924428823
 20
380.8829755063768
 30
0.0
 11
115.1996924428823
 21
394.8829755063767
 31
0.0
  0
INSERT
  5
20B3
330
DC7
100
AcDbEntity
  8
SUNPOU
100
AcDbBlockReference
  2
_DOTSMALL
 10
115.1996924428823
 20
380.8829755063768
 30
0.0
 41
4.0
 42
4.0
 43
4.0
 50
270.0
  0
INSERT
  5
20B4
330
DC7
100
AcDbEntity
  8
SUNPOU
100
AcDbBlockReference
  2
_DOTSMALL
 10
115.1996924428823
 20
394.8829755063767
 30
0.0
 41
4.0
 42
4.0
 43
4.0
 50
90.0
  0
MTEXT
  5
20B5
330
DC7
100
AcDbEntity
  8
SUNPOU
100
AcDbMText
 10
111.1996924428821
 20
387.8829755063767
 30
0.0
 40
4.0
 41
0.0
 71
     5
 72
     1
  1
\A1;〃
  7
SUNPOU
 11
0.0000000000000001
 21
1.0
 31
0.0
1001
ACAD
1000
MTEXTBEGIN
1070
    73
1070
     1
1070
    44
1040
1.0
1070
    74
1070
     0
1000
MTEXTEND
1000
MTEXTBEGIN
1070
    73
1070
     1
1070
    44
1040
1.0
1070
    74
1070
     0
1000
MTEXTEND
  0
POINT
  5
20B6
330
DC7
100
AcDbEntity
  8
DEFPOINTS
 62
     0
100
AcDbPoint
 10
111.1401778714474
 20
380.8829755063768
 30
0.0
  0
POINT
  5
20B7
330
DC7
100
AcDbEntity
  8
DEFPOINTS
 62
     0
100
AcDbPoint
 10
111.1401778714474
 20
394.8829755063767
 30
0.0
  0
POINT
  5
20B8
330
DC7
100
AcDbEntity
  8
DEFPOINTS
 62
     0
100
AcDbPoint
 10
115.1996924428823
 20
394.8829755063767
 30
0.0
  0
ENDBLK
  5
DD2
330
DC7
100
AcDbEntity
  8
0
100
AcDbBlockEnd
  0
BLOCK
  5
DDD
330
DD4
100
AcDbEntity
  8
0
100
AcDbBlockBegin
  2
*D25
 70
     1
 10
0.0
 20
0.0
 30
0.0
  3
*D25
  1

  0
LINE
  5
2110
330
DD4
100
AcDbEntity
  8
SUNPOU
100
AcDbLine
 10
112.1401778714474
 20
394.8829755063767
 30
0.0
 11
116.1996924428823
 21
394.8829755063767
 31
0.0
  0
LINE
  5
2111
330
DD4
100
AcDbEntity
  8
SUNPOU
100
AcDbLine
 10
113.1401778714474
 20
408.8829755063768
 30
0.0
 11
116.1996924428823
 21
408.8829755063768
 31
0.0
  0
LINE
  5
2112
330
DD4
100
AcDbEntity
  8
SUNPOU
100
AcDbLine
 10
115.1996924428823
 20
394.8829755063767
 30
0.0
 11
115.1996924428823
 21
408.8829755063768
 31
0.0
  0
INSERT
  5
2113
330
DD4
100
AcDbEntity
  8
SUNPOU
100
AcDbBlockReference
  2
_DOTSMALL
 10
115.1996924428823
 20
394.8829755063767
 30
0.0
 41
4.0
 42
4.0
 43
4.0
 50
270.0
  0
INSERT
  5
2114
330
DD4
100
AcDbEntity
  8
SUNPOU
100
AcDbBlockReference
  2
_DOTSMALL
 10
115.1996924428823
 20
408.8829755063768
 30
0.0
 41
4.0
 42
4.0
 43
4.0
 50
90.0
  0
MTEXT
  5
2115
330
DD4
100
AcDbEntity
  8
SUNPOU
100
AcDbMText
 10
111.1996924428821
 20
401.8829755063768
 30
0.0
 40
4.0
 41
0.0
 71
     5
 72
     1
  1
\A1;〃
  7
SUNPOU
 11
0.0000000000000001
 21
1.0
 31
0.0
1001
ACAD
1000
MTEXTBEGIN
1070
    73
1070
     1
1070
    44
1040
1.0
1070
    74
1070
     0
1000
MTEXTEND
1000
MTEXTBEGIN
1070
    73
1070
     1
1070
    44
1040
1.0
1070
    74
1070
     0
1000
MTEXTEND
  0
POINT
  5
2116
330
DD4
100
AcDbEntity
  8
DEFPOINTS
 62
     0
100
AcDbPoint
 10
111.1401778714474
 20
394.8829755063767
 30
0.0
  0
POINT
  5
2117
330
DD4
100
AcDbEntity
  8
DEFPOINTS
 62
     0
100
AcDbPoint
 10
112.1401778714474
 20
408.8829755063768
 30
0.0
  0
POINT
  5
2118
330
DD4
100
AcDbEntity
  8
DEFPOINTS
 62
     0
100
AcDbPoint
 10
115.1996924428823
 20
408.8829755063768
 30
0.0
  0
ENDBLK
  5
DDE
330
DD4
100
AcDbEntity
  8
0
100
AcDbBlockEnd
  0
BLOCK
  5
DE8
330
DE0
100
AcDbEntity
  8
0
100
AcDbBlockBegin
  2
*D26
 70
     1
 10
0.0
 20
0.0
 30
0.0
  3
*D26
  1

  0
LINE
  5
2107
330
DE0
100
AcDbEntity
  8
SUNPOU
100
AcDbLine
 10
112.1401778714474
 20
408.8829755063768
 30
0.0
 11
116.1996924428823
 21
408.8829755063768
 31
0.0
  0
LINE
  5
2108
330
DE0
100
AcDbEntity
  8
SUNPOU
100
AcDbLine
 10
113.1401778714474
 20
422.8829755063769
 30
0.0
 11
116.1996924428823
 21
422.8829755063769
 31
0.0
  0
LINE
  5
2109
330
DE0
100
AcDbEntity
  8
SUNPOU
100
AcDbLine
 10
115.1996924428823
 20
408.8829755063768
 30
0.0
 11
115.1996924428823
 21
422.8829755063769
 31
0.0
  0
INSERT
  5
210A
330
DE0
100
AcDbEntity
  8
SUNPOU
100
AcDbBlockReference
  2
_DOTSMALL
 10
115.1996924428823
 20
408.8829755063768
 30
0.0
 41
4.0
 42
4.0
 43
4.0
 50
270.0
  0
INSERT
  5
210B
330
DE0
100
AcDbEntity
  8
SUNPOU
100
AcDbBlockReference
  2
_DOTSMALL
 10
115.1996924428823
 20
422.8829755063769
 30
0.0
 41
4.0
 42
4.0
 43
4.0
 50
90.0
  0
MTEXT
  5
210C
330
DE0
100
AcDbEntity
  8
SUNPOU
100
AcDbMText
 10
111.1996924428821
 20
415.8829755063767
 30
0.0
 40
4.0
 41
0.0
 71
     5
 72
     1
  1
\A1;〃
  7
SUNPOU
 11
0.0000000000000001
 21
1.0
 31
0.0
1001
ACAD
1000
MTEXTBEGIN
1070
    73
1070
     1
1070
    44
1040
1.0
1070
    74
1070
     0
1000
MTEXTEND
1000
MTEXTBEGIN
1070
    73
1070
     1
1070
    44
1040
1.0
1070
    74
1070
     0
1000
MTEXTEND
  0
POINT
  5
210D
330
DE0
100
AcDbEntity
  8
DEFPOINTS
 62
     0
100
AcDbPoint
 10
111.1401778714474
 20
408.8829755063768
 30
0.0
  0
POINT
  5
210E
330
DE0
100
AcDbEntity
  8
DEFPOINTS
 62
     0
100
AcDbPoint
 10
112.1401778714474
 20
422.8829755063769
 30
0.0
  0
POINT
  5
210F
330
DE0
100
AcDbEntity
  8
DEFPOINTS
 62
     0
100
AcDbPoint
 10
115.1996924428823
 20
422.8829755063769
 30
0.0
  0
ENDBLK
  5
DE9
330
DE0
100
AcDbEntity
  8
0
100
AcDbBlockEnd
  0
BLOCK
  5
DF3
330
DEB
100
AcDbEntity
  8
0
100
AcDbBlockBegin
  2
*D27
 70
     1
 10
0.0
 20
0.0
 30
0.0
  3
*D27
  1

  0
LINE
  5
20FE
330
DEB
100
AcDbEntity
  8
SUNPOU
100
AcDbLine
 10
112.1401778714474
 20
422.8829755063769
 30
0.0
 11
116.1996924428823
 21
422.8829755063769
 31
0.0
  0
LINE
  5
20FF
330
DEB
100
AcDbEntity
  8
SUNPOU
100
AcDbLine
 10
112.1401778714474
 20
436.8829755063767
 30
0.0
 11
116.1996924428823
 21
436.8829755063767
 31
0.0
  0
LINE
  5
2100
330
DEB
100
AcDbEntity
  8
SUNPOU
100
AcDbLine
 10
115.1996924428823
 20
422.8829755063769
 30
0.0
 11
115.1996924428823
 21
436.8829755063767
 31
0.0
  0
INSERT
  5
2101
330
DEB
100
AcDbEntity
  8
SUNPOU
100
AcDbBlockReference
  2
_DOTSMALL
 10
115.1996924428823
 20
422.8829755063769
 30
0.0
 41
4.0
 42
4.0
 43
4.0
 50
270.0
  0
INSERT
  5
2102
330
DEB
100
AcDbEntity
  8
SUNPOU
100
AcDbBlockReference
  2
_DOTSMALL
 10
115.1996924428823
 20
436.8829755063767
 30
0.0
 41
4.0
 42
4.0
 43
4.0
 50
90.0
  0
MTEXT
  5
2103
330
DEB
100
AcDbEntity
  8
SUNPOU
100
AcDbMText
 10
111.1996924428821
 20
429.8829755063768
 30
0.0
 40
4.0
 41
0.0
 71
     5
 72
     1
  1
\A1;280
  7
SUNPOU
 11
0.0000000000000001
 21
1.0
 31
0.0
1001
ACAD
1000
MTEXTBEGIN
1070
    73
1070
     1
1070
    44
1040
1.0
1070
    74
1070
     0
1000
MTEXTEND
1000
MTEXTBEGIN
1070
    73
1070
     1
1070
    44
1040
1.0
1070
    74
1070
     0
1000
MTEXTEND
  0
POINT
  5
2104
330
DEB
100
AcDbEntity
  8
DEFPOINTS
 62
     0
100
AcDbPoint
 10
111.1401778714474
 20
422.8829755063769
 30
0.0
  0
POINT
  5
2105
330
DEB
100
AcDbEntity
  8
DEFPOINTS
 62
     0
100
AcDbPoint
 10
111.1401778714474
 20
436.8829755063767
 30
0.0
  0
POINT
  5
2106
330
DEB
100
AcDbEntity
  8
DEFPOINTS
 62
     0
100
AcDbPoint
 10
115.1996924428823
 20
436.8829755063767
 30
0.0
  0
ENDBLK
  5
DF4
330
DEB
100
AcDbEntity
  8
0
100
AcDbBlockEnd
  0
BLOCK
  5
E00
330
DF6
100
AcDbEntity
  8
0
100
AcDbBlockBegin
  2
*D28
 70
     1
 10
0.0
 20
0.0
 30
0.0
  3
*D28
  1

  0
LINE
  5
20F5
330
DF6
100
AcDbEntity
  8
SUNPOU
100
AcDbLine
 10
112.1401778714474
 20
436.8829755063767
 30
0.0
 11
116.1996924428823
 21
436.8829755063767
 31
0.0
  0
LINE
  5
20F6
330
DF6
100
AcDbEntity
  8
SUNPOU
100
AcDbLine
 10
112.1401778714474
 20
443.8829755063768
 30
0.0
 11
116.1996924428823
 21
443.8829755063768
 31
0.0
  0
LINE
  5
20F7
330
DF6
100
AcDbEntity
  8
SUNPOU
100
AcDbLine
 10
115.1996924428823
 20
436.8829755063767
 30
0.0
 11
115.1996924428823
 21
443.8829755063768
 31
0.0
  0
MTEXT
  5
20F8
330
DF6
100
AcDbEntity
  8
SUNPOU
100
AcDbMText
 10
119.255385099379
 20
440.3829755063767
 30
0.0
 40
4.0
 41
0.0
 71
     5
 72
     1
  1
\A1;140
  7
SUNPOU
 11
0.0000000000000001
 21
1.0
 31
0.0
1001
ACAD
1000
MTEXTBEGIN
1070
    73
1070
     1
1070
    44
1040
1.0
1070
    74
1070
     0
1000
MTEXTEND
1000
MTEXTBEGIN
1070
    73
1070
     1
1070
    44
1040
1.0
1070
    74
1070
     0
1000
MTEXTEND
  0
INSERT
  5
20F9
330
DF6
100
AcDbEntity
  8
SUNPOU
100
AcDbBlockReference
  2
_DOTSMALL
 10
115.1996924428823
 20
436.8829755063767
 30
0.0
 41
4.0
 42
4.0
 43
4.0
 50
270.0
  0
INSERT
  5
20FA
330
DF6
100
AcDbEntity
  8
SUNPOU
100
AcDbBlockReference
  2
_DOTSMALL
 10
115.1996924428823
 20
443.8829755063768
 30
0.0
 41
4.0
 42
4.0
 43
4.0
 50
90.0
  0
POINT
  5
20FB
330
DF6
100
AcDbEntity
  8
DEFPOINTS
 62
     0
100
AcDbPoint
 10
111.1401778714474
 20
436.8829755063767
 30
0.0
  0
POINT
  5
20FC
330
DF6
100
AcDbEntity
  8
DEFPOINTS
 62
     0
100
AcDbPoint
 10
111.1401778714474
 20
443.8829755063768
 30
0.0
  0
POINT
  5
20FD
330
DF6
100
AcDbEntity
  8
DEFPOINTS
 62
     0
100
AcDbPoint
 10
115.1996924428823
 20
443.8829755063768
 30
0.0
  0
ENDBLK
  5
E01
330
DF6
100
AcDbEntity
  8
0
100
AcDbBlockEnd
  0
BLOCK
  5
E0B
330
E03
100
AcDbEntity
  8
0
100
AcDbBlockBegin
  2
*D29
 70
     1
 10
0.0
 20
0.0
 30
0.0
  3
*D29
  1

  0
LINE
  5
20EC
330
E03
100
AcDbEntity
  8
SUNPOU
100
AcDbLine
 10
112.1401778714474
 20
443.8829755063768
 30
0.0
 11
116.1996924428823
 21
443.8829755063768
 31
0.0
  0
LINE
  5
20ED
330
E03
100
AcDbEntity
  8
SUNPOU
100
AcDbLine
 10
113.1401778714474
 20
457.8829755063767
 30
0.0
 11
116.1996924428823
 21
457.8829755063767
 31
0.0
  0
LINE
  5
20EE
330
E03
100
AcDbEntity
  8
SUNPOU
100
AcDbLine
 10
115.1996924428823
 20
443.8829755063768
 30
0.0
 11
115.1996924428823
 21
457.8829755063767
 31
0.0
  0
INSERT
  5
20EF
330
E03
100
AcDbEntity
  8
SUNPOU
100
AcDbBlockReference
  2
_DOTSMALL
 10
115.1996924428823
 20
443.8829755063768
 30
0.0
 41
4.0
 42
4.0
 43
4.0
 50
270.0
  0
INSERT
  5
20F0
330
E03
100
AcDbEntity
  8
SUNPOU
100
AcDbBlockReference
  2
_DOTSMALL
 10
115.1996924428823
 20
457.8829755063767
 30
0.0
 41
4.0
 42
4.0
 43
4.0
 50
90.0
  0
MTEXT
  5
20F1
330
E03
100
AcDbEntity
  8
SUNPOU
100
AcDbMText
 10
111.1996924428821
 20
450.8829755063768
 30
0.0
 40
4.0
 41
0.0
 71
     5
 72
     1
  1
\A1;280
  7
SUNPOU
 11
0.0000000000000001
 21
1.0
 31
0.0
1001
ACAD
1000
MTEXTBEGIN
1070
    73
1070
     1
1070
    44
1040
1.0
1070
    74
1070
     0
1000
MTEXTEND
1000
MTEXTBEGIN
1070
    73
1070
     1
1070
    44
1040
1.0
1070
    74
1070
     0
1000
MTEXTEND
  0
POINT
  5
20F2
330
E03
100
AcDbEntity
  8
DEFPOINTS
 62
     0
100
AcDbPoint
 10
111.1401778714474
 20
443.8829755063768
 30
0.0
  0
POINT
  5
20F3
330
E03
100
AcDbEntity
  8
DEFPOINTS
 62
     0
100
AcDbPoint
 10
112.1401778714474
 20
457.8829755063767
 30
0.0
  0
POINT
  5
20F4
330
E03
100
AcDbEntity
  8
DEFPOINTS
 62
     0
100
AcDbPoint
 10
115.1996924428823
 20
457.8829755063767
 30
0.0
  0
ENDBLK
  5
E0C
330
E03
100
AcDbEntity
  8
0
100
AcDbBlockEnd
  0
BLOCK
  5
E18
330
E0E
100
AcDbEntity
  8
0
100
AcDbBlockBegin
  2
*D30
 70
     1
 10
0.0
 20
0.0
 30
0.0
  3
*D30
  1

  0
LINE
  5
20E1
330
E0E
100
AcDbEntity
  8
SUNPOU
100
AcDbLine
 10
112.1401778714474
 20
457.8829755063767
 30
0.0
 11
116.1996924428823
 21
457.8829755063767
 31
0.0
  0
LINE
  5
20E2
330
E0E
100
AcDbEntity
  8
SUNPOU
100
AcDbLine
 10
115.1996924428823
 20
461.1329755063768
 30
0.0
 11
116.1996924428823
 21
461.1329755063768
 31
0.0
  0
LINE
  5
20E3
330
E0E
100
AcDbEntity
  8
SUNPOU
100
AcDbLine
 10
115.1996924428823
 20
457.8829755063767
 30
0.0
 11
115.1996924428823
 21
453.8829755063767
 31
0.0
  0
LINE
  5
20E4
330
E0E
100
AcDbEntity
  8
SUNPOU
100
AcDbLine
 10
115.1996924428823
 20
461.1329755063768
 30
0.0
 11
115.1996924428823
 21
465.1329755063768
 31
0.0
  0
MTEXT
  5
20E5
330
E0E
100
AcDbEntity
  8
SUNPOU
100
AcDbMText
 10
124.2265901865182
 20
458.3606604262143
 30
0.0
 40
4.0
 41
0.0
 71
     5
 72
     1
  1
\A1;65
  7
SUNPOU
 11
0.0000000000000001
 21
1.0
 31
0.0
1001
ACAD
1000
MTEXTBEGIN
1070
    73
1070
     1
1070
    44
1040
1.0
1070
    74
1070
     0
1000
MTEXTEND
1000
MTEXTBEGIN
1070
    73
1070
     1
1070
    44
1040
1.0
1070
    74
1070
     0
1000
MTEXTEND
  0
LINE
  5
20E6
330
E0E
100
AcDbEntity
  8
SUNPOU
100
AcDbLine
 10
115.1996924428823
 20
457.8829755063767
 30
0.0
 11
115.1996924428823
 21
461.1329755063768
 31
0.0
  0
INSERT
  5
20E7
330
E0E
100
AcDbEntity
  8
SUNPOU
100
AcDbBlockReference
  2
_DOTSMALL
 10
115.1996924428823
 20
457.8829755063767
 30
0.0
 41
4.0
 42
4.0
 43
4.0
 50
90.0
  0
INSERT
  5
20E8
330
E0E
100
AcDbEntity
  8
SUNPOU
100
AcDbBlockReference
  2
_DOTSMALL
 10
115.1996924428823
 20
461.1329755063768
 30
0.0
 41
4.0
 42
4.0
 43
4.0
 50
270.0
  0
POINT
  5
20E9
330
E0E
100
AcDbEntity
  8
DEFPOINTS
 62
     0
100
AcDbPoint
 10
111.1401778714474
 20
457.8829755063767
 30
0.0
  0
POINT
  5
20EA
330
E0E
100
AcDbEntity
  8
DEFPOINTS
 62
     0
100
AcDbPoint
 10
114.1996924428823
 20
461.1329755063768
 30
0.0
  0
POINT
  5
20EB
330
E0E
100
AcDbEntity
  8
DEFPOINTS
 62
     0
100
AcDbPoint
 10
115.1996924428823
 20
461.1329755063768
 30
0.0
  0
ENDBLK
  5
E19
330
E0E
100
AcDbEntity
  8
0
100
AcDbBlockEnd
  0
BLOCK
  5
E25
330
E1B
100
AcDbEntity
  8
0
100
AcDbBlockBegin
  2
*D31
 70
     1
 10
0.0
 20
0.0
 30
0.0
  3
*D31
  1

  0
LINE
  5
20D6
330
E1B
100
AcDbEntity
  8
SUNPOU
100
AcDbLine
 10
115.1996924428823
 20
461.1329755063768
 30
0.0
 11
116.1996924428823
 21
461.1329755063768
 31
0.0
  0
LINE
  5
20D7
330
E1B
100
AcDbEntity
  8
SUNPOU
100
AcDbLine
 10
112.1401778714474
 20
464.3829755063769
 30
0.0
 11
116.1996924428823
 21
464.3829755063769
 31
0.0
  0
LINE
  5
20D8
330
E1B
100
AcDbEntity
  8
SUNPOU
100
AcDbLine
 10
115.1996924428823
 20
461.1329755063768
 30
0.0
 11
115.1996924428823
 21
457.1329755063768
 31
0.0
  0
LINE
  5
20D9
330
E1B
100
AcDbEntity
  8
SUNPOU
100
AcDbLine
 10
115.1996924428823
 20
464.3829755063769
 30
0.0
 11
115.1996924428823
 21
468.3829755063768
 31
0.0
  0
MTEXT
  5
20DA
330
E1B
100
AcDbEntity
  8
SUNPOU
100
AcDbMText
 10
119.2265901865182
 20
463.7849821224057
 30
0.0
 40
4.0
 41
0.0
 71
     5
 72
     1
  1
\A1;65
  7
SUNPOU
 11
0.0000000000000001
 21
1.0
 31
0.0
1001
ACAD
1000
MTEXTBEGIN
1070
    73
1070
     1
1070
    44
1040
1.0
1070
    74
1070
     0
1000
MTEXTEND
1000
MTEXTBEGIN
1070
    73
1070
     1
1070
    44
1040
1.0
1070
    74
1070
     0
1000
MTEXTEND
  0
LINE
  5
20DB
330
E1B
100
AcDbEntity
  8
SUNPOU
100
AcDbLine
 10
115.1996924428823
 20
461.1329755063768
 30
0.0
 11
115.1996924428823
 21
464.3829755063769
 31
0.0
  0
INSERT
  5
20DC
330
E1B
100
AcDbEntity
  8
SUNPOU
100
AcDbBlockReference
  2
_DOTSMALL
 10
115.1996924428823
 20
461.1329755063768
 30
0.0
 41
4.0
 42
4.0
 43
4.0
 50
90.0
  0
INSERT
  5
20DD
330
E1B
100
AcDbEntity
  8
SUNPOU
100
AcDbBlockReference
  2
_DOTSMALL
 10
115.1996924428823
 20
464.3829755063769
 30
0.0
 41
4.0
 42
4.0
 43
4.0
 50
270.0
  0
POINT
  5
20DE
330
E1B
100
AcDbEntity
  8
DEFPOINTS
 62
     0
100
AcDbPoint
 10
114.1996924428823
 20
461.1329755063768
 30
0.0
  0
POINT
  5
20DF
330
E1B
100
AcDbEntity
  8
DEFPOINTS
 62
     0
100
AcDbPoint
 10
111.1401778714474
 20
464.3829755063769
 30
0.0
  0
POINT
  5
20E0
330
E1B
100
AcDbEntity
  8
DEFPOINTS
 62
     0
100
AcDbPoint
 10
115.1996924428823
 20
464.3829755063769
 30
0.0
  0
ENDBLK
  5
E26
330
E1B
100
AcDbEntity
  8
0
100
AcDbBlockEnd
  0
BLOCK
  5
E30
330
E28
100
AcDbEntity
  8
0
100
AcDbBlockBegin
  2
*D32
 70
     1
 10
0.0
 20
0.0
 30
0.0
  3
*D32
  1

  0
LINE
  5
20CD
330
E28
100
AcDbEntity
  8
SUNPOU
100
AcDbLine
 10
112.1401778714474
 20
464.3829755063769
 30
0.0
 11
116.1996924428823
 21
464.3829755063769
 31
0.0
  0
LINE
  5
20CE
330
E28
100
AcDbEntity
  8
SUNPOU
100
AcDbLine
 10
112.1401778714474
 20
478.3829755063767
 30
0.0
 11
116.1996924428823
 21
478.3829755063767
 31
0.0
  0
LINE
  5
20CF
330
E28
100
AcDbEntity
  8
SUNPOU
100
AcDbLine
 10
115.1996924428823
 20
464.3829755063769
 30
0.0
 11
115.1996924428823
 21
478.3829755063767
 31
0.0
  0
INSERT
  5
20D0
330
E28
100
AcDbEntity
  8
SUNPOU
100
AcDbBlockReference
  2
_DOTSMALL
 10
115.1996924428823
 20
464.3829755063769
 30
0.0
 41
4.0
 42
4.0
 43
4.0
 50
270.0
  0
INSERT
  5
20D1
330
E28
100
AcDbEntity
  8
SUNPOU
100
AcDbBlockReference
  2
_DOTSMALL
 10
115.1996924428823
 20
478.3829755063767
 30
0.0
 41
4.0
 42
4.0
 43
4.0
 50
90.0
  0
MTEXT
  5
20D2
330
E28
100
AcDbEntity
  8
SUNPOU
100
AcDbMText
 10
111.1996924428821
 20
471.3829755063768
 30
0.0
 40
4.0
 41
0.0
 71
     5
 72
     1
  1
\A1;280
  7
SUNPOU
 11
0.0000000000000001
 21
1.0
 31
0.0
1001
ACAD
1000
MTEXTBEGIN
1070
    73
1070
     1
1070
    44
1040
1.0
1070
    74
1070
     0
1000
MTEXTEND
1000
MTEXTBEGIN
1070
    73
1070
     1
1070
    44
1040
1.0
1070
    74
1070
     0
1000
MTEXTEND
  0
POINT
  5
20D3
330
E28
100
AcDbEntity
  8
DEFPOINTS
 62
     0
100
AcDbPoint
 10
111.1401778714474
 20
464.3829755063769
 30
0.0
  0
POINT
  5
20D4
330
E28
100
AcDbEntity
  8
DEFPOINTS
 62
     0
100
AcDbPoint
 10
111.1401778714474
 20
478.3829755063767
 30
0.0
  0
POINT
  5
20D5
330
E28
100
AcDbEntity
  8
DEFPOINTS
 62
     0
100
AcDbPoint
 10
115.1996924428823
 20
478.3829755063767
 30
0.0
  0
ENDBLK
  5
E31
330
E28
100
AcDbEntity
  8
0
100
AcDbBlockEnd
  0
BLOCK
  5
E4B
330
E41
100
AcDbEntity
  8
0
100
AcDbBlockBegin
  2
*D33
 70
     1
 10
0.0
 20
0.0
 30
0.0
  3
*D33
  1

  0
LINE
  5
20A7
330
E41
100
AcDbEntity
  8
SUNPOU
100
AcDbLine
 10
112.1401778714474
 20
478.3829755063767
 30
0.0
 11
116.1996924428823
 21
478.3829755063767
 31
0.0
  0
LINE
  5
20A8
330
E41
100
AcDbEntity
  8
SUNPOU
100
AcDbLine
 10
112.1401778714474
 20
485.3829755063769
 30
0.0
 11
116.1996924428823
 21
485.3829755063769
 31
0.0
  0
LINE
  5
20A9
330
E41
100
AcDbEntity
  8
SUNPOU
100
AcDbLine
 10
115.1996924428823
 20
478.3829755063767
 30
0.0
 11
115.1996924428823
 21
485.3829755063769
 31
0.0
  0
MTEXT
  5
20AA
330
E41
100
AcDbEntity
  8
SUNPOU
100
AcDbMText
 10
119.261963263241
 20
481.8829755063767
 30
0.0
 40
4.0
 41
0.0
 71
     5
 72
     1
  1
\A1;140
  7
SUNPOU
 11
0.0000000000000001
 21
1.0
 31
0.0
1001
ACAD
1000
MTEXTBEGIN
1070
    73
1070
     1
1070
    44
1040
1.0
1070
    74
1070
     0
1000
MTEXTEND
1000
MTEXTBEGIN
1070
    73
1070
     1
1070
    44
1040
1.0
1070
    74
1070
     0
1000
MTEXTEND
  0
INSERT
  5
20AB
330
E41
100
AcDbEntity
  8
SUNPOU
100
AcDbBlockReference
  2
_DOTSMALL
 10
115.1996924428823
 20
478.3829755063767
 30
0.0
 41
4.0
 42
4.0
 43
4.0
 50
270.0
  0
INSERT
  5
20AC
330
E41
100
AcDbEntity
  8
SUNPOU
100
AcDbBlockReference
  2
_DOTSMALL
 10
115.1996924428823
 20
485.3829755063769
 30
0.0
 41
4.0
 42
4.0
 43
4.0
 50
90.0
  0
POINT
  5
20AD
330
E41
100
AcDbEntity
  8
DEFPOINTS
 62
     0
100
AcDbPoint
 10
111.1401778714474
 20
478.3829755063767
 30
0.0
  0
POINT
  5
20AE
330
E41
100
AcDbEntity
  8
DEFPOINTS
 62
     0
100
AcDbPoint
 10
111.1401778714474
 20
485.3829755063769
 30
0.0
  0
POINT
  5
20AF
330
E41
100
AcDbEntity
  8
DEFPOINTS
 62
     0
100
AcDbPoint
 10
115.1996924428823
 20
485.3829755063769
 30
0.0
  0
ENDBLK
  5
E4C
330
E41
100
AcDbEntity
  8
0
100
AcDbBlockEnd
  0
BLOCK
  5
E56
330
E4E
100
AcDbEntity
  8
0
100
AcDbBlockBegin
  2
*D34
 70
     1
 10
0.0
 20
0.0
 30
0.0
  3
*D34
  1

  0
LINE
  5
2148
330
E4E
100
AcDbEntity
  8
SUNPOU
100
AcDbLine
 10
112.1401778714474
 20
485.3829755063769
 30
0.0
 11
116.1996924428823
 21
485.3829755063769
 31
0.0
  0
LINE
  5
2149
330
E4E
100
AcDbEntity
  8
SUNPOU
100
AcDbLine
 10
112.1401778714474
 20
499.3829755063767
 30
0.0
 11
116.1996924428823
 21
499.3829755063767
 31
0.0
  0
LINE
  5
214A
330
E4E
100
AcDbEntity
  8
SUNPOU
100
AcDbLine
 10
115.1996924428823
 20
485.3829755063769
 30
0.0
 11
115.1996924428823
 21
499.3829755063767
 31
0.0
  0
INSERT
  5
214B
330
E4E
100
AcDbEntity
  8
SUNPOU
100
AcDbBlockReference
  2
_DOTSMALL
 10
115.1996924428823
 20
485.3829755063769
 30
0.0
 41
4.0
 42
4.0
 43
4.0
 50
270.0
  0
INSERT
  5
214C
330
E4E
100
AcDbEntity
  8
SUNPOU
100
AcDbBlockReference
  2
_DOTSMALL
 10
115.1996924428823
 20
499.3829755063767
 30
0.0
 41
4.0
 42
4.0
 43
4.0
 50
90.0
  0
MTEXT
  5
214D
330
E4E
100
AcDbEntity
  8
SUNPOU
100
AcDbMText
 10
111.1996924428821
 20
492.3829755063768
 30
0.0
 40
4.0
 41
0.0
 71
     5
 72
     1
  1
\A1;280
  7
SUNPOU
 11
0.0000000000000001
 21
1.0
 31
0.0
1001
ACAD
1000
MTEXTBEGIN
1070
    73
1070
     1
1070
    44
1040
1.0
1070
    74
1070
     0
1000
MTEXTEND
1000
MTEXTBEGIN
1070
    73
1070
     1
1070
    44
1040
1.0
1070
    74
1070
     0
1000
MTEXTEND
  0
POINT
  5
214E
330
E4E
100
AcDbEntity
  8
DEFPOINTS
 62
     0
100
AcDbPoint
 10
111.1401778714474
 20
485.3829755063769
 30
0.0
  0
POINT
  5
214F
330
E4E
100
AcDbEntity
  8
DEFPOINTS
 62
     0
100
AcDbPoint
 10
111.1401778714474
 20
499.3829755063767
 30
0.0
  0
POINT
  5
2150
330
E4E
100
AcDbEntity
  8
DEFPOINTS
 62
     0
100
AcDbPoint
 10
115.1996924428823
 20
499.3829755063767
 30
0.0
  0
ENDBLK
  5
E57
330
E4E
100
AcDbEntity
  8
0
100
AcDbBlockEnd
  0
BLOCK
  5
E61
330
E59
100
AcDbEntity
  8
0
100
AcDbBlockBegin
  2
*D35
 70
     1
 10
0.0
 20
0.0
 30
0.0
  3
*D35
  1

  0
LINE
  5
213F
330
E59
100
AcDbEntity
  8
SUNPOU
100
AcDbLine
 10
112.1401778714474
 20
499.3829755063767
 30
0.0
 11
116.1996924428823
 21
499.3829755063767
 31
0.0
  0
LINE
  5
2140
330
E59
100
AcDbEntity
  8
SUNPOU
100
AcDbLine
 10
112.1401778714474
 20
513.3829755063768
 30
0.0
 11
116.1996924428823
 21
513.3829755063768
 31
0.0
  0
LINE
  5
2141
330
E59
100
AcDbEntity
  8
SUNPOU
100
AcDbLine
 10
115.1996924428823
 20
499.3829755063767
 30
0.0
 11
115.1996924428823
 21
513.3829755063768
 31
0.0
  0
INSERT
  5
2142
330
E59
100
AcDbEntity
  8
SUNPOU
100
AcDbBlockReference
  2
_DOTSMALL
 10
115.1996924428823
 20
499.3829755063767
 30
0.0
 41
4.0
 42
4.0
 43
4.0
 50
270.0
  0
INSERT
  5
2143
330
E59
100
AcDbEntity
  8
SUNPOU
100
AcDbBlockReference
  2
_DOTSMALL
 10
115.1996924428823
 20
513.3829755063768
 30
0.0
 41
4.0
 42
4.0
 43
4.0
 50
90.0
  0
MTEXT
  5
2144
330
E59
100
AcDbEntity
  8
SUNPOU
100
AcDbMText
 10
111.1996924428821
 20
506.3829755063768
 30
0.0
 40
4.0
 41
0.0
 71
     5
 72
     1
  1
\A1;〃
  7
SUNPOU
 11
0.0000000000000001
 21
1.0
 31
0.0
1001
ACAD
1000
MTEXTBEGIN
1070
    73
1070
     1
1070
    44
1040
1.0
1070
    74
1070
     0
1000
MTEXTEND
1000
MTEXTBEGIN
1070
    73
1070
     1
1070
    44
1040
1.0
1070
    74
1070
     0
1000
MTEXTEND
  0
POINT
  5
2145
330
E59
100
AcDbEntity
  8
DEFPOINTS
 62
     0
100
AcDbPoint
 10
111.1401778714474
 20
499.3829755063767
 30
0.0
  0
POINT
  5
2146
330
E59
100
AcDbEntity
  8
DEFPOINTS
 62
     0
100
AcDbPoint
 10
111.1401778714474
 20
513.3829755063768
 30
0.0
  0
POINT
  5
2147
330
E59
100
AcDbEntity
  8
DEFPOINTS
 62
     0
100
AcDbPoint
 10
115.1996924428823
 20
513.3829755063768
 30
0.0
  0
ENDBLK
  5
E62
330
E59
100
AcDbEntity
  8
0
100
AcDbBlockEnd
  0
BLOCK
  5
E6C
330
E64
100
AcDbEntity
  8
0
100
AcDbBlockBegin
  2
*D36
 70
     1
 10
0.0
 20
0.0
 30
0.0
  3
*D36
  1

  0
LINE
  5
2136
330
E64
100
AcDbEntity
  8
SUNPOU
100
AcDbLine
 10
112.1401778714474
 20
513.3829755063768
 30
0.0
 11
116.1996924428823
 21
513.3829755063768
 31
0.0
  0
LINE
  5
2137
330
E64
100
AcDbEntity
  8
SUNPOU
100
AcDbLine
 10
112.1401778714474
 20
527.3829755063768
 30
0.0
 11
116.1996924428823
 21
527.3829755063768
 31
0.0
  0
LINE
  5
2138
330
E64
100
AcDbEntity
  8
SUNPOU
100
AcDbLine
 10
115.1996924428823
 20
513.3829755063768
 30
0.0
 11
115.1996924428823
 21
527.3829755063768
 31
0.0
  0
INSERT
  5
2139
330
E64
100
AcDbEntity
  8
SUNPOU
100
AcDbBlockReference
  2
_DOTSMALL
 10
115.1996924428823
 20
513.3829755063768
 30
0.0
 41
4.0
 42
4.0
 43
4.0
 50
270.0
  0
INSERT
  5
213A
330
E64
100
AcDbEntity
  8
SUNPOU
100
AcDbBlockReference
  2
_DOTSMALL
 10
115.1996924428823
 20
527.3829755063768
 30
0.0
 41
4.0
 42
4.0
 43
4.0
 50
90.0
  0
MTEXT
  5
213B
330
E64
100
AcDbEntity
  8
SUNPOU
100
AcDbMText
 10
111.1996924428821
 20
520.3829755063768
 30
0.0
 40
4.0
 41
0.0
 71
     5
 72
     1
  1
\A1;〃
  7
SUNPOU
 11
0.0000000000000001
 21
1.0
 31
0.0
1001
ACAD
1000
MTEXTBEGIN
1070
    73
1070
     1
1070
    44
1040
1.0
1070
    74
1070
     0
1000
MTEXTEND
1000
MTEXTBEGIN
1070
    73
1070
     1
1070
    44
1040
1.0
1070
    74
1070
     0
1000
MTEXTEND
  0
POINT
  5
213C
330
E64
100
AcDbEntity
  8
DEFPOINTS
 62
     0
100
AcDbPoint
 10
111.1401778714474
 20
513.3829755063768
 30
0.0
  0
POINT
  5
213D
330
E64
100
AcDbEntity
  8
DEFPOINTS
 62
     0
100
AcDbPoint
 10
111.1401778714474
 20
527.3829755063768
 30
0.0
  0
POINT
  5
213E
330
E64
100
AcDbEntity
  8
DEFPOINTS
 62
     0
100
AcDbPoint
 10
115.1996924428823
 20
527.3829755063768
 30
0.0
  0
ENDBLK
  5
E6D
330
E64
100
AcDbEntity
  8
0
100
AcDbBlockEnd
  0
BLOCK
  5
E77
330
E6F
100
AcDbEntity
  8
0
100
AcDbBlockBegin
  2
*D37
 70
     1
 10
0.0
 20
0.0
 30
0.0
  3
*D37
  1

  0
LINE
  5
212D
330
E6F
100
AcDbEntity
  8
SUNPOU
100
AcDbLine
 10
112.1401778714474
 20
527.3829755063768
 30
0.0
 11
116.1996924428823
 21
527.3829755063768
 31
0.0
  0
LINE
  5
212E
330
E6F
100
AcDbEntity
  8
SUNPOU
100
AcDbLine
 10
112.1401778714474
 20
541.3829755063768
 30
0.0
 11
116.1996924428823
 21
541.3829755063768
 31
0.0
  0
LINE
  5
212F
330
E6F
100
AcDbEntity
  8
SUNPOU
100
AcDbLine
 10
115.1996924428823
 20
527.3829755063768
 30
0.0
 11
115.1996924428823
 21
541.3829755063768
 31
0.0
  0
INSERT
  5
2130
330
E6F
100
AcDbEntity
  8
SUNPOU
100
AcDbBlockReference
  2
_DOTSMALL
 10
115.1996924428823
 20
527.3829755063768
 30
0.0
 41
4.0
 42
4.0
 43
4.0
 50
270.0
  0
INSERT
  5
2131
330
E6F
100
AcDbEntity
  8
SUNPOU
100
AcDbBlockReference
  2
_DOTSMALL
 10
115.1996924428823
 20
541.3829755063768
 30
0.0
 41
4.0
 42
4.0
 43
4.0
 50
90.0
  0
MTEXT
  5
2132
330
E6F
100
AcDbEntity
  8
SUNPOU
100
AcDbMText
 10
111.1996924428821
 20
534.3829755063768
 30
0.0
 40
4.0
 41
0.0
 71
     5
 72
     1
  1
\A1;〃
  7
SUNPOU
 11
0.0000000000000001
 21
1.0
 31
0.0
1001
ACAD
1000
MTEXTBEGIN
1070
    73
1070
     1
1070
    44
1040
1.0
1070
    74
1070
     0
1000
MTEXTEND
1000
MTEXTBEGIN
1070
    73
1070
     1
1070
    44
1040
1.0
1070
    74
1070
     0
1000
MTEXTEND
  0
POINT
  5
2133
330
E6F
100
AcDbEntity
  8
DEFPOINTS
 62
     0
100
AcDbPoint
 10
111.1401778714474
 20
527.3829755063768
 30
0.0
  0
POINT
  5
2134
330
E6F
100
AcDbEntity
  8
DEFPOINTS
 62
     0
100
AcDbPoint
 10
111.1401778714474
 20
541.3829755063768
 30
0.0
  0
POINT
  5
2135
330
E6F
100
AcDbEntity
  8
DEFPOINTS
 62
     0
100
AcDbPoint
 10
115.1996924428823
 20
541.3829755063768
 30
0.0
  0
ENDBLK
  5
E78
330
E6F
100
AcDbEntity
  8
0
100
AcDbBlockEnd
  0
BLOCK
  5
E86
330
E7A
100
AcDbEntity
  8
0
100
AcDbBlockBegin
  2
*D38
 70
     1
 10
0.0
 20
0.0
 30
0.0
  3
*D38
  1

  0
LINE
  5
2124
330
E7A
100
AcDbEntity
  8
SUNPOU
100
AcDbLine
 10
112.1401778714474
 20
548.6329755063768
 30
0.0
 11
116.1996924428823
 21
548.6329755063768
 31
0.0
  0
LINE
  5
2125
330
E7A
100
AcDbEntity
  8
SUNPOU
100
AcDbLine
 10
112.1401778714474
 20
558.6329755063768
 30
0.0
 11
116.1996924428823
 21
558.6329755063768
 31
0.0
  0
LINE
  5
2126
330
E7A
100
AcDbEntity
  8
SUNPOU
100
AcDbLine
 10
115.1996924428823
 20
548.6329755063768
 30
0.0
 11
115.1996924428823
 21
558.6329755063768
 31
0.0
  0
MTEXT
  5
2127
330
E7A
100
AcDbEntity
  8
SUNPOU
100
AcDbMText
 10
119.1600435183449
 20
553.6329755063768
 30
0.0
 40
4.0
 41
0.0
 71
     5
 72
     1
  1
\A1;200
  7
SUNPOU
 11
0.0000000000000001
 21
1.0
 31
0.0
1001
ACAD
1000
MTEXTBEGIN
1070
    73
1070
     1
1070
    44
1040
1.0
1070
    74
1070
     0
1000
MTEXTEND
1000
MTEXTBEGIN
1070
    73
1070
     1
1070
    44
1040
1.0
1070
    74
1070
     0
1000
MTEXTEND
  0
INSERT
  5
2128
330
E7A
100
AcDbEntity
  8
SUNPOU
100
AcDbBlockReference
  2
_DOTSMALL
 10
115.1996924428823
 20
548.6329755063768
 30
0.0
 41
4.0
 42
4.0
 43
4.0
 50
270.0
  0
INSERT
  5
2129
330
E7A
100
AcDbEntity
  8
SUNPOU
100
AcDbBlockReference
  2
_DOTSMALL
 10
115.1996924428823
 20
558.6329755063768
 30
0.0
 41
4.0
 42
4.0
 43
4.0
 50
90.0
  0
POINT
  5
212A
330
E7A
100
AcDbEntity
  8
DEFPOINTS
 62
     0
100
AcDbPoint
 10
111.1401778714474
 20
548.6329755063768
 30
0.0
  0
POINT
  5
212B
330
E7A
100
AcDbEntity
  8
DEFPOINTS
 62
     0
100
AcDbPoint
 10
111.1401778714474
 20
558.6329755063768
 30
0.0
  0
POINT
  5
212C
330
E7A
100
AcDbEntity
  8
DEFPOINTS
 62
     0
100
AcDbPoint
 10
115.1996924428823
 20
558.6329755063768
 30
0.0
  0
ENDBLK
  5
E87
330
E7A
100
AcDbEntity
  8
0
100
AcDbBlockEnd
  0
BLOCK
  5
E94
330
E89
100
AcDbEntity
  8
0
100
AcDbBlockBegin
  2
*D39
 70
     1
 10
0.0
 20
0.0
 30
0.0
  3
*D39
  1

  0
LINE
  5
2119
330
E89
100
AcDbEntity
  8
SUNPOU
100
AcDbLine
 10
112.1401778714474
 20
558.6329755063768
 30
0.0
 11
116.2162814828989
 21
558.6329755063768
 31
0.0
  0
LINE
  5
211A
330
E89
100
AcDbEntity
  8
SUNPOU
100
AcDbLine
 10
107.1401778714474
 20
561.1329755063768
 30
0.0
 11
116.2162814828989
 21
561.1329755063768
 31
0.0
  0
LINE
  5
211B
330
E89
100
AcDbEntity
  8
SUNPOU
100
AcDbLine
 10
115.2162814828989
 20
558.6329755063768
 30
0.0
 11
115.2162814828989
 21
554.6329755063768
 31
0.0
  0
LINE
  5
211C
330
E89
100
AcDbEntity
  8
SUNPOU
100
AcDbLine
 10
115.2162814828989
 20
561.1329755063768
 30
0.0
 11
115.2162814828989
 21
565.1329755063767
 31
0.0
  0
MTEXT
  5
211D
330
E89
100
AcDbEntity
  8
SUNPOU
100
AcDbMText
 10
111.123195443276
 20
564.5069163250171
 30
0.0
 40
4.0
 41
0.0
 71
     5
 72
     1
  1
\A1;50
  7
SUNPOU
 11
0.0000000000000001
 21
1.0
 31
0.0
1001
ACAD
1000
MTEXTBEGIN
1070
    73
1070
     1
1070
    44
1040
1.0
1070
    74
1070
     0
1000
MTEXTEND
1000
MTEXTBEGIN
1070
    73
1070
     1
1070
    44
1040
1.0
1070
    74
1070
     0
1000
MTEXTEND
  0
LINE
  5
211E
330
E89
100
AcDbEntity
  8
SUNPOU
100
AcDbLine
 10
115.2162814828989
 20
558.6329755063768
 30
0.0
 11
115.2162814828989
 21
561.1329755063768
 31
0.0
  0
INSERT
  5
211F
330
E89
100
AcDbEntity
  8
SUNPOU
100
AcDbBlockReference
  2
_DOTSMALL
 10
115.2162814828989
 20
558.6329755063768
 30
0.0
 41
4.0
 42
4.0
 43
4.0
 50
90.0
  0
INSERT
  5
2120
330
E89
100
AcDbEntity
  8
SUNPOU
100
AcDbBlockReference
  2
_DOTSMALL
 10
115.2162814828989
 20
561.1329755063768
 30
0.0
 41
4.0
 42
4.0
 43
4.0
 50
270.0
  0
POINT
  5
2121
330
E89
100
AcDbEntity
  8
DEFPOINTS
 62
     0
100
AcDbPoint
 10
111.1401778714474
 20
558.6329755063768
 30
0.0
  0
POINT
  5
2122
330
E89
100
AcDbEntity
  8
DEFPOINTS
 62
     0
100
AcDbPoint
 10
106.1401778714474
 20
561.1329755063768
 30
0.0
  0
POINT
  5
2123
330
E89
100
AcDbEntity
  8
DEFPOINTS
 62
     0
100
AcDbPoint
 10
115.2162814828989
 20
561.1329755063768
 30
0.0
  0
ENDBLK
  5
E95
330
E89
100
AcDbEntity
  8
0
100
AcDbBlockEnd
  0
BLOCK
  5
E98
330
E96
100
AcDbEntity
  8
0
100
AcDbBlockBegin
  2
_DOTSMALL
 70
     0
 10
0.0
 20
0.0
 30
0.0
  3
_DOTSMALL
  1

  0
POLYLINE
  5
E97
330
E96
100
AcDbEntity
  8
0
  6
BYBLOCK
 62
     0
100
AcDb2dPolyline
 66
     1
 10
0.0
 20
0.0
 30
0.0
 70
     1
 40
0.5
 41
0.5
  0
VERTEX
  5
2594
330
E97
100
AcDbEntity
  8
0
  6
BYBLOCK
 62
     0
100
AcDbVertex
100
AcDb2dVertex
 10
-0.0625
 20
0.0
 30
0.0
 42
1.0
  0
VERTEX
  5
2595
330
E97
100
AcDbEntity
  8
0
  6
BYBLOCK
 62
     0
100
AcDbVertex
100
AcDb2dVertex
 10
0.0625
 20
0.0
 30
0.0
 42
1.0
  0
SEQEND
  5
2596
330
E97
100
AcDbEntity
  8
0
  6
BYBLOCK
 62
     0
  0
ENDBLK
  5
E99
330
E96
100
AcDbEntity
  8
0
100
AcDbBlockEnd
  0
BLOCK
  5
1AC1
330
1AB7
100
AcDbEntity
  8
0
100
AcDbBlockBegin
  2
*D41
 70
     1
 10
0.0
 20
0.0
 30
0.0
  3
*D41
  1

  0
LINE
  5
2062
330
1AB7
100
AcDbEntity
  8
SUNPOU
100
AcDbLine
 10
172.0000000000003
 20
109.0171837975285
 30
0.0
 11
184.4999999999995
 21
109.0171837975285
 31
0.0
  0
LINE
  5
2063
330
1AB7
100
AcDbEntity
  8
SUNPOU
100
AcDbLine
 10
171.9999999999995
 20
289.0171837975286
 30
0.0
 11
184.4999999999995
 21
289.0171837975286
 31
0.0
  0
LINE
  5
2064
330
1AB7
100
AcDbEntity
  8
SUNPOU
100
AcDbLine
 10
183.4999999999995
 20
113.0171837975285
 30
0.0
 11
183.4999999999998
 21
285.0171837975286
 31
0.0
  0
INSERT
  5
2065
330
1AB7
100
AcDbEntity
  8
SUNPOU
100
AcDbBlockReference
  2
_OPEN30
 10
183.4999999999995
 20
109.0171837975285
 30
0.0
 41
4.0
 42
4.0
 43
4.0
 50
270.0
  0
INSERT
  5
2066
330
1AB7
100
AcDbEntity
  8
SUNPOU
100
AcDbBlockReference
  2
_OPEN30
 10
183.4999999999998
 20
289.0171837975286
 30
0.0
 41
4.0
 42
4.0
 43
4.0
 50
90.0
  0
MTEXT
  5
2067
330
1AB7
100
AcDbEntity
  8
SUNPOU
100
AcDbMText
 10
179.4999999999995
 20
199.0171837975286
 30
0.0
 40
4.0
 41
0.0
 71
     5
 72
     1
  1
\A1;W
  7
SUNPOU
 11
0.0000000000000001
 21
1.0
 31
0.0
1001
ACAD
1000
MTEXTBEGIN
1070
    73
1070
     1
1070
    44
1040
1.0
1070
    74
1070
     0
1000
MTEXTEND
1000
MTEXTBEGIN
1070
    73
1070
     1
1070
    44
1040
1.0
1070
    74
1070
     0
1000
MTEXTEND
  0
POINT
  5
2068
330
1AB7
100
AcDbEntity
  8
DEFPOINTS
 62
     0
100
AcDbPoint
 10
171.0000000000003
 20
109.0171837975285
 30
0.0
  0
POINT
  5
2069
330
1AB7
100
AcDbEntity
  8
DEFPOINTS
 62
     0
100
AcDbPoint
 10
170.9999999999998
 20
289.0171837975286
 30
0.0
  0
POINT
  5
206A
330
1AB7
100
AcDbEntity
  8
DEFPOINTS
 62
     0
100
AcDbPoint
 10
183.4999999999998
 20
289.0171837975286
 30
0.0
  0
ENDBLK
  5
1AC2
330
1AB7
100
AcDbEntity
  8
0
100
AcDbBlockEnd
  0
BLOCK
  5
1ACD
330
1AC3
100
AcDbEntity
  8
0
100
AcDbBlockBegin
  2
*D42
 70
     1
 10
0.0
 20
0.0
 30
0.0
  3
*D42
  1

  0
LINE
  5
206B
330
1AC3
100
AcDbEntity
  8
SUNPOU
100
AcDbLine
 10
70.50000000000024
 20
153.5671837975286
 30
0.0
 11
70.50000000000024
 21
87.55323610301443
 31
0.0
  0
LINE
  5
206C
330
1AC3
100
AcDbEntity
  8
SUNPOU
100
AcDbLine
 10
170.5
 20
153.5671837975286
 30
0.0
 11
170.5
 21
87.55323610301443
 31
0.0
  0
LINE
  5
206D
330
1AC3
100
AcDbEntity
  8
SUNPOU
100
AcDbLine
 10
74.50000000000024
 20
88.55323610301439
 30
0.0
 11
166.5
 21
88.55323610301439
 31
0.0
  0
MTEXT
  5
206E
330
1AC3
100
AcDbEntity
  8
SUNPOU
100
AcDbMText
 10
120.5000000000002
 20
83.49333039073059
 30
0.0
 40
4.0
 41
0.0
 71
     5
 72
     1
  1
\A1;DH
  7
SUNPOU
 11
-1.0
 21
0.0000000000000001
 31
0.0
1001
ACAD
1000
MTEXTBEGIN
1070
    73
1070
     1
1070
    44
1040
1.0
1070
    74
1070
     0
1000
MTEXTEND
1000
MTEXTBEGIN
1070
    73
1070
     1
1070
    44
1040
1.0
1070
    74
1070
     0
1000
MTEXTEND
  0
INSERT
  5
206F
330
1AC3
100
AcDbEntity
  8
SUNPOU
100
AcDbBlockReference
  2
_OPEN30
 10
70.50000000000024
 20
88.55323610301439
 30
0.0
 41
4.0
 42
4.0
 43
4.0
 50
180.0
  0
INSERT
  5
2070
330
1AC3
100
AcDbEntity
  8
SUNPOU
100
AcDbBlockReference
  2
_OPEN30
 10
170.5
 20
88.55323610301439
 30
0.0
 41
4.0
 42
4.0
 43
4.0
  0
POINT
  5
2071
330
1AC3
100
AcDbEntity
  8
DEFPOINTS
 62
     0
100
AcDbPoint
 10
70.50000000000024
 20
154.5671837975286
 30
0.0
  0
POINT
  5
2072
330
1AC3
100
AcDbEntity
  8
DEFPOINTS
 62
     0
100
AcDbPoint
 10
170.5
 20
154.5671837975286
 30
0.0
  0
POINT
  5
2073
330
1AC3
100
AcDbEntity
  8
DEFPOINTS
 62
     0
100
AcDbPoint
 10
170.5
 20
88.55323610301439
 30
0.0
  0
ENDBLK
  5
1ACE
330
1AC3
100
AcDbEntity
  8
0
100
AcDbBlockEnd
  0
BLOCK
  5
1ADB
330
1ACF
100
AcDbEntity
  8
0
100
AcDbBlockBegin
  2
*D43
 70
     1
 10
0.0
 20
0.0
 30
0.0
  3
*D43
  1

  0
LINE
  5
2074
330
1ACF
100
AcDbEntity
  8
SUNPOU
100
AcDbLine
 10
70.50000000000024
 20
153.5671837975286
 30
0.0
 11
70.50000000000024
 21
98.91653431332896
 31
0.0
  0
LINE
  5
2075
330
1ACF
100
AcDbEntity
  8
SUNPOU
100
AcDbLine
 10
71.00000000000027
 20
106.0171837975283
 30
0.0
 11
71.00000000000027
 21
98.91653431332896
 31
0.0
  0
LINE
  5
2076
330
1ACF
100
AcDbEntity
  8
SUNPOU
100
AcDbLine
 10
66.50000000000026
 20
99.91653431332895
 30
0.0
 11
62.50000000000024
 21
99.91653431332895
 31
0.0
  0
LINE
  5
2077
330
1ACF
100
AcDbEntity
  8
SUNPOU
100
AcDbLine
 10
75.00000000000024
 20
99.91653431332895
 30
0.0
 11
79.00000000000027
 21
99.91653431332895
 31
0.0
  0
MTEXT
  5
2078
330
1ACF
100
AcDbEntity
  8
SUNPOU
100
AcDbMText
 10
79.32182229902853
 20
95.30826568826348
 30
0.0
 40
4.0
 41
0.0
 71
     5
 72
     1
  1
\A1;10
  7
SUNPOU
 11
-1.0
 21
0.0000000000000001
 31
0.0
1001
ACAD
1000
MTEXTBEGIN
1070
    73
1070
     1
1070
    44
1040
1.0
1070
    74
1070
     0
1000
MTEXTEND
1000
MTEXTBEGIN
1070
    73
1070
     1
1070
    44
1040
1.0
1070
    74
1070
     0
1000
MTEXTEND
  0
LINE
  5
2079
330
1ACF
100
AcDbEntity
  8
SUNPOU
100
AcDbLine
 10
70.50000000000024
 20
99.91653431332895
 30
0.0
 11
71.00000000000027
 21
99.91653431332895
 31
0.0
  0
INSERT
  5
207A
330
1ACF
100
AcDbEntity
  8
SUNPOU
100
AcDbBlockReference
  2
_OPEN30
 10
70.50000000000024
 20
99.91653431332895
 30
0.0
 41
4.0
 42
4.0
 43
4.0
  0
INSERT
  5
207B
330
1ACF
100
AcDbEntity
  8
SUNPOU
100
AcDbBlockReference
  2
_OPEN30
 10
71.00000000000027
 20
99.91653431332895
 30
0.0
 41
4.0
 42
4.0
 43
4.0
 50
180.0
  0
POINT
  5
207C
330
1ACF
100
AcDbEntity
  8
DEFPOINTS
 62
     0
100
AcDbPoint
 10
70.50000000000024
 20
154.5671837975286
 30
0.0
  0
POINT
  5
207D
330
1ACF
100
AcDbEntity
  8
DEFPOINTS
 62
     0
100
AcDbPoint
 10
71.00000000000027
 20
107.0171837975283
 30
0.0
  0
POINT
  5
207E
330
1ACF
100
AcDbEntity
  8
DEFPOINTS
 62
     0
100
AcDbPoint
 10
71.00000000000027
 20
99.91653431332895
 30
0.0
  0
ENDBLK
  5
1ADC
330
1ACF
100
AcDbEntity
  8
0
100
AcDbBlockEnd
  0
BLOCK
  5
1AE7
330
1ADD
100
AcDbEntity
  8
0
100
AcDbBlockBegin
  2
*D44
 70
     1
 10
0.0
 20
0.0
 30
0.0
  3
*D44
  1

  0
LINE
  5
207F
330
1ADD
100
AcDbEntity
  8
SUNPOU
100
AcDbLine
 10
71.00000000000027
 20
108.0171837975283
 30
0.0
 11
71.00000000000027
 21
76.33975577506331
 31
0.0
  0
LINE
  5
2080
330
1ADD
100
AcDbEntity
  8
SUNPOU
100
AcDbLine
 10
171.0000000000003
 20
102.7431036927814
 30
0.0
 11
171.0000000000003
 21
76.33975577506331
 31
0.0
  0
LINE
  5
2081
330
1ADD
100
AcDbEntity
  8
SUNPOU
100
AcDbLine
 10
75.00000000000024
 20
77.33975577506334
 30
0.0
 11
167.0000000000003
 21
77.33975577506334
 31
0.0
  0
MTEXT
  5
2082
330
1ADD
100
AcDbEntity
  8
SUNPOU
100
AcDbMText
 10
121.0000000000003
 20
72.24366473437095
 30
0.0
 40
4.0
 41
0.0
 71
     5
 72
     1
  1
\A1;H
  7
SUNPOU
 11
-1.0
 21
0.0000000000000001
 31
0.0
1001
ACAD
1000
MTEXTBEGIN
1070
    73
1070
     1
1070
    44
1040
1.0
1070
    74
1070
     0
1000
MTEXTEND
1000
MTEXTBEGIN
1070
    73
1070
     1
1070
    44
1040
1.0
1070
    74
1070
     0
1000
MTEXTEND
  0
INSERT
  5
2083
330
1ADD
100
AcDbEntity
  8
SUNPOU
100
AcDbBlockReference
  2
_OPEN30
 10
71.00000000000027
 20
77.33975577506334
 30
0.0
 41
4.0
 42
4.0
 43
4.0
 50
180.0
  0
INSERT
  5
2084
330
1ADD
100
AcDbEntity
  8
SUNPOU
100
AcDbBlockReference
  2
_OPEN30
 10
171.0000000000003
 20
77.33975577506334
 30
0.0
 41
4.0
 42
4.0
 43
4.0
  0
POINT
  5
2085
330
1ADD
100
AcDbEntity
  8
DEFPOINTS
 62
     0
100
AcDbPoint
 10
71.00000000000027
 20
109.0171837975283
 30
0.0
  0
POINT
  5
2086
330
1ADD
100
AcDbEntity
  8
DEFPOINTS
 62
     0
100
AcDbPoint
 10
171.0000000000003
 20
103.7431036927814
 30
0.0
  0
POINT
  5
2087
330
1ADD
100
AcDbEntity
  8
DEFPOINTS
 62
     0
100
AcDbPoint
 10
171.0000000000003
 20
77.33975577506334
 30
0.0
  0
ENDBLK
  5
1AE8
330
1ADD
100
AcDbEntity
  8
0
100
AcDbBlockEnd
  0
BLOCK
  5
1AF3
330
1AE9
100
AcDbEntity
  8
0
100
AcDbBlockBegin
  2
*D45
 70
     1
 10
0.0
 20
0.0
 30
0.0
  3
*D45
  1

  0
LINE
  5
2088
330
1AE9
100
AcDbEntity
  8
SUNPOU
100
AcDbLine
 10
61.00000000000026
 20
108.0171837975282
 30
0.0
 11
61.00000000000026
 21
76.33975577506331
 31
0.0
  0
LINE
  5
2089
330
1AE9
100
AcDbEntity
  8
SUNPOU
100
AcDbLine
 10
71.00000000000027
 20
108.0171837975283
 30
0.0
 11
71.00000000000027
 21
76.33975577506331
 31
0.0
  0
LINE
  5
208A
330
1AE9
100
AcDbEntity
  8
SUNPOU
100
AcDbLine
 10
57.00000000000025
 20
77.33975577506334
 30
0.0
 11
53.00000000000025
 21
77.33975577506334
 31
0.0
  0
LINE
  5
208B
330
1AE9
100
AcDbEntity
  8
SUNPOU
100
AcDbLine
 10
75.00000000000024
 20
77.33975577506334
 30
0.0
 11
79.00000000000027
 21
77.33975577506334
 31
0.0
  0
MTEXT
  5
208C
330
1AE9
100
AcDbEntity
  8
SUNPOU
100
AcDbMText
 10
66.11265028511954
 20
72.81074059186045
 30
0.0
 40
4.0
 41
0.0
 71
     5
 72
     1
  1
\A1;200
  7
SUNPOU
 11
-1.0
 21
0.0000000000000001
 31
0.0
1001
ACAD
1000
MTEXTBEGIN
1070
    73
1070
     1
1070
    44
1040
1.0
1070
    74
1070
     0
1000
MTEXTEND
1000
MTEXTBEGIN
1070
    73
1070
     1
1070
    44
1040
1.0
1070
    74
1070
     0
1000
MTEXTEND
  0
LINE
  5
208D
330
1AE9
100
AcDbEntity
  8
SUNPOU
100
AcDbLine
 10
61.00000000000026
 20
77.33975577506334
 30
0.0
 11
71.00000000000027
 21
77.33975577506334
 31
0.0
  0
INSERT
  5
208E
330
1AE9
100
AcDbEntity
  8
SUNPOU
100
AcDbBlockReference
  2
_OPEN30
 10
61.00000000000026
 20
77.33975577506334
 30
0.0
 41
4.0
 42
4.0
 43
4.0
  0
INSERT
  5
208F
330
1AE9
100
AcDbEntity
  8
SUNPOU
100
AcDbBlockReference
  2
_OPEN30
 10
71.00000000000027
 20
77.33975577506334
 30
0.0
 41
4.0
 42
4.0
 43
4.0
 50
180.0
  0
POINT
  5
2090
330
1AE9
100
AcDbEntity
  8
DEFPOINTS
 62
     0
100
AcDbPoint
 10
61.00000000000026
 20
109.0171837975282
 30
0.0
  0
POINT
  5
2091
330
1AE9
100
AcDbEntity
  8
DEFPOINTS
 62
     0
100
AcDbPoint
 10
71.00000000000027
 20
109.0171837975283
 30
0.0
  0
POINT
  5
2092
330
1AE9
100
AcDbEntity
  8
DEFPOINTS
 62
     0
100
AcDbPoint
 10
71.00000000000027
 20
77.33975577506334
 30
0.0
  0
ENDBLK
  5
1AF4
330
1AE9
100
AcDbEntity
  8
0
100
AcDbBlockEnd
  0
BLOCK
  5
1B01
330
1AF5
100
AcDbEntity
  8
0
100
AcDbBlockBegin
  2
*D46
 70
     1
 10
0.0
 20
0.0
 30
0.0
  3
*D46
  1

  0
LINE
  5
2093
330
1AF5
100
AcDbEntity
  8
SUNPOU
100
AcDbLine
 10
170.5
 20
153.5671837975286
 30
0.0
 11
170.5
 21
87.55323610301443
 31
0.0
  0
LINE
  5
2094
330
1AF5
100
AcDbEntity
  8
SUNPOU
100
AcDbLine
 10
171.0000000000003
 20
102.7431036927814
 30
0.0
 11
171.0000000000003
 21
87.55323610301443
 31
0.0
  0
LINE
  5
2095
330
1AF5
100
AcDbEntity
  8
SUNPOU
100
AcDbLine
 10
166.5
 20
88.55323610301439
 30
0.0
 11
162.5
 21
88.55323610301439
 31
0.0
  0
LINE
  5
2096
330
1AF5
100
AcDbEntity
  8
SUNPOU
100
AcDbLine
 10
175.0000000000003
 20
88.55323610301439
 30
0.0
 11
179.0000000000003
 21
88.55323610301439
 31
0.0
  0
MTEXT
  5
2097
330
1AF5
100
AcDbEntity
  8
SUNPOU
100
AcDbMText
 10
179.358344503119
 20
83.96906785299377
 30
0.0
 40
4.0
 41
0.0
 71
     5
 72
     1
  1
\A1;10
  7
SUNPOU
 11
-1.0
 21
0.0000000000000001
 31
0.0
1001
ACAD
1000
MTEXTBEGIN
1070
    73
1070
     1
1070
    44
1040
1.0
1070
    74
1070
     0
1000
MTEXTEND
1000
MTEXTBEGIN
1070
    73
1070
     1
1070
    44
1040
1.0
1070
    74
1070
     0
1000
MTEXTEND
  0
LINE
  5
2098
330
1AF5
100
AcDbEntity
  8
SUNPOU
100
AcDbLine
 10
170.5
 20
88.55323610301439
 30
0.0
 11
171.0000000000003
 21
88.55323610301439
 31
0.0
  0
INSERT
  5
2099
330
1AF5
100
AcDbEntity
  8
SUNPOU
100
AcDbBlockReference
  2
_OPEN30
 10
170.5
 20
88.55323610301439
 30
0.0
 41
4.0
 42
4.0
 43
4.0
  0
INSERT
  5
209A
330
1AF5
100
AcDbEntity
  8
SUNPOU
100
AcDbBlockReference
  2
_OPEN30
 10
171.0000000000003
 20
88.55323610301439
 30
0.0
 41
4.0
 42
4.0
 43
4.0
 50
180.0
  0
POINT
  5
209B
330
1AF5
100
AcDbEntity
  8
DEFPOINTS
 62
     0
100
AcDbPoint
 10
170.5
 20
154.5671837975286
 30
0.0
  0
POINT
  5
209C
330
1AF5
100
AcDbEntity
  8
DEFPOINTS
 62
     0
100
AcDbPoint
 10
171.0000000000003
 20
103.7431036927814
 30
0.0
  0
POINT
  5
209D
330
1AF5
100
AcDbEntity
  8
DEFPOINTS
 62
     0
100
AcDbPoint
 10
171.0000000000003
 20
88.55323610301439
 30
0.0
  0
ENDBLK
  5
1B02
330
1AF5
100
AcDbEntity
  8
0
100
AcDbBlockEnd
  0
BLOCK
  5
1B0D
330
1B03
100
AcDbEntity
  8
0
100
AcDbBlockBegin
  2
*D47
 70
     1
 10
0.0
 20
0.0
 30
0.0
  3
*D47
  1

  0
LINE
  5
2182
330
1B03
100
AcDbEntity
  8
SUNPOU
100
AcDbLine
 10
140.9999999999999
 20
191.7465689074964
 30
0.0
 11
140.9999999999999
 21
268.0465689074967
 31
0.0
  0
LINE
  5
2183
330
1B03
100
AcDbEntity
  8
SUNPOU
100
AcDbLine
 10
170.9999999999995
 20
250.9333940938259
 30
0.0
 11
170.9999999999995
 21
268.0465689074967
 31
0.0
  0
LINE
  5
2184
330
1B03
100
AcDbEntity
  8
SUNPOU
100
AcDbLine
 10
144.9999999999999
 20
267.0465689074965
 30
0.0
 11
166.9999999999996
 21
267.0465689074965
 31
0.0
  0
MTEXT
  5
2185
330
1B03
100
AcDbEntity
  8
SUNPOU
100
AcDbMText
 10
155.9999999999998
 20
262.541620518707
 30
0.0
 40
4.0
 41
0.0
 71
     5
 72
     1
  1
\A1;600
  7
SUNPOU
 11
-1.0
 21
0.0000000000000001
 31
0.0
1001
ACAD
1000
MTEXTBEGIN
1070
    73
1070
     1
1070
    44
1040
1.0
1070
    74
1070
     0
1000
MTEXTEND
1000
MTEXTBEGIN
1070
    73
1070
     1
1070
    44
1040
1.0
1070
    74
1070
     0
1000
MTEXTEND
  0
INSERT
  5
2186
330
1B03
100
AcDbEntity
  8
SUNPOU
100
AcDbBlockReference
  2
_OPEN30
 10
140.9999999999999
 20
267.0465689074965
 30
0.0
 41
4.0
 42
4.0
 43
4.0
 50
180.0
  0
INSERT
  5
2187
330
1B03
100
AcDbEntity
  8
SUNPOU
100
AcDbBlockReference
  2
_OPEN30
 10
170.9999999999995
 20
267.0465689074965
 30
0.0
 41
4.0
 42
4.0
 43
4.0
  0
POINT
  5
2188
330
1B03
100
AcDbEntity
  8
DEFPOINTS
 62
     0
100
AcDbPoint
 10
140.9999999999999
 20
190.7465689074964
 30
0.0
  0
POINT
  5
2189
330
1B03
100
AcDbEntity
  8
DEFPOINTS
 62
     0
100
AcDbPoint
 10
170.9999999999995
 20
249.9333940938259
 30
0.0
  0
POINT
  5
218A
330
1B03
100
AcDbEntity
  8
DEFPOINTS
 62
     0
100
AcDbPoint
 10
170.9999999999995
 20
267.0465689074965
 30
0.0
  0
ENDBLK
  5
1B0E
330
1B03
100
AcDbEntity
  8
0
100
AcDbBlockEnd
  0
ENDSEC
  0
SECTION
  2
ENTITIES
  0
LINE
  5
26D
330
A
100
AcDbEntity
  8
03
100
AcDbLine
 10
313.5
 20
360.4999999999998
 30
0.0
 11
313.5
 21
407.5
 31
0.0
  0
LINE
  5
26E
330
A
100
AcDbEntity
  8
03
100
AcDbLine
 10
213.5
 20
407.5
 30
0.0
 11
213.5
 21
360.4999999999998
 31
0.0
  0
LINE
  5
26F
330
A
100
AcDbEntity
  8
03
100
AcDbLine
 10
215.0
 20
360.4999999999998
 30
0.0
 11
215.0
 21
407.5
 31
0.0
  0
LINE
  5
270
330
A
100
AcDbEntity
  8
03
100
AcDbLine
 10
312.0
 20
407.5
 30
0.0
 11
312.0
 21
360.4999999999998
 31
0.0
  0
LINE
  5
271
330
A
100
AcDbEntity
  8
03
100
AcDbLine
 10
254.0
 20
407.5
 30
0.0
 11
254.0
 21
395.5
 31
0.0
  0
LINE
  5
272
330
A
100
AcDbEntity
  8
03
100
AcDbLine
 10
255.5
 20
379.0
 30
0.0
 11
271.4999999999999
 21
379.0
 31
0.0
  0
LINE
  5
273
330
A
100
AcDbEntity
  8
03
100
AcDbLine
 10
273.0
 20
397.0
 30
0.0
 11
273.0
 21
407.5
 31
0.0
  0
LINE
  5
274
330
A
100
AcDbEntity
  8
03
100
AcDbLine
 10
215.0
 20
407.5
 30
0.0
 11
254.0
 21
407.5
 31
0.0
  0
LINE
  5
275
330
A
100
AcDbEntity
  8
03
100
AcDbLine
 10
273.0
 20
407.5
 30
0.0
 11
312.0
 21
407.5
 31
0.0
  0
LINE
  5
276
330
A
100
AcDbEntity
  8
03
100
AcDbLine
 10
255.5
 20
407.5
 30
0.0
 11
255.5
 21
395.5
 31
0.0
  0
LINE
  5
277
330
A
100
AcDbEntity
  8
03
100
AcDbLine
 10
255.5
 20
395.5
 30
0.0
 11
271.4999999999999
 21
395.5
 31
0.0
  0
LINE
  5
278
330
A
100
AcDbEntity
  8
03
100
AcDbLine
 10
271.4999999999999
 20
397.0
 30
0.0
 11
271.4999999999999
 21
407.5
 31
0.0
  0
LINE
  5
279
330
A
100
AcDbEntity
  8
03
100
AcDbLine
 10
256.4999999999999
 20
397.0
 30
0.0
 11
271.4999999999999
 21
397.0
 31
0.0
  0
LINE
  5
27A
330
A
100
AcDbEntity
  8
03
100
AcDbLine
 10
271.4999999999999
 20
394.0
 30
0.0
 11
271.4999999999999
 21
395.5
 31
0.0
  0
LINE
  5
27B
330
A
100
AcDbEntity
  8
03
100
AcDbLine
 10
312.0
 20
409.0
 30
0.0
 11
273.0
 21
409.0
 31
0.0
  0
LINE
  5
27C
330
A
100
AcDbEntity
  8
03
100
AcDbLine
 10
254.0
 20
409.0
 30
0.0
 11
215.0
 21
409.0
 31
0.0
  0
ARC
  5
27D
330
A
100
AcDbEntity
  8
03
100
AcDbCircle
 10
254.0
 20
407.5
 30
0.0
 40
1.5
100
AcDbArc
 50
0.0
 51
90.0
  0
ARC
  5
27E
330
A
100
AcDbEntity
  8
03
100
AcDbCircle
 10
255.5
 20
395.5
 30
0.0
 40
1.5
100
AcDbArc
 50
180.0
 51
270.0
  0
ARC
  5
27F
330
A
100
AcDbEntity
  8
03
100
AcDbCircle
 10
271.4999999999999
 20
397.0
 30
0.0
 40
1.5
100
AcDbArc
 50
270.0
 51
0.0
  0
ARC
  5
280
330
A
100
AcDbEntity
  8
03
100
AcDbCircle
 10
273.0
 20
407.5
 30
0.0
 40
1.5
100
AcDbArc
 50
90.0
 51
180.0
  0
LINE
  5
281
330
A
100
AcDbEntity
  8
03
100
AcDbLine
 10
256.4999999999999
 20
397.0
 30
0.0
 11
256.4999999999999
 21
395.5
 31
0.0
  0
LINE
  5
282
330
A
100
AcDbEntity
  8
03
100
AcDbLine
 10
255.5
 20
394.0
 30
0.0
 11
271.4999999999999
 21
394.0
 31
0.0
  0
LINE
  5
283
330
A
100
AcDbEntity
  8
03
100
AcDbLine
 10
254.0
 20
377.4999999999998
 30
0.0
 11
254.0
 21
360.4999999999998
 31
0.0
  0
LINE
  5
284
330
A
100
AcDbEntity
  8
03
100
AcDbLine
 10
273.0
 20
379.0
 30
0.0
 11
273.0
 21
360.4999999999998
 31
0.0
  0
LINE
  5
285
330
A
100
AcDbEntity
  8
03
100
AcDbLine
 10
213.5
 20
529.0
 30
0.0
 11
213.5
 21
556.0
 31
0.0
  0
LINE
  5
286
330
A
100
AcDbEntity
  8
03
100
AcDbLine
 10
313.5
 20
556.0
 30
0.0
 11
313.5
 21
529.0
 31
0.0
  0
LINE
  5
287
330
A
100
AcDbEntity
  8
03
100
AcDbLine
 10
215.0
 20
529.0
 30
0.0
 11
215.0
 21
556.0
 31
0.0
  0
LINE
  5
288
330
A
100
AcDbEntity
  8
03
100
AcDbLine
 10
312.0
 20
556.0
 30
0.0
 11
312.0
 21
529.0
 31
0.0
  0
LINE
  5
289
330
A
100
AcDbEntity
  8
03
100
AcDbLine
 10
228.5
 20
557.5
 30
0.0
 11
228.5
 21
556.0
 31
0.0
  0
LINE
  5
28A
330
A
100
AcDbEntity
  8
03
100
AcDbLine
 10
298.4999999999999
 20
557.5
 30
0.0
 11
298.4999999999999
 21
556.0
 31
0.0
  0
LINE
  5
28B
330
A
100
AcDbEntity
  8
03
100
AcDbLine
 10
215.0
 20
557.5
 30
0.0
 11
228.5
 21
557.5
 31
0.0
  0
LINE
  5
28C
330
A
100
AcDbEntity
  8
03
100
AcDbLine
 10
298.4999999999999
 20
557.5
 30
0.0
 11
312.0
 21
557.5
 31
0.0
  0
LINE
  5
28D
330
A
100
AcDbEntity
  8
03
100
AcDbLine
 10
215.0
 20
556.0
 30
0.0
 11
228.5
 21
556.0
 31
0.0
  0
LINE
  5
28E
330
A
100
AcDbEntity
  8
03
100
AcDbLine
 10
298.4999999999999
 20
556.0
 30
0.0
 11
312.0
 21
556.0
 31
0.0
  0
ARC
  5
28F
330
A
100
AcDbEntity
  8
03
100
AcDbCircle
 10
215.0
 20
556.0
 30
0.0
 40
1.5
100
AcDbArc
 50
90.0
 51
180.0
  0
ARC
  5
290
330
A
100
AcDbEntity
  8
03
100
AcDbCircle
 10
215.0
 20
529.0
 30
0.0
 40
1.5
100
AcDbArc
 50
180.0
 51
270.0
  0
ARC
  5
291
330
A
100
AcDbEntity
  8
03
100
AcDbCircle
 10
312.0
 20
529.0
 30
0.0
 40
1.5
100
AcDbArc
 50
270.0
 51
0.0
  0
ARC
  5
292
330
A
100
AcDbEntity
  8
03
100
AcDbCircle
 10
312.0
 20
556.0
 30
0.0
 40
1.5
100
AcDbArc
 50
0.0
 51
90.0
  0
LINE
  5
293
330
A
100
AcDbEntity
  8
03
100
AcDbLine
 10
253.5
 20
529.0
 30
0.0
 11
253.5
 21
546.0
 31
0.0
  0
LINE
  5
294
330
A
100
AcDbEntity
  8
03
100
AcDbLine
 10
273.4999999999999
 20
546.0
 30
0.0
 11
273.4999999999999
 21
529.0
 31
0.0
  0
LINE
  5
295
330
A
100
AcDbEntity
  8
03
100
AcDbLine
 10
255.0
 20
547.5
 30
0.0
 11
272.0
 21
547.5
 31
0.0
  0
LINE
  5
296
330
A
100
AcDbEntity
  8
03
100
AcDbLine
 10
255.0
 20
529.0
 30
0.0
 11
255.0
 21
546.0
 31
0.0
  0
LINE
  5
297
330
A
100
AcDbEntity
  8
03
100
AcDbLine
 10
255.0
 20
546.0
 30
0.0
 11
272.0
 21
546.0
 31
0.0
  0
LINE
  5
298
330
A
100
AcDbEntity
  8
03
100
AcDbLine
 10
272.0
 20
546.0
 30
0.0
 11
272.0
 21
529.0
 31
0.0
  0
LINE
  5
299
330
A
100
AcDbEntity
  8
03
100
AcDbLine
 10
312.0
 20
527.5
 30
0.0
 11
273.4999999999999
 21
527.5
 31
0.0
  0
LINE
  5
29A
330
A
100
AcDbEntity
  8
03
100
AcDbLine
 10
253.5
 20
527.5
 30
0.0
 11
215.0
 21
527.5
 31
0.0
  0
LINE
  5
29B
330
A
100
AcDbEntity
  8
03
100
AcDbLine
 10
312.0
 20
529.0
 30
0.0
 11
273.4999999999999
 21
529.0
 31
0.0
  0
LINE
  5
29C
330
A
100
AcDbEntity
  8
03
100
AcDbLine
 10
253.5
 20
529.0
 30
0.0
 11
215.0
 21
529.0
 31
0.0
  0
ARC
  5
29D
330
A
100
AcDbEntity
  8
03
100
AcDbCircle
 10
253.5
 20
529.0
 30
0.0
 40
1.5
100
AcDbArc
 50
270.0
 51
0.0
  0
ARC
  5
29E
330
A
100
AcDbEntity
  8
03
100
AcDbCircle
 10
255.0
 20
546.0
 30
0.0
 40
1.5
100
AcDbArc
 50
90.0
 51
180.0
  0
ARC
  5
29F
330
A
100
AcDbEntity
  8
03
100
AcDbCircle
 10
272.0
 20
546.0
 30
0.0
 40
1.5
100
AcDbArc
 50
0.0
 51
90.0
  0
ARC
  5
2A0
330
A
100
AcDbEntity
  8
03
100
AcDbCircle
 10
273.4999999999999
 20
529.0
 30
0.0
 40
1.5
100
AcDbArc
 50
180.0
 51
270.0
  0
LINE
  5
2A1
330
A
100
AcDbEntity
  8
03
100
AcDbLine
 10
255.5
 20
360.4999999999998
 30
0.0
 11
255.5
 21
377.4999999999998
 31
0.0
  0
LINE
  5
2A2
330
A
100
AcDbEntity
  8
03
100
AcDbLine
 10
255.5
 20
377.4999999999998
 30
0.0
 11
271.4999999999999
 21
377.4999999999998
 31
0.0
  0
LINE
  5
2A3
330
A
100
AcDbEntity
  8
03
100
AcDbLine
 10
271.4999999999999
 20
379.0
 30
0.0
 11
271.4999999999999
 21
360.4999999999998
 31
0.0
  0
LINE
  5
2A4
330
A
100
AcDbEntity
  8
03
100
AcDbLine
 10
254.0
 20
360.4999999999998
 30
0.0
 11
215.0
 21
360.4999999999998
 31
0.0
  0
LINE
  5
2A5
330
A
100
AcDbEntity
  8
03
100
AcDbLine
 10
215.0
 20
359.0
 30
0.0
 11
254.0
 21
359.0
 31
0.0
  0
ARC
  5
2A6
330
A
100
AcDbEntity
  8
03
100
AcDbCircle
 10
254.0
 20
360.4999999999998
 30
0.0
 40
1.5
100
AcDbArc
 50
270.0
 51
0.0
  0
ARC
  5
2A7
330
A
100
AcDbEntity
  8
03
100
AcDbCircle
 10
255.5
 20
377.4999999999998
 30
0.0
 40
1.5
100
AcDbArc
 50
90.0
 51
180.0
  0
ARC
  5
2A8
330
A
100
AcDbEntity
  8
03
100
AcDbCircle
 10
273.0
 20
360.4999999999998
 30
0.0
 40
1.5
100
AcDbArc
 50
180.0
 51
270.0
  0
LINE
  5
2A9
330
A
100
AcDbEntity
  8
03
100
AcDbLine
 10
271.4999999999999
 20
380.5
 30
0.0
 11
255.5
 21
380.5
 31
0.0
  0
LINE
  5
2AA
330
A
100
AcDbEntity
  8
03
100
AcDbLine
 10
255.5
 20
380.5
 30
0.0
 11
255.5
 21
379.0
 31
0.0
  0
ARC
  5
2AB
330
A
100
AcDbEntity
  8
03
100
AcDbCircle
 10
271.4999999999999
 20
379.0
 30
0.0
 40
1.5
100
AcDbArc
 50
0.0
 51
90.0
  0
LINE
  5
2AC
330
A
100
AcDbEntity
  8
03
100
AcDbLine
 10
256.4999999999999
 20
377.4999999999998
 30
0.0
 11
255.5854574533525
 21
360.5809628870224
 31
0.0
  0
LINE
  5
2AD
330
A
100
AcDbEntity
  8
03
100
AcDbLine
 10
270.5
 20
377.4999999999998
 30
0.0
 11
271.4145425466472
 21
360.5809628870224
 31
0.0
  0
LINE
  5
2AE
330
A
100
AcDbEntity
  8
03
100
AcDbLine
 10
257.0832708632688
 20
359.0
 30
0.0
 11
269.9167291367312
 21
359.0
 31
0.0
  0
LINE
  5
2AF
330
A
100
AcDbEntity
  8
03
100
AcDbLine
 10
257.9978134099162
 20
377.4190371129773
 30
0.0
 11
257.0832708632688
 21
360.4999999999998
 31
0.0
  0
LINE
  5
2B0
330
A
100
AcDbEntity
  8
03
100
AcDbLine
 10
257.0832708632688
 20
360.4999999999998
 30
0.0
 11
269.9167291367312
 21
360.4999999999998
 31
0.0
  0
LINE
  5
2B1
330
A
100
AcDbEntity
  8
03
100
AcDbLine
 10
269.9167291367312
 20
360.4999999999998
 30
0.0
 11
269.0021865900837
 21
377.4190371129773
 31
0.0
  0
ARC
  5
2B2
330
A
100
AcDbEntity
  8
03
100
AcDbCircle
 10
257.0832708632688
 20
360.4999999999998
 30
0.0
 40
1.5
100
AcDbArc
 50
176.9059419410828
 51
270.0
  0
ARC
  5
2B3
330
A
100
AcDbEntity
  8
03
100
AcDbCircle
 10
269.9167291367312
 20
360.4999999999998
 30
0.0
 40
1.5
100
AcDbArc
 50
270.0
 51
3.094058058916838
  0
LINE
  5
2B4
330
A
100
AcDbEntity
  8
03
100
AcDbLine
 10
273.0
 20
359.0
 30
0.0
 11
286.5
 21
359.0
 31
0.0
  0
LINE
  5
2B5
330
A
100
AcDbEntity
  8
03
100
AcDbLine
 10
298.4999999999999
 20
359.0
 30
0.0
 11
312.0
 21
359.0
 31
0.0
  0
LINE
  5
2B6
330
A
100
AcDbEntity
  8
03
100
AcDbLine
 10
312.0
 20
360.4999999999998
 30
0.0
 11
298.4999999999999
 21
360.4999999999998
 31
0.0
  0
LINE
  5
2B7
330
A
100
AcDbEntity
  8
03
100
AcDbLine
 10
286.5
 20
360.4999999999998
 30
0.0
 11
273.0
 21
360.4999999999998
 31
0.0
  0
LINE
  5
2B8
330
A
100
AcDbEntity
  8
03
100
AcDbLine
 10
286.5
 20
359.0
 30
0.0
 11
286.5
 21
360.4999999999998
 31
0.0
  0
LINE
  5
2B9
330
A
100
AcDbEntity
  8
03
100
AcDbLine
 10
298.4999999999999
 20
359.0
 30
0.0
 11
298.4999999999999
 21
360.4999999999998
 31
0.0
  0
LINE
  5
2BA
330
A
100
AcDbEntity
  8
03
100
AcDbLine
 10
320.5000000000001
 20
328.2517574692441
 30
0.0
 11
320.5
 21
359.0
 31
0.0
  0
LINE
  5
2BB
330
A
100
AcDbEntity
  8
03
100
AcDbLine
 10
348.5000000000001
 20
328.2517574692444
 30
0.0
 11
348.4999999999998
 21
359.0
 31
0.0
  0
LINE
  5
2BC
330
A
100
AcDbEntity
  8
03
100
AcDbLine
 10
320.5000000000001
 20
292.5035149384886
 30
0.0
 11
320.5000000000001
 21
323.2517574692443
 31
0.0
  0
LINE
  5
2BD
330
A
100
AcDbEntity
  8
03
100
AcDbLine
 10
348.5000000000001
 20
292.5035149384888
 30
0.0
 11
348.4999999999998
 21
323.2517574692443
 31
0.0
  0
LINE
  5
2BE
330
A
100
AcDbEntity
  8
03
100
AcDbLine
 10
320.5000000000001
 20
237.5035149384887
 30
0.0
 11
320.5000000000001
 21
206.7552724077331
 31
0.0
  0
LINE
  5
2BF
330
A
100
AcDbEntity
  8
03
100
AcDbLine
 10
348.5000000000001
 20
237.5035149384888
 30
0.0
 11
348.5000000000001
 21
206.7552724077331
 31
0.0
  0
LINE
  5
2C0
330
A
100
AcDbEntity
  8
03
100
AcDbLine
 10
320.5000000000001
 20
201.7552724077332
 30
0.0
 11
320.5000000000004
 21
171.0070298769775
 31
0.0
  0
LINE
  5
2C1
330
A
100
AcDbEntity
  8
03
100
AcDbLine
 10
348.5000000000001
 20
201.7552724077332
 30
0.0
 11
348.5000000000001
 21
171.0070298769775
 31
0.0
  0
LINE
  5
2C2
330
A
100
AcDbEntity
  8
03
100
AcDbLine
 10
313.5000000000004
 20
169.5070298769777
 30
0.0
 11
313.5000000000004
 21
122.5070298769777
 31
0.0
  0
LINE
  5
2C3
330
A
100
AcDbEntity
  8
03
100
AcDbLine
 10
213.5000000000004
 20
122.5070298769777
 30
0.0
 11
213.5000000000004
 21
169.5070298769777
 31
0.0
  0
LINE
  5
2C4
330
A
100
AcDbEntity
  8
03
100
AcDbLine
 10
215.0000000000003
 20
169.5070298769777
 30
0.0
 11
215.0000000000003
 21
122.5070298769777
 31
0.0
  0
LINE
  5
2C5
330
A
100
AcDbEntity
  8
03
100
AcDbLine
 10
312.0000000000004
 20
122.5070298769777
 30
0.0
 11
312.0000000000004
 21
169.5070298769777
 31
0.0
  0
LINE
  5
2C6
330
A
100
AcDbEntity
  8
03
100
AcDbLine
 10
254.0000000000004
 20
122.5070298769777
 30
0.0
 11
254.0000000000004
 21
134.5070298769775
 31
0.0
  0
LINE
  5
2C7
330
A
100
AcDbEntity
  8
03
100
AcDbLine
 10
255.5000000000004
 20
151.0070298769775
 30
0.0
 11
271.5000000000001
 21
151.0070298769775
 31
0.0
  0
LINE
  5
2C8
330
A
100
AcDbEntity
  8
03
100
AcDbLine
 10
273.0000000000003
 20
133.0070298769777
 30
0.0
 11
273.0000000000003
 21
122.5070298769777
 31
0.0
  0
LINE
  5
2C9
330
A
100
AcDbEntity
  8
03
100
AcDbLine
 10
215.0000000000003
 20
122.5070298769777
 30
0.0
 11
254.0000000000004
 21
122.5070298769777
 31
0.0
  0
LINE
  5
2CA
330
A
100
AcDbEntity
  8
03
100
AcDbLine
 10
273.0000000000003
 20
122.5070298769777
 30
0.0
 11
312.0000000000004
 21
122.5070298769777
 31
0.0
  0
LINE
  5
2CB
330
A
100
AcDbEntity
  8
03
100
AcDbLine
 10
255.5000000000004
 20
122.5070298769777
 30
0.0
 11
255.5000000000004
 21
134.5070298769775
 31
0.0
  0
LINE
  5
2CC
330
A
100
AcDbEntity
  8
03
100
AcDbLine
 10
255.5000000000004
 20
134.5070298769775
 30
0.0
 11
271.5000000000001
 21
134.5070298769775
 31
0.0
  0
LINE
  5
2CD
330
A
100
AcDbEntity
  8
03
100
AcDbLine
 10
271.5000000000001
 20
133.0070298769777
 30
0.0
 11
271.5000000000001
 21
122.5070298769777
 31
0.0
  0
LINE
  5
2CE
330
A
100
AcDbEntity
  8
03
100
AcDbLine
 10
256.5000000000003
 20
133.0070298769777
 30
0.0
 11
271.5000000000001
 21
133.0070298769777
 31
0.0
  0
LINE
  5
2CF
330
A
100
AcDbEntity
  8
03
100
AcDbLine
 10
271.5000000000001
 20
136.0070298769777
 30
0.0
 11
271.5000000000001
 21
134.5070298769775
 31
0.0
  0
LINE
  5
2D0
330
A
100
AcDbEntity
  8
03
100
AcDbLine
 10
312.0000000000004
 20
121.0070298769777
 30
0.0
 11
273.0000000000003
 21
121.0070298769777
 31
0.0
  0
LINE
  5
2D1
330
A
100
AcDbEntity
  8
03
100
AcDbLine
 10
254.0000000000004
 20
121.0070298769777
 30
0.0
 11
215.0000000000003
 21
121.0070298769777
 31
0.0
  0
ARC
  5
2D2
330
A
100
AcDbEntity
  8
03
100
AcDbCircle
 10
254.0000000000004
 20
122.5070298769777
 30
0.0
 40
1.5
100
AcDbArc
 50
270.0
 51
0.0
  0
ARC
  5
2D3
330
A
100
AcDbEntity
  8
03
100
AcDbCircle
 10
255.5000000000004
 20
134.5070298769775
 30
0.0
 40
1.5
100
AcDbArc
 50
90.0
 51
180.0
  0
ARC
  5
2D4
330
A
100
AcDbEntity
  8
03
100
AcDbCircle
 10
271.5000000000001
 20
133.0070298769777
 30
0.0
 40
1.5
100
AcDbArc
 50
0.0
 51
90.0
  0
ARC
  5
2D5
330
A
100
AcDbEntity
  8
03
100
AcDbCircle
 10
273.0000000000003
 20
122.5070298769777
 30
0.0
 40
1.5
100
AcDbArc
 50
180.0
 51
270.0
  0
LINE
  5
2D6
330
A
100
AcDbEntity
  8
03
100
AcDbLine
 10
256.5000000000003
 20
133.0070298769777
 30
0.0
 11
256.5000000000003
 21
134.5070298769775
 31
0.0
  0
LINE
  5
2D7
330
A
100
AcDbEntity
  8
03
100
AcDbLine
 10
255.5000000000004
 20
136.0070298769777
 30
0.0
 11
271.5000000000001
 21
136.0070298769777
 31
0.0
  0
LINE
  5
2D8
330
A
100
AcDbEntity
  8
03
100
AcDbLine
 10
254.0000000000004
 20
152.5070298769777
 30
0.0
 11
254.0000000000004
 21
169.5070298769777
 31
0.0
  0
LINE
  5
2D9
330
A
100
AcDbEntity
  8
03
100
AcDbLine
 10
273.0000000000003
 20
151.0070298769775
 30
0.0
 11
273.0000000000003
 21
169.5070298769777
 31
0.0
  0
LINE
  5
2DA
330
A
100
AcDbEntity
  8
03
100
AcDbLine
 10
255.5000000000004
 20
169.5070298769777
 30
0.0
 11
255.5000000000004
 21
152.5070298769777
 31
0.0
  0
LINE
  5
2DB
330
A
100
AcDbEntity
  8
03
100
AcDbLine
 10
255.5000000000004
 20
152.5070298769777
 30
0.0
 11
271.5000000000001
 21
152.5070298769777
 31
0.0
  0
LINE
  5
2DC
330
A
100
AcDbEntity
  8
03
100
AcDbLine
 10
271.5000000000001
 20
151.0070298769775
 30
0.0
 11
271.5000000000001
 21
169.5070298769777
 31
0.0
  0
LINE
  5
2DD
330
A
100
AcDbEntity
  8
03
100
AcDbLine
 10
254.0000000000004
 20
169.5070298769777
 30
0.0
 11
215.0000000000003
 21
169.5070298769777
 31
0.0
  0
LINE
  5
2DE
330
A
100
AcDbEntity
  8
03
100
AcDbLine
 10
215.0000000000003
 20
171.0070298769775
 30
0.0
 11
254.0000000000004
 21
171.0070298769775
 31
0.0
  0
ARC
  5
2DF
330
A
100
AcDbEntity
  8
03
100
AcDbCircle
 10
254.0000000000004
 20
169.5070298769777
 30
0.0
 40
1.5
100
AcDbArc
 50
0.0
 51
90.0
  0
ARC
  5
2E0
330
A
100
AcDbEntity
  8
03
100
AcDbCircle
 10
255.5000000000004
 20
152.5070298769777
 30
0.0
 40
1.5
100
AcDbArc
 50
180.0
 51
270.0
  0
ARC
  5
2E1
330
A
100
AcDbEntity
  8
03
100
AcDbCircle
 10
273.0000000000003
 20
169.5070298769777
 30
0.0
 40
1.5
100
AcDbArc
 50
90.0
 51
180.0
  0
LINE
  5
2E2
330
A
100
AcDbEntity
  8
03
100
AcDbLine
 10
271.5000000000001
 20
149.5070298769777
 30
0.0
 11
255.5000000000004
 21
149.5070298769777
 31
0.0
  0
LINE
  5
2E3
330
A
100
AcDbEntity
  8
03
100
AcDbLine
 10
255.5000000000004
 20
149.5070298769777
 30
0.0
 11
255.5000000000004
 21
151.0070298769775
 31
0.0
  0
ARC
  5
2E4
330
A
100
AcDbEntity
  8
03
100
AcDbCircle
 10
271.5000000000001
 20
151.0070298769775
 30
0.0
 40
1.5
100
AcDbArc
 50
270.0
 51
0.0
  0
LINE
  5
2E5
330
A
100
AcDbEntity
  8
03
100
AcDbLine
 10
256.5000000000003
 20
152.5070298769777
 30
0.0
 11
255.5854574533527
 21
169.426066989955
 31
0.0
  0
LINE
  5
2E6
330
A
100
AcDbEntity
  8
03
100
AcDbLine
 10
270.5000000000004
 20
152.5070298769777
 30
0.0
 11
271.4145425466476
 21
169.426066989955
 31
0.0
  0
LINE
  5
2E7
330
A
100
AcDbEntity
  8
03
100
AcDbLine
 10
257.0832708632692
 20
171.0070298769775
 30
0.0
 11
269.9167291367314
 21
171.0070298769775
 31
0.0
  0
LINE
  5
2E8
330
A
100
AcDbEntity
  8
03
100
AcDbLine
 10
257.9978134099166
 20
152.5879927640001
 30
0.0
 11
257.0832708632692
 21
169.5070298769777
 31
0.0
  0
LINE
  5
2E9
330
A
100
AcDbEntity
  8
03
100
AcDbLine
 10
257.0832708632692
 20
169.5070298769777
 30
0.0
 11
269.9167291367314
 21
169.5070298769777
 31
0.0
  0
LINE
  5
2EA
330
A
100
AcDbEntity
  8
03
100
AcDbLine
 10
269.9167291367314
 20
169.5070298769777
 30
0.0
 11
269.0021865900841
 21
152.5879927640001
 31
0.0
  0
ARC
  5
2EB
330
A
100
AcDbEntity
  8
03
100
AcDbCircle
 10
257.0832708632692
 20
169.5070298769777
 30
0.0
 40
1.5
100
AcDbArc
 50
90.0
 51
183.0940580589171
  0
ARC
  5
2EC
330
A
100
AcDbEntity
  8
03
100
AcDbCircle
 10
269.9167291367314
 20
169.5070298769777
 30
0.0
 40
1.5
100
AcDbArc
 50
356.9059419410832
 51
90.0
  0
LINE
  5
2ED
330
A
100
AcDbEntity
  8
03
100
AcDbLine
 10
273.0000000000003
 20
171.0070298769775
 30
0.0
 11
286.5000000000004
 21
171.0070298769775
 31
0.0
  0
LINE
  5
2EE
330
A
100
AcDbEntity
  8
03
100
AcDbLine
 10
298.5000000000001
 20
171.0070298769775
 30
0.0
 11
312.0000000000004
 21
171.0070298769775
 31
0.0
  0
LINE
  5
2EF
330
A
100
AcDbEntity
  8
03
100
AcDbLine
 10
312.0000000000004
 20
169.5070298769777
 30
0.0
 11
298.5000000000001
 21
169.5070298769777
 31
0.0
  0
LINE
  5
2F0
330
A
100
AcDbEntity
  8
03
100
AcDbLine
 10
286.5000000000004
 20
169.5070298769777
 30
0.0
 11
273.0000000000003
 21
169.5070298769777
 31
0.0
  0
LINE
  5
2F1
330
A
100
AcDbEntity
  8
03
100
AcDbLine
 10
286.5000000000004
 20
171.0070298769775
 30
0.0
 11
286.5000000000004
 21
169.5070298769777
 31
0.0
  0
LINE
  5
2F2
330
A
100
AcDbEntity
  8
03
100
AcDbLine
 10
298.5000000000001
 20
171.0070298769775
 30
0.0
 11
298.5000000000001
 21
169.5070298769777
 31
0.0
  0
LINE
  5
2F3
330
A
100
AcDbEntity
  8
03
100
AcDbLine
 10
96.14017787144744
 20
361.1329755063767
 30
0.0
 11
96.14017787144744
 21
561.1329755063768
 31
0.0
  0
LINE
  5
2F4
330
A
100
AcDbEntity
  8
03
100
AcDbLine
 10
106.1401778714474
 20
561.1329755063768
 30
0.0
 11
106.1401778714474
 21
361.1329755063767
 31
0.0
  0
LINE
  5
2F5
330
A
100
AcDbEntity
  8
03
100
AcDbLine
 10
106.1401778714474
 20
361.1329755063767
 30
0.0
 11
96.14017787144744
 21
361.1329755063767
 31
0.0
  0
LINE
  5
2F6
330
A
100
AcDbEntity
  8
03
100
AcDbLine
 10
96.14017787144744
 20
561.1329755063768
 30
0.0
 11
106.1401778714474
 21
561.1329755063768
 31
0.0
  0
LINE
  5
2F7
330
A
100
AcDbEntity
  8
03
100
AcDbLine
 10
96.1401778714474
 20
456.6329755063768
 30
0.0
 11
106.1401778714472
 21
456.6329755063768
 31
0.0
  0
LINE
  5
2F8
330
A
100
AcDbEntity
  8
03
100
AcDbLine
 10
106.1401778714472
 20
459.1329755063767
 30
0.0
 11
96.1401778714474
 21
459.1329755063767
 31
0.0
  0
LINE
  5
2F9
330
A
100
AcDbEntity
  8
03
100
AcDbLine
 10
96.14017787144744
 20
463.1329755063767
 30
0.0
 11
106.1401778714474
 21
463.1329755063767
 31
0.0
  0
LINE
  5
2FA
330
A
100
AcDbEntity
  8
03
100
AcDbLine
 10
106.1401778714474
 20
465.6329755063768
 30
0.0
 11
96.14017787144744
 21
465.6329755063768
 31
0.0
  0
LINE
  5
2FB
330
A
100
AcDbEntity
  8
03
100
AcDbLine
 10
96.1401778714474
 20
362.3829755063768
 30
0.0
 11
106.1401778714472
 21
362.3829755063768
 31
0.0
  0
LINE
  5
2FC
330
A
100
AcDbEntity
  8
03
100
AcDbLine
 10
106.1401778714472
 20
364.8829755063768
 30
0.0
 11
96.1401778714474
 21
364.8829755063768
 31
0.0
  0
LINE
  5
2FD
330
A
100
AcDbEntity
  8
03
100
AcDbLine
 10
96.1401778714474
 20
367.6329755063767
 30
0.0
 11
106.1401778714472
 21
367.6329755063767
 31
0.0
  0
LINE
  5
2FE
330
A
100
AcDbEntity
  8
03
100
AcDbLine
 10
106.1401778714472
 20
370.1329755063767
 30
0.0
 11
96.1401778714474
 21
370.1329755063767
 31
0.0
  0
LINE
  5
2FF
330
A
100
AcDbEntity
  8
03
100
AcDbLine
 10
96.14017787144744
 20
547.3829755063768
 30
0.0
 11
106.1401778714474
 21
547.3829755063768
 31
0.0
  0
LINE
  5
300
330
A
100
AcDbEntity
  8
03
100
AcDbLine
 10
106.1401778714474
 20
549.8829755063768
 30
0.0
 11
96.14017787144744
 21
549.8829755063768
 31
0.0
  0
LINE
  5
301
330
A
100
AcDbEntity
  8
03
100
AcDbLine
 10
96.14017787144744
 20
557.3829755063768
 30
0.0
 11
106.1401778714474
 21
557.3829755063768
 31
0.0
  0
LINE
  5
302
330
A
100
AcDbEntity
  8
03
100
AcDbLine
 10
106.1401778714474
 20
559.8829755063768
 30
0.0
 11
96.14017787144744
 21
559.8829755063768
 31
0.0
  0
LINE
  5
303
330
A
100
AcDbEntity
  8
03
100
AcDbLine
 10
96.14017787144744
 20
477.1329755063767
 30
0.0
 11
106.1401778714474
 21
477.1329755063767
 31
0.0
  0
LINE
  5
304
330
A
100
AcDbEntity
  8
03
100
AcDbLine
 10
106.1401778714474
 20
479.6329755063768
 30
0.0
 11
96.14017787144744
 21
479.6329755063768
 31
0.0
  0
LINE
  5
305
330
A
100
AcDbEntity
  8
03
100
AcDbLine
 10
96.14017787144744
 20
484.1329755063767
 30
0.0
 11
106.1401778714474
 21
484.1329755063767
 31
0.0
  0
LINE
  5
306
330
A
100
AcDbEntity
  8
03
100
AcDbLine
 10
106.1401778714474
 20
486.6329755063768
 30
0.0
 11
96.14017787144744
 21
486.6329755063768
 31
0.0
  0
LINE
  5
307
330
A
100
AcDbEntity
  8
03
100
AcDbLine
 10
96.1401778714474
 20
435.6329755063767
 30
0.0
 11
106.1401778714472
 21
435.6329755063767
 31
0.0
  0
LINE
  5
308
330
A
100
AcDbEntity
  8
03
100
AcDbLine
 10
106.1401778714472
 20
438.1329755063767
 30
0.0
 11
96.1401778714474
 21
438.1329755063767
 31
0.0
  0
LINE
  5
309
330
A
100
AcDbEntity
  8
03
100
AcDbLine
 10
96.1401778714474
 20
442.6329755063767
 30
0.0
 11
106.1401778714472
 21
442.6329755063767
 31
0.0
  0
LINE
  5
30A
330
A
100
AcDbEntity
  8
03
100
AcDbLine
 10
106.1401778714472
 20
445.1329755063768
 30
0.0
 11
96.1401778714474
 21
445.1329755063768
 31
0.0
  0
LINE
  5
30B
330
A
100
AcDbEntity
  8
03
100
AcDbLine
 10
96.14017787144744
 20
498.1329755063767
 30
0.0
 11
106.1401778714474
 21
498.1329755063767
 31
0.0
  0
LINE
  5
30C
330
A
100
AcDbEntity
  8
03
100
AcDbLine
 10
106.1401778714474
 20
500.6329755063767
 30
0.0
 11
96.14017787144744
 21
500.6329755063767
 31
0.0
  0
LINE
  5
30D
330
A
100
AcDbEntity
  8
03
100
AcDbLine
 10
96.14017787144744
 20
512.1329755063768
 30
0.0
 11
106.1401778714474
 21
512.1329755063768
 31
0.0
  0
LINE
  5
30E
330
A
100
AcDbEntity
  8
03
100
AcDbLine
 10
106.1401778714474
 20
514.6329755063768
 30
0.0
 11
96.14017787144744
 21
514.6329755063768
 31
0.0
  0
LINE
  5
30F
330
A
100
AcDbEntity
  8
03
100
AcDbLine
 10
96.1401778714474
 20
407.6329755063768
 30
0.0
 11
106.1401778714472
 21
407.6329755063768
 31
0.0
  0
LINE
  5
310
330
A
100
AcDbEntity
  8
03
100
AcDbLine
 10
106.1401778714472
 20
410.1329755063767
 30
0.0
 11
96.1401778714474
 21
410.1329755063767
 31
0.0
  0
LINE
  5
311
330
A
100
AcDbEntity
  8
03
100
AcDbLine
 10
96.1401778714474
 20
421.6329755063767
 30
0.0
 11
106.1401778714472
 21
421.6329755063767
 31
0.0
  0
LINE
  5
312
330
A
100
AcDbEntity
  8
03
100
AcDbLine
 10
106.1401778714472
 20
424.1329755063768
 30
0.0
 11
96.1401778714474
 21
424.1329755063768
 31
0.0
  0
LINE
  5
313
330
A
100
AcDbEntity
  8
03
100
AcDbLine
 10
96.1401778714474
 20
393.6329755063768
 30
0.0
 11
106.1401778714472
 21
393.6329755063768
 31
0.0
  0
LINE
  5
314
330
A
100
AcDbEntity
  8
03
100
AcDbLine
 10
106.1401778714472
 20
396.1329755063768
 30
0.0
 11
96.1401778714474
 21
396.1329755063768
 31
0.0
  0
LINE
  5
315
330
A
100
AcDbEntity
  8
03
100
AcDbLine
 10
96.14017787144744
 20
526.1329755063768
 30
0.0
 11
106.1401778714474
 21
526.1329755063768
 31
0.0
  0
LINE
  5
316
330
A
100
AcDbEntity
  8
03
100
AcDbLine
 10
106.1401778714474
 20
528.6329755063768
 30
0.0
 11
96.14017787144744
 21
528.6329755063768
 31
0.0
  0
LINE
  5
317
330
A
100
AcDbEntity
  8
03
100
AcDbLine
 10
96.14017787144744
 20
540.1329755063768
 30
0.0
 11
106.1401778714474
 21
540.1329755063768
 31
0.0
  0
LINE
  5
318
330
A
100
AcDbEntity
  8
03
100
AcDbLine
 10
106.1401778714474
 20
542.6329755063768
 30
0.0
 11
96.14017787144744
 21
542.6329755063768
 31
0.0
  0
LINE
  5
319
330
A
100
AcDbEntity
  8
03
100
AcDbLine
 10
96.1401778714474
 20
379.6329755063768
 30
0.0
 11
106.1401778714472
 21
379.6329755063768
 31
0.0
  0
LINE
  5
31A
330
A
100
AcDbEntity
  8
03
100
AcDbLine
 10
106.1401778714472
 20
382.1329755063768
 30
0.0
 11
96.1401778714474
 21
382.1329755063768
 31
0.0
  0
ARC
  5
33B
330
A
100
AcDbEntity
  8
03
100
AcDbCircle
 10
215.0000000000003
 20
169.5070298769777
 30
0.0
 40
1.5
100
AcDbArc
 50
90.0
 51
180.0
  0
ARC
  5
33C
330
A
100
AcDbEntity
  8
03
100
AcDbCircle
 10
215.0000000000003
 20
122.5070298769777
 30
0.0
 40
1.5
100
AcDbArc
 50
180.0
 51
270.0
  0
ARC
  5
33D
330
A
100
AcDbEntity
  8
03
100
AcDbCircle
 10
215.0
 20
407.5
 30
0.0
 40
1.5
100
AcDbArc
 50
90.0
 51
180.0
  0
ARC
  5
33E
330
A
100
AcDbEntity
  8
03
100
AcDbCircle
 10
215.0
 20
360.4999999999998
 30
0.0
 40
1.5
100
AcDbArc
 50
180.0
 51
270.0
  0
ARC
  5
33F
330
A
100
AcDbEntity
  8
03
100
AcDbCircle
 10
312.0
 20
407.5
 30
0.0
 40
1.5
100
AcDbArc
 50
0.0
 51
90.0
  0
ARC
  5
340
330
A
100
AcDbEntity
  8
03
100
AcDbCircle
 10
312.0
 20
360.4999999999998
 30
0.0
 40
1.5
100
AcDbArc
 50
270.0
 51
0.0
  0
ARC
  5
341
330
A
100
AcDbEntity
  8
03
100
AcDbCircle
 10
312.0000000000004
 20
169.5070298769777
 30
0.0
 40
1.5
100
AcDbArc
 50
0.0
 51
90.0
  0
ARC
  5
342
330
A
100
AcDbEntity
  8
03
100
AcDbCircle
 10
312.0000000000004
 20
122.5070298769777
 30
0.0
 40
1.5
100
AcDbArc
 50
270.0
 51
0.0
  0
LINE
  5
343
330
A
100
AcDbEntity
  8
03
100
AcDbLine
 10
255.5
 20
407.5
 30
0.0
 11
255.5
 21
529.0
 31
0.0
  0
LINE
  5
344
330
A
100
AcDbEntity
  8
03
100
AcDbLine
 10
271.4999999999999
 20
407.5
 30
0.0
 11
271.4999999999999
 21
529.0
 31
0.0
  0
LINE
  5
345
330
A
100
AcDbEntity
  8
KAKURE
100
AcDbLine
 10
218.5
 20
553.7
 30
0.0
 11
218.5
 21
556.0
 31
0.0
  0
LINE
  5
346
330
A
100
AcDbEntity
  8
KAKURE
100
AcDbLine
 10
308.4999999999999
 20
556.0
 30
0.0
 11
308.4999999999999
 21
553.7
 31
0.0
  0
LINE
  5
347
330
A
100
AcDbEntity
  8
KAKURE
100
AcDbLine
 10
308.4999999999999
 20
553.7
 30
0.0
 11
218.5
 21
553.7
 31
0.0
  0
LINE
  5
348
330
A
100
AcDbEntity
  8
KAKURE
100
AcDbLine
 10
218.5
 20
556.0
 30
0.0
 11
308.4999999999999
 21
556.0
 31
0.0
  0
LINE
  5
355
330
A
100
AcDbEntity
  8
CHUSIN
100
AcDbLine
 10
238.5
 20
409.0
 30
0.0
 11
238.5
 21
527.5
 31
0.0
  0
LINE
  5
356
330
A
100
AcDbEntity
  8
CHUSIN
100
AcDbLine
 10
288.5
 20
409.0
 30
0.0
 11
288.5
 21
527.5
 31
0.0
  0
LINE
  5
35B
330
A
100
AcDbEntity
  8
CHUSIN
100
AcDbLine
 10
263.5
 20
75.44991212653775
 30
0.0
 11
263.5
 21
566.2340705660806
 31
0.0
  0
LINE
  5
35C
330
A
100
AcDbEntity
  8
CHUSIN
100
AcDbLine
 10
292.5
 20
350.4999999999998
 30
0.0
 11
292.5
 21
420.5
 31
0.0
  0
LINE
  5
35D
330
A
100
AcDbEntity
  8
KAKURE
100
AcDbLine
 10
322.0
 20
384.0
 30
0.0
 11
272.0
 21
384.0
 31
0.0
  0
LINE
  5
35E
330
A
100
AcDbEntity
  8
CHUSIN
100
AcDbLine
 10
334.5
 20
566.2340705660806
 30
0.0
 11
334.5
 21
75.44991212653775
 31
0.0
  0
LINE
  5
35F
330
A
100
AcDbEntity
  8
CHUSIN
100
AcDbLine
 10
292.5000000000001
 20
179.5070298769777
 30
0.0
 11
292.5000000000001
 21
109.5070298769777
 31
0.0
  0
LINE
  5
360
330
A
100
AcDbEntity
  8
KAKURE
100
AcDbLine
 10
322.0000000000004
 20
146.0070298769775
 30
0.0
 11
272.0000000000004
 21
146.0070298769775
 31
0.0
  0
LINE
  5
361
330
A
100
AcDbEntity
  8
CHUSIN
100
AcDbLine
 10
85.20606601182159
 20
461.1329755063768
 30
0.0
 11
117.3523129871193
 21
461.1329755063768
 31
0.0
  0
LINE
  5
362
330
A
100
AcDbEntity
  8
CHUSIN
100
AcDbLine
 10
91.14017787144744
 20
457.8829755063767
 30
0.0
 11
111.1401778714474
 21
457.8829755063767
 31
0.0
  0
LINE
  5
363
330
A
100
AcDbEntity
  8
CHUSIN
100
AcDbLine
 10
91.14017787144744
 20
464.3829755063769
 30
0.0
 11
111.1401778714474
 21
464.3829755063769
 31
0.0
  0
LINE
  5
364
330
A
100
AcDbEntity
  8
CHUSIN
100
AcDbLine
 10
91.14017787144744
 20
363.6329755063767
 30
0.0
 11
111.1401778714474
 21
363.6329755063767
 31
0.0
  0
LINE
  5
365
330
A
100
AcDbEntity
  8
CHUSIN
100
AcDbLine
 10
91.14017787144744
 20
368.8829755063768
 30
0.0
 11
111.1401778714474
 21
368.8829755063768
 31
0.0
  0
LINE
  5
366
330
A
100
AcDbEntity
  8
CHUSIN
100
AcDbLine
 10
91.14017787144744
 20
558.6329755063768
 30
0.0
 11
111.1401778714474
 21
558.6329755063768
 31
0.0
  0
LINE
  5
367
330
A
100
AcDbEntity
  8
CHUSIN
100
AcDbLine
 10
91.14017787144744
 20
548.6329755063768
 30
0.0
 11
111.1401778714474
 21
548.6329755063768
 31
0.0
  0
LINE
  5
368
330
A
100
AcDbEntity
  8
CHUSIN
100
AcDbLine
 10
91.14017787144744
 20
478.3829755063767
 30
0.0
 11
111.1401778714474
 21
478.3829755063767
 31
0.0
  0
LINE
  5
369
330
A
100
AcDbEntity
  8
CHUSIN
100
AcDbLine
 10
91.14017787144744
 20
485.3829755063769
 30
0.0
 11
111.1401778714474
 21
485.3829755063769
 31
0.0
  0
LINE
  5
36A
330
A
100
AcDbEntity
  8
CHUSIN
100
AcDbLine
 10
91.14017787144744
 20
443.8829755063768
 30
0.0
 11
111.1401778714474
 21
443.8829755063768
 31
0.0
  0
LINE
  5
36B
330
A
100
AcDbEntity
  8
CHUSIN
100
AcDbLine
 10
91.14017787144744
 20
436.8829755063767
 30
0.0
 11
111.1401778714474
 21
436.8829755063767
 31
0.0
  0
LINE
  5
36C
330
A
100
AcDbEntity
  8
CHUSIN
100
AcDbLine
 10
91.14017787144744
 20
499.3829755063767
 30
0.0
 11
111.1401778714474
 21
499.3829755063767
 31
0.0
  0
LINE
  5
36D
330
A
100
AcDbEntity
  8
CHUSIN
100
AcDbLine
 10
91.14017787144744
 20
513.3829755063768
 30
0.0
 11
111.1401778714474
 21
513.3829755063768
 31
0.0
  0
LINE
  5
36E
330
A
100
AcDbEntity
  8
CHUSIN
100
AcDbLine
 10
91.14017787144744
 20
422.8829755063769
 30
0.0
 11
111.1401778714474
 21
422.8829755063769
 31
0.0
  0
LINE
  5
36F
330
A
100
AcDbEntity
  8
CHUSIN
100
AcDbLine
 10
91.14017787144744
 20
408.8829755063768
 30
0.0
 11
111.1401778714474
 21
408.8829755063768
 31
0.0
  0
LINE
  5
370
330
A
100
AcDbEntity
  8
CHUSIN
100
AcDbLine
 10
91.14017787144744
 20
394.8829755063767
 30
0.0
 11
111.1401778714474
 21
394.8829755063767
 31
0.0
  0
LINE
  5
371
330
A
100
AcDbEntity
  8
CHUSIN
100
AcDbLine
 10
91.14017787144744
 20
527.3829755063768
 30
0.0
 11
111.1401778714474
 21
527.3829755063768
 31
0.0
  0
LINE
  5
372
330
A
100
AcDbEntity
  8
CHUSIN
100
AcDbLine
 10
91.14017787144744
 20
541.3829755063768
 30
0.0
 11
111.1401778714474
 21
541.3829755063768
 31
0.0
  0
LINE
  5
373
330
A
100
AcDbEntity
  8
CHUSIN
100
AcDbLine
 10
91.14017787144744
 20
380.8829755063768
 30
0.0
 11
111.1401778714474
 21
380.8829755063768
 31
0.0
  0
LINE
  5
376
330
A
100
AcDbEntity
  8
06
100
AcDbLine
 10
331.4999999999999
 20
368.0
 30
0.0
 11
331.5000000000001
 21
328.2517574692444
 31
0.0
  0
LINE
  5
377
330
A
100
AcDbEntity
  8
06
100
AcDbLine
 10
337.5
 20
368.0
 30
0.0
 11
337.5000000000001
 21
328.2517574692444
 31
0.0
  0
LINE
  5
378
330
A
100
AcDbEntity
  8
06
100
AcDbLine
 10
321.4999999999998
 20
375.4999999999998
 30
0.0
 11
323.8000000000001
 21
375.4999999999998
 31
0.0
  0
LINE
  5
379
330
A
100
AcDbEntity
  8
06
100
AcDbLine
 10
323.8000000000001
 20
375.4999999999998
 30
0.0
 11
323.8000000000001
 21
368.5
 31
0.0
  0
LINE
  5
37A
330
A
100
AcDbEntity
  8
06
100
AcDbLine
 10
323.8000000000001
 20
368.5
 30
0.0
 11
321.4999999999998
 21
368.5
 31
0.0
  0
LINE
  5
37B
330
A
100
AcDbEntity
  8
06
100
AcDbLine
 10
321.4999999999998
 20
368.5
 30
0.0
 11
321.4999999999998
 21
369.3148217501761
 31
0.0
  0
LINE
  5
37C
330
A
100
AcDbEntity
  8
06
100
AcDbLine
 10
318.5
 20
369.75
 30
0.0
 11
321.0
 21
369.75
 31
0.0
  0
ARC
  5
37D
330
A
100
AcDbEntity
  8
06
100
AcDbCircle
 10
321.0
 20
369.2499999999998
 30
0.0
 40
0.5
100
AcDbArc
 50
359.9999999999955
 51
90.00000000000019
  0
LINE
  5
37E
330
A
100
AcDbEntity
  8
06
100
AcDbLine
 10
321.4999999999998
 20
375.4999999999998
 30
0.0
 11
321.4999999999998
 21
374.75
 31
0.0
  0
LINE
  5
37F
330
A
100
AcDbEntity
  8
06
100
AcDbLine
 10
318.5
 20
374.25
 30
0.0
 11
321.0
 21
374.25
 31
0.0
  0
ARC
  5
380
330
A
100
AcDbEntity
  8
06
100
AcDbCircle
 10
321.0
 20
374.75
 30
0.0
 40
0.5
100
AcDbArc
 50
269.9999999999999
 51
0.0000000000043965
  0
LINE
  5
381
330
A
100
AcDbEntity
  8
06
100
AcDbLine
 10
337.141447353748
 20
367.9999999999997
 30
0.0
 11
337.141447353748
 21
328.2517574692444
 31
0.0
  0
LINE
  5
382
330
A
100
AcDbEntity
  8
06
100
AcDbLine
 10
318.9425466678494
 20
359.4425466678493
 30
0.0
 11
320.0
 21
360.4999999999998
 31
0.0
  0
LINE
  5
383
330
A
100
AcDbEntity
  8
06
100
AcDbLine
 10
319.0067288904658
 20
383.4932711095338
 30
0.0
 11
319.9999999999998
 21
382.5
 31
0.0
  0
LINE
  5
384
330
A
100
AcDbEntity
  8
06
100
AcDbLine
 10
349.9611799982257
 20
383.4611799982256
 30
0.0
 11
348.9999999999998
 21
382.5
 31
0.0
  0
LINE
  5
385
330
A
100
AcDbEntity
  8
06
100
AcDbLine
 10
349.9932711095338
 20
359.5067288904657
 30
0.0
 11
349.0
 21
360.4999999999998
 31
0.0
  0
ARC
  5
399
330
A
100
AcDbEntity
  8
06
100
AcDbCircle
 10
330.5
 20
356.1715728752538
 30
0.0
 40
3.0
100
AcDbArc
 50
70.52877936550924
 51
109.4712206344908
  0
ARC
  5
39A
330
A
100
AcDbEntity
  8
06
100
AcDbCircle
 10
338.5
 20
356.1715728752536
 30
0.0
 40
3.0
100
AcDbArc
 50
70.52877936550955
 51
109.471220634491
  0
LINE
  5
39B
330
A
100
AcDbEntity
  8
06
100
AcDbLine
 10
331.4999999999999
 20
368.0
 30
0.0
 11
337.5
 21
368.0
 31
0.0
  0
LINE
  5
3AF
330
A
100
AcDbEntity
  8
06
100
AcDbLine
 10
332.0
 20
367.9999999999997
 30
0.0
 11
332.0000000000001
 21
328.2517574692444
 31
0.0
  0
LINE
  5
3B0
330
A
100
AcDbEntity
  8
06
100
AcDbLine
 10
337.5000000000001
 20
248.0035149384887
 30
0.0
 11
331.5000000000001
 21
248.0035149384887
 31
0.0
  0
LINE
  5
3B1
330
A
100
AcDbEntity
  8
06
100
AcDbLine
 10
325.0000000000001
 20
258.0035149384887
 30
0.0
 11
325.0000000000001
 21
256.0035149384887
 31
0.0
  0
LINE
  5
3B2
330
A
100
AcDbEntity
  8
06
100
AcDbLine
 10
325.0000000000001
 20
258.0035149384887
 30
0.0
 11
327.5000000000001
 21
258.0035149384888
 31
0.0
  0
LINE
  5
3B3
330
A
100
AcDbEntity
  8
06
100
AcDbLine
 10
328.0000000000001
 20
262.0035149384887
 30
0.0
 11
328.0000000000001
 21
258.5035149384888
 31
0.0
  0
ARC
  5
3B4
330
A
100
AcDbEntity
  8
06
100
AcDbCircle
 10
327.5000000000001
 20
258.5035149384888
 30
0.0
 40
0.5
100
AcDbArc
 50
270.0000000000007
 51
0.0
  0
ARC
  5
3B5
330
A
100
AcDbEntity
  8
06
100
AcDbCircle
 10
327.5000000000001
 20
262.0035149384887
 30
0.0
 40
0.5
100
AcDbArc
 50
0.0000000000000241
 51
90.00000000000019
  0
LINE
  5
3B6
330
A
100
AcDbEntity
  8
06
100
AcDbLine
 10
327.6065190456156
 20
262.5035149384887
 30
0.0
 11
324.0000000000001
 21
262.5035149384887
 31
0.0
  0
LINE
  5
3B7
330
A
100
AcDbEntity
  8
06
100
AcDbLine
 10
324.0000000000001
 20
262.5035149384887
 30
0.0
 11
324.0000000000001
 21
264.5035149384888
 31
0.0
  0
LINE
  5
3B8
330
A
100
AcDbEntity
  8
06
100
AcDbLine
 10
324.5
 20
265.0035149384887
 30
0.0
 11
330.0764364558086
 21
265.0035149384887
 31
0.0
  0
ARC
  5
3B9
330
A
100
AcDbEntity
  8
06
100
AcDbCircle
 10
324.5
 20
264.5035149384887
 30
0.0
 40
0.5
100
AcDbArc
 50
90.00000000000019
 51
179.999999999999
  0
LINE
  5
3BA
330
A
100
AcDbEntity
  8
06
100
AcDbLine
 10
344.0000000000001
 20
256.0035149384888
 30
0.0
 11
344.0000000000001
 21
258.0035149384887
 31
0.0
  0
LINE
  5
3BB
330
A
100
AcDbEntity
  8
06
100
AcDbLine
 10
325.0000000000001
 20
256.0035149384887
 30
0.0
 11
344.0000000000001
 21
256.0035149384888
 31
0.0
  0
LINE
  5
3BC
330
A
100
AcDbEntity
  8
06
100
AcDbLine
 10
344.0000000000001
 20
258.0035149384888
 30
0.0
 11
341.5000000000001
 21
258.0035149384888
 31
0.0
  0
LINE
  5
3BD
330
A
100
AcDbEntity
  8
06
100
AcDbLine
 10
341.0000000000001
 20
262.0035149384887
 30
0.0
 11
341.0000000000001
 21
258.5035149384888
 31
0.0
  0
ARC
  5
3BE
330
A
100
AcDbEntity
  8
06
100
AcDbCircle
 10
341.5000000000001
 20
258.5035149384888
 30
0.0
 40
0.5
100
AcDbArc
 50
180.0000000000001
 51
269.9999999999999
  0
LINE
  5
3BF
330
A
100
AcDbEntity
  8
06
100
AcDbLine
 10
345.0000000000001
 20
262.5035149384887
 30
0.0
 11
341.5000000000001
 21
262.5035149384887
 31
0.0
  0
ARC
  5
3C0
330
A
100
AcDbEntity
  8
06
100
AcDbCircle
 10
341.5000000000001
 20
262.0035149384887
 30
0.0
 40
0.5
100
AcDbArc
 50
90.00000000000019
 51
179.9999999999999
  0
LINE
  5
3C1
330
A
100
AcDbEntity
  8
06
100
AcDbLine
 10
345.0000000000001
 20
262.5035149384888
 30
0.0
 11
345.0000000000001
 21
264.5035149384888
 31
0.0
  0
ARC
  5
3C2
330
A
100
AcDbEntity
  8
06
100
AcDbCircle
 10
344.5000000000001
 20
264.5035149384888
 30
0.0
 40
0.5
100
AcDbArc
 50
359.9999999999983
 51
90.00000000000019
  0
LINE
  5
3C3
330
A
100
AcDbEntity
  8
06
100
AcDbLine
 10
339.5000000000001
 20
264.5035149384888
 30
0.0
 11
339.5000000000001
 21
260.0035149384887
 31
0.0
  0
ARC
  5
3C4
330
A
100
AcDbEntity
  8
06
100
AcDbCircle
 10
340.0000000000001
 20
264.5035149384888
 30
0.0
 40
0.5
100
AcDbArc
 50
90.00000000000019
 51
180.0000000000001
  0
LINE
  5
3C5
330
A
100
AcDbEntity
  8
06
100
AcDbLine
 10
334.8880136182171
 20
259.0035149384888
 30
0.0
 11
338.5000000000001
 21
259.0035149384886
 31
0.0
  0
ARC
  5
3C6
330
A
100
AcDbEntity
  8
06
100
AcDbCircle
 10
338.5000000000001
 20
260.0035149384887
 30
0.0
 40
1.0
100
AcDbArc
 50
269.999999999999
 51
0.0
  0
LINE
  5
3C7
330
A
100
AcDbEntity
  8
06
100
AcDbLine
 10
331.8853453162875
 20
269.5035149384888
 30
0.0
 11
332.0839897863373
 21
269.5035149384889
 31
0.0
  0
LINE
  5
3C8
330
A
100
AcDbEntity
  8
06
100
AcDbLine
 10
330.5696334177246
 20
265.421315444836
 30
0.0
 11
331.1455498734134
 21
268.8768141789679
 31
0.0
  0
ARC
  5
3C9
330
A
100
AcDbEntity
  8
06
100
AcDbCircle
 10
331.8853453162875
 20
268.7535149384888
 30
0.0
 40
0.75
100
AcDbArc
 50
90.00000000000019
 51
170.5376777919743
  0
ARC
  5
3CA
330
A
100
AcDbEntity
  8
06
100
AcDbCircle
 10
330.0764364558086
 20
265.5035149384886
 30
0.0
 40
0.5
100
AcDbArc
 50
269.9999999999999
 51
350.5376777919749
  0
LINE
  5
3CB
330
A
100
AcDbEntity
  8
06
100
AcDbLine
 10
332.8287309919836
 20
268.8421746058275
 30
0.0
 11
333.8950253440222
 21
259.8853020487037
 31
0.0
  0
ARC
  5
3CC
330
A
100
AcDbEntity
  8
06
100
AcDbCircle
 10
334.8880136182171
 20
260.0035149384888
 30
0.0
 40
1.0
100
AcDbArc
 50
186.7889745744388
 51
269.9999999999999
  0
ARC
  5
3CD
330
A
100
AcDbEntity
  8
06
100
AcDbCircle
 10
332.0839897863373
 20
268.7535149384889
 30
0.0
 40
0.75
100
AcDbArc
 50
6.788974574438784
 51
97.61001495472534
  0
LINE
  5
3CE
330
A
100
AcDbEntity
  8
06
100
AcDbLine
 10
344.0459770114943
 20
272.0035149384887
 30
0.0
 11
344.0459770114942
 21
274.0035149384886
 31
0.0
  0
LINE
  5
3CF
330
A
100
AcDbEntity
  8
06
100
AcDbLine
 10
344.0459770114943
 20
272.0035149384887
 30
0.0
 11
341.5459770114943
 21
272.0035149384887
 31
0.0
  0
LINE
  5
3D0
330
A
100
AcDbEntity
  8
06
100
AcDbLine
 10
341.0459770114943
 20
268.0035149384887
 30
0.0
 11
341.0459770114943
 21
271.5035149384886
 31
0.0
  0
ARC
  5
3D1
330
A
100
AcDbEntity
  8
06
100
AcDbCircle
 10
341.5459770114943
 20
271.5035149384886
 30
0.0
 40
0.5
100
AcDbArc
 50
90.00000000000019
 51
180.0
  0
ARC
  5
3D2
330
A
100
AcDbEntity
  8
06
100
AcDbCircle
 10
341.5459770114943
 20
268.0035149384887
 30
0.0
 40
0.5
100
AcDbArc
 50
180.0000000000009
 51
269.9999999999999
  0
LINE
  5
3D3
330
A
100
AcDbEntity
  8
06
100
AcDbLine
 10
341.5459770114943
 20
267.5035149384886
 30
0.0
 11
345.0459770114945
 21
267.5035149384886
 31
0.0
  0
LINE
  5
3D4
330
A
100
AcDbEntity
  8
06
100
AcDbLine
 10
345.0459770114945
 20
267.5035149384886
 30
0.0
 11
345.0459770114942
 21
265.5035149384886
 31
0.0
  0
LINE
  5
3D5
330
A
100
AcDbEntity
  8
06
100
AcDbLine
 10
344.5459770114942
 20
265.0035149384887
 30
0.0
 11
338.9695405556859
 21
265.0035149384888
 31
0.0
  0
ARC
  5
3D6
330
A
100
AcDbEntity
  8
06
100
AcDbCircle
 10
344.5459770114942
 20
265.5035149384886
 30
0.0
 40
0.5
100
AcDbArc
 50
269.9999999999999
 51
359.9999999999987
  0
LINE
  5
3D7
330
A
100
AcDbEntity
  8
06
100
AcDbLine
 10
325.0459770114943
 20
274.0035149384886
 30
0.0
 11
325.0459770114943
 21
272.0035149384887
 31
0.0
  0
LINE
  5
3D8
330
A
100
AcDbEntity
  8
06
100
AcDbLine
 10
344.0459770114943
 20
274.0035149384886
 30
0.0
 11
325.0459770114943
 21
274.0035149384886
 31
0.0
  0
LINE
  5
3D9
330
A
100
AcDbEntity
  8
06
100
AcDbLine
 10
325.0459770114943
 20
272.0035149384887
 30
0.0
 11
327.5459770114943
 21
272.0035149384887
 31
0.0
  0
LINE
  5
3DA
330
A
100
AcDbEntity
  8
06
100
AcDbLine
 10
328.0459770114943
 20
268.0035149384887
 30
0.0
 11
328.0459770114943
 21
271.5035149384886
 31
0.0
  0
ARC
  5
3DB
330
A
100
AcDbEntity
  8
06
100
AcDbCircle
 10
327.5459770114943
 20
271.5035149384886
 30
0.0
 40
0.5
100
AcDbArc
 50
0.0000000000000241
 51
90.00000000000012
  0
LINE
  5
3DC
330
A
100
AcDbEntity
  8
06
100
AcDbLine
 10
324.0459770114943
 20
267.5035149384886
 30
0.0
 11
327.5459770114943
 21
267.5035149384886
 31
0.0
  0
ARC
  5
3DD
330
A
100
AcDbEntity
  8
06
100
AcDbCircle
 10
327.5459770114943
 20
268.0035149384887
 30
0.0
 40
0.5
100
AcDbArc
 50
269.9999999999999
 51
0.0
  0
LINE
  5
3DE
330
A
100
AcDbEntity
  8
06
100
AcDbLine
 10
324.0459770114943
 20
267.5035149384886
 30
0.0
 11
324.0459770114942
 21
265.5035149384886
 31
0.0
  0
ARC
  5
3DF
330
A
100
AcDbEntity
  8
06
100
AcDbCircle
 10
324.5459770114943
 20
265.5035149384886
 30
0.0
 40
0.5
100
AcDbArc
 50
179.999999999998
 51
269.9999999999999
  0
LINE
  5
3E0
330
A
100
AcDbEntity
  8
06
100
AcDbLine
 10
329.5459770114943
 20
265.5035149384886
 30
0.0
 11
329.5459770114943
 21
270.0035149384888
 31
0.0
  0
ARC
  5
3E1
330
A
100
AcDbEntity
  8
06
100
AcDbCircle
 10
329.0459770114943
 20
265.5035149384886
 30
0.0
 40
0.5
100
AcDbArc
 50
269.9999999999999
 51
0.0
  0
LINE
  5
3E2
330
A
100
AcDbEntity
  8
06
100
AcDbLine
 10
334.1579633932775
 20
271.0035149384887
 30
0.0
 11
330.5459770114943
 21
271.0035149384888
 31
0.0
  0
ARC
  5
3E3
330
A
100
AcDbEntity
  8
06
100
AcDbCircle
 10
330.5459770114943
 20
270.0035149384888
 30
0.0
 40
1.0
100
AcDbArc
 50
89.99999999999873
 51
180.0
  0
LINE
  5
3E4
330
A
100
AcDbEntity
  8
06
100
AcDbLine
 10
337.1606316952068
 20
260.5035149384883
 30
0.0
 11
336.9619872251571
 21
260.5035149384883
 31
0.0
  0
LINE
  5
3E5
330
A
100
AcDbEntity
  8
06
100
AcDbLine
 10
338.4763435937697
 20
264.5857144321414
 30
0.0
 11
337.9004271380811
 21
261.1302156980094
 31
0.0
  0
ARC
  5
3E6
330
A
100
AcDbEntity
  8
06
100
AcDbCircle
 10
337.1606316952068
 20
261.2535149384886
 30
0.0
 40
0.75
100
AcDbArc
 50
269.9999999999999
 51
350.5376777919744
  0
ARC
  5
3E7
330
A
100
AcDbEntity
  8
06
100
AcDbCircle
 10
338.9695405556859
 20
264.5035149384888
 30
0.0
 40
0.5
100
AcDbArc
 50
90.00000000000019
 51
170.5376777919745
  0
LINE
  5
3E8
330
A
100
AcDbEntity
  8
06
100
AcDbLine
 10
336.2172460195107
 20
261.1648552711498
 30
0.0
 11
335.1509516674723
 21
270.1217278282738
 31
0.0
  0
ARC
  5
3E9
330
A
100
AcDbEntity
  8
06
100
AcDbCircle
 10
334.1579633932775
 20
270.0035149384887
 30
0.0
 40
1.0
100
AcDbArc
 50
6.788974574438679
 51
90.00000000000012
  0
ARC
  5
3EA
330
A
100
AcDbEntity
  8
06
100
AcDbCircle
 10
336.9619872251571
 20
261.2535149384886
 30
0.0
 40
0.75
100
AcDbArc
 50
186.7889745744388
 51
277.6100149547251
  0
LINE
  5
3EB
330
A
100
AcDbEntity
  8
06
100
AcDbLine
 10
337.5000000000001
 20
248.0035149384888
 30
0.0
 11
337.5000000000003
 21
206.7552724077331
 31
0.0
  0
LINE
  5
3EC
330
A
100
AcDbEntity
  8
06
100
AcDbLine
 10
331.5000000000001
 20
248.0035149384887
 30
0.0
 11
331.5000000000003
 21
206.7552724077331
 31
0.0
  0
LINE
  5
3ED
330
A
100
AcDbEntity
  8
06
100
AcDbLine
 10
332.0000000000001
 20
248.0035149384888
 30
0.0
 11
332.0000000000001
 21
206.7552724077331
 31
0.0
  0
LINE
  5
3EE
330
A
100
AcDbEntity
  8
06
100
AcDbLine
 10
337.0
 20
248.0035149384888
 30
0.0
 11
337.0
 21
206.7552724077331
 31
0.0
  0
LINE
  5
3EF
330
A
100
AcDbEntity
  8
06
100
AcDbLine
 10
331.5000000000001
 20
282.0035149384884
 30
0.0
 11
337.5000000000001
 21
282.0035149384884
 31
0.0
  0
LINE
  5
3F0
330
A
100
AcDbEntity
  8
06
100
AcDbLine
 10
337.5000000000001
 20
282.0035149384887
 30
0.0
 11
337.5
 21
323.2517574692444
 31
0.0
  0
LINE
  5
3F1
330
A
100
AcDbEntity
  8
06
100
AcDbLine
 10
337.0
 20
323.2517574692444
 30
0.0
 11
337.0
 21
282.0035149384887
 31
0.0
  0
LINE
  5
3F2
330
A
100
AcDbEntity
  8
06
100
AcDbLine
 10
332.0000000000001
 20
282.0035149384887
 30
0.0
 11
332.0
 21
323.2517574692443
 31
0.0
  0
LINE
  5
3F3
330
A
100
AcDbEntity
  8
06
100
AcDbLine
 10
331.4999999999999
 20
323.2517574692443
 30
0.0
 11
331.5000000000001
 21
282.0035149384887
 31
0.0
  0
LINE
  5
3F4
330
A
100
AcDbEntity
  8
06
100
AcDbLine
 10
319.0367758040171
 20
291.9667391344715
 30
0.0
 11
320.0000000000001
 21
291.0035149384887
 31
0.0
  0
LINE
  5
3F5
330
A
100
AcDbEntity
  8
06
100
AcDbLine
 10
319.0011520748039
 20
268.0046670132923
 30
0.0
 11
320.0000000000001
 21
269.0035149384887
 31
0.0
  0
LINE
  5
3F6
330
A
100
AcDbEntity
  8
06
100
AcDbLine
 10
318.9652732069748
 20
262.0382417315139
 30
0.0
 11
320.0000000000001
 21
261.0035149384887
 31
0.0
  0
LINE
  5
3F7
330
A
100
AcDbEntity
  8
06
100
AcDbLine
 10
318.9652732069748
 20
237.9687881454634
 30
0.0
 11
320.0000000000001
 21
239.0035149384887
 31
0.0
  0
LINE
  5
3F8
330
A
100
AcDbEntity
  8
06
100
AcDbLine
 10
349.9988479251963
 20
262.0023628636849
 30
0.0
 11
349.0000000000001
 21
261.0035149384888
 31
0.0
  0
LINE
  5
3F9
330
A
100
AcDbEntity
  8
06
100
AcDbLine
 10
349.9988479251965
 20
238.0046670132925
 30
0.0
 11
349.0000000000001
 21
239.0035149384887
 31
0.0
  0
LINE
  5
3FA
330
A
100
AcDbEntity
  8
06
100
AcDbLine
 10
350.0347267930255
 20
267.9687881454634
 30
0.0
 11
349.0000000000001
 21
269.0035149384888
 31
0.0
  0
LINE
  5
3FB
330
A
100
AcDbEntity
  8
06
100
AcDbLine
 10
350.0347267930253
 20
292.0382417315142
 30
0.0
 11
349.0000000000001
 21
291.0035149384888
 31
0.0
  0
ARC
  5
450
330
A
100
AcDbEntity
  8
06
100
AcDbCircle
 10
330.5000000000001
 20
234.6750878137425
 30
0.0
 40
3.0
100
AcDbArc
 50
70.52877936550792
 51
109.4712206344891
  0
ARC
  5
451
330
A
100
AcDbEntity
  8
06
100
AcDbCircle
 10
338.5000000000001
 20
234.6750878137425
 30
0.0
 40
3.0
100
AcDbArc
 50
70.5287793655075
 51
109.4712206344895
  0
ARC
  5
452
330
A
100
AcDbEntity
  8
06
100
AcDbCircle
 10
330.5
 20
295.3319420632348
 30
0.0
 40
3.0
100
AcDbArc
 50
250.5287793655109
 51
289.4712206344919
  0
ARC
  5
453
330
A
100
AcDbEntity
  8
06
100
AcDbCircle
 10
338.5
 20
295.3319420632348
 30
0.0
 40
3.0
100
AcDbArc
 50
250.5287793655104
 51
289.4712206344923
  0
LINE
  5
47A
330
A
100
AcDbEntity
  8
06
100
AcDbLine
 10
331.5000000000003
 20
162.0070298769777
 30
0.0
 11
331.5000000000003
 21
201.7552724077332
 31
0.0
  0
LINE
  5
47B
330
A
100
AcDbEntity
  8
06
100
AcDbLine
 10
337.5000000000003
 20
162.0070298769777
 30
0.0
 11
337.5000000000003
 21
201.7552724077332
 31
0.0
  0
LINE
  5
47C
330
A
100
AcDbEntity
  8
06
100
AcDbLine
 10
321.5000000000001
 20
154.5070298769777
 30
0.0
 11
323.8000000000005
 21
154.5070298769777
 31
0.0
  0
LINE
  5
47D
330
A
100
AcDbEntity
  8
06
100
AcDbLine
 10
323.8000000000005
 20
154.5070298769777
 30
0.0
 11
323.8000000000005
 21
161.5070298769775
 31
0.0
  0
LINE
  5
47E
330
A
100
AcDbEntity
  8
06
100
AcDbLine
 10
323.8000000000005
 20
161.5070298769775
 30
0.0
 11
321.5000000000001
 21
161.5070298769775
 31
0.0
  0
LINE
  5
47F
330
A
100
AcDbEntity
  8
06
100
AcDbLine
 10
321.5000000000001
 20
161.5070298769775
 30
0.0
 11
321.5000000000001
 21
160.6922081268014
 31
0.0
  0
LINE
  5
480
330
A
100
AcDbEntity
  8
06
100
AcDbLine
 10
318.5000000000004
 20
160.2570298769775
 30
0.0
 11
321.0000000000003
 21
160.2570298769775
 31
0.0
  0
ARC
  5
481
330
A
100
AcDbEntity
  8
06
100
AcDbCircle
 10
321.0000000000003
 20
160.7570298769777
 30
0.0
 40
0.5
100
AcDbArc
 50
269.9999999999999
 51
0.0000000000047962
  0
LINE
  5
482
330
A
100
AcDbEntity
  8
06
100
AcDbLine
 10
321.5000000000001
 20
154.5070298769777
 30
0.0
 11
321.5000000000001
 21
155.2570298769775
 31
0.0
  0
LINE
  5
483
330
A
100
AcDbEntity
  8
06
100
AcDbLine
 10
318.5000000000004
 20
155.7570298769775
 30
0.0
 11
321.0000000000003
 21
155.7570298769777
 31
0.0
  0
ARC
  5
484
330
A
100
AcDbEntity
  8
06
100
AcDbCircle
 10
321.0000000000003
 20
155.2570298769775
 30
0.0
 40
0.5
100
AcDbArc
 50
359.9999999999959
 51
90.00000000000019
  0
LINE
  5
485
330
A
100
AcDbEntity
  8
06
100
AcDbLine
 10
337.1414473537483
 20
162.0070298769778
 30
0.0
 11
337.141447353748
 21
201.7552724077332
 31
0.0
  0
LINE
  5
486
330
A
100
AcDbEntity
  8
06
100
AcDbLine
 10
318.9425466678498
 20
170.5644832091281
 30
0.0
 11
320.0000000000004
 21
169.5070298769777
 31
0.0
  0
LINE
  5
487
330
A
100
AcDbEntity
  8
06
100
AcDbLine
 10
319.0067288904665
 20
146.5137587674437
 30
0.0
 11
320.0000000000004
 21
147.5070298769777
 31
0.0
  0
LINE
  5
488
330
A
100
AcDbEntity
  8
06
100
AcDbLine
 10
349.9611799982261
 20
146.5458498787521
 30
0.0
 11
349.0000000000004
 21
147.5070298769777
 31
0.0
  0
LINE
  5
489
330
A
100
AcDbEntity
  8
06
100
AcDbLine
 10
349.9932711095343
 20
170.5003009865118
 30
0.0
 11
349.0000000000004
 21
169.5070298769777
 31
0.0
  0
ARC
  5
49D
330
A
100
AcDbEntity
  8
06
100
AcDbCircle
 10
330.5000000000004
 20
173.835457001724
 30
0.0
 40
3.0
100
AcDbArc
 50
250.5287793655092
 51
289.4712206344907
  0
ARC
  5
49E
330
A
100
AcDbEntity
  8
06
100
AcDbCircle
 10
338.5000000000004
 20
173.8354570017239
 30
0.0
 40
3.0
100
AcDbArc
 50
250.528779365509
 51
289.4712206344903
  0
LINE
  5
49F
330
A
100
AcDbEntity
  8
06
100
AcDbLine
 10
331.5000000000003
 20
162.0070298769777
 30
0.0
 11
337.5000000000003
 21
162.0070298769777
 31
0.0
  0
LINE
  5
4B3
330
A
100
AcDbEntity
  8
06
100
AcDbLine
 10
332.0000000000001
 20
162.0070298769778
 30
0.0
 11
332.0000000000001
 21
201.7552724077332
 31
0.0
  0
LINE
  5
4B4
330
A
100
AcDbEntity
  8
06
100
AcDbLine
 10
315.5
 20
373.0117766566702
 30
0.0
 11
315.5
 21
371.0117766566702
 31
0.0
  0
LINE
  5
4B5
330
A
100
AcDbEntity
  8
06
100
AcDbLine
 10
313.5
 20
372.0043721133656
 30
0.0
 11
313.5
 21
372.0191811999752
 31
0.0
  0
LINE
  5
4B6
330
A
100
AcDbEntity
  8
06
100
AcDbLine
 10
315.5
 20
373.0117766566702
 30
0.0
 11
313.8508625034318
 21
372.4964211889928
 31
0.0
  0
ARC
  5
4B7
330
A
100
AcDbEntity
  8
06
100
AcDbCircle
 10
314.0
 20
372.0191811999752
 30
0.0
 40
0.5
100
AcDbArc
 50
107.3540246362629
 51
179.9999999999765
  0
LINE
  5
4B8
330
A
100
AcDbEntity
  8
06
100
AcDbLine
 10
315.5
 20
371.0117766566702
 30
0.0
 11
313.8508625034318
 21
371.5271321243478
 31
0.0
  0
ARC
  5
4B9
330
A
100
AcDbEntity
  8
06
100
AcDbCircle
 10
314.0
 20
372.0043721133653
 30
0.0
 40
0.5
100
AcDbArc
 50
179.9999999999789
 51
252.6459753637345
  0
LINE
  5
4BA
330
A
100
AcDbEntity
  8
06
100
AcDbLine
 10
314.0
 20
372.5430266566701
 30
0.0
 11
314.0
 21
371.4805266566707
 31
0.0
  0
ARC
  5
4BB
330
A
100
AcDbEntity
  8
06
100
AcDbCircle
 10
313.1201478363649
 20
364.5243717413661
 30
0.0
 40
7.5
100
AcDbArc
 50
44.16686885306776
 51
71.49945832719547
  0
ARC
  5
4BC
330
A
100
AcDbEntity
  8
06
100
AcDbCircle
 10
313.1542389373721
 20
379.5104979480363
 30
0.0
 40
7.5
100
AcDbArc
 50
288.2261310017247
 51
315.4605876000506
  0
LINE
  5
4C0
330
A
100
AcDbEntity
  8
06
100
AcDbLine
 10
313.5000000000004
 20
158.002657763612
 30
0.0
 11
313.5000000000004
 21
157.987848677002
 31
0.0
  0
LINE
  5
4C1
330
A
100
AcDbEntity
  8
06
100
AcDbLine
 10
315.5000000000004
 20
156.9952532203074
 30
0.0
 11
315.5000000000004
 21
158.9952532203074
 31
0.0
  0
LINE
  5
4C2
330
A
100
AcDbEntity
  8
06
100
AcDbLine
 10
313.5000000000004
 20
158.002657763612
 30
0.0
 11
313.5000000000004
 21
157.987848677002
 31
0.0
  0
LINE
  5
4C3
330
A
100
AcDbEntity
  8
06
100
AcDbLine
 10
315.5000000000004
 20
156.9952532203074
 30
0.0
 11
313.8508625034323
 21
157.5106086879848
 31
0.0
  0
ARC
  5
4C4
330
A
100
AcDbEntity
  8
06
100
AcDbCircle
 10
314.0000000000004
 20
157.9878486770024
 30
0.0
 40
0.5
100
AcDbArc
 50
180.0000000000235
 51
252.6459753637372
  0
LINE
  5
4C5
330
A
100
AcDbEntity
  8
06
100
AcDbLine
 10
315.5000000000004
 20
158.9952532203074
 30
0.0
 11
313.8508625034323
 21
158.4798977526298
 31
0.0
  0
ARC
  5
4C6
330
A
100
AcDbEntity
  8
06
100
AcDbCircle
 10
314.0000000000004
 20
158.0026577636122
 30
0.0
 40
0.5
100
AcDbArc
 50
107.3540246362652
 51
180.0000000000211
  0
LINE
  5
4C7
330
A
100
AcDbEntity
  8
06
100
AcDbLine
 10
314.0000000000004
 20
157.4640032203074
 30
0.0
 11
314.0000000000004
 21
158.526503220307
 31
0.0
  0
ARC
  5
4C8
330
A
100
AcDbEntity
  8
06
100
AcDbCircle
 10
313.1201478363653
 20
165.4826581356115
 30
0.0
 40
7.5
100
AcDbArc
 50
288.5005416728045
 51
315.8331311469321
  0
ARC
  5
4C9
330
A
100
AcDbEntity
  8
06
100
AcDbCircle
 10
313.1542389373726
 20
150.4965319289413
 30
0.0
 40
7.5
100
AcDbArc
 50
44.53941239994928
 51
71.77386899827522
  0
LINE
  5
4CD
330
A
100
AcDbEntity
  8
06
100
AcDbLine
 10
313.5000000000004
 20
158.002657763612
 30
0.0
 11
313.5000000000004
 21
157.987848677002
 31
0.0
  0
LINE
  5
4CE
330
A
100
AcDbEntity
  8
SAISEN
100
AcDbLine
 10
287.5000000000003
 20
75.44991212653775
 30
0.0
 11
287.5000000000003
 21
85.44991212653775
 31
0.0
  0
LINE
  5
4CF
330
A
100
AcDbEntity
  8
SAISEN
100
AcDbLine
 10
307.5000000000004
 20
75.44991212653775
 30
0.0
 11
307.5000000000004
 21
65.44991212653775
 31
0.0
  0
LINE
  5
4D0
330
A
100
AcDbEntity
  8
SAISEN
100
AcDbLine
 10
287.5000000000003
 20
85.44991212653775
 30
0.0
 11
307.5000000000004
 21
65.44991212653775
 31
0.0
  0
LINE
  5
4D1
330
A
100
AcDbEntity
  8
SAISEN
100
AcDbLine
 10
194.5105448154657
 20
75.44991212653775
 30
0.0
 11
287.5000000000003
 21
75.44991212653775
 31
0.0
  0
LINE
  5
4D2
330
A
100
AcDbEntity
  8
SAISEN
100
AcDbLine
 10
307.5000000000004
 20
75.44991212653775
 30
0.0
 11
362.805799648506
 21
75.44991212653775
 31
0.0
  0
LINE
  5
4DC
330
A
100
AcDbEntity
  8
03
100
AcDbLine
 10
259.5
 20
402.0
 30
0.0
 11
259.5
 21
541.0
 31
0.0
  0
LINE
  5
4DD
330
A
100
AcDbEntity
  8
03
100
AcDbLine
 10
267.5
 20
541.0
 30
0.0
 11
267.5
 21
402.0
 31
0.0
  0
LINE
  5
4DE
330
A
100
AcDbEntity
  8
03
100
AcDbLine
 10
267.5
 20
402.0
 30
0.0
 11
259.5
 21
402.0
 31
0.0
  0
LINE
  5
4DF
330
A
100
AcDbEntity
  8
03
100
AcDbLine
 10
259.5
 20
541.0
 30
0.0
 11
267.5
 21
541.0
 31
0.0
  0
LINE
  5
4E0
330
A
100
AcDbEntity
  8
04
100
AcDbLine
 10
298.4999999999999
 20
357.0
 30
0.0
 11
300.0
 21
358.0
 31
0.0
  0
LINE
  5
4E1
330
A
100
AcDbEntity
  8
04
100
AcDbLine
 10
286.5
 20
357.0
 30
0.0
 11
285.0
 21
358.0
 31
0.0
  0
LINE
  5
4E2
330
A
100
AcDbEntity
  8
04
100
AcDbLine
 10
286.5
 20
373.0
 30
0.0
 11
298.4999999999999
 21
373.0
 31
0.0
  0
LINE
  5
4E3
330
A
100
AcDbEntity
  8
04
100
AcDbLine
 10
300.0
 20
359.0
 30
0.0
 11
300.0
 21
358.0
 31
0.0
  0
LINE
  5
4E4
330
A
100
AcDbEntity
  8
04
100
AcDbLine
 10
298.4999999999999
 20
357.0
 30
0.0
 11
286.5
 21
357.0
 31
0.0
  0
LINE
  5
4E5
330
A
100
AcDbEntity
  8
04
100
AcDbLine
 10
285.0
 20
358.0
 30
0.0
 11
285.0
 21
359.0
 31
0.0
  0
LINE
  5
4E6
330
A
100
AcDbEntity
  8
04
100
AcDbLine
 10
300.0
 20
359.0
 30
0.0
 11
285.0
 21
359.0
 31
0.0
  0
LINE
  5
4E8
330
A
100
AcDbEntity
  8
04
100
AcDbLine
 10
298.4999999999999
 20
373.0
 30
0.0
 11
298.4999999999999
 21
366.0
 31
0.0
  0
LINE
  5
4E9
330
A
100
AcDbEntity
  8
04
100
AcDbLine
 10
286.5
 20
366.0
 30
0.0
 11
286.5
 21
373.0
 31
0.0
  0
LINE
  5
4EA
330
A
100
AcDbEntity
  8
04
100
AcDbLine
 10
300.0
 20
360.0
 30
0.0
 11
300.0
 21
362.5
 31
0.0
  0
LINE
  5
4F0
330
A
100
AcDbEntity
  8
04
100
AcDbLine
 10
298.4999999999999
 20
366.0
 30
0.0
 11
300.0
 21
362.5
 31
0.0
  0
LINE
  5
4F6
330
A
100
AcDbEntity
  8
04
100
AcDbLine
 10
285.0
 20
360.0
 30
0.0
 11
285.0
 21
362.5
 31
0.0
  0
LINE
  5
4F9
330
A
100
AcDbEntity
  8
04
100
AcDbLine
 10
286.5
 20
366.0
 30
0.0
 11
285.0
 21
362.5
 31
0.0
  0
LINE
  5
4FC
330
A
100
AcDbEntity
  8
04
100
AcDbLine
 10
297.5
 20
359.0
 30
0.0
 11
297.5
 21
364.0
 31
0.0
  0
LINE
  5
4FD
330
A
100
AcDbEntity
  8
04
100
AcDbLine
 10
287.5
 20
359.0
 30
0.0
 11
287.5
 21
364.0
 31
0.0
  0
LINE
  5
4FE
330
A
100
AcDbEntity
  8
04
100
AcDbLine
 10
297.5
 20
364.0
 30
0.0
 11
300.0
 21
360.0
 31
0.0
  0
LINE
  5
4FF
330
A
100
AcDbEntity
  8
04
100
AcDbLine
 10
287.5
 20
364.0
 30
0.0
 11
285.0
 21
360.0
 31
0.0
  0
LINE
  5
500
330
A
100
AcDbEntity
  8
04
100
AcDbLine
 10
293.75
 20
373.0
 30
0.0
 11
293.75
 21
379.0
 31
0.0
  0
LINE
  5
501
330
A
100
AcDbEntity
  8
04
100
AcDbLine
 10
291.25
 20
379.0
 30
0.0
 11
291.25
 21
373.0
 31
0.0
  0
LINE
  5
502
330
A
100
AcDbEntity
  8
06
100
AcDbLine
 10
329.4999999999999
 20
359.0
 30
0.0
 11
318.5
 21
359.0
 31
0.0
  0
LINE
  5
503
330
A
100
AcDbEntity
  8
06
100
AcDbLine
 10
318.5
 20
359.0
 30
0.0
 11
318.5
 21
369.5
 31
0.0
  0
LINE
  5
504
330
A
100
AcDbEntity
  8
06
100
AcDbLine
 10
318.5
 20
374.5
 30
0.0
 11
318.4999999999998
 21
384.0
 31
0.0
  0
LINE
  5
505
330
A
100
AcDbEntity
  8
06
100
AcDbLine
 10
318.4999999999998
 20
384.0
 30
0.0
 11
350.4999999999998
 21
384.0
 31
0.0
  0
LINE
  5
506
330
A
100
AcDbEntity
  8
06
100
AcDbLine
 10
350.4999999999998
 20
384.0
 30
0.0
 11
350.4999999999998
 21
359.0000000000001
 31
0.0
  0
LINE
  5
507
330
A
100
AcDbEntity
  8
06
100
AcDbLine
 10
350.4999999999998
 20
359.0000000000001
 30
0.0
 11
339.5
 21
359.0
 31
0.0
  0
LINE
  5
508
330
A
100
AcDbEntity
  8
06
100
AcDbLine
 10
329.4999999999999
 20
360.4999999999998
 30
0.0
 11
320.0
 21
360.4999999999998
 31
0.0
  0
LINE
  5
509
330
A
100
AcDbEntity
  8
06
100
AcDbLine
 10
320.0
 20
360.4999999999998
 30
0.0
 11
320.0
 21
369.5
 31
0.0
  0
LINE
  5
50A
330
A
100
AcDbEntity
  8
06
100
AcDbLine
 10
320.0
 20
374.5
 30
0.0
 11
319.9999999999998
 21
382.5
 31
0.0
  0
LINE
  5
50B
330
A
100
AcDbEntity
  8
06
100
AcDbLine
 10
319.9999999999998
 20
382.5
 30
0.0
 11
348.9999999999998
 21
382.5
 31
0.0
  0
LINE
  5
50C
330
A
100
AcDbEntity
  8
06
100
AcDbLine
 10
348.9999999999998
 20
382.5
 30
0.0
 11
349.0
 21
360.4999999999998
 31
0.0
  0
LINE
  5
50D
330
A
100
AcDbEntity
  8
06
100
AcDbLine
 10
349.0
 20
360.4999999999998
 30
0.0
 11
339.5
 21
360.4999999999998
 31
0.0
  0
LINE
  5
520
330
A
100
AcDbEntity
  8
06
100
AcDbLine
 10
318.5
 20
374.5
 30
0.0
 11
320.0
 21
374.5
 31
0.0
  0
LINE
  5
525
330
A
100
AcDbEntity
  8
06
100
AcDbLine
 10
320.0
 20
369.5
 30
0.0
 11
318.5
 21
369.5
 31
0.0
  0
LINE
  5
527
330
A
100
AcDbEntity
  8
06
100
AcDbLine
 10
318.5000000000001
 20
237.5035149384887
 30
0.0
 11
318.5000000000001
 21
262.5035149384887
 31
0.0
  0
LINE
  5
528
330
A
100
AcDbEntity
  8
06
100
AcDbLine
 10
318.5000000000001
 20
262.5035149384887
 30
0.0
 11
327.5000000000001
 21
262.5035149384887
 31
0.0
  0
LINE
  5
529
330
A
100
AcDbEntity
  8
06
100
AcDbLine
 10
327.5000000000001
 20
262.5035149384887
 30
0.0
 11
327.5000000000001
 21
261.0035149384887
 31
0.0
  0
LINE
  5
52A
330
A
100
AcDbEntity
  8
06
100
AcDbLine
 10
327.5000000000001
 20
261.0035149384887
 30
0.0
 11
320.0000000000001
 21
261.0035149384887
 31
0.0
  0
LINE
  5
52B
330
A
100
AcDbEntity
  8
06
100
AcDbLine
 10
320.0000000000001
 20
261.0035149384887
 30
0.0
 11
320.0000000000001
 21
239.0035149384887
 31
0.0
  0
LINE
  5
52C
330
A
100
AcDbEntity
  8
06
100
AcDbLine
 10
320.0000000000001
 20
239.0035149384887
 30
0.0
 11
329.5000000000003
 21
239.0035149384887
 31
0.0
  0
LINE
  5
52E
330
A
100
AcDbEntity
  8
06
100
AcDbLine
 10
329.5000000000003
 20
237.5035149384887
 30
0.0
 11
318.5000000000001
 21
237.5035149384887
 31
0.0
  0
LINE
  5
52F
330
A
100
AcDbEntity
  8
06
100
AcDbLine
 10
350.5000000000003
 20
237.5035149384887
 30
0.0
 11
350.5000000000001
 21
262.5035149384888
 31
0.0
  0
LINE
  5
530
330
A
100
AcDbEntity
  8
06
100
AcDbLine
 10
350.5000000000001
 20
262.5035149384888
 30
0.0
 11
341.5000000000001
 21
262.5035149384888
 31
0.0
  0
LINE
  5
531
330
A
100
AcDbEntity
  8
06
100
AcDbLine
 10
341.5000000000001
 20
261.0035149384888
 30
0.0
 11
349.0000000000001
 21
261.0035149384888
 31
0.0
  0
LINE
  5
532
330
A
100
AcDbEntity
  8
06
100
AcDbLine
 10
349.0000000000001
 20
261.0035149384888
 30
0.0
 11
349.0000000000001
 21
239.0035149384887
 31
0.0
  0
LINE
  5
533
330
A
100
AcDbEntity
  8
06
100
AcDbLine
 10
349.0000000000001
 20
239.0035149384887
 30
0.0
 11
339.5000000000003
 21
239.0035149384887
 31
0.0
  0
LINE
  5
534
330
A
100
AcDbEntity
  8
06
100
AcDbLine
 10
339.5000000000003
 20
237.5035149384887
 30
0.0
 11
350.5000000000003
 21
237.5035149384887
 31
0.0
  0
LINE
  5
549
330
A
100
AcDbEntity
  8
06
100
AcDbLine
 10
341.5000000000001
 20
267.5035149384888
 30
0.0
 11
350.5000000000001
 21
267.5035149384888
 31
0.0
  0
LINE
  5
54A
330
A
100
AcDbEntity
  8
06
100
AcDbLine
 10
350.5000000000001
 20
267.5035149384888
 30
0.0
 11
350.5000000000001
 21
292.5035149384888
 31
0.0
  0
LINE
  5
54B
330
A
100
AcDbEntity
  8
06
100
AcDbLine
 10
350.5000000000001
 20
292.5035149384888
 30
0.0
 11
339.5000000000001
 21
292.5035149384888
 31
0.0
  0
LINE
  5
54C
330
A
100
AcDbEntity
  8
06
100
AcDbLine
 10
329.5000000000001
 20
292.5035149384886
 30
0.0
 11
318.5000000000001
 21
292.5035149384886
 31
0.0
  0
LINE
  5
54D
330
A
100
AcDbEntity
  8
06
100
AcDbLine
 10
318.5000000000001
 20
292.5035149384886
 30
0.0
 11
318.5000000000001
 21
267.5035149384886
 31
0.0
  0
LINE
  5
54E
330
A
100
AcDbEntity
  8
06
100
AcDbLine
 10
318.5000000000001
 20
267.5035149384886
 30
0.0
 11
327.5000000000001
 21
267.5035149384886
 31
0.0
  0
LINE
  5
54F
330
A
100
AcDbEntity
  8
06
100
AcDbLine
 10
327.5000000000001
 20
267.5035149384886
 30
0.0
 11
327.5000000000001
 21
269.0035149384887
 31
0.0
  0
LINE
  5
550
330
A
100
AcDbEntity
  8
06
100
AcDbLine
 10
327.5000000000001
 20
269.0035149384887
 30
0.0
 11
320.0000000000001
 21
269.0035149384887
 31
0.0
  0
LINE
  5
551
330
A
100
AcDbEntity
  8
06
100
AcDbLine
 10
320.0000000000001
 20
269.0035149384887
 30
0.0
 11
320.0000000000001
 21
291.0035149384887
 31
0.0
  0
LINE
  5
552
330
A
100
AcDbEntity
  8
06
100
AcDbLine
 10
320.0000000000001
 20
291.0035149384887
 30
0.0
 11
329.5000000000001
 21
291.0035149384887
 31
0.0
  0
LINE
  5
553
330
A
100
AcDbEntity
  8
06
100
AcDbLine
 10
339.5000000000001
 20
291.0035149384888
 30
0.0
 11
349.0000000000001
 21
291.0035149384888
 31
0.0
  0
LINE
  5
554
330
A
100
AcDbEntity
  8
06
100
AcDbLine
 10
349.0000000000001
 20
291.0035149384888
 30
0.0
 11
349.0000000000001
 21
269.0035149384888
 31
0.0
  0
LINE
  5
555
330
A
100
AcDbEntity
  8
06
100
AcDbLine
 10
349.0000000000001
 20
269.0035149384888
 30
0.0
 11
341.5000000000001
 21
269.0035149384888
 31
0.0
  0
LINE
  5
556
330
A
100
AcDbEntity
  8
06
100
AcDbLine
 10
341.5000000000001
 20
269.0035149384888
 30
0.0
 11
341.5000000000001
 21
267.5035149384888
 31
0.0
  0
LINE
  5
577
330
A
100
AcDbEntity
  8
06
100
AcDbLine
 10
329.5000000000003
 20
171.0070298769778
 30
0.0
 11
318.5000000000004
 21
171.0070298769775
 31
0.0
  0
LINE
  5
578
330
A
100
AcDbEntity
  8
06
100
AcDbLine
 10
318.5000000000004
 20
171.0070298769775
 30
0.0
 11
318.5000000000004
 21
160.5070298769774
 31
0.0
  0
LINE
  5
579
330
A
100
AcDbEntity
  8
06
100
AcDbLine
 10
318.5000000000004
 20
155.5070298769775
 30
0.0
 11
318.5000000000004
 21
146.0070298769774
 31
0.0
  0
LINE
  5
57A
330
A
100
AcDbEntity
  8
06
100
AcDbLine
 10
318.5000000000004
 20
146.0070298769774
 30
0.0
 11
350.5000000000003
 21
146.0070298769775
 31
0.0
  0
LINE
  5
57B
330
A
100
AcDbEntity
  8
06
100
AcDbLine
 10
350.5000000000003
 20
146.0070298769775
 30
0.0
 11
350.5000000000003
 21
171.0070298769778
 31
0.0
  0
LINE
  5
57C
330
A
100
AcDbEntity
  8
06
100
AcDbLine
 10
350.5000000000003
 20
171.0070298769778
 30
0.0
 11
339.5000000000004
 21
171.0070298769775
 31
0.0
  0
LINE
  5
57D
330
A
100
AcDbEntity
  8
06
100
AcDbLine
 10
329.5000000000003
 20
169.5070298769777
 30
0.0
 11
320.0000000000004
 21
169.5070298769777
 31
0.0
  0
LINE
  5
57E
330
A
100
AcDbEntity
  8
06
100
AcDbLine
 10
320.0000000000004
 20
169.5070298769777
 30
0.0
 11
320.0000000000004
 21
160.5070298769775
 31
0.0
  0
LINE
  5
57F
330
A
100
AcDbEntity
  8
06
100
AcDbLine
 10
320.0000000000004
 20
155.5070298769777
 30
0.0
 11
320.0000000000004
 21
147.5070298769777
 31
0.0
  0
LINE
  5
580
330
A
100
AcDbEntity
  8
06
100
AcDbLine
 10
320.0000000000004
 20
147.5070298769777
 30
0.0
 11
349.0000000000004
 21
147.5070298769777
 31
0.0
  0
LINE
  5
581
330
A
100
AcDbEntity
  8
06
100
AcDbLine
 10
349.0000000000004
 20
147.5070298769777
 30
0.0
 11
349.0000000000004
 21
169.5070298769777
 31
0.0
  0
LINE
  5
582
330
A
100
AcDbEntity
  8
06
100
AcDbLine
 10
349.0000000000004
 20
169.5070298769777
 30
0.0
 11
339.5000000000004
 21
169.5070298769777
 31
0.0
  0
LINE
  5
595
330
A
100
AcDbEntity
  8
06
100
AcDbLine
 10
318.5000000000004
 20
155.5070298769775
 30
0.0
 11
321.5000000000001
 21
155.5070298769777
 31
0.0
  0
LINE
  5
596
330
A
100
AcDbEntity
  8
06
100
AcDbLine
 10
321.5000000000001
 20
155.5070298769777
 30
0.0
 11
321.5000000000001
 21
154.0070298769775
 31
0.0
  0
LINE
  5
597
330
A
100
AcDbEntity
  8
06
100
AcDbLine
 10
321.5000000000001
 20
154.0070298769775
 30
0.0
 11
324.0000000000004
 21
154.0070298769775
 31
0.0
  0
LINE
  5
598
330
A
100
AcDbEntity
  8
06
100
AcDbLine
 10
324.0000000000004
 20
154.0070298769775
 30
0.0
 11
324.0000000000004
 21
162.0070298769777
 31
0.0
  0
LINE
  5
599
330
A
100
AcDbEntity
  8
06
100
AcDbLine
 10
324.0000000000004
 20
162.0070298769777
 30
0.0
 11
321.5000000000001
 21
162.0070298769777
 31
0.0
  0
LINE
  5
59A
330
A
100
AcDbEntity
  8
06
100
AcDbLine
 10
321.5000000000001
 20
160.5070298769775
 30
0.0
 11
318.5000000000004
 21
160.5070298769774
 31
0.0
  0
LINE
  5
59B
330
A
100
AcDbEntity
  8
06
100
AcDbLine
 10
321.5000000000001
 20
162.0070298769777
 30
0.0
 11
321.5000000000001
 21
160.5070298769775
 31
0.0
  0
LINE
  5
59C
330
A
100
AcDbEntity
  8
03
100
AcDbLine
 10
267.5000000000001
 20
128.0070298769775
 30
0.0
 11
259.5000000000004
 21
128.0070298769775
 31
0.0
  0
LINE
  5
59D
330
A
100
AcDbEntity
  8
04
100
AcDbLine
 10
298.5000000000001
 20
173.0070298769775
 30
0.0
 11
300.0000000000003
 21
172.0070298769775
 31
0.0
  0
LINE
  5
59E
330
A
100
AcDbEntity
  8
04
100
AcDbLine
 10
286.5000000000004
 20
173.0070298769775
 30
0.0
 11
285.0000000000004
 21
172.0070298769775
 31
0.0
  0
LINE
  5
59F
330
A
100
AcDbEntity
  8
04
100
AcDbLine
 10
286.5000000000004
 20
157.0070298769777
 30
0.0
 11
298.5000000000001
 21
157.0070298769777
 31
0.0
  0
LINE
  5
5A0
330
A
100
AcDbEntity
  8
04
100
AcDbLine
 10
300.0000000000003
 20
171.0070298769775
 30
0.0
 11
300.0000000000003
 21
172.0070298769775
 31
0.0
  0
LINE
  5
5A1
330
A
100
AcDbEntity
  8
04
100
AcDbLine
 10
298.5000000000001
 20
173.0070298769775
 30
0.0
 11
286.5000000000004
 21
173.0070298769775
 31
0.0
  0
LINE
  5
5A2
330
A
100
AcDbEntity
  8
04
100
AcDbLine
 10
285.0000000000004
 20
172.0070298769775
 30
0.0
 11
285.0000000000004
 21
171.0070298769775
 31
0.0
  0
LINE
  5
5A3
330
A
100
AcDbEntity
  8
04
100
AcDbLine
 10
300.0000000000003
 20
171.0070298769775
 30
0.0
 11
285.0000000000004
 21
171.0070298769775
 31
0.0
  0
LINE
  5
5A5
330
A
100
AcDbEntity
  8
04
100
AcDbLine
 10
298.5000000000001
 20
157.0070298769777
 30
0.0
 11
298.5000000000001
 21
164.0070298769777
 31
0.0
  0
LINE
  5
5A6
330
A
100
AcDbEntity
  8
04
100
AcDbLine
 10
286.5000000000004
 20
164.0070298769777
 30
0.0
 11
286.5000000000004
 21
157.0070298769777
 31
0.0
  0
LINE
  5
5A7
330
A
100
AcDbEntity
  8
04
100
AcDbLine
 10
300.0000000000003
 20
170.0070298769777
 30
0.0
 11
300.0000000000003
 21
167.5070298769775
 31
0.0
  0
LINE
  5
5AD
330
A
100
AcDbEntity
  8
04
100
AcDbLine
 10
298.5000000000001
 20
164.0070298769777
 30
0.0
 11
300.0000000000003
 21
167.5070298769775
 31
0.0
  0
LINE
  5
5B3
330
A
100
AcDbEntity
  8
04
100
AcDbLine
 10
285.0000000000004
 20
170.0070298769777
 30
0.0
 11
285.0000000000004
 21
167.5070298769775
 31
0.0
  0
LINE
  5
5B6
330
A
100
AcDbEntity
  8
04
100
AcDbLine
 10
286.5000000000004
 20
164.0070298769777
 30
0.0
 11
285.0000000000004
 21
167.5070298769775
 31
0.0
  0
LINE
  5
5B9
330
A
100
AcDbEntity
  8
04
100
AcDbLine
 10
297.5000000000004
 20
171.0070298769775
 30
0.0
 11
297.5000000000004
 21
166.0070298769777
 31
0.0
  0
LINE
  5
5BA
330
A
100
AcDbEntity
  8
04
100
AcDbLine
 10
287.5000000000003
 20
171.0070298769775
 30
0.0
 11
287.5000000000003
 21
166.0070298769777
 31
0.0
  0
LINE
  5
5BB
330
A
100
AcDbEntity
  8
04
100
AcDbLine
 10
297.5000000000004
 20
166.0070298769777
 30
0.0
 11
300.0000000000003
 21
170.0070298769777
 31
0.0
  0
LINE
  5
5BC
330
A
100
AcDbEntity
  8
04
100
AcDbLine
 10
287.5000000000003
 20
166.0070298769777
 30
0.0
 11
285.0000000000004
 21
170.0070298769777
 31
0.0
  0
LINE
  5
5BD
330
A
100
AcDbEntity
  8
04
100
AcDbLine
 10
293.7500000000003
 20
157.0070298769777
 30
0.0
 11
293.7500000000003
 21
151.0070298769775
 31
0.0
  0
LINE
  5
5BE
330
A
100
AcDbEntity
  8
04
100
AcDbLine
 10
291.2500000000004
 20
151.0070298769775
 30
0.0
 11
291.2500000000004
 21
157.0070298769777
 31
0.0
  0
LINE
  5
5BF
330
A
100
AcDbEntity
  8
03
100
AcDbLine
 10
259.5000000000004
 20
75.44991212653775
 30
0.0
 11
259.5000000000004
 21
128.0070298769775
 31
0.0
  0
LINE
  5
5C0
330
A
100
AcDbEntity
  8
03
100
AcDbLine
 10
267.5000000000001
 20
128.0070298769775
 30
0.0
 11
267.5000000000001
 21
75.44991212653775
 31
0.0
  0
CIRCLE
  5
5C8
330
A
100
AcDbEntity
  8
KAKURE
100
AcDbCircle
 10
292.5
 20
384.0
 30
0.0
 40
6.0
  0
CIRCLE
  5
5C9
330
A
100
AcDbEntity
  8
KAKURE
100
AcDbCircle
 10
292.5000000000001
 20
146.0070298769775
 30
0.0
 40
6.0
  0
LINE
  5
5CA
330
A
100
AcDbEntity
  8
03
100
AcDbLine
 10
313.5
 20
542.4999999999998
 30
0.0
 11
313.5
 21
75.44991212653775
 31
0.0
  0
LINE
  5
5CB
330
A
100
AcDbEntity
  8
03
100
AcDbLine
 10
326.0
 20
542.4999999999998
 30
0.0
 11
326.0
 21
384.0
 31
0.0
  0
LINE
  5
5CC
330
A
100
AcDbEntity
  8
03
100
AcDbLine
 10
326.0
 20
146.0070298769774
 30
0.0
 11
326.0
 21
75.44991212653775
 31
0.0
  0
LINE
  5
5CD
330
A
100
AcDbEntity
  8
03
100
AcDbLine
 10
343.0
 20
542.4999999999998
 30
0.0
 11
343.0
 21
384.0
 31
0.0
  0
LINE
  5
5CE
330
A
100
AcDbEntity
  8
03
100
AcDbLine
 10
342.9999999999998
 20
146.0070298769774
 30
0.0
 11
342.9999999999998
 21
75.44991212653775
 31
0.0
  0
LINE
  5
5CF
330
A
100
AcDbEntity
  8
03
100
AcDbLine
 10
313.5
 20
542.4999999999998
 30
0.0
 11
368.9585642828173
 21
542.4999999999998
 31
0.0
  0
LINE
  5
5D0
330
A
100
AcDbEntity
  8
03
100
AcDbLine
 10
359.5
 20
542.4999999999998
 30
0.0
 11
359.5
 21
75.44991212653775
 31
0.0
  0
TEXT
  5
5E1
330
A
100
AcDbEntity
  8
MOJI
100
AcDbText
 10
76.39862573285697
 20
456.7329755063767
 30
0.0
 40
5.0
  1
中心
 50
90.0
 41
0.8
  7
0_8
 72
     1
 11
73.89862573285697
 21
461.1329755063768
 31
0.0
100
AcDbText
 73
     2
  0
TEXT
  5
5E2
330
A
100
AcDbEntity
  8
MOJI
100
AcDbText
 10
89.14017787144743
 20
361.3929755063767
 30
0.0
 40
6.0
  1
Ｅ
 50
90.0
 41
0.8
  7
0_8
 72
     1
 11
89.14017787144743
 21
363.6329755063767
 31
0.0
100
AcDbText
 73
     1
  0
TEXT
  5
5E3
330
A
100
AcDbEntity
  8
MOJI
100
AcDbText
 10
89.14017787144743
 20
366.6429755063767
 30
0.0
 40
6.0
  1
Ｅ
 50
90.0
 41
0.8
  7
0_8
 72
     1
 11
89.14017787144743
 21
368.8829755063768
 31
0.0
100
AcDbText
 73
     1
  0
TEXT
  5
5E4
330
A
100
AcDbEntity
  8
MOJI
100
AcDbText
 10
89.14017787144743
 20
546.3929755063768
 30
0.0
 40
6.0
  1
Ｅ
 50
90.0
 41
0.8
  7
0_8
 72
     1
 11
89.14017787144743
 21
548.6329755063768
 31
0.0
100
AcDbText
 73
     1
  0
TEXT
  5
5E5
330
A
100
AcDbEntity
  8
MOJI
100
AcDbText
 10
89.14017787144743
 20
556.3929755063768
 30
0.0
 40
6.0
  1
Ｅ
 50
90.0
 41
0.8
  7
0_8
 72
     1
 11
89.14017787144743
 21
558.6329755063768
 31
0.0
100
AcDbText
 73
     1
  0
TEXT
  5
5E6
330
A
100
AcDbEntity
  8
MOJI
100
AcDbText
 10
89.14017787144743
 20
378.4829755063768
 30
0.0
 40
6.0
  1
Ｒ
 50
90.0
 41
0.8
  7
0_8
 72
     1
 11
89.14017787144743
 21
380.8829755063768
 31
0.0
100
AcDbText
 73
     1
  0
TEXT
  5
5E7
330
A
100
AcDbEntity
  8
MOJI
100
AcDbText
 10
89.14017787144743
 20
392.4829755063768
 30
0.0
 40
6.0
  1
Ｒ
 50
90.0
 41
0.8
  7
0_8
 72
     1
 11
89.14017787144743
 21
394.8829755063767
 31
0.0
100
AcDbText
 73
     1
  0
TEXT
  5
5E8
330
A
100
AcDbEntity
  8
MOJI
100
AcDbText
 10
89.14017787144743
 20
406.4829755063768
 30
0.0
 40
6.0
  1
Ｒ
 50
90.0
 41
0.8
  7
0_8
 72
     1
 11
89.14017787144743
 21
408.8829755063768
 31
0.0
100
AcDbText
 73
     1
  0
TEXT
  5
5E9
330
A
100
AcDbEntity
  8
MOJI
100
AcDbText
 10
89.14017787144743
 20
420.4829755063768
 30
0.0
 40
6.0
  1
Ｒ
 50
90.0
 41
0.8
  7
0_8
 72
     1
 11
89.14017787144743
 21
422.8829755063769
 31
0.0
100
AcDbText
 73
     1
  0
TEXT
  5
5EA
330
A
100
AcDbEntity
  8
MOJI
100
AcDbText
 10
89.14017787144743
 20
434.4829755063768
 30
0.0
 40
6.0
  1
Ｒ
 50
90.0
 41
0.8
  7
0_8
 72
     1
 11
89.14017787144743
 21
436.8829755063767
 31
0.0
100
AcDbText
 73
     1
  0
TEXT
  5
5EB
330
A
100
AcDbEntity
  8
MOJI
100
AcDbText
 10
89.14017787144743
 20
441.4829755063768
 30
0.0
 40
6.0
  1
Ｒ
 50
90.0
 41
0.8
  7
0_8
 72
     1
 11
89.14017787144743
 21
443.8829755063768
 31
0.0
100
AcDbText
 73
     1
  0
TEXT
  5
5EC
330
A
100
AcDbEntity
  8
MOJI
100
AcDbText
 10
89.14017787144743
 20
455.4829755063768
 30
0.0
 40
6.0
  1
Ｒ
 50
90.0
 41
0.8
  7
0_8
 72
     1
 11
89.14017787144743
 21
457.8829755063767
 31
0.0
100
AcDbText
 73
     1
  0
TEXT
  5
5ED
330
A
100
AcDbEntity
  8
MOJI
100
AcDbText
 10
89.14017787144743
 20
461.9829755063769
 30
0.0
 40
6.0
  1
Ｒ
 50
90.0
 41
0.8
  7
0_8
 72
     1
 11
89.14017787144743
 21
464.3829755063769
 31
0.0
100
AcDbText
 73
     1
  0
TEXT
  5
5EE
330
A
100
AcDbEntity
  8
MOJI
100
AcDbText
 10
89.14017787144743
 20
475.9829755063767
 30
0.0
 40
6.0
  1
Ｒ
 50
90.0
 41
0.8
  7
0_8
 72
     1
 11
89.14017787144743
 21
478.3829755063767
 31
0.0
100
AcDbText
 73
     1
  0
TEXT
  5
5EF
330
A
100
AcDbEntity
  8
MOJI
100
AcDbText
 10
89.14017787144743
 20
482.9829755063768
 30
0.0
 40
6.0
  1
Ｒ
 50
90.0
 41
0.8
  7
0_8
 72
     1
 11
89.14017787144743
 21
485.3829755063769
 31
0.0
100
AcDbText
 73
     1
  0
TEXT
  5
5F0
330
A
100
AcDbEntity
  8
MOJI
100
AcDbText
 10
89.14017787144743
 20
496.9829755063767
 30
0.0
 40
6.0
  1
Ｒ
 50
90.0
 41
0.8
  7
0_8
 72
     1
 11
89.14017787144743
 21
499.3829755063767
 31
0.0
100
AcDbText
 73
     1
  0
TEXT
  5
5F1
330
A
100
AcDbEntity
  8
MOJI
100
AcDbText
 10
89.14017787144743
 20
510.9829755063769
 30
0.0
 40
6.0
  1
Ｒ
 50
90.0
 41
0.8
  7
0_8
 72
     1
 11
89.14017787144743
 21
513.3829755063768
 31
0.0
100
AcDbText
 73
     1
  0
TEXT
  5
5F2
330
A
100
AcDbEntity
  8
MOJI
100
AcDbText
 10
89.14017787144743
 20
524.9829755063768
 30
0.0
 40
6.0
  1
Ｒ
 50
90.0
 41
0.8
  7
0_8
 72
     1
 11
89.14017787144743
 21
527.3829755063768
 31
0.0
100
AcDbText
 73
     1
  0
TEXT
  5
5F3
330
A
100
AcDbEntity
  8
MOJI
100
AcDbText
 10
89.14017787144743
 20
538.9829755063768
 30
0.0
 40
6.0
  1
Ｒ
 50
90.0
 41
0.8
  7
0_8
 72
     1
 11
89.14017787144743
 21
541.3829755063768
 31
0.0
100
AcDbText
 73
     1
  0
CIRCLE
  5
66C
330
A
100
AcDbEntity
  8
06
100
AcDbCircle
 10
103.1401778714472
 20
541.3829755063768
 30
0.0
 40
0.2062499999999998
  0
LINE
  5
66D
330
A
100
AcDbEntity
  8
CHUSIN
100
AcDbLine
 10
103.1401778714472
 20
541.0079755063768
 30
0.0
 11
103.1401778714472
 21
541.7579755063768
 31
0.0
  0
LINE
  5
66E
330
A
100
AcDbEntity
  8
CHUSIN
100
AcDbLine
 10
103.5151778714472
 20
541.3829755063768
 30
0.0
 11
102.7651778714472
 21
541.3829755063768
 31
0.0
  0
CIRCLE
  5
66F
330
A
100
AcDbEntity
  8
06
100
AcDbCircle
 10
103.1401778714472
 20
541.3829755063768
 30
0.0
 40
0.25
  0
CIRCLE
  5
670
330
A
100
AcDbEntity
  8
06
100
AcDbCircle
 10
103.1401778714472
 20
527.3829755063768
 30
0.0
 40
0.2062499999999998
  0
LINE
  5
671
330
A
100
AcDbEntity
  8
CHUSIN
100
AcDbLine
 10
103.1401778714472
 20
527.0079755063768
 30
0.0
 11
103.1401778714472
 21
527.7579755063768
 31
0.0
  0
LINE
  5
672
330
A
100
AcDbEntity
  8
CHUSIN
100
AcDbLine
 10
103.5151778714472
 20
527.3829755063768
 30
0.0
 11
102.7651778714472
 21
527.3829755063768
 31
0.0
  0
CIRCLE
  5
673
330
A
100
AcDbEntity
  8
06
100
AcDbCircle
 10
103.1401778714472
 20
527.3829755063768
 30
0.0
 40
0.25
  0
CIRCLE
  5
674
330
A
100
AcDbEntity
  8
06
100
AcDbCircle
 10
103.1401778714472
 20
513.3829755063768
 30
0.0
 40
0.2062499999999998
  0
LINE
  5
675
330
A
100
AcDbEntity
  8
CHUSIN
100
AcDbLine
 10
103.1401778714472
 20
513.0079755063768
 30
0.0
 11
103.1401778714472
 21
513.7579755063768
 31
0.0
  0
LINE
  5
676
330
A
100
AcDbEntity
  8
CHUSIN
100
AcDbLine
 10
103.5151778714472
 20
513.3829755063768
 30
0.0
 11
102.7651778714472
 21
513.3829755063768
 31
0.0
  0
CIRCLE
  5
677
330
A
100
AcDbEntity
  8
06
100
AcDbCircle
 10
103.1401778714472
 20
513.3829755063768
 30
0.0
 40
0.25
  0
CIRCLE
  5
678
330
A
100
AcDbEntity
  8
06
100
AcDbCircle
 10
103.1401778714472
 20
499.3829755063767
 30
0.0
 40
0.2062499999999998
  0
LINE
  5
679
330
A
100
AcDbEntity
  8
CHUSIN
100
AcDbLine
 10
103.1401778714472
 20
499.0079755063767
 30
0.0
 11
103.1401778714472
 21
499.7579755063767
 31
0.0
  0
LINE
  5
67A
330
A
100
AcDbEntity
  8
CHUSIN
100
AcDbLine
 10
103.5151778714472
 20
499.3829755063767
 30
0.0
 11
102.7651778714472
 21
499.3829755063767
 31
0.0
  0
CIRCLE
  5
67B
330
A
100
AcDbEntity
  8
06
100
AcDbCircle
 10
103.1401778714472
 20
499.3829755063767
 30
0.0
 40
0.25
  0
CIRCLE
  5
67C
330
A
100
AcDbEntity
  8
06
100
AcDbCircle
 10
103.1401778714472
 20
485.3829755063769
 30
0.0
 40
0.2062499999999998
  0
LINE
  5
67D
330
A
100
AcDbEntity
  8
CHUSIN
100
AcDbLine
 10
103.1401778714472
 20
485.0079755063767
 30
0.0
 11
103.1401778714472
 21
485.7579755063768
 31
0.0
  0
LINE
  5
67E
330
A
100
AcDbEntity
  8
CHUSIN
100
AcDbLine
 10
103.5151778714472
 20
485.3829755063769
 30
0.0
 11
102.7651778714472
 21
485.3829755063769
 31
0.0
  0
CIRCLE
  5
67F
330
A
100
AcDbEntity
  8
06
100
AcDbCircle
 10
103.1401778714472
 20
485.3829755063769
 30
0.0
 40
0.25
  0
CIRCLE
  5
680
330
A
100
AcDbEntity
  8
06
100
AcDbCircle
 10
103.1401778714472
 20
478.3829755063767
 30
0.0
 40
0.2062499999999998
  0
LINE
  5
681
330
A
100
AcDbEntity
  8
CHUSIN
100
AcDbLine
 10
103.1401778714472
 20
478.0079755063767
 30
0.0
 11
103.1401778714472
 21
478.7579755063767
 31
0.0
  0
LINE
  5
682
330
A
100
AcDbEntity
  8
CHUSIN
100
AcDbLine
 10
103.5151778714472
 20
478.3829755063767
 30
0.0
 11
102.7651778714472
 21
478.3829755063767
 31
0.0
  0
CIRCLE
  5
683
330
A
100
AcDbEntity
  8
06
100
AcDbCircle
 10
103.1401778714472
 20
478.3829755063767
 30
0.0
 40
0.25
  0
CIRCLE
  5
684
330
A
100
AcDbEntity
  8
06
100
AcDbCircle
 10
103.1401778714472
 20
464.3829755063769
 30
0.0
 40
0.2062499999999998
  0
LINE
  5
685
330
A
100
AcDbEntity
  8
CHUSIN
100
AcDbLine
 10
103.1401778714472
 20
464.0079755063768
 30
0.0
 11
103.1401778714472
 21
464.7579755063768
 31
0.0
  0
LINE
  5
686
330
A
100
AcDbEntity
  8
CHUSIN
100
AcDbLine
 10
103.5151778714472
 20
464.3829755063769
 30
0.0
 11
102.7651778714472
 21
464.3829755063769
 31
0.0
  0
CIRCLE
  5
687
330
A
100
AcDbEntity
  8
06
100
AcDbCircle
 10
103.1401778714472
 20
464.3829755063769
 30
0.0
 40
0.25
  0
CIRCLE
  5
688
330
A
100
AcDbEntity
  8
06
100
AcDbCircle
 10
103.1401778714472
 20
457.8829755063767
 30
0.0
 40
0.2062499999999998
  0
LINE
  5
689
330
A
100
AcDbEntity
  8
CHUSIN
100
AcDbLine
 10
103.1401778714472
 20
457.5079755063767
 30
0.0
 11
103.1401778714472
 21
458.2579755063767
 31
0.0
  0
LINE
  5
68A
330
A
100
AcDbEntity
  8
CHUSIN
100
AcDbLine
 10
103.5151778714472
 20
457.8829755063767
 30
0.0
 11
102.7651778714472
 21
457.8829755063767
 31
0.0
  0
CIRCLE
  5
68B
330
A
100
AcDbEntity
  8
06
100
AcDbCircle
 10
103.1401778714472
 20
457.8829755063767
 30
0.0
 40
0.25
  0
CIRCLE
  5
68C
330
A
100
AcDbEntity
  8
06
100
AcDbCircle
 10
103.1401778714472
 20
380.8829755063768
 30
0.0
 40
0.2062499999999998
  0
LINE
  5
68D
330
A
100
AcDbEntity
  8
CHUSIN
100
AcDbLine
 10
103.1401778714472
 20
380.5079755063768
 30
0.0
 11
103.1401778714472
 21
381.2579755063767
 31
0.0
  0
LINE
  5
68E
330
A
100
AcDbEntity
  8
CHUSIN
100
AcDbLine
 10
103.5151778714472
 20
380.8829755063768
 30
0.0
 11
102.7651778714472
 21
380.8829755063768
 31
0.0
  0
CIRCLE
  5
68F
330
A
100
AcDbEntity
  8
06
100
AcDbCircle
 10
103.1401778714472
 20
380.8829755063768
 30
0.0
 40
0.25
  0
CIRCLE
  5
690
330
A
100
AcDbEntity
  8
06
100
AcDbCircle
 10
103.1401778714472
 20
394.8829755063767
 30
0.0
 40
0.2062499999999998
  0
LINE
  5
691
330
A
100
AcDbEntity
  8
CHUSIN
100
AcDbLine
 10
103.1401778714472
 20
394.5079755063768
 30
0.0
 11
103.1401778714472
 21
395.2579755063768
 31
0.0
  0
LINE
  5
692
330
A
100
AcDbEntity
  8
CHUSIN
100
AcDbLine
 10
103.5151778714472
 20
394.8829755063767
 30
0.0
 11
102.7651778714472
 21
394.8829755063767
 31
0.0
  0
CIRCLE
  5
693
330
A
100
AcDbEntity
  8
06
100
AcDbCircle
 10
103.1401778714472
 20
394.8829755063767
 30
0.0
 40
0.25
  0
CIRCLE
  5
694
330
A
100
AcDbEntity
  8
06
100
AcDbCircle
 10
103.1401778714472
 20
408.8829755063768
 30
0.0
 40
0.2062499999999998
  0
LINE
  5
695
330
A
100
AcDbEntity
  8
CHUSIN
100
AcDbLine
 10
103.1401778714472
 20
408.5079755063768
 30
0.0
 11
103.1401778714472
 21
409.2579755063767
 31
0.0
  0
LINE
  5
696
330
A
100
AcDbEntity
  8
CHUSIN
100
AcDbLine
 10
103.5151778714472
 20
408.8829755063768
 30
0.0
 11
102.7651778714472
 21
408.8829755063768
 31
0.0
  0
CIRCLE
  5
697
330
A
100
AcDbEntity
  8
06
100
AcDbCircle
 10
103.1401778714472
 20
408.8829755063768
 30
0.0
 40
0.25
  0
CIRCLE
  5
698
330
A
100
AcDbEntity
  8
06
100
AcDbCircle
 10
103.1401778714472
 20
422.8829755063769
 30
0.0
 40
0.2062499999999998
  0
LINE
  5
699
330
A
100
AcDbEntity
  8
CHUSIN
100
AcDbLine
 10
103.1401778714472
 20
422.5079755063767
 30
0.0
 11
103.1401778714472
 21
423.2579755063768
 31
0.0
  0
LINE
  5
69A
330
A
100
AcDbEntity
  8
CHUSIN
100
AcDbLine
 10
103.5151778714472
 20
422.8829755063769
 30
0.0
 11
102.7651778714472
 21
422.8829755063769
 31
0.0
  0
CIRCLE
  5
69B
330
A
100
AcDbEntity
  8
06
100
AcDbCircle
 10
103.1401778714472
 20
422.8829755063769
 30
0.0
 40
0.25
  0
CIRCLE
  5
69C
330
A
100
AcDbEntity
  8
06
100
AcDbCircle
 10
103.1401778714472
 20
443.8829755063768
 30
0.0
 40
0.2062499999999998
  0
LINE
  5
69D
330
A
100
AcDbEntity
  8
CHUSIN
100
AcDbLine
 10
103.1401778714472
 20
443.5079755063767
 30
0.0
 11
103.1401778714472
 21
444.2579755063768
 31
0.0
  0
LINE
  5
69E
330
A
100
AcDbEntity
  8
CHUSIN
100
AcDbLine
 10
103.5151778714472
 20
443.8829755063768
 30
0.0
 11
102.7651778714472
 21
443.8829755063768
 31
0.0
  0
CIRCLE
  5
69F
330
A
100
AcDbEntity
  8
06
100
AcDbCircle
 10
103.1401778714472
 20
443.8829755063768
 30
0.0
 40
0.25
  0
CIRCLE
  5
6A0
330
A
100
AcDbEntity
  8
06
100
AcDbCircle
 10
103.1401778714472
 20
436.8829755063767
 30
0.0
 40
0.2062499999999998
  0
LINE
  5
6A1
330
A
100
AcDbEntity
  8
CHUSIN
100
AcDbLine
 10
103.1401778714472
 20
436.5079755063767
 30
0.0
 11
103.1401778714472
 21
437.2579755063767
 31
0.0
  0
LINE
  5
6A2
330
A
100
AcDbEntity
  8
CHUSIN
100
AcDbLine
 10
103.5151778714472
 20
436.8829755063767
 30
0.0
 11
102.7651778714472
 21
436.8829755063767
 31
0.0
  0
CIRCLE
  5
6A3
330
A
100
AcDbEntity
  8
06
100
AcDbCircle
 10
103.1401778714472
 20
436.8829755063767
 30
0.0
 40
0.25
  0
POLYLINE
  5
83E
330
A
100
AcDbEntity
  8
DEFPOINTS
100
AcDb2dPolyline
 66
     1
 10
0.0
 20
0.0
 30
0.0
 70
     1
  0
VERTEX
  5
258E
330
83E
100
AcDbEntity
  8
DEFPOINTS
100
AcDbVertex
100
AcDb2dVertex
 10
420.0
 20
0.0
 30
0.0
  0
VERTEX
  5
258F
330
83E
100
AcDbEntity
  8
DEFPOINTS
100
AcDbVertex
100
AcDb2dVertex
 10
420.0000000000001
 20
594.0
 30
0.0
  0
VERTEX
  5
2590
330
83E
100
AcDbEntity
  8
DEFPOINTS
100
AcDbVertex
100
AcDb2dVertex
 10
0.0000000000000568
 20
594.0
 30
0.0
  0
VERTEX
  5
2591
330
83E
100
AcDbEntity
  8
DEFPOINTS
100
AcDbVertex
100
AcDb2dVertex
 10
0.0
 20
0.0
 30
0.0
  0
SEQEND
  5
2592
330
83E
100
AcDbEntity
  8
DEFPOINTS
  0
DIMENSION
  5
890
330
A
100
AcDbEntity
  8
SUNPOU
100
AcDbDimension
  2
*D1
 10
204.1063268892794
 20
171.0070298769775
 30
0.0
 11
199.6063268892794
 21
146.0070298769778
 31
0.0
 70
    32
  3
SUNPOU_2
100
AcDbAlignedDimension
 13
215.0000000000003
 23
121.0070298769777
 33
0.0
 14
215.0000000000003
 24
171.0070298769775
 34
0.0
 50
90.0
100
AcDbRotatedDimension
  0
DIMENSION
  5
89D
330
A
100
AcDbEntity
  8
SUNPOU
100
AcDbDimension
  2
*D2
 10
204.1063268892795
 20
359.0
 30
0.0
 11
199.6063268892794
 21
265.0035149384889
 31
0.0
 70
    32
  1
開口Ｗ
  3
SUNPOU_2
100
AcDbAlignedDimension
 13
215.0000000000003
 23
171.0070298769775
 33
0.0
 14
215.0
 24
359.0
 34
0.0
 50
90.0
100
AcDbRotatedDimension
  0
DIMENSION
  5
8AA
330
A
100
AcDbEntity
  8
SUNPOU
100
AcDbDimension
  2
*D3
 10
204.1063268892795
 20
409.0
 30
0.0
 11
199.6063268892794
 21
384.0
 31
0.0
 70
    32
  3
SUNPOU_2
100
AcDbAlignedDimension
 13
215.0
 23
359.0
 33
0.0
 14
215.0
 24
409.0
 34
0.0
 50
90.0
100
AcDbRotatedDimension
  0
DIMENSION
  5
8B7
330
A
100
AcDbEntity
  8
SUNPOU
100
AcDbDimension
  2
*D4
 10
204.1063268892795
 20
527.5
 30
0.0
 11
199.6063268892794
 21
468.25
 31
0.0
 70
    32
  3
SUNPOU_2
100
AcDbAlignedDimension
 13
215.0
 23
409.0
 33
0.0
 14
215.0
 24
527.5
 34
0.0
 50
90.0
100
AcDbRotatedDimension
  0
DIMENSION
  5
8C4
330
A
100
AcDbEntity
  8
SUNPOU
100
AcDbDimension
  2
*D5
 10
204.1063268892795
 20
557.5
 30
0.0
 11
199.6063268892794
 21
542.4999999999998
 31
0.0
 70
    32
  3
SUNPOU_2
100
AcDbAlignedDimension
 13
215.0
 23
527.5
 33
0.0
 14
215.0
 24
557.5
 34
0.0
 50
90.0
100
AcDbRotatedDimension
  0
DIMENSION
  5
8DA
330
A
100
AcDbEntity
  8
SUNPOU
100
AcDbDimension
  2
*D6
 10
369.1545725120638
 20
171.0070298769778
 30
0.0
 11
364.6545725120637
 21
158.5070298769778
 31
0.0
 70
    32
  3
SUNPOU_2
100
AcDbAlignedDimension
 13
350.5000000000003
 23
146.0070298769775
 33
0.0
 14
350.5000000000003
 24
171.0070298769778
 34
0.0
 50
90.0
100
AcDbRotatedDimension
  0
DIMENSION
  5
8E7
330
A
100
AcDbEntity
  8
SUNPOU
100
AcDbDimension
  2
*D7
 10
382.1175938430723
 20
262.5035149384887
 30
0.0
 11
377.6175938430722
 21
204.2552724077333
 31
0.0
 70
    32
  1
DW
  3
SUNPOU_2
100
AcDbAlignedDimension
 13
350.5000000000003
 23
146.0070298769775
 33
0.0
 14
350.5000000000003
 24
262.5035149384887
 34
0.0
 50
90.0
100
AcDbRotatedDimension
  0
DIMENSION
  5
8F4
330
A
100
AcDbEntity
  8
SUNPOU
100
AcDbDimension
  2
*D8
 10
382.1175938430723
 20
267.5035149384888
 30
0.0
 11
386.7544690009387
 21
265.0035149384888
 31
0.0
 70
   160
  3
SUNPOU_2
100
AcDbAlignedDimension
 13
350.5000000000003
 23
262.5035149384887
 33
0.0
 14
350.5000000000001
 24
267.5035149384888
 34
0.0
 50
90.0
100
AcDbRotatedDimension
  0
DIMENSION
  5
903
330
A
100
AcDbEntity
  8
SUNPOU
100
AcDbDimension
  2
*D9
 10
382.1175938430726
 20
384.0
 30
0.0
 11
377.6175938430722
 21
325.7517574692444
 31
0.0
 70
    32
  1
DW
  3
SUNPOU_2
100
AcDbAlignedDimension
 13
350.5000000000001
 23
267.5035149384888
 33
0.0
 14
350.4999999999998
 24
384.0
 34
0.0
 50
90.0
100
AcDbRotatedDimension
  0
DIMENSION
  5
910
330
A
100
AcDbEntity
  8
SUNPOU
100
AcDbDimension
  2
*D10
 10
369.1545725120638
 20
262.5035149384888
 30
0.0
 11
364.6545725120637
 21
250.0035149384888
 31
0.0
 70
    32
  3
SUNPOU_2
100
AcDbAlignedDimension
 13
350.5000000000003
 23
237.5035149384887
 33
0.0
 14
350.5000000000001
 24
262.5035149384888
 34
0.0
 50
90.0
100
AcDbRotatedDimension
  0
DIMENSION
  5
91D
330
A
100
AcDbEntity
  8
SUNPOU
100
AcDbDimension
  2
*D11
 10
369.1545725120638
 20
292.5035149384888
 30
0.0
 11
364.6545725120637
 21
280.0035149384888
 31
0.0
 70
    32
  3
SUNPOU_2
100
AcDbAlignedDimension
 13
350.5000000000001
 23
267.5035149384888
 33
0.0
 14
350.5000000000001
 24
292.5035149384888
 34
0.0
 50
90.0
100
AcDbRotatedDimension
  0
DIMENSION
  5
92A
330
A
100
AcDbEntity
  8
SUNPOU
100
AcDbDimension
  2
*D12
 10
369.1545725120638
 20
384.0
 30
0.0
 11
364.6545725120637
 21
371.5000000000001
 31
0.0
 70
    32
  3
SUNPOU_2
100
AcDbAlignedDimension
 13
350.4999999999998
 23
359.0000000000001
 33
0.0
 14
350.4999999999998
 24
384.0
 34
0.0
 50
90.0
100
AcDbRotatedDimension
  0
DIMENSION
  5
937
330
A
100
AcDbEntity
  8
SUNPOU
100
AcDbDimension
  2
*D13
 10
313.5
 20
340.881843990807
 30
0.0
 11
255.870201136677
 21
336.2913569759996
 31
0.0
 70
   160
 53
180.0
  3
SUNPOU_2
100
AcDbAlignedDimension
 13
213.5
 23
360.4999999999998
 33
0.0
 14
313.5
 24
360.4999999999998
 34
0.0
100
AcDbRotatedDimension
  0
DIMENSION
  5
963
330
A
100
AcDbEntity
  8
SUNPOU
100
AcDbDimension
  2
*D14
 10
255.5
 20
459.2071109909421
 30
0.0
 11
232.997892337355
 21
454.6234982666788
 31
0.0
 70
   160
 53
180.0
  3
SUNPOU_2
100
AcDbAlignedDimension
 13
213.5
 23
407.5
 33
0.0
 14
255.5
 24
407.5
 34
0.0
100
AcDbRotatedDimension
  0
DIMENSION
  5
970
330
A
100
AcDbEntity
  8
SUNPOU
100
AcDbDimension
  2
*D15
 10
271.4999999999999
 20
459.2071109909421
 30
0.0
 11
262.827946765643
 21
454.6730748981945
 31
0.0
 70
   160
 53
180.0
  3
SUNPOU_2
100
AcDbAlignedDimension
 13
255.5
 23
407.5
 33
0.0
 14
271.4999999999999
 24
407.5
 34
0.0
100
AcDbRotatedDimension
  0
DIMENSION
  5
97D
330
A
100
AcDbEntity
  8
SUNPOU
100
AcDbDimension
  2
*D16
 10
313.5
 20
459.2071109909421
 30
0.0
 11
293.7622615843896
 21
454.6230578030225
 31
0.0
 70
   160
 53
180.0
  3
SUNPOU_2
100
AcDbAlignedDimension
 13
271.4999999999999
 23
407.5
 33
0.0
 14
313.5
 24
407.5000000000001
 34
0.0
100
AcDbRotatedDimension
  0
DIMENSION
  5
98A
330
A
100
AcDbEntity
  8
SUNPOU
100
AcDbDimension
  2
*D17
 10
238.5
 20
430.5598215492766
 30
0.0
 11
226.0
 21
426.048814294502
 31
0.0
 70
   160
 53
180.0
  3
SUNPOU_2
100
AcDbAlignedDimension
 13
213.5
 23
407.5
 33
0.0
 14
238.5
 24
409.0
 34
0.0
100
AcDbRotatedDimension
  0
DIMENSION
  5
997
330
A
100
AcDbEntity
  8
SUNPOU
100
AcDbDimension
  2
*D18
 10
288.5
 20
430.5598215492766
 30
0.0
 11
276.4495086153646
 21
426.0079532501879
 31
0.0
 70
   160
 53
180.0
  3
SUNPOU_2
100
AcDbAlignedDimension
 13
238.5
 23
409.0
 33
0.0
 14
288.5
 24
409.0
 34
0.0
100
AcDbRotatedDimension
  0
DIMENSION
  5
9A3
330
A
100
AcDbEntity
  8
SUNPOU
100
AcDbDimension
  2
*D19
 10
313.5
 20
430.5598215492763
 30
0.0
 11
301.0
 21
425.9629756185607
 31
0.0
 70
   160
 53
180.0
  3
SUNPOU_2
100
AcDbAlignedDimension
 13
288.5
 23
409.0
 33
0.0
 14
313.5
 24
407.5000000000001
 34
0.0
100
AcDbRotatedDimension
  0
DIMENSION
  5
9AE
330
A
100
AcDbEntity
  8
SUNPOU
100
AcDbDimension
  2
*D20
 10
318.4999999999998
 20
430.5598215492763
 30
0.0
 11
316.0
 21
435.1269030852324
 31
0.0
 70
   160
 53
180.0
  3
SUNPOU_2
100
AcDbAlignedDimension
 13
313.5
 23
407.5
 33
0.0
 14
318.4999999999998
 24
384.0
 34
0.0
100
AcDbRotatedDimension
  0
DIMENSION
  5
9BB
330
A
100
AcDbEntity
  8
SUNPOU
100
AcDbDimension
  2
*D21
 10
350.4999999999998
 20
430.5598215492766
 30
0.0
 11
339.1551014587793
 21
425.9681633016216
 31
0.0
 70
   160
 53
180.0
  3
SUNPOU_2
100
AcDbAlignedDimension
 13
318.4999999999998
 23
384.0
 33
0.0
 14
350.4999999999998
 24
384.0
 34
0.0
100
AcDbRotatedDimension
  0
DIMENSION
  5
DA8
330
A
100
AcDbEntity
  8
SUNPOU
100
AcDbDimension
  2
*D22
 10
115.1996924428823
 20
363.6329755063767
 30
0.0
 11
111.2145083532379
 21
357.7230533495224
 31
0.0
 70
   160
  3
SUNPOU_2_20A
100
AcDbAlignedDimension
 13
106.1401778714474
 23
361.1329755063767
 33
0.0
 14
111.1401778714474
 24
363.6329755063767
 34
0.0
 50
90.0
100
AcDbRotatedDimension
  0
DIMENSION
  5
DB7
330
A
100
AcDbEntity
  8
SUNPOU
100
AcDbDimension
  2
*D23
 10
115.1996924428823
 20
368.8829755063768
 30
0.0
 11
119.2531663319547
 21
366.2579755063767
 31
0.0
 70
   160
  3
SUNPOU_2_20A
100
AcDbAlignedDimension
 13
111.1401778714474
 23
363.6329755063767
 33
0.0
 14
111.1401778714474
 24
368.8829755063768
 34
0.0
 50
90.0
100
AcDbRotatedDimension
  0
DIMENSION
  5
DC6
330
A
100
AcDbEntity
  8
SUNPOU
100
AcDbDimension
  2
*D24
 10
115.1996924428823
 20
394.8829755063767
 30
0.0
 11
111.1996924428821
 21
387.8829755063767
 31
0.0
 70
    32
  1
〃
  3
SUNPOU_2_20A
100
AcDbAlignedDimension
 13
111.1401778714474
 23
380.8829755063768
 33
0.0
 14
111.1401778714474
 24
394.8829755063767
 34
0.0
 50
90.0
100
AcDbRotatedDimension
  0
DIMENSION
  5
DD3
330
A
100
AcDbEntity
  8
SUNPOU
100
AcDbDimension
  2
*D25
 10
115.1996924428823
 20
408.8829755063768
 30
0.0
 11
111.1996924428821
 21
401.8829755063768
 31
0.0
 70
    32
  1
〃
  3
SUNPOU_2_20A
100
AcDbAlignedDimension
 13
111.1401778714474
 23
394.8829755063767
 33
0.0
 14
112.1401778714474
 24
408.8829755063768
 34
0.0
 50
90.0
100
AcDbRotatedDimension
  0
DIMENSION
  5
DDF
330
A
100
AcDbEntity
  8
SUNPOU
100
AcDbDimension
  2
*D26
 10
115.1996924428823
 20
422.8829755063769
 30
0.0
 11
111.1996924428821
 21
415.8829755063767
 31
0.0
 70
    32
  1
〃
  3
SUNPOU_2_20A
100
AcDbAlignedDimension
 13
111.1401778714474
 23
408.8829755063768
 33
0.0
 14
112.1401778714474
 24
422.8829755063769
 34
0.0
 50
90.0
100
AcDbRotatedDimension
  0
DIMENSION
  5
DEA
330
A
100
AcDbEntity
  8
SUNPOU
100
AcDbDimension
  2
*D27
 10
115.1996924428823
 20
436.8829755063767
 30
0.0
 11
111.1996924428821
 21
429.8829755063768
 31
0.0
 70
    32
  1
280
  3
SUNPOU_2_20A
100
AcDbAlignedDimension
 13
111.1401778714474
 23
422.8829755063769
 33
0.0
 14
111.1401778714474
 24
436.8829755063767
 34
0.0
 50
90.0
100
AcDbRotatedDimension
  0
DIMENSION
  5
DF5
330
A
100
AcDbEntity
  8
SUNPOU
100
AcDbDimension
  2
*D28
 10
115.1996924428823
 20
443.8829755063768
 30
0.0
 11
119.255385099379
 21
440.3829755063767
 31
0.0
 70
   160
  1
140
  3
SUNPOU_2_20A
100
AcDbAlignedDimension
 13
111.1401778714474
 23
436.8829755063767
 33
0.0
 14
111.1401778714474
 24
443.8829755063768
 34
0.0
 50
90.0
100
AcDbRotatedDimension
  0
DIMENSION
  5
E02
330
A
100
AcDbEntity
  8
SUNPOU
100
AcDbDimension
  2
*D29
 10
115.1996924428823
 20
457.8829755063767
 30
0.0
 11
111.1996924428821
 21
450.8829755063768
 31
0.0
 70
    32
  1
280
  3
SUNPOU_2_20A
100
AcDbAlignedDimension
 13
111.1401778714474
 23
443.8829755063768
 33
0.0
 14
112.1401778714474
 24
457.8829755063767
 34
0.0
 50
90.0
100
AcDbRotatedDimension
  0
DIMENSION
  5
E0D
330
A
100
AcDbEntity
  8
SUNPOU
100
AcDbDimension
  2
*D30
 10
115.1996924428823
 20
461.1329755063768
 30
0.0
 11
124.2265901865182
 21
458.3606604262143
 31
0.0
 70
   160
  3
SUNPOU_2_20A
100
AcDbAlignedDimension
 13
111.1401778714474
 23
457.8829755063767
 33
0.0
 14
114.1996924428823
 24
461.1329755063768
 34
0.0
 50
90.0
100
AcDbRotatedDimension
  0
DIMENSION
  5
E1A
330
A
100
AcDbEntity
  8
SUNPOU
100
AcDbDimension
  2
*D31
 10
115.1996924428823
 20
464.3829755063769
 30
0.0
 11
119.2265901865182
 21
463.7849821224057
 31
0.0
 70
   160
  3
SUNPOU_2_20A
100
AcDbAlignedDimension
 13
114.1996924428823
 23
461.1329755063768
 33
0.0
 14
111.1401778714474
 24
464.3829755063769
 34
0.0
 50
90.0
100
AcDbRotatedDimension
  0
DIMENSION
  5
E27
330
A
100
AcDbEntity
  8
SUNPOU
100
AcDbDimension
  2
*D32
 10
115.1996924428823
 20
478.3829755063767
 30
0.0
 11
111.1996924428821
 21
471.3829755063768
 31
0.0
 70
    32
  1
280
  3
SUNPOU_2_20A
100
AcDbAlignedDimension
 13
111.1401778714474
 23
464.3829755063769
 33
0.0
 14
111.1401778714474
 24
478.3829755063767
 34
0.0
 50
90.0
100
AcDbRotatedDimension
  0
DIMENSION
  5
E40
330
A
100
AcDbEntity
  8
SUNPOU
100
AcDbDimension
  2
*D33
 10
115.1996924428823
 20
485.3829755063769
 30
0.0
 11
119.261963263241
 21
481.8829755063767
 31
0.0
 70
   160
  3
SUNPOU_2_20A
100
AcDbAlignedDimension
 13
111.1401778714474
 23
478.3829755063767
 33
0.0
 14
111.1401778714474
 24
485.3829755063769
 34
0.0
 50
90.0
100
AcDbRotatedDimension
  0
DIMENSION
  5
E4D
330
A
100
AcDbEntity
  8
SUNPOU
100
AcDbDimension
  2
*D34
 10
115.1996924428823
 20
499.3829755063767
 30
0.0
 11
111.1996924428821
 21
492.3829755063768
 31
0.0
 70
    32
  3
SUNPOU_2_20A
100
AcDbAlignedDimension
 13
111.1401778714474
 23
485.3829755063769
 33
0.0
 14
111.1401778714474
 24
499.3829755063767
 34
0.0
 50
90.0
100
AcDbRotatedDimension
  0
DIMENSION
  5
E58
330
A
100
AcDbEntity
  8
SUNPOU
100
AcDbDimension
  2
*D35
 10
115.1996924428823
 20
513.3829755063768
 30
0.0
 11
111.1996924428821
 21
506.3829755063768
 31
0.0
 70
    32
  1
〃
  3
SUNPOU_2_20A
100
AcDbAlignedDimension
 13
111.1401778714474
 23
499.3829755063767
 33
0.0
 14
111.1401778714474
 24
513.3829755063768
 34
0.0
 50
90.0
100
AcDbRotatedDimension
  0
DIMENSION
  5
E63
330
A
100
AcDbEntity
  8
SUNPOU
100
AcDbDimension
  2
*D36
 10
115.1996924428823
 20
527.3829755063768
 30
0.0
 11
111.1996924428821
 21
520.3829755063768
 31
0.0
 70
    32
  1
〃
  3
SUNPOU_2_20A
100
AcDbAlignedDimension
 13
111.1401778714474
 23
513.3829755063768
 33
0.0
 14
111.1401778714474
 24
527.3829755063768
 34
0.0
 50
90.0
100
AcDbRotatedDimension
  0
DIMENSION
  5
E6E
330
A
100
AcDbEntity
  8
SUNPOU
100
AcDbDimension
  2
*D37
 10
115.1996924428823
 20
541.3829755063768
 30
0.0
 11
111.1996924428821
 21
534.3829755063768
 31
0.0
 70
    32
  1
〃
  3
SUNPOU_2_20A
100
AcDbAlignedDimension
 13
111.1401778714474
 23
527.3829755063768
 33
0.0
 14
111.1401778714474
 24
541.3829755063768
 34
0.0
 50
90.0
100
AcDbRotatedDimension
  0
DIMENSION
  5
E79
330
A
100
AcDbEntity
  8
SUNPOU
100
AcDbDimension
  2
*D38
 10
115.1996924428823
 20
558.6329755063768
 30
0.0
 11
119.1600435183449
 21
553.6329755063768
 31
0.0
 70
   160
  3
SUNPOU_2_20A
100
AcDbAlignedDimension
 13
111.1401778714474
 23
548.6329755063768
 33
0.0
 14
111.1401778714474
 24
558.6329755063768
 34
0.0
 50
90.0
100
AcDbRotatedDimension
  0
DIMENSION
  5
E88
330
A
100
AcDbEntity
  8
SUNPOU
100
AcDbDimension
  2
*D39
 10
115.2162814828989
 20
561.1329755063768
 30
0.0
 11
111.123195443276
 21
564.5069163250171
 31
0.0
 70
   160
  3
SUNPOU_2_20A
100
AcDbAlignedDimension
 13
111.1401778714474
 23
558.6329755063768
 33
0.0
 14
106.1401778714474
 24
561.1329755063768
 34
0.0
 50
90.0
100
AcDbRotatedDimension
  0
MTEXT
  5
18AA
330
A
100
AcDbEntity
  8
MOJI
100
AcDbMText
 10
233.8031634446397
 20
232.4576957852309
 30
0.0
 40
6.0
 41
30.0
 71
     5
 72
     1
  1
外　部
  7
0_8
 11
0.0000000000000001
 21
1.0
 31
0.0
1001
ACAD
1000
MTEXTBEGIN
1070
    73
1070
     1
1070
    44
1040
1.0
1070
    74
1070
     0
1000
MTEXTEND
1000
MTEXTBEGIN
1070
    73
1070
     1
1070
    44
1040
1.0
1070
    74
1070
     0
1000
MTEXTEND
  0
POLYLINE
  5
18AB
330
A
100
AcDbEntity
  8
SAISEN
100
AcDb2dPolyline
 66
     1
 10
0.0
 20
0.0
 30
0.0
 70
     1
  0
VERTEX
  5
2597
330
18AB
100
AcDbEntity
  8
SAISEN
100
AcDbVertex
100
AcDb2dVertex
 10
228.8031634446396
 20
217.4576957852309
 30
0.0
  0
VERTEX
  5
2598
330
18AB
100
AcDbEntity
  8
SAISEN
100
AcDbVertex
100
AcDb2dVertex
 10
238.8031634446395
 20
217.4576957852309
 30
0.0
  0
VERTEX
  5
2599
330
18AB
100
AcDbEntity
  8
SAISEN
100
AcDbVertex
100
AcDb2dVertex
 10
238.8031634446395
 20
247.4576957852308
 30
0.0
  0
VERTEX
  5
259A
330
18AB
100
AcDbEntity
  8
SAISEN
100
AcDbVertex
100
AcDb2dVertex
 10
228.8031634446396
 20
247.4576957852308
 30
0.0
  0
SEQEND
  5
259B
330
18AB
100
AcDbEntity
  8
SAISEN
  0
POLYLINE
  5
18AC
330
A
100
AcDbEntity
  8
SAISEN
100
AcDb2dPolyline
 66
     1
 10
0.0
 20
0.0
 30
0.0
 70
     1
  0
VERTEX
  5
259C
330
18AC
100
AcDbEntity
  8
SAISEN
100
AcDbVertex
100
AcDb2dVertex
 10
387.1175938430723
 20
217.4576957852309
 30
0.0
  0
VERTEX
  5
259D
330
18AC
100
AcDbEntity
  8
SAISEN
100
AcDbVertex
100
AcDb2dVertex
 10
397.1175938430723
 20
217.4576957852309
 30
0.0
  0
VERTEX
  5
259E
330
18AC
100
AcDbEntity
  8
SAISEN
100
AcDbVertex
100
AcDb2dVertex
 10
397.1175938430723
 20
247.4576957852308
 30
0.0
  0
VERTEX
  5
259F
330
18AC
100
AcDbEntity
  8
SAISEN
100
AcDbVertex
100
AcDb2dVertex
 10
387.1175938430723
 20
247.4576957852308
 30
0.0
  0
SEQEND
  5
25A0
330
18AC
100
AcDbEntity
  8
SAISEN
  0
MTEXT
  5
18AD
330
A
100
AcDbEntity
  8
MOJI
100
AcDbMText
 10
392.1175938430723
 20
232.4576957852309
 30
0.0
 40
6.0
 41
30.0
 71
     5
 72
     1
  1
内　部
  7
0_8
 11
0.0000000000000001
 21
1.0
 31
0.0
1001
ACAD
1000
MTEXTBEGIN
1070
    73
1070
     1
1070
    44
1040
1.0
1070
    74
1070
     0
1000
MTEXTEND
1000
MTEXTBEGIN
1070
    73
1070
     1
1070
    44
1040
1.0
1070
    74
1070
     0
1000
MTEXTEND
  0
TEXT
  5
1989
330
A
100
AcDbEntity
  8
MOJI
100
AcDbText
 10
45.2042807965177
 20
440.9085523974493
 30
0.0
 40
6.0
  1
ＦＢ割付詳細図
 50
90.0
 41
0.8
  7
0_8
 11
42.2042807965177
 21
440.9085523974493
 31
0.0
100
AcDbText
 73
     2
  0
LINE
  5
198A
330
A
100
AcDbEntity
  8
SAISEN
100
AcDbLine
 10
46.40428079651767
 20
437.628183771126
 30
0.0
 11
46.40428079651775
 21
482.3253117024572
 31
0.0
  0
DIMENSION
  5
1A51
330
A
100
AcDbEntity
  8
SUNPOU
100
AcDbDimension
  2
*D41
 10
183.4999999999998
 20
289.0171837975286
 30
0.0
 11
179.4999999999995
 21
199.0171837975286
 31
0.0
 70
    32
  1
W
  3
SUNPOU_2_20
100
AcDbAlignedDimension
 13
171.0000000000003
 23
109.0171837975285
 33
0.0
 14
170.9999999999998
 24
289.0171837975286
 34
0.0
 50
90.0
100
AcDbRotatedDimension
  0
LEADER
  5
1A52
330
A
100
AcDbEntity
  8
HIKIDASI
100
AcDbLeader
  3
SUNPOU_2
 73
     0
 74
     0
 75
     1
 40
5.0
 41
37.06666666666665
 76
     3
 10
141.0
 20
206.7599896001325
 30
0.0
 10
152.7015744656959
 20
213.6136121332818
 30
0.0
 10
152.7015744656959
 20
218.6136121332818
 30
0.0
211
0.0000000000000001
221
1.0
231
0.0
1001
ACAD
1000
DSTYLE
1002
{
1070
     5
1000
OPEN30
1070
    77
1070
     1
1070
   147
1040
1.0
1070
   342
1005
827
1002
}
1000
LEANOF
1010
0.0
1020
0.0
1030
0.0
1000
LEANOF
1010
0.0
1020
0.0
1030
0.0
1000
LEANOF
1010
0.0
1020
0.0
1030
0.0
  0
MTEXT
  5
1A53
102
{ACAD_REACTORS
330
1A52
102
}
330
A
100
AcDbEntity
  8
HIKIDASI
100
AcDbMText
 10
150.7015744656959
 20
220.6136121332818
 30
0.0
 40
5.0
 41
0.0
 71
     7
 72
     1
  1
補助光電スイッチ
  7
SUNPOU
 11
0.0000000000000001
 21
1.0
 31
0.0
1001
ACAD
1000
MTEXTBEGIN
1070
    73
1070
     1
1070
    44
1040
1.0
1070
    74
1070
     0
1000
MTEXTEND
1000
MTEXTBEGIN
1070
    73
1070
     1
1070
    44
1040
1.0
1070
    74
1070
     0
1000
MTEXTEND
  0
LEADER
  5
1A54
330
A
100
AcDbEntity
  8
HIKIDASI
100
AcDbLeader
  3
SUNPOU_2
 73
     0
 74
     0
 75
     1
 40
5.0
 41
32.26666666666666
 76
     3
 10
63.50000000000026
 20
194.0171837975283
 30
0.0
 10
52.44269141190637
 20
200.40062576205
 30
0.0
 10
52.44269141190635
 20
205.40062576205
 30
0.0
211
-0.0000000000000037
221
1.0
231
0.0
1001
ACAD
1000
DSTYLE
1002
{
1070
     5
1000
OPEN30
1070
    77
1070
     1
1070
   147
1040
1.0
1070
   342
1005
827
1002
}
1000
LEANOF
1010
0.0
1020
0.0
1030
0.0
1000
LEANOF
1010
0.0
1020
0.0
1030
0.0
1000
LEANOF
1010
0.0
1020
0.0
1030
0.0
  0
MTEXT
  5
1A55
102
{ACAD_REACTORS
330
1A54
102
}
330
A
100
AcDbEntity
  8
HIKIDASI
100
AcDbMText
 10
47.94269141190635
 20
207.40062576205
 30
0.0
 40
5.0
 41
0.0
 71
     4
 72
     1
  1
無目取付センサ
  7
SUNPOU
 11
-0.0000000000000037
 21
1.0
 31
0.0
1001
ACAD
1000
MTEXTBEGIN
1070
    73
1070
     1
1070
    44
1040
1.0
1070
    74
1070
     0
1000
MTEXTEND
1000
MTEXTBEGIN
1070
    73
1070
     1
1070
    44
1040
1.0
1070
    74
1070
     0
1000
MTEXTEND
  0
LINE
  5
1A56
330
A
100
AcDbEntity
  8
KAKURE
100
AcDbLine
 10
71.0000000000002
 20
154.5671837975286
 30
0.0
 11
70.99999999999987
 21
243.4671837975283
 31
0.0
  0
LINE
  5
1A57
330
A
100
AcDbEntity
  8
03
100
AcDbLine
 10
171.0000000000003
 20
103.7431036927814
 30
0.0
 11
170.9999999999995
 21
301.4040089838577
 31
0.0
  0
LINE
  5
1A58
330
A
100
AcDbEntity
  8
03
100
AcDbLine
 10
34.00000000000023
 20
107.017183797528
 30
0.0
 11
33.99999999999977
 21
291.0171837975282
 31
0.0
  0
LINE
  5
1A59
330
A
100
AcDbEntity
  8
03
100
AcDbLine
 10
36.00000000000022
 20
109.017183797528
 30
0.0
 11
35.99999999999977
 21
289.0171837975282
 31
0.0
  0
LINE
  5
1A5A
330
A
100
AcDbEntity
  8
03
100
AcDbLine
 10
61.00000000000022
 20
109.0171837975282
 30
0.0
 11
60.99999999999977
 21
289.0171837975282
 31
0.0
  0
LINE
  5
1A5B
330
A
100
AcDbEntity
  8
KAKURE
100
AcDbLine
 10
70.50000000000022
 20
154.5671837975286
 30
0.0
 11
70.4999999999999
 21
243.4671837975283
 31
0.0
  0
LINE
  5
1A5C
330
A
100
AcDbEntity
  8
CHUSIN
100
AcDbLine
 10
141.0
 20
155.8171837975284
 30
0.0
 11
140.9999999999998
 21
242.2171837975283
 31
0.0
  0
LINE
  5
1A5D
330
A
100
AcDbEntity
  8
SAISEN
100
AcDbLine
 10
103.0
 20
226.9669031592786
 30
0.0
 11
113.0000000000001
 21
216.9669031592786
 31
0.0
  0
LINE
  5
1A5E
330
A
100
AcDbEntity
  8
SAISEN
100
AcDbLine
 10
101.0
 20
224.9669031592786
 30
0.0
 11
111.0
 21
214.9669031592785
 31
0.0
  0
LINE
  5
1A5F
330
A
100
AcDbEntity
  8
SAISEN
100
AcDbLine
 10
98.10160350318621
 20
229.8652996560923
 30
0.0
 11
115.9194351399613
 21
212.0474680193173
 31
0.0
  0
LINE
  5
1A60
330
A
100
AcDbEntity
  8
SAISEN
100
AcDbLine
 10
130.0
 20
222.0171837975286
 30
0.0
 11
121.0
 21
224.0171837975285
 31
0.0
  0
LINE
  5
1A61
330
A
100
AcDbEntity
  8
SAISEN
100
AcDbLine
 10
112.0
 20
222.0171837975285
 30
0.0
 11
121.0
 21
224.0171837975285
 31
0.0
  0
LINE
  5
1A62
330
A
100
AcDbEntity
  8
06
100
AcDbLine
 10
74.75
 20
200.267183797528
 30
0.0
 11
74.74999999999987
 21
242.2171837975283
 31
0.0
  0
LINE
  5
1A63
330
A
100
AcDbEntity
  8
06
100
AcDbLine
 10
166.25
 20
200.2671837975286
 30
0.0
 11
166.2499999999998
 21
242.2171837975286
 31
0.0
  0
LINE
  5
1A64
330
A
100
AcDbEntity
  8
06
100
AcDbLine
 10
170.5
 20
154.5671837975286
 30
0.0
 11
170.4999999999999
 21
243.4671837975284
 31
0.0
  0
DIMENSION
  5
1A65
330
A
100
AcDbEntity
  8
SUNPOU
100
AcDbDimension
  2
*D42
 10
170.5
 20
88.55323610301439
 30
0.0
 11
120.5000000000002
 21
83.49333039073059
 31
0.0
 70
   160
  1
DH
 53
180.0
  3
SUNPOU_2_20
100
AcDbAlignedDimension
 13
70.50000000000024
 23
154.5671837975286
 33
0.0
 14
170.5
 24
154.5671837975286
 34
0.0
100
AcDbRotatedDimension
  0
DIMENSION
  5
1A66
330
A
100
AcDbEntity
  8
SUNPOU
100
AcDbDimension
  2
*D43
 10
71.00000000000027
 20
99.91653431332895
 30
0.0
 11
79.32182229902853
 21
95.30826568826348
 31
0.0
 70
   160
 53
180.0
  3
SUNPOU_2_20
100
AcDbAlignedDimension
 13
70.50000000000024
 23
154.5671837975286
 33
0.0
 14
71.00000000000027
 24
107.0171837975283
 34
0.0
100
AcDbRotatedDimension
  0
DIMENSION
  5
1A67
330
A
100
AcDbEntity
  8
SUNPOU
100
AcDbDimension
  2
*D44
 10
171.0000000000003
 20
77.33975577506334
 30
0.0
 11
121.0000000000003
 21
72.24366473437095
 31
0.0
 70
   160
  1
H
 53
180.0
  3
SUNPOU_2_20
100
AcDbAlignedDimension
 13
71.00000000000027
 23
109.0171837975283
 33
0.0
 14
171.0000000000003
 24
103.7431036927814
 34
0.0
100
AcDbRotatedDimension
  0
DIMENSION
  5
1A68
330
A
100
AcDbEntity
  8
SUNPOU
100
AcDbDimension
  2
*D45
 10
71.00000000000027
 20
77.33975577506334
 30
0.0
 11
66.11265028511954
 21
72.81074059186045
 31
0.0
 70
   160
 53
180.0
  3
SUNPOU_2_20
100
AcDbAlignedDimension
 13
61.00000000000026
 23
109.0171837975282
 33
0.0
 14
71.00000000000027
 24
109.0171837975283
 34
0.0
100
AcDbRotatedDimension
  0
LINE
  5
1A69
330
A
100
AcDbEntity
  8
03
100
AcDbLine
 10
34.00000000000023
 20
107.017183797528
 30
0.0
 11
171.0000000000003
 21
107.0171837975287
 31
0.0
  0
LINE
  5
1A6A
330
A
100
AcDbEntity
  8
03
100
AcDbLine
 10
71.0000000000002
 20
153.3171837975283
 30
0.0
 11
171.0
 21
153.3171837975286
 31
0.0
  0
LINE
  5
1A6B
330
A
100
AcDbEntity
  8
03
100
AcDbLine
 10
34.00000000000023
 20
109.017183797528
 30
0.0
 11
171.0000000000003
 21
109.0171837975285
 31
0.0
  0
LINE
  5
1A6C
330
A
100
AcDbEntity
  8
06
100
AcDbLine
 10
70.50000000000022
 20
154.5671837975286
 30
0.0
 11
170.5
 21
154.5671837975286
 31
0.0
  0
LINE
  5
1A6D
330
A
100
AcDbEntity
  8
06
100
AcDbLine
 10
70.5
 20
199.0171837975282
 30
0.0
 11
170.5
 21
199.0171837975282
 31
0.0
  0
LINE
  5
1A6E
330
A
100
AcDbEntity
  8
06
100
AcDbLine
 10
70.5
 20
200.267183797528
 30
0.0
 11
170.5
 21
200.267183797528
 31
0.0
  0
LINE
  5
1A6F
330
A
100
AcDbEntity
  8
06
100
AcDbLine
 10
70.5
 20
197.7671837975282
 30
0.0
 11
170.5
 21
197.7671837975282
 31
0.0
  0
LINE
  5
1A70
330
A
100
AcDbEntity
  8
06
100
AcDbLine
 10
70.50000000000022
 20
155.817183797528
 30
0.0
 11
171.0
 21
155.8171837975286
 31
0.0
  0
POLYLINE
  5
1A71
330
A
100
AcDbEntity
  8
SAISEN
100
AcDb2dPolyline
 66
     1
 10
0.0
 20
0.0
 30
0.0
 70
     1
  0
VERTEX
  5
25A1
330
1A71
100
AcDbEntity
  8
SAISEN
100
AcDbVertex
100
AcDb2dVertex
 10
44.00000000000003
 20
95.40792231151748
 30
0.0
  0
VERTEX
  5
25A2
330
1A71
100
AcDbEntity
  8
SAISEN
100
AcDbVertex
100
AcDb2dVertex
 10
34.00000000000003
 20
95.40792231151748
 30
0.0
  0
VERTEX
  5
25A3
330
1A71
100
AcDbEntity
  8
SAISEN
100
AcDbVertex
100
AcDb2dVertex
 10
34.00000000000003
 20
60.40792231151749
 30
0.0
  0
VERTEX
  5
25A4
330
1A71
100
AcDbEntity
  8
SAISEN
100
AcDbVertex
100
AcDb2dVertex
 10
44.00000000000003
 20
60.40792231151749
 30
0.0
  0
SEQEND
  5
25A5
330
1A71
100
AcDbEntity
  8
SAISEN
  0
MTEXT
  5
1A72
330
A
100
AcDbEntity
  8
MOJI
100
AcDbMText
 10
39.00000000000003
 20
77.90792231151747
 30
0.0
 40
6.0
 41
35.0
 71
     5
 72
     1
  1
内　観　図
  7
0_8
 11
0.0000000000000001
 21
1.0
 31
0.0
1001
ACAD
1000
MTEXTBEGIN
1070
    73
1070
     1
1070
    44
1040
1.0
1070
    74
1070
     0
1000
MTEXTEND
1000
MTEXTBEGIN
1070
    73
1070
     1
1070
    44
1040
1.0
1070
    74
1070
     0
1000
MTEXTEND
  0
LINE
  5
1A73
330
A
100
AcDbEntity
  8
03
100
AcDbLine
 10
71.0000000000002
 20
109.0171837975283
 30
0.0
 11
71.0000000000002
 21
154.5671837975286
 31
0.0
  0
LINE
  5
1A74
330
A
100
AcDbEntity
  8
SAISEN
100
AcDbLine
 10
46.75000000000022
 20
135.0631602477214
 30
0.0
 11
54.25000000000046
 21
127.5631602477214
 31
0.0
  0
LINE
  5
1A75
330
A
100
AcDbEntity
  8
SAISEN
100
AcDbLine
 10
44.75000000000021
 20
133.0631602477214
 30
0.0
 11
52.25000000000045
 21
125.5631602477214
 31
0.0
  0
LINE
  5
1A76
330
A
100
AcDbEntity
  8
SAISEN
100
AcDbLine
 10
42.46675790673828
 20
137.3464023409831
 30
0.0
 11
56.13882538878385
 21
123.6743348589381
 31
0.0
  0
LINE
  5
1A77
330
A
100
AcDbEntity
  8
03
100
AcDbLine
 10
36.00000000000022
 20
155.817183797528
 30
0.0
 11
61.00000000000022
 21
155.817183797528
 31
0.0
  0
LINE
  5
1A78
330
A
100
AcDbEntity
  8
03
100
AcDbLine
 10
36.00000000000022
 20
153.3171837975281
 30
0.0
 11
61.00000000000022
 21
153.3171837975282
 31
0.0
  0
LINE
  5
1A79
330
A
100
AcDbEntity
  8
SAISEN
100
AcDbLine
 10
44.75000000000011
 20
190.6342125419659
 30
0.0
 11
52.25000000000012
 21
183.1342125419658
 31
0.0
  0
LINE
  5
1A7A
330
A
100
AcDbEntity
  8
SAISEN
100
AcDbLine
 10
42.46675790673828
 20
194.9174546352275
 30
0.0
 11
56.13882538878351
 21
181.2453871531825
 31
0.0
  0
LINE
  5
1A7B
330
A
100
AcDbEntity
  8
06
100
AcDbLine
 10
74.7500000000002
 20
155.8171837975284
 30
0.0
 11
74.75000000000012
 21
197.7671837975282
 31
0.0
  0
LINE
  5
1A7C
330
A
100
AcDbEntity
  8
SAISEN
100
AcDbLine
 10
46.7500000000001
 20
192.6342125419658
 30
0.0
 11
54.25000000000011
 21
185.1342125419658
 31
0.0
  0
LINE
  5
1A7D
330
A
100
AcDbEntity
  8
06
100
AcDbLine
 10
66.00000000000021
 20
194.017183797528
 30
0.0
 11
66.00000000000012
 21
204.0171837975282
 31
0.0
  0
LINE
  5
1A7E
330
A
100
AcDbEntity
  8
06
100
AcDbLine
 10
63.50000000000022
 20
194.0171837975283
 30
0.0
 11
63.5
 21
204.0171837975284
 31
0.0
  0
LINE
  5
1A7F
330
A
100
AcDbEntity
  8
06
100
AcDbLine
 10
63.50000000000022
 20
194.0171837975283
 30
0.0
 11
66.00000000000021
 21
194.0171837975285
 31
0.0
  0
LINE
  5
1A80
330
A
100
AcDbEntity
  8
06
100
AcDbLine
 10
63.5
 20
204.0171837975284
 30
0.0
 11
66.0
 21
204.0171837975282
 31
0.0
  0
LINE
  5
1A81
330
A
100
AcDbEntity
  8
SAISEN
100
AcDbLine
 10
103.0000000000002
 20
137.3346094642539
 30
0.0
 11
113.0000000000003
 21
127.334609464254
 31
0.0
  0
LINE
  5
1A82
330
A
100
AcDbEntity
  8
SAISEN
100
AcDbLine
 10
101.0000000000002
 20
135.3346094642539
 30
0.0
 11
111.0000000000004
 21
125.334609464254
 31
0.0
  0
LINE
  5
1A83
330
A
100
AcDbEntity
  8
SAISEN
100
AcDbLine
 10
98.10160350318644
 20
140.2330059610678
 30
0.0
 11
115.9194351399617
 21
122.4151743242926
 31
0.0
  0
LINE
  5
1A84
330
A
100
AcDbEntity
  8
SAISEN
100
AcDbLine
 10
103.0
 20
182.9001359776251
 30
0.0
 11
113.0000000000001
 21
172.9001359776253
 31
0.0
  0
LINE
  5
1A85
330
A
100
AcDbEntity
  8
SAISEN
100
AcDbLine
 10
98.10160350318632
 20
185.7985324744388
 30
0.0
 11
115.9194351399614
 21
167.9807008376639
 31
0.0
  0
LINE
  5
1A86
330
A
100
AcDbEntity
  8
SAISEN
100
AcDbLine
 10
101.0
 20
180.9001359776252
 30
0.0
 11
111.0
 21
170.9001359776253
 31
0.0
  0
LINE
  5
1A87
330
A
100
AcDbEntity
  8
SAISEN
100
AcDbLine
 10
125.5000000000001
 20
179.0171837975284
 30
0.0
 11
125.5000000000001
 21
176.0171837975284
 31
0.0
  0
LINE
  5
1A88
330
A
100
AcDbEntity
  8
SAISEN
100
AcDbLine
 10
116.5
 20
179.0171837975284
 30
0.0
 11
116.5
 21
176.0171837975284
 31
0.0
  0
LINE
  5
1A89
330
A
100
AcDbEntity
  8
SAISEN
100
AcDbLine
 10
130.0
 20
176.0171837975283
 30
0.0
 11
121.0000000000001
 21
174.0171837975284
 31
0.0
  0
LINE
  5
1A8A
330
A
100
AcDbEntity
  8
SAISEN
100
AcDbLine
 10
125.5000000000001
 20
176.0171837975284
 30
0.0
 11
130.0
 21
176.0171837975283
 31
0.0
  0
LINE
  5
1A8B
330
A
100
AcDbEntity
  8
SAISEN
100
AcDbLine
 10
112.0
 20
176.0171837975284
 30
0.0
 11
121.0000000000001
 21
174.0171837975284
 31
0.0
  0
LINE
  5
1A8C
330
A
100
AcDbEntity
  8
SAISEN
100
AcDbLine
 10
116.5
 20
176.0171837975284
 30
0.0
 11
112.0
 21
176.0171837975283
 31
0.0
  0
LINE
  5
1A8D
330
A
100
AcDbEntity
  8
SAISEN
100
AcDbLine
 10
125.5
 20
222.0171837975285
 30
0.0
 11
130.0
 21
222.0171837975286
 31
0.0
  0
LINE
  5
1A8E
330
A
100
AcDbEntity
  8
SAISEN
100
AcDbLine
 10
116.5
 20
179.0171837975284
 30
0.0
 11
125.5000000000001
 21
179.0171837975284
 31
0.0
  0
LINE
  5
1A8F
330
A
100
AcDbEntity
  8
SAISEN
100
AcDbLine
 10
116.5
 20
219.0171837975285
 30
0.0
 11
125.5
 21
219.0171837975285
 31
0.0
  0
LINE
  5
1A90
330
A
100
AcDbEntity
  8
SAISEN
100
AcDbLine
 10
116.5
 20
222.0171837975285
 30
0.0
 11
112.0
 21
222.0171837975286
 31
0.0
  0
LINE
  5
1A91
330
A
100
AcDbEntity
  8
SAISEN
100
AcDbLine
 10
116.5
 20
219.0171837975285
 30
0.0
 11
116.5
 21
222.0171837975285
 31
0.0
  0
LINE
  5
1A92
330
A
100
AcDbEntity
  8
SAISEN
100
AcDbLine
 10
125.5
 20
219.0171837975285
 30
0.0
 11
125.5
 21
222.0171837975285
 31
0.0
  0
DIMENSION
  5
1A93
330
A
100
AcDbEntity
  8
SUNPOU
100
AcDbDimension
  2
*D46
 10
171.0000000000003
 20
88.55323610301439
 30
0.0
 11
179.358344503119
 21
83.96906785299377
 31
0.0
 70
   160
 53
180.0
  3
SUNPOU_2_20
100
AcDbAlignedDimension
 13
170.5
 23
154.5671837975286
 33
0.0
 14
171.0000000000003
 24
103.7431036927814
 34
0.0
100
AcDbRotatedDimension
  0
LINE
  5
1A94
330
A
100
AcDbEntity
  8
03
100
AcDbLine
 10
166.2500000000003
 20
153.3171837975286
 30
0.0
 11
166.2500000000003
 21
109.0171837975285
 31
0.0
  0
TEXT
  5
1A95
330
A
100
AcDbEntity
  8
MOJI
100
AcDbText
 10
164.5500000000004
 20
112.9589256554154
 30
0.0
 40
5.0
  1
ＦＩＸ
 50
90.0
 41
0.8
  7
0_8
 11
162.0500000000004
 21
112.9589256554154
 31
0.0
100
AcDbText
 73
     2
  0
LINE
  5
1A96
330
A
100
AcDbEntity
  8
06
100
AcDbLine
 10
166.2500000000002
 20
155.8171837975286
 30
0.0
 11
166.25
 21
197.7671837975282
 31
0.0
  0
LINE
  5
1A97
330
A
100
AcDbEntity
  8
03
100
AcDbLine
 10
33.99999999999977
 20
291.0171837975282
 30
0.0
 11
170.9999999999995
 21
291.0171837975286
 31
0.0
  0
LINE
  5
1A98
330
A
100
AcDbEntity
  8
03
100
AcDbLine
 10
70.99999999999987
 20
244.7171837975282
 30
0.0
 11
142.7139794168093
 21
244.7171837975285
 31
0.0
  0
LINE
  5
1A99
330
A
100
AcDbEntity
  8
03
100
AcDbLine
 10
33.99999999999977
 20
289.0171837975282
 30
0.0
 11
170.9999999999995
 21
289.0171837975286
 31
0.0
  0
LINE
  5
1A9A
330
A
100
AcDbEntity
  8
CHUSIN
100
AcDbLine
 10
45.07143859348172
 20
306.5171837975282
 30
0.0
 11
102.9921383647794
 21
306.5171837975284
 31
0.0
  0
LINE
  5
1A9B
330
A
100
AcDbEntity
  8
CHUSIN
100
AcDbLine
 10
65.99999999999977
 20
303.5171837975283
 30
0.0
 11
102.9921383647794
 21
303.5171837975283
 31
0.0
  0
LINE
  5
1A9C
330
A
100
AcDbEntity
  8
06
100
AcDbLine
 10
70.4999999999999
 20
243.4671837975283
 30
0.0
 11
143.2139794168094
 21
243.4671837975284
 31
0.0
  0
LINE
  5
1A9D
330
A
100
AcDbEntity
  8
06
100
AcDbLine
 10
70.4999999999999
 20
242.2171837975283
 30
0.0
 11
142.7139794168093
 21
242.2171837975283
 31
0.0
  0
LEADER
  5
1A9E
330
A
100
AcDbEntity
  8
HIKIDASI
100
AcDbLeader
  3
SUNPOU_2
 73
     0
 74
     0
 75
     1
 40
13.33333333333333
 41
38.93333333333334
 76
     3
 10
54.20265643224674
 20
306.5171837975282
 30
0.0
 10
42.94122132647261
 20
317.7337588824152
 30
0.0
 10
42.94122132647261
 20
322.7337588824152
 30
0.0
211
0.0000000000000001
221
1.0
231
0.0
1001
ACAD
1000
DSTYLE
1002
{
1070
     5
1000
OPEN30
1070
    77
1070
     1
1070
   147
1040
1.0
1070
   342
1005
827
1002
}
1000
LEANOF
1010
0.0
1020
0.0
1030
0.0
1000
LEANOF
1010
0.0
1020
0.0
1030
0.0
1000
LEANOF
1010
0.0
1020
0.0
1030
0.0
  0
MTEXT
  5
1A9F
102
{ACAD_REACTORS
330
1A9E
102
}
330
A
100
AcDbEntity
  8
HIKIDASI
100
AcDbMText
 10
42.94122132647261
 20
324.7337588824152
 30
0.0
 40
5.0
 41
0.0
 71
     4
 72
     1
  1
電源AC100V5A\P（電気工事）
  7
SUNPOU
 11
0.0000000000000001
 21
1.0
 31
0.0
1001
ACAD
1000
MTEXTBEGIN
1070
    73
1070
     1
1070
    44
1040
1.0
1070
    74
1070
     0
1000
MTEXTEND
1000
MTEXTBEGIN
1070
    73
1070
     1
1070
    44
1040
1.0
1070
    74
1070
     0
1000
MTEXTEND
  0
LINE
  5
1AA0
330
A
100
AcDbEntity
  8
03
100
AcDbLine
 10
36.00000000000022
 20
244.7171837975282
 30
0.0
 11
60.99999999999988
 21
244.7171837975282
 31
0.0
  0
LINE
  5
1AA1
330
A
100
AcDbEntity
  8
03
100
AcDbLine
 10
36.00000000000022
 20
242.217183797528
 30
0.0
 11
60.99999999999988
 21
242.217183797528
 31
0.0
  0
LINE
  5
1AA2
330
A
100
AcDbEntity
  8
SAISEN
100
AcDbLine
 10
44.74999999999977
 20
271.0421070378547
 30
0.0
 11
52.24999999999977
 21
263.5421070378545
 31
0.0
  0
LINE
  5
1AA3
330
A
100
AcDbEntity
  8
SAISEN
100
AcDbLine
 10
42.46675790673792
 20
275.3253491311164
 30
0.0
 11
56.13882538878328
 21
261.6532816490713
 31
0.0
  0
LINE
  5
1AA4
330
A
100
AcDbEntity
  8
03
100
AcDbLine
 10
70.99999999999987
 20
243.4671837975283
 30
0.0
 11
70.99999999999987
 21
289.0171837975283
 31
0.0
  0
LINE
  5
1AA5
330
A
100
AcDbEntity
  8
CHUSIN
100
AcDbLine
 10
65.99999999999977
 20
264.0171837975283
 30
0.0
 11
65.99999999999965
 21
303.5171837975283
 31
0.0
  0
LINE
  5
1AA6
330
A
100
AcDbEntity
  8
SAISEN
100
AcDbLine
 10
46.74999999999977
 20
273.0421070378545
 30
0.0
 11
54.24999999999977
 21
265.5421070378545
 31
0.0
  0
DIMENSION
  5
1AA7
330
A
100
AcDbEntity
  8
SUNPOU
100
AcDbDimension
  2
*D47
 10
170.9999999999995
 20
267.0465689074965
 30
0.0
 11
155.9999999999998
 21
262.541620518707
 31
0.0
 70
   160
 53
180.0
  3
SUNPOU_2_20
100
AcDbAlignedDimension
 13
140.9999999999999
 23
190.7465689074964
 33
0.0
 14
170.9999999999995
 24
249.9333940938259
 34
0.0
100
AcDbRotatedDimension
  0
TEXT
  5
1AA8
330
A
100
AcDbEntity
  8
MOJI
100
AcDbText
 10
132.4011984562604
 20
297.6825227446548
 30
0.0
 40
5.0
  1
（電気工事）
 50
90.0
 41
0.8
  7
0_8
 11
129.9011984562604
 21
297.6825227446548
 31
0.0
100
AcDbText
 73
     2
  0
TEXT
  5
1AA9
330
A
100
AcDbEntity
  8
MOJI
100
AcDbText
 10
122.6756409948538
 20
297.6825227446548
 30
0.0
 40
5.0
  1
電源スイッチ
 50
90.0
 41
0.8
  7
0_8
 11
120.1756409948538
 21
297.6825227446548
 31
0.0
100
AcDbText
 73
     2
  0
LINE
  5
1AAA
330
A
100
AcDbEntity
  8
03
100
AcDbLine
 10
102.9921383647794
 20
307.5171837975283
 30
0.0
 11
112.9921383647795
 21
307.5171837975283
 31
0.0
  0
LINE
  5
1AAB
330
A
100
AcDbEntity
  8
03
100
AcDbLine
 10
102.9921383647794
 20
302.5143425422531
 30
0.0
 11
112.9921383647795
 21
302.5143425422531
 31
0.0
  0
LINE
  5
1AAC
330
A
100
AcDbEntity
  8
SAISEN
100
AcDbLine
 10
102.9999999999997
 20
273.3127115927709
 30
0.0
 11
112.9999999999997
 21
263.3127115927708
 31
0.0
  0
LINE
  5
1AAD
330
A
100
AcDbEntity
  8
SAISEN
100
AcDbLine
 10
98.10160350318607
 20
276.2111080895845
 30
0.0
 11
115.9194351399612
 21
258.3932764528094
 31
0.0
  0
LINE
  5
1AAE
330
A
100
AcDbEntity
  8
SAISEN
100
AcDbLine
 10
100.9999999999997
 20
271.3127115927709
 30
0.0
 11
110.9999999999996
 21
261.3127115927709
 31
0.0
  0
LINE
  5
1AAF
330
A
100
AcDbEntity
  8
03
100
AcDbLine
 10
102.9921383647794
 20
302.5143425422531
 30
0.0
 11
102.9921383647794
 21
307.5171837975283
 31
0.0
  0
LINE
  5
1AB0
330
A
100
AcDbEntity
  8
03
100
AcDbLine
 10
112.9921383647795
 20
302.5143425422531
 30
0.0
 11
112.9921383647795
 21
307.5171837975283
 31
0.0
  0
LINE
  5
1AB1
330
A
100
AcDbEntity
  8
03
100
AcDbLine
 10
166.25
 20
289.0171837975286
 30
0.0
 11
166.25
 21
244.7171837975286
 31
0.0
  0
LINE
  5
1AB2
330
A
100
AcDbEntity
  8
03
100
AcDbLine
 10
153.8327615780443
 20
244.7171837975285
 30
0.0
 11
170.9999999999998
 21
244.7171837975286
 31
0.0
  0
LINE
  5
1AB3
330
A
100
AcDbEntity
  8
06
100
AcDbLine
 10
154.3327615780443
 20
243.4671837975284
 30
0.0
 11
170.4999999999999
 21
243.4671837975284
 31
0.0
  0
LINE
  5
1AB4
330
A
100
AcDbEntity
  8
06
100
AcDbLine
 10
153.8327615780443
 20
242.2171837975283
 30
0.0
 11
170.9999999999998
 21
242.2171837975283
 31
0.0
  0
TEXT
  5
1AB5
330
A
100
AcDbEntity
  8
MOJI
100
AcDbText
 10
164.5499999999998
 20
272.272664897786
 30
0.0
 40
5.0
  1
ＦＩＸ
 50
90.0
 41
0.8
  7
0_8
 11
162.0499999999998
 21
272.272664897786
 31
0.0
100
AcDbText
 73
     2
  0
TEXT
  5
1AB6
330
A
100
AcDbEntity
  8
MOJI
100
AcDbText
 10
168.8773750128854
 20
292.3863701144893
 30
0.0
 40
5.0
  1
Ｆ.Ｌ
 50
90.0
 41
0.8
  7
0_8
 11
163.8773750128855
 21
292.3863701144893
 31
0.0
100
AcDbText
 73
     3
  0
LEADER
  5
1EFA
330
A
100
AcDbEntity
  8
HIKIDASI
100
AcDbLeader
  3
SUNPOU_2
 73
     0
 74
     0
 75
     1
 40
5.0
 41
37.06666666666665
 76
     3
 10
292.5000000000001
 20
173.0070298769775
 30
0.0
 10
283.1023725834802
 20
178.4454843215845
 30
0.0
 10
283.1023725834802
 20
183.4454843215844
 30
0.0
211
0.0000000000000001
221
1.0
231
0.0
1001
ACAD
1000
DSTYLE
1002
{
1070
     5
1000
OPEN30
1070
    77
1070
     1
1070
   147
1040
1.0
1070
   342
1005
827
1002
}
1000
LEANOF
1010
0.0
1020
0.0
1030
0.0
1000
LEANOF
1010
0.0
1020
0.0
1030
0.0
1000
LEANOF
1010
0.0
1020
0.0
1030
0.0
  0
MTEXT
  5
1EFB
102
{ACAD_REACTORS
330
1EFA
102
}
330
A
100
AcDbEntity
  8
HIKIDASI
100
AcDbMText
 10
281.1023725834802
 20
185.4454843215845
 30
0.0
 40
5.0
 41
0.0
 71
     7
 72
     1
  1
補助光電スイッチ
  7
SUNPOU
 11
0.0000000000000001
 21
1.0
 31
0.0
1001
ACAD
1000
MTEXTBEGIN
1070
    73
1070
     1
1070
    44
1040
1.0
1070
    74
1070
     0
1000
MTEXTEND
1000
MTEXTBEGIN
1070
    73
1070
     1
1070
    44
1040
1.0
1070
    74
1070
     0
1000
MTEXTEND
  0
MTEXT
  5
1EFC
102
{ACAD_REACTORS
330
1EFD
102
}
330
A
100
AcDbEntity
  8
HIKIDASI
100
AcDbMText
 10
281.1023725834802
 20
308.982201098472
 30
0.0
 40
5.0
 41
0.0
 71
     7
 72
     1
  1
補助光電スイッチ
  7
SUNPOU
 11
0.0000000000000001
 21
1.0
 31
0.0
1001
ACAD
1000
MTEXTBEGIN
1070
    73
1070
     1
1070
    44
1040
1.0
1070
    74
1070
     0
1000
MTEXTEND
1000
MTEXTBEGIN
1070
    73
1070
     1
1070
    44
1040
1.0
1070
    74
1070
     0
1000
MTEXTEND
  0
LEADER
  5
1EFD
330
A
100
AcDbEntity
  8
HIKIDASI
100
AcDbLeader
  3
SUNPOU_2
 73
     0
 74
     0
 75
     1
 40
5.0
 41
37.06666666666665
 76
     3
 10
292.5000000000001
 20
357.0
 30
0.0
 10
283.1023725834802
 20
351.5615455553928
 30
0.0
 10
283.1023725834802
 20
346.5615455553928
 30
0.0
211
0.0000000000000001
221
-1.0
231
0.0
210
0.0
220
0.0
230
-1.0
1001
ACAD
1000
DSTYLE
1002
{
1070
     5
1000
OPEN30
1070
    77
1070
     1
1070
   147
1040
1.0
1070
   342
1005
827
1002
}
1000
LEANOF
1010
0.0
1020
0.0
1030
0.0
1000
LEANOF
1010
0.0
1020
0.0
1030
0.0
1000
LEANOF
1010
0.0
1020
0.0
1030
0.0
  0
LEADER
  5
1F0F
330
A
100
AcDbEntity
  8
HIKIDASI
100
AcDbLeader
  3
SUNPOU_2
 73
     0
 74
     0
 75
     1
 40
5.0
 41
37.06666666666665
 76
     3
 10
318.5000000000001
 20
250.0035149384887
 30
0.0
 10
299.7047451669597
 20
260.8804238277024
 30
0.0
 10
299.7047451669597
 20
265.8804238277024
 30
0.0
211
0.0000000000000001
221
1.0
231
0.0
1001
ACAD
1000
DSTYLE
1002
{
1070
     5
1000
OPEN30
1070
    77
1070
     1
1070
   147
1040
1.0
1070
   342
1005
827
1002
}
1000
LEANOF
1010
0.0
1020
0.0
1030
0.0
1000
LEANOF
1010
0.0
1020
0.0
1030
0.0
1000
LEANOF
1010
0.0
1020
0.0
1030
0.0
  0
MTEXT
  5
1F10
102
{ACAD_REACTORS
330
1F0F
102
}
330
A
100
AcDbEntity
  8
HIKIDASI
100
AcDbMText
 10
297.7047451669598
 20
263.6402134996965
 30
0.0
 40
5.0
 41
0.0
 71
     7
 72
     1
  1
スリムセナージドアI型
  7
SUNPOU
 11
0.0000000000000001
 21
1.0
 31
0.0
1001
ACAD
1000
MTEXTBEGIN
1070
    73
1070
     1
1070
    44
1040
1.0
1070
    74
1070
     0
1000
MTEXTEND
1000
MTEXTBEGIN
1070
    73
1070
     1
1070
    44
1040
1.0
1070
    74
1070
     0
1000
MTEXTEND
  0
TEXT
  5
1F17
330
A
100
AcDbEntity
  8
MOJI
100
AcDbText
 10
406.0383767453849
 20
57.8439163842188
 30
0.0
 40
6.0
  1
引き残しが出る場合がありますのでご注意下さい。
 50
90.0
 41
0.8
  7
0_8
 11
400.038376745385
 21
57.8439163842188
 31
0.0
100
AcDbText
 73
     3
  0
TEXT
  5
1F18
330
A
100
AcDbEntity
  8
MOJI
100
AcDbText
 10
396.0383767453848
 20
57.8439163842188
 30
0.0
 40
6.0
  1
注、ＤＷと引込み寸法（ＦｉＸＷ）が同一の場合
 50
90.0
 41
0.8
  7
0_8
 11
390.0383767453849
 21
57.8439163842188
 31
0.0
100
AcDbText
 73
     3
  0
ARC
  5
2209
330
A
100
AcDbEntity
  8
06
100
AcDbCircle
 10
346.3059606270508
 20
369.0
 30
0.0
 40
1.75
100
AcDbArc
 50
210.1390449605222
 51
149.8609550394776
  0
LINE
  5
220A
330
A
100
AcDbEntity
  8
06
100
AcDbLine
 10
341.9999999999999
 20
371.4999999999998
 30
0.0
 11
344.7925440744288
 21
369.8786753315358
 31
0.0
  0
LINE
  5
220B
330
A
100
AcDbEntity
  8
06
100
AcDbLine
 10
344.7925440744288
 20
368.1213246684638
 30
0.0
 11
341.9999999999995
 21
366.4999999999993
 31
0.0
  0
LINE
  5
220C
330
A
100
AcDbEntity
  8
06
100
AcDbLine
 10
342.0
 20
365.5
 30
0.0
 11
342.0
 21
366.5
 31
0.0
  0
LINE
  5
220D
330
A
100
AcDbEntity
  8
06
100
AcDbLine
 10
339.5
 20
365.5
 30
0.0
 11
342.0
 21
365.5
 31
0.0
  0
LINE
  5
220E
330
A
100
AcDbEntity
  8
06
100
AcDbLine
 10
329.4999999999999
 20
365.5
 30
0.0
 11
326.9999999999999
 21
365.5
 31
0.0
  0
LINE
  5
220F
330
A
100
AcDbEntity
  8
06
100
AcDbLine
 10
326.9999999999999
 20
365.5
 30
0.0
 11
326.9999999999999
 21
372.5
 31
0.0
  0
LINE
  5
2210
330
A
100
AcDbEntity
  8
06
100
AcDbLine
 10
326.9999999999999
 20
372.5
 30
0.0
 11
341.9999999999999
 21
372.5
 31
0.0
  0
LINE
  5
2211
330
A
100
AcDbEntity
  8
06
100
AcDbLine
 10
341.9999999999999
 20
372.5
 30
0.0
 11
341.9999999999999
 21
371.4999999999998
 31
0.0
  0
LINE
  5
2212
330
A
100
AcDbEntity
  8
06
100
AcDbLine
 10
331.4999999999999
 20
368.0
 30
0.0
 11
337.5
 21
368.0
 31
0.0
  0
LINE
  5
2213
330
A
100
AcDbEntity
  8
06
100
AcDbLine
 10
329.4999999999999
 20
359.0
 30
0.0
 11
329.4999999999999
 21
365.5
 31
0.0
  0
LINE
  5
2214
330
A
100
AcDbEntity
  8
06
100
AcDbLine
 10
339.4999999999999
 20
359.0
 30
0.0
 11
339.5
 21
365.5
 31
0.0
  0
LINE
  5
221E
330
A
100
AcDbEntity
  8
06
100
AcDbLine
 10
342.9999999999998
 20
380.0
 30
0.0
 11
342.9999999999998
 21
382.5
 31
0.0
  0
LINE
  5
221F
330
A
100
AcDbEntity
  8
06
100
AcDbLine
 10
346.4999999999998
 20
377.4999999999998
 30
0.0
 11
346.4999999999998
 21
380.0
 31
0.0
  0
LINE
  5
2220
330
A
100
AcDbEntity
  8
06
100
AcDbLine
 10
346.4999999999998
 20
380.0
 30
0.0
 11
342.9999999999998
 21
380.0
 31
0.0
  0
LINE
  5
2221
330
A
100
AcDbEntity
  8
06
100
AcDbLine
 10
325.4999999999999
 20
377.4999999999998
 30
0.0
 11
346.5000000000001
 21
377.4999999999998
 31
0.0
  0
LINE
  5
2224
330
A
100
AcDbEntity
  8
06
100
AcDbLine
 10
325.4999999999999
 20
380.0
 30
0.0
 11
325.4999999999999
 21
377.4999999999998
 31
0.0
  0
LINE
  5
2225
330
A
100
AcDbEntity
  8
06
100
AcDbLine
 10
328.9999999999999
 20
382.5
 30
0.0
 11
328.9999999999999
 21
380.0
 31
0.0
  0
LINE
  5
2226
330
A
100
AcDbEntity
  8
06
100
AcDbLine
 10
328.9999999999999
 20
380.0
 30
0.0
 11
325.4999999999999
 21
380.0
 31
0.0
  0
LINE
  5
222D
330
A
100
AcDbEntity
  8
06
100
AcDbLine
 10
329.4999999999999
 20
359.0
 30
0.0
 11
329.4999999999999
 21
360.4999999999998
 31
0.0
  0
LINE
  5
222E
330
A
100
AcDbEntity
  8
06
100
AcDbLine
 10
339.5
 20
359.0
 30
0.0
 11
339.5
 21
360.4999999999998
 31
0.0
  0
LINE
  5
2264
330
A
100
AcDbEntity
  8
06
100
AcDbLine
 10
329.0000000000005
 20
147.5070298769777
 30
0.0
 11
329.0000000000004
 21
150.0070298769775
 31
0.0
  0
LINE
  5
2265
330
A
100
AcDbEntity
  8
06
100
AcDbLine
 10
329.0000000000004
 20
150.0070298769775
 30
0.0
 11
325.5000000000003
 21
150.0070298769775
 31
0.0
  0
LINE
  5
2266
330
A
100
AcDbEntity
  8
06
100
AcDbLine
 10
325.5000000000003
 20
150.0070298769775
 30
0.0
 11
325.5000000000003
 21
152.5070298769777
 31
0.0
  0
LINE
  5
2267
330
A
100
AcDbEntity
  8
06
100
AcDbLine
 10
325.5000000000003
 20
152.5070298769777
 30
0.0
 11
346.5000000000008
 21
152.5070298769777
 31
0.0
  0
LINE
  5
2268
330
A
100
AcDbEntity
  8
06
100
AcDbLine
 10
346.5000000000002
 20
152.5070298769777
 30
0.0
 11
346.5000000000002
 21
150.0070298769775
 31
0.0
  0
LINE
  5
2269
330
A
100
AcDbEntity
  8
06
100
AcDbLine
 10
346.5000000000002
 20
150.0070298769775
 30
0.0
 11
343.0000000000004
 21
150.0070298769775
 31
0.0
  0
LINE
  5
226A
330
A
100
AcDbEntity
  8
06
100
AcDbLine
 10
343.0000000000004
 20
150.0070298769775
 30
0.0
 11
343.0000000000005
 21
147.5070298769777
 31
0.0
  0
LINE
  5
226B
330
A
100
AcDbEntity
  8
06
100
AcDbLine
 10
339.5000000000004
 20
169.5070298769777
 30
0.0
 11
339.5000000000004
 21
171.0070298769775
 31
0.0
  0
LINE
  5
226C
330
A
100
AcDbEntity
  8
06
100
AcDbLine
 10
329.5000000000003
 20
169.5070298769777
 30
0.0
 11
329.5000000000003
 21
171.0070298769778
 31
0.0
  0
ARC
  5
226F
330
A
100
AcDbEntity
  8
06
100
AcDbCircle
 10
346.3059606270511
 20
161.0070298769777
 30
0.0
 40
1.75
100
AcDbArc
 50
210.1390449605222
 51
149.8609550394776
  0
LINE
  5
2270
330
A
100
AcDbEntity
  8
06
100
AcDbLine
 10
344.7925440744293
 20
161.8857052085139
 30
0.0
 11
342.0
 21
163.5070298769784
 31
0.0
  0
LINE
  5
2272
330
A
100
AcDbEntity
  8
06
100
AcDbLine
 10
339.5000000000004
 20
171.0070298769775
 30
0.0
 11
339.5000000000004
 21
164.5070298769775
 31
0.0
  0
LINE
  5
2273
330
A
100
AcDbEntity
  8
06
100
AcDbLine
 10
339.5000000000004
 20
164.5070298769775
 30
0.0
 11
342.0000000000003
 21
164.5070298769775
 31
0.0
  0
LINE
  5
2274
330
A
100
AcDbEntity
  8
06
100
AcDbLine
 10
342.0000000000003
 20
164.5070298769775
 30
0.0
 11
342.0000000000003
 21
163.5070298769775
 31
0.0
  0
LINE
  5
2275
330
A
100
AcDbEntity
  8
06
100
AcDbLine
 10
342.0000000000003
 20
157.5070298769777
 30
0.0
 11
342.0000000000003
 21
158.5070298769775
 31
0.0
  0
LINE
  5
2276
330
A
100
AcDbEntity
  8
06
100
AcDbLine
 10
342.0000000000003
 20
158.5070298769775
 30
0.0
 11
344.7925440744293
 21
160.1283545454416
 31
0.0
  0
LINE
  5
2277
330
A
100
AcDbEntity
  8
06
100
AcDbLine
 10
327.0000000000004
 20
157.5070298769777
 30
0.0
 11
342.0000000000003
 21
157.5070298769777
 31
0.0
  0
LINE
  5
2278
330
A
100
AcDbEntity
  8
06
100
AcDbLine
 10
327.0000000000004
 20
164.5070298769778
 30
0.0
 11
327.0000000000004
 21
157.5070298769777
 31
0.0
  0
LINE
  5
2279
330
A
100
AcDbEntity
  8
06
100
AcDbLine
 10
329.5000000000003
 20
164.5070298769775
 30
0.0
 11
327.0000000000004
 21
164.5070298769778
 31
0.0
  0
LINE
  5
227A
330
A
100
AcDbEntity
  8
06
100
AcDbLine
 10
329.5000000000003
 20
171.0070298769778
 30
0.0
 11
329.5000000000003
 21
164.5070298769775
 31
0.0
  0
LINE
  5
22AE
330
A
100
AcDbEntity
  8
06
100
AcDbLine
 10
339.5000000000001
 20
292.5035149384888
 30
0.0
 11
339.5
 21
291.0035149384888
 31
0.0
  0
LINE
  5
22AF
330
A
100
AcDbEntity
  8
06
100
AcDbLine
 10
329.5000000000001
 20
292.5035149384886
 30
0.0
 11
329.5000000000001
 21
291.0035149384887
 31
0.0
  0
LINE
  5
22B8
330
A
100
AcDbEntity
  8
06
100
AcDbLine
 10
327.0000000000001
 20
279.0035149384887
 30
0.0
 11
342.0
 21
279.0035149384888
 31
0.0
  0
LINE
  5
22BA
330
A
100
AcDbEntity
  8
06
100
AcDbLine
 10
342.0
 20
286.0035149384888
 30
0.0
 11
342.0
 21
285.0035149384888
 31
0.0
  0
LINE
  5
22BB
330
A
100
AcDbEntity
  8
06
100
AcDbLine
 10
342.0
 20
286.0035149384888
 30
0.0
 11
339.5
 21
286.0035149384888
 31
0.0
  0
LINE
  5
22BC
330
A
100
AcDbEntity
  8
06
100
AcDbLine
 10
339.5000000000001
 20
292.5035149384888
 30
0.0
 11
339.4999999999997
 21
286.0035149384886
 31
0.0
  0
ARC
  5
22BD
330
A
100
AcDbEntity
  8
06
100
AcDbCircle
 10
346.2499999999998
 20
282.6161007969334
 30
0.0
 40
1.75
100
AcDbArc
 50
211.580127045654
 51
150.6751395796429
  0
LINE
  5
22BE
330
A
100
AcDbEntity
  8
06
100
AcDbLine
 10
344.7591599034075
 20
281.6996425019782
 30
0.0
 11
342.0
 21
280.0035149384888
 31
0.0
  0
LINE
  5
22BF
330
A
100
AcDbEntity
  8
06
100
AcDbLine
 10
342.0
 20
285.0035149384888
 30
0.0
 11
344.7242505139565
 21
283.4731821850396
 31
0.0
  0
LINE
  5
22C3
330
A
100
AcDbEntity
  8
06
100
AcDbLine
 10
329.5000000000001
 20
292.5035149384886
 30
0.0
 11
329.4999999999999
 21
286.0035149384886
 31
0.0
  0
LINE
  5
22C4
330
A
100
AcDbEntity
  8
06
100
AcDbLine
 10
329.4999999999999
 20
286.0035149384886
 30
0.0
 11
327.0
 21
286.0035149384886
 31
0.0
  0
LINE
  5
22C5
330
A
100
AcDbEntity
  8
06
100
AcDbLine
 10
327.0
 20
286.0035149384886
 30
0.0
 11
327.0000000000001
 21
279.0035149384887
 31
0.0
  0
LINE
  5
2302
330
A
100
AcDbEntity
  8
06
100
AcDbLine
 10
339.5000000000001
 20
237.5035149384888
 30
0.0
 11
339.5000000000001
 21
244.0035149384888
 31
0.0
  0
LINE
  5
2303
330
A
100
AcDbEntity
  8
06
100
AcDbLine
 10
339.5000000000001
 20
244.0035149384888
 30
0.0
 11
342.0000000000001
 21
244.0035149384888
 31
0.0
  0
LINE
  5
2304
330
A
100
AcDbEntity
  8
06
100
AcDbLine
 10
342.0000000000001
 20
251.0035149384888
 30
0.0
 11
327.0000000000001
 21
251.0035149384886
 31
0.0
  0
ARC
  5
2305
330
A
100
AcDbEntity
  8
06
100
AcDbCircle
 10
346.2500000000001
 20
247.5035149384888
 30
0.0
 40
1.75
100
AcDbArc
 50
209.8880407989213
 51
149.9999999999993
  0
LINE
  5
2306
330
A
100
AcDbEntity
  8
06
100
AcDbLine
 10
342.0000000000001
 20
249.9707646935092
 30
0.0
 11
342.0000000000001
 21
251.0035149384888
 31
0.0
  0
LINE
  5
2307
330
A
100
AcDbEntity
  8
06
100
AcDbLine
 10
342.0000000000001
 20
244.0035149384888
 30
0.0
 11
342.0000000000001
 21
245.0497762944328
 31
0.0
  0
LINE
  5
2308
330
A
100
AcDbEntity
  8
06
100
AcDbLine
 10
344.7344584368066
 20
246.6285166090109
 30
0.0
 11
342.0000000000001
 21
245.0497762944328
 31
0.0
  0
LINE
  5
2309
330
A
100
AcDbEntity
  8
06
100
AcDbLine
 10
344.752351613889
 20
248.3681826373614
 30
0.0
 11
342.00005450374
 21
249.9572221147956
 31
0.0
  0
LINE
  5
230E
330
A
100
AcDbEntity
  8
06
100
AcDbLine
 10
329.5000000000001
 20
237.5035149384887
 30
0.0
 11
329.5000000000001
 21
244.0035149384888
 31
0.0
  0
LINE
  5
230F
330
A
100
AcDbEntity
  8
06
100
AcDbLine
 10
327.0000000000001
 20
251.0035149384886
 30
0.0
 11
327.0000000000001
 21
244.0035149384887
 31
0.0
  0
LINE
  5
2310
330
A
100
AcDbEntity
  8
06
100
AcDbLine
 10
327.0000000000001
 20
244.0035149384887
 30
0.0
 11
329.5000000000001
 21
244.0035149384887
 31
0.0
  0
LINE
  5
231F
330
A
100
AcDbEntity
  8
06
100
AcDbLine
 10
341.5000000000005
 20
261.0035149384887
 30
0.0
 11
341.5000000000004
 21
262.5035149384888
 31
0.0
  0
LINE
  5
2320
330
A
100
AcDbEntity
  8
06
100
AcDbLine
 10
339.5000000000006
 20
237.5035149384887
 30
0.0
 11
339.5000000000005
 21
239.0035149384887
 31
0.0
  0
LINE
  5
2321
330
A
100
AcDbEntity
  8
06
100
AcDbLine
 10
329.5000000000006
 20
237.5035149384884
 30
0.0
 11
329.5000000000005
 21
239.0035149384887
 31
0.0
  0
MTEXT
  5
238E
330
A
100
AcDbEntity
  8
HIKIDASI
100
AcDbMText
 10
247.4794582192639
 20
181.027571657714
 30
0.0
 40
4.0
 41
0.0
 71
     9
 72
     1
  1
\A1;
  7
SUNPOU
1001
ACAD
1000
MTEXTBEGIN
1070
    73
1070
     1
1070
    44
1040
1.0
1070
    74
1070
     0
1000
MTEXTEND
1000
MTEXTBEGIN
1070
    73
1070
     1
1070
    44
1040
1.0
1070
    74
1070
     0
1000
MTEXTEND
  0
LEADER
  5
2394
330
A
100
AcDbEntity
  8
HIKIDASI
100
AcDbLeader
  3
SUNPOU_2_20
 73
     0
 74
     0
 75
     1
 40
13.33333333333333
 41
29.86666666666666
 76
     3
 10
286.5000000000004
 20
146.0070298769775
 30
0.0
 10
251.5924015207465
 20
180.781310658413
 30
0.0
 10
251.5924015207465
 20
184.781310658413
 30
0.0
340
2395
211
0.0000000000000001
221
1.0
231
0.0
213
-8.460972245737593
223
0.0
233
0.0
1001
ACAD
1000
DSTYLE
1002
{
1070
     5
1000
OPEN30
1070
    77
1070
     1
1070
   147
1040
1.0
1070
   342
1005
827
1002
}
1000
LEANOF
1010
-8.460972245737593
1020
0.0
1030
0.0
1000
LEANOF
1010
-8.460972245737593
1020
0.0
1030
0.0
1000
LEANOF
1010
-8.460972245737593
1020
0.0
1030
0.0
  0
MTEXT
  5
2395
330
A
100
AcDbEntity
  8
HIKIDASI
100
AcDbMText
 10
258.0533737664841
 20
186.781310658413
 30
0.0
 40
5.0
 41
0.0
 71
     7
 72
     1
  1
φ12穴加工\P（サッシ工事）
  7
SUNPOU
 11
0.0000000000000001
 21
1.0
 31
0.0
1001
ACAD
1000
MTEXTBEGIN
1070
    73
1070
     1
1070
    44
1040
1.0
1070
    74
1070
     0
1000
MTEXTEND
1000
MTEXTBEGIN
1070
    73
1070
     1
1070
    44
1040
1.0
1070
    74
1070
     0
1000
MTEXTEND
  0
MTEXT
  5
2396
330
A
100
AcDbEntity
  8
HIKIDASI
100
AcDbMText
 10
243.2409696072885
 20
323.7569356212051
 30
0.0
 40
5.0
 41
0.0
 71
     9
 72
     1
  1
φ12穴加工\P（サッシ工事）
  7
SUNPOU
 11
0.0000000000000001
 21
1.0
 31
0.0
1001
ACAD
1000
MTEXTBEGIN
1070
    73
1070
     1
1070
    44
1040
1.0
1070
    74
1070
     0
1000
MTEXTEND
1000
MTEXTBEGIN
1070
    73
1070
     1
1070
    44
1040
1.0
1070
    74
1070
     0
1000
MTEXTEND
  0
LEADER
  5
2397
330
A
100
AcDbEntity
  8
HIKIDASI
100
AcDbLeader
  3
SUNPOU_2_20
 73
     0
 75
     1
 40
13.33333333333333
 41
29.86666666666666
 76
     3
 10
292.5
 20
384.0
 30
0.0
 10
236.779997361551
 20
329.7569356212051
 30
0.0
 10
236.779997361551
 20
325.7569356212051
 30
0.0
340
2396
211
0.0000000000000001
221
1.0
231
0.0
213
-8.460972245737593
223
0.0
233
0.0
1001
ACAD
1000
DSTYLE
1002
{
1070
     5
1000
OPEN30
1070
    77
1070
     1
1070
   147
1040
1.0
1070
   342
1005
827
1002
}
1000
LEANOF
1010
-8.460972245737593
1020
0.0
1030
0.0
1000
LEANOF
1010
-8.460972245737593
1020
0.0
1030
0.0
1000
LEANOF
1010
-8.460972245737593
1020
0.0
1030
0.0
  0
CIRCLE
  5
2416
330
A
100
AcDbEntity
  8
SAISEN
100
AcDbCircle
 10
390.0976380784321
 20
49.5430264122316
 30
0.0
 40
5.0
  0
TEXT
  5
2417
330
A
100
AcDbEntity
  8
MOJI
100
AcDbText
 10
387.0488190392161
 20
45.27151320611588
 30
0.0
 40
8.0
  1
Ｓ
 41
0.8
  7
0_8
 11
387.0488190392161
 21
53.27151320611588
 31
0.0
100
AcDbText
 73
     3
  0
ARC
  5
24A9
330
A
100
AcDbEntity
  8
03
100
AcDbCircle
 10
269.4999999999999
 20
519.3175416344817
 30
0.0
 40
10.0
100
AcDbArc
 50
75.52248781406973
 51
101.5369590328147
  0
ARC
  5
24AA
330
A
100
AcDbEntity
  8
03
100
AcDbCircle
 10
257.4999999999998
 20
519.3175416344812
 30
0.0
 40
10.0
100
AcDbArc
 50
78.46304096718505
 51
104.47751218593
  0
ARC
  5
24AB
330
A
100
AcDbEntity
  8
03
100
AcDbCircle
 10
269.4999999999999
 20
417.2979868422936
 30
0.0
 40
9.999999999998436
100
AcDbArc
 50
258.4630409671818
 51
281.5369590343306
  0
ARC
  5
24AC
330
A
100
AcDbEntity
  8
03
100
AcDbCircle
 10
257.4999317243738
 20
417.2987620404567
 30
0.0
 40
10.00077319149139
100
AcDbArc
 50
258.4643444029306
 51
281.5364540470708
  0
ARC
  5
24BE
330
A
100
AcDbEntity
  8
03
100
AcDbCircle
 10
257.5
 20
112.8245715114591
 30
0.0
 40
10.0
100
AcDbArc
 50
78.46304096718505
 51
101.5369590328144
  0
ARC
  5
24BF
330
A
100
AcDbEntity
  8
03
100
AcDbCircle
 10
269.5000000000002
 20
112.8245715114594
 30
0.0
 40
10.0
100
AcDbArc
 50
78.46304096718481
 51
101.5369590328147
  0
MTEXT
  5
2546
330
A
100
AcDbEntity
  8
MOJI
100
AcDbMText
 10
359.0000000000001
 20
29.0
 30
0.0
 40
6.5
 41
49.99999999999994
 71
     5
 72
     1
  1
姿図･よこ断面図\PＦＢ割付図 　　
  7
0_80
1001
ACAD
1000
MTEXTBEGIN
1070
    73
1070
     1
1070
    44
1040
1.0
1070
    74
1070
     0
1000
MTEXTEND
1000
MTEXTBEGIN
1070
    73
1070
     1
1070
    44
1040
1.0
1070
    74
1070
     0
1000
MTEXTEND
  0
MTEXT
  5
2547
330
A
100
AcDbEntity
  8
MOJI
100
AcDbMText
 10
308.9999999999999
 20
29.0
 30
0.0
 40
7.0
 41
50.0
 71
     5
 72
     1
  1
図番５－１
  7
0_80
1001
ACAD
1000
MTEXTBEGIN
1070
    73
1070
     1
1070
    44
1040
1.0
1070
    74
1070
     0
1000
MTEXTEND
1000
MTEXTBEGIN
1070
    73
1070
     1
1070
    44
1040
1.0
1070
    74
1070
     0
1000
MTEXTEND
  0
MTEXT
  5
2548
330
A
100
AcDbEntity
  8
MOJI
100
AcDbMText
 10
254.0
 20
29.00000000000011
 30
0.0
 40
7.0
 41
60.0
 71
     5
 72
     1
  1
片引き又は両引き
  7
0_80
1001
ACAD
1000
MTEXTBEGIN
1070
    73
1070
     1
1070
    44
1040
1.0
1070
    74
1070
     0
1000
MTEXTEND
1000
MTEXTBEGIN
1070
    73
1070
     1
1070
    44
1040
1.0
1070
    74
1070
     0
1000
MTEXTEND
  0
POLYLINE
  5
2549
330
A
100
AcDbEntity
  8
SAISEN
100
AcDb2dPolyline
 66
     1
 10
0.0
 20
0.0
 30
0.0
 70
     1
  0
VERTEX
  5
25A6
330
2549
100
AcDbEntity
  8
SAISEN
100
AcDbVertex
100
AcDb2dVertex
 10
34.00000000000003
 20
17.0
 30
0.0
  0
VERTEX
  5
25A7
330
2549
100
AcDbEntity
  8
SAISEN
100
AcDbVertex
100
AcDb2dVertex
 10
384.0
 20
17.0
 30
0.0
  0
VERTEX
  5
25A8
330
2549
100
AcDbEntity
  8
SAISEN
100
AcDbVertex
100
AcDb2dVertex
 10
384.0
 20
41.00000000000022
 30
0.0
  0
VERTEX
  5
25A9
330
2549
100
AcDbEntity
  8
SAISEN
100
AcDbVertex
100
AcDb2dVertex
 10
34.00000000000003
 20
41.00000000000022
 30
0.0
  0
SEQEND
  5
25AA
330
2549
100
AcDbEntity
  8
SAISEN
  0
MTEXT
  5
254A
330
A
100
AcDbEntity
  8
MOJI
100
AcDbMText
 10
89.00000000000003
 20
29.00000000000011
 30
0.0
 40
7.0
 41
110.0
 71
     5
 72
     1
  1
ステンレスサッシ 方立て通し納り
  7
0_8
1001
ACAD
1000
MTEXTBEGIN
1070
    73
1070
     1
1070
    44
1040
1.0
1070
    74
1070
     0
1000
MTEXTEND
1000
MTEXTBEGIN
1070
    73
1070
     1
1070
    44
1040
1.0
1070
    74
1070
     0
1000
MTEXTEND
  0
LINE
  5
254B
330
A
100
AcDbEntity
  8
SAISEN
100
AcDbLine
 10
144.0
 20
41.00000000000022
 30
0.0
 11
144.0
 21
17.0
 31
0.0
  0
MTEXT
  5
254C
330
A
100
AcDbEntity
  8
MOJI
100
AcDbMText
 10
184.0
 20
29.00000000000011
 30
0.0
 40
7.0
 41
80.0
 71
     5
 72
     1
  1
ＳＯＶ－２００ＫＤＣ
  7
0_8
1001
ACAD
1000
MTEXTBEGIN
1070
    73
1070
     1
1070
    44
1040
1.0
1070
    74
1070
     0
1000
MTEXTEND
1000
MTEXTBEGIN
1070
    73
1070
     1
1070
    44
1040
1.0
1070
    74
1070
     0
1000
MTEXTEND
  0
LINE
  5
254D
330
A
100
AcDbEntity
  8
SAISEN
100
AcDbLine
 10
224.0
 20
41.00000000000022
 30
0.0
 11
224.0
 21
17.0
 31
0.0
  0
LINE
  5
254E
330
A
100
AcDbEntity
  8
SAISEN
100
AcDbLine
 10
284.0
 20
41.00000000000022
 30
0.0
 11
284.0
 21
17.0
 31
0.0
  0
VIEWPORT
  5
FEB
102
{ACAD_XDICTIONARY
360
257D
102
}
330
B
100
AcDbEntity
 67
     1
  8
0
100
AcDbViewport
 10
198.052401243039
 20
285.1810812791224
 30
0.0
 40
1078.360813229463
 41
628.3637603574926
 68
     1
 69
     1
1001
ACAD
1000
MVIEW
1002
{
1070
    16
1010
0.0
1020
0.0
1030
0.0
1010
0.0
1020
0.0
1030
1.0
1040
0.0
1040
628.3637603574926
1040
198.052401243039
1040
285.1810812791224
1040
50.0
1040
0.0
1040
0.0
1070
     0
1070
   100
1070
     1
1070
     1
1070
     0
1070
     0
1070
     0
1070
     0
1040
0.0
1040
0.0
1040
0.0
1040
10.0
1040
10.0
1040
10.0
1040
10.0
1070
     0
1002
{
1002
}
1002
}
  0
VIEWPORT
  5
2567
102
{ACAD_XDICTIONARY
360
2583
102
}
330
B
100
AcDbEntity
 67
     1
  8
DEFPOINTS
100
AcDbViewport
 10
198.0524021968171
 20
285.1810803253444
 30
0.0
 40
396.4947900856078
 41
570.4190483509644
 68
     2
 69
     2
1001
ACAD
1000
MVIEW
1002
{
1070
    16
1010
0.0
1020
0.0
1030
0.0
1010
0.0
1020
0.0
1030
1.0
1040
0.0
1040
570.4190483509644
1040
210.0
1040
297.0
1040
50.0
1040
0.0
1040
0.0
1070
     0
1070
   100
1070
     1
1070
     1
1070
     0
1070
     0
1070
     0
1070
     0
1040
0.0
1040
0.0
1040
0.0
1040
1.0
1040
1.0
1040
0.0
1040
0.0
1070
     0
1002
{
1002
}
1002
}
  0
ENDSEC
  0
SECTION
  2
OBJECTS
  0
DICTIONARY
  5
19
330
0
100
AcDbDictionary
  3
ACAD_COLOR
350
664
  3
ACAD_GROUP
350
1A
  3
ACAD_LAYOUT
350
665
  3
ACAD_MATERIAL
350
663
  3
ACAD_MLINESTYLE
350
1B
  3
ACAD_PLOTSETTINGS
350
666
  3
ACADDIM
350
2393
  3
ASE_INDEX_DICTIONARY
350
254F
1001
ACAD
1000
TREAT_AS_HARD
1070
     0
1000
TREAT_AS_HARD
1070
     0
1000
TREAT_AS_HARD
1070
     0
  0
DICTIONARY
  5
2536
330
2
100
AcDbDictionary
  3
ACAD_LAYERSTATES
350
2537
1001
ACAD
1000
TREAT_AS_HARD
1070
     1
  0
DICTIONARY
  5
24D3
330
A
100
AcDbDictionary
  3
ACAD_LAYOUTSELFREF
350
258B
1001
ACAD
1000
TREAT_AS_HARD
1070
     0
1000
TREAT_AS_HARD
1070
     1
  0
DICTIONARY
  5
24D5
330
B
100
AcDbDictionary
  3
ACAD_LAYOUTSELFREF
350
258C
1001
ACAD
1000
TREAT_AS_HARD
1070
     0
1000
TREAT_AS_HARD
1070
     1
  0
DICTIONARY
  5
257D
330
FEB
100
AcDbDictionary
  3
ACAD_XREC_ROUNDTRIP
350
257E
1001
ACAD
1000
TREAT_AS_HARD
1070
     1
  0
DICTIONARY
  5
2583
330
2567
100
AcDbDictionary
  3
ACAD_XREC_ROUNDTRIP
350
2584
1001
ACAD
1000
TREAT_AS_HARD
1070
     1
  0
DICTIONARY
  5
664
102
{ACAD_REACTORS
330
19
102
}
330
19
100
AcDbDictionary
1001
ACAD
1000
TREAT_AS_HARD
1070
     0
1000
TREAT_AS_HARD
1070
     0
1000
TREAT_AS_HARD
1070
     0
  0
DICTIONARY
  5
1A
102
{ACAD_REACTORS
330
19
102
}
330
19
100
AcDbDictionary
  3
DAGROUP610
350
610
  3
DAGROUP614
350
614
  3
DAGROUP618
350
618
  3
DAGROUP61C
350
61C
  3
DAGROUP620
350
620
  3
DAGROUP624
350
624
  3
DAGROUP628
350
628
  3
DAGROUP62C
350
62C
  3
DAGROUP630
350
630
  3
DAGROUP634
350
634
  3
DAGROUP638
350
638
  3
DAGROUP63C
350
63C
  3
DAGROUP640
350
640
  3
DAGROUP643
350
643
1001
ACAD
1000
TREAT_AS_HARD
1070
     0
1000
TREAT_AS_HARD
1070
     0
1000
TREAT_AS_HARD
1070
     0
  0
DICTIONARY
  5
665
102
{ACAD_REACTORS
330
19
102
}
330
19
100
AcDbDictionary
1001
ACAD
1000
TREAT_AS_HARD
1070
     0
1000
TREAT_AS_HARD
1070
     0
1000
TREAT_AS_HARD
1070
     0
  0
DICTIONARY
  5
663
102
{ACAD_REACTORS
330
19
102
}
330
19
100
AcDbDictionary
1001
ACAD
1000
TREAT_AS_HARD
1070
     0
1000
TREAT_AS_HARD
1070
     0
1000
TREAT_AS_HARD
1070
     0
  0
DICTIONARY
  5
1B
102
{ACAD_REACTORS
330
19
102
}
330
19
100
AcDbDictionary
  3
STANDARD
350
1C
1001
ACAD
1000
TREAT_AS_HARD
1070
     0
1000
TREAT_AS_HARD
1070
     0
1000
TREAT_AS_HARD
1070
     0
  0
DICTIONARY
  5
666
102
{ACAD_REACTORS
330
19
102
}
330
19
100
AcDbDictionary
1001
ACAD
1000
TREAT_AS_HARD
1070
     0
1000
TREAT_AS_HARD
1070
     0
1000
TREAT_AS_HARD
1070
     0
  0
XRECORD
  5
2393
102
{ACAD_REACTORS
330
19
102
}
330
19
100
AcDbXrecord
 90
   990106
  3

 60
     0
 61
     0
 62
     1
 63
     3
 64
     1
 65
     0
 66
     0
 67
     3
 68
     1
 69
     0
 70
     0
 71
     0
 72
     0
 40
0.0
170
     2
340
2395
  0
DICTIONARY
  5
254F
102
{ACAD_REACTORS
330
19
102
}
330
19
100
AcDbDictionary
  3
ASEBLOCKHIERARCHYINDEXRECORD
350
2550
1001
DCO15
1040
1508668936.453
1001
ACAD
1000
TREAT_AS_HARD
1070
     0
  0
DICTIONARY
  5
2537
102
{ACAD_REACTORS
330
2536
102
}
330
2536
100
AcDbDictionary
1001
ACAD
1000
TREAT_AS_HARD
1070
     0
  0
XRECORD
  5
258B
102
{ACAD_REACTORS
330
24D3
102
}
330
24D3
100
AcDbXrecord
340
A
  0
XRECORD
  5
258C
102
{ACAD_REACTORS
330
24D5
102
}
330
24D5
100
AcDbXrecord
340
B
  0
XRECORD
  5
257E
102
{ACAD_REACTORS
330
257D
102
}
330
257D
100
AcDbXrecord
102
SHADEPLOT
 70
     0
  0
XRECORD
  5
2584
102
{ACAD_REACTORS
330
2583
102
}
330
2583
100
AcDbXrecord
102
SHADEPLOT
 70
     0
  0
GROUP
  5
610
102
{ACAD_REACTORS
330
1A
102
}
330
1A
100
AcDbGroup
300

 70
     0
 71
     1
  0
GROUP
  5
614
102
{ACAD_REACTORS
330
1A
102
}
330
1A
100
AcDbGroup
300

 70
     0
 71
     1
  0
GROUP
  5
618
102
{ACAD_REACTORS
330
1A
102
}
330
1A
100
AcDbGroup
300

 70
     0
 71
     1
  0
GROUP
  5
61C
102
{ACAD_REACTORS
330
1A
102
}
330
1A
100
AcDbGroup
300

 70
     0
 71
     1
  0
GROUP
  5
620
102
{ACAD_REACTORS
330
1A
102
}
330
1A
100
AcDbGroup
300

 70
     0
 71
     1
  0
GROUP
  5
624
102
{ACAD_REACTORS
330
1A
102
}
330
1A
100
AcDbGroup
300

 70
     0
 71
     1
  0
GROUP
  5
628
102
{ACAD_REACTORS
330
1A
102
}
330
1A
100
AcDbGroup
300

 70
     0
 71
     1
  0
GROUP
  5
62C
102
{ACAD_REACTORS
330
1A
102
}
330
1A
100
AcDbGroup
300

 70
     0
 71
     1
  0
GROUP
  5
630
102
{ACAD_REACTORS
330
1A
102
}
330
1A
100
AcDbGroup
300

 70
     0
 71
     1
  0
GROUP
  5
634
102
{ACAD_REACTORS
330
1A
102
}
330
1A
100
AcDbGroup
300

 70
     0
 71
     1
  0
GROUP
  5
638
102
{ACAD_REACTORS
330
1A
102
}
330
1A
100
AcDbGroup
300

 70
     0
 71
     1
  0
GROUP
  5
63C
102
{ACAD_REACTORS
330
1A
102
}
330
1A
100
AcDbGroup
300

 70
     0
 71
     1
  0
GROUP
  5
640
102
{ACAD_REACTORS
330
1A
102
}
330
1A
100
AcDbGroup
300

 70
     0
 71
     1
  0
GROUP
  5
643
102
{ACAD_REACTORS
330
1A
102
}
330
1A
100
AcDbGroup
300

 70
     0
 71
     1
  0
MLINESTYLE
  5
1C
102
{ACAD_REACTORS
330
1B
102
}
330
1B
100
AcDbMlineStyle
  2
STANDARD
 70
     0
  3

 62
     0
 51
90.00000000000019
 52
90.00000000000019
 71
     2
 49
0.5
 62
   256
  6
BYLAYER
 49
-0.5
 62
   256
  6
BYLAYER
  0
XRECORD
  5
2550
102
{ACAD_REACTORS
330
254F
102
}
330
254F
100
AcDbXrecord
330
147B
330
147C
330
1484
330
1485
330
148D
330
148E
330
1496
330
1497
330
149F
330
14A0
330
14A8
330
14A9
330
14B1
330
14B2
330
14BD
330
14BE
330
14C5
330
14C6
330
14CE
330
14CF
330
14D7
330
14D8
330
14E0
330
14E1
330
1F02
330
1F03
330
1E12
330
1E13
330
1E24
330
1E25
330
1E1B
330
1E1C
330
150E
330
150F
330
1E09
330
1E0A
330
1520
330
1521
330
152B
330
152C
330
1EE5
330
1EE6
330
20C8
330
20C9
330
20BD
330
20BE
330
20B3
330
20B4
330
2113
330
2114
330
210A
330
210B
330
2101
330
2102
330
20F9
330
20FA
330
20EF
330
20F0
330
20E8
330
20E7
330
20DC
330
20DD
330
20D0
330
20D1
330
20AB
330
20AC
330
214B
330
214C
330
2142
330
2143
330
2139
330
213A
330
2130
330
2131
330
2128
330
2129
330
2120
330
211F
330
2065
330
2066
330
206F
330
2070
330
207A
330
207B
330
2083
330
2084
330
208E
330
208F
330
2099
330
209A
330
2186
330
2187
  0
ENDSEC
  0
EOF
