  0
SECTION
  2
HEADER
  9
$ACADVER
  1
AC1012
  9
$DWGCODEPAGE
  3
dos932
  9
$INSBASE
 10
0.0
 20
0.0
 30
0.0
  9
$EXTMIN
 10
0.0
 20
0.0
 30
0.0
  9
$EXTMAX
 10
420.0
 20
594.0
 30
0.0
  9
$LIMMIN
 10
0.0
 20
0.0
  9
$LIMMAX
 10
420.0
 20
594.0
  9
$ORTHOMODE
 70
     0
  9
$REGENMODE
 70
     1
  9
$FILLMODE
 70
     1
  9
$QTEXTMODE
 70
     0
  9
$MIRRTEXT
 70
     1
  9
$DRAGMODE
 70
     2
  9
$LTSCALE
 40
0.3
  9
$OSMODE
 70
    37
  9
$ATTMODE
 70
     1
  9
$TEXTSIZE
 40
8.0
  9
$TRACEWID
 40
0.05
  9
$TEXTSTYLE
  7
STANDARD
  9
$CLAYER
  8
DEFPOINTS
  9
$CELTYPE
  6
BYLAYER
  9
$CECOLOR
 62
   256
  9
$CELTSCALE
 40
1.0
  9
$DELOBJ
 70
     1
  9
$DISPSILH
 70
     0
  9
$DIMSCALE
 40
2.0
  9
$DIMASZ
 40
2.5
  9
$DIMEXO
 40
1.5
  9
$DIMDLI
 40
0.0
  9
$DIMRND
 40
0.0
  9
$DIMDLE
 40
0.0
  9
$DIMEXE
 40
1.0
  9
$DIMTP
 40
0.0
  9
$DIMTM
 40
0.0
  9
$DIMTXT
 40
2.5
  9
$DIMCEN
 40
0.0
  9
$DIMTSZ
 40
0.0
  9
$DIMTOL
 70
     0
  9
$DIMLIM
 70
     0
  9
$DIMTIH
 70
     0
  9
$DIMTOH
 70
     0
  9
$DIMSE1
 70
     0
  9
$DIMSE2
 70
     0
  9
$DIMTAD
 70
     1
  9
$DIMZIN
 70
     8
  9
$DIMBLK
  1
OPEN30
  9
$DIMASO
 70
     1
  9
$DIMSHO
 70
     1
  9
$DIMPOST
  1

  9
$DIMAPOST
  1

  9
$DIMALT
 70
     0
  9
$DIMALTD
 70
     2
  9
$DIMALTF
 40
25.4
  9
$DIMLFAC
 40
1.0
  9
$DIMTOFL
 70
     1
  9
$DIMTVP
 40
0.0
  9
$DIMTIX
 70
     0
  9
$DIMSOXD
 70
     0
  9
$DIMSAH
 70
     0
  9
$DIMBLK1
  1

  9
$DIMBLK2
  1

  9
$DIMSTYLE
  2
SUNPOU_2
  9
$DIMCLRD
 70
   256
  9
$DIMCLRE
 70
   256
  9
$DIMCLRT
 70
   256
  9
$DIMTFAC
 40
1.0
  9
$DIMGAP
 40
1.0
  9
$DIMJUST
 70
     0
  9
$DIMSD1
 70
     0
  9
$DIMSD2
 70
     0
  9
$DIMTOLJ
 70
     1
  9
$DIMTZIN
 70
     0
  9
$DIMALTZ
 70
     0
  9
$DIMALTTZ
 70
     0
  9
$DIMFIT
 70
     3
  9
$DIMUPT
 70
     0
  9
$DIMUNIT
 70
     2
  9
$DIMDEC
 70
     1
  9
$DIMTDEC
 70
     1
  9
$DIMALTU
 70
     2
  9
$DIMALTTD
 70
     2
  9
$DIMTXSTY
  7
SUNPOU
  9
$DIMAUNIT
 70
     0
  9
$LUNITS
 70
     2
  9
$LUPREC
 70
     4
  9
$SKETCHINC
 40
0.1
  9
$FILLETRAD
 40
0.5
  9
$AUNITS
 70
     0
  9
$AUPREC
 70
     0
  9
$MENU
  1
acad
  9
$ELEVATION
 40
0.0
  9
$PELEVATION
 40
0.0
  9
$THICKNESS
 40
0.0
  9
$LIMCHECK
 70
     0
  9
$BLIPMODE
 70
     0
  9
$CHAMFERA
 40
0.0
  9
$CHAMFERB
 40
0.0
  9
$CHAMFERC
 40
0.0
  9
$CHAMFERD
 40
0.0
  9
$SKPOLY
 70
     0
  9
$TDCREATE
 40
2444972.375000000
  9
$TDUPDATE
 40
2453266.399334664
  9
$TDINDWG
 40
0.6388986458
  9
$TDUSRTIMER
 40
0.6388986458
  9
$USRTIMER
 70
     1
  9
$ANGBASE
 50
0.0
  9
$ANGDIR
 70
     0
  9
$PDMODE
 70
     0
  9
$PDSIZE
 40
1.0
  9
$PLINEWID
 40
0.0
  9
$COORDS
 70
     1
  9
$SPLFRAME
 70
     0
  9
$SPLINETYPE
 70
     6
  9
$SPLINESEGS
 70
     8
  9
$ATTDIA
 70
     0
  9
$ATTREQ
 70
     1
  9
$HANDLING
 70
-16383
  9
$HANDSEED
  5
12BE
  9
$SURFTAB1
 70
     6
  9
$SURFTAB2
 70
     6
  9
$SURFTYPE
 70
     6
  9
$SURFU
 70
     6
  9
$SURFV
 70
     6
  9
$UCSNAME
  2

  9
$UCSORG
 10
0.0
 20
0.0
 30
0.0
  9
$UCSXDIR
 10
1.0
 20
0.0
 30
0.0
  9
$UCSYDIR
 10
0.0
 20
1.0
 30
0.0
  9
$PUCSNAME
  2

  9
$PUCSORG
 10
0.0
 20
0.0
 30
0.0
  9
$PUCSXDIR
 10
1.0
 20
0.0
 30
0.0
  9
$PUCSYDIR
 10
0.0
 20
1.0
 30
0.0
  9
$USERI1
 70
     0
  9
$USERI2
 70
     0
  9
$USERI3
 70
     0
  9
$USERI4
 70
     0
  9
$USERI5
 70
     0
  9
$USERR1
 40
0.0
  9
$USERR2
 40
0.0
  9
$USERR3
 40
0.0
  9
$USERR4
 40
0.0
  9
$USERR5
 40
0.0
  9
$WORLDVIEW
 70
     1
  9
$SHADEDGE
 70
     3
  9
$SHADEDIF
 70
    70
  9
$TILEMODE
 70
     1
  9
$MAXACTVP
 70
    16
  9
$PINSBASE
 10
0.0
 20
0.0
 30
0.0
  9
$PLIMCHECK
 70
     0
  9
$PEXTMIN
 10
-0.1933276983398855
 20
-0.0174202791267817
 30
-0.0015258207003583
  9
$PEXTMAX
 10
396.2949895136353
 20
570.3923158424973
 30
0.0000000349246037
  9
$PLIMMIN
 10
-11.94191342824454
 20
-11.76600219398141
  9
$PLIMMAX
 10
408.0435733360149
 20
582.1408996648768
  9
$UNITMODE
 70
     0
  9
$VISRETAIN
 70
     0
  9
$PLINEGEN
 70
     1
  9
$PSLTSCALE
 70
     0
  9
$TREEDEPTH
 70
  3020
  9
$PICKSTYLE
 70
     1
  9
$CMLSTYLE
  2
STANDARD
  9
$CMLJUST
 70
     0
  9
$CMLSCALE
 40
1.0
  9
$SAVEIMAGES
 70
     1
  0
ENDSEC
  0
SECTION
  2
CLASSES
  0
CLASS
  1
LWPOLYLINE
  2
AcDbPolyline
  3
AutoCAD 2000
 90
    32768
280
     0
281
     1
  0
CLASS
  1
IMAGE
  2
AcDbRasterImage
  3
ISM
 90
    32895
280
     0
281
     1
  0
CLASS
  1
OLE2FRAME
  2
AcDbOle2Frame
  3
AutoCAD 2000
 90
    32768
280
     0
281
     1
  0
CLASS
  1
HATCH
  2
AcDbHatch
  3
AutoCAD 2000
 90
    32768
280
     0
281
     1
  0
CLASS
  1
DICTIONARYVAR
  2
AcDbDictionaryVar
  3
AutoCAD 2000
 90
    32768
280
     0
281
     0
  0
CLASS
  1
RASTERVARIABLES
  2
AcDbRasterVariables
  3
ISM
 90
    32768
280
     0
281
     0
  0
CLASS
  1
IMAGEDEF
  2
AcDbRasterImageDef
  3
ISM
 90
    32768
280
     0
281
     0
  0
CLASS
  1
IMAGEDEF_REACTOR
  2
AcDbRasterImageDefReactor
  3
ISM
 90
    32769
280
     0
281
     0
  0
CLASS
  1
IDBUFFER
  2
AcDbIdBuffer
  3
AutoCAD 2000
 90
    32768
280
     0
281
     0
  0
CLASS
  1
SPATIAL_FILTER
  2
AcDbSpatialFilter
  3
AutoCAD 2000
 90
    32768
280
     0
281
     0
  0
CLASS
  1
XRECORD
  2
AcDbXrecord
  3
AutoCAD 2000
 90
    32768
280
     0
281
     0
  0
CLASS
  1
SORTENTSTABLE
  2
AcDbSortentsTable
  3
AutoCAD 2000
 90
    32768
280
     0
281
     0
  0
CLASS
  1
LAYER_INDEX
  2
AcDbLayerIndex
  3
AutoCAD 2000
 90
    32768
280
     0
281
     0
  0
CLASS
  1
SPATIAL_INDEX
  2
AcDbSpatialIndex
  3
AutoCAD 2000
 90
    32768
280
     0
281
     0
  0
CLASS
  1
OBJECT_PTR
  2
CAseDLPNTableRecord
  3
ASE-LPNTableRecord
 90
    32769
280
     0
281
     0
  0
CLASS
  1
ACDBDICTIONARYWDFLT
  2
AcDbDictionaryWithDefault
  3
AutoCAD 2000
 90
    32768
280
     0
281
     0
  0
CLASS
  1
ACDBPLACEHOLDER
  2
AcDbPlaceHolder
  3
AutoCAD 2000
 90
    32768
280
     0
281
     0
  0
CLASS
  1
LAYOUT
  2
AcDbLayout
  3
AutoCAD 2000
 90
    32768
280
     0
281
     0
  0
CLASS
  1
LONG_TRANSACTION
  2
AcDbLongTransaction
  3
AutoCAD 2000
 90
    32768
280
     0
281
     0
  0
CLASS
  1
LWPOLYLINE
  2
AcDbPolyline
  3
AutoCAD 2000
 90
    32768
280
     0
281
     1
  0
CLASS
  1
HATCH
  2
AcDbHatch
  3
AutoCAD 2000
 90
    32768
280
     0
281
     1
  0
CLASS
  1
XRECORD
  2
AcDbXrecord
  3
AutoCAD 2000
 90
    32768
280
     0
281
     0
  0
CLASS
  1
LONG_TRANSACTION
  2
AcDbLongTransaction
  3
AutoCAD 2000
 90
    32768
280
     0
281
     0
  0
CLASS
  1
LWPOLYLINE
  2
AcDbPolyline
  3
AutoCAD 2000
 90
    32768
280
     0
281
     1
  0
CLASS
  1
HATCH
  2
AcDbHatch
  3
AutoCAD 2000
 90
    32768
280
     0
281
     1
  0
CLASS
  1
XRECORD
  2
AcDbXrecord
  3
AutoCAD 2000
 90
    32768
280
     0
281
     0
  0
ENDSEC
  0
SECTION
  2
TABLES
  0
TABLE
  2
VPORT
  5
7
330
0
100
AcDbSymbolTable
 70
     2
  0
VPORT
  5
12A6
330
7
100
AcDbSymbolTableRecord
100
AcDbViewportTableRecord
  2
*ACTIVE
 70
     0
 10
0.0
 20
0.0
 11
1.0
 21
1.0
 12
229.2993316590425
 22
296.977352109311
 13
0.0
 23
0.0
 14
1.0
 24
1.0
 15
0.0
 25
0.0
 16
0.0
 26
0.0
 36
1.0
 17
0.0
 27
0.0
 37
0.0
 40
601.0225210799277
 41
1.780442804428044
 42
50.0
 43
0.0
 44
0.0
 50
0.0
 51
0.0
 71
     0
 72
   100
 73
     1
 74
     1
 75
     0
 76
     0
 77
     0
 78
     0
  0
ENDTAB
  0
TABLE
  2
LTYPE
  5
4
330
0
100
AcDbSymbolTable
 70
     4
  0
LTYPE
  5
11
330
4
100
AcDbSymbolTableRecord
100
AcDbLinetypeTableRecord
  2
BYBLOCK
 70
     0
  3

 72
    65
 73
     0
 40
0.0
  0
LTYPE
  5
12
330
4
100
AcDbSymbolTableRecord
100
AcDbLinetypeTableRecord
  2
BYLAYER
 70
     0
  3

 72
    65
 73
     0
 40
0.0
  0
LTYPE
  5
13
330
4
100
AcDbSymbolTableRecord
100
AcDbLinetypeTableRecord
  2
CONTINUOUS
 70
     0
  3
Solid line
 72
    65
 73
     0
 40
0.0
  0
LTYPE
  5
21
330
4
100
AcDbSymbolTableRecord
100
AcDbLinetypeTableRecord
  2
DASHED2
 70
     0
  3
Dashed (.5x) _ _ _ _ _ _ _ _ _ _ _ _ _ _ _ _ _
 72
    65
 73
     2
 40
9.524999999999996
 49
6.349999999999998
 74
     0
 49
-3.174999999999998
 74
     0
  0
LTYPE
  5
813
330
4
100
AcDbSymbolTableRecord
100
AcDbLinetypeTableRecord
  2
CENTER2
 70
     0
  3
Center (.5x) ___ _ ___ _ ___ _ ___ _ ___ _ ___
 72
    65
 73
     4
 40
28.57499999999999
 49
19.05
 74
     0
 49
-3.174999999999998
 74
     0
 49
3.174999999999998
 74
     0
 49
-3.174999999999998
 74
     0
  0
LTYPE
  5
814
330
4
100
AcDbSymbolTableRecord
100
AcDbLinetypeTableRecord
  2
PHANTOM2
 70
     0
  3
Phantom (.5x) ___ _ _ ___ _ _ ___ _ _ ___ _ _
 72
    65
 73
     6
 40
31.75
 49
15.875
 74
     0
 49
-3.174999999999998
 74
     0
 49
3.174999999999998
 74
     0
 49
-3.174999999999998
 74
     0
 49
3.174999999999998
 74
     0
 49
-3.174999999999998
 74
     0
  0
ENDTAB
  0
TABLE
  2
LAYER
  5
2
102
{ACAD_XDICTIONARY
360
1248
102
}
330
0
100
AcDbSymbolTable
 70
    13
  0
LAYER
  5
14
330
2
100
AcDbSymbolTableRecord
100
AcDbLayerTableRecord
  2
0
 70
     0
 62
     7
  6
CONTINUOUS
  0
LAYER
  5
550
330
2
100
AcDbSymbolTableRecord
100
AcDbLayerTableRecord
  2
DEFPOINTS
 70
     0
 62
     7
  6
CONTINUOUS
  0
LAYER
  5
815
330
2
100
AcDbSymbolTableRecord
100
AcDbLayerTableRecord
  2
03
 70
     0
 62
     3
  6
CONTINUOUS
  0
LAYER
  5
816
330
2
100
AcDbSymbolTableRecord
100
AcDbLayerTableRecord
  2
04
 70
     0
 62
     4
  6
CONTINUOUS
  0
LAYER
  5
819
330
2
100
AcDbSymbolTableRecord
100
AcDbLayerTableRecord
  2
CHUSIN
 70
     0
 62
     6
  6
CENTER2
  0
LAYER
  5
81A
330
2
100
AcDbSymbolTableRecord
100
AcDbLayerTableRecord
  2
HIKIDASI
 70
     0
 62
     6
  6
CONTINUOUS
  0
LAYER
  5
81B
330
2
100
AcDbSymbolTableRecord
100
AcDbLayerTableRecord
  2
KAKURE
 70
     0
 62
     6
  6
DASHED2
  0
LAYER
  5
81C
330
2
100
AcDbSymbolTableRecord
100
AcDbLayerTableRecord
  2
MOJI
 70
     0
 62
     3
  6
CONTINUOUS
  0
LAYER
  5
81D
330
2
100
AcDbSymbolTableRecord
100
AcDbLayerTableRecord
  2
SOUZOU
 70
     0
 62
     6
  6
PHANTOM2
  0
LAYER
  5
81E
330
2
100
AcDbSymbolTableRecord
100
AcDbLayerTableRecord
  2
SUNPOU
 70
     0
 62
     6
  6
CONTINUOUS
  0
LAYER
  5
834
330
2
100
AcDbSymbolTableRecord
100
AcDbLayerTableRecord
  2
02
 70
     0
 62
     2
  6
CONTINUOUS
  0
LAYER
  5
BEB
330
2
100
AcDbSymbolTableRecord
100
AcDbLayerTableRecord
  2
SAISEN
 70
     0
 62
     3
  6
CONTINUOUS
  0
LAYER
  5
11AF
330
2
100
AcDbSymbolTableRecord
100
AcDbLayerTableRecord
  2
06
 70
     0
 62
     6
  6
CONTINUOUS
  0
ENDTAB
  0
TABLE
  2
STYLE
  5
3
330
0
100
AcDbSymbolTable
 70
     4
  0
STYLE
  5
17
330
3
100
AcDbSymbolTableRecord
100
AcDbTextStyleTableRecord
  2
STANDARD
 70
     0
 40
0.0
 41
0.8
 50
0.0
 71
     0
 42
8.0
  3
txt.shx
  4
bigfont.shx
  0
STYLE
  5
829
330
3
100
AcDbSymbolTableRecord
100
AcDbTextStyleTableRecord
  2
SUNPOU
 70
     0
 40
0.0
 41
0.8
 50
0.0
 71
     0
 42
0.2
  3
txt.shx
  4
extfont.shx
  0
STYLE
  5
82F
330
3
100
AcDbSymbolTableRecord
100
AcDbTextStyleTableRecord
  2
0_8
 70
     0
 40
0.0
 41
0.8
 50
0.0
 71
     0
 42
6.0
  3
txt.shx
  4
extfont.shx
  0
STYLE
  5
1246
330
3
100
AcDbSymbolTableRecord
100
AcDbTextStyleTableRecord
  2
0_80
 70
     0
 40
0.0
 41
0.8
 50
0.0
 71
     0
 42
7.0
  3
txt.shx
  4
extfont.shx
  0
ENDTAB
  0
TABLE
  2
VIEW
  5
5
330
0
100
AcDbSymbolTable
 70
     1
  0
VIEW
  5
135
330
5
100
AcDbSymbolTableRecord
100
AcDbViewTableRecord
  2
QQQQ
 70
     0
 40
616.1136801260902
 10
-7.371721325065492
 20
0.809553959279782
 41
414.0915041283947
 11
0.0
 21
0.0
 31
1.0
 12
100.0
 22
100.0
 32
0.0
 42
50.0
 43
0.0
 44
0.0
 50
0.0
 71
     0
  0
ENDTAB
  0
TABLE
  2
UCS
  5
6
330
0
100
AcDbSymbolTable
 70
     0
  0
ENDTAB
  0
TABLE
  2
APPID
  5
8
330
0
100
AcDbSymbolTable
 70
     3
  0
APPID
  5
16
330
8
100
AcDbSymbolTableRecord
100
AcDbRegAppTableRecord
  2
ACAD
 70
     0
  0
APPID
  5
C36
330
8
100
AcDbSymbolTableRecord
100
AcDbRegAppTableRecord
  2
DCO15
 70
     0
  0
APPID
  5
11F7
330
8
100
AcDbSymbolTableRecord
100
AcDbRegAppTableRecord
  2
CONTENTBLOCKICON
 70
     0
  0
ENDTAB
  0
TABLE
  2
DIMSTYLE
  5
9
330
0
100
AcDbSymbolTable
 70
     1
  0
DIMSTYLE
105
82A
102
{ACAD_REACTORS
330
868
330
875
330
884
330
8A9
330
8B6
330
8C3
330
8D2
330
8DF
330
8EE
330
8FB
330
911
330
91E
330
934
330
941
330
94E
330
95B
330
968
330
975
330
98B
330
998
330
9A5
330
9B4
330
9CE
330
9F5
330
9DE
330
9E2
330
9E4
330
9E5
330
9EA
330
9ED
330
9F2
330
A0C
330
ED3
102
}
330
9
100
AcDbSymbolTableRecord
100
AcDbDimStyleTableRecord
  2
SUNPOU_2
 70
     0
  3

  4

  5
OPEN30
  6

  7

 40
2.0
 41
2.5
 42
1.5
 43
0.0
 44
1.0
 45
0.0
 46
0.0
 47
0.0
 48
0.0
140
2.5
141
0.0
142
0.0
143
25.4
144
1.0
145
0.0
146
1.0
147
1.0
 71
     0
 72
     0
 73
     0
 74
     0
 75
     0
 76
     0
 77
     1
 78
     8
170
     0
171
     2
172
     1
173
     0
174
     0
175
     0
176
   256
177
   256
178
   256
270
     2
271
     1
272
     1
273
     2
274
     2
340
829
275
     0
280
     0
281
     0
282
     0
283
     1
284
     0
285
     0
286
     0
287
     3
288
     0
  0
ENDTAB
  0
TABLE
  2
BLOCK_RECORD
  5
1
330
0
100
AcDbSymbolTable
 70
    27
  0
BLOCK_RECORD
  5
A
102
{ACAD_XDICTIONARY
360
11F3
102
}
330
1
100
AcDbSymbolTableRecord
100
AcDbBlockTableRecord
  2
*MODEL_SPACE
  0
BLOCK_RECORD
  5
B
102
{ACAD_XDICTIONARY
360
11F5
102
}
330
1
100
AcDbSymbolTableRecord
100
AcDbBlockTableRecord
  2
*PAPER_SPACE
  0
BLOCK_RECORD
  5
823
330
1
100
AcDbSymbolTableRecord
100
AcDbBlockTableRecord
  2
_OPEN30
1001
CONTENTBLOCKICON
1071
        0
1004
2800000020000000200000000100080000000000000400000000000000000000000000000000000000000000000080000080000000808000800000008000800080800000C0C0C000C0DCC000F0CAA6000020400000206000002080000020A0000020C0000020E00000400000004020000040400000406000004080000040A0
1004
000040C0000040E00000600000006020000060400000606000006080000060A0000060C0000060E00000800000008020000080400000806000008080000080A0000080C0000080E00000A0000000A0200000A0400000A0600000A0800000A0A00000A0C00000A0E00000C0000000C0200000C0400000C0600000C0800000C0
1004
A00000C0C00000C0E00000E0000000E0200000E0400000E0600000E0800000E0A00000E0C00000E0E00040000000400020004000400040006000400080004000A0004000C0004000E00040200000402020004020400040206000402080004020A0004020C0004020E000404000004040200040404000404060004040800040
1004
40A0004040C0004040E00040600000406020004060400040606000406080004060A0004060C0004060E00040800000408020004080400040806000408080004080A0004080C0004080E00040A0000040A0200040A0400040A0600040A0800040A0A00040A0C00040A0E00040C0000040C0200040C0400040C0600040C08000
1004
40C0A00040C0C00040C0E00040E0000040E0200040E0400040E0600040E0800040E0A00040E0C00040E0E00080000000800020008000400080006000800080008000A0008000C0008000E00080200000802020008020400080206000802080008020A0008020C0008020E00080400000804020008040400080406000804080
1004
008040A0008040C0008040E00080600000806020008060400080606000806080008060A0008060C0008060E00080800000808020008080400080806000808080008080A0008080C0008080E00080A0000080A0200080A0400080A0600080A0800080A0A00080A0C00080A0E00080C0000080C0200080C0400080C0600080C0
1004
800080C0A00080C0C00080C0E00080E0000080E0200080E0400080E0600080E0800080E0A00080E0C00080E0E000C0000000C0002000C0004000C0006000C0008000C000A000C000C000C000E000C0200000C0202000C0204000C0206000C0208000C020A000C020C000C020E000C0400000C0402000C0404000C0406000C0
1004
408000C040A000C040C000C040E000C0600000C0602000C0604000C0606000C0608000C060A000C060C000C060E000C0800000C0802000C0804000C0806000C0808000C080A000C080C000C080E000C0A00000C0A02000C0A04000C0A06000C0A08000C0A0A000C0A0C000C0A0E000C0C00000C0C02000C0C04000C0C06000
1004
C0C08000C0C0A000F0FBFF00A4A0A000808080000000FF0000FF000000FFFF00FF000000FF00FF00FFFF0000FFFFFF0000000000000000000000000000000000000000000000000000000000000000000000000000000000000000000000000000000000000000000000000000000000000000000000000000000000000000
1004
00000000000000000000000000000000000000000000000000000000000000000000000000000000000000000000000000000000000000000000000000000000000000000000000000000000000000000000000000000000000000000000000000000000000000000000000000000000000000000000000000000000000000
1004
000000000000000000000000000000000000000000000000000000000000000000000000000000000000000000000000000000FFFF0000000000000000000000000000000000000000000000000000000000000000FFFFFFFF0000000000000000000000000000000000000000000000000000000000000000FFFFFFFF0000
1004
000000000000000000000000000000000000000000000000000000000000FFFFFF0000000000000000000000000000000000000000000000000000000000000000FFFFFFFF0000000000000000000000000000000000000000000000000000000000000000FFFFFF0000000000000000000000000000000000000000000000
1004
000000000000000000FFFFFFFF0000000000000000000000000000000000000000000000000000000000000000FFFFFFFF00000000FFFFFFFFFFFFFFFFFFFFFFFFFFFFFFFFFFFFFFFFFFFFFFFFFFFFFFFFFFFF00000000000000000000000000000000000000000000000000FFFFFFFF000000000000000000000000000000
1004
000000000000000000FFFFFFFF000000000000000000000000000000000000000000000000FFFFFFFF000000000000000000000000000000000000000000000000FFFFFFFF000000000000000000000000000000000000000000000000FFFFFFFF000000000000000000000000000000000000000000000000FFFFFFFF0000
1004
0000000000000000000000000000000000000000000000FFFFFF0000000000000000000000000000000000000000000000000000000000000000000000000000000000000000000000000000000000000000000000000000000000000000000000000000000000000000000000000000000000000000000000000000000000
1004
00000000000000000000000000000000000000000000000000000000000000000000000000000000000000000000000000000000000000000000000000000000000000000000000000000000000000000000000000000000000000000000000000000000000000000000000000000000000000000000000000000000000000
1004
0000000000000000000000000000000000000000000000000000000000000000000000000000000000000000000000000000000000000000
  0
BLOCK_RECORD
  5
869
330
1
100
AcDbSymbolTableRecord
100
AcDbBlockTableRecord
  2
*D1
  0
BLOCK_RECORD
  5
876
330
1
100
AcDbSymbolTableRecord
100
AcDbBlockTableRecord
  2
*D2
  0
BLOCK_RECORD
  5
885
330
1
100
AcDbSymbolTableRecord
100
AcDbBlockTableRecord
  2
*D3
  0
BLOCK_RECORD
  5
8AA
330
1
100
AcDbSymbolTableRecord
100
AcDbBlockTableRecord
  2
*D4
  0
BLOCK_RECORD
  5
8B7
330
1
100
AcDbSymbolTableRecord
100
AcDbBlockTableRecord
  2
*D5
  0
BLOCK_RECORD
  5
8C4
330
1
100
AcDbSymbolTableRecord
100
AcDbBlockTableRecord
  2
*D6
  0
BLOCK_RECORD
  5
8D3
330
1
100
AcDbSymbolTableRecord
100
AcDbBlockTableRecord
  2
*D7
  0
BLOCK_RECORD
  5
8E0
330
1
100
AcDbSymbolTableRecord
100
AcDbBlockTableRecord
  2
*D8
  0
BLOCK_RECORD
  5
8EF
330
1
100
AcDbSymbolTableRecord
100
AcDbBlockTableRecord
  2
*D9
  0
BLOCK_RECORD
  5
8FC
330
1
100
AcDbSymbolTableRecord
100
AcDbBlockTableRecord
  2
*D10
  0
BLOCK_RECORD
  5
912
330
1
100
AcDbSymbolTableRecord
100
AcDbBlockTableRecord
  2
*D11
  0
BLOCK_RECORD
  5
91F
330
1
100
AcDbSymbolTableRecord
100
AcDbBlockTableRecord
  2
*D12
  0
BLOCK_RECORD
  5
935
330
1
100
AcDbSymbolTableRecord
100
AcDbBlockTableRecord
  2
*D13
  0
BLOCK_RECORD
  5
942
330
1
100
AcDbSymbolTableRecord
100
AcDbBlockTableRecord
  2
*D14
  0
BLOCK_RECORD
  5
94F
330
1
100
AcDbSymbolTableRecord
100
AcDbBlockTableRecord
  2
*D15
  0
BLOCK_RECORD
  5
95C
330
1
100
AcDbSymbolTableRecord
100
AcDbBlockTableRecord
  2
*D16
  0
BLOCK_RECORD
  5
969
330
1
100
AcDbSymbolTableRecord
100
AcDbBlockTableRecord
  2
*D17
  0
BLOCK_RECORD
  5
976
330
1
100
AcDbSymbolTableRecord
100
AcDbBlockTableRecord
  2
*D18
  0
BLOCK_RECORD
  5
98C
330
1
100
AcDbSymbolTableRecord
100
AcDbBlockTableRecord
  2
*D19
  0
BLOCK_RECORD
  5
999
330
1
100
AcDbSymbolTableRecord
100
AcDbBlockTableRecord
  2
*D20
  0
BLOCK_RECORD
  5
9A6
330
1
100
AcDbSymbolTableRecord
100
AcDbBlockTableRecord
  2
*D21
  0
BLOCK_RECORD
  5
9B5
330
1
100
AcDbSymbolTableRecord
100
AcDbBlockTableRecord
  2
*D22
  0
BLOCK_RECORD
  5
9CF
330
1
100
AcDbSymbolTableRecord
100
AcDbBlockTableRecord
  2
*D23
  0
BLOCK_RECORD
  5
9F6
330
1
100
AcDbSymbolTableRecord
100
AcDbBlockTableRecord
  2
*D24
  0
BLOCK_RECORD
  5
ED4
330
1
100
AcDbSymbolTableRecord
100
AcDbBlockTableRecord
  2
*D25
  0
BLOCK_RECORD
  5
120C
330
1
100
AcDbSymbolTableRecord
100
AcDbBlockTableRecord
  2
*X26
  0
ENDTAB
  0
ENDSEC
  0
SECTION
  2
BLOCKS
  0
BLOCK
  5
D
330
A
100
AcDbEntity
  8
0
100
AcDbBlockBegin
  2
*MODEL_SPACE
 70
     0
 10
0.0
 20
0.0
 30
0.0
  3
*MODEL_SPACE
  1

  0
ENDBLK
  5
E
330
A
100
AcDbEntity
  8
0
100
AcDbBlockEnd
  0
BLOCK
  5
F
330
B
100
AcDbEntity
 67
     1
  8
0
100
AcDbBlockBegin
  2
*PAPER_SPACE
 70
     0
 10
0.0
 20
0.0
 30
0.0
  3
*PAPER_SPACE
  1

  0
ENDBLK
  5
10
330
B
100
AcDbEntity
 67
     1
  8
0
100
AcDbBlockEnd
  0
BLOCK
  5
827
330
823
100
AcDbEntity
  8
0
100
AcDbBlockBegin
  2
_OPEN30
 70
     0
 10
0.0
 20
0.0
 30
0.0
  3
_OPEN30
  1

  0
LINE
  5
824
330
823
100
AcDbEntity
  8
0
  6
BYBLOCK
 62
     0
100
AcDbLine
 10
-1.0
 20
0.26794919
 30
0.0
 11
0.0
 21
0.0
 31
0.0
  0
LINE
  5
825
330
823
100
AcDbEntity
  8
0
  6
BYBLOCK
 62
     0
100
AcDbLine
 10
0.0
 20
0.0
 30
0.0
 11
-1.0
 21
-0.26794919
 31
0.0
  0
LINE
  5
826
330
823
100
AcDbEntity
  8
0
  6
BYBLOCK
 62
     0
100
AcDbLine
 10
0.0
 20
0.0
 30
0.0
 11
-1.0
 21
0.0
 31
0.0
  0
ENDBLK
  5
828
330
823
100
AcDbEntity
  8
0
100
AcDbBlockEnd
  0
BLOCK
  5
873
330
869
100
AcDbEntity
  8
0
100
AcDbBlockBegin
  2
*D1
 70
     1
 10
0.0
 20
0.0
 30
0.0
  3
*D1
  1

  0
LINE
  5
D9C
330
869
100
AcDbEntity
  8
SUNPOU
100
AcDbLine
 10
73.46397188049206
 20
494.9940246045693
 30
0.0
 11
73.46397188049206
 21
487.1741787211032
 31
0.0
  0
LINE
  5
D9D
330
869
100
AcDbEntity
  8
SUNPOU
100
AcDbLine
 10
123.4639718804922
 20
492.1741787211032
 30
0.0
 11
123.4639718804922
 21
491.1741787211032
 31
0.0
  0
LINE
  5
D9E
330
869
100
AcDbEntity
  8
SUNPOU
100
AcDbLine
 10
78.46397188049206
 20
489.1741787211032
 30
0.0
 11
118.4639718804922
 21
489.1741787211032
 31
0.0
  0
INSERT
  5
D9F
330
869
100
AcDbEntity
  8
SUNPOU
100
AcDbBlockReference
  2
_OPEN30
 10
73.46397188049206
 20
489.1741787211032
 30
0.0
 41
5.0
 42
5.0
 43
5.0
 50
180.0
  0
INSERT
  5
DA0
330
869
100
AcDbEntity
  8
SUNPOU
100
AcDbBlockReference
  2
_OPEN30
 10
123.4639718804922
 20
489.1741787211032
 30
0.0
 41
5.0
 42
5.0
 43
5.0
  0
MTEXT
  5
DA1
330
869
100
AcDbEntity
  8
SUNPOU
100
AcDbMText
 10
98.46397188049216
 20
493.6741787211031
 30
0.0
 40
5.0
 41
0.0
 71
     5
 72
     1
  1
\A1;50
  7
SUNPOU
1001
ACAD
1000
MTEXTBEGIN
1070
    73
1070
     1
1070
    44
1040
1.0
1070
    74
1070
     0
1000
MTEXTEND
1000
MTEXTBEGIN
1070
    73
1070
     1
1070
    44
1040
1.0
1070
    74
1070
     0
1000
MTEXTEND
  0
POINT
  5
DA2
330
869
100
AcDbEntity
  8
DEFPOINTS
 62
     0
100
AcDbPoint
 10
73.46397188049206
 20
497.9940246045694
 30
0.0
  0
POINT
  5
DA3
330
869
100
AcDbEntity
  8
DEFPOINTS
 62
     0
100
AcDbPoint
 10
123.4639718804922
 20
489.1741787211032
 30
0.0
  0
POINT
  5
DA4
330
869
100
AcDbEntity
  8
DEFPOINTS
 62
     0
100
AcDbPoint
 10
123.4639718804922
 20
489.1741787211032
 30
0.0
  0
ENDBLK
  5
874
330
869
100
AcDbEntity
  8
0
100
AcDbBlockEnd
  0
BLOCK
  5
882
330
876
100
AcDbEntity
  8
0
100
AcDbBlockBegin
  2
*D2
 70
     1
 10
0.0
 20
0.0
 30
0.0
  3
*D2
  1

  0
LINE
  5
DA5
330
876
100
AcDbEntity
  8
SUNPOU
100
AcDbLine
 10
123.4639718804922
 20
492.1741787211032
 30
0.0
 11
123.4639718804922
 21
491.1741787211032
 31
0.0
  0
LINE
  5
DA6
330
876
100
AcDbEntity
  8
SUNPOU
100
AcDbLine
 10
129.4639718804922
 20
492.1741787211032
 30
0.0
 11
129.4639718804922
 21
491.1741787211032
 31
0.0
  0
LINE
  5
DA7
330
876
100
AcDbEntity
  8
SUNPOU
100
AcDbLine
 10
118.4639718804922
 20
489.1741787211032
 30
0.0
 11
113.4639718804922
 21
489.1741787211032
 31
0.0
  0
LINE
  5
DA8
330
876
100
AcDbEntity
  8
SUNPOU
100
AcDbLine
 10
134.4639718804922
 20
489.1741787211032
 30
0.0
 11
139.4639718804922
 21
489.1741787211032
 31
0.0
  0
MTEXT
  5
DA9
330
876
100
AcDbEntity
  8
SUNPOU
100
AcDbMText
 10
126.4639718804922
 20
493.6974240698038
 30
0.0
 40
5.0
 41
0.0
 71
     5
 72
     1
  1
\A1;6
  7
SUNPOU
1001
ACAD
1000
MTEXTBEGIN
1070
    73
1070
     1
1070
    44
1040
1.0
1070
    74
1070
     0
1000
MTEXTEND
1000
MTEXTBEGIN
1070
    73
1070
     1
1070
    44
1040
1.0
1070
    74
1070
     0
1000
MTEXTEND
  0
LINE
  5
DAA
330
876
100
AcDbEntity
  8
SUNPOU
100
AcDbLine
 10
123.4639718804922
 20
489.1741787211032
 30
0.0
 11
129.4639718804922
 21
489.1741787211032
 31
0.0
  0
INSERT
  5
DAB
330
876
100
AcDbEntity
  8
SUNPOU
100
AcDbBlockReference
  2
_OPEN30
 10
123.4639718804922
 20
489.1741787211032
 30
0.0
 41
5.0
 42
5.0
 43
5.0
  0
INSERT
  5
DAC
330
876
100
AcDbEntity
  8
SUNPOU
100
AcDbBlockReference
  2
_OPEN30
 10
129.4639718804922
 20
489.1741787211032
 30
0.0
 41
5.0
 42
5.0
 43
5.0
 50
180.0
  0
POINT
  5
DAD
330
876
100
AcDbEntity
  8
DEFPOINTS
 62
     0
100
AcDbPoint
 10
123.4639718804922
 20
489.1741787211032
 30
0.0
  0
POINT
  5
DAE
330
876
100
AcDbEntity
  8
DEFPOINTS
 62
     0
100
AcDbPoint
 10
129.4639718804922
 20
489.1741787211032
 30
0.0
  0
POINT
  5
DAF
330
876
100
AcDbEntity
  8
DEFPOINTS
 62
     0
100
AcDbPoint
 10
129.4639718804922
 20
489.1741787211032
 30
0.0
  0
ENDBLK
  5
883
330
876
100
AcDbEntity
  8
0
100
AcDbBlockEnd
  0
BLOCK
  5
88F
330
885
100
AcDbEntity
  8
0
100
AcDbBlockBegin
  2
*D3
 70
     1
 10
0.0
 20
0.0
 30
0.0
  3
*D3
  1

  0
LINE
  5
DB0
330
885
100
AcDbEntity
  8
SUNPOU
100
AcDbLine
 10
129.4639718804922
 20
492.1741787211032
 30
0.0
 11
129.4639718804922
 21
491.1741787211032
 31
0.0
  0
LINE
  5
DB1
330
885
100
AcDbEntity
  8
SUNPOU
100
AcDbLine
 10
169.463971880492
 20
447.5940246045693
 30
0.0
 11
169.463971880492
 21
491.1741787211032
 31
0.0
  0
LINE
  5
DB2
330
885
100
AcDbEntity
  8
SUNPOU
100
AcDbLine
 10
134.4639718804922
 20
489.1741787211032
 30
0.0
 11
164.463971880492
 21
489.1741787211032
 31
0.0
  0
INSERT
  5
DB3
330
885
100
AcDbEntity
  8
SUNPOU
100
AcDbBlockReference
  2
_OPEN30
 10
129.4639718804922
 20
489.1741787211032
 30
0.0
 41
5.0
 42
5.0
 43
5.0
 50
180.0
  0
INSERT
  5
DB4
330
885
100
AcDbEntity
  8
SUNPOU
100
AcDbBlockReference
  2
_OPEN30
 10
169.463971880492
 20
489.1741787211032
 30
0.0
 41
5.0
 42
5.0
 43
5.0
  0
MTEXT
  5
DB5
330
885
100
AcDbEntity
  8
SUNPOU
100
AcDbMText
 10
149.463971880492
 20
493.6741787211031
 30
0.0
 40
5.0
 41
0.0
 71
     5
 72
     1
  1
\A1;40
  7
SUNPOU
1001
ACAD
1000
MTEXTBEGIN
1070
    73
1070
     1
1070
    44
1040
1.0
1070
    74
1070
     0
1000
MTEXTEND
1000
MTEXTBEGIN
1070
    73
1070
     1
1070
    44
1040
1.0
1070
    74
1070
     0
1000
MTEXTEND
  0
POINT
  5
DB6
330
885
100
AcDbEntity
  8
DEFPOINTS
 62
     0
100
AcDbPoint
 10
129.4639718804922
 20
489.1741787211032
 30
0.0
  0
POINT
  5
DB7
330
885
100
AcDbEntity
  8
DEFPOINTS
 62
     0
100
AcDbPoint
 10
169.463971880492
 20
444.5940246045693
 30
0.0
  0
POINT
  5
DB8
330
885
100
AcDbEntity
  8
DEFPOINTS
 62
     0
100
AcDbPoint
 10
169.463971880492
 20
489.1741787211032
 30
0.0
  0
ENDBLK
  5
890
330
885
100
AcDbEntity
  8
0
100
AcDbBlockEnd
  0
BLOCK
  5
8B4
330
8AA
100
AcDbEntity
  8
0
100
AcDbBlockBegin
  2
*D4
 70
     1
 10
0.0
 20
0.0
 30
0.0
  3
*D4
  1

  0
LINE
  5
DB9
330
8AA
100
AcDbEntity
  8
SUNPOU
100
AcDbLine
 10
328.4639718804919
 20
501.5940246045693
 30
0.0
 11
328.4639718804919
 21
485.3416087603081
 31
0.0
  0
LINE
  5
DBA
330
8AA
100
AcDbEntity
  8
SUNPOU
100
AcDbLine
 10
343.4639718804919
 20
490.3416087603083
 30
0.0
 11
343.4639718804919
 21
489.3416087603081
 31
0.0
  0
LINE
  5
DBB
330
8AA
100
AcDbEntity
  8
SUNPOU
100
AcDbLine
 10
333.4639718804919
 20
487.3416087603081
 30
0.0
 11
338.4639718804919
 21
487.3416087603081
 31
0.0
  0
INSERT
  5
DBC
330
8AA
100
AcDbEntity
  8
SUNPOU
100
AcDbBlockReference
  2
_OPEN30
 10
328.4639718804919
 20
487.3416087603081
 30
0.0
 41
5.0
 42
5.0
 43
5.0
 50
180.0
  0
INSERT
  5
DBD
330
8AA
100
AcDbEntity
  8
SUNPOU
100
AcDbBlockReference
  2
_OPEN30
 10
343.4639718804919
 20
487.3416087603081
 30
0.0
 41
5.0
 42
5.0
 43
5.0
  0
MTEXT
  5
DBE
330
8AA
100
AcDbEntity
  8
SUNPOU
100
AcDbMText
 10
335.9639718804919
 20
491.8416087603081
 30
0.0
 40
5.0
 41
0.0
 71
     5
 72
     1
  1
\A1;15
  7
SUNPOU
1001
ACAD
1000
MTEXTBEGIN
1070
    73
1070
     1
1070
    44
1040
1.0
1070
    74
1070
     0
1000
MTEXTEND
1000
MTEXTBEGIN
1070
    73
1070
     1
1070
    44
1040
1.0
1070
    74
1070
     0
1000
MTEXTEND
  0
POINT
  5
DBF
330
8AA
100
AcDbEntity
  8
DEFPOINTS
 62
     0
100
AcDbPoint
 10
328.4639718804919
 20
504.5940246045693
 30
0.0
  0
POINT
  5
DC0
330
8AA
100
AcDbEntity
  8
DEFPOINTS
 62
     0
100
AcDbPoint
 10
343.4639718804919
 20
487.3416087603081
 30
0.0
  0
POINT
  5
DC1
330
8AA
100
AcDbEntity
  8
DEFPOINTS
 62
     0
100
AcDbPoint
 10
343.4639718804919
 20
487.3416087603081
 30
0.0
  0
ENDBLK
  5
8B5
330
8AA
100
AcDbEntity
  8
0
100
AcDbBlockEnd
  0
BLOCK
  5
8C1
330
8B7
100
AcDbEntity
  8
0
100
AcDbBlockBegin
  2
*D5
 70
     1
 10
0.0
 20
0.0
 30
0.0
  3
*D5
  1

  0
LINE
  5
DC2
330
8B7
100
AcDbEntity
  8
SUNPOU
100
AcDbLine
 10
73.46397188049206
 20
273.1940246045693
 30
0.0
 11
73.46397188049206
 21
218.0639465961468
 31
0.0
  0
LINE
  5
DC3
330
8B7
100
AcDbEntity
  8
SUNPOU
100
AcDbLine
 10
133.463971880492
 20
248.1940246045693
 30
0.0
 11
133.463971880492
 21
218.0639465961468
 31
0.0
  0
LINE
  5
DC4
330
8B7
100
AcDbEntity
  8
SUNPOU
100
AcDbLine
 10
78.46397188049206
 20
220.0639465961468
 30
0.0
 11
128.463971880492
 21
220.0639465961468
 31
0.0
  0
INSERT
  5
DC5
330
8B7
100
AcDbEntity
  8
SUNPOU
100
AcDbBlockReference
  2
_OPEN30
 10
73.46397188049206
 20
220.0639465961468
 30
0.0
 41
5.0
 42
5.0
 43
5.0
 50
180.0
  0
INSERT
  5
DC6
330
8B7
100
AcDbEntity
  8
SUNPOU
100
AcDbBlockReference
  2
_OPEN30
 10
133.463971880492
 20
220.0639465961468
 30
0.0
 41
5.0
 42
5.0
 43
5.0
  0
MTEXT
  5
DC7
330
8B7
100
AcDbEntity
  8
SUNPOU
100
AcDbMText
 10
103.4639718804919
 20
224.5639465961468
 30
0.0
 40
5.0
 41
0.0
 71
     5
 72
     1
  1
\A1;60
  7
SUNPOU
1001
ACAD
1000
MTEXTBEGIN
1070
    73
1070
     1
1070
    44
1040
1.0
1070
    74
1070
     0
1000
MTEXTEND
1000
MTEXTBEGIN
1070
    73
1070
     1
1070
    44
1040
1.0
1070
    74
1070
     0
1000
MTEXTEND
  0
POINT
  5
DC8
330
8B7
100
AcDbEntity
  8
DEFPOINTS
 62
     0
100
AcDbPoint
 10
73.46397188049206
 20
276.1940246045694
 30
0.0
  0
POINT
  5
DC9
330
8B7
100
AcDbEntity
  8
DEFPOINTS
 62
     0
100
AcDbPoint
 10
133.463971880492
 20
251.1940246045694
 30
0.0
  0
POINT
  5
DCA
330
8B7
100
AcDbEntity
  8
DEFPOINTS
 62
     0
100
AcDbPoint
 10
133.463971880492
 20
220.0639465961468
 30
0.0
  0
ENDBLK
  5
8C2
330
8B7
100
AcDbEntity
  8
0
100
AcDbBlockEnd
  0
BLOCK
  5
8D0
330
8C4
100
AcDbEntity
  8
0
100
AcDbBlockBegin
  2
*D6
 70
     1
 10
0.0
 20
0.0
 30
0.0
  3
*D6
  1

  0
LINE
  5
DCB
330
8C4
100
AcDbEntity
  8
SUNPOU
100
AcDbLine
 10
133.463971880492
 20
248.1940246045693
 30
0.0
 11
133.463971880492
 21
218.0639465961468
 31
0.0
  0
LINE
  5
DCC
330
8C4
100
AcDbEntity
  8
SUNPOU
100
AcDbLine
 10
143.463971880492
 20
266.5940246045693
 30
0.0
 11
143.463971880492
 21
218.0639465961468
 31
0.0
  0
LINE
  5
DCD
330
8C4
100
AcDbEntity
  8
SUNPOU
100
AcDbLine
 10
128.463971880492
 20
220.0639465961468
 30
0.0
 11
123.463971880492
 21
220.0639465961468
 31
0.0
  0
LINE
  5
DCE
330
8C4
100
AcDbEntity
  8
SUNPOU
100
AcDbLine
 10
148.463971880492
 20
220.0639465961468
 30
0.0
 11
153.463971880492
 21
220.0639465961468
 31
0.0
  0
LINE
  5
DCF
330
8C4
100
AcDbEntity
  8
SUNPOU
100
AcDbLine
 10
133.463971880492
 20
220.0639465961468
 30
0.0
 11
143.463971880492
 21
220.0639465961468
 31
0.0
  0
INSERT
  5
DD0
330
8C4
100
AcDbEntity
  8
SUNPOU
100
AcDbBlockReference
  2
_OPEN30
 10
133.463971880492
 20
220.0639465961468
 30
0.0
 41
5.0
 42
5.0
 43
5.0
  0
INSERT
  5
DD1
330
8C4
100
AcDbEntity
  8
SUNPOU
100
AcDbBlockReference
  2
_OPEN30
 10
143.463971880492
 20
220.0639465961468
 30
0.0
 41
5.0
 42
5.0
 43
5.0
 50
180.0
  0
MTEXT
  5
DD2
330
8C4
100
AcDbEntity
  8
SUNPOU
100
AcDbMText
 10
138.463971880492
 20
224.5639465961468
 30
0.0
 40
5.0
 41
0.0
 71
     5
 72
     1
  1
\A1;10
  7
SUNPOU
1001
ACAD
1000
MTEXTBEGIN
1070
    73
1070
     1
1070
    44
1040
1.0
1070
    74
1070
     0
1000
MTEXTEND
1000
MTEXTBEGIN
1070
    73
1070
     1
1070
    44
1040
1.0
1070
    74
1070
     0
1000
MTEXTEND
  0
POINT
  5
DD3
330
8C4
100
AcDbEntity
  8
DEFPOINTS
 62
     0
100
AcDbPoint
 10
133.463971880492
 20
251.1940246045694
 30
0.0
  0
POINT
  5
DD4
330
8C4
100
AcDbEntity
  8
DEFPOINTS
 62
     0
100
AcDbPoint
 10
143.463971880492
 20
269.5940246045693
 30
0.0
  0
POINT
  5
DD5
330
8C4
100
AcDbEntity
  8
DEFPOINTS
 62
     0
100
AcDbPoint
 10
143.463971880492
 20
220.0639465961468
 30
0.0
  0
ENDBLK
  5
8D1
330
8C4
100
AcDbEntity
  8
0
100
AcDbBlockEnd
  0
BLOCK
  5
8DD
330
8D3
100
AcDbEntity
  8
0
100
AcDbBlockBegin
  2
*D7
 70
     1
 10
0.0
 20
0.0
 30
0.0
  3
*D7
  1

  0
LINE
  5
DD6
330
8D3
100
AcDbEntity
  8
SUNPOU
100
AcDbLine
 10
143.463971880492
 20
266.5940246045693
 30
0.0
 11
143.463971880492
 21
218.0639465961468
 31
0.0
  0
LINE
  5
DD7
330
8D3
100
AcDbEntity
  8
SUNPOU
100
AcDbLine
 10
195.4639718804919
 20
223.0639465961468
 30
0.0
 11
195.4639718804919
 21
222.0639465961468
 31
0.0
  0
LINE
  5
DD8
330
8D3
100
AcDbEntity
  8
SUNPOU
100
AcDbLine
 10
148.463971880492
 20
220.0639465961468
 30
0.0
 11
190.4639718804919
 21
220.0639465961468
 31
0.0
  0
MTEXT
  5
DD9
330
8D3
100
AcDbEntity
  8
SUNPOU
100
AcDbMText
 10
163.9122589766393
 20
224.5639465961468
 30
0.0
 40
5.0
 41
0.0
 71
     5
 72
     1
  1
\A1;52
  7
SUNPOU
1001
ACAD
1000
MTEXTBEGIN
1070
    73
1070
     1
1070
    44
1040
1.0
1070
    74
1070
     0
1000
MTEXTEND
1000
MTEXTBEGIN
1070
    73
1070
     1
1070
    44
1040
1.0
1070
    74
1070
     0
1000
MTEXTEND
  0
INSERT
  5
DDA
330
8D3
100
AcDbEntity
  8
SUNPOU
100
AcDbBlockReference
  2
_OPEN30
 10
143.463971880492
 20
220.0639465961468
 30
0.0
 41
5.0
 42
5.0
 43
5.0
 50
180.0
  0
INSERT
  5
DDB
330
8D3
100
AcDbEntity
  8
SUNPOU
100
AcDbBlockReference
  2
_OPEN30
 10
195.4639718804919
 20
220.0639465961468
 30
0.0
 41
5.0
 42
5.0
 43
5.0
  0
POINT
  5
DDC
330
8D3
100
AcDbEntity
  8
DEFPOINTS
 62
     0
100
AcDbPoint
 10
143.463971880492
 20
269.5940246045693
 30
0.0
  0
POINT
  5
DDD
330
8D3
100
AcDbEntity
  8
DEFPOINTS
 62
     0
100
AcDbPoint
 10
195.4639718804919
 20
220.0639465961468
 30
0.0
  0
POINT
  5
DDE
330
8D3
100
AcDbEntity
  8
DEFPOINTS
 62
     0
100
AcDbPoint
 10
195.4639718804919
 20
220.0639465961468
 30
0.0
  0
ENDBLK
  5
8DE
330
8D3
100
AcDbEntity
  8
0
100
AcDbBlockEnd
  0
BLOCK
  5
8EC
330
8E0
100
AcDbEntity
  8
0
100
AcDbBlockBegin
  2
*D8
 70
     1
 10
0.0
 20
0.0
 30
0.0
  3
*D8
  1

  0
LINE
  5
DDF
330
8E0
100
AcDbEntity
  8
SUNPOU
100
AcDbLine
 10
195.4639718804919
 20
223.0639465961468
 30
0.0
 11
195.4639718804919
 21
222.0639465961468
 31
0.0
  0
LINE
  5
DE0
330
8E0
100
AcDbEntity
  8
SUNPOU
100
AcDbLine
 10
205.4639718804919
 20
248.1940246045693
 30
0.0
 11
205.4639718804919
 21
218.0639465961468
 31
0.0
  0
LINE
  5
DE1
330
8E0
100
AcDbEntity
  8
SUNPOU
100
AcDbLine
 10
190.4639718804919
 20
220.0639465961468
 30
0.0
 11
185.463971880492
 21
220.0639465961468
 31
0.0
  0
LINE
  5
DE2
330
8E0
100
AcDbEntity
  8
SUNPOU
100
AcDbLine
 10
210.4639718804919
 20
220.0639465961468
 30
0.0
 11
215.463971880492
 21
220.0639465961468
 31
0.0
  0
LINE
  5
DE3
330
8E0
100
AcDbEntity
  8
SUNPOU
100
AcDbLine
 10
195.4639718804919
 20
220.0639465961468
 30
0.0
 11
205.4639718804919
 21
220.0639465961468
 31
0.0
  0
INSERT
  5
DE4
330
8E0
100
AcDbEntity
  8
SUNPOU
100
AcDbBlockReference
  2
_OPEN30
 10
195.4639718804919
 20
220.0639465961468
 30
0.0
 41
5.0
 42
5.0
 43
5.0
  0
INSERT
  5
DE5
330
8E0
100
AcDbEntity
  8
SUNPOU
100
AcDbBlockReference
  2
_OPEN30
 10
205.4639718804919
 20
220.0639465961468
 30
0.0
 41
5.0
 42
5.0
 43
5.0
 50
180.0
  0
MTEXT
  5
DE6
330
8E0
100
AcDbEntity
  8
SUNPOU
100
AcDbMText
 10
200.4639718804919
 20
224.5639465961468
 30
0.0
 40
5.0
 41
0.0
 71
     5
 72
     1
  1
\A1;10
  7
SUNPOU
1001
ACAD
1000
MTEXTBEGIN
1070
    73
1070
     1
1070
    44
1040
1.0
1070
    74
1070
     0
1000
MTEXTEND
1000
MTEXTBEGIN
1070
    73
1070
     1
1070
    44
1040
1.0
1070
    74
1070
     0
1000
MTEXTEND
  0
POINT
  5
DE7
330
8E0
100
AcDbEntity
  8
DEFPOINTS
 62
     0
100
AcDbPoint
 10
195.4639718804919
 20
220.0639465961468
 30
0.0
  0
POINT
  5
DE8
330
8E0
100
AcDbEntity
  8
DEFPOINTS
 62
     0
100
AcDbPoint
 10
205.4639718804919
 20
251.1940246045694
 30
0.0
  0
POINT
  5
DE9
330
8E0
100
AcDbEntity
  8
DEFPOINTS
 62
     0
100
AcDbPoint
 10
205.4639718804919
 20
220.0639465961468
 30
0.0
  0
ENDBLK
  5
8ED
330
8E0
100
AcDbEntity
  8
0
100
AcDbBlockEnd
  0
BLOCK
  5
8F9
330
8EF
100
AcDbEntity
  8
0
100
AcDbBlockBegin
  2
*D9
 70
     1
 10
0.0
 20
0.0
 30
0.0
  3
*D9
  1

  0
LINE
  5
DEA
330
8EF
100
AcDbEntity
  8
SUNPOU
100
AcDbLine
 10
205.4639718804919
 20
248.1940246045693
 30
0.0
 11
205.4639718804919
 21
218.0639465961468
 31
0.0
  0
LINE
  5
DEB
330
8EF
100
AcDbEntity
  8
SUNPOU
100
AcDbLine
 10
343.4639718804919
 20
248.1940246045693
 30
0.0
 11
343.4639718804919
 21
218.0639465961468
 31
0.0
  0
LINE
  5
DEC
330
8EF
100
AcDbEntity
  8
SUNPOU
100
AcDbLine
 10
210.4639718804919
 20
220.0639465961468
 30
0.0
 11
338.4639718804919
 21
220.0639465961468
 31
0.0
  0
INSERT
  5
DED
330
8EF
100
AcDbEntity
  8
SUNPOU
100
AcDbBlockReference
  2
_OPEN30
 10
205.4639718804919
 20
220.0639465961468
 30
0.0
 41
5.0
 42
5.0
 43
5.0
 50
180.0
  0
INSERT
  5
DEE
330
8EF
100
AcDbEntity
  8
SUNPOU
100
AcDbBlockReference
  2
_OPEN30
 10
343.4639718804919
 20
220.0639465961468
 30
0.0
 41
5.0
 42
5.0
 43
5.0
  0
MTEXT
  5
DEF
330
8EF
100
AcDbEntity
  8
SUNPOU
100
AcDbMText
 10
274.4639718804919
 20
224.5639465961468
 30
0.0
 40
5.0
 41
0.0
 71
     5
 72
     1
  1
\A1;138
  7
SUNPOU
1001
ACAD
1000
MTEXTBEGIN
1070
    73
1070
     1
1070
    44
1040
1.0
1070
    74
1070
     0
1000
MTEXTEND
1000
MTEXTBEGIN
1070
    73
1070
     1
1070
    44
1040
1.0
1070
    74
1070
     0
1000
MTEXTEND
  0
POINT
  5
DF0
330
8EF
100
AcDbEntity
  8
DEFPOINTS
 62
     0
100
AcDbPoint
 10
205.4639718804919
 20
251.1940246045694
 30
0.0
  0
POINT
  5
DF1
330
8EF
100
AcDbEntity
  8
DEFPOINTS
 62
     0
100
AcDbPoint
 10
343.4639718804919
 20
251.1940246045694
 30
0.0
  0
POINT
  5
DF2
330
8EF
100
AcDbEntity
  8
DEFPOINTS
 62
     0
100
AcDbPoint
 10
343.4639718804919
 20
220.0639465961468
 30
0.0
  0
ENDBLK
  5
8FA
330
8EF
100
AcDbEntity
  8
0
100
AcDbBlockEnd
  0
BLOCK
  5
906
330
8FC
100
AcDbEntity
  8
0
100
AcDbBlockBegin
  2
*D10
 70
     1
 10
0.0
 20
0.0
 30
0.0
  3
*D10
  1

  0
LINE
  5
DF3
330
8FC
100
AcDbEntity
  8
SUNPOU
100
AcDbLine
 10
73.46397188049206
 20
273.1940246045693
 30
0.0
 11
73.46397188049206
 21
196.5216719998673
 31
0.0
  0
LINE
  5
DF4
330
8FC
100
AcDbEntity
  8
SUNPOU
100
AcDbLine
 10
343.4639718804919
 20
248.1940246045693
 30
0.0
 11
343.4639718804919
 21
196.5216719998673
 31
0.0
  0
LINE
  5
DF5
330
8FC
100
AcDbEntity
  8
SUNPOU
100
AcDbLine
 10
78.46397188049206
 20
198.5216719998673
 30
0.0
 11
338.4639718804919
 21
198.5216719998673
 31
0.0
  0
INSERT
  5
DF6
330
8FC
100
AcDbEntity
  8
SUNPOU
100
AcDbBlockReference
  2
_OPEN30
 10
73.46397188049206
 20
198.5216719998673
 30
0.0
 41
5.0
 42
5.0
 43
5.0
 50
180.0
  0
INSERT
  5
DF7
330
8FC
100
AcDbEntity
  8
SUNPOU
100
AcDbBlockReference
  2
_OPEN30
 10
343.4639718804919
 20
198.5216719998673
 30
0.0
 41
5.0
 42
5.0
 43
5.0
  0
MTEXT
  5
DF8
330
8FC
100
AcDbEntity
  8
SUNPOU
100
AcDbMText
 10
208.4639718804919
 20
203.0216719998673
 30
0.0
 40
5.0
 41
0.0
 71
     5
 72
     1
  1
\A1;270
  7
SUNPOU
1001
ACAD
1000
MTEXTBEGIN
1070
    73
1070
     1
1070
    44
1040
1.0
1070
    74
1070
     0
1000
MTEXTEND
1000
MTEXTBEGIN
1070
    73
1070
     1
1070
    44
1040
1.0
1070
    74
1070
     0
1000
MTEXTEND
  0
POINT
  5
DF9
330
8FC
100
AcDbEntity
  8
DEFPOINTS
 62
     0
100
AcDbPoint
 10
73.46397188049206
 20
276.1940246045694
 30
0.0
  0
POINT
  5
DFA
330
8FC
100
AcDbEntity
  8
DEFPOINTS
 62
     0
100
AcDbPoint
 10
343.4639718804919
 20
251.1940246045694
 30
0.0
  0
POINT
  5
DFB
330
8FC
100
AcDbEntity
  8
DEFPOINTS
 62
     0
100
AcDbPoint
 10
343.4639718804919
 20
198.5216719998673
 30
0.0
  0
ENDBLK
  5
907
330
8FC
100
AcDbEntity
  8
0
100
AcDbBlockEnd
  0
BLOCK
  5
91C
330
912
100
AcDbEntity
  8
0
100
AcDbBlockBegin
  2
*D11
 70
     1
 10
0.0
 20
0.0
 30
0.0
  3
*D11
  1

  0
LINE
  5
DFC
330
912
100
AcDbEntity
  8
SUNPOU
100
AcDbLine
 10
151.963971880492
 20
64.59399999999999
 30
0.0
 11
151.963971880492
 21
49.73586861195641
 31
0.0
  0
LINE
  5
DFD
330
912
100
AcDbEntity
  8
SUNPOU
100
AcDbLine
 10
186.9639718804919
 20
64.59399999999999
 30
0.0
 11
186.9639718804919
 21
49.73586861195641
 31
0.0
  0
LINE
  5
DFE
330
912
100
AcDbEntity
  8
SUNPOU
100
AcDbLine
 10
156.963971880492
 20
51.73586861195643
 30
0.0
 11
181.9639718804919
 21
51.73586861195643
 31
0.0
  0
INSERT
  5
DFF
330
912
100
AcDbEntity
  8
SUNPOU
100
AcDbBlockReference
  2
_OPEN30
 10
151.963971880492
 20
51.73586861195643
 30
0.0
 41
5.0
 42
5.0
 43
5.0
 50
180.0
  0
INSERT
  5
E00
330
912
100
AcDbEntity
  8
SUNPOU
100
AcDbBlockReference
  2
_OPEN30
 10
186.9639718804919
 20
51.73586861195643
 30
0.0
 41
5.0
 42
5.0
 43
5.0
  0
MTEXT
  5
E01
330
912
100
AcDbEntity
  8
SUNPOU
100
AcDbMText
 10
169.463971880492
 20
56.23586861195643
 30
0.0
 40
5.0
 41
0.0
 71
     5
 72
     1
  1
\A1;35
  7
SUNPOU
1001
ACAD
1000
MTEXTBEGIN
1070
    73
1070
     1
1070
    44
1040
1.0
1070
    74
1070
     0
1000
MTEXTEND
1000
MTEXTBEGIN
1070
    73
1070
     1
1070
    44
1040
1.0
1070
    74
1070
     0
1000
MTEXTEND
  0
POINT
  5
E02
330
912
100
AcDbEntity
  8
DEFPOINTS
 62
     0
100
AcDbPoint
 10
151.963971880492
 20
67.59399999999999
 30
0.0
  0
POINT
  5
E03
330
912
100
AcDbEntity
  8
DEFPOINTS
 62
     0
100
AcDbPoint
 10
186.9639718804919
 20
67.59399999999999
 30
0.0
  0
POINT
  5
E04
330
912
100
AcDbEntity
  8
DEFPOINTS
 62
     0
100
AcDbPoint
 10
186.9639718804919
 20
51.73586861195643
 30
0.0
  0
ENDBLK
  5
91D
330
912
100
AcDbEntity
  8
0
100
AcDbBlockEnd
  0
BLOCK
  5
929
330
91F
100
AcDbEntity
  8
0
100
AcDbBlockBegin
  2
*D12
 70
     1
 10
0.0
 20
0.0
 30
0.0
  3
*D12
  1

  0
LINE
  5
E05
330
91F
100
AcDbEntity
  8
SUNPOU
100
AcDbLine
 10
81.22901176152494
 20
107.5939999999999
 30
0.0
 11
82.2290117615249
 21
107.5939999999999
 31
0.0
  0
LINE
  5
E06
330
91F
100
AcDbEntity
  8
SUNPOU
100
AcDbLine
 10
85.60105448154654
 20
167.5939999999999
 30
0.0
 11
82.2290117615249
 21
167.5939999999999
 31
0.0
  0
LINE
  5
E07
330
91F
100
AcDbEntity
  8
SUNPOU
100
AcDbLine
 10
84.22901176152491
 20
112.5939999999999
 30
0.0
 11
84.22901176152491
 21
162.5939999999999
 31
0.0
  0
MTEXT
  5
E08
330
91F
100
AcDbEntity
  8
SUNPOU
100
AcDbMText
 10
79.72901176152489
 20
138.7271579329176
 30
0.0
 40
5.0
 41
0.0
 71
     5
 72
     1
  1
\A1;600
  7
SUNPOU
 11
0.0000000000000001
 21
1.0
 31
0.0
1001
ACAD
1000
MTEXTBEGIN
1070
    73
1070
     1
1070
    44
1040
1.0
1070
    74
1070
     0
1000
MTEXTEND
1000
MTEXTBEGIN
1070
    73
1070
     1
1070
    44
1040
1.0
1070
    74
1070
     0
1000
MTEXTEND
  0
INSERT
  5
E09
330
91F
100
AcDbEntity
  8
SUNPOU
100
AcDbBlockReference
  2
_OPEN30
 10
84.22901176152491
 20
107.5939999999999
 30
0.0
 41
5.0
 42
5.0
 43
5.0
 50
270.0
  0
INSERT
  5
E0A
330
91F
100
AcDbEntity
  8
SUNPOU
100
AcDbBlockReference
  2
_OPEN30
 10
84.22901176152491
 20
167.5939999999999
 30
0.0
 41
5.0
 42
5.0
 43
5.0
 50
90.0
  0
POINT
  5
E0B
330
91F
100
AcDbEntity
  8
DEFPOINTS
 62
     0
100
AcDbPoint
 10
84.22901176152491
 20
107.5939999999999
 30
0.0
  0
POINT
  5
E0C
330
91F
100
AcDbEntity
  8
DEFPOINTS
 62
     0
100
AcDbPoint
 10
88.60105448154653
 20
167.5939999999999
 30
0.0
  0
POINT
  5
E0D
330
91F
100
AcDbEntity
  8
DEFPOINTS
 62
     0
100
AcDbPoint
 10
84.22901176152491
 20
167.5939999999999
 30
0.0
  0
ENDBLK
  5
92A
330
91F
100
AcDbEntity
  8
0
100
AcDbBlockEnd
  0
BLOCK
  5
93F
330
935
100
AcDbEntity
  8
0
100
AcDbBlockBegin
  2
*D13
 70
     1
 10
0.0
 20
0.0
 30
0.0
  3
*D13
  1

  0
LINE
  5
E0E
330
935
100
AcDbEntity
  8
SUNPOU
100
AcDbLine
 10
95.42298229011754
 20
249.5940246045694
 30
0.0
 11
96.42298229011752
 21
249.5940246045694
 31
0.0
  0
LINE
  5
E0F
330
935
100
AcDbEntity
  8
SUNPOU
100
AcDbLine
 10
114.017159331662
 20
399.5940246045693
 30
0.0
 11
96.42298229011757
 21
399.5940246045693
 31
0.0
  0
LINE
  5
E10
330
935
100
AcDbEntity
  8
SUNPOU
100
AcDbLine
 10
98.42298229011753
 20
254.5940246045693
 30
0.0
 11
98.42298229011754
 21
394.5940246045693
 31
0.0
  0
INSERT
  5
E11
330
935
100
AcDbEntity
  8
SUNPOU
100
AcDbBlockReference
  2
_OPEN30
 10
98.42298229011753
 20
249.5940246045694
 30
0.0
 41
5.0
 42
5.0
 43
5.0
 50
270.0
  0
INSERT
  5
E12
330
935
100
AcDbEntity
  8
SUNPOU
100
AcDbBlockReference
  2
_OPEN30
 10
98.42298229011754
 20
399.5940246045693
 30
0.0
 41
5.0
 42
5.0
 43
5.0
 50
90.0
  0
MTEXT
  5
E13
330
935
100
AcDbEntity
  8
SUNPOU
100
AcDbMText
 10
93.92298229011748
 20
324.5940246045693
 30
0.0
 40
5.0
 41
0.0
 71
     5
 72
     1
  1
\A1;150
  7
SUNPOU
 11
0.0000000000000001
 21
1.0
 31
0.0
1001
ACAD
1000
MTEXTBEGIN
1070
    73
1070
     1
1070
    44
1040
1.0
1070
    74
1070
     0
1000
MTEXTEND
1000
MTEXTBEGIN
1070
    73
1070
     1
1070
    44
1040
1.0
1070
    74
1070
     0
1000
MTEXTEND
  0
POINT
  5
E14
330
935
100
AcDbEntity
  8
DEFPOINTS
 62
     0
100
AcDbPoint
 10
98.42298229011754
 20
249.5940246045694
 30
0.0
  0
POINT
  5
E15
330
935
100
AcDbEntity
  8
DEFPOINTS
 62
     0
100
AcDbPoint
 10
117.017159331662
 20
399.5940246045693
 30
0.0
  0
POINT
  5
E16
330
935
100
AcDbEntity
  8
DEFPOINTS
 62
     0
100
AcDbPoint
 10
98.42298229011754
 20
399.5940246045693
 30
0.0
  0
ENDBLK
  5
940
330
935
100
AcDbEntity
  8
0
100
AcDbBlockEnd
  0
BLOCK
  5
94C
330
942
100
AcDbEntity
  8
0
100
AcDbBlockBegin
  2
*D14
 70
     1
 10
0.0
 20
0.0
 30
0.0
  3
*D14
  1

  0
LINE
  5
E17
330
942
100
AcDbEntity
  8
SUNPOU
100
AcDbLine
 10
111.0998783290522
 20
249.5940246045694
 30
0.0
 11
112.0998783290522
 21
249.5940246045694
 31
0.0
  0
LINE
  5
E18
330
942
100
AcDbEntity
  8
SUNPOU
100
AcDbLine
 10
113.4870893605514
 20
362.5940246045693
 30
0.0
 11
112.0998783290522
 21
362.5940246045693
 31
0.0
  0
LINE
  5
E19
330
942
100
AcDbEntity
  8
SUNPOU
100
AcDbLine
 10
114.099878329052
 20
254.5940246045693
 30
0.0
 11
114.0998783290521
 21
357.5940246045693
 31
0.0
  0
INSERT
  5
E1A
330
942
100
AcDbEntity
  8
SUNPOU
100
AcDbBlockReference
  2
_OPEN30
 10
114.099878329052
 20
249.5940246045694
 30
0.0
 41
5.0
 42
5.0
 43
5.0
 50
270.0
  0
INSERT
  5
E1B
330
942
100
AcDbEntity
  8
SUNPOU
100
AcDbBlockReference
  2
_OPEN30
 10
114.0998783290521
 20
362.5940246045693
 30
0.0
 41
5.0
 42
5.0
 43
5.0
 50
90.0
  0
MTEXT
  5
E1C
330
942
100
AcDbEntity
  8
SUNPOU
100
AcDbMText
 10
109.599878329052
 20
306.0940246045693
 30
0.0
 40
5.0
 41
0.0
 71
     5
 72
     1
  1
\A1;113
  7
SUNPOU
 11
0.0000000000000001
 21
1.0
 31
0.0
1001
ACAD
1000
MTEXTBEGIN
1070
    73
1070
     1
1070
    44
1040
1.0
1070
    74
1070
     0
1000
MTEXTEND
1000
MTEXTBEGIN
1070
    73
1070
     1
1070
    44
1040
1.0
1070
    74
1070
     0
1000
MTEXTEND
  0
POINT
  5
E1D
330
942
100
AcDbEntity
  8
DEFPOINTS
 62
     0
100
AcDbPoint
 10
114.0998783290521
 20
249.5940246045694
 30
0.0
  0
POINT
  5
E1E
330
942
100
AcDbEntity
  8
DEFPOINTS
 62
     0
100
AcDbPoint
 10
116.4870893605514
 20
362.5940246045693
 30
0.0
  0
POINT
  5
E1F
330
942
100
AcDbEntity
  8
DEFPOINTS
 62
     0
100
AcDbPoint
 10
114.0998783290521
 20
362.5940246045693
 30
0.0
  0
ENDBLK
  5
94D
330
942
100
AcDbEntity
  8
0
100
AcDbBlockEnd
  0
BLOCK
  5
959
330
94F
100
AcDbEntity
  8
0
100
AcDbBlockBegin
  2
*D15
 70
     1
 10
0.0
 20
0.0
 30
0.0
  3
*D15
  1

  0
LINE
  5
E20
330
94F
100
AcDbEntity
  8
SUNPOU
100
AcDbLine
 10
113.4870893605514
 20
362.5940246045693
 30
0.0
 11
112.0998783290522
 21
362.5940246045693
 31
0.0
  0
LINE
  5
E21
330
94F
100
AcDbEntity
  8
SUNPOU
100
AcDbLine
 10
126.4639718804922
 20
377.5940246045693
 30
0.0
 11
112.0998783290522
 21
377.5940246045693
 31
0.0
  0
LINE
  5
E22
330
94F
100
AcDbEntity
  8
SUNPOU
100
AcDbLine
 10
114.0998783290521
 20
367.5940246045693
 30
0.0
 11
114.0998783290521
 21
372.5940246045693
 31
0.0
  0
INSERT
  5
E23
330
94F
100
AcDbEntity
  8
SUNPOU
100
AcDbBlockReference
  2
_OPEN30
 10
114.0998783290521
 20
362.5940246045693
 30
0.0
 41
5.0
 42
5.0
 43
5.0
 50
270.0
  0
INSERT
  5
E24
330
94F
100
AcDbEntity
  8
SUNPOU
100
AcDbBlockReference
  2
_OPEN30
 10
114.0998783290521
 20
377.5940246045693
 30
0.0
 41
5.0
 42
5.0
 43
5.0
 50
90.0
  0
MTEXT
  5
E25
330
94F
100
AcDbEntity
  8
SUNPOU
100
AcDbMText
 10
109.599878329052
 20
370.0940246045693
 30
0.0
 40
5.0
 41
0.0
 71
     5
 72
     1
  1
\A1;15
  7
SUNPOU
 11
0.0000000000000001
 21
1.0
 31
0.0
1001
ACAD
1000
MTEXTBEGIN
1070
    73
1070
     1
1070
    44
1040
1.0
1070
    74
1070
     0
1000
MTEXTEND
1000
MTEXTBEGIN
1070
    73
1070
     1
1070
    44
1040
1.0
1070
    74
1070
     0
1000
MTEXTEND
  0
POINT
  5
E26
330
94F
100
AcDbEntity
  8
DEFPOINTS
 62
     0
100
AcDbPoint
 10
116.4870893605514
 20
362.5940246045693
 30
0.0
  0
POINT
  5
E27
330
94F
100
AcDbEntity
  8
DEFPOINTS
 62
     0
100
AcDbPoint
 10
129.4639718804922
 20
377.5940246045693
 30
0.0
  0
POINT
  5
E28
330
94F
100
AcDbEntity
  8
DEFPOINTS
 62
     0
100
AcDbPoint
 10
114.0998783290521
 20
377.5940246045693
 30
0.0
  0
ENDBLK
  5
95A
330
94F
100
AcDbEntity
  8
0
100
AcDbBlockEnd
  0
BLOCK
  5
966
330
95C
100
AcDbEntity
  8
0
100
AcDbBlockBegin
  2
*D16
 70
     1
 10
0.0
 20
0.0
 30
0.0
  3
*D16
  1

  0
LINE
  5
E29
330
95C
100
AcDbEntity
  8
SUNPOU
100
AcDbLine
 10
219.0616736514803
 20
249.5940246045694
 30
0.0
 11
220.0616736514803
 21
249.5940246045694
 31
0.0
  0
LINE
  5
E2A
330
95C
100
AcDbEntity
  8
SUNPOU
100
AcDbLine
 10
210.0639718804919
 20
269.5940246045693
 30
0.0
 11
224.0616736514803
 21
269.5940246045693
 31
0.0
  0
LINE
  5
E2B
330
95C
100
AcDbEntity
  8
SUNPOU
100
AcDbLine
 10
222.0616736514803
 20
254.5940246045693
 30
0.0
 11
222.0616736514803
 21
264.5940246045693
 31
0.0
  0
INSERT
  5
E2C
330
95C
100
AcDbEntity
  8
SUNPOU
100
AcDbBlockReference
  2
_OPEN30
 10
222.0616736514803
 20
249.5940246045694
 30
0.0
 41
5.0
 42
5.0
 43
5.0
 50
270.0
  0
INSERT
  5
E2D
330
95C
100
AcDbEntity
  8
SUNPOU
100
AcDbBlockReference
  2
_OPEN30
 10
222.0616736514803
 20
269.5940246045693
 30
0.0
 41
5.0
 42
5.0
 43
5.0
 50
90.0
  0
MTEXT
  5
E2E
330
95C
100
AcDbEntity
  8
SUNPOU
100
AcDbMText
 10
217.5616736514803
 20
259.5940246045695
 30
0.0
 40
5.0
 41
0.0
 71
     5
 72
     1
  1
\A1;20
  7
SUNPOU
 11
0.0000000000000001
 21
1.0
 31
0.0
1001
ACAD
1000
MTEXTBEGIN
1070
    73
1070
     1
1070
    44
1040
1.0
1070
    74
1070
     0
1000
MTEXTEND
1000
MTEXTBEGIN
1070
    73
1070
     1
1070
    44
1040
1.0
1070
    74
1070
     0
1000
MTEXTEND
  0
POINT
  5
E2F
330
95C
100
AcDbEntity
  8
DEFPOINTS
 62
     0
100
AcDbPoint
 10
222.0616736514803
 20
249.5940246045694
 30
0.0
  0
POINT
  5
E30
330
95C
100
AcDbEntity
  8
DEFPOINTS
 62
     0
100
AcDbPoint
 10
207.0639718804919
 20
269.5940246045693
 30
0.0
  0
POINT
  5
E31
330
95C
100
AcDbEntity
  8
DEFPOINTS
 62
     0
100
AcDbPoint
 10
222.0616736514803
 20
269.5940246045693
 30
0.0
  0
ENDBLK
  5
967
330
95C
100
AcDbEntity
  8
0
100
AcDbBlockEnd
  0
BLOCK
  5
973
330
969
100
AcDbEntity
  8
0
100
AcDbBlockBegin
  2
*D17
 70
     1
 10
0.0
 20
0.0
 30
0.0
  3
*D17
  1

  0
LINE
  5
E32
330
969
100
AcDbEntity
  8
SUNPOU
100
AcDbLine
 10
229.963971880492
 20
107.5939999999999
 30
0.0
 11
250.6178180343382
 21
107.5939999999999
 31
0.0
  0
LINE
  5
E33
330
969
100
AcDbEntity
  8
SUNPOU
100
AcDbLine
 10
198.4639718804919
 20
127.5940246045694
 30
0.0
 11
250.6178180343382
 21
127.5940246045694
 31
0.0
  0
LINE
  5
E34
330
969
100
AcDbEntity
  8
SUNPOU
100
AcDbLine
 10
248.6178180343382
 20
112.5939999999999
 30
0.0
 11
248.6178180343382
 21
122.5940246045694
 31
0.0
  0
INSERT
  5
E35
330
969
100
AcDbEntity
  8
SUNPOU
100
AcDbBlockReference
  2
_OPEN30
 10
248.6178180343382
 20
107.5939999999999
 30
0.0
 41
5.0
 42
5.0
 43
5.0
 50
270.0
  0
INSERT
  5
E36
330
969
100
AcDbEntity
  8
SUNPOU
100
AcDbBlockReference
  2
_OPEN30
 10
248.6178180343382
 20
127.5940246045694
 30
0.0
 41
5.0
 42
5.0
 43
5.0
 50
90.0
  0
MTEXT
  5
E37
330
969
100
AcDbEntity
  8
SUNPOU
100
AcDbMText
 10
244.1178180343381
 20
117.5940123022847
 30
0.0
 40
5.0
 41
0.0
 71
     5
 72
     1
  1
\A1;20
  7
SUNPOU
 11
0.0000000000000001
 21
1.0
 31
0.0
1001
ACAD
1000
MTEXTBEGIN
1070
    73
1070
     1
1070
    44
1040
1.0
1070
    74
1070
     0
1000
MTEXTEND
1000
MTEXTBEGIN
1070
    73
1070
     1
1070
    44
1040
1.0
1070
    74
1070
     0
1000
MTEXTEND
  0
POINT
  5
E38
330
969
100
AcDbEntity
  8
DEFPOINTS
 62
     0
100
AcDbPoint
 10
226.9639718804919
 20
107.5939999999999
 30
0.0
  0
POINT
  5
E39
330
969
100
AcDbEntity
  8
DEFPOINTS
 62
     0
100
AcDbPoint
 10
195.4639718804919
 20
127.5940246045694
 30
0.0
  0
POINT
  5
E3A
330
969
100
AcDbEntity
  8
DEFPOINTS
 62
     0
100
AcDbPoint
 10
248.6178180343382
 20
127.5940246045694
 30
0.0
  0
ENDBLK
  5
974
330
969
100
AcDbEntity
  8
0
100
AcDbBlockEnd
  0
BLOCK
  5
980
330
976
100
AcDbEntity
  8
0
100
AcDbBlockBegin
  2
*D18
 70
     1
 10
0.0
 20
0.0
 30
0.0
  3
*D18
  1

  0
LINE
  5
E3B
330
976
100
AcDbEntity
  8
SUNPOU
100
AcDbLine
 10
198.4639718804919
 20
127.5940246045694
 30
0.0
 11
250.6178180343382
 21
127.5940246045694
 31
0.0
  0
LINE
  5
E3C
330
976
100
AcDbEntity
  8
SUNPOU
100
AcDbLine
 10
210.0639718804919
 20
269.5940246045693
 30
0.0
 11
250.6178180343382
 21
269.5940246045693
 31
0.0
  0
LINE
  5
E3D
330
976
100
AcDbEntity
  8
SUNPOU
100
AcDbLine
 10
248.6178180343382
 20
132.5940246045693
 30
0.0
 11
248.6178180343382
 21
264.5940246045693
 31
0.0
  0
MTEXT
  5
E3E
330
976
100
AcDbEntity
  8
SUNPOU
100
AcDbMText
 10
244.1178180343381
 20
190.9337535821213
 30
0.0
 40
5.0
 41
0.0
 71
     5
 72
     1
  1
\A1;142
  7
SUNPOU
 11
0.0000000000000001
 21
1.0
 31
0.0
1001
ACAD
1000
MTEXTBEGIN
1070
    73
1070
     1
1070
    44
1040
1.0
1070
    74
1070
     0
1000
MTEXTEND
1000
MTEXTBEGIN
1070
    73
1070
     1
1070
    44
1040
1.0
1070
    74
1070
     0
1000
MTEXTEND
  0
INSERT
  5
E3F
330
976
100
AcDbEntity
  8
SUNPOU
100
AcDbBlockReference
  2
_OPEN30
 10
248.6178180343382
 20
127.5940246045694
 30
0.0
 41
5.0
 42
5.0
 43
5.0
 50
270.0
  0
INSERT
  5
E40
330
976
100
AcDbEntity
  8
SUNPOU
100
AcDbBlockReference
  2
_OPEN30
 10
248.6178180343382
 20
269.5940246045693
 30
0.0
 41
5.0
 42
5.0
 43
5.0
 50
90.0
  0
POINT
  5
E41
330
976
100
AcDbEntity
  8
DEFPOINTS
 62
     0
100
AcDbPoint
 10
195.4639718804919
 20
127.5940246045694
 30
0.0
  0
POINT
  5
E42
330
976
100
AcDbEntity
  8
DEFPOINTS
 62
     0
100
AcDbPoint
 10
207.0639718804919
 20
269.5940246045693
 30
0.0
  0
POINT
  5
E43
330
976
100
AcDbEntity
  8
DEFPOINTS
 62
     0
100
AcDbPoint
 10
248.6178180343382
 20
269.5940246045693
 30
0.0
  0
ENDBLK
  5
981
330
976
100
AcDbEntity
  8
0
100
AcDbBlockEnd
  0
BLOCK
  5
996
330
98C
100
AcDbEntity
  8
0
100
AcDbBlockBegin
  2
*D19
 70
     1
 10
0.0
 20
0.0
 30
0.0
  3
*D19
  1

  0
LINE
  5
E44
330
98C
100
AcDbEntity
  8
SUNPOU
100
AcDbLine
 10
344.863971880492
 20
249.5940246045694
 30
0.0
 11
363.642260375828
 21
249.5940246045694
 31
0.0
  0
LINE
  5
E45
330
98C
100
AcDbEntity
  8
SUNPOU
100
AcDbLine
 10
344.863971880492
 20
274.5940246045693
 30
0.0
 11
363.642260375828
 21
274.5940246045693
 31
0.0
  0
LINE
  5
E46
330
98C
100
AcDbEntity
  8
SUNPOU
100
AcDbLine
 10
361.642260375828
 20
254.5940246045693
 30
0.0
 11
361.642260375828
 21
269.5940246045693
 31
0.0
  0
INSERT
  5
E47
330
98C
100
AcDbEntity
  8
SUNPOU
100
AcDbBlockReference
  2
_OPEN30
 10
361.642260375828
 20
249.5940246045694
 30
0.0
 41
5.0
 42
5.0
 43
5.0
 50
270.0
  0
INSERT
  5
E48
330
98C
100
AcDbEntity
  8
SUNPOU
100
AcDbBlockReference
  2
_OPEN30
 10
361.642260375828
 20
274.5940246045693
 30
0.0
 41
5.0
 42
5.0
 43
5.0
 50
90.0
  0
MTEXT
  5
E49
330
98C
100
AcDbEntity
  8
SUNPOU
100
AcDbMText
 10
357.1422603758278
 20
262.0940246045694
 30
0.0
 40
5.0
 41
0.0
 71
     5
 72
     1
  1
\A1;25
  7
SUNPOU
 11
0.0000000000000001
 21
1.0
 31
0.0
1001
ACAD
1000
MTEXTBEGIN
1070
    73
1070
     1
1070
    44
1040
1.0
1070
    74
1070
     0
1000
MTEXTEND
1000
MTEXTBEGIN
1070
    73
1070
     1
1070
    44
1040
1.0
1070
    74
1070
     0
1000
MTEXTEND
  0
POINT
  5
E4A
330
98C
100
AcDbEntity
  8
DEFPOINTS
 62
     0
100
AcDbPoint
 10
341.8639718804919
 20
249.5940246045694
 30
0.0
  0
POINT
  5
E4B
330
98C
100
AcDbEntity
  8
DEFPOINTS
 62
     0
100
AcDbPoint
 10
341.8639718804918
 20
274.5940246045693
 30
0.0
  0
POINT
  5
E4C
330
98C
100
AcDbEntity
  8
DEFPOINTS
 62
     0
100
AcDbPoint
 10
361.642260375828
 20
274.5940246045693
 30
0.0
  0
ENDBLK
  5
997
330
98C
100
AcDbEntity
  8
0
100
AcDbBlockEnd
  0
BLOCK
  5
9A3
330
999
100
AcDbEntity
  8
0
100
AcDbBlockBegin
  2
*D20
 70
     1
 10
0.0
 20
0.0
 30
0.0
  3
*D20
  1

  0
LINE
  5
E4D
330
999
100
AcDbEntity
  8
SUNPOU
100
AcDbLine
 10
344.863971880492
 20
274.5940246045693
 30
0.0
 11
363.642260375828
 21
274.5940246045693
 31
0.0
  0
LINE
  5
E4E
330
999
100
AcDbEntity
  8
SUNPOU
100
AcDbLine
 10
344.863971880492
 20
521.5940246045694
 30
0.0
 11
363.642260375828
 21
521.5940246045694
 31
0.0
  0
LINE
  5
E4F
330
999
100
AcDbEntity
  8
SUNPOU
100
AcDbLine
 10
361.642260375828
 20
279.5940246045693
 30
0.0
 11
361.642260375828
 21
516.5940246045694
 31
0.0
  0
INSERT
  5
E50
330
999
100
AcDbEntity
  8
SUNPOU
100
AcDbBlockReference
  2
_OPEN30
 10
361.642260375828
 20
274.5940246045693
 30
0.0
 41
5.0
 42
5.0
 43
5.0
 50
270.0
  0
INSERT
  5
E51
330
999
100
AcDbEntity
  8
SUNPOU
100
AcDbBlockReference
  2
_OPEN30
 10
361.642260375828
 20
521.5940246045694
 30
0.0
 41
5.0
 42
5.0
 43
5.0
 50
90.0
  0
MTEXT
  5
E52
330
999
100
AcDbEntity
  8
SUNPOU
100
AcDbMText
 10
357.1422603758278
 20
398.0940246045694
 30
0.0
 40
5.0
 41
0.0
 71
     5
 72
     1
  1
\A1;247
  7
SUNPOU
 11
0.0000000000000001
 21
1.0
 31
0.0
1001
ACAD
1000
MTEXTBEGIN
1070
    73
1070
     1
1070
    44
1040
1.0
1070
    74
1070
     0
1000
MTEXTEND
1000
MTEXTBEGIN
1070
    73
1070
     1
1070
    44
1040
1.0
1070
    74
1070
     0
1000
MTEXTEND
  0
POINT
  5
E53
330
999
100
AcDbEntity
  8
DEFPOINTS
 62
     0
100
AcDbPoint
 10
341.8639718804918
 20
274.5940246045693
 30
0.0
  0
POINT
  5
E54
330
999
100
AcDbEntity
  8
DEFPOINTS
 62
     0
100
AcDbPoint
 10
341.8639718804919
 20
521.5940246045694
 30
0.0
  0
POINT
  5
E55
330
999
100
AcDbEntity
  8
DEFPOINTS
 62
     0
100
AcDbPoint
 10
361.642260375828
 20
521.5940246045694
 30
0.0
  0
ENDBLK
  5
9A4
330
999
100
AcDbEntity
  8
0
100
AcDbBlockEnd
  0
BLOCK
  5
9B2
330
9A6
100
AcDbEntity
  8
0
100
AcDbBlockBegin
  2
*D21
 70
     1
 10
0.0
 20
0.0
 30
0.0
  3
*D21
  1

  0
LINE
  5
E56
330
9A6
100
AcDbEntity
  8
SUNPOU
100
AcDbLine
 10
344.863971880492
 20
521.5940246045694
 30
0.0
 11
363.642260375828
 21
521.5940246045694
 31
0.0
  0
LINE
  5
E57
330
9A6
100
AcDbEntity
  8
SUNPOU
100
AcDbLine
 10
344.863971880492
 20
524.5940246045694
 30
0.0
 11
363.642260375828
 21
524.5940246045694
 31
0.0
  0
LINE
  5
E58
330
9A6
100
AcDbEntity
  8
SUNPOU
100
AcDbLine
 10
361.642260375828
 20
516.5940246045694
 30
0.0
 11
361.642260375828
 21
511.5940246045695
 31
0.0
  0
LINE
  5
E59
330
9A6
100
AcDbEntity
  8
SUNPOU
100
AcDbLine
 10
361.642260375828
 20
529.5940246045694
 30
0.0
 11
361.642260375828
 21
534.5940246045694
 31
0.0
  0
MTEXT
  5
E5A
330
9A6
100
AcDbEntity
  8
SUNPOU
100
AcDbMText
 10
366.1361874181416
 20
523.0940246045694
 30
0.0
 40
5.0
 41
0.0
 71
     5
 72
     1
  1
\A1;3
  7
SUNPOU
 11
0.0000000000000001
 21
1.0
 31
0.0
1001
ACAD
1000
MTEXTBEGIN
1070
    73
1070
     1
1070
    44
1040
1.0
1070
    74
1070
     0
1000
MTEXTEND
1000
MTEXTBEGIN
1070
    73
1070
     1
1070
    44
1040
1.0
1070
    74
1070
     0
1000
MTEXTEND
  0
LINE
  5
E5B
330
9A6
100
AcDbEntity
  8
SUNPOU
100
AcDbLine
 10
361.642260375828
 20
521.5940246045694
 30
0.0
 11
361.642260375828
 21
524.5940246045694
 31
0.0
  0
INSERT
  5
E5C
330
9A6
100
AcDbEntity
  8
SUNPOU
100
AcDbBlockReference
  2
_OPEN30
 10
361.642260375828
 20
521.5940246045694
 30
0.0
 41
5.0
 42
5.0
 43
5.0
 50
90.0
  0
INSERT
  5
E5D
330
9A6
100
AcDbEntity
  8
SUNPOU
100
AcDbBlockReference
  2
_OPEN30
 10
361.642260375828
 20
524.5940246045694
 30
0.0
 41
5.0
 42
5.0
 43
5.0
 50
270.0
  0
POINT
  5
E5E
330
9A6
100
AcDbEntity
  8
DEFPOINTS
 62
     0
100
AcDbPoint
 10
341.8639718804919
 20
521.5940246045694
 30
0.0
  0
POINT
  5
E5F
330
9A6
100
AcDbEntity
  8
DEFPOINTS
 62
     0
100
AcDbPoint
 10
341.8639718804919
 20
524.5940246045694
 30
0.0
  0
POINT
  5
E60
330
9A6
100
AcDbEntity
  8
DEFPOINTS
 62
     0
100
AcDbPoint
 10
361.642260375828
 20
524.5940246045694
 30
0.0
  0
ENDBLK
  5
9B3
330
9A6
100
AcDbEntity
  8
0
100
AcDbBlockEnd
  0
BLOCK
  5
9BF
330
9B5
100
AcDbEntity
  8
0
100
AcDbBlockBegin
  2
*D22
 70
     1
 10
0.0
 20
0.0
 30
0.0
  3
*D22
  1

  0
LINE
  5
E61
330
9B5
100
AcDbEntity
  8
SUNPOU
100
AcDbLine
 10
344.863971880492
 20
524.5940246045694
 30
0.0
 11
363.642260375828
 21
524.5940246045694
 31
0.0
  0
LINE
  5
E62
330
9B5
100
AcDbEntity
  8
SUNPOU
100
AcDbLine
 10
344.863971880492
 20
549.5940246045694
 30
0.0
 11
363.642260375828
 21
549.5940246045694
 31
0.0
  0
LINE
  5
E63
330
9B5
100
AcDbEntity
  8
SUNPOU
100
AcDbLine
 10
361.642260375828
 20
529.5940246045694
 30
0.0
 11
361.642260375828
 21
544.5940246045694
 31
0.0
  0
INSERT
  5
E64
330
9B5
100
AcDbEntity
  8
SUNPOU
100
AcDbBlockReference
  2
_OPEN30
 10
361.642260375828
 20
524.5940246045694
 30
0.0
 41
5.0
 42
5.0
 43
5.0
 50
270.0
  0
INSERT
  5
E65
330
9B5
100
AcDbEntity
  8
SUNPOU
100
AcDbBlockReference
  2
_OPEN30
 10
361.642260375828
 20
549.5940246045694
 30
0.0
 41
5.0
 42
5.0
 43
5.0
 50
90.0
  0
MTEXT
  5
E66
330
9B5
100
AcDbEntity
  8
SUNPOU
100
AcDbMText
 10
357.142260375828
 20
537.0940246045694
 30
0.0
 40
5.0
 41
0.0
 71
     5
 72
     1
  1
\A1;25
  7
SUNPOU
 11
0.0000000000000001
 21
1.0
 31
0.0
1001
ACAD
1000
MTEXTBEGIN
1070
    73
1070
     1
1070
    44
1040
1.0
1070
    74
1070
     0
1000
MTEXTEND
1000
MTEXTBEGIN
1070
    73
1070
     1
1070
    44
1040
1.0
1070
    74
1070
     0
1000
MTEXTEND
  0
POINT
  5
E67
330
9B5
100
AcDbEntity
  8
DEFPOINTS
 62
     0
100
AcDbPoint
 10
341.8639718804919
 20
524.5940246045694
 30
0.0
  0
POINT
  5
E68
330
9B5
100
AcDbEntity
  8
DEFPOINTS
 62
     0
100
AcDbPoint
 10
341.8639718804919
 20
549.5940246045694
 30
0.0
  0
POINT
  5
E69
330
9B5
100
AcDbEntity
  8
DEFPOINTS
 62
     0
100
AcDbPoint
 10
361.642260375828
 20
549.5940246045694
 30
0.0
  0
ENDBLK
  5
9C0
330
9B5
100
AcDbEntity
  8
0
100
AcDbBlockEnd
  0
BLOCK
  5
9D9
330
9CF
100
AcDbEntity
  8
0
100
AcDbBlockBegin
  2
*D23
 70
     1
 10
0.0
 20
0.0
 30
0.0
  3
*D23
  1

  0
LINE
  5
E6A
330
9CF
100
AcDbEntity
  8
SUNPOU
100
AcDbLine
 10
344.863971880492
 20
249.5940246045694
 30
0.0
 11
379.2674057050155
 21
249.5940246045694
 31
0.0
  0
LINE
  5
E6B
330
9CF
100
AcDbEntity
  8
SUNPOU
100
AcDbLine
 10
344.863971880492
 20
549.5940246045694
 30
0.0
 11
379.2674057050155
 21
549.5940246045694
 31
0.0
  0
LINE
  5
E6C
330
9CF
100
AcDbEntity
  8
SUNPOU
100
AcDbLine
 10
377.2674057050155
 20
254.5940246045693
 30
0.0
 11
377.2674057050155
 21
544.5940246045694
 31
0.0
  0
INSERT
  5
E6D
330
9CF
100
AcDbEntity
  8
SUNPOU
100
AcDbBlockReference
  2
_OPEN30
 10
377.2674057050155
 20
249.5940246045694
 30
0.0
 41
5.0
 42
5.0
 43
5.0
 50
270.0
  0
INSERT
  5
E6E
330
9CF
100
AcDbEntity
  8
SUNPOU
100
AcDbBlockReference
  2
_OPEN30
 10
377.2674057050155
 20
549.5940246045694
 30
0.0
 41
5.0
 42
5.0
 43
5.0
 50
90.0
  0
MTEXT
  5
E6F
330
9CF
100
AcDbEntity
  8
SUNPOU
100
AcDbMText
 10
372.7674057050153
 20
399.5940246045694
 30
0.0
 40
5.0
 41
0.0
 71
     5
 72
     1
  1
\A1;300
  7
SUNPOU
 11
0.0000000000000001
 21
1.0
 31
0.0
1001
ACAD
1000
MTEXTBEGIN
1070
    73
1070
     1
1070
    44
1040
1.0
1070
    74
1070
     0
1000
MTEXTEND
1000
MTEXTBEGIN
1070
    73
1070
     1
1070
    44
1040
1.0
1070
    74
1070
     0
1000
MTEXTEND
  0
POINT
  5
E70
330
9CF
100
AcDbEntity
  8
DEFPOINTS
 62
     0
100
AcDbPoint
 10
341.8639718804919
 20
249.5940246045694
 30
0.0
  0
POINT
  5
E71
330
9CF
100
AcDbEntity
  8
DEFPOINTS
 62
     0
100
AcDbPoint
 10
341.8639718804919
 20
549.5940246045694
 30
0.0
  0
POINT
  5
E72
330
9CF
100
AcDbEntity
  8
DEFPOINTS
 62
     0
100
AcDbPoint
 10
377.2674057050155
 20
549.5940246045694
 30
0.0
  0
ENDBLK
  5
9DA
330
9CF
100
AcDbEntity
  8
0
100
AcDbBlockEnd
  0
BLOCK
  5
A00
330
9F6
100
AcDbEntity
  8
0
100
AcDbBlockBegin
  2
*D24
 70
     1
 10
0.0
 20
0.0
 30
0.0
  3
*D24
  1

  0
LINE
  5
106E
330
9F6
100
AcDbEntity
  8
SUNPOU
100
AcDbLine
 10
129.4639718804922
 20
525.6229822901176
 30
0.0
 11
129.4639718804922
 21
524.6229822901177
 31
0.0
  0
LINE
  5
106F
330
9F6
100
AcDbEntity
  8
SUNPOU
100
AcDbLine
 10
294.4639718804921
 20
452.5940246045693
 30
0.0
 11
294.4639718804921
 21
524.6229822901177
 31
0.0
  0
LINE
  5
1070
330
9F6
100
AcDbEntity
  8
SUNPOU
100
AcDbLine
 10
134.4639718804922
 20
522.6229822901176
 30
0.0
 11
289.4639718804921
 21
522.6229822901176
 31
0.0
  0
INSERT
  5
1071
330
9F6
100
AcDbEntity
  8
SUNPOU
100
AcDbBlockReference
  2
_OPEN30
 10
129.4639718804922
 20
522.6229822901176
 30
0.0
 41
5.0
 42
5.0
 43
5.0
 50
180.0
  0
INSERT
  5
1072
330
9F6
100
AcDbEntity
  8
SUNPOU
100
AcDbBlockReference
  2
_OPEN30
 10
294.4639718804921
 20
522.6229822901176
 30
0.0
 41
5.0
 42
5.0
 43
5.0
  0
MTEXT
  5
1073
330
9F6
100
AcDbEntity
  8
SUNPOU
100
AcDbMText
 10
211.9639718804921
 20
527.1229822901176
 30
0.0
 40
5.0
 41
0.0
 71
     5
 72
     1
  1
\A1;A
  7
SUNPOU
1001
ACAD
1000
MTEXTBEGIN
1070
    73
1070
     1
1070
    44
1040
1.0
1070
    74
1070
     0
1000
MTEXTEND
1000
MTEXTBEGIN
1070
    73
1070
     1
1070
    44
1040
1.0
1070
    74
1070
     0
1000
MTEXTEND
  0
POINT
  5
1074
330
9F6
100
AcDbEntity
  8
DEFPOINTS
 62
     0
100
AcDbPoint
 10
129.4639718804922
 20
522.6229822901176
 30
0.0
  0
POINT
  5
1075
330
9F6
100
AcDbEntity
  8
DEFPOINTS
 62
     0
100
AcDbPoint
 10
294.4639718804921
 20
449.5940246045694
 30
0.0
  0
POINT
  5
1076
330
9F6
100
AcDbEntity
  8
DEFPOINTS
 62
     0
100
AcDbPoint
 10
294.4639718804921
 20
522.6229822901176
 30
0.0
  0
ENDBLK
  5
A01
330
9F6
100
AcDbEntity
  8
0
100
AcDbBlockEnd
  0
BLOCK
  5
EE0
330
ED4
100
AcDbEntity
  8
0
100
AcDbBlockBegin
  2
*D25
 70
     1
 10
0.0
 20
0.0
 30
0.0
  3
*D25
  1

  0
LINE
  5
F20
330
ED4
100
AcDbEntity
  8
SUNPOU
100
AcDbLine
 10
97.46397188049208
 20
246.5940246045693
 30
0.0
 11
97.46397188049208
 21
236.1381554967646
 31
0.0
  0
LINE
  5
F21
330
ED4
100
AcDbEntity
  8
SUNPOU
100
AcDbLine
 10
109.4639718804919
 20
246.5940246045693
 30
0.0
 11
109.4639718804919
 21
236.1381554967646
 31
0.0
  0
LINE
  5
F22
330
ED4
100
AcDbEntity
  8
SUNPOU
100
AcDbLine
 10
92.46397188049206
 20
238.1381554967645
 30
0.0
 11
87.46397188049206
 21
238.1381554967645
 31
0.0
  0
LINE
  5
F23
330
ED4
100
AcDbEntity
  8
SUNPOU
100
AcDbLine
 10
114.4639718804919
 20
238.1381554967645
 30
0.0
 11
119.463971880492
 21
238.1381554967645
 31
0.0
  0
MTEXT
  5
F24
330
ED4
100
AcDbEntity
  8
SUNPOU
100
AcDbMText
 10
103.4639718804919
 20
242.8653803982141
 30
0.0
 40
5.0
 41
0.0
 71
     5
 72
     1
  1
\A1;φ12
  7
SUNPOU
1001
ACAD
1000
MTEXTBEGIN
1070
    73
1070
     1
1070
    44
1040
1.0
1070
    74
1070
     0
1000
MTEXTEND
1000
MTEXTBEGIN
1070
    73
1070
     1
1070
    44
1040
1.0
1070
    74
1070
     0
1000
MTEXTEND
  0
LINE
  5
F25
330
ED4
100
AcDbEntity
  8
SUNPOU
100
AcDbLine
 10
97.46397188049208
 20
238.1381554967645
 30
0.0
 11
109.4639718804919
 21
238.1381554967645
 31
0.0
  0
INSERT
  5
F26
330
ED4
100
AcDbEntity
  8
SUNPOU
100
AcDbBlockReference
  2
_OPEN30
 10
97.46397188049208
 20
238.1381554967645
 30
0.0
 41
5.0
 42
5.0
 43
5.0
  0
INSERT
  5
F27
330
ED4
100
AcDbEntity
  8
SUNPOU
100
AcDbBlockReference
  2
_OPEN30
 10
109.4639718804919
 20
238.1381554967645
 30
0.0
 41
5.0
 42
5.0
 43
5.0
 50
180.0
  0
POINT
  5
F28
330
ED4
100
AcDbEntity
  8
DEFPOINTS
 62
     0
100
AcDbPoint
 10
97.46397188049208
 20
249.5940246045694
 30
0.0
  0
POINT
  5
F29
330
ED4
100
AcDbEntity
  8
DEFPOINTS
 62
     0
100
AcDbPoint
 10
109.4639718804919
 20
249.5940246045694
 30
0.0
  0
POINT
  5
F2A
330
ED4
100
AcDbEntity
  8
DEFPOINTS
 62
     0
100
AcDbPoint
 10
109.4639718804919
 20
238.1381554967645
 30
0.0
  0
ENDBLK
  5
EE1
330
ED4
100
AcDbEntity
  8
0
100
AcDbBlockEnd
  0
BLOCK
  5
1235
330
120C
100
AcDbEntity
  8
0
100
AcDbBlockBegin
  2
*X26
 70
     1
 10
0.0
 20
0.0
 30
0.0
  3
*X26
  1

  0
LINE
  5
120D
330
120C
100
AcDbEntity
  8
0
 62
     0
100
AcDbLine
 10
109.056551843743
 20
249.5940246045694
 30
0.0
 11
109.4639718804919
 21
250.0014446413183
 31
0.0
  0
LINE
  5
120E
330
120C
100
AcDbEntity
  8
0
 62
     0
100
AcDbLine
 10
108.0049014142935
 20
251.1940246045694
 30
0.0
 11
109.4639718804919
 21
252.6530950707678
 31
0.0
  0
LINE
  5
120F
330
120C
100
AcDbEntity
  8
0
 62
     0
100
AcDbLine
 10
106.4049014142935
 20
249.5940246045694
 30
0.0
 11
108.0049014142935
 21
251.1940246045694
 31
0.0
  0
LINE
  5
1210
330
120C
100
AcDbEntity
  8
0
 62
     0
100
AcDbLine
 10
105.353250984844
 20
251.1940246045694
 30
0.0
 11
109.4639718804919
 21
255.3047455002174
 31
0.0
  0
LINE
  5
1211
330
120C
100
AcDbEntity
  8
0
 62
     0
100
AcDbLine
 10
103.753250984844
 20
249.5940246045694
 30
0.0
 11
105.353250984844
 21
251.1940246045694
 31
0.0
  0
LINE
  5
1212
330
120C
100
AcDbEntity
  8
0
 62
     0
100
AcDbLine
 10
102.7016005553945
 20
251.1940246045694
 30
0.0
 11
109.4639718804919
 21
257.9563959296669
 31
0.0
  0
LINE
  5
1213
330
120C
100
AcDbEntity
  8
0
 62
     0
100
AcDbLine
 10
101.1016005553944
 20
249.5940246045694
 30
0.0
 11
102.7016005553945
 21
251.1940246045694
 31
0.0
  0
LINE
  5
1214
330
120C
100
AcDbEntity
  8
0
 62
     0
100
AcDbLine
 10
100.0499501259449
 20
251.1940246045694
 30
0.0
 11
109.4639718804919
 21
260.6080463591165
 31
0.0
  0
LINE
  5
1215
330
120C
100
AcDbEntity
  8
0
 62
     0
100
AcDbLine
 10
98.44995012594495
 20
249.5940246045694
 30
0.0
 11
100.0499501259449
 21
251.1940246045694
 31
0.0
  0
LINE
  5
1216
330
120C
100
AcDbEntity
  8
0
 62
     0
100
AcDbLine
 10
97.46397188049208
 20
251.259696788566
 30
0.0
 11
109.4639718804919
 21
263.259696788566
 31
0.0
  0
LINE
  5
1217
330
120C
100
AcDbEntity
  8
0
 62
     0
100
AcDbLine
 10
97.46397188049204
 20
253.9113472180156
 30
0.0
 11
109.4639718804919
 21
265.9113472180155
 31
0.0
  0
LINE
  5
1218
330
120C
100
AcDbEntity
  8
0
 62
     0
100
AcDbLine
 10
97.46397188049208
 20
256.5629976474651
 30
0.0
 11
109.4639718804919
 21
268.562997647465
 31
0.0
  0
LINE
  5
1219
330
120C
100
AcDbEntity
  8
0
 62
     0
100
AcDbLine
 10
108.9433484081467
 20
270.6940246045695
 30
0.0
 11
109.4639718804919
 21
271.2146480769146
 31
0.0
  0
LINE
  5
121A
330
120C
100
AcDbEntity
  8
0
 62
     0
100
AcDbLine
 10
97.46397188049208
 20
259.2146480769148
 30
0.0
 11
108.9433484081467
 21
270.6940246045693
 31
0.0
  0
LINE
  5
121B
330
120C
100
AcDbEntity
  8
0
 62
     0
100
AcDbLine
 10
106.2916979786971
 20
270.6940246045695
 30
0.0
 11
108.591697978697
 21
272.9940246045694
 31
0.0
  0
LINE
  5
121C
330
120C
100
AcDbEntity
  8
0
 62
     0
100
AcDbLine
 10
108.591697978697
 20
272.9940246045694
 30
0.0
 11
109.4639718804919
 21
273.8662985063643
 31
0.0
  0
LINE
  5
121D
330
120C
100
AcDbEntity
  8
0
 62
     0
100
AcDbLine
 10
97.46397188049208
 20
261.8662985063644
 30
0.0
 11
106.291697978697
 21
270.6940246045693
 31
0.0
  0
LINE
  5
121E
330
120C
100
AcDbEntity
  8
0
 62
     0
100
AcDbLine
 10
105.9400475492475
 20
272.9940246045694
 30
0.0
 11
107.5400475492474
 21
274.5940246045693
 31
0.0
  0
LINE
  5
121F
330
120C
100
AcDbEntity
  8
0
 62
     0
100
AcDbLine
 10
107.5400475492474
 20
274.5940246045693
 30
0.0
 11
109.1400475492475
 21
276.1940246045694
 31
0.0
  0
LINE
  5
1220
330
120C
100
AcDbEntity
  8
0
 62
     0
100
AcDbLine
 10
103.6400475492475
 20
270.6940246045695
 30
0.0
 11
105.9400475492475
 21
272.9940246045694
 31
0.0
  0
LINE
  5
1221
330
120C
100
AcDbEntity
  8
0
 62
     0
100
AcDbLine
 10
109.1400475492475
 20
276.1940246045694
 30
0.0
 11
109.4639718804919
 21
276.5179489358138
 31
0.0
  0
LINE
  5
1222
330
120C
100
AcDbEntity
  8
0
 62
     0
100
AcDbLine
 10
97.46397188049206
 20
264.5179489358138
 30
0.0
 11
103.6400475492475
 21
270.6940246045693
 31
0.0
  0
LINE
  5
1223
330
120C
100
AcDbEntity
  8
0
 62
     0
100
AcDbLine
 10
103.288397119798
 20
272.9940246045694
 30
0.0
 11
104.8883971197979
 21
274.5940246045693
 31
0.0
  0
LINE
  5
1224
330
120C
100
AcDbEntity
  8
0
 62
     0
100
AcDbLine
 10
104.8883971197979
 20
274.5940246045693
 30
0.0
 11
106.488397119798
 21
276.1940246045694
 31
0.0
  0
LINE
  5
1225
330
120C
100
AcDbEntity
  8
0
 62
     0
100
AcDbLine
 10
100.9883971197979
 20
270.6940246045693
 30
0.0
 11
103.288397119798
 21
272.9940246045694
 31
0.0
  0
LINE
  5
1226
330
120C
100
AcDbEntity
  8
0
 62
     0
100
AcDbLine
 10
106.488397119798
 20
276.1940246045694
 30
0.0
 11
109.4639718804919
 21
279.1695993652634
 31
0.0
  0
LINE
  5
1227
330
120C
100
AcDbEntity
  8
0
 62
     0
100
AcDbLine
 10
97.46397188049206
 20
267.1695993652634
 30
0.0
 11
100.9883971197979
 21
270.6940246045693
 31
0.0
  0
LINE
  5
1228
330
120C
100
AcDbEntity
  8
0
 62
     0
100
AcDbLine
 10
100.6367466903484
 20
272.9940246045694
 30
0.0
 11
102.2367466903485
 21
274.5940246045693
 31
0.0
  0
LINE
  5
1229
330
120C
100
AcDbEntity
  8
0
 62
     0
100
AcDbLine
 10
102.2367466903485
 20
274.5940246045693
 30
0.0
 11
103.8367466903485
 21
276.1940246045694
 31
0.0
  0
LINE
  5
122A
330
120C
100
AcDbEntity
  8
0
 62
     0
100
AcDbLine
 10
98.33674669034856
 20
270.6940246045693
 30
0.0
 11
100.6367466903484
 21
272.9940246045694
 31
0.0
  0
LINE
  5
122B
330
120C
100
AcDbEntity
  8
0
 62
     0
100
AcDbLine
 10
103.8367466903485
 20
276.1940246045694
 30
0.0
 11
109.4639718804919
 21
281.8212497947129
 31
0.0
  0
LINE
  5
122C
330
120C
100
AcDbEntity
  8
0
 62
     0
100
AcDbLine
 10
97.46397188049208
 20
269.8212497947129
 30
0.0
 11
98.33674669034856
 21
270.6940246045693
 31
0.0
  0
LINE
  5
122D
330
120C
100
AcDbEntity
  8
0
 62
     0
100
AcDbLine
 10
99.58509626089895
 20
274.5940246045693
 30
0.0
 11
101.1850962608989
 21
276.1940246045694
 31
0.0
  0
LINE
  5
122E
330
120C
100
AcDbEntity
  8
0
 62
     0
100
AcDbLine
 10
97.98509626089899
 20
272.9940246045694
 30
0.0
 11
99.58509626089895
 21
274.5940246045693
 31
0.0
  0
LINE
  5
122F
330
120C
100
AcDbEntity
  8
0
 62
     0
100
AcDbLine
 10
101.1850962608989
 20
276.1940246045694
 30
0.0
 11
107.1850962608989
 21
282.1940246045693
 31
0.0
  0
LINE
  5
1230
330
120C
100
AcDbEntity
  8
0
 62
     0
100
AcDbLine
 10
97.46397188049206
 20
272.4729002241624
 30
0.0
 11
97.98509626089899
 21
272.9940246045694
 31
0.0
  0
LINE
  5
1231
330
120C
100
AcDbEntity
  8
0
 62
     0
100
AcDbLine
 10
98.53344583144943
 20
276.1940246045694
 30
0.0
 11
104.5334458314494
 21
282.1940246045693
 31
0.0
  0
LINE
  5
1232
330
120C
100
AcDbEntity
  8
0
 62
     0
100
AcDbLine
 10
97.46397188049204
 20
275.124550653612
 30
0.0
 11
98.53344583144943
 21
276.1940246045694
 31
0.0
  0
LINE
  5
1233
330
120C
100
AcDbEntity
  8
0
 62
     0
100
AcDbLine
 10
97.46397188049208
 20
277.7762010830616
 30
0.0
 11
101.8817954019997
 21
282.1940246045693
 31
0.0
  0
LINE
  5
1234
330
120C
100
AcDbEntity
  8
0
 62
     0
100
AcDbLine
 10
97.46397188049208
 20
280.4278515125111
 30
0.0
 11
99.23014497255035
 21
282.1940246045695
 31
0.0
  0
ENDBLK
  5
1236
330
120C
100
AcDbEntity
  8
0
100
AcDbBlockEnd
  0
ENDSEC
  0
SECTION
  2
ENTITIES
  0
LINE
  5
3DA
330
A
100
AcDbEntity
  8
03
100
AcDbLine
 10
75.06397188049206
 20
549.5940246045694
 30
0.0
 11
341.8639718804919
 21
549.5940246045694
 31
0.0
  0
LINE
  5
3DB
330
A
100
AcDbEntity
  8
03
100
AcDbLine
 10
75.06397188049206
 20
547.9940246045694
 30
0.0
 11
341.8639718804919
 21
547.9940246045694
 31
0.0
  0
LINE
  5
3DC
330
A
100
AcDbEntity
  8
03
100
AcDbLine
 10
341.8639718804919
 20
524.5940246045694
 30
0.0
 11
328.4639718804919
 21
524.5940246045694
 31
0.0
  0
LINE
  5
3DD
330
A
100
AcDbEntity
  8
03
100
AcDbLine
 10
328.4639718804919
 20
524.5940246045694
 30
0.0
 11
328.4639718804919
 21
504.5940246045693
 31
0.0
  0
LINE
  5
3DE
330
A
100
AcDbEntity
  8
03
100
AcDbLine
 10
328.4639718804919
 20
504.5940246045693
 30
0.0
 11
326.8639718804919
 21
504.5940246045693
 31
0.0
  0
LINE
  5
3DF
330
A
100
AcDbEntity
  8
03
100
AcDbLine
 10
326.8639718804919
 20
504.5940246045693
 30
0.0
 11
326.8639718804919
 21
524.5940246045694
 31
0.0
  0
LINE
  5
3E0
330
A
100
AcDbEntity
  8
03
100
AcDbLine
 10
341.8639718804919
 20
526.1940246045694
 30
0.0
 11
328.4639718804919
 21
526.1940246045694
 31
0.0
  0
LINE
  5
3E1
330
A
100
AcDbEntity
  8
03
100
AcDbLine
 10
330.0639718804919
 20
521.5940246045694
 30
0.0
 11
341.8639718804919
 21
521.5940246045694
 31
0.0
  0
LINE
  5
3E2
330
A
100
AcDbEntity
  8
03
100
AcDbLine
 10
341.8639718804919
 20
519.9940246045692
 30
0.0
 11
330.0639718804919
 21
519.9940246045692
 31
0.0
  0
LINE
  5
3E3
330
A
100
AcDbEntity
  8
03
100
AcDbLine
 10
328.4639718804919
 20
504.5940246045693
 30
0.0
 11
328.4639718804919
 21
519.9940246045692
 31
0.0
  0
LINE
  5
3E4
330
A
100
AcDbEntity
  8
03
100
AcDbLine
 10
341.8639718804919
 20
547.9940246045694
 30
0.0
 11
341.8639718804919
 21
526.1940246045694
 31
0.0
  0
LINE
  5
3E5
330
A
100
AcDbEntity
  8
03
100
AcDbLine
 10
341.8639718804919
 20
519.9940246045692
 30
0.0
 11
341.8639718804919
 21
276.1940246045694
 31
0.0
  0
LINE
  5
3E6
330
A
100
AcDbEntity
  8
03
100
AcDbLine
 10
343.4639718804919
 20
547.9940246045694
 30
0.0
 11
343.4639718804919
 21
526.1940246045694
 31
0.0
  0
LINE
  5
3E7
330
A
100
AcDbEntity
  8
03
100
AcDbLine
 10
343.4639718804919
 20
519.9940246045692
 30
0.0
 11
343.4639718804919
 21
276.1940246045694
 31
0.0
  0
LINE
  5
3E8
330
A
100
AcDbEntity
  8
03
100
AcDbLine
 10
330.0639718804919
 20
519.9940246045692
 30
0.0
 11
330.0639718804919
 21
504.5940246045693
 31
0.0
  0
LINE
  5
3E9
330
A
100
AcDbEntity
  8
03
100
AcDbLine
 10
328.4639718804919
 20
504.5940246045693
 30
0.0
 11
330.0639718804919
 21
504.5940246045693
 31
0.0
  0
ARC
  5
3EA
330
A
100
AcDbEntity
  8
03
100
AcDbCircle
 10
341.8639718804919
 20
547.9940246045694
 30
0.0
 40
1.6
100
AcDbArc
 50
0.0
 51
90.0
  0
ARC
  5
3EB
330
A
100
AcDbEntity
  8
03
100
AcDbCircle
 10
341.8639718804919
 20
526.1940246045694
 30
0.0
 40
1.6
100
AcDbArc
 50
270.0
 51
0.0
  0
ARC
  5
3EC
330
A
100
AcDbEntity
  8
03
100
AcDbCircle
 10
341.8639718804919
 20
519.9940246045692
 30
0.0
 40
1.6
100
AcDbArc
 50
0.0
 51
90.0
  0
ARC
  5
3ED
330
A
100
AcDbEntity
  8
03
100
AcDbCircle
 10
330.0639718804919
 20
519.9940246045692
 30
0.0
 40
1.6
100
AcDbArc
 50
90.0
 51
180.0
  0
ARC
  5
3EE
330
A
100
AcDbEntity
  8
03
100
AcDbCircle
 10
328.4639718804919
 20
524.5940246045694
 30
0.0
 40
1.6
100
AcDbArc
 50
90.0
 51
180.0
  0
LINE
  5
3EF
330
A
100
AcDbEntity
  8
03
100
AcDbLine
 10
341.8639718804919
 20
274.5940246045693
 30
0.0
 11
328.4639718804919
 21
274.5940246045693
 31
0.0
  0
LINE
  5
3F0
330
A
100
AcDbEntity
  8
03
100
AcDbLine
 10
328.4639718804919
 20
274.5940246045693
 30
0.0
 11
328.4639718804919
 21
294.5940246045693
 31
0.0
  0
LINE
  5
3F1
330
A
100
AcDbEntity
  8
03
100
AcDbLine
 10
328.4639718804919
 20
294.5940246045693
 30
0.0
 11
326.8639718804919
 21
294.5940246045693
 31
0.0
  0
LINE
  5
3F2
330
A
100
AcDbEntity
  8
03
100
AcDbLine
 10
326.8639718804919
 20
294.5940246045693
 30
0.0
 11
326.8639718804919
 21
274.5940246045693
 31
0.0
  0
LINE
  5
3F3
330
A
100
AcDbEntity
  8
03
100
AcDbLine
 10
341.8639718804919
 20
272.9940246045694
 30
0.0
 11
328.4639718804919
 21
272.9940246045694
 31
0.0
  0
LINE
  5
3F4
330
A
100
AcDbEntity
  8
03
100
AcDbLine
 10
330.0639718804919
 20
274.5940246045693
 30
0.0
 11
341.8639718804919
 21
274.5940246045693
 31
0.0
  0
LINE
  5
3F5
330
A
100
AcDbEntity
  8
03
100
AcDbLine
 10
341.8639718804919
 20
276.1940246045694
 30
0.0
 11
330.0639718804919
 21
276.1940246045694
 31
0.0
  0
LINE
  5
3F6
330
A
100
AcDbEntity
  8
03
100
AcDbLine
 10
328.4639718804919
 20
294.5940246045693
 30
0.0
 11
328.4639718804919
 21
276.1940246045694
 31
0.0
  0
LINE
  5
3F7
330
A
100
AcDbEntity
  8
03
100
AcDbLine
 10
341.8639718804919
 20
251.1940246045694
 30
0.0
 11
341.8639718804919
 21
272.9940246045694
 31
0.0
  0
LINE
  5
3F8
330
A
100
AcDbEntity
  8
03
100
AcDbLine
 10
343.4639718804919
 20
251.1940246045694
 30
0.0
 11
343.4639718804919
 21
272.9940246045694
 31
0.0
  0
LINE
  5
3F9
330
A
100
AcDbEntity
  8
03
100
AcDbLine
 10
330.0639718804919
 20
276.1940246045694
 30
0.0
 11
330.0639718804919
 21
294.5940246045693
 31
0.0
  0
LINE
  5
3FA
330
A
100
AcDbEntity
  8
03
100
AcDbLine
 10
328.4639718804919
 20
294.5940246045693
 30
0.0
 11
330.0639718804919
 21
294.5940246045693
 31
0.0
  0
ARC
  5
3FB
330
A
100
AcDbEntity
  8
03
100
AcDbCircle
 10
341.8639718804919
 20
251.1940246045694
 30
0.0
 40
1.6
100
AcDbArc
 50
270.0
 51
0.0
  0
ARC
  5
3FC
330
A
100
AcDbEntity
  8
03
100
AcDbCircle
 10
341.8639718804919
 20
272.9940246045694
 30
0.0
 40
1.6
100
AcDbArc
 50
0.0
 51
90.0
  0
ARC
  5
3FD
330
A
100
AcDbEntity
  8
03
100
AcDbCircle
 10
341.8639718804919
 20
276.1940246045694
 30
0.0
 40
1.6
100
AcDbArc
 50
270.0
 51
0.0
  0
ARC
  5
3FE
330
A
100
AcDbEntity
  8
03
100
AcDbCircle
 10
330.0639718804919
 20
276.1940246045694
 30
0.0
 40
1.6
100
AcDbArc
 50
180.0
 51
270.0
  0
ARC
  5
3FF
330
A
100
AcDbEntity
  8
03
100
AcDbCircle
 10
328.4639718804919
 20
274.5940246045693
 30
0.0
 40
1.6
100
AcDbArc
 50
180.0
 51
270.0
  0
LINE
  5
400
330
A
100
AcDbEntity
  8
03
100
AcDbLine
 10
75.06397188049206
 20
497.9940246045694
 30
0.0
 11
73.46397188049206
 21
497.9940246045694
 31
0.0
  0
LINE
  5
401
330
A
100
AcDbEntity
  8
03
100
AcDbLine
 10
75.06397188049206
 20
326.1940246045693
 30
0.0
 11
73.46397188049206
 21
326.1940246045693
 31
0.0
  0
LINE
  5
402
330
A
100
AcDbEntity
  8
03
100
AcDbLine
 10
75.06397188049203
 20
276.1940246045694
 30
0.0
 11
75.06397188049203
 21
326.1940246045693
 31
0.0
  0
LINE
  5
403
330
A
100
AcDbEntity
  8
03
100
AcDbLine
 10
75.06397188049203
 20
497.9940246045694
 30
0.0
 11
75.06397188049206
 21
547.9940246045694
 31
0.0
  0
LINE
  5
404
330
A
100
AcDbEntity
  8
03
100
AcDbLine
 10
73.46397188049206
 20
276.1940246045694
 30
0.0
 11
73.46397188049206
 21
326.1940246045693
 31
0.0
  0
LINE
  5
405
330
A
100
AcDbEntity
  8
03
100
AcDbLine
 10
73.46397188049206
 20
497.9940246045694
 30
0.0
 11
73.46397188049206
 21
547.9940246045694
 31
0.0
  0
LINE
  5
406
330
A
100
AcDbEntity
  8
03
100
AcDbLine
 10
133.463971880492
 20
276.1940246045694
 30
0.0
 11
133.463971880492
 21
284.5940246045693
 31
0.0
  0
LINE
  5
407
330
A
100
AcDbEntity
  8
03
100
AcDbLine
 10
133.463971880492
 20
284.5940246045693
 30
0.0
 11
131.8639718804919
 21
284.5940246045693
 31
0.0
  0
LINE
  5
408
330
A
100
AcDbEntity
  8
03
100
AcDbLine
 10
131.8639718804919
 20
284.5940246045693
 30
0.0
 11
131.8639718804919
 21
276.1940246045694
 31
0.0
  0
LINE
  5
409
330
A
100
AcDbEntity
  8
03
100
AcDbLine
 10
341.8639718804919
 20
251.1940246045694
 30
0.0
 11
207.0639718804919
 21
251.1940246045694
 31
0.0
  0
LINE
  5
40A
330
A
100
AcDbEntity
  8
03
100
AcDbLine
 10
131.8639718804919
 20
276.1940246045694
 30
0.0
 11
75.06397188049203
 21
276.1940246045694
 31
0.0
  0
LINE
  5
40B
330
A
100
AcDbEntity
  8
03
100
AcDbLine
 10
341.8639718804919
 20
249.5940246045694
 30
0.0
 11
207.0639718804919
 21
249.5940246045694
 31
0.0
  0
LINE
  5
40C
330
A
100
AcDbEntity
  8
03
100
AcDbLine
 10
131.8639718804919
 20
274.5940246045693
 30
0.0
 11
75.06397188049206
 21
274.5940246045693
 31
0.0
  0
ARC
  5
40D
330
A
100
AcDbEntity
  8
03
100
AcDbCircle
 10
75.06397188049206
 20
276.1940246045694
 30
0.0
 40
1.6
100
AcDbArc
 50
180.0
 51
270.0
  0
ARC
  5
40E
330
A
100
AcDbEntity
  8
03
100
AcDbCircle
 10
131.8639718804919
 20
276.1940246045694
 30
0.0
 40
1.6
100
AcDbArc
 50
270.0
 51
0.0
  0
LINE
  5
40F
330
A
100
AcDbEntity
  8
03
100
AcDbLine
 10
131.8639718804919
 20
274.5940246045693
 30
0.0
 11
113.4639718804919
 21
274.5940246045693
 31
0.0
  0
LINE
  5
410
330
A
100
AcDbEntity
  8
03
100
AcDbLine
 10
23.46397188049205
 20
249.5940246045694
 30
0.0
 11
131.8639718804919
 21
249.5940246045694
 31
0.0
  0
LINE
  5
411
330
A
100
AcDbEntity
  8
03
100
AcDbLine
 10
113.4639718804919
 20
272.9940246045694
 30
0.0
 11
131.8639718804919
 21
272.9940246045694
 31
0.0
  0
LINE
  5
412
330
A
100
AcDbEntity
  8
03
100
AcDbLine
 10
131.8639718804919
 20
272.9940246045694
 30
0.0
 11
131.8639718804919
 21
251.1940246045694
 31
0.0
  0
LINE
  5
413
330
A
100
AcDbEntity
  8
03
100
AcDbLine
 10
131.8639718804919
 20
251.1940246045694
 30
0.0
 11
23.46397188049205
 21
251.1940246045694
 31
0.0
  0
LINE
  5
414
330
A
100
AcDbEntity
  8
03
100
AcDbLine
 10
113.4639718804919
 20
272.9940246045694
 30
0.0
 11
113.4639718804919
 21
274.5940246045693
 31
0.0
  0
ARC
  5
415
330
A
100
AcDbEntity
  8
03
100
AcDbCircle
 10
131.8639718804919
 20
251.1940246045694
 30
0.0
 40
1.6
100
AcDbArc
 50
270.0
 51
0.0
  0
ARC
  5
416
330
A
100
AcDbEntity
  8
03
100
AcDbCircle
 10
131.8639718804919
 20
272.9940246045694
 30
0.0
 40
1.6
100
AcDbArc
 50
0.0
 51
90.0
  0
LINE
  5
417
330
A
100
AcDbEntity
  8
03
100
AcDbLine
 10
205.4639718804919
 20
251.1940246045694
 30
0.0
 11
205.4639718804919
 21
269.5940246045693
 31
0.0
  0
LINE
  5
418
330
A
100
AcDbEntity
  8
03
100
AcDbLine
 10
205.4639718804919
 20
269.5940246045693
 30
0.0
 11
207.0639718804919
 21
269.5940246045693
 31
0.0
  0
LINE
  5
419
330
A
100
AcDbEntity
  8
03
100
AcDbLine
 10
207.0639718804919
 20
269.5940246045693
 30
0.0
 11
207.0639718804919
 21
251.1940246045694
 31
0.0
  0
ARC
  5
41A
330
A
100
AcDbEntity
  8
03
100
AcDbCircle
 10
207.0639718804919
 20
251.1940246045694
 30
0.0
 40
1.6
100
AcDbArc
 50
180.0
 51
270.0
  0
ARC
  5
431
330
A
100
AcDbEntity
  8
03
100
AcDbCircle
 10
75.06397188049206
 20
547.9940246045694
 30
0.0
 40
1.6
100
AcDbArc
 50
90.0
 51
180.0
  0
LINE
  5
432
330
A
100
AcDbEntity
  8
03
100
AcDbLine
 10
133.463971880492
 20
107.5939999999999
 30
0.0
 11
133.463971880492
 21
148.0786737208986
 31
0.0
  0
LINE
  5
433
330
A
100
AcDbEntity
  8
03
100
AcDbLine
 10
133.463971880492
 20
187.5940246045693
 30
0.0
 11
133.463971880492
 21
272.9940246045694
 31
0.0
  0
CIRCLE
  5
434
330
A
100
AcDbEntity
  8
03
100
AcDbCircle
 10
103.4639718804919
 20
167.5939999999999
 30
0.0
 40
6.0
  0
TEXT
  5
43F
330
A
100
AcDbEntity
  8
MOJI
100
AcDbText
 10
197.5825064215221
 20
509.1250072531518
 30
0.0
 40
5.0
  1
SOV-400K A=171
 41
0.8
  7
0_8
 11
197.5825064215221
 21
514.1250072531518
 31
0.0
100
AcDbText
 73
     3
  0
TEXT
  5
440
330
A
100
AcDbEntity
  8
MOJI
100
AcDbText
 10
197.5825064215221
 20
493.1250072531518
 30
0.0
 40
5.0
  1
SOV-600K A=182.5
 41
0.8
  7
0_8
 11
197.5825064215221
 21
498.1250072531518
 31
0.0
100
AcDbText
 73
     3
  0
LINE
  5
476
330
A
100
AcDbEntity
  8
CHUSIN
100
AcDbLine
 10
313.2022309806817
 20
511.5940246045694
 30
0.0
 11
349.3684196295796
 21
511.5940246045694
 31
0.0
  0
LINE
  5
477
330
A
100
AcDbEntity
  8
CHUSIN
100
AcDbLine
 10
313.2022309806817
 20
284.5940246045693
 30
0.0
 11
349.3684196295796
 21
284.5940246045693
 31
0.0
  0
LINE
  5
478
330
A
100
AcDbEntity
  8
CHUSIN
100
AcDbLine
 10
169.463971880492
 20
61.77252586464171
 30
0.0
 11
169.463971880492
 21
279.5940246045693
 31
0.0
  0
LINE
  5
479
330
A
100
AcDbEntity
  8
CHUSIN
100
AcDbLine
 10
269.4639718804921
 20
351.7525841433965
 30
0.0
 11
269.4639718804921
 21
446.7141020957605
 31
0.0
  0
LINE
  5
47A
330
A
100
AcDbEntity
  8
CHUSIN
100
AcDbLine
 10
252.8269770531569
 20
360.0940246045693
 30
0.0
 11
286.2517679422449
 21
360.0940246045693
 31
0.0
  0
LINE
  5
47B
330
A
100
AcDbEntity
  8
CHUSIN
100
AcDbLine
 10
269.4639718804921
 20
320.9137848677392
 30
0.0
 11
269.4639718804921
 21
352.0940246045693
 31
0.0
  0
LINE
  5
47C
330
A
100
AcDbEntity
  8
CHUSIN
100
AcDbLine
 10
252.8269770531569
 20
439.0940246045693
 30
0.0
 11
286.2517679422449
 21
439.0940246045693
 31
0.0
  0
LINE
  5
47D
330
A
100
AcDbEntity
  8
CHUSIN
100
AcDbLine
 10
24.25091364525644
 20
457.0940246045693
 30
0.0
 11
81.06397188049205
 21
457.0940246045693
 31
0.0
  0
LINE
  5
47E
330
A
100
AcDbEntity
  8
CHUSIN
100
AcDbLine
 10
24.25091364525644
 20
367.0940246045693
 30
0.0
 11
81.06397188049205
 21
367.0940246045693
 31
0.0
  0
LINE
  5
47F
330
A
100
AcDbEntity
  8
CHUSIN
100
AcDbLine
 10
26.3895730459958
 20
319.1762572703535
 30
0.0
 11
48.99720942250349
 21
270.6940246045693
 31
0.0
  0
LINE
  5
480
330
A
100
AcDbEntity
  8
CHUSIN
100
AcDbLine
 10
103.4639718804919
 20
152.7106935244016
 30
0.0
 11
103.4639718804919
 21
187.5939999999999
 31
0.0
  0
LINE
  5
481
330
A
100
AcDbEntity
  8
CHUSIN
100
AcDbLine
 10
114.396106529674
 20
167.5939999999999
 30
0.0
 11
88.60105448154653
 21
167.5939999999999
 31
0.0
  0
ARC
  5
482
330
A
100
AcDbEntity
  8
KAKURE
100
AcDbCircle
 10
32.84283773387091
 20
311.3631694160303
 30
0.0
 40
4.410758999999998
100
AcDbArc
 50
84.99999612641541
 51
145.0000040792644
  0
ARC
  5
483
330
A
100
AcDbEntity
  8
KAKURE
100
AcDbCircle
 10
47.84590135324913
 20
279.2520665616023
 30
0.0
 40
4.410758999999998
100
AcDbArc
 50
264.9999961043743
 51
325.0000038956254
  0
ARC
  5
484
330
A
100
AcDbEntity
  8
KAKURE
100
AcDbCircle
 10
29.61417705914431
 20
318.2870545769586
 30
0.0
 40
4.410761999999999
100
AcDbArc
 50
265.0000211308784
 51
324.9999792363993
  0
ARC
  5
485
330
A
100
AcDbEntity
  8
KAKURE
100
AcDbCircle
 10
28.84533419590155
 20
309.4990984892621
 30
0.0
 40
4.410761999999999
100
AcDbArc
 50
85.00002076360059
 51
144.9999788691215
  0
ARC
  5
486
330
A
100
AcDbEntity
  8
KAKURE
100
AcDbCircle
 10
43.84839352802793
 20
277.3880024626781
 30
0.0
 40
4.410761999999999
100
AcDbArc
 50
265.0000207415593
 51
324.9999792584403
  0
ARC
  5
487
330
A
100
AcDbEntity
  8
KAKURE
100
AcDbCircle
 10
51.07456202797573
 20
272.3281814006746
 30
0.0
 40
4.410761999999999
100
AcDbArc
 50
85.00002094723946
 51
144.9999790527604
  0
LINE
  5
488
330
A
100
AcDbEntity
  8
KAKURE
100
AcDbLine
 10
25.2499557284631
 20
312.0541082928683
 30
0.0
 11
43.46397188049206
 21
272.9940246045694
 31
0.0
  0
LINE
  5
489
330
A
100
AcDbEntity
  8
KAKURE
100
AcDbLine
 10
51.45898340590986
 20
276.7221592823708
 30
0.0
 11
33.2514181990102
 21
315.7684088741961
 31
0.0
  0
LINE
  5
48D
330
A
100
AcDbEntity
  8
SAISEN
100
AcDbLine
 10
194.4639718804921
 20
506.1775003998961
 30
0.0
 11
257.2828974102458
 21
506.1775003998961
 31
0.0
  0
LINE
  5
48E
330
A
100
AcDbEntity
  8
SAISEN
100
AcDbLine
 10
257.2828974102458
 20
490.177500399896
 30
0.0
 11
194.4639718804921
 21
490.177500399896
 31
0.0
  0
LINE
  5
4C5
330
A
100
AcDbEntity
  8
02
100
AcDbLine
 10
81.06397188049205
 20
522.9940246045694
 30
0.0
 11
81.06397188049205
 21
301.6940246045693
 31
0.0
  0
LINE
  5
4C6
330
A
100
AcDbEntity
  8
02
100
AcDbLine
 10
87.06397188049203
 20
301.1940246045693
 30
0.0
 11
87.06397188049207
 21
522.9940246045694
 31
0.0
  0
LINE
  5
4C7
330
A
100
AcDbEntity
  8
02
100
AcDbLine
 10
81.06397188049205
 20
522.9940246045694
 30
0.0
 11
87.06397188049207
 21
522.9940246045694
 31
0.0
  0
LINE
  5
4C8
330
A
100
AcDbEntity
  8
02
100
AcDbLine
 10
87.06397188049203
 20
301.1940246045693
 30
0.0
 11
81.06397188049205
 21
301.1940246045693
 31
0.0
  0
LINE
  5
4C9
330
A
100
AcDbEntity
  8
02
100
AcDbLine
 10
316.3639718804921
 20
276.1940246045694
 30
0.0
 11
320.8639718804921
 21
276.1940246045694
 31
0.0
  0
LINE
  5
4CA
330
A
100
AcDbEntity
  8
02
100
AcDbLine
 10
320.8639718804921
 20
522.9940246045694
 30
0.0
 11
320.8639718804921
 21
276.1940246045694
 31
0.0
  0
LINE
  5
4CB
330
A
100
AcDbEntity
  8
02
100
AcDbLine
 10
316.3639718804921
 20
276.1940246045694
 30
0.0
 11
316.3639718804919
 21
522.9940246045694
 31
0.0
  0
LINE
  5
4CC
330
A
100
AcDbEntity
  8
02
100
AcDbLine
 10
320.8639718804921
 20
522.9940246045694
 30
0.0
 11
316.3639718804921
 21
522.9940246045694
 31
0.0
  0
LINE
  5
4CD
330
A
100
AcDbEntity
  8
06
100
AcDbLine
 10
193.4639718804919
 20
269.5940246045693
 30
0.0
 11
195.4639718804919
 21
269.5940246045693
 31
0.0
  0
LINE
  5
4CE
330
A
100
AcDbEntity
  8
03
100
AcDbLine
 10
192.2639718804919
 20
64.39399999999999
 30
0.0
 11
146.663971880492
 21
64.39399999999999
 31
0.0
  0
LINE
  5
4CF
330
A
100
AcDbEntity
  8
03
100
AcDbLine
 10
143.463971880492
 20
67.59399999999999
 30
0.0
 11
143.463971880492
 21
92.59399999999999
 31
0.0
  0
LINE
  5
4D0
330
A
100
AcDbEntity
  8
03
100
AcDbLine
 10
195.4639718804919
 20
92.59399999999999
 30
0.0
 11
195.4639718804919
 21
67.59399999999999
 31
0.0
  0
LINE
  5
4D1
330
A
100
AcDbEntity
  8
03
100
AcDbLine
 10
146.663971880492
 20
92.59399999999999
 30
0.0
 11
146.663971880492
 21
67.59399999999999
 31
0.0
  0
LINE
  5
4D2
330
A
100
AcDbEntity
  8
03
100
AcDbLine
 10
146.663971880492
 20
67.59399999999999
 30
0.0
 11
192.2639718804919
 21
67.59399999999999
 31
0.0
  0
LINE
  5
4D3
330
A
100
AcDbEntity
  8
03
100
AcDbLine
 10
192.2639718804919
 20
67.59399999999999
 30
0.0
 11
192.2639718804919
 21
92.59399999999999
 31
0.0
  0
LINE
  5
4D4
330
A
100
AcDbEntity
  8
03
100
AcDbLine
 10
143.463971880492
 20
92.59399999999999
 30
0.0
 11
146.663971880492
 21
92.59399999999999
 31
0.0
  0
LINE
  5
4D5
330
A
100
AcDbEntity
  8
03
100
AcDbLine
 10
192.2639718804919
 20
92.59399999999999
 30
0.0
 11
195.4639718804919
 21
92.59399999999999
 31
0.0
  0
ARC
  5
4D6
330
A
100
AcDbEntity
  8
03
100
AcDbCircle
 10
192.2639718804919
 20
67.59399999999999
 30
0.0
 40
3.2
100
AcDbArc
 50
270.0
 51
0.0
  0
ARC
  5
4D7
330
A
100
AcDbEntity
  8
03
100
AcDbCircle
 10
146.663971880492
 20
67.59399999999999
 30
0.0
 40
3.2
100
AcDbArc
 50
180.0
 51
270.0
  0
LINE
  5
4D8
330
A
100
AcDbEntity
  8
03
100
AcDbLine
 10
35.0
 20
107.5939999999999
 30
0.0
 11
111.963971880492
 21
107.5939999999999
 31
0.0
  0
LINE
  5
4D9
330
A
100
AcDbEntity
  8
03
100
AcDbLine
 10
226.9639718804919
 20
107.5939999999999
 30
0.0
 11
385.0
 21
107.5939999999999
 31
0.0
  0
LINE
  5
4DA
330
A
100
AcDbEntity
  8
06
100
AcDbLine
 10
193.4639718804919
 20
127.5940246045694
 30
0.0
 11
195.4639718804919
 21
127.5940246045694
 31
0.0
  0
LINE
  5
4DB
330
A
100
AcDbEntity
  8
02
100
AcDbLine
 10
129.4639718804922
 20
535.9940246045693
 30
0.0
 11
129.4639718804922
 21
288.1940246045693
 31
0.0
  0
LINE
  5
4DC
330
A
100
AcDbEntity
  8
02
100
AcDbLine
 10
123.4639718804922
 20
290.1940246045693
 30
0.0
 11
123.4639718804922
 21
533.9940246045694
 31
0.0
  0
LINE
  5
4DD
330
A
100
AcDbEntity
  8
06
100
AcDbLine
 10
279.4639718804976
 20
354.59402460457
 30
0.0
 11
279.4639718804921
 21
444.5940246045693
 31
0.0
  0
LINE
  5
4DE
330
A
100
AcDbEntity
  8
06
100
AcDbLine
 10
272.9639718804921
 20
430.3218479939348
 30
0.0
 11
272.9639718804921
 21
368.8662012152037
 31
0.0
  0
LINE
  5
4DF
330
A
100
AcDbEntity
  8
06
100
AcDbLine
 10
265.9639718804926
 20
368.8662012152048
 30
0.0
 11
265.9639718804924
 21
430.3218479939348
 31
0.0
  0
LINE
  5
4E0
330
A
100
AcDbEntity
  8
06
100
AcDbLine
 10
258.4639718804924
 20
444.5940246045693
 30
0.0
 11
258.4639718804929
 21
354.5940246045697
 31
0.0
  0
LINE
  5
4E1
330
A
100
AcDbEntity
  8
06
100
AcDbLine
 10
258.4639718804924
 20
444.5940246045693
 30
0.0
 11
261.4639718804921
 21
444.5940246045693
 31
0.0
  0
LINE
  5
4E2
330
A
100
AcDbEntity
  8
06
100
AcDbLine
 10
277.4639718804919
 20
444.5940246045693
 30
0.0
 11
279.4639718804921
 21
444.5940246045693
 31
0.0
  0
LINE
  5
4E3
330
A
100
AcDbEntity
  8
06
100
AcDbLine
 10
272.9639718804921
 20
428.5940246045694
 30
0.0
 11
265.9639718804924
 21
428.5940246045694
 31
0.0
  0
LINE
  5
4E6
330
A
100
AcDbEntity
  8
06
100
AcDbLine
 10
261.4639718804921
 20
444.5940246045693
 30
0.0
 11
265.9639718804924
 21
430.3218479939348
 31
0.0
  0
LINE
  5
4E7
330
A
100
AcDbEntity
  8
06
100
AcDbLine
 10
277.4639718804919
 20
444.5940246045693
 30
0.0
 11
272.9639718804921
 21
430.3218479939348
 31
0.0
  0
LINE
  5
4E8
330
A
100
AcDbEntity
  8
06
100
AcDbLine
 10
277.7139718804924
 20
444.5940246045693
 30
0.0
 11
273.7102993035639
 21
433.5940246045694
 31
0.0
  0
LINE
  5
4E9
330
A
100
AcDbEntity
  8
06
100
AcDbLine
 10
273.7102993035639
 20
433.5940246045694
 30
0.0
 11
265.2176444574205
 21
433.5940246045694
 31
0.0
  0
LINE
  5
4EA
330
A
100
AcDbEntity
  8
06
100
AcDbLine
 10
261.2139718804924
 20
444.5940246045693
 30
0.0
 11
265.2176444574205
 21
433.5940246045694
 31
0.0
  0
LINE
  5
4EB
330
A
100
AcDbEntity
  8
06
100
AcDbLine
 10
261.2139718804924
 20
444.5940246045693
 30
0.0
 11
277.7139718804924
 21
444.5940246045693
 31
0.0
  0
LINE
  5
4EC
330
A
100
AcDbEntity
  8
06
100
AcDbLine
 10
277.7139718804924
 20
354.5940246045693
 30
0.0
 11
273.7102993035639
 21
365.5940246045693
 31
0.0
  0
LINE
  5
4ED
330
A
100
AcDbEntity
  8
06
100
AcDbLine
 10
273.7102993035639
 20
365.5940246045693
 30
0.0
 11
265.2176444574205
 21
365.5940246045693
 31
0.0
  0
LINE
  5
4EE
330
A
100
AcDbEntity
  8
06
100
AcDbLine
 10
261.2139718804924
 20
354.5940246045693
 30
0.0
 11
265.2176444574205
 21
365.5940246045693
 31
0.0
  0
LINE
  5
4EF
330
A
100
AcDbEntity
  8
06
100
AcDbLine
 10
261.2139718804924
 20
354.5940246045693
 30
0.0
 11
277.7139718804924
 21
354.5940246045693
 31
0.0
  0
LINE
  5
4F0
330
A
100
AcDbEntity
  8
02
100
AcDbLine
 10
123.4639718804922
 20
541.9940246045694
 30
0.0
 11
99.46397188049223
 21
541.9940246045694
 31
0.0
  0
LINE
  5
4F1
330
A
100
AcDbEntity
  8
02
100
AcDbLine
 10
99.46397188049223
 20
541.9940246045694
 30
0.0
 11
99.46397188049223
 21
535.9940246045693
 31
0.0
  0
LINE
  5
4F2
330
A
100
AcDbEntity
  8
02
100
AcDbLine
 10
99.46397188049223
 20
535.9940246045693
 30
0.0
 11
121.4639718804922
 21
535.9940246045693
 31
0.0
  0
ARC
  5
4F3
330
A
100
AcDbEntity
  8
02
100
AcDbCircle
 10
121.4639718804922
 20
533.9940246045694
 30
0.0
 40
2.0
100
AcDbArc
 50
0.0
 51
90.0
  0
ARC
  5
4F4
330
A
100
AcDbEntity
  8
02
100
AcDbCircle
 10
123.4639718804922
 20
535.9940246045693
 30
0.0
 40
6.0
100
AcDbArc
 50
0.0
 51
90.0
  0
LINE
  5
4F5
330
A
100
AcDbEntity
  8
02
100
AcDbLine
 10
123.4639718804922
 20
282.1940246045693
 30
0.0
 11
99.46397188049223
 21
282.1940246045693
 31
0.0
  0
LINE
  5
4F6
330
A
100
AcDbEntity
  8
02
100
AcDbLine
 10
99.46397188049223
 20
282.1940246045693
 30
0.0
 11
99.46397188049223
 21
288.1940246045693
 31
0.0
  0
LINE
  5
4F7
330
A
100
AcDbEntity
  8
02
100
AcDbLine
 10
99.46397188049223
 20
288.1940246045693
 30
0.0
 11
121.4639718804922
 21
288.1940246045693
 31
0.0
  0
ARC
  5
4F8
330
A
100
AcDbEntity
  8
02
100
AcDbCircle
 10
121.4639718804922
 20
290.1940246045693
 30
0.0
 40
2.0
100
AcDbArc
 50
270.0
 51
0.0
  0
ARC
  5
4F9
330
A
100
AcDbEntity
  8
02
100
AcDbCircle
 10
123.4639718804922
 20
288.1940246045693
 30
0.0
 40
6.0
100
AcDbArc
 50
270.0
 51
0.0
  0
LINE
  5
4FA
330
A
100
AcDbEntity
  8
03
100
AcDbLine
 10
53.46397188049206
 20
299.5940246045693
 30
0.0
 11
53.46397188049209
 21
569.5940246045694
 31
0.0
  0
LINE
  5
4FB
330
A
100
AcDbEntity
  8
03
100
AcDbLine
 10
53.46397188049206
 20
299.5940246045693
 30
0.0
 11
23.46397188049205
 21
299.5940246045693
 31
0.0
  0
LINE
  5
4FC
330
A
100
AcDbEntity
  8
03
100
AcDbLine
 10
53.46397188049206
 20
537.9940246045694
 30
0.0
 11
24.2163174259835
 21
508.7463701500608
 31
0.0
  0
LINE
  5
4FD
330
A
100
AcDbEntity
  8
03
100
AcDbLine
 10
53.46397188049206
 20
534.9940246045694
 30
0.0
 11
21.73775855076382
 21
503.2678112748412
 31
0.0
  0
LINE
  5
4FE
330
A
100
AcDbEntity
  8
03
100
AcDbLine
 10
53.46397188049206
 20
531.9940246045693
 30
0.0
 11
22.31962957955925
 21
500.8496823036366
 31
0.0
  0
LINE
  5
4FF
330
A
100
AcDbEntity
  8
03
100
AcDbLine
 10
53.46397188049206
 20
417.9940246045694
 30
0.0
 11
24.2163174259835
 21
388.7463701500607
 31
0.0
  0
LINE
  5
500
330
A
100
AcDbEntity
  8
03
100
AcDbLine
 10
53.46397188049206
 20
414.9940246045694
 30
0.0
 11
21.73775855076382
 21
383.2678112748411
 31
0.0
  0
LINE
  5
501
330
A
100
AcDbEntity
  8
03
100
AcDbLine
 10
53.46397188049206
 20
411.9940246045693
 30
0.0
 11
22.31962957955925
 21
380.8496823036366
 31
0.0
  0
LINE
  5
502
330
A
100
AcDbEntity
  8
03
100
AcDbLine
 10
53.46397188049206
 20
317.9940246045693
 30
0.0
 11
35.06397188049215
 21
299.5940246045693
 31
0.0
  0
LINE
  5
503
330
A
100
AcDbEntity
  8
03
100
AcDbLine
 10
53.46397188049206
 20
314.9940246045693
 30
0.0
 11
38.06397188049214
 21
299.5940246045693
 31
0.0
  0
LINE
  5
504
330
A
100
AcDbEntity
  8
03
100
AcDbLine
 10
53.46397188049206
 20
311.9940246045693
 30
0.0
 11
41.06397188049213
 21
299.5940246045693
 31
0.0
  0
LINE
  5
505
330
A
100
AcDbEntity
  8
03
100
AcDbLine
 10
88.46397188049206
 20
549.5940246045694
 30
0.0
 11
88.46397188049206
 21
569.5940246045694
 31
0.0
  0
LINE
  5
506
330
A
100
AcDbEntity
  8
04
100
AcDbLine
 10
144.4639718804922
 20
279.5940246045693
 30
0.0
 11
194.4639718804919
 21
279.5940246045693
 31
0.0
  0
LINE
  5
507
330
A
100
AcDbEntity
  8
04
100
AcDbLine
 10
194.4639718804919
 20
269.5940246045693
 30
0.0
 11
144.4639718804922
 21
269.5940246045693
 31
0.0
  0
LINE
  5
508
330
A
100
AcDbEntity
  8
04
100
AcDbLine
 10
144.4639718804922
 20
269.5940246045693
 30
0.0
 11
144.4639718804922
 21
279.5940246045693
 31
0.0
  0
LINE
  5
509
330
A
100
AcDbEntity
  8
04
100
AcDbLine
 10
194.4639718804919
 20
279.5940246045693
 30
0.0
 11
194.4639718804919
 21
269.5940246045693
 31
0.0
  0
LINE
  5
50A
330
A
100
AcDbEntity
  8
04
100
AcDbLine
 10
144.4639718804922
 20
269.5940246045693
 30
0.0
 11
194.4639699731436
 21
279.5940246045693
 31
0.0
  0
LINE
  5
50B
330
A
100
AcDbEntity
  8
06
100
AcDbLine
 10
193.8639718804919
 20
127.5940246045694
 30
0.0
 11
193.8639718804919
 21
182.5940246045693
 31
0.0
  0
LINE
  5
50C
330
A
100
AcDbEntity
  8
06
100
AcDbLine
 10
193.8639718804919
 20
187.5940246045693
 30
0.0
 11
193.8639718804919
 21
269.5940246045693
 31
0.0
  0
LINE
  5
50D
330
A
100
AcDbEntity
  8
06
100
AcDbLine
 10
195.4639718804919
 20
269.5940246045693
 30
0.0
 11
195.4639718804919
 21
187.5940246045693
 31
0.0
  0
LINE
  5
50E
330
A
100
AcDbEntity
  8
06
100
AcDbLine
 10
195.4639718804919
 20
182.5940246045693
 30
0.0
 11
195.4639718804919
 21
127.5940246045694
 31
0.0
  0
LINE
  5
50F
330
A
100
AcDbEntity
  8
06
100
AcDbLine
 10
143.463971880492
 20
269.5940246045693
 30
0.0
 11
143.463971880492
 21
187.5940246045693
 31
0.0
  0
LINE
  5
510
330
A
100
AcDbEntity
  8
06
100
AcDbLine
 10
143.463971880492
 20
182.5940246045693
 30
0.0
 11
143.463971880492
 21
129.0940246045694
 31
0.0
  0
LINE
  5
511
330
A
100
AcDbEntity
  8
SOUZOU
100
AcDbLine
 10
123.463971880492
 20
272.9940246045694
 30
0.0
 11
123.463971880492
 21
270.6940246045693
 31
0.0
  0
LINE
  5
512
330
A
100
AcDbEntity
  8
SOUZOU
100
AcDbLine
 10
123.463971880492
 20
270.6940246045693
 30
0.0
 11
23.46397188049205
 21
270.6940246045693
 31
0.0
  0
LINE
  5
513
330
A
100
AcDbEntity
  8
SOUZOU
100
AcDbLine
 10
23.46397188049205
 20
272.9940246045694
 30
0.0
 11
123.463971880492
 21
272.9940246045694
 31
0.0
  0
LINE
  5
514
330
A
100
AcDbEntity
  8
KAKURE
100
AcDbLine
 10
175.4639718804919
 20
285.5940246045694
 30
0.0
 11
175.4639718804919
 21
243.0940246045694
 31
0.0
  0
LINE
  5
515
330
A
100
AcDbEntity
  8
KAKURE
100
AcDbLine
 10
163.463971880492
 20
243.0940246045694
 30
0.0
 11
163.463971880492
 21
285.5940246045694
 31
0.0
  0
LINE
  5
517
330
A
100
AcDbEntity
  8
KAKURE
100
AcDbLine
 10
165.463971880492
 20
241.0940246045694
 30
0.0
 11
173.4639718804919
 21
241.0940246045694
 31
0.0
  0
LINE
  5
518
330
A
100
AcDbEntity
  8
KAKURE
 48
0.6
100
AcDbLine
 10
163.463971880492
 20
243.0940246045694
 30
0.0
 11
165.463971880492
 21
241.0940246045694
 31
0.0
  0
LINE
  5
519
330
A
100
AcDbEntity
  8
KAKURE
 48
0.6
100
AcDbLine
 10
175.4639718804919
 20
243.0940246045694
 30
0.0
 11
173.4639718804919
 21
241.0940246045694
 31
0.0
  0
LINE
  5
51C
330
A
100
AcDbEntity
  8
CHUSIN
100
AcDbLine
 10
141.463971880492
 20
389.5940226972206
 30
0.0
 11
230.4437196527088
 21
389.5940226972208
 31
0.0
  0
LINE
  5
522
330
A
100
AcDbEntity
  8
SAISEN
100
AcDbLine
 10
79.05817859994984
 20
451.6284868662602
 30
0.0
 11
75.72288290111448
 21
448.710103129779
 31
0.0
  0
LINE
  5
523
330
A
100
AcDbEntity
  8
SAISEN
100
AcDbLine
 10
27.53357885034247
 20
293.1723028099963
 30
0.0
 11
24.19828315150712
 21
290.2539190735152
 31
0.0
  0
LINE
  5
524
330
A
100
AcDbEntity
  8
SAISEN
100
AcDbLine
 10
35.72989062088518
 20
280.8778351541824
 30
0.0
 11
32.3945949220496
 21
277.9594514177012
 31
0.0
  0
LINE
  5
525
330
A
100
AcDbEntity
  8
SAISEN
100
AcDbLine
 10
68.51826176615992
 20
438.0666059887454
 30
0.0
 11
65.18296606732457
 21
435.1482222522644
 31
0.0
  0
LINE
  5
526
330
A
100
AcDbEntity
  8
SAISEN
100
AcDbLine
 10
62.76857946252329
 20
446.6911294442005
 30
0.0
 11
59.43328376368793
 21
443.7727457077193
 31
0.0
  0
LINE
  5
527
330
A
100
AcDbEntity
  8
SAISEN
100
AcDbLine
 10
61.81029907858388
 20
475.4395409623835
 30
0.0
 11
58.47500337974853
 21
472.5211572259023
 31
0.0
  0
LINE
  5
528
330
A
100
AcDbEntity
  8
SAISEN
100
AcDbLine
 10
65.96284740898809
 20
488.8554663375356
 30
0.0
 11
62.62755171015275
 21
485.9370826010545
 31
0.0
  0
LINE
  5
529
330
A
100
AcDbEntity
  8
SAISEN
100
AcDbLine
 10
73.94851727515007
 20
428.1643753547046
 30
0.0
 11
70.6132215763147
 21
425.2459916182236
 31
0.0
  0
LINE
  5
52A
330
A
100
AcDbEntity
  8
SAISEN
100
AcDbLine
 10
61.81029907858388
 20
423.0535466403611
 30
0.0
 11
58.47500337974853
 21
420.1351629038798
 31
0.0
  0
LINE
  5
52C
330
A
100
AcDbEntity
  8
SAISEN
100
AcDbLine
 10
65.6434206143416
 20
413.7901695956132
 30
0.0
 11
62.30812491550626
 21
410.8717858591321
 31
0.0
  0
LINE
  5
52D
330
A
100
AcDbEntity
  8
SAISEN
100
AcDbLine
 10
77.46221201626131
 20
393.5397445275703
 30
0.0
 11
74.12691631742595
 21
390.6213607910891
 31
0.0
  0
LINE
  5
52E
330
A
100
AcDbEntity
  8
SAISEN
100
AcDbLine
 10
65.00456702504866
 20
382.4863437202583
 30
0.0
 11
61.66927132621331
 21
379.5679599837771
 31
0.0
  0
LINE
  5
52F
330
A
100
AcDbEntity
  8
SAISEN
100
AcDbLine
 10
78.73991919484723
 20
383.1251973095513
 30
0.0
 11
75.40462349601188
 21
380.2068135730701
 31
0.0
  0
LINE
  5
530
330
A
100
AcDbEntity
  8
SAISEN
100
AcDbLine
 10
62.76857946252329
 20
349.585383871671
 30
0.0
 11
59.43328376368793
 21
346.6670001351898
 31
0.0
  0
LINE
  5
531
330
A
100
AcDbEntity
  8
SAISEN
100
AcDbLine
 10
71.07367612333175
 20
343.8357015680344
 30
0.0
 11
67.73838042449639
 21
340.9173178315533
 31
0.0
  0
LINE
  5
532
330
A
100
AcDbEntity
  8
SAISEN
100
AcDbLine
 10
76.82335842696836
 20
333.6140441393471
 30
0.0
 11
73.488062728133
 21
330.6956604028659
 31
0.0
  0
LINE
  5
533
330
A
100
AcDbEntity
  8
SAISEN
100
AcDbLine
 10
63.40743305181627
 20
325.9478010678316
 30
0.0
 11
60.0721373529809
 21
323.0294173313505
 31
0.0
  0
LINE
  5
534
330
A
100
AcDbEntity
  8
SAISEN
100
AcDbLine
 10
69.15711535545288
 20
313.1707292819725
 30
0.0
 11
65.82181965661752
 21
310.2523455454913
 31
0.0
  0
LINE
  5
535
330
A
100
AcDbEntity
  8
SAISEN
100
AcDbLine
 10
66.60883902721167
 20
509.1917107609504
 30
0.0
 11
63.27354332837632
 21
506.2733270244693
 31
0.0
  0
LINE
  5
536
330
A
100
AcDbEntity
  8
SAISEN
100
AcDbLine
 10
64.94924730083615
 20
527.7791380963568
 30
0.0
 11
61.61395160200078
 21
524.8607543598757
 31
0.0
  0
LINE
  5
537
330
A
100
AcDbEntity
  8
SAISEN
100
AcDbLine
 10
61.29814550280989
 20
545.3708103959375
 30
0.0
 11
57.96284980397453
 21
542.4524266594564
 31
0.0
  0
LINE
  5
538
330
A
100
AcDbEntity
  8
SAISEN
100
AcDbLine
 10
70.92377751578816
 20
557.9837075163919
 30
0.0
 11
67.58848181695279
 21
555.0653237799108
 31
0.0
  0
LINE
  5
539
330
A
100
AcDbEntity
  8
SAISEN
100
AcDbLine
 10
62.95773722918545
 20
564.290156076619
 30
0.0
 11
59.6224415303501
 21
561.3717723401379
 31
0.0
  0
LINE
  5
53A
330
A
100
AcDbEntity
  8
SAISEN
100
AcDbLine
 10
81.87708290986682
 20
568.2731762199205
 30
0.0
 11
78.54178721103146
 21
565.3547924834392
 31
0.0
  0
LINE
  5
53B
330
A
100
AcDbEntity
  8
SAISEN
100
AcDbLine
 10
78.5578994571157
 20
493.9234668782955
 30
0.0
 11
75.22260375828034
 21
491.0050831418143
 31
0.0
  0
LINE
  5
53C
330
A
100
AcDbEntity
  8
SAISEN
100
AcDbLine
 10
76.79926757932742
 20
415.0124083410505
 30
0.0
 11
73.46397188049206
 21
412.0940246045694
 31
0.0
  0
LINE
  5
53D
330
A
100
AcDbEntity
  8
SAISEN
100
AcDbLine
 10
54.55282811253699
 20
292.0828169526497
 30
0.0
 11
51.21753241370162
 21
289.1644332161686
 31
0.0
  0
LINE
  5
53E
330
A
100
AcDbEntity
  8
SAISEN
100
AcDbLine
 10
68.71614425804217
 20
286.6353876659171
 30
0.0
 11
65.38084855920685
 21
283.7170039294358
 31
0.0
  0
LINE
  5
53F
330
A
100
AcDbEntity
  8
SAISEN
100
AcDbLine
 10
67.84455557216492
 20
300.3629094684836
 30
0.0
 11
64.50925987332957
 21
297.4445257320025
 31
0.0
  0
LINE
  5
581
330
A
100
AcDbEntity
  8
04
100
AcDbLine
 10
173.9639718804921
 20
333.5940246045693
 30
0.0
 11
173.9639718804921
 21
349.5940246045693
 31
0.0
  0
LINE
  5
582
330
A
100
AcDbEntity
  8
04
100
AcDbLine
 10
173.9639718804921
 20
349.5940246045693
 30
0.0
 11
164.9639718804921
 21
349.5940246045693
 31
0.0
  0
LINE
  5
583
330
A
100
AcDbEntity
  8
04
100
AcDbLine
 10
164.9639718804921
 20
349.5940246045693
 30
0.0
 11
164.9639718804921
 21
333.5940246045693
 31
0.0
  0
LINE
  5
584
330
A
100
AcDbEntity
  8
04
100
AcDbLine
 10
141.9639718804921
 20
333.5940246045693
 30
0.0
 11
174.9639718804921
 21
333.5940246045693
 31
0.0
  0
ARC
  5
585
330
A
100
AcDbEntity
  8
04
100
AcDbCircle
 10
174.9639718804921
 20
329.0940246045693
 30
0.0
 40
4.5
100
AcDbArc
 50
0.0
 51
90.0
  0
LINE
  5
586
330
A
100
AcDbEntity
  8
04
100
AcDbLine
 10
179.4639718804921
 20
329.0940246045693
 30
0.0
 11
179.4639718804921
 21
327.5940246045693
 31
0.0
  0
LINE
  5
587
330
A
100
AcDbEntity
  8
04
100
AcDbLine
 10
179.4639718804921
 20
327.5940246045693
 30
0.0
 11
129.4639718804922
 21
327.5940246045693
 31
0.0
  0
ARC
  5
588
330
A
100
AcDbEntity
  8
04
100
AcDbCircle
 10
141.9639718804921
 20
340.0940246045693
 30
0.0
 40
6.5
100
AcDbArc
 50
180.0
 51
270.0
  0
LINE
  5
589
330
A
100
AcDbEntity
  8
04
100
AcDbLine
 10
135.4639718804921
 20
373.0940246045693
 30
0.0
 11
135.4639718804922
 21
340.0940246045693
 31
0.0
  0
LINE
  5
58A
330
A
100
AcDbEntity
  8
04
100
AcDbLine
 10
129.4639718804921
 20
377.5940226972206
 30
0.0
 11
130.963971880492
 21
377.5940226972206
 31
0.0
  0
ARC
  5
58B
330
A
100
AcDbEntity
  8
04
100
AcDbCircle
 10
130.963971880492
 20
373.0940246045693
 30
0.0
 40
4.5
100
AcDbArc
 50
0.0
 51
90.0
  0
LINE
  5
58D
330
A
100
AcDbEntity
  8
04
100
AcDbLine
 10
136.963971880492
 20
370.0995711743936
 30
0.0
 11
143.7679422174061
 21
370.0995711743936
 31
0.0
  0
LINE
  5
58E
330
A
100
AcDbEntity
  8
04
100
AcDbLine
 10
136.9639718804922
 20
355.0884780347451
 30
0.0
 11
143.7679422174061
 21
355.0884780347451
 31
0.0
  0
LINE
  5
58F
330
A
100
AcDbEntity
  8
04
100
AcDbLine
 10
143.7679422174061
 20
370.0995711743936
 30
0.0
 11
144.463971880492
 21
368.8940276563271
 31
0.0
  0
LINE
  5
590
330
A
100
AcDbEntity
  8
04
100
AcDbLine
 10
143.7679422174061
 20
355.0884780347451
 30
0.0
 11
144.4639718804921
 21
356.2940215528115
 31
0.0
  0
LINE
  5
591
330
A
100
AcDbEntity
  8
04
100
AcDbLine
 10
144.4639718804921
 20
356.2940215528115
 30
0.0
 11
144.463971880492
 21
368.8940276563271
 31
0.0
  0
LINE
  5
597
330
A
100
AcDbEntity
  8
04
100
AcDbLine
 10
135.4639718804921
 20
370.5940246045693
 30
0.0
 11
136.963971880492
 21
370.5940246045693
 31
0.0
  0
LINE
  5
598
330
A
100
AcDbEntity
  8
04
100
AcDbLine
 10
136.963971880492
 20
370.5940246045693
 30
0.0
 11
136.9639718804922
 21
370.0995711743936
 31
0.0
  0
LINE
  5
599
330
A
100
AcDbEntity
  8
04
100
AcDbLine
 10
136.9639718804922
 20
354.5940246045693
 30
0.0
 11
135.4639718804922
 21
354.5940246045693
 31
0.0
  0
LINE
  5
59B
330
A
100
AcDbEntity
  8
04
100
AcDbLine
 10
129.4639718804922
 20
327.5940246045693
 30
0.0
 11
129.4639718804921
 21
377.5940226972206
 31
0.0
  0
LINE
  5
59C
330
A
100
AcDbEntity
  8
SAISEN
100
AcDbLine
 10
164.9639718804921
 20
349.5940246045693
 30
0.0
 11
173.9639718804921
 21
333.5940246045693
 31
0.0
  0
LINE
  5
59D
330
A
100
AcDbEntity
  8
SAISEN
100
AcDbLine
 10
164.9639718804921
 20
333.5940246045693
 30
0.0
 11
173.9639718804921
 21
349.5940246045693
 31
0.0
  0
LINE
  5
59E
330
A
100
AcDbEntity
  8
CHUSIN
100
AcDbLine
 10
147.721170536912
 20
362.5940246045693
 30
0.0
 11
114.0998783290521
 21
362.5940246045693
 31
0.0
  0
LINE
  5
59F
330
A
100
AcDbEntity
  8
SOUZOU
100
AcDbLine
 10
292.4639718804921
 20
449.5940246045694
 30
0.0
 11
194.4639718804921
 21
449.5940246045693
 31
0.0
  0
LINE
  5
5A0
330
A
100
AcDbEntity
  8
SOUZOU
100
AcDbLine
 10
292.4639718804921
 20
449.5940246045694
 30
0.0
 11
294.4639718804921
 21
449.5940246045694
 31
0.0
  0
LINE
  5
5A1
330
A
100
AcDbEntity
  8
SOUZOU
100
AcDbLine
 10
294.4639718804921
 20
449.5940246045694
 30
0.0
 11
294.4639718804921
 21
349.5940246045693
 31
0.0
  0
LINE
  5
5A3
330
A
100
AcDbEntity
  8
SOUZOU
100
AcDbLine
 10
292.4639718804921
 20
349.5940246045693
 30
0.0
 11
292.4639718804921
 21
449.5940246045694
 31
0.0
  0
LINE
  5
5A4
330
A
100
AcDbEntity
  8
SOUZOU
100
AcDbLine
 10
194.4639718804921
 20
334.5940246045693
 30
0.0
 11
194.4639718804921
 21
464.594024604569
 31
0.0
  0
LINE
  5
5A5
330
A
100
AcDbEntity
  8
SOUZOU
100
AcDbLine
 10
129.4639718804922
 20
464.594024604569
 30
0.0
 11
194.4639718804921
 21
464.594024604569
 31
0.0
  0
LINE
  5
5A6
330
A
100
AcDbEntity
  8
SOUZOU
100
AcDbLine
 10
135.4639718804922
 20
334.5940246045693
 30
0.0
 11
135.4639718804922
 21
464.594024604569
 31
0.0
  0
LINE
  5
5A7
330
A
100
AcDbEntity
  8
SOUZOU
100
AcDbLine
 10
129.4639718804922
 20
464.594024604569
 30
0.0
 11
129.4639718804922
 21
334.5940246045693
 31
0.0
  0
LINE
  5
5A8
330
A
100
AcDbEntity
  8
SOUZOU
100
AcDbLine
 10
129.4639718804922
 20
334.5940246045693
 30
0.0
 11
194.4639718804921
 21
334.5940246045693
 31
0.0
  0
LINE
  5
5AA
330
A
100
AcDbEntity
  8
SOUZOU
100
AcDbLine
 10
294.4639718804921
 20
349.5940246045693
 30
0.0
 11
210.9639699731435
 21
349.5940246045693
 31
0.0
  0
LINE
  5
5B3
330
A
100
AcDbEntity
  8
CHUSIN
100
AcDbLine
 10
140.5174709642006
 20
449.5940246045694
 30
0.0
 11
117.0817265139192
 21
449.5940246045694
 31
0.0
  0
LINE
  5
5B4
330
A
100
AcDbEntity
  8
CHUSIN
100
AcDbLine
 10
117.017159331662
 20
399.5940246045693
 30
0.0
 11
314.010330591404
 21
399.5940246045693
 31
0.0
  0
LINE
  5
5B5
330
A
100
AcDbEntity
  8
CHUSIN
100
AcDbLine
 10
140.5174709642006
 20
349.5940246045693
 30
0.0
 11
117.0817265139192
 21
349.5940246045693
 31
0.0
  0
LINE
  5
5B6
330
A
100
AcDbEntity
  8
SOUZOU
100
AcDbLine
 10
129.4639718804922
 20
469.5940246045693
 30
0.0
 11
132.6639718804921
 21
469.5940246045693
 31
0.0
  0
LINE
  5
5B7
330
A
100
AcDbEntity
  8
SOUZOU
100
AcDbLine
 10
132.6639718804921
 20
469.5940246045693
 30
0.0
 11
132.6639718804921
 21
444.5940246045693
 31
0.0
  0
LINE
  5
5B8
330
A
100
AcDbEntity
  8
SOUZOU
100
AcDbLine
 10
189.4639718804921
 20
444.5940246045693
 30
0.0
 11
132.6639718804921
 21
444.5940246045693
 31
0.0
  0
LINE
  5
5B9
330
A
100
AcDbEntity
  8
SOUZOU
100
AcDbLine
 10
189.4639718804921
 20
444.5940246045693
 30
0.0
 11
189.4639718804919
 21
354.5940246045693
 31
0.0
  0
LINE
  5
5BA
330
A
100
AcDbEntity
  8
SOUZOU
100
AcDbLine
 10
189.4639718804919
 20
354.5940246045693
 30
0.0
 11
132.6639718804921
 21
354.5940246045693
 31
0.0
  0
LINE
  5
5BB
330
A
100
AcDbEntity
  8
SOUZOU
100
AcDbLine
 10
132.6639718804921
 20
329.5940246045693
 30
0.0
 11
132.6639718804921
 21
354.5940246045693
 31
0.0
  0
LINE
  5
5BC
330
A
100
AcDbEntity
  8
SOUZOU
100
AcDbLine
 10
129.4639718804922
 20
329.5940246045693
 30
0.0
 11
132.6639718804921
 21
329.5940246045693
 31
0.0
  0
LINE
  5
5BD
330
A
100
AcDbEntity
  8
CHUSIN
100
AcDbLine
 10
117.0817265139192
 20
342.0940246045693
 30
0.0
 11
143.9209363863216
 21
342.0940246045693
 31
0.0
  0
LINE
  5
5BE
330
A
100
AcDbEntity
  8
CHUSIN
100
AcDbLine
 10
117.0817265139192
 20
457.0940246045693
 30
0.0
 11
143.9209363863216
 21
457.0940246045693
 31
0.0
  0
LINE
  5
5BF
330
A
100
AcDbEntity
  8
KAKURE
100
AcDbLine
 10
111.963971880492
 20
102.5939999999999
 30
0.0
 11
136.963971880492
 21
102.5939999999999
 31
0.0
  0
LINE
  5
5C0
330
A
100
AcDbEntity
  8
KAKURE
100
AcDbLine
 10
114.204636002763
 20
99.39399999999999
 30
0.0
 11
136.963971880492
 21
99.39399999999999
 31
0.0
  0
LINE
  5
5C1
330
A
100
AcDbEntity
  8
KAKURE
 48
0.6
100
AcDbLine
 10
136.963971880492
 20
99.39399999999999
 30
0.0
 11
136.963971880492
 21
102.5939999999999
 31
0.0
  0
LINE
  5
5C2
330
A
100
AcDbEntity
  8
KAKURE
100
AcDbLine
 10
101.465677803446
 20
64.39399999999999
 30
0.0
 11
81.96397188049205
 21
64.39399999999999
 31
0.0
  0
LINE
  5
5C3
330
A
100
AcDbEntity
  8
KAKURE
100
AcDbLine
 10
99.22501368117494
 20
67.59399999999999
 30
0.0
 11
81.96397188049205
 21
67.59399999999999
 31
0.0
  0
LINE
  5
5C4
330
A
100
AcDbEntity
  8
KAKURE
 48
0.6
100
AcDbLine
 10
81.96397188049205
 20
67.59399999999999
 30
0.0
 11
81.96397188049205
 21
64.39399999999999
 31
0.0
  0
LINE
  5
5C5
330
A
100
AcDbEntity
  8
KAKURE
100
AcDbLine
 10
111.963971880492
 20
102.5939999999999
 30
0.0
 11
99.22501368117494
 21
67.59399999999999
 31
0.0
  0
LINE
  5
5C6
330
A
100
AcDbEntity
  8
KAKURE
100
AcDbLine
 10
114.204636002763
 20
99.39399999999999
 30
0.0
 11
101.465677803446
 21
64.39399999999999
 31
0.0
  0
LINE
  5
5C7
330
A
100
AcDbEntity
  8
KAKURE
100
AcDbLine
 10
226.9639718804919
 20
102.5939999999999
 30
0.0
 11
201.9639718804919
 21
102.5939999999999
 31
0.0
  0
LINE
  5
5C8
330
A
100
AcDbEntity
  8
KAKURE
100
AcDbLine
 10
224.723307758221
 20
99.39399999999999
 30
0.0
 11
201.9639718804919
 21
99.39399999999999
 31
0.0
  0
LINE
  5
5C9
330
A
100
AcDbEntity
  8
KAKURE
 48
0.6
100
AcDbLine
 10
201.9639718804919
 20
99.39399999999999
 30
0.0
 11
201.9639718804919
 21
102.5939999999999
 31
0.0
  0
LINE
  5
5CA
330
A
100
AcDbEntity
  8
KAKURE
100
AcDbLine
 10
237.462265957538
 20
64.39399999999999
 30
0.0
 11
256.9639718804919
 21
64.39399999999999
 31
0.0
  0
LINE
  5
5CB
330
A
100
AcDbEntity
  8
KAKURE
100
AcDbLine
 10
239.7029300798091
 20
67.59399999999999
 30
0.0
 11
256.9639718804919
 21
67.59399999999999
 31
0.0
  0
LINE
  5
5CC
330
A
100
AcDbEntity
  8
KAKURE
 48
0.6
100
AcDbLine
 10
256.9639718804919
 20
67.59399999999999
 30
0.0
 11
256.9639718804919
 21
64.39399999999999
 31
0.0
  0
LINE
  5
5CD
330
A
100
AcDbEntity
  8
KAKURE
100
AcDbLine
 10
226.9639718804919
 20
102.5939999999999
 30
0.0
 11
239.7029300798091
 21
67.59399999999999
 31
0.0
  0
LINE
  5
5CE
330
A
100
AcDbEntity
  8
KAKURE
100
AcDbLine
 10
224.723307758221
 20
99.39399999999999
 30
0.0
 11
237.462265957538
 21
64.39399999999999
 31
0.0
  0
LINE
  5
643
330
A
100
AcDbEntity
  8
04
100
AcDbLine
 10
180.4139718804919
 20
261.0940246045693
 30
0.0
 11
180.4139718804919
 21
252.2198576294891
 31
0.0
  0
LINE
  5
645
330
A
100
AcDbEntity
  8
04
100
AcDbLine
 10
177.6715581018413
 20
251.0940246045694
 30
0.0
 11
161.2563856591426
 21
251.0940246045694
 31
0.0
  0
LINE
  5
646
330
A
100
AcDbEntity
  8
04
100
AcDbLine
 10
158.5139718804919
 20
261.0940246045693
 30
0.0
 11
158.5139718804919
 21
252.2198576294891
 31
0.0
  0
LINE
  5
64B
330
A
100
AcDbEntity
  8
04
100
AcDbLine
 10
157.463971880492
 20
261.0940246045693
 30
0.0
 11
157.463971880492
 21
263.5940246045693
 31
0.0
  0
LINE
  5
64C
330
A
100
AcDbEntity
  8
04
100
AcDbLine
 10
157.463971880492
 20
263.5940246045693
 30
0.0
 11
181.4639718804919
 21
263.5940246045693
 31
0.0
  0
LINE
  5
64D
330
A
100
AcDbEntity
  8
04
100
AcDbLine
 10
181.4639718804919
 20
263.5940246045693
 30
0.0
 11
181.4639718804919
 21
261.0940246045693
 31
0.0
  0
LINE
  5
64E
330
A
100
AcDbEntity
  8
04
100
AcDbLine
 10
157.463971880492
 20
261.0940246045693
 30
0.0
 11
158.5139718804919
 21
261.0940246045693
 31
0.0
  0
ARC
  5
64F
330
A
100
AcDbEntity
  8
KAKURE
100
AcDbCircle
 10
74.44785328933955
 20
346.0629636274486
 30
0.0
 40
4.410758999999998
100
AcDbArc
 50
239.9999961264164
 51
300.000004079265
  0
ARC
  5
650
330
A
100
AcDbEntity
  8
KAKURE
100
AcDbCircle
 10
74.44785328933955
 20
338.4233016274484
 30
0.0
 40
4.410761999999999
100
AcDbArc
 50
60.00002113087732
 51
119.9999792363984
  0
ARC
  5
651
330
A
100
AcDbEntity
  8
KAKURE
100
AcDbCircle
 10
78.85861228933966
 20
346.0629676274485
 30
0.0
 40
4.410761999999999
100
AcDbArc
 50
240.0000207636016
 51
299.9999788691226
  0
ARC
  5
652
330
A
100
AcDbEntity
  8
KAKURE
100
AcDbCircle
 10
68.8838210447405
 20
360.3003861526211
 30
0.0
 40
4.410758999999998
100
AcDbArc
 50
149.9999961264141
 51
210.000004079264
  0
ARC
  5
653
330
A
100
AcDbEntity
  8
KAKURE
100
AcDbCircle
 10
61.24415904474045
 20
360.3003861526211
 30
0.0
 40
4.410761999999999
100
AcDbArc
 50
330.0000211308795
 51
29.99997923640062
  0
ARC
  5
654
330
A
100
AcDbEntity
  8
KAKURE
100
AcDbCircle
 10
68.88382504474049
 20
355.8896271526208
 30
0.0
 40
4.410761999999999
100
AcDbArc
 50
150.0000207635993
 51
209.9999788691204
  0
LINE
  5
655
330
A
100
AcDbEntity
  8
KAKURE
100
AcDbLine
 10
81.06399228934156
 20
342.2431351080521
 30
0.0
 11
81.06399228934156
 21
353.684247561388
 31
0.0
  0
LINE
  5
656
330
A
100
AcDbEntity
  8
KAKURE
100
AcDbLine
 10
72.24247328934012
 20
353.8627285613866
 30
0.0
 11
72.24247328934012
 21
342.2431345721526
 31
0.0
  0
ARC
  5
657
330
A
100
AcDbEntity
  8
KAKURE
100
AcDbCircle
 10
72.06399228934134
 20
353.684247561388
 30
0.0
 40
9.0
100
AcDbArc
 50
0.0
 51
90.0
  0
LINE
  5
658
330
A
100
AcDbEntity
  8
KAKURE
100
AcDbLine
 10
64.96636368290211
 20
353.8627285613866
 30
0.0
 11
72.24247328934012
 21
353.8627285613866
 31
0.0
  0
LINE
  5
659
330
A
100
AcDbEntity
  8
KAKURE
100
AcDbLine
 10
72.06399228934134
 20
362.684247561388
 30
0.0
 11
65.1727565424888
 21
362.684247561388
 31
0.0
  0
ARC
  5
65A
330
A
100
AcDbEntity
  8
KAKURE
100
AcDbCircle
 10
31.67382134455515
 20
364.8886453089525
 30
0.0
 40
4.410758999999998
100
AcDbArc
 50
149.9999959207358
 51
210.0000038735858
  0
ARC
  5
65B
330
A
100
AcDbEntity
  8
KAKURE
100
AcDbCircle
 10
69.03416309523557
 20
364.8886450686689
 30
0.0
 40
4.410758999999998
100
AcDbArc
 50
329.9999961043758
 51
30.0000038956241
  0
ARC
  5
65C
330
A
100
AcDbEntity
  8
KAKURE
100
AcDbCircle
 10
24.03415934455489
 20
364.8886453089525
 30
0.0
 40
4.410761999999999
100
AcDbArc
 50
330.0000207635993
 51
29.99997886912047
  0
ARC
  5
65D
330
A
100
AcDbEntity
  8
KAKURE
100
AcDbCircle
 10
31.67382534455493
 20
369.2994043089528
 30
0.0
 40
4.410761999999999
100
AcDbArc
 50
150.0000211308795
 51
209.9999792364005
  0
ARC
  5
65E
330
A
100
AcDbEntity
  8
KAKURE
100
AcDbCircle
 10
69.03415909523602
 20
369.2994050686678
 30
0.0
 40
4.410761999999999
100
AcDbArc
 50
330.0000207415611
 51
29.99997925843887
  0
ARC
  5
65F
330
A
100
AcDbEntity
  8
KAKURE
100
AcDbCircle
 10
76.6738250952349
 20
364.8886450686689
 30
0.0
 40
4.410761999999999
100
AcDbArc
 50
150.0000209472393
 51
209.9999790527605
  0
LINE
  5
660
330
A
100
AcDbEntity
  8
KAKURE
100
AcDbLine
 10
27.85399282515896
 20
371.5047843089544
 30
0.0
 11
72.85399205325354
 21
371.5047843089544
 31
0.0
  0
LINE
  5
661
330
A
100
AcDbEntity
  8
KAKURE
100
AcDbLine
 10
72.85399243711009
 20
362.683265308953
 30
0.0
 11
27.85399186395267
 21
362.683265308953
 31
0.0
  0
ARC
  5
662
330
A
100
AcDbEntity
  8
KAKURE
100
AcDbCircle
 10
74.44785328933955
 20
478.12508558169
 30
0.0
 40
4.410758999999998
100
AcDbArc
 50
59.99999592073502
 51
120.0000038735836
  0
ARC
  5
663
330
A
100
AcDbEntity
  8
KAKURE
100
AcDbCircle
 10
74.44785328933955
 20
485.7647475816903
 30
0.0
 40
4.410761999999999
100
AcDbArc
 50
240.0000207636016
 51
299.9999788691226
  0
ARC
  5
664
330
A
100
AcDbEntity
  8
KAKURE
100
AcDbCircle
 10
78.85861228933966
 20
478.1250815816902
 30
0.0
 40
4.410761999999999
100
AcDbArc
 50
60.00002113087732
 51
119.9999792363984
  0
ARC
  5
665
330
A
100
AcDbEntity
  8
KAKURE
100
AcDbCircle
 10
68.8838210447405
 20
463.8876630565176
 30
0.0
 40
4.410758999999998
100
AcDbArc
 50
149.9999959207358
 51
210.0000038735858
  0
ARC
  5
666
330
A
100
AcDbEntity
  8
KAKURE
100
AcDbCircle
 10
61.24415904474045
 20
463.8876630565176
 30
0.0
 40
4.410761999999999
100
AcDbArc
 50
330.0000207635993
 51
29.99997886912047
  0
ARC
  5
667
330
A
100
AcDbEntity
  8
KAKURE
100
AcDbCircle
 10
68.88382504474049
 20
468.298422056518
 30
0.0
 40
4.410761999999999
100
AcDbArc
 50
150.0000211308795
 51
209.9999792364005
  0
LINE
  5
668
330
A
100
AcDbEntity
  8
KAKURE
100
AcDbLine
 10
81.06399228934156
 20
481.9449141010866
 30
0.0
 11
81.06399228934156
 21
470.5038016477507
 31
0.0
  0
LINE
  5
669
330
A
100
AcDbEntity
  8
KAKURE
100
AcDbLine
 10
72.24247328934012
 20
470.3253206477521
 30
0.0
 11
72.24247328934012
 21
481.9449146369861
 31
0.0
  0
ARC
  5
66A
330
A
100
AcDbEntity
  8
KAKURE
100
AcDbCircle
 10
72.06399228934134
 20
470.5038016477507
 30
0.0
 40
9.0
100
AcDbArc
 50
270.0
 51
0.0
  0
LINE
  5
66B
330
A
100
AcDbEntity
  8
KAKURE
100
AcDbLine
 10
64.96636368290211
 20
470.3253206477521
 30
0.0
 11
72.24247328934012
 21
470.3253206477521
 31
0.0
  0
LINE
  5
66C
330
A
100
AcDbEntity
  8
KAKURE
100
AcDbLine
 10
72.06399228934134
 20
461.5038016477507
 30
0.0
 11
65.1727565424888
 21
461.5038016477507
 31
0.0
  0
ARC
  5
66D
330
A
100
AcDbEntity
  8
KAKURE
100
AcDbCircle
 10
31.67382134455515
 20
459.2994039001863
 30
0.0
 40
4.410758999999998
100
AcDbArc
 50
149.9999961264141
 51
210.000004079264
  0
ARC
  5
66E
330
A
100
AcDbEntity
  8
KAKURE
100
AcDbCircle
 10
69.03416309523557
 20
459.2994041404698
 30
0.0
 40
4.410758999999998
100
AcDbArc
 50
329.9999961043758
 51
30.0000038956241
  0
ARC
  5
66F
330
A
100
AcDbEntity
  8
KAKURE
100
AcDbCircle
 10
24.03415934455489
 20
459.2994039001863
 30
0.0
 40
4.410761999999999
100
AcDbArc
 50
330.0000211308795
 51
29.99997923640062
  0
ARC
  5
670
330
A
100
AcDbEntity
  8
KAKURE
100
AcDbCircle
 10
31.67382534455493
 20
454.8886449001858
 30
0.0
 40
4.410761999999999
100
AcDbArc
 50
150.0000207635993
 51
209.9999788691204
  0
ARC
  5
671
330
A
100
AcDbEntity
  8
KAKURE
100
AcDbCircle
 10
69.03415909523602
 20
454.8886441404709
 30
0.0
 40
4.410761999999999
100
AcDbArc
 50
330.0000207415611
 51
29.99997925843887
  0
ARC
  5
672
330
A
100
AcDbEntity
  8
KAKURE
100
AcDbCircle
 10
76.6738250952349
 20
459.2994041404698
 30
0.0
 40
4.410761999999999
100
AcDbArc
 50
150.0000209472393
 51
209.9999790527605
  0
LINE
  5
673
330
A
100
AcDbEntity
  8
KAKURE
100
AcDbLine
 10
27.85399282515896
 20
452.6832649001843
 30
0.0
 11
72.85399205325354
 21
452.6832649001843
 31
0.0
  0
LINE
  5
674
330
A
100
AcDbEntity
  8
KAKURE
100
AcDbLine
 10
72.85399243711009
 20
461.5047839001856
 30
0.0
 11
27.85399186395267
 21
461.5047839001856
 31
0.0
  0
LINE
  5
676
330
A
100
AcDbEntity
  8
CHUSIN
100
AcDbLine
 10
169.463971880492
 20
444.5940246045693
 30
0.0
 11
169.463971880492
 21
279.5940246045693
 31
0.0
  0
LINE
  5
688
330
A
100
AcDbEntity
  8
02
100
AcDbLine
 10
193.4639718804919
 20
127.5940246045694
 30
0.0
 11
143.463971880492
 21
127.5940246045694
 31
0.0
  0
LINE
  5
689
330
A
100
AcDbEntity
  8
02
100
AcDbLine
 10
191.9639718804919
 20
177.5940246045694
 30
0.0
 11
193.4639718804919
 21
177.5940246045694
 31
0.0
  0
LINE
  5
68A
330
A
100
AcDbEntity
  8
02
100
AcDbLine
 10
193.4639718804919
 20
177.5940246045694
 30
0.0
 11
193.4639718804919
 21
127.5940246045694
 31
0.0
  0
LINE
  5
68B
330
A
100
AcDbEntity
  8
02
100
AcDbLine
 10
143.463971880492
 20
127.5940246045694
 30
0.0
 11
143.463971880492
 21
129.0940246045694
 31
0.0
  0
LINE
  5
68C
330
A
100
AcDbEntity
  8
02
100
AcDbLine
 10
147.963971880492
 20
133.5940246045693
 30
0.0
 11
180.9639718804919
 21
133.5940246045693
 31
0.0
  0
LINE
  5
68D
330
A
100
AcDbEntity
  8
02
100
AcDbLine
 10
187.4639718804919
 20
140.0940246045694
 30
0.0
 11
187.4639718804919
 21
173.0940246045693
 31
0.0
  0
ARC
  5
68E
330
A
100
AcDbEntity
  8
02
100
AcDbCircle
 10
147.963971880492
 20
129.0940246045694
 30
0.0
 40
4.5
100
AcDbArc
 50
90.0
 51
180.0
  0
ARC
  5
68F
330
A
100
AcDbEntity
  8
02
100
AcDbCircle
 10
191.9639718804919
 20
173.0940246045693
 30
0.0
 40
4.5
100
AcDbArc
 50
90.0
 51
180.0
  0
ARC
  5
690
330
A
100
AcDbEntity
  8
02
100
AcDbCircle
 10
180.9639718804919
 20
140.0940246045694
 30
0.0
 40
6.5
100
AcDbArc
 50
270.0
 51
0.0
  0
LINE
  5
691
330
A
100
AcDbEntity
  8
02
100
AcDbLine
 10
164.7938894146275
 20
133.5940246045693
 30
0.0
 11
170.7938894146274
 21
127.5940246045694
 31
0.0
  0
LINE
  5
692
330
A
100
AcDbEntity
  8
02
100
AcDbLine
 10
166.7938894146274
 20
133.5940246045693
 30
0.0
 11
172.7938894146275
 21
127.5940246045694
 31
0.0
  0
LINE
  5
693
330
A
100
AcDbEntity
  8
02
100
AcDbLine
 10
187.4639718804919
 20
155.0940246045693
 30
0.0
 11
193.4639718804919
 21
149.0940246045694
 31
0.0
  0
LINE
  5
694
330
A
100
AcDbEntity
  8
02
100
AcDbLine
 10
187.4639718804919
 20
153.0940246045694
 30
0.0
 11
193.4639718804919
 21
147.0940246045693
 31
0.0
  0
LINE
  5
69B
330
A
100
AcDbEntity
  8
02
100
AcDbLine
 10
111.963971880492
 20
107.5939999999999
 30
0.0
 11
151.963971880492
 21
107.5939999999999
 31
0.0
  0
LINE
  5
69C
330
A
100
AcDbEntity
  8
02
100
AcDbLine
 10
151.963971880492
 20
67.59399999999999
 30
0.0
 11
149.963971880492
 21
67.59399999999999
 31
0.0
  0
LINE
  5
69D
330
A
100
AcDbEntity
  8
02
100
AcDbLine
 10
111.963971880492
 20
105.5939999999999
 30
0.0
 11
111.963971880492
 21
107.5939999999999
 31
0.0
  0
LINE
  5
69E
330
A
100
AcDbEntity
  8
02
100
AcDbLine
 10
151.963971880492
 20
107.5939999999999
 30
0.0
 11
151.963971880492
 21
67.59399999999999
 31
0.0
  0
LINE
  5
69F
330
A
100
AcDbEntity
  8
02
100
AcDbLine
 10
114.9639718804919
 20
102.5939999999999
 30
0.0
 11
142.463971880492
 21
102.5939999999999
 31
0.0
  0
LINE
  5
6A0
330
A
100
AcDbEntity
  8
02
100
AcDbLine
 10
146.963971880492
 20
98.094
 30
0.0
 11
146.963971880492
 21
70.594
 31
0.0
  0
ARC
  5
6A1
330
A
100
AcDbEntity
  8
02
100
AcDbCircle
 10
142.463971880492
 20
98.094
 30
0.0
 40
4.5
100
AcDbArc
 50
0.0
 51
90.0
  0
ARC
  5
6A2
330
A
100
AcDbEntity
  8
02
100
AcDbCircle
 10
114.9639718804919
 20
105.5939999999999
 30
0.0
 40
3.0
100
AcDbArc
 50
180.0
 51
270.0
  0
ARC
  5
6A3
330
A
100
AcDbEntity
  8
02
100
AcDbCircle
 10
149.963971880492
 20
70.594
 30
0.0
 40
3.0
100
AcDbArc
 50
180.0
 51
270.0
  0
LINE
  5
6A4
330
A
100
AcDbEntity
  8
02
100
AcDbLine
 10
151.963971880492
 20
85.594
 30
0.0
 11
146.963971880492
 21
90.594
 31
0.0
  0
LINE
  5
6A5
330
A
100
AcDbEntity
  8
02
100
AcDbLine
 10
134.963971880492
 20
102.5939999999999
 30
0.0
 11
129.963971880492
 21
107.5939999999999
 31
0.0
  0
LINE
  5
6A6
330
A
100
AcDbEntity
  8
02
100
AcDbLine
 10
151.963971880492
 20
87.59399999999997
 30
0.0
 11
146.963971880492
 21
92.59399999999999
 31
0.0
  0
LINE
  5
6A7
330
A
100
AcDbEntity
  8
02
100
AcDbLine
 10
136.963971880492
 20
102.5939999999999
 30
0.0
 11
131.963971880492
 21
107.5939999999999
 31
0.0
  0
LINE
  5
6A8
330
A
100
AcDbEntity
  8
02
100
AcDbLine
 10
226.9639718804919
 20
107.5939999999999
 30
0.0
 11
186.9639718804919
 21
107.5939999999999
 31
0.0
  0
LINE
  5
6A9
330
A
100
AcDbEntity
  8
02
100
AcDbLine
 10
186.9639718804919
 20
67.59399999999999
 30
0.0
 11
188.9639718804919
 21
67.59399999999999
 31
0.0
  0
LINE
  5
6AA
330
A
100
AcDbEntity
  8
02
100
AcDbLine
 10
226.9639718804919
 20
105.5939999999999
 30
0.0
 11
226.9639718804919
 21
107.5939999999999
 31
0.0
  0
LINE
  5
6AB
330
A
100
AcDbEntity
  8
02
100
AcDbLine
 10
186.9639718804919
 20
107.5939999999999
 30
0.0
 11
186.9639718804919
 21
67.59399999999999
 31
0.0
  0
LINE
  5
6AC
330
A
100
AcDbEntity
  8
02
100
AcDbLine
 10
223.9639718804919
 20
102.5939999999999
 30
0.0
 11
196.4639718804919
 21
102.5939999999999
 31
0.0
  0
LINE
  5
6AD
330
A
100
AcDbEntity
  8
02
100
AcDbLine
 10
191.9639718804919
 20
98.094
 30
0.0
 11
191.9639718804919
 21
70.594
 31
0.0
  0
ARC
  5
6AE
330
A
100
AcDbEntity
  8
02
100
AcDbCircle
 10
196.4639718804919
 20
98.094
 30
0.0
 40
4.5
100
AcDbArc
 50
90.0
 51
180.0
  0
ARC
  5
6AF
330
A
100
AcDbEntity
  8
02
100
AcDbCircle
 10
223.9639718804919
 20
105.5939999999999
 30
0.0
 40
3.0
100
AcDbArc
 50
270.0
 51
0.0
  0
ARC
  5
6B0
330
A
100
AcDbEntity
  8
02
100
AcDbCircle
 10
188.9639718804919
 20
70.594
 30
0.0
 40
3.0
100
AcDbArc
 50
270.0
 51
0.0
  0
LINE
  5
6B1
330
A
100
AcDbEntity
  8
02
100
AcDbLine
 10
186.9639718804919
 20
85.594
 30
0.0
 11
191.9639718804919
 21
90.594
 31
0.0
  0
LINE
  5
6B2
330
A
100
AcDbEntity
  8
02
100
AcDbLine
 10
203.9639718804919
 20
102.5939999999999
 30
0.0
 11
208.963971880492
 21
107.5939999999999
 31
0.0
  0
LINE
  5
6B3
330
A
100
AcDbEntity
  8
02
100
AcDbLine
 10
186.9639718804919
 20
87.59399999999997
 30
0.0
 11
191.9639718804919
 21
92.59399999999999
 31
0.0
  0
LINE
  5
6B4
330
A
100
AcDbEntity
  8
02
100
AcDbLine
 10
201.9639718804919
 20
102.5939999999999
 30
0.0
 11
206.963971880492
 21
107.5939999999999
 31
0.0
  0
LINE
  5
6B5
330
A
100
AcDbEntity
  8
02
100
AcDbLine
 10
193.4639718804919
 20
269.5940246045693
 30
0.0
 11
143.463971880492
 21
269.5940246045693
 31
0.0
  0
LINE
  5
6B6
330
A
100
AcDbEntity
  8
02
100
AcDbLine
 10
191.9639718804919
 20
219.5940246045693
 30
0.0
 11
193.4639718804919
 21
219.5940246045693
 31
0.0
  0
LINE
  5
6B7
330
A
100
AcDbEntity
  8
02
100
AcDbLine
 10
193.4639718804919
 20
219.5940246045693
 30
0.0
 11
193.4639718804919
 21
269.5940246045693
 31
0.0
  0
LINE
  5
6B8
330
A
100
AcDbEntity
  8
02
100
AcDbLine
 10
143.463971880492
 20
269.5940246045693
 30
0.0
 11
143.463971880492
 21
268.0940246045693
 31
0.0
  0
LINE
  5
6B9
330
A
100
AcDbEntity
  8
02
100
AcDbLine
 10
147.963971880492
 20
263.5940246045693
 30
0.0
 11
180.9639718804919
 21
263.5940246045693
 31
0.0
  0
LINE
  5
6BA
330
A
100
AcDbEntity
  8
02
100
AcDbLine
 10
187.4639718804919
 20
257.0940246045693
 30
0.0
 11
187.4639718804919
 21
224.0940246045694
 31
0.0
  0
ARC
  5
6BB
330
A
100
AcDbEntity
  8
02
100
AcDbCircle
 10
147.963971880492
 20
268.0940246045693
 30
0.0
 40
4.5
100
AcDbArc
 50
180.0
 51
270.0
  0
ARC
  5
6BC
330
A
100
AcDbEntity
  8
02
100
AcDbCircle
 10
191.9639718804919
 20
224.0940246045694
 30
0.0
 40
4.5
100
AcDbArc
 50
180.0
 51
270.0
  0
ARC
  5
6BD
330
A
100
AcDbEntity
  8
02
100
AcDbCircle
 10
180.9639718804919
 20
257.0940246045693
 30
0.0
 40
6.5
100
AcDbArc
 50
0.0
 51
90.0
  0
LINE
  5
6BE
330
A
100
AcDbEntity
  8
02
100
AcDbLine
 10
164.7938894146275
 20
263.5940246045693
 30
0.0
 11
170.7938894146274
 21
269.5940246045693
 31
0.0
  0
LINE
  5
6BF
330
A
100
AcDbEntity
  8
02
100
AcDbLine
 10
166.7938894146274
 20
263.5940246045693
 30
0.0
 11
172.7938894146275
 21
269.5940246045693
 31
0.0
  0
LINE
  5
6C0
330
A
100
AcDbEntity
  8
02
100
AcDbLine
 10
187.4639718804919
 20
242.0940246045693
 30
0.0
 11
193.4639718804919
 21
248.0940246045693
 31
0.0
  0
LINE
  5
6C1
330
A
100
AcDbEntity
  8
02
100
AcDbLine
 10
187.4639718804919
 20
244.0940246045693
 30
0.0
 11
193.4639718804919
 21
250.0940246045693
 31
0.0
  0
LINE
  5
6C2
330
A
100
AcDbEntity
  8
02
100
AcDbLine
 10
75.06397188049206
 20
276.1940246045694
 30
0.0
 11
125.063971880492
 21
276.1940246045694
 31
0.0
  0
LINE
  5
6C3
330
A
100
AcDbEntity
  8
02
100
AcDbLine
 10
76.56397188049206
 20
326.1940246045693
 30
0.0
 11
75.06397188049206
 21
326.1940246045693
 31
0.0
  0
LINE
  5
6C4
330
A
100
AcDbEntity
  8
02
100
AcDbLine
 10
75.06397188049206
 20
326.1940246045693
 30
0.0
 11
75.06397188049206
 21
276.1940246045694
 31
0.0
  0
LINE
  5
6C5
330
A
100
AcDbEntity
  8
02
100
AcDbLine
 10
125.063971880492
 20
276.1940246045694
 30
0.0
 11
125.063971880492
 21
277.6940246045693
 31
0.0
  0
LINE
  5
6C6
330
A
100
AcDbEntity
  8
02
100
AcDbLine
 10
120.563971880492
 20
282.1940246045693
 30
0.0
 11
87.56397188049206
 21
282.1940246045693
 31
0.0
  0
LINE
  5
6C7
330
A
100
AcDbEntity
  8
02
100
AcDbLine
 10
81.06397188049205
 20
288.6940246045693
 30
0.0
 11
81.06397188049205
 21
321.6940246045693
 31
0.0
  0
ARC
  5
6C8
330
A
100
AcDbEntity
  8
02
100
AcDbCircle
 10
120.563971880492
 20
277.6940246045693
 30
0.0
 40
4.5
100
AcDbArc
 50
0.0
 51
90.0
  0
ARC
  5
6C9
330
A
100
AcDbEntity
  8
02
100
AcDbCircle
 10
76.56397188049206
 20
321.6940246045693
 30
0.0
 40
4.5
100
AcDbArc
 50
0.0
 51
90.0
  0
ARC
  5
6CA
330
A
100
AcDbEntity
  8
02
100
AcDbCircle
 10
87.56397188049206
 20
288.6940246045693
 30
0.0
 40
6.5
100
AcDbArc
 50
180.0
 51
270.0
  0
LINE
  5
6CB
330
A
100
AcDbEntity
  8
02
100
AcDbLine
 10
103.7340543463566
 20
282.1940246045693
 30
0.0
 11
97.73405434635662
 21
276.1940246045694
 31
0.0
  0
LINE
  5
6CC
330
A
100
AcDbEntity
  8
02
100
AcDbLine
 10
101.7340543463566
 20
282.1940246045693
 30
0.0
 11
95.7340543463566
 21
276.1940246045694
 31
0.0
  0
LINE
  5
6CD
330
A
100
AcDbEntity
  8
02
100
AcDbLine
 10
81.06397188049205
 20
303.6940246045693
 30
0.0
 11
75.06397188049206
 21
297.6940246045693
 31
0.0
  0
LINE
  5
6CE
330
A
100
AcDbEntity
  8
02
100
AcDbLine
 10
81.06397188049205
 20
301.6940246045693
 30
0.0
 11
75.06397188049206
 21
295.6940246045693
 31
0.0
  0
LINE
  5
6CF
330
A
100
AcDbEntity
  8
02
100
AcDbLine
 10
75.06397188049206
 20
547.9940246045694
 30
0.0
 11
125.063971880492
 21
547.9940246045694
 31
0.0
  0
LINE
  5
6D0
330
A
100
AcDbEntity
  8
02
100
AcDbLine
 10
76.56397188049206
 20
497.9940246045694
 30
0.0
 11
75.06397188049206
 21
497.9940246045694
 31
0.0
  0
LINE
  5
6D1
330
A
100
AcDbEntity
  8
02
100
AcDbLine
 10
75.06397188049206
 20
497.9940246045694
 30
0.0
 11
75.06397188049206
 21
547.9940246045694
 31
0.0
  0
LINE
  5
6D2
330
A
100
AcDbEntity
  8
02
100
AcDbLine
 10
125.063971880492
 20
547.9940246045694
 30
0.0
 11
125.063971880492
 21
546.4940246045694
 31
0.0
  0
LINE
  5
6D3
330
A
100
AcDbEntity
  8
02
100
AcDbLine
 10
120.563971880492
 20
541.9940246045694
 30
0.0
 11
87.56397188049206
 21
541.9940246045694
 31
0.0
  0
LINE
  5
6D4
330
A
100
AcDbEntity
  8
02
100
AcDbLine
 10
81.06397188049205
 20
535.4940246045694
 30
0.0
 11
81.06397188049205
 21
502.4940246045694
 31
0.0
  0
ARC
  5
6D5
330
A
100
AcDbEntity
  8
02
100
AcDbCircle
 10
120.563971880492
 20
546.4940246045694
 30
0.0
 40
4.5
100
AcDbArc
 50
270.0
 51
0.0
  0
ARC
  5
6D6
330
A
100
AcDbEntity
  8
02
100
AcDbCircle
 10
76.56397188049206
 20
502.4940246045694
 30
0.0
 40
4.5
100
AcDbArc
 50
270.0
 51
0.0
  0
ARC
  5
6D7
330
A
100
AcDbEntity
  8
02
100
AcDbCircle
 10
87.56397188049206
 20
535.4940246045694
 30
0.0
 40
6.5
100
AcDbArc
 50
90.0
 51
180.0
  0
LINE
  5
6D8
330
A
100
AcDbEntity
  8
02
100
AcDbLine
 10
103.7340543463566
 20
541.9940246045694
 30
0.0
 11
97.73405434635662
 21
547.9940246045694
 31
0.0
  0
LINE
  5
6D9
330
A
100
AcDbEntity
  8
02
100
AcDbLine
 10
101.7340543463566
 20
541.9940246045694
 30
0.0
 11
95.7340543463566
 21
547.9940246045694
 31
0.0
  0
LINE
  5
6DA
330
A
100
AcDbEntity
  8
02
100
AcDbLine
 10
81.06397188049205
 20
520.4940246045692
 30
0.0
 11
75.06397188049206
 21
526.4940246045694
 31
0.0
  0
LINE
  5
6DB
330
A
100
AcDbEntity
  8
02
100
AcDbLine
 10
81.06397188049205
 20
522.4940246045694
 30
0.0
 11
75.06397188049206
 21
528.4940246045692
 31
0.0
  0
LINE
  5
6DC
330
A
100
AcDbEntity
  8
02
100
AcDbLine
 10
326.8639718804919
 20
251.1940246045694
 30
0.0
 11
276.8639718804919
 21
251.1940246045694
 31
0.0
  0
LINE
  5
6DD
330
A
100
AcDbEntity
  8
02
100
AcDbLine
 10
325.3639718804919
 20
301.1940246045693
 30
0.0
 11
326.8639718804919
 21
301.1940246045693
 31
0.0
  0
LINE
  5
6DE
330
A
100
AcDbEntity
  8
02
100
AcDbLine
 10
326.8639718804919
 20
301.1940246045693
 30
0.0
 11
326.8639718804919
 21
251.1940246045694
 31
0.0
  0
LINE
  5
6DF
330
A
100
AcDbEntity
  8
02
100
AcDbLine
 10
276.8639718804919
 20
251.1940246045694
 30
0.0
 11
276.8639718804919
 21
252.6940246045693
 31
0.0
  0
LINE
  5
6E0
330
A
100
AcDbEntity
  8
02
100
AcDbLine
 10
281.3639718804919
 20
257.1940246045694
 30
0.0
 11
314.3639718804919
 21
257.1940246045694
 31
0.0
  0
LINE
  5
6E1
330
A
100
AcDbEntity
  8
02
100
AcDbLine
 10
320.8639718804919
 20
263.6940246045694
 30
0.0
 11
320.8639718804919
 21
296.6940246045693
 31
0.0
  0
ARC
  5
6E2
330
A
100
AcDbEntity
  8
02
100
AcDbCircle
 10
281.3639718804919
 20
252.6940246045693
 30
0.0
 40
4.5
100
AcDbArc
 50
90.0
 51
180.0
  0
ARC
  5
6E3
330
A
100
AcDbEntity
  8
02
100
AcDbCircle
 10
325.3639718804919
 20
296.6940246045693
 30
0.0
 40
4.5
100
AcDbArc
 50
90.0
 51
180.0
  0
ARC
  5
6E4
330
A
100
AcDbEntity
  8
02
100
AcDbCircle
 10
314.3639718804919
 20
263.6940246045694
 30
0.0
 40
6.5
100
AcDbArc
 50
270.0
 51
0.0
  0
LINE
  5
6E5
330
A
100
AcDbEntity
  8
02
100
AcDbLine
 10
298.1938894146275
 20
257.1940246045694
 30
0.0
 11
304.1938894146275
 21
251.1940246045694
 31
0.0
  0
LINE
  5
6E6
330
A
100
AcDbEntity
  8
02
100
AcDbLine
 10
300.1938894146275
 20
257.1940246045694
 30
0.0
 11
306.1938894146275
 21
251.1940246045694
 31
0.0
  0
LINE
  5
6E7
330
A
100
AcDbEntity
  8
02
100
AcDbLine
 10
320.8639718804919
 20
278.6940246045694
 30
0.0
 11
326.8639718804919
 21
272.6940246045693
 31
0.0
  0
LINE
  5
6E8
330
A
100
AcDbEntity
  8
02
100
AcDbLine
 10
320.8639718804919
 20
276.6940246045693
 30
0.0
 11
326.8639718804919
 21
270.6940246045693
 31
0.0
  0
LINE
  5
6E9
330
A
100
AcDbEntity
  8
02
100
AcDbLine
 10
326.8639718804919
 20
547.9940246045694
 30
0.0
 11
276.8639718804919
 21
547.9940246045694
 31
0.0
  0
LINE
  5
6EA
330
A
100
AcDbEntity
  8
02
100
AcDbLine
 10
325.3639718804919
 20
497.9940246045694
 30
0.0
 11
326.8639718804919
 21
497.9940246045694
 31
0.0
  0
LINE
  5
6EB
330
A
100
AcDbEntity
  8
02
100
AcDbLine
 10
326.8639718804919
 20
497.9940246045694
 30
0.0
 11
326.8639718804919
 21
547.9940246045694
 31
0.0
  0
LINE
  5
6EC
330
A
100
AcDbEntity
  8
02
100
AcDbLine
 10
276.8639718804919
 20
547.9940246045694
 30
0.0
 11
276.8639718804919
 21
546.4940246045694
 31
0.0
  0
LINE
  5
6ED
330
A
100
AcDbEntity
  8
02
100
AcDbLine
 10
281.3639718804919
 20
541.9940246045694
 30
0.0
 11
314.3639718804919
 21
541.9940246045694
 31
0.0
  0
LINE
  5
6EE
330
A
100
AcDbEntity
  8
02
100
AcDbLine
 10
320.8639718804919
 20
535.4940246045694
 30
0.0
 11
320.8639718804919
 21
502.4940246045694
 31
0.0
  0
ARC
  5
6EF
330
A
100
AcDbEntity
  8
02
100
AcDbCircle
 10
281.3639718804919
 20
546.4940246045694
 30
0.0
 40
4.5
100
AcDbArc
 50
180.0
 51
270.0
  0
ARC
  5
6F0
330
A
100
AcDbEntity
  8
02
100
AcDbCircle
 10
325.3639718804919
 20
502.4940246045694
 30
0.0
 40
4.5
100
AcDbArc
 50
180.0
 51
270.0
  0
ARC
  5
6F1
330
A
100
AcDbEntity
  8
02
100
AcDbCircle
 10
314.3639718804919
 20
535.4940246045694
 30
0.0
 40
6.5
100
AcDbArc
 50
0.0
 51
90.0
  0
LINE
  5
6F2
330
A
100
AcDbEntity
  8
02
100
AcDbLine
 10
298.1938894146275
 20
541.9940246045694
 30
0.0
 11
304.1938894146275
 21
547.9940246045694
 31
0.0
  0
LINE
  5
6F3
330
A
100
AcDbEntity
  8
02
100
AcDbLine
 10
300.1938894146275
 20
541.9940246045694
 30
0.0
 11
306.1938894146275
 21
547.9940246045694
 31
0.0
  0
LINE
  5
6F4
330
A
100
AcDbEntity
  8
02
100
AcDbLine
 10
320.8639718804919
 20
520.4940246045692
 30
0.0
 11
326.8639718804919
 21
526.4940246045694
 31
0.0
  0
LINE
  5
6F5
330
A
100
AcDbEntity
  8
02
100
AcDbLine
 10
320.8639718804919
 20
522.4940246045694
 30
0.0
 11
326.8639718804919
 21
528.4940246045692
 31
0.0
  0
LINE
  5
6F8
330
A
100
AcDbEntity
  8
04
100
AcDbLine
 10
181.4639718804919
 20
439.5940226972206
 30
0.0
 11
176.2272393975819
 21
439.5940226972206
 31
0.0
  0
LINE
  5
6F9
330
A
100
AcDbEntity
  8
04
100
AcDbLine
 10
162.7007005487049
 20
439.5940226972206
 30
0.0
 11
157.463971880492
 21
439.5940226972206
 31
0.0
  0
LINE
  5
6FA
330
A
100
AcDbEntity
  8
04
100
AcDbLine
 10
164.4639718804921
 20
429.5940226972207
 30
0.0
 11
174.463971880492
 21
429.5940226972208
 31
0.0
  0
LINE
  5
6FB
330
A
100
AcDbEntity
  8
04
100
AcDbLine
 10
174.463971880492
 20
429.5940226972208
 30
0.0
 11
176.2272393975819
 21
439.5940226972206
 31
0.0
  0
LINE
  5
6FC
330
A
100
AcDbEntity
  8
04
100
AcDbLine
 10
164.4639718804921
 20
429.5940226972207
 30
0.0
 11
162.7007005487049
 21
439.5940226972206
 31
0.0
  0
LINE
  5
6FD
330
A
100
AcDbEntity
  8
04
100
AcDbLine
 10
203.4639699731434
 20
440.5940246045695
 30
0.0
 11
194.4639699731434
 21
440.5940246045694
 31
0.0
  0
LINE
  5
6FE
330
A
100
AcDbEntity
  8
04
100
AcDbLine
 10
194.4639699731434
 20
440.0940246045693
 30
0.0
 11
185.463971880492
 21
440.0940246045693
 31
0.0
  0
LINE
  5
6FF
330
A
100
AcDbEntity
  8
04
100
AcDbLine
 10
185.463971880492
 20
440.0940246045693
 30
0.0
 11
185.4639718804921
 21
415.0940231740578
 31
0.0
  0
LINE
  5
700
330
A
100
AcDbEntity
  8
04
100
AcDbLine
 10
185.4639718804921
 20
415.0940231740578
 30
0.0
 11
194.4639699731435
 21
415.0940231740578
 31
0.0
  0
LINE
  5
702
330
A
100
AcDbEntity
  8
04
100
AcDbLine
 10
203.4639699731434
 20
435.099569267045
 30
0.0
 11
210.2679441247546
 21
435.099569267045
 31
0.0
  0
LINE
  5
703
330
A
100
AcDbEntity
  8
04
100
AcDbLine
 10
203.4639699731434
 20
420.0884761273965
 30
0.0
 11
210.2679441247548
 21
420.0884761273965
 31
0.0
  0
LINE
  5
704
330
A
100
AcDbEntity
  8
04
100
AcDbLine
 10
210.2679441247546
 20
435.099569267045
 30
0.0
 11
210.9639699731434
 21
433.8940257489785
 31
0.0
  0
LINE
  5
705
330
A
100
AcDbEntity
  8
04
100
AcDbLine
 10
210.2679441247548
 20
420.0884761273965
 30
0.0
 11
210.9639699731435
 21
421.294019645463
 31
0.0
  0
LINE
  5
706
330
A
100
AcDbEntity
  8
04
100
AcDbLine
 10
210.9639699731435
 20
421.294019645463
 30
0.0
 11
210.9639699731434
 21
433.8940257489785
 31
0.0
  0
LINE
  5
70D
330
A
100
AcDbEntity
  8
04
100
AcDbLine
 10
157.463971880492
 20
439.5940226972206
 30
0.0
 11
157.4639718804921
 21
339.5940246045693
 31
0.0
  0
LINE
  5
712
330
A
100
AcDbEntity
  8
04
100
AcDbLine
 10
181.4639718804921
 20
339.5940246045693
 30
0.0
 11
181.4639718804919
 21
439.5940226972206
 31
0.0
  0
LINE
  5
713
330
A
100
AcDbEntity
  8
04
100
AcDbLine
 10
194.4639699731435
 20
408.0940230846509
 30
0.0
 11
181.4639718804921
 21
408.0940230846509
 31
0.0
  0
LINE
  5
714
330
A
100
AcDbEntity
  8
04
100
AcDbLine
 10
181.4639718804921
 20
398.5940226972207
 30
0.0
 11
194.4639699731435
 21
398.5940226972207
 31
0.0
  0
LINE
  5
715
330
A
100
AcDbEntity
  8
04
100
AcDbLine
 10
194.4639699731435
 20
380.5940226972206
 30
0.0
 11
181.4639718804921
 21
380.5940226972206
 31
0.0
  0
LINE
  5
716
330
A
100
AcDbEntity
  8
04
100
AcDbLine
 10
194.4639699731435
 20
371.0940223097906
 30
0.0
 11
181.4639718804921
 21
371.0940223097906
 31
0.0
  0
LINE
  5
717
330
A
100
AcDbEntity
  8
04
100
AcDbLine
 10
185.4639718804921
 20
364.0940222203838
 30
0.0
 11
194.4639699731435
 21
364.0940222203838
 31
0.0
  0
LINE
  5
718
330
A
100
AcDbEntity
  8
04
100
AcDbLine
 10
185.463971880492
 20
339.0940207898723
 30
0.0
 11
185.4639718804921
 21
364.0940222203838
 31
0.0
  0
LINE
  5
719
330
A
100
AcDbEntity
  8
04
100
AcDbLine
 10
194.4639699731434
 20
339.0940207898723
 30
0.0
 11
185.463971880492
 21
339.0940207898723
 31
0.0
  0
LINE
  5
71B
330
A
100
AcDbEntity
  8
04
100
AcDbLine
 10
203.4639699731434
 20
344.0884761273967
 30
0.0
 11
210.2679441247546
 21
344.0884761273967
 31
0.0
  0
LINE
  5
71C
330
A
100
AcDbEntity
  8
04
100
AcDbLine
 10
203.4639699731434
 20
359.0995692670452
 30
0.0
 11
210.2679441247548
 21
359.0995692670452
 31
0.0
  0
LINE
  5
71D
330
A
100
AcDbEntity
  8
04
100
AcDbLine
 10
210.2679441247546
 20
344.0884761273967
 30
0.0
 11
210.9639699731434
 21
345.2940196454631
 31
0.0
  0
LINE
  5
71E
330
A
100
AcDbEntity
  8
04
100
AcDbLine
 10
210.2679441247548
 20
359.0995692670452
 30
0.0
 11
210.9639699731435
 21
357.8940257489786
 31
0.0
  0
LINE
  5
71F
330
A
100
AcDbEntity
  8
04
100
AcDbLine
 10
210.9639699731435
 20
357.8940257489786
 30
0.0
 11
210.9639699731434
 21
345.2940196454631
 31
0.0
  0
LINE
  5
726
330
A
100
AcDbEntity
  8
04
100
AcDbLine
 10
194.4639699731434
 20
440.5940246045694
 30
0.0
 11
194.4639699731436
 21
279.5940246045693
 31
0.0
  0
LINE
  5
727
330
A
100
AcDbEntity
  8
04
100
AcDbLine
 10
203.4639699731437
 20
280.5940246045695
 30
0.0
 11
203.4639699731434
 21
440.5940246045695
 31
0.0
  0
LINE
  5
72A
330
A
100
AcDbEntity
  8
04
100
AcDbLine
 10
203.4639699731434
 20
406.914523071061
 30
0.0
 11
224.8355548654163
 21
406.9145230710612
 31
0.0
  0
LINE
  5
72B
330
A
100
AcDbEntity
  8
04
100
AcDbLine
 10
203.4639699731435
 20
372.2735213697061
 30
0.0
 11
224.8355548654163
 21
372.2735213697061
 31
0.0
  0
LINE
  5
72C
330
A
100
AcDbEntity
  8
04
100
AcDbLine
 10
224.8355548654163
 20
406.9145230710612
 30
0.0
 11
226.4639704499805
 21
404.094023174058
 31
0.0
  0
LINE
  5
72D
330
A
100
AcDbEntity
  8
04
100
AcDbLine
 10
224.8355548654163
 20
372.2735213697061
 30
0.0
 11
226.4639704499807
 21
375.0940246045694
 31
0.0
  0
LINE
  5
72E
330
A
100
AcDbEntity
  8
04
100
AcDbLine
 10
226.4639704499807
 20
375.0940246045694
 30
0.0
 11
226.4639704499805
 21
388.2733191907512
 31
0.0
  0
LINE
  5
72F
330
A
100
AcDbEntity
  8
04
100
AcDbLine
 10
226.4639704499805
 20
388.2733191907512
 30
0.0
 11
226.4639704499805
 21
404.094023174058
 31
0.0
  0
LINE
  5
738
330
A
100
AcDbEntity
  8
04
100
AcDbLine
 10
205.9639709268179
 20
328.5636748731241
 30
0.0
 11
215.8267939363089
 21
328.5636748731241
 31
0.0
  0
LINE
  5
739
330
A
100
AcDbEntity
  8
04
100
AcDbLine
 10
215.8267939363089
 20
328.5636748731241
 30
0.0
 11
216.9639706883993
 21
326.5940246045693
 31
0.0
  0
LINE
  5
73A
330
A
100
AcDbEntity
  8
04
100
AcDbLine
 10
216.3866198335256
 20
307.5940246045695
 30
0.0
 11
216.9639706883994
 21
308.5940246045693
 31
0.0
  0
LINE
  5
73B
330
A
100
AcDbEntity
  8
04
100
AcDbLine
 10
216.9639706883994
 20
308.5940246045693
 30
0.0
 11
216.9639706883993
 21
326.5940246045693
 31
0.0
  0
LINE
  5
743
330
A
100
AcDbEntity
  8
04
100
AcDbLine
 10
205.9639709268179
 20
286.6243743360147
 30
0.0
 11
215.8267939363089
 21
286.6243743360147
 31
0.0
  0
LINE
  5
745
330
A
100
AcDbEntity
  8
04
100
AcDbLine
 10
215.8267939363089
 20
286.6243743360147
 30
0.0
 11
216.9639706883994
 21
288.5940246045695
 31
0.0
  0
LINE
  5
746
330
A
100
AcDbEntity
  8
04
100
AcDbLine
 10
216.9639706883994
 20
288.5940246045695
 30
0.0
 11
216.9639706883994
 21
306.5940246045693
 31
0.0
  0
LINE
  5
74C
330
A
100
AcDbEntity
  8
04
100
AcDbLine
 10
203.4639699731435
 20
329.5940246045693
 30
0.0
 11
205.9639709268179
 21
329.5940246045693
 31
0.0
  0
LINE
  5
74F
330
A
100
AcDbEntity
  8
04
100
AcDbLine
 10
203.4639699731437
 20
285.5940246045694
 30
0.0
 11
205.9639709268179
 21
285.5940246045694
 31
0.0
  0
LINE
  5
752
330
A
100
AcDbEntity
  8
04
100
AcDbLine
 10
194.4639699731436
 20
280.5940246045695
 30
0.0
 11
203.4639699731437
 21
280.5940246045695
 31
0.0
  0
ARC
  5
753
330
A
100
AcDbEntity
  8
04
100
AcDbCircle
 10
181.9639718804921
 20
292.0940246045693
 30
0.0
 40
6.5
100
AcDbArc
 50
270.0
 51
0.0
  0
LINE
  5
754
330
A
100
AcDbEntity
  8
04
100
AcDbLine
 10
181.9639718804923
 20
285.5940246045694
 30
0.0
 11
148.9639718804923
 21
285.5940246045694
 31
0.0
  0
ARC
  5
755
330
A
100
AcDbEntity
  8
04
100
AcDbCircle
 10
148.9639718804923
 20
281.0940246045693
 30
0.0
 40
4.5
100
AcDbArc
 50
90.0
 51
180.0
  0
LINE
  5
756
330
A
100
AcDbEntity
  8
04
100
AcDbLine
 10
144.4639718804922
 20
281.0940246045693
 30
0.0
 11
144.4639718804922
 21
279.5940246045693
 31
0.0
  0
LINE
  5
757
330
A
100
AcDbEntity
  8
04
100
AcDbLine
 10
144.4639718804922
 20
279.5940246045693
 30
0.0
 11
194.4639699731436
 21
279.5940246045693
 31
0.0
  0
LINE
  5
759
330
A
100
AcDbEntity
  8
04
100
AcDbLine
 10
158.4943216119376
 20
288.0940246045693
 30
0.0
 11
158.4943216119376
 21
297.9568480908974
 31
0.0
  0
LINE
  5
75A
330
A
100
AcDbEntity
  8
04
100
AcDbLine
 10
180.433622149047
 20
288.0940246045693
 30
0.0
 11
180.4336221490468
 21
297.9568480908976
 31
0.0
  0
LINE
  5
75B
330
A
100
AcDbEntity
  8
04
100
AcDbLine
 10
158.4943216119376
 20
297.9568480908974
 30
0.0
 11
160.4639718804923
 21
299.0940246045693
 31
0.0
  0
LINE
  5
75C
330
A
100
AcDbEntity
  8
04
100
AcDbLine
 10
180.4336221490468
 20
297.9568480908976
 30
0.0
 11
178.4639718804923
 21
299.0940246045695
 31
0.0
  0
LINE
  5
75D
330
A
100
AcDbEntity
  8
04
100
AcDbLine
 10
178.4639718804923
 20
299.0940246045695
 30
0.0
 11
160.4639718804923
 21
299.0940246045693
 31
0.0
  0
LINE
  5
763
330
A
100
AcDbEntity
  8
04
100
AcDbLine
 10
157.4639718804923
 20
285.5940246045694
 30
0.0
 11
157.4639718804923
 21
288.0940246045693
 31
0.0
  0
LINE
  5
764
330
A
100
AcDbEntity
  8
04
100
AcDbLine
 10
157.4639718804923
 20
288.0940246045693
 30
0.0
 11
158.4943216119376
 21
288.0940246045693
 31
0.0
  0
LINE
  5
765
330
A
100
AcDbEntity
  8
04
100
AcDbLine
 10
181.4639718804923
 20
288.0940246045693
 30
0.0
 11
181.4639718804923
 21
285.5940246045694
 31
0.0
  0
LINE
  5
767
330
A
100
AcDbEntity
  8
04
100
AcDbLine
 10
188.4639718804923
 20
325.0940246045693
 30
0.0
 11
188.4639718804923
 21
292.0940246045693
 31
0.0
  0
LINE
  5
768
330
A
100
AcDbEntity
  8
04
100
AcDbLine
 10
194.4639699731435
 20
329.5940246045693
 30
0.0
 11
192.9639699731435
 21
329.5940246045693
 31
0.0
  0
ARC
  5
769
330
A
100
AcDbEntity
  8
04
100
AcDbCircle
 10
192.9639699731435
 20
325.0940246045693
 30
0.0
 40
4.5
100
AcDbArc
 50
90.0
 51
180.0
  0
LINE
  5
76A
330
A
100
AcDbEntity
  8
04
100
AcDbLine
 10
164.4639718804921
 20
349.5940246045693
 30
0.0
 11
174.4639718804921
 21
349.5940246045693
 31
0.0
  0
LINE
  5
76B
330
A
100
AcDbEntity
  8
04
100
AcDbLine
 10
174.4639718804921
 20
349.5940246045693
 30
0.0
 11
176.227239397582
 21
339.5940246045693
 31
0.0
  0
LINE
  5
76C
330
A
100
AcDbEntity
  8
04
100
AcDbLine
 10
176.227239397582
 20
339.5940246045693
 30
0.0
 11
181.4639718804921
 21
339.5940246045693
 31
0.0
  0
LINE
  5
76D
330
A
100
AcDbEntity
  8
04
100
AcDbLine
 10
164.4639718804921
 20
349.5940246045693
 30
0.0
 11
162.7007005487051
 21
339.5940246045693
 31
0.0
  0
LINE
  5
76E
330
A
100
AcDbEntity
  8
04
100
AcDbLine
 10
157.4639718804921
 20
339.5940246045693
 30
0.0
 11
162.7007005487051
 21
339.5940246045693
 31
0.0
  0
LINE
  5
76F
330
A
100
AcDbEntity
  8
CHUSIN
100
AcDbLine
 10
217.0035252843463
 20
427.5940226972208
 30
0.0
 11
184.4374978814685
 21
427.5940226972208
 31
0.0
  0
LINE
  5
770
330
A
100
AcDbEntity
  8
CHUSIN
100
AcDbLine
 10
217.0035252843463
 20
351.5940226972208
 30
0.0
 11
184.4374978814685
 21
351.5940226972208
 31
0.0
  0
LINE
  5
771
330
A
100
AcDbEntity
  8
CHUSIN
100
AcDbLine
 10
183.776311663207
 20
317.5940246045693
 30
0.0
 11
218.9112247500982
 21
317.5940246045693
 31
0.0
  0
LINE
  5
772
330
A
100
AcDbEntity
  8
CHUSIN
100
AcDbLine
 10
218.9112247500982
 20
297.5940246045695
 30
0.0
 11
183.776311663207
 21
297.5940246045695
 31
0.0
  0
LINE
  5
773
330
A
100
AcDbEntity
  8
SOUZOU
100
AcDbLine
 10
178.601148394164
 20
320.5636748731241
 30
0.0
 11
177.4639718804921
 21
318.5940246045693
 31
0.0
  0
LINE
  5
778
330
A
100
AcDbEntity
  8
SOUZOU
100
AcDbLine
 10
178.601148394164
 20
298.6243743360148
 30
0.0
 11
188.4639718804923
 21
298.6243743360148
 31
0.0
  0
LINE
  5
779
330
A
100
AcDbEntity
  8
SOUZOU
100
AcDbLine
 10
188.4639718804923
 20
320.5636748731241
 30
0.0
 11
178.601148394164
 21
320.5636748731241
 31
0.0
  0
LINE
  5
77A
330
A
100
AcDbEntity
  8
SOUZOU
 48
0.5
100
AcDbLine
 10
164.4639718804921
 20
317.0940246045693
 30
0.0
 11
159.4639718804923
 21
317.0940246045693
 31
0.0
  0
LINE
  5
77B
330
A
100
AcDbEntity
  8
SOUZOU
100
AcDbLine
 10
159.4639718804923
 20
317.0940246045693
 30
0.0
 11
159.4639718804923
 21
302.0940246045693
 31
0.0
  0
LINE
  5
77C
330
A
100
AcDbEntity
  8
SOUZOU
 48
0.5
100
AcDbLine
 10
159.4639718804923
 20
302.0940246045693
 30
0.0
 11
164.4639718804921
 21
302.0940246045693
 31
0.0
  0
LINE
  5
77D
330
A
100
AcDbEntity
  8
SOUZOU
100
AcDbLine
 10
178.601148394164
 20
298.6243743360148
 30
0.0
 11
177.4639718804921
 21
300.5940246045693
 31
0.0
  0
LINE
  5
77F
330
A
100
AcDbEntity
  8
SOUZOU
 48
0.7
100
AcDbLine
 10
164.4639718804921
 20
293.5940246045693
 30
0.0
 11
173.4639718804921
 21
293.5940246045693
 31
0.0
  0
LINE
  5
780
330
A
100
AcDbEntity
  8
SOUZOU
 48
0.4
100
AcDbLine
 10
173.4639718804921
 20
319.5940246045693
 30
0.0
 11
177.4639718804921
 21
319.5940246045693
 31
0.0
  0
LINE
  5
781
330
A
100
AcDbEntity
  8
SOUZOU
100
AcDbLine
 10
177.4639718804921
 20
319.5940246045693
 30
0.0
 11
177.4639718804921
 21
299.5940246045693
 31
0.0
  0
LINE
  5
782
330
A
100
AcDbEntity
  8
SOUZOU
 48
0.4
100
AcDbLine
 10
177.4639718804921
 20
299.5940246045693
 30
0.0
 11
173.4639718804921
 21
299.5940246045693
 31
0.0
  0
LINE
  5
783
330
A
100
AcDbEntity
  8
SOUZOU
100
AcDbLine
 10
173.4639718804921
 20
325.5940246045693
 30
0.0
 11
173.4639718804921
 21
293.5940246045693
 31
0.0
  0
LINE
  5
784
330
A
100
AcDbEntity
  8
SOUZOU
 48
0.7
100
AcDbLine
 10
173.4639718804921
 20
325.5940246045693
 30
0.0
 11
164.4639718804921
 21
325.5940246045693
 31
0.0
  0
LINE
  5
785
330
A
100
AcDbEntity
  8
SOUZOU
100
AcDbLine
 10
164.4639718804921
 20
325.5940246045693
 30
0.0
 11
164.4639718804921
 21
293.5940246045693
 31
0.0
  0
LINE
  5
786
330
A
100
AcDbEntity
  8
CHUSIN
100
AcDbLine
 10
157.9151604574557
 20
309.5940246045693
 30
0.0
 11
200.366227892455
 21
309.5940246045695
 31
0.0
  0
POLYLINE
  5
836
330
A
100
AcDbEntity
  8
DEFPOINTS
100
AcDb2dPolyline
 66
     1
 10
0.0
 20
0.0
 30
0.0
 70
     1
  0
VERTEX
  5
12AA
330
836
100
AcDbEntity
  8
DEFPOINTS
100
AcDbVertex
100
AcDb2dVertex
 10
0.0
 20
0.0
 30
0.0
  0
VERTEX
  5
12AB
330
836
100
AcDbEntity
  8
DEFPOINTS
100
AcDbVertex
100
AcDb2dVertex
 10
420.0
 20
0.0
 30
0.0
  0
VERTEX
  5
12AC
330
836
100
AcDbEntity
  8
DEFPOINTS
100
AcDbVertex
100
AcDb2dVertex
 10
420.0
 20
594.0
 30
0.0
  0
VERTEX
  5
12AD
330
836
100
AcDbEntity
  8
DEFPOINTS
100
AcDbVertex
100
AcDb2dVertex
 10
0.0
 20
594.0
 30
0.0
  0
SEQEND
  5
12AE
330
836
100
AcDbEntity
  8
DEFPOINTS
  0
TEXT
  5
861
330
A
100
AcDbEntity
  8
MOJI
100
AcDbText
 10
304.1545551157182
 20
59.05395175282271
 30
0.0
 40
6.0
  1
SOV－600KDC　300Kg×1
 41
0.8
 11
304.1545551157182
 21
65.05395175282271
 31
0.0
100
AcDbText
 73
     3
  0
TEXT
  5
862
330
A
100
AcDbEntity
  8
MOJI
100
AcDbText
 10
304.154555115718
 20
66.55395175282269
 30
0.0
 40
6.0
  1
SOV－400KDC　200Kg×2
 41
0.8
 11
304.154555115718
 21
72.5539517528227
 31
0.0
100
AcDbText
 73
     3
  0
TEXT
  5
863
330
A
100
AcDbEntity
  8
MOJI
100
AcDbText
 10
304.1545551157184
 20
79.05395175282272
 30
0.0
 40
6.0
  1
SOV－600KDC　400Kg×1
 41
0.8
 11
304.1545551157184
 21
85.05395175282272
 31
0.0
100
AcDbText
 73
     3
  0
TEXT
  5
864
330
A
100
AcDbEntity
  8
MOJI
100
AcDbText
 10
304.1545551157182
 20
86.55395175282272
 30
0.0
 40
6.0
  1
SOV－400KDC　400kg×1
 41
0.8
 11
304.1545551157182
 21
92.55395175282272
 31
0.0
100
AcDbText
 73
     3
  0
TEXT
  5
865
330
A
100
AcDbEntity
  8
MOJI
100
AcDbText
 10
264.1545551157183
 20
82.80395175281675
 30
0.0
 40
6.0
  1
片引き扉重量
 41
0.8
 11
264.1545551157183
 21
88.80395175281675
 31
0.0
100
AcDbText
 73
     3
  0
TEXT
  5
866
330
A
100
AcDbEntity
  8
MOJI
100
AcDbText
 10
264.1545551157181
 20
62.80395175281675
 30
0.0
 40
6.0
  1
両引き扉重量
 41
0.8
 11
264.1545551157181
 21
68.80395175281676
 31
0.0
100
AcDbText
 73
     3
  0
DIMENSION
  5
868
330
A
100
AcDbEntity
  8
SUNPOU
100
AcDbDimension
  2
*D1
 10
123.4639718804922
 20
489.1741787211032
 30
0.0
 11
98.46397188049216
 21
493.6741787211031
 31
0.0
 70
    32
  3
SUNPOU_2
100
AcDbAlignedDimension
 13
73.46397188049206
 23
497.9940246045694
 33
0.0
 14
123.4639718804922
 24
489.1741787211032
 34
0.0
100
AcDbRotatedDimension
  0
DIMENSION
  5
875
330
A
100
AcDbEntity
  8
SUNPOU
100
AcDbDimension
  2
*D2
 10
129.4639718804922
 20
489.1741787211032
 30
0.0
 11
126.4639718804922
 21
493.6974240698038
 31
0.0
 70
   160
  3
SUNPOU_2
100
AcDbAlignedDimension
 13
123.4639718804922
 23
489.1741787211032
 33
0.0
 14
129.4639718804922
 24
489.1741787211032
 34
0.0
100
AcDbRotatedDimension
  0
DIMENSION
  5
884
330
A
100
AcDbEntity
  8
SUNPOU
100
AcDbDimension
  2
*D3
 10
169.463971880492
 20
489.1741787211032
 30
0.0
 11
149.463971880492
 21
493.6741787211031
 31
0.0
 70
    32
  3
SUNPOU_2
100
AcDbAlignedDimension
 13
129.4639718804922
 23
489.1741787211032
 33
0.0
 14
169.463971880492
 24
444.5940246045693
 34
0.0
100
AcDbRotatedDimension
  0
DIMENSION
  5
8A9
330
A
100
AcDbEntity
  8
SUNPOU
100
AcDbDimension
  2
*D4
 10
343.4639718804919
 20
487.3416087603081
 30
0.0
 11
335.9639718804919
 21
491.8416087603081
 31
0.0
 70
    32
  3
SUNPOU_2
100
AcDbAlignedDimension
 13
328.4639718804919
 23
504.5940246045693
 33
0.0
 14
343.4639718804919
 24
487.3416087603081
 34
0.0
100
AcDbRotatedDimension
  0
DIMENSION
  5
8B6
330
A
100
AcDbEntity
  8
SUNPOU
100
AcDbDimension
  2
*D5
 10
133.463971880492
 20
220.0639465961468
 30
0.0
 11
103.4639718804919
 21
224.5639465961468
 31
0.0
 70
    32
  3
SUNPOU_2
100
AcDbAlignedDimension
 13
73.46397188049206
 23
276.1940246045694
 33
0.0
 14
133.463971880492
 24
251.1940246045694
 34
0.0
100
AcDbRotatedDimension
  0
DIMENSION
  5
8C3
330
A
100
AcDbEntity
  8
SUNPOU
100
AcDbDimension
  2
*D6
 10
143.463971880492
 20
220.0639465961468
 30
0.0
 11
138.463971880492
 21
224.5639465961468
 31
0.0
 70
    32
  3
SUNPOU_2
100
AcDbAlignedDimension
 13
133.463971880492
 23
251.1940246045694
 33
0.0
 14
143.463971880492
 24
269.5940246045693
 34
0.0
100
AcDbRotatedDimension
  0
DIMENSION
  5
8D2
330
A
100
AcDbEntity
  8
SUNPOU
100
AcDbDimension
  2
*D7
 10
195.4639718804919
 20
220.0639465961468
 30
0.0
 11
163.9122589766393
 21
224.5639465961468
 31
0.0
 70
   160
  3
SUNPOU_2
100
AcDbAlignedDimension
 13
143.463971880492
 23
269.5940246045693
 33
0.0
 14
195.4639718804919
 24
220.0639465961468
 34
0.0
100
AcDbRotatedDimension
  0
DIMENSION
  5
8DF
330
A
100
AcDbEntity
  8
SUNPOU
100
AcDbDimension
  2
*D8
 10
205.4639718804919
 20
220.0639465961468
 30
0.0
 11
200.4639718804919
 21
224.5639465961468
 31
0.0
 70
    32
  3
SUNPOU_2
100
AcDbAlignedDimension
 13
195.4639718804919
 23
220.0639465961468
 33
0.0
 14
205.4639718804919
 24
251.1940246045694
 34
0.0
100
AcDbRotatedDimension
  0
DIMENSION
  5
8EE
330
A
100
AcDbEntity
  8
SUNPOU
100
AcDbDimension
  2
*D9
 10
343.4639718804919
 20
220.0639465961468
 30
0.0
 11
274.4639718804919
 21
224.5639465961468
 31
0.0
 70
    32
  3
SUNPOU_2
100
AcDbAlignedDimension
 13
205.4639718804919
 23
251.1940246045694
 33
0.0
 14
343.4639718804919
 24
251.1940246045694
 34
0.0
100
AcDbRotatedDimension
  0
DIMENSION
  5
8FB
330
A
100
AcDbEntity
  8
SUNPOU
100
AcDbDimension
  2
*D10
 10
343.4639718804919
 20
198.5216719998673
 30
0.0
 11
208.4639718804919
 21
203.0216719998673
 31
0.0
 70
    32
  3
SUNPOU_2
100
AcDbAlignedDimension
 13
73.46397188049206
 23
276.1940246045694
 33
0.0
 14
343.4639718804919
 24
251.1940246045694
 34
0.0
100
AcDbRotatedDimension
  0
DIMENSION
  5
911
330
A
100
AcDbEntity
  8
SUNPOU
100
AcDbDimension
  2
*D11
 10
186.9639718804919
 20
51.73586861195643
 30
0.0
 11
169.463971880492
 21
56.23586861195643
 31
0.0
 70
    32
  3
SUNPOU_2
100
AcDbAlignedDimension
 13
151.963971880492
 23
67.59399999999999
 33
0.0
 14
186.9639718804919
 24
67.59399999999999
 34
0.0
100
AcDbRotatedDimension
  0
DIMENSION
  5
91E
330
A
100
AcDbEntity
  8
SUNPOU
100
AcDbDimension
  2
*D12
 10
84.22901176152491
 20
167.5939999999999
 30
0.0
 11
79.72901176152489
 21
138.7271579329176
 31
0.0
 70
   160
  1
600
  3
SUNPOU_2
100
AcDbAlignedDimension
 13
84.22901176152491
 23
107.5939999999999
 33
0.0
 14
88.60105448154653
 24
167.5939999999999
 34
0.0
 50
90.0
100
AcDbRotatedDimension
  0
DIMENSION
  5
934
330
A
100
AcDbEntity
  8
SUNPOU
100
AcDbDimension
  2
*D13
 10
98.42298229011754
 20
399.5940246045693
 30
0.0
 11
93.92298229011748
 21
324.5940246045693
 31
0.0
 70
    32
  3
SUNPOU_2
100
AcDbAlignedDimension
 13
98.42298229011754
 23
249.5940246045694
 33
0.0
 14
117.017159331662
 24
399.5940246045693
 34
0.0
 50
90.0
100
AcDbRotatedDimension
  0
DIMENSION
  5
941
330
A
100
AcDbEntity
  8
SUNPOU
100
AcDbDimension
  2
*D14
 10
114.0998783290521
 20
362.5940246045693
 30
0.0
 11
109.599878329052
 21
306.0940246045693
 31
0.0
 70
    32
  3
SUNPOU_2
100
AcDbAlignedDimension
 13
114.0998783290521
 23
249.5940246045694
 33
0.0
 14
116.4870893605514
 24
362.5940246045693
 34
0.0
 50
90.0
100
AcDbRotatedDimension
  0
DIMENSION
  5
94E
330
A
100
AcDbEntity
  8
SUNPOU
100
AcDbDimension
  2
*D15
 10
114.0998783290521
 20
377.5940246045693
 30
0.0
 11
109.599878329052
 21
370.0940246045693
 31
0.0
 70
    32
  3
SUNPOU_2
100
AcDbAlignedDimension
 13
116.4870893605514
 23
362.5940246045693
 33
0.0
 14
129.4639718804922
 24
377.5940246045693
 34
0.0
 50
90.0
100
AcDbRotatedDimension
  0
DIMENSION
  5
95B
330
A
100
AcDbEntity
  8
SUNPOU
100
AcDbDimension
  2
*D16
 10
222.0616736514803
 20
269.5940246045693
 30
0.0
 11
217.5616736514803
 21
259.5940246045695
 31
0.0
 70
    32
  3
SUNPOU_2
100
AcDbAlignedDimension
 13
222.0616736514803
 23
249.5940246045694
 33
0.0
 14
207.0639718804919
 24
269.5940246045693
 34
0.0
 50
90.0
100
AcDbRotatedDimension
  0
DIMENSION
  5
968
330
A
100
AcDbEntity
  8
SUNPOU
100
AcDbDimension
  2
*D17
 10
248.6178180343382
 20
127.5940246045694
 30
0.0
 11
244.1178180343381
 21
117.5940123022847
 31
0.0
 70
    32
  3
SUNPOU_2
100
AcDbAlignedDimension
 13
226.9639718804919
 23
107.5939999999999
 33
0.0
 14
195.4639718804919
 24
127.5940246045694
 34
0.0
 50
90.0
100
AcDbRotatedDimension
  0
DIMENSION
  5
975
330
A
100
AcDbEntity
  8
SUNPOU
100
AcDbDimension
  2
*D18
 10
248.6178180343382
 20
269.5940246045693
 30
0.0
 11
244.1178180343381
 21
190.9337535821213
 31
0.0
 70
   160
  3
SUNPOU_2
100
AcDbAlignedDimension
 13
195.4639718804919
 23
127.5940246045694
 33
0.0
 14
207.0639718804919
 24
269.5940246045693
 34
0.0
 50
90.0
100
AcDbRotatedDimension
  0
DIMENSION
  5
98B
330
A
100
AcDbEntity
  8
SUNPOU
100
AcDbDimension
  2
*D19
 10
361.642260375828
 20
274.5940246045693
 30
0.0
 11
357.1422603758278
 21
262.0940246045694
 31
0.0
 70
    32
  3
SUNPOU_2
100
AcDbAlignedDimension
 13
341.8639718804919
 23
249.5940246045694
 33
0.0
 14
341.8639718804918
 24
274.5940246045693
 34
0.0
 50
90.0
100
AcDbRotatedDimension
  0
DIMENSION
  5
998
330
A
100
AcDbEntity
  8
SUNPOU
100
AcDbDimension
  2
*D20
 10
361.642260375828
 20
521.5940246045694
 30
0.0
 11
357.1422603758278
 21
398.0940246045694
 31
0.0
 70
    32
  3
SUNPOU_2
100
AcDbAlignedDimension
 13
341.8639718804918
 23
274.5940246045693
 33
0.0
 14
341.8639718804919
 24
521.5940246045694
 34
0.0
 50
90.0
100
AcDbRotatedDimension
  0
DIMENSION
  5
9A5
330
A
100
AcDbEntity
  8
SUNPOU
100
AcDbDimension
  2
*D21
 10
361.642260375828
 20
524.5940246045694
 30
0.0
 11
366.1361874181416
 21
523.0940246045694
 31
0.0
 70
   160
  3
SUNPOU_2
100
AcDbAlignedDimension
 13
341.8639718804919
 23
521.5940246045694
 33
0.0
 14
341.8639718804919
 24
524.5940246045694
 34
0.0
 50
90.0
100
AcDbRotatedDimension
  0
DIMENSION
  5
9B4
330
A
100
AcDbEntity
  8
SUNPOU
100
AcDbDimension
  2
*D22
 10
361.642260375828
 20
549.5940246045694
 30
0.0
 11
357.142260375828
 21
537.0940246045694
 31
0.0
 70
    32
  3
SUNPOU_2
100
AcDbAlignedDimension
 13
341.8639718804919
 23
524.5940246045694
 33
0.0
 14
341.8639718804919
 24
549.5940246045694
 34
0.0
 50
90.0
100
AcDbRotatedDimension
  0
DIMENSION
  5
9CE
330
A
100
AcDbEntity
  8
SUNPOU
100
AcDbDimension
  2
*D23
 10
377.2674057050155
 20
549.5940246045694
 30
0.0
 11
372.7674057050153
 21
399.5940246045694
 31
0.0
 70
    32
  3
SUNPOU_2
100
AcDbAlignedDimension
 13
341.8639718804919
 23
249.5940246045694
 33
0.0
 14
341.8639718804919
 24
549.5940246045694
 34
0.0
 50
90.0
100
AcDbRotatedDimension
  0
LEADER
  5
9DE
330
A
100
AcDbEntity
  8
HIKIDASI
100
AcDbLeader
  3
SUNPOU_2
 73
     0
 74
     0
 75
     1
 40
5.0
 41
34.93333333333333
 76
     3
 10
87.56397188049273
 20
541.9940246045702
 30
0.0
 10
105.7005565199772
 20
559.9749166860099
 30
0.0
 10
110.7005565199772
 20
559.9749166860099
 30
0.0
340
9DF
1001
ACAD
1000
DSTYLE
1002
{
1070
     5
1000
OPEN30
1070
    77
1070
     1
1070
   147
1040
1.0
1070
   342
1005
823
1002
}
1000
LEANOF
1010
0.0
1020
0.0
1030
0.0
1000
LEANOF
1010
0.0
1020
0.0
1030
0.0
  0
MTEXT
  5
9DF
330
A
100
AcDbEntity
  8
HIKIDASI
100
AcDbMText
 10
112.7005565199772
 20
561.9749166860099
 30
0.0
 40
5.0
 41
0.0
 71
     7
 72
     1
  1
L-50×50×6
  7
SUNPOU
1001
ACAD
1000
MTEXTBEGIN
1070
    73
1070
     1
1070
    44
1040
1.0
1070
    74
1070
     0
1000
MTEXTEND
1000
MTEXTBEGIN
1070
    73
1070
     1
1070
    44
1040
1.0
1070
    74
1070
     0
1000
MTEXTEND
  0
LEADER
  5
9E2
330
A
100
AcDbEntity
  8
HIKIDASI
100
AcDbLeader
  3
SUNPOU_2
 73
     0
 74
     0
 75
     1
 40
5.0
 41
26.79999999999999
 76
     3
 10
85.25996451901711
 20
509.6634053741844
 30
0.0
 10
153.0101348447485
 20
534.1474773700456
 30
0.0
 10
158.0101348447485
 20
534.1474773700456
 30
0.0
340
9E3
1001
ACAD
1000
DSTYLE
1002
{
1070
     5
1000
OPEN30
1070
    77
1070
     1
1070
   147
1040
1.0
1070
   342
1005
823
1002
}
1000
LEANOF
1010
0.0
1020
0.0
1030
0.0
1000
LEANOF
1010
0.0
1020
0.0
1030
0.0
  0
MTEXT
  5
9E3
330
A
100
AcDbEntity
  8
HIKIDASI
100
AcDbMText
 10
160.0101348447485
 20
536.1474773700456
 30
0.0
 40
5.0
 41
0.0
 71
     7
 72
     1
  1
FB-6×50
  7
SUNPOU
1001
ACAD
1000
MTEXTBEGIN
1070
    73
1070
     1
1070
    44
1040
1.0
1070
    74
1070
     0
1000
MTEXTEND
1000
MTEXTBEGIN
1070
    73
1070
     1
1070
    44
1040
1.0
1070
    74
1070
     0
1000
MTEXTEND
  0
LEADER
  5
9E4
330
A
100
AcDbEntity
  8
HIKIDASI
100
AcDbLeader
  3
SUNPOU_2
 76
     2
 10
126.4573026163079
 20
507.5398312454582
 30
0.0
 10
153.0101348447485
 20
534.1474773700456
 30
0.0
1001
ACAD
1000
DSTYLE
1002
{
1070
     5
1000
OPEN30
1070
    77
1070
     1
1070
   147
1040
1.0
1070
   342
1005
823
1002
}
1000
LEANOF
1010
0.0
1020
0.0
1030
0.0
1000
LEANOF
1010
0.0
1020
0.0
1030
0.0
  0
LEADER
  5
9E5
330
A
100
AcDbEntity
  8
HIKIDASI
100
AcDbLeader
  3
SUNPOU_2
 73
     0
 75
     1
 40
13.33333333333333
 41
37.06666666666665
 76
     3
 10
103.4639718804919
 20
167.5939999999999
 30
0.0
 10
89.9866413407601
 20
181.0162502054981
 30
0.0
 10
84.9866413407601
 20
181.0162502054981
 30
0.0
340
9E6
213
0.0
223
8.582369715786626
233
0.0
1001
ACAD
1000
DSTYLE
1002
{
1070
     5
1000
OPEN30
1070
    77
1070
     1
1070
   147
1040
1.0
1070
   342
1005
823
1002
}
1000
LEANOF
1010
0.0
1020
8.582369715786626
1030
0.0
1000
LEANOF
1010
0.0
1020
8.582369715786626
1030
0.0
  0
MTEXT
  5
9E6
330
A
100
AcDbEntity
  8
HIKIDASI
100
AcDbMText
 10
82.98664134076011
 20
174.4338804897115
 30
0.0
 40
5.0
 41
0.0
 71
     9
 72
     1
  1
補助光電スイッチ\P取付穴φ12
  7
SUNPOU
1001
ACAD
1000
MTEXTBEGIN
1070
    73
1070
     1
1070
    44
1040
1.0
1070
    74
1070
     0
1000
MTEXTEND
1000
MTEXTBEGIN
1070
    73
1070
     1
1070
    44
1040
1.0
1070
    74
1070
     0
1000
MTEXTEND
  0
LEADER
  5
9EA
330
A
100
AcDbEntity
  8
HIKIDASI
100
AcDbLeader
  3
SUNPOU_2
 73
     0
 74
     0
 75
     1
 40
5.0
 41
21.33333333333333
 76
     3
 10
175.4639718804919
 20
251.0940246045694
 30
0.0
 10
208.357745404339
 20
232.1646186741773
 30
0.0
 10
213.3577454043389
 20
232.1646186741773
 30
0.0
340
9EB
1001
ACAD
1000
DSTYLE
1002
{
1070
     5
1000
OPEN30
1070
    77
1070
     1
1070
   147
1040
1.0
1070
   342
1005
823
1002
}
1000
LEANOF
1010
0.0
1020
0.0
1030
0.0
1000
LEANOF
1010
0.0
1020
0.0
1030
0.0
  0
MTEXT
  5
9EB
330
A
100
AcDbEntity
  8
HIKIDASI
100
AcDbMText
 10
215.3577454043389
 20
234.1646186741773
 30
0.0
 40
5.0
 41
0.0
 71
     7
 72
     1
  1
BT-M12
  7
SUNPOU
1001
ACAD
1000
MTEXTBEGIN
1070
    73
1070
     1
1070
    44
1040
1.0
1070
    74
1070
     0
1000
MTEXTEND
1000
MTEXTBEGIN
1070
    73
1070
     1
1070
    44
1040
1.0
1070
    74
1070
     0
1000
MTEXTEND
  0
LEADER
  5
9ED
330
A
100
AcDbEntity
  8
HIKIDASI
100
AcDbLeader
  3
SUNPOU_2
 73
     0
 74
     0
 75
     1
 40
13.33333333333333
 41
36.53333333333333
 76
     3
 10
159.884320247698
 20
330.647448392029
 30
0.0
 10
225.5279624428708
 20
292.4473972667382
 30
0.0
 10
230.5279624428708
 20
292.4473972667382
 30
0.0
340
9EE
213
0.0
223
8.415364442722136
233
0.0
1001
ACAD
1000
DSTYLE
1002
{
1070
     5
1000
OPEN30
1070
    77
1070
     1
1070
   147
1040
1.0
1070
   342
1005
823
1002
}
1000
LEANOF
1010
0.0
1020
8.415364442722136
1030
0.0
1000
LEANOF
1010
0.0
1020
8.415364442722136
1030
0.0
  0
MTEXT
  5
9EE
330
A
100
AcDbEntity
  8
HIKIDASI
100
AcDbMText
 10
232.5279624428708
 20
286.0320328240161
 30
0.0
 40
5.0
 41
0.0
 71
     7
 72
     1
  1
スチールアングル\P(サッシ工事)
  7
SUNPOU
1001
ACAD
1000
MTEXTBEGIN
1070
    73
1070
     1
1070
    44
1040
1.0
1070
    74
1070
     0
1000
MTEXTEND
1000
MTEXTBEGIN
1070
    73
1070
     1
1070
    44
1040
1.0
1070
    74
1070
     0
1000
MTEXTEND
  0
LEADER
  5
9F2
330
A
100
AcDbEntity
  8
HIKIDASI
100
AcDbLeader
  3
SUNPOU_2
 73
     0
 74
     0
 75
     1
 40
13.33333333333333
 41
28.0
 76
     3
 10
173.9639718804921
 20
341.5940246045693
 30
0.0
 10
224.1212428904235
 20
312.6280408978098
 30
0.0
 10
229.1212428904235
 20
312.6280408978098
 30
0.0
340
9F3
213
0.0
223
8.36311425003123
233
0.0
1001
ACAD
1000
DSTYLE
1002
{
1070
     5
1000
OPEN30
1070
    77
1070
     1
1070
   147
1040
1.0
1070
   342
1005
823
1002
}
1000
LEANOF
1010
0.0
1020
8.36311425003123
1030
0.0
1000
LEANOF
1010
0.0
1020
8.36311425003123
1030
0.0
  0
MTEXT
  5
9F3
330
A
100
AcDbEntity
  8
HIKIDASI
100
AcDbMText
 10
231.1212428904235
 20
306.2649266477786
 30
0.0
 40
5.0
 41
0.0
 71
     7
 72
     1
  1
磨き鋼\P(サッシ工事)
  7
SUNPOU
1001
ACAD
1000
MTEXTBEGIN
1070
    73
1070
     1
1070
    44
1040
1.0
1070
    74
1070
     0
1000
MTEXTEND
1000
MTEXTBEGIN
1070
    73
1070
     1
1070
    44
1040
1.0
1070
    74
1070
     0
1000
MTEXTEND
  0
DIMENSION
  5
9F5
330
A
100
AcDbEntity
  8
SUNPOU
100
AcDbDimension
  2
*D24
 10
294.4639718804921
 20
522.6229822901176
 30
0.0
 11
211.9639718804921
 21
527.1229822901176
 31
0.0
 70
    32
  1
A
  3
SUNPOU_2
100
AcDbAlignedDimension
 13
129.4639718804922
 23
522.6229822901176
 33
0.0
 14
294.4639718804921
 24
449.5940246045694
 34
0.0
100
AcDbRotatedDimension
  0
LEADER
  5
A0C
330
A
100
AcDbEntity
  8
HIKIDASI
100
AcDbLeader
  3
SUNPOU_2
 73
     0
 75
     1
 40
13.33333333333333
 41
32.13333333333333
 76
     3
 10
316.3639718804919
 20
436.7626847639723
 30
0.0
 10
289.6909922685624
 20
463.5419076856928
 30
0.0
 10
284.6909922685624
 20
463.5419076856928
 30
0.0
340
A0D
213
0.0
223
8.344453496296639
233
0.0
1001
ACAD
1000
DSTYLE
1002
{
1070
     5
1000
OPEN30
1070
    77
1070
     1
1070
   147
1040
1.0
1070
   342
1005
823
1002
}
1000
LEANOF
1010
0.0
1020
8.344453496296639
1030
0.0
1000
LEANOF
1010
0.0
1020
8.344453496296639
1030
0.0
  0
MTEXT
  5
A0D
330
A
100
AcDbEntity
  8
HIKIDASI
100
AcDbMText
 10
282.6909922685624
 20
457.1974541893961
 30
0.0
 40
5.0
 41
0.0
 71
     9
 72
     1
  1
FB-4.5×50\P（取外し可）
  7
SUNPOU
1001
ACAD
1000
MTEXTBEGIN
1070
    73
1070
     1
1070
    44
1040
1.0
1070
    74
1070
     0
1000
MTEXTEND
1000
MTEXTBEGIN
1070
    73
1070
     1
1070
    44
1040
1.0
1070
    74
1070
     0
1000
MTEXTEND
  0
TEXT
  5
A16
330
A
100
AcDbEntity
  8
MOJI
100
AcDbText
 10
374.1583730037191
 20
110.6939999999999
 30
0.0
 40
5.0
  1
Ｆ.Ｌ
 41
0.8
  7
0_8
 11
374.1583730037191
 21
113.1939999999999
 31
0.0
100
AcDbText
 73
     2
  0
LINE
  5
A1C
330
A
100
AcDbEntity
  8
03
100
AcDbLine
 10
133.463971880492
 20
153.0786737208986
 30
0.0
 11
133.463971880492
 21
182.5940246045693
 31
0.0
  0
POLYLINE
  5
B18
330
A
100
AcDbEntity
  8
SAISEN
100
AcDb2dPolyline
 66
     1
 10
0.0
 20
0.0
 30
0.0
 70
     1
  0
VERTEX
  5
12AF
330
B18
100
AcDbEntity
  8
SAISEN
100
AcDbVertex
100
AcDb2dVertex
 10
41.07151359919324
 20
203.9438275711353
 30
0.0
  0
VERTEX
  5
12B0
330
B18
100
AcDbEntity
  8
SAISEN
100
AcDbVertex
100
AcDb2dVertex
 10
51.07151359919324
 20
203.9438275711353
 30
0.0
  0
VERTEX
  5
12B1
330
B18
100
AcDbEntity
  8
SAISEN
100
AcDbVertex
100
AcDb2dVertex
 10
51.07151359919324
 20
233.9438275711353
 30
0.0
  0
VERTEX
  5
12B2
330
B18
100
AcDbEntity
  8
SAISEN
100
AcDbVertex
100
AcDb2dVertex
 10
41.07151359919324
 20
233.9438275711353
 30
0.0
  0
SEQEND
  5
12B3
330
B18
100
AcDbEntity
  8
SAISEN
  0
MTEXT
  5
B19
330
A
100
AcDbEntity
  8
MOJI
100
AcDbMText
 10
46.07151359919324
 20
218.9438275711353
 30
0.0
 40
6.0
 41
10.0
 71
     5
 72
     1
  1
外\P\P部
  7
0_8
1001
ACAD
1000
MTEXTBEGIN
1070
    73
1070
     1
1070
    44
1040
1.0
1070
    74
1070
     0
1000
MTEXTEND
1000
MTEXTBEGIN
1070
    73
1070
     1
1070
    44
1040
1.0
1070
    74
1070
     0
1000
MTEXTEND
  0
MTEXT
  5
B1A
330
A
100
AcDbEntity
  8
MOJI
100
AcDbMText
 10
373.9918593822735
 20
218.9438275711353
 30
0.0
 40
6.0
 41
10.0
 71
     5
 72
     1
  1
内\P\P部
  7
0_8
1001
ACAD
1000
MTEXTBEGIN
1070
    73
1070
     1
1070
    44
1040
1.0
1070
    74
1070
     0
1000
MTEXTEND
1000
MTEXTBEGIN
1070
    73
1070
     1
1070
    44
1040
1.0
1070
    74
1070
     0
1000
MTEXTEND
  0
POLYLINE
  5
B1B
330
A
100
AcDbEntity
  8
SAISEN
100
AcDb2dPolyline
 66
     1
 10
0.0
 20
0.0
 30
0.0
 70
     1
  0
VERTEX
  5
12B4
330
B1B
100
AcDbEntity
  8
SAISEN
100
AcDbVertex
100
AcDb2dVertex
 10
368.9918593822735
 20
203.9438275711353
 30
0.0
  0
VERTEX
  5
12B5
330
B1B
100
AcDbEntity
  8
SAISEN
100
AcDbVertex
100
AcDb2dVertex
 10
378.9918593822735
 20
203.9438275711353
 30
0.0
  0
VERTEX
  5
12B6
330
B1B
100
AcDbEntity
  8
SAISEN
100
AcDbVertex
100
AcDb2dVertex
 10
378.9918593822735
 20
233.9438275711353
 30
0.0
  0
VERTEX
  5
12B7
330
B1B
100
AcDbEntity
  8
SAISEN
100
AcDbVertex
100
AcDb2dVertex
 10
368.9918593822735
 20
233.9438275711353
 30
0.0
  0
SEQEND
  5
12B8
330
B1B
100
AcDbEntity
  8
SAISEN
  0
ARC
  5
BC5
330
A
100
AcDbEntity
  8
04
100
AcDbCircle
 10
161.2563856591426
 20
254.9970604628218
 30
0.0
 40
3.903035858252423
100
AcDbArc
 50
225.3611192140497
 51
270.0
  0
ARC
  5
BC6
330
A
100
AcDbEntity
  8
04
100
AcDbCircle
 10
177.6715581018413
 20
254.9970604628218
 30
0.0
 40
3.903035858252428
100
AcDbArc
 50
270.0
 51
314.6388807859502
  0
LINE
  5
ED1
330
A
100
AcDbEntity
  8
KAKURE
100
AcDbLine
 10
109.4639718804919
 20
282.1940246045693
 30
0.0
 11
109.4639718804919
 21
249.5940246045694
 31
0.0
  0
LINE
  5
ED2
330
A
100
AcDbEntity
  8
KAKURE
100
AcDbLine
 10
97.46397188049208
 20
282.1940246045693
 30
0.0
 11
97.46397188049208
 21
249.5940246045694
 31
0.0
  0
DIMENSION
  5
ED3
330
A
100
AcDbEntity
  8
SUNPOU
100
AcDbDimension
  2
*D25
 10
109.4639718804919
 20
238.1381554967645
 30
0.0
 11
103.4639718804919
 21
242.8653803982141
 31
0.0
 70
   160
  1
φ12
  3
SUNPOU_2
100
AcDbAlignedDimension
 13
97.46397188049208
 23
249.5940246045694
 33
0.0
 14
109.4639718804919
 24
249.5940246045694
 34
0.0
100
AcDbRotatedDimension
  0
INSERT
  5
F13
330
A
100
AcDbEntity
  8
06
  6
CONTINUOUS
100
AcDbBlockReference
  2
*X26
 10
0.0
 20
0.0
 30
0.0
1001
ACAD
1000
HATCH
1002
{
1070
    19
1000
ANSI31
1040
15.0
1040
0.0
1000
R14_HATCH_DATA
1000
F13
1011
1.0
1021
0.0
1031
0.0
1011
0.0
1021
1.0
1031
0.0
1011
0.0
1021
0.0
1031
1.0
1040
0.0
1010
0.0
1020
0.0
1030
1.0
1000
ANSI31
1070
     0
1070
     0
1071
        8
1071
        7
1070
     0
1070
     1
1071
        4
1040
109.4639718804919
1040
270.6940246045695
1040
97.46397188049208
1040
270.6940246045693
1040
97.46397188049208
1040
251.1940246045694
1040
109.4639718804919
1040
251.1940246045694
1071
        0
1071
        7
1070
     0
1070
     1
1071
        4
1040
109.4639718804919
1040
251.1940246045694
1040
97.46397188049208
1040
251.1940246045694
1040
97.46397188049206
1040
249.5940246045694
1040
109.4639718804919
1040
249.5940246045694
1071
        0
1071
        7
1070
     0
1070
     1
1071
        4
1040
109.4639718804919
1040
272.9940246045694
1040
97.46397188049208
1040
272.9940246045694
1040
97.46397188049208
1040
270.6940246045693
1040
109.4639718804919
1040
270.6940246045693
1071
        0
1071
        7
1070
     0
1070
     1
1071
        4
1040
109.4639718804919
1040
274.5940246045693
1040
97.46397188049208
1040
274.5940246045693
1040
97.46397188049208
1040
272.9940246045694
1040
109.4639718804919
1040
272.9940246045694
1071
        0
1071
        7
1070
     0
1070
     1
1071
        4
1040
109.4639718804919
1040
276.1940246045694
1040
97.46397188049208
1040
276.1940246045694
1040
97.46397188049208
1040
274.5940246045693
1040
109.4639718804919
1040
274.5940246045693
1071
        0
1071
        7
1070
     0
1070
     1
1071
        4
1040
109.4639718804919
1040
282.1940246045693
1040
108.706562560929
1040
282.1940246045693
1040
102.7065625609292
1040
276.1940246045694
1040
109.4639718804919
1040
276.1940246045694
1071
        0
1071
        7
1070
     0
1070
     1
1071
        4
1040
108.706562560929
1040
282.1940246045693
1040
106.706562560929
1040
282.1940246045693
1040
100.7065625609292
1040
276.1940246045694
1040
102.7065625609292
1040
276.1940246045694
1071
        0
1071
        7
1070
     0
1070
     1
1071
        4
1040
106.7065625609292
1040
282.1940246045693
1040
97.46397188049208
1040
282.1940246045695
1040
97.46397188049208
1040
276.1940246045694
1040
100.7065625609292
1040
276.1940246045694
1071
        0
1070
     0
1070
     1
1040
0.0
1040
15.0
1070
     0
1070
     1
1040
0.7853981633974483
1040
0.0
1040
0.0
1040
-1.325825214724775
1040
1.325825214724775
1070
     0
1040
0.0896233748729545
1071
        8
1040
107.2150473548864
1040
259.8247038945292
1040
0.0
1040
100.3111920445082
1040
249.697261643295
1040
0.0
1040
105.1528581167559
1040
272.19272937846
1040
0.0
1040
106.6770852579909
1040
273.3578331068288
1040
0.0
1040
106.1391231610957
1040
275.6880424275915
1040
0.0
1040
105.3321788157211
1040
277.2116393240699
1040
0.0
1040
104.8838758682765
1040
278.6456138605332
1040
0.0
1040
100.9388156909174
1040
278.8248604445882
1040
0.0
1002
}
  0
LINE
  5
F63
330
A
100
AcDbEntity
  8
06
100
AcDbLine
 10
258.4639718804929
 20
354.5940246045697
 30
0.0
 11
261.4639718804923
 21
354.5940246045688
 31
0.0
  0
LINE
  5
F66
330
A
100
AcDbEntity
  8
06
100
AcDbLine
 10
277.4639718804925
 20
354.5940246045693
 30
0.0
 11
279.4639718804925
 21
354.59402460457
 31
0.0
  0
LINE
  5
F69
330
A
100
AcDbEntity
  8
06
100
AcDbLine
 10
272.9639718804921
 20
370.5940246045693
 30
0.0
 11
265.9639718804924
 21
370.5940246045693
 31
0.0
  0
LINE
  5
F6A
330
A
100
AcDbEntity
  8
06
100
AcDbLine
 10
261.4639718804921
 20
354.5940246045693
 30
0.0
 11
265.9639718804924
 21
368.8662012152037
 31
0.0
  0
LINE
  5
F6B
330
A
100
AcDbEntity
  8
06
100
AcDbLine
 10
277.4639718804919
 20
354.5940246045693
 30
0.0
 11
272.9639718804921
 21
368.8662012152037
 31
0.0
  0
LINE
  5
FA3
330
A
100
AcDbEntity
  8
04
100
AcDbLine
 10
136.9639718804922
 20
355.0884780347451
 30
0.0
 11
136.9639718804922
 21
354.5940246045693
 31
0.0
  0
LINE
  5
FA5
330
A
100
AcDbEntity
  8
04
100
AcDbLine
 10
180.433622149047
 20
288.0940246045694
 30
0.0
 11
181.4639718804923
 21
288.0940246045693
 31
0.0
  0
LINE
  5
FA7
330
A
100
AcDbEntity
  8
04
100
AcDbLine
 10
180.4139718804919
 20
261.0940246045693
 30
0.0
 11
181.4639718804919
 21
261.0940246045693
 31
0.0
  0
LINE
  5
FA8
330
A
100
AcDbEntity
  8
04
100
AcDbLine
 10
205.9639709268179
 20
329.5940246045693
 30
0.0
 11
205.9639709268179
 21
328.5636748731241
 31
0.0
  0
LINE
  5
FA9
330
A
100
AcDbEntity
  8
04
100
AcDbLine
 10
205.9639709268179
 20
286.6243743360147
 30
0.0
 11
205.9639709268179
 21
285.5940246045694
 31
0.0
  0
LINE
  5
FAA
330
A
100
AcDbEntity
  8
04
100
AcDbLine
 10
216.9639706883994
 20
306.5940246045693
 30
0.0
 11
216.3866198335256
 21
307.5940246045695
 31
0.0
  0
LINE
  5
1026
330
A
100
AcDbEntity
  8
KAKURE
100
AcDbLine
 10
129.4637229127497
 20
367.5940246045693
 30
0.0
 11
123.4637229127497
 21
367.5940246045693
 31
0.0
  0
LINE
  5
1028
330
A
100
AcDbEntity
  8
KAKURE
100
AcDbLine
 10
129.4637229127498
 20
357.5940246045693
 30
0.0
 11
123.4637229127498
 21
357.5940246045693
 31
0.0
  0
LEADER
  5
1029
330
A
100
AcDbEntity
  8
HIKIDASI
100
AcDbLeader
  3
SUNPOU_2
 73
     0
 75
     1
 40
5.0
 41
23.06666666666667
 76
     3
 10
123.4637229127498
 20
362.5940246045693
 30
0.0
 10
84.67149748465111
 20
401.353845328171
 30
0.0
 10
79.67149748465111
 20
401.353845328171
 30
0.0
340
102A
1001
ACAD
1000
DSTYLE
1002
{
1070
     5
1000
OPEN30
1070
    77
1070
     1
1070
   147
1040
1.0
1070
   342
1005
823
1002
}
1000
LEANOF
1010
0.0
1020
0.0
1030
0.0
1000
LEANOF
1010
0.0
1020
0.0
1030
0.0
  0
MTEXT
  5
102A
330
A
100
AcDbEntity
  8
HIKIDASI
100
AcDbMText
 10
77.67149748465111
 20
403.353845328171
 30
0.0
 40
5.0
 41
0.0
 71
     9
 72
     1
  1
M10タップ
  7
SUNPOU
1001
ACAD
1000
MTEXTBEGIN
1070
    73
1070
     1
1070
    44
1040
1.0
1070
    74
1070
     0
1000
MTEXTEND
1000
MTEXTBEGIN
1070
    73
1070
     1
1070
    44
1040
1.0
1070
    74
1070
     0
1000
MTEXTEND
  0
LINE
  5
103C
330
A
100
AcDbEntity
  8
KAKURE
100
AcDbLine
 10
129.4637229127497
 20
366.8940246045693
 30
0.0
 11
123.4637229127497
 21
366.8940246045693
 31
0.0
  0
LINE
  5
103D
330
A
100
AcDbEntity
  8
KAKURE
100
AcDbLine
 10
129.4637229127498
 20
358.2940246045692
 30
0.0
 11
123.4637229127498
 21
358.2940246045692
 31
0.0
  0
TEXT
  5
1088
330
A
100
AcDbEntity
  8
MOJI
100
AcDbText
 10
275.007211940694
 20
302.0969971626742
 30
0.0
 40
5.0
  1

 41
0.8
  7
0_8
 11
275.007211940694
 21
307.0969971626742
 31
0.0
100
AcDbText
 73
     3
  0
MTEXT
  5
1089
330
A
100
AcDbEntity
  8
MOJI
100
AcDbMText
 10
280.4510058076443
 20
294.4847002656141
 30
0.0
 40
5.0
 41
0.0
 71
     7
 72
     1
  1
扉重量によって\P変更あり
  7
SUNPOU
1001
ACAD
1000
MTEXTBEGIN
1070
    73
1070
     1
1070
    44
1040
1.0
1070
    74
1070
     0
1000
MTEXTEND
1000
MTEXTBEGIN
1070
    73
1070
     1
1070
    44
1040
1.0
1070
    74
1070
     0
1000
MTEXTEND
  0
ARC
  5
108E
330
A
100
AcDbEntity
  8
SAISEN
100
AcDbCircle
 10
254.691545910855
 20
302.537719082274
 30
0.0
 40
21.95956659277483
100
AcDbArc
 50
319.7991762442416
 51
40.20082375575841
  0
CIRCLE
  5
10A9
330
A
100
AcDbEntity
  8
SAISEN
100
AcDbCircle
 10
391.0976380784321
 20
49.5430264122316
 30
0.0
 40
5.0
  0
TEXT
  5
10AA
330
A
100
AcDbEntity
  8
MOJI
100
AcDbText
 10
388.0488190392161
 20
45.27151320611588
 30
0.0
 40
8.0
  1
Ｓ
 41
0.8
  7
0_8
 11
388.0488190392161
 21
53.27151320611588
 31
0.0
100
AcDbText
 73
     3
  0
LINE
  5
10D0
330
A
100
AcDbEntity
  8
06
100
AcDbLine
 10
161.526471880492
 20
117.5940246045694
 30
0.0
 11
177.4014718804919
 21
117.5940246045694
 31
0.0
  0
LINE
  5
10EF
330
A
100
AcDbEntity
  8
06
100
AcDbLine
 10
161.526471880492
 20
117.5940246045694
 30
0.0
 11
161.526471880492
 21
127.5940246045694
 31
0.0
  0
LINE
  5
10F0
330
A
100
AcDbEntity
  8
06
100
AcDbLine
 10
177.4014718804919
 20
117.5940246045694
 30
0.0
 11
177.4014718804919
 21
127.5940246045694
 31
0.0
  0
LINE
  5
115F
330
A
100
AcDbEntity
  8
06
100
AcDbLine
 10
161.526471880492
 20
117.5940246045694
 30
0.0
 11
160.3717713421126
 21
115.5940246045694
 31
0.0
  0
LINE
  5
1160
330
A
100
AcDbEntity
  8
06
100
AcDbLine
 10
177.4014718804919
 20
117.5940246045694
 30
0.0
 11
178.5561724188713
 21
115.5940246045694
 31
0.0
  0
LINE
  5
116E
330
A
100
AcDbEntity
  8
06
100
AcDbLine
 10
157.995221880492
 20
115.5940246045695
 30
0.0
 11
180.9327218804919
 21
115.5940246045695
 31
0.0
  0
ARC
  5
1177
330
A
100
AcDbEntity
  8
06
100
AcDbCircle
 10
202.3018191027149
 20
97.55555045333501
 30
0.0
 40
47.8378626938647
100
AcDbArc
 50
157.8473656874778
 51
202.0531624980745
  0
ARC
  5
1178
330
A
100
AcDbEntity
  8
06
100
AcDbCircle
 10
136.6261246582695
 20
97.5555504533349
 30
0.0
 40
47.83786269386427
100
AcDbArc
 50
337.9468375019253
 51
22.15263431252246
  0
LINE
  5
1179
330
A
100
AcDbEntity
  8
06
100
AcDbLine
 10
157.963971880492
 20
79.59402460456942
 30
0.0
 11
180.9639718804919
 21
79.59402460456942
 31
0.0
  0
LINE
  5
117B
330
A
100
AcDbEntity
  8
06
100
AcDbLine
 10
157.963971880492
 20
78.59402460456944
 30
0.0
 11
157.963971880492
 21
75.59402460456944
 31
0.0
  0
LINE
  5
117C
330
A
100
AcDbEntity
  8
06
100
AcDbLine
 10
180.9639718804919
 20
78.59402460456944
 30
0.0
 11
180.9639718804919
 21
75.59402460456944
 31
0.0
  0
LINE
  5
117D
330
A
100
AcDbEntity
  8
06
100
AcDbLine
 10
158.463971880492
 20
75.09402460456944
 30
0.0
 11
180.4639718804919
 21
75.09402460456944
 31
0.0
  0
LINE
  5
117E
330
A
100
AcDbEntity
  8
06
100
AcDbLine
 10
158.463971880492
 20
79.09402460456942
 30
0.0
 11
180.4639718804919
 21
79.09402460456942
 31
0.0
  0
ARC
  5
117F
330
A
100
AcDbEntity
  8
06
100
AcDbCircle
 10
180.4639718804919
 20
78.59402460456944
 30
0.0
 40
0.5
100
AcDbArc
 50
0.0
 51
90.0
  0
ARC
  5
1180
330
A
100
AcDbEntity
  8
06
100
AcDbCircle
 10
180.4639718804919
 20
75.59402460456944
 30
0.0
 40
0.5
100
AcDbArc
 50
270.0
 51
0.0
  0
ARC
  5
1181
330
A
100
AcDbEntity
  8
06
100
AcDbCircle
 10
158.463971880492
 20
78.59402460456944
 30
0.0
 40
0.5
100
AcDbArc
 50
90.0
 51
180.0
  0
ARC
  5
1182
330
A
100
AcDbEntity
  8
06
100
AcDbCircle
 10
158.463971880492
 20
75.59402460456944
 30
0.0
 40
0.5
100
AcDbArc
 50
180.0
 51
270.0
  0
MTEXT
  5
1258
330
A
100
AcDbEntity
  8
MOJI
100
AcDbMText
 10
360.0
 20
28.50000000000011
 30
0.0
 40
7.0
 41
49.99999999999994
 71
     5
 72
     1
  1
たて断面図　
  7
0_80
1001
ACAD
1000
MTEXTBEGIN
1070
    73
1070
     1
1070
    44
1040
1.0
1070
    74
1070
     0
1000
MTEXTEND
1000
MTEXTBEGIN
1070
    73
1070
     1
1070
    44
1040
1.0
1070
    74
1070
     0
1000
MTEXTEND
  0
MTEXT
  5
1259
330
A
100
AcDbEntity
  8
MOJI
100
AcDbMText
 10
309.9999999999997
 20
29.0
 30
0.0
 40
7.0
 41
50.0
 71
     5
 72
     1
  1
図番７－３
  7
0_80
1001
ACAD
1000
MTEXTBEGIN
1070
    73
1070
     1
1070
    44
1040
1.0
1070
    74
1070
     0
1000
MTEXTEND
1000
MTEXTBEGIN
1070
    73
1070
     1
1070
    44
1040
1.0
1070
    74
1070
     0
1000
MTEXTEND
  0
MTEXT
  5
125A
330
A
100
AcDbEntity
  8
MOJI
100
AcDbMText
 10
255.000000000003
 20
29.00000000000011
 30
0.0
 40
7.0
 41
60.0
 71
     5
 72
     1
  1
片引き又は両引き
  7
0_80
1001
ACAD
1000
MTEXTBEGIN
1070
    73
1070
     1
1070
    44
1040
1.0
1070
    74
1070
     0
1000
MTEXTEND
1000
MTEXTBEGIN
1070
    73
1070
     1
1070
    44
1040
1.0
1070
    74
1070
     0
1000
MTEXTEND
  0
POLYLINE
  5
125B
330
A
100
AcDbEntity
  8
SAISEN
100
AcDb2dPolyline
 66
     1
 10
0.0
 20
0.0
 30
0.0
 70
     1
  0
VERTEX
  5
12B9
330
125B
100
AcDbEntity
  8
SAISEN
100
AcDbVertex
100
AcDb2dVertex
 10
35.0
 20
17.0
 30
0.0
  0
VERTEX
  5
12BA
330
125B
100
AcDbEntity
  8
SAISEN
100
AcDbVertex
100
AcDb2dVertex
 10
385.0
 20
17.0
 30
0.0
  0
VERTEX
  5
12BB
330
125B
100
AcDbEntity
  8
SAISEN
100
AcDbVertex
100
AcDb2dVertex
 10
385.0
 20
41.00000000000022
 30
0.0
  0
VERTEX
  5
12BC
330
125B
100
AcDbEntity
  8
SAISEN
100
AcDbVertex
100
AcDb2dVertex
 10
35.0
 20
41.00000000000022
 30
0.0
  0
SEQEND
  5
12BD
330
125B
100
AcDbEntity
  8
SAISEN
  0
MTEXT
  5
125C
330
A
100
AcDbEntity
  8
MOJI
100
AcDbMText
 10
90.0
 20
29.00000000000011
 30
0.0
 40
7.0
 41
110.0
 71
     5
 72
     1
  1
重量ドア納り
  7
0_8
1001
ACAD
1000
MTEXTBEGIN
1070
    73
1070
     1
1070
    44
1040
1.0
1070
    74
1070
     0
1000
MTEXTEND
1000
MTEXTBEGIN
1070
    73
1070
     1
1070
    44
1040
1.0
1070
    74
1070
     0
1000
MTEXTEND
  0
LINE
  5
125D
330
A
100
AcDbEntity
  8
SAISEN
100
AcDbLine
 10
145.0
 20
41.00000000000022
 30
0.0
 11
145.0
 21
17.0
 31
0.0
  0
MTEXT
  5
125E
330
A
100
AcDbEntity
  8
MOJI
100
AcDbMText
 10
185.0
 20
29.00000000000011
 30
0.0
 40
7.0
 41
80.0
 71
     5
 72
     1
  1
ＳＯＶ－４００ＫＤＣ\PＳＯＶ－６００ＫＤＣ
  7
0_8
1001
ACAD
1000
MTEXTBEGIN
1070
    73
1070
     1
1070
    44
1040
1.0
1070
    74
1070
     0
1000
MTEXTEND
1000
MTEXTBEGIN
1070
    73
1070
     1
1070
    44
1040
1.0
1070
    74
1070
     0
1000
MTEXTEND
  0
LINE
  5
125F
330
A
100
AcDbEntity
  8
SAISEN
100
AcDbLine
 10
225.0
 20
41.00000000000022
 30
0.0
 11
225.0
 21
17.0
 31
0.0
  0
LINE
  5
1260
330
A
100
AcDbEntity
  8
SAISEN
100
AcDbLine
 10
285.0
 20
41.00000000000022
 30
0.0
 11
285.0
 21
17.0
 31
0.0
  0
VIEWPORT
  5
BA7
102
{ACAD_XDICTIONARY
360
1299
102
}
330
B
100
AcDbEntity
 67
     1
  8
0
100
AcDbViewport
 10
198.0508299538852
 20
285.1874487354477
 30
0.0
 40
1080.347564134148
 41
628.3535021666721
 68
     1
 69
     1
1001
ACAD
1000
MVIEW
1002
{
1070
    16
1010
0.0
1020
0.0
1030
0.0
1010
0.0
1020
0.0
1030
1.0
1040
0.0
1040
628.3535021666721
1040
198.0508299538852
1040
285.1874487354477
1040
50.0
1040
0.0
1040
0.0
1070
     0
1070
   100
1070
     1
1070
     1
1070
     0
1070
     0
1070
     0
1070
     0
1040
0.0
1040
0.0
1040
0.0
1040
10.0
1040
10.0
1040
10.0
1040
10.0
1070
     0
1002
{
1002
}
1002
}
  0
VIEWPORT
  5
1283
102
{ACAD_XDICTIONARY
360
129F
102
}
330
B
100
AcDbEntity
 67
     1
  8
DEFPOINTS
100
AcDbViewport
 10
198.0508309076477
 20
285.1874477816852
 30
0.0
 40
396.4883172119752
 41
570.409736121624
 68
     2
 69
     2
1001
ACAD
1000
MVIEW
1002
{
1070
    16
1010
0.0
1020
0.0
1030
0.0
1010
0.0
1020
0.0
1030
1.0
1040
0.0
1040
570.409736121624
1040
210.0
1040
297.0
1040
50.0
1040
0.0
1040
0.0
1070
     0
1070
   100
1070
     1
1070
     1
1070
     0
1070
     0
1070
     0
1070
     0
1040
0.0
1040
0.0
1040
0.0
1040
1.0
1040
1.0
1040
0.0
1040
0.0
1070
     0
1002
{
1002
}
1002
}
  0
ENDSEC
  0
SECTION
  2
OBJECTS
  0
DICTIONARY
  5
19
330
0
100
AcDbDictionary
  3
ACAD_COLOR
350
B9F
  3
ACAD_GROUP
350
1A
  3
ACAD_LAYOUT
350
543
  3
ACAD_MATERIAL
350
B9E
  3
ACAD_MLINESTYLE
350
1B
  3
ACAD_PLOTSETTINGS
350
544
  3
ACADDIM
350
9DD
  3
ASE_INDEX_DICTIONARY
350
126B
1001
ACAD
1000
TREAT_AS_HARD
1070
     0
1000
TREAT_AS_HARD
1070
     0
  0
DICTIONARY
  5
1248
330
2
100
AcDbDictionary
  3
ACAD_LAYERSTATES
350
1249
1001
ACAD
1000
TREAT_AS_HARD
1070
     1
  0
DICTIONARY
  5
11F3
330
A
100
AcDbDictionary
  3
ACAD_LAYOUTSELFREF
350
12A7
1001
ACAD
1000
TREAT_AS_HARD
1070
     1
  0
DICTIONARY
  5
11F5
330
B
100
AcDbDictionary
  3
ACAD_LAYOUTSELFREF
350
12A8
1001
ACAD
1000
TREAT_AS_HARD
1070
     1
  0
DICTIONARY
  5
1299
330
BA7
100
AcDbDictionary
  3
ACAD_XREC_ROUNDTRIP
350
129A
1001
ACAD
1000
TREAT_AS_HARD
1070
     1
  0
DICTIONARY
  5
129F
330
1283
100
AcDbDictionary
  3
ACAD_XREC_ROUNDTRIP
350
12A0
1001
ACAD
1000
TREAT_AS_HARD
1070
     1
  0
DICTIONARY
  5
B9F
102
{ACAD_REACTORS
330
19
102
}
330
19
100
AcDbDictionary
1001
ACAD
1000
TREAT_AS_HARD
1070
     0
1000
TREAT_AS_HARD
1070
     0
  0
DICTIONARY
  5
1A
102
{ACAD_REACTORS
330
19
102
}
330
19
100
AcDbDictionary
  3
DAGROUP498
350
498
  3
DAGROUP49C
350
49C
  3
DAGROUP4A0
350
4A0
  3
DAGROUP4A4
350
4A4
  3
DAGROUP4A8
350
4A8
  3
DAGROUP4AC
350
4AC
  3
DAGROUP4B0
350
4B0
  3
DAGROUP4B4
350
4B4
  3
DAGROUP4B8
350
4B8
  3
DAGROUP4BC
350
4BC
  3
DAGROUP4C0
350
4C0
  3
DAGROUP4C4
350
4C4
1001
ACAD
1000
TREAT_AS_HARD
1070
     0
1000
TREAT_AS_HARD
1070
     0
  0
DICTIONARY
  5
543
102
{ACAD_REACTORS
330
19
102
}
330
19
100
AcDbDictionary
1001
ACAD
1000
TREAT_AS_HARD
1070
     0
1000
TREAT_AS_HARD
1070
     0
  0
DICTIONARY
  5
B9E
102
{ACAD_REACTORS
330
19
102
}
330
19
100
AcDbDictionary
1001
ACAD
1000
TREAT_AS_HARD
1070
     0
1000
TREAT_AS_HARD
1070
     0
  0
DICTIONARY
  5
1B
102
{ACAD_REACTORS
330
19
102
}
330
19
100
AcDbDictionary
  3
STANDARD
350
1C
1001
ACAD
1000
TREAT_AS_HARD
1070
     0
1000
TREAT_AS_HARD
1070
     0
  0
DICTIONARY
  5
544
102
{ACAD_REACTORS
330
19
102
}
330
19
100
AcDbDictionary
1001
ACAD
1000
TREAT_AS_HARD
1070
     0
1000
TREAT_AS_HARD
1070
     0
  0
XRECORD
  5
9DD
102
{ACAD_REACTORS
330
19
102
}
330
19
100
AcDbXrecord
 90
   990106
  3

 60
     0
 61
     0
 62
     1
 63
     3
 64
     1
 65
     0
 66
     0
 67
     3
 68
     1
 69
     0
 70
     0
 71
     0
 72
     0
 40
0.0
170
     2
340
A0D
  0
DICTIONARY
  5
126B
102
{ACAD_REACTORS
330
19
102
}
330
19
100
AcDbDictionary
  3
ASEBLOCKHIERARCHYINDEXRECORD
350
126C
1001
DCO15
1040
1508669645.265
1001
ACAD
1000
TREAT_AS_HARD
1070
     0
  0
DICTIONARY
  5
1249
102
{ACAD_REACTORS
330
1248
102
}
330
1248
100
AcDbDictionary
1001
ACAD
1000
TREAT_AS_HARD
1070
     0
  0
XRECORD
  5
12A7
102
{ACAD_REACTORS
330
11F3
102
}
330
11F3
100
AcDbXrecord
340
A
  0
XRECORD
  5
12A8
102
{ACAD_REACTORS
330
11F5
102
}
330
11F5
100
AcDbXrecord
340
B
  0
XRECORD
  5
129A
102
{ACAD_REACTORS
330
1299
102
}
330
1299
100
AcDbXrecord
102
SHADEPLOT
 70
     0
  0
XRECORD
  5
12A0
102
{ACAD_REACTORS
330
129F
102
}
330
129F
100
AcDbXrecord
102
SHADEPLOT
 70
     0
  0
GROUP
  5
498
102
{ACAD_REACTORS
330
1A
102
}
330
1A
100
AcDbGroup
300

 70
     0
 71
     1
  0
GROUP
  5
49C
102
{ACAD_REACTORS
330
1A
102
}
330
1A
100
AcDbGroup
300

 70
     0
 71
     1
  0
GROUP
  5
4A0
102
{ACAD_REACTORS
330
1A
102
}
330
1A
100
AcDbGroup
300

 70
     0
 71
     1
  0
GROUP
  5
4A4
102
{ACAD_REACTORS
330
1A
102
}
330
1A
100
AcDbGroup
300

 70
     0
 71
     1
  0
GROUP
  5
4A8
102
{ACAD_REACTORS
330
1A
102
}
330
1A
100
AcDbGroup
300

 70
     0
 71
     1
  0
GROUP
  5
4AC
102
{ACAD_REACTORS
330
1A
102
}
330
1A
100
AcDbGroup
300

 70
     0
 71
     1
  0
GROUP
  5
4B0
102
{ACAD_REACTORS
330
1A
102
}
330
1A
100
AcDbGroup
300

 70
     0
 71
     1
  0
GROUP
  5
4B4
102
{ACAD_REACTORS
330
1A
102
}
330
1A
100
AcDbGroup
300

 70
     0
 71
     1
  0
GROUP
  5
4B8
102
{ACAD_REACTORS
330
1A
102
}
330
1A
100
AcDbGroup
300

 70
     0
 71
     1
  0
GROUP
  5
4BC
102
{ACAD_REACTORS
330
1A
102
}
330
1A
100
AcDbGroup
300

 70
     0
 71
     1
  0
GROUP
  5
4C0
102
{ACAD_REACTORS
330
1A
102
}
330
1A
100
AcDbGroup
300

 70
     0
 71
     1
  0
GROUP
  5
4C4
102
{ACAD_REACTORS
330
1A
102
}
330
1A
100
AcDbGroup
300

 70
     0
 71
     1
  0
MLINESTYLE
  5
1C
102
{ACAD_REACTORS
330
1B
102
}
330
1B
100
AcDbMlineStyle
  2
STANDARD
 70
     0
  3

 62
     0
 51
90.00000000000019
 52
90.00000000000019
 71
     2
 49
0.5
 62
   256
  6
BYLAYER
 49
-0.5
 62
   256
  6
BYLAYER
  0
XRECORD
  5
126C
102
{ACAD_REACTORS
330
126B
102
}
330
126B
100
AcDbXrecord
330
F13
330
D9F
330
DA0
330
DAB
330
DAC
330
DB3
330
DB4
330
DBC
330
DBD
330
DC5
330
DC6
330
DD0
330
DD1
330
DDA
330
DDB
330
DE4
330
DE5
330
DED
330
DEE
330
DF6
330
DF7
330
DFF
330
E00
330
E09
330
E0A
330
E11
330
E12
330
E1A
330
E1B
330
E23
330
E24
330
E2C
330
E2D
330
E35
330
E36
330
E3F
330
E40
330
E47
330
E48
330
E50
330
E51
330
E5C
330
E5D
330
E64
330
E65
330
E6D
330
E6E
330
1071
330
1072
330
F26
330
F27
  0
ENDSEC
  0
EOF
