  0
SECTION
  2
HEADER
  9
$ACADVER
  1
AC1012
  9
$DWGCODEPAGE
  3
dos932
  9
$INSBASE
 10
0.0
 20
0.0
 30
0.0
  9
$EXTMIN
 10
0.0
 20
0.0
 30
0.0
  9
$EXTMAX
 10
1490.0
 20
2100.0
 30
0.0
  9
$LIMMIN
 10
0.0
 20
0.0
  9
$LIMMAX
 10
1490.0
 20
2100.0
  9
$ORTHOMODE
 70
     0
  9
$REGENMODE
 70
     1
  9
$FILLMODE
 70
     1
  9
$QTEXTMODE
 70
     0
  9
$MIRRTEXT
 70
     1
  9
$DRAGMODE
 70
     2
  9
$LTSCALE
 40
1.0
  9
$OSMODE
 70
    37
  9
$ATTMODE
 70
     1
  9
$TEXTSIZE
 40
15.0
  9
$TRACEWID
 40
0.05
  9
$TEXTSTYLE
  7
STANDARD
  9
$CLAYER
  8
HIKIDASI
  9
$CELTYPE
  6
CONTINUOUS
  9
$CECOLOR
 62
   256
  9
$CELTSCALE
 40
1.0
  9
$DELOBJ
 70
     1
  9
$DISPSILH
 70
     0
  9
$DIMSCALE
 40
2.0
  9
$DIMASZ
 40
2.5
  9
$DIMEXO
 40
1.5
  9
$DIMDLI
 40
0.0
  9
$DIMRND
 40
0.0
  9
$DIMDLE
 40
0.0
  9
$DIMEXE
 40
1.0
  9
$DIMTP
 40
0.0
  9
$DIMTM
 40
0.0
  9
$DIMTXT
 40
2.5
  9
$DIMCEN
 40
0.0
  9
$DIMTSZ
 40
0.0
  9
$DIMTOL
 70
     0
  9
$DIMLIM
 70
     0
  9
$DIMTIH
 70
     0
  9
$DIMTOH
 70
     0
  9
$DIMSE1
 70
     0
  9
$DIMSE2
 70
     0
  9
$DIMTAD
 70
     1
  9
$DIMZIN
 70
     8
  9
$DIMBLK
  1
OPEN30
  9
$DIMASO
 70
     1
  9
$DIMSHO
 70
     1
  9
$DIMPOST
  1

  9
$DIMAPOST
  1

  9
$DIMALT
 70
     0
  9
$DIMALTD
 70
     2
  9
$DIMALTF
 40
25.4
  9
$DIMLFAC
 40
1.0
  9
$DIMTOFL
 70
     1
  9
$DIMTVP
 40
0.0
  9
$DIMTIX
 70
     0
  9
$DIMSOXD
 70
     0
  9
$DIMSAH
 70
     0
  9
$DIMBLK1
  1

  9
$DIMBLK2
  1

  9
$DIMSTYLE
  2
SUNPOU_2
  9
$DIMCLRD
 70
   256
  9
$DIMCLRE
 70
   256
  9
$DIMCLRT
 70
   256
  9
$DIMTFAC
 40
1.0
  9
$DIMGAP
 40
1.0
  9
$DIMJUST
 70
     0
  9
$DIMSD1
 70
     0
  9
$DIMSD2
 70
     0
  9
$DIMTOLJ
 70
     1
  9
$DIMTZIN
 70
     0
  9
$DIMALTZ
 70
     0
  9
$DIMALTTZ
 70
     0
  9
$DIMFIT
 70
     3
  9
$DIMUPT
 70
     0
  9
$DIMUNIT
 70
     2
  9
$DIMDEC
 70
     1
  9
$DIMTDEC
 70
     1
  9
$DIMALTU
 70
     2
  9
$DIMALTTD
 70
     2
  9
$DIMTXSTY
  7
SUNPOU
  9
$DIMAUNIT
 70
     0
  9
$LUNITS
 70
     2
  9
$LUPREC
 70
     4
  9
$SKETCHINC
 40
0.1
  9
$FILLETRAD
 40
0.0
  9
$AUNITS
 70
     0
  9
$AUPREC
 70
     0
  9
$MENU
  1
acad
  9
$ELEVATION
 40
0.0
  9
$PELEVATION
 40
0.0
  9
$THICKNESS
 40
0.0
  9
$LIMCHECK
 70
     0
  9
$BLIPMODE
 70
     0
  9
$CHAMFERA
 40
0.0
  9
$CHAMFERB
 40
0.0
  9
$CHAMFERC
 40
0.0
  9
$CHAMFERD
 40
0.0
  9
$SKPOLY
 70
     0
  9
$TDCREATE
 40
2311945.702132697
  9
$TDUPDATE
 40
2453266.405910729
  9
$TDINDWG
 40
0.4379532060
  9
$TDUSRTIMER
 40
0.4379515741
  9
$USRTIMER
 70
     1
  9
$ANGBASE
 50
0.0
  9
$ANGDIR
 70
     0
  9
$PDMODE
 70
     0
  9
$PDSIZE
 40
1.0
  9
$PLINEWID
 40
0.0
  9
$COORDS
 70
     1
  9
$SPLFRAME
 70
     0
  9
$SPLINETYPE
 70
     6
  9
$SPLINESEGS
 70
     8
  9
$ATTDIA
 70
     0
  9
$ATTREQ
 70
     1
  9
$HANDLING
 70
-16383
  9
$HANDSEED
  5
2134
  9
$SURFTAB1
 70
     6
  9
$SURFTAB2
 70
     6
  9
$SURFTYPE
 70
     6
  9
$SURFU
 70
     6
  9
$SURFV
 70
     6
  9
$UCSNAME
  2

  9
$UCSORG
 10
0.0
 20
0.0
 30
0.0
  9
$UCSXDIR
 10
1.0
 20
0.0
 30
0.0
  9
$UCSYDIR
 10
0.0
 20
1.0
 30
0.0
  9
$PUCSNAME
  2

  9
$PUCSORG
 10
0.0
 20
0.0
 30
0.0
  9
$PUCSXDIR
 10
1.0
 20
0.0
 30
0.0
  9
$PUCSYDIR
 10
0.0
 20
1.0
 30
0.0
  9
$USERI1
 70
     0
  9
$USERI2
 70
     0
  9
$USERI3
 70
     0
  9
$USERI4
 70
     0
  9
$USERI5
 70
     0
  9
$USERR1
 40
0.0
  9
$USERR2
 40
0.0
  9
$USERR3
 40
0.0
  9
$USERR4
 40
0.0
  9
$USERR5
 40
0.0
  9
$WORLDVIEW
 70
     1
  9
$SHADEDGE
 70
     3
  9
$SHADEDIF
 70
    70
  9
$TILEMODE
 70
     1
  9
$MAXACTVP
 70
    16
  9
$PINSBASE
 10
0.0
 20
0.0
 30
0.0
  9
$PLIMCHECK
 70
     0
  9
$PEXTMIN
 10
-0.6072779653604812
 20
-0.0609709769432811
 30
-0.0015258207003583
  9
$PEXTMAX
 10
1386.986540087521
 20
1996.373105448741
 30
0.0000000349246037
  9
$PLIMMIN
 10
-41.72283682035327
 20
-41.10720575630119
  9
$PLIMMAX
 10
1428.090456636678
 20
2037.374758355027
  9
$UNITMODE
 70
     0
  9
$VISRETAIN
 70
     0
  9
$PLINEGEN
 70
     1
  9
$PSLTSCALE
 70
     0
  9
$TREEDEPTH
 70
  3020
  9
$PICKSTYLE
 70
     1
  9
$CMLSTYLE
  2
STANDARD
  9
$CMLJUST
 70
     0
  9
$CMLSCALE
 40
1.0
  9
$SAVEIMAGES
 70
     1
  0
ENDSEC
  0
SECTION
  2
CLASSES
  0
CLASS
  1
LWPOLYLINE
  2
AcDbPolyline
  3
AutoCAD 2000
 90
    32768
280
     0
281
     1
  0
CLASS
  1
IMAGE
  2
AcDbRasterImage
  3
ISM
 90
    32895
280
     0
281
     1
  0
CLASS
  1
OLE2FRAME
  2
AcDbOle2Frame
  3
AutoCAD 2000
 90
    32768
280
     0
281
     1
  0
CLASS
  1
HATCH
  2
AcDbHatch
  3
AutoCAD 2000
 90
    32768
280
     0
281
     1
  0
CLASS
  1
DICTIONARYVAR
  2
AcDbDictionaryVar
  3
AutoCAD 2000
 90
    32768
280
     0
281
     0
  0
CLASS
  1
RASTERVARIABLES
  2
AcDbRasterVariables
  3
ISM
 90
    32768
280
     0
281
     0
  0
CLASS
  1
IMAGEDEF
  2
AcDbRasterImageDef
  3
ISM
 90
    32768
280
     0
281
     0
  0
CLASS
  1
IMAGEDEF_REACTOR
  2
AcDbRasterImageDefReactor
  3
ISM
 90
    32769
280
     0
281
     0
  0
CLASS
  1
IDBUFFER
  2
AcDbIdBuffer
  3
AutoCAD 2000
 90
    32768
280
     0
281
     0
  0
CLASS
  1
SPATIAL_FILTER
  2
AcDbSpatialFilter
  3
AutoCAD 2000
 90
    32768
280
     0
281
     0
  0
CLASS
  1
XRECORD
  2
AcDbXrecord
  3
AutoCAD 2000
 90
    32768
280
     0
281
     0
  0
CLASS
  1
SORTENTSTABLE
  2
AcDbSortentsTable
  3
AutoCAD 2000
 90
    32768
280
     0
281
     0
  0
CLASS
  1
LAYER_INDEX
  2
AcDbLayerIndex
  3
AutoCAD 2000
 90
    32768
280
     0
281
     0
  0
CLASS
  1
SPATIAL_INDEX
  2
AcDbSpatialIndex
  3
AutoCAD 2000
 90
    32768
280
     0
281
     0
  0
CLASS
  1
OBJECT_PTR
  2
CAseDLPNTableRecord
  3
ASE-LPNTableRecord
 90
    32769
280
     0
281
     0
  0
CLASS
  1
ACDBDICTIONARYWDFLT
  2
AcDbDictionaryWithDefault
  3
AutoCAD 2000
 90
    32768
280
     0
281
     0
  0
CLASS
  1
ACDBPLACEHOLDER
  2
AcDbPlaceHolder
  3
AutoCAD 2000
 90
    32768
280
     0
281
     0
  0
CLASS
  1
LAYOUT
  2
AcDbLayout
  3
AutoCAD 2000
 90
    32768
280
     0
281
     0
  0
CLASS
  1
LONG_TRANSACTION
  2
AcDbLongTransaction
  3
AutoCAD 2000
 90
    32768
280
     0
281
     0
  0
CLASS
  1
LWPOLYLINE
  2
AcDbPolyline
  3
AutoCAD 2000
 90
    32768
280
     0
281
     1
  0
CLASS
  1
HATCH
  2
AcDbHatch
  3
AutoCAD 2000
 90
    32768
280
     0
281
     1
  0
CLASS
  1
XRECORD
  2
AcDbXrecord
  3
AutoCAD 2000
 90
    32768
280
     0
281
     0
  0
CLASS
  1
LONG_TRANSACTION
  2
AcDbLongTransaction
  3
AutoCAD 2000
 90
    32768
280
     0
281
     0
  0
CLASS
  1
LWPOLYLINE
  2
AcDbPolyline
  3
AutoCAD 2000
 90
    32768
280
     0
281
     1
  0
CLASS
  1
HATCH
  2
AcDbHatch
  3
AutoCAD 2000
 90
    32768
280
     0
281
     1
  0
CLASS
  1
XRECORD
  2
AcDbXrecord
  3
AutoCAD 2000
 90
    32768
280
     0
281
     0
  0
ENDSEC
  0
SECTION
  2
TABLES
  0
TABLE
  2
VPORT
  5
7
330
0
100
AcDbSymbolTable
 70
     2
  0
VPORT
  5
2126
330
7
100
AcDbSymbolTableRecord
100
AcDbViewportTableRecord
  2
*ACTIVE
 70
     0
 10
0.0
 20
0.0
 11
1.0
 21
1.0
 12
813.2855369722289
 22
1050.000004889443
 13
0.0
 23
0.0
 14
1.0
 24
1.0
 15
0.0
 25
0.0
 16
0.0
 26
0.0
 36
1.0
 17
0.0
 27
0.0
 37
0.0
 40
2124.287011499893
 41
1.780442804428044
 42
50.0
 43
0.0
 44
0.0
 50
0.0
 51
0.0
 71
     0
 72
   100
 73
     1
 74
     1
 75
     0
 76
     0
 77
     0
 78
     0
  0
ENDTAB
  0
TABLE
  2
LTYPE
  5
4
330
0
100
AcDbSymbolTable
 70
     4
  0
LTYPE
  5
11
330
4
100
AcDbSymbolTableRecord
100
AcDbLinetypeTableRecord
  2
BYBLOCK
 70
     0
  3

 72
    65
 73
     0
 40
0.0
  0
LTYPE
  5
12
330
4
100
AcDbSymbolTableRecord
100
AcDbLinetypeTableRecord
  2
BYLAYER
 70
     0
  3

 72
    65
 73
     0
 40
0.0
  0
LTYPE
  5
13
330
4
100
AcDbSymbolTableRecord
100
AcDbLinetypeTableRecord
  2
CONTINUOUS
 70
     0
  3
Solid line
 72
    65
 73
     0
 40
0.0
  0
LTYPE
  5
21
330
4
100
AcDbSymbolTableRecord
100
AcDbLinetypeTableRecord
  2
DASHED2
 70
     0
  3
CADPAC FUSION LINETYPE
 72
    65
 73
     2
 40
47.25
 49
31.5
 74
     0
 49
-15.75
 74
     0
  0
LTYPE
  5
149F
330
4
100
AcDbSymbolTableRecord
100
AcDbLinetypeTableRecord
  2
CENTER2
 70
     0
  3
Center (.5x) ___ _ ___ _ ___ _ ___ _ ___ _ ___
 72
    65
 73
     4
 40
28.57499999999999
 49
19.05
 74
     0
 49
-3.174999999999998
 74
     0
 49
3.174999999999998
 74
     0
 49
-3.174999999999998
 74
     0
  0
LTYPE
  5
14A1
330
4
100
AcDbSymbolTableRecord
100
AcDbLinetypeTableRecord
  2
PHANTOM2
 70
     0
  3
Phantom (.5x) ___ _ _ ___ _ _ ___ _ _ ___ _ _
 72
    65
 73
     6
 40
31.75
 49
15.875
 74
     0
 49
-3.174999999999998
 74
     0
 49
3.174999999999998
 74
     0
 49
-3.174999999999998
 74
     0
 49
3.174999999999998
 74
     0
 49
-3.174999999999998
 74
     0
  0
ENDTAB
  0
TABLE
  2
LAYER
  5
2
102
{ACAD_XDICTIONARY
360
14BF
102
}
330
0
100
AcDbSymbolTable
 70
    13
  0
LAYER
  5
14
330
2
100
AcDbSymbolTableRecord
100
AcDbLayerTableRecord
  2
0
 70
     0
 62
     7
  6
CONTINUOUS
  0
LAYER
  5
148F
330
2
100
AcDbSymbolTableRecord
100
AcDbLayerTableRecord
  2
DEFPOINTS
 70
     0
 62
     7
  6
CONTINUOUS
  0
LAYER
  5
14AA
330
2
100
AcDbSymbolTableRecord
100
AcDbLayerTableRecord
  2
02
 70
     0
 62
     2
  6
CONTINUOUS
  0
LAYER
  5
14AB
330
2
100
AcDbSymbolTableRecord
100
AcDbLayerTableRecord
  2
03
 70
     0
 62
     3
  6
CONTINUOUS
  0
LAYER
  5
14AC
330
2
100
AcDbSymbolTableRecord
100
AcDbLayerTableRecord
  2
04
 70
     0
 62
     4
  6
CONTINUOUS
  0
LAYER
  5
14AE
330
2
100
AcDbSymbolTableRecord
100
AcDbLayerTableRecord
  2
06
 70
     0
 62
     6
  6
CONTINUOUS
  0
LAYER
  5
14B4
330
2
100
AcDbSymbolTableRecord
100
AcDbLayerTableRecord
  2
CHUSIN
 70
     0
 62
     6
  6
CENTER2
  0
LAYER
  5
14B5
330
2
100
AcDbSymbolTableRecord
100
AcDbLayerTableRecord
  2
HIKIDASI
 70
     0
 62
     6
  6
CONTINUOUS
  0
LAYER
  5
14B6
330
2
100
AcDbSymbolTableRecord
100
AcDbLayerTableRecord
  2
KAKURE
 70
     0
 62
     6
  6
DASHED2
  0
LAYER
  5
14B7
330
2
100
AcDbSymbolTableRecord
100
AcDbLayerTableRecord
  2
MOJI
 70
     0
 62
     3
  6
CONTINUOUS
  0
LAYER
  5
14B8
330
2
100
AcDbSymbolTableRecord
100
AcDbLayerTableRecord
  2
SOUZOU
 70
     0
 62
     6
  6
PHANTOM2
  0
LAYER
  5
14B9
330
2
100
AcDbSymbolTableRecord
100
AcDbLayerTableRecord
  2
SUNPOU
 70
     0
 62
     6
  6
CONTINUOUS
  0
LAYER
  5
179F
330
2
100
AcDbSymbolTableRecord
100
AcDbLayerTableRecord
  2
SAISEN
 70
     0
 62
     3
  6
CONTINUOUS
  0
ENDTAB
  0
TABLE
  2
STYLE
  5
3
330
0
100
AcDbSymbolTable
 70
     4
  0
STYLE
  5
17
330
3
100
AcDbSymbolTableRecord
100
AcDbTextStyleTableRecord
  2
STANDARD
 70
     0
 40
0.0
 41
0.8
 50
0.0
 71
     0
 42
15.0
  3
txt.shx
  4
bigfont.shx
  0
STYLE
  5
1490
330
3
100
AcDbSymbolTableRecord
100
AcDbTextStyleTableRecord
  2
0_8
 70
     0
 40
0.0
 41
0.8
 50
0.0
 71
     0
 42
2.5
  3
txt.shx
  4
extfont.shx
  0
STYLE
  5
149C
330
3
100
AcDbSymbolTableRecord
100
AcDbTextStyleTableRecord
  2
SUNPOU
 70
     0
 40
0.0
 41
0.8
 50
0.0
 71
     0
 42
0.2
  3
txt.shx
  4
extfont.shx
  0
STYLE
  5
20C9
330
3
100
AcDbSymbolTableRecord
100
AcDbTextStyleTableRecord
  2
0_80
 70
     0
 40
0.0
 41
0.8
 50
0.0
 71
     0
 42
7.0
  3
txt.shx
  4
extfont.shx
  0
ENDTAB
  0
TABLE
  2
VIEW
  5
5
330
0
100
AcDbSymbolTable
 70
     1
  0
VIEW
  5
135
330
5
100
AcDbSymbolTableRecord
100
AcDbViewTableRecord
  2
QQQQ
 70
     0
 40
1552.525
 10
12.5
 20
5.0
 41
2204.474999999999
 11
0.0
 21
0.0
 31
1.0
 12
100.0
 22
100.0
 32
0.0
 42
50.0
 43
0.0
 44
0.0
 50
0.0
 71
     0
  0
ENDTAB
  0
TABLE
  2
UCS
  5
6
330
0
100
AcDbSymbolTable
 70
     0
  0
ENDTAB
  0
TABLE
  2
APPID
  5
8
330
0
100
AcDbSymbolTable
 70
     3
  0
APPID
  5
16
330
8
100
AcDbSymbolTableRecord
100
AcDbRegAppTableRecord
  2
ACAD
 70
     0
  0
APPID
  5
2072
330
8
100
AcDbSymbolTableRecord
100
AcDbRegAppTableRecord
  2
CONTENTBLOCKICON
 70
     0
  0
APPID
  5
20C5
330
8
100
AcDbSymbolTableRecord
100
AcDbRegAppTableRecord
  2
DCO15
 70
     0
  0
ENDTAB
  0
TABLE
  2
DIMSTYLE
  5
9
330
0
100
AcDbSymbolTable
 70
     3
  0
DIMSTYLE
105
18
330
9
100
AcDbSymbolTableRecord
100
AcDbDimStyleTableRecord
  2
STANDARD
 70
     0
  3

  4

  5

  6

  7

 40
1.0
 41
0.18
 42
0.0625
 43
0.38
 44
0.18
 45
0.0
 46
0.0
 47
0.0
 48
0.0
140
0.18
141
0.09
142
0.0
143
25.4
144
1.0
145
0.0
146
1.0
147
0.09
 71
     0
 72
     0
 73
     1
 74
     1
 75
     0
 76
     0
 77
     0
 78
     0
170
     0
171
     2
172
     0
173
     0
174
     0
175
     0
176
     0
177
     0
178
     0
270
     2
271
     4
272
     4
273
     2
274
     2
340
17
275
     0
280
     0
281
     0
282
     0
283
     1
284
     0
285
     0
286
     0
287
     3
288
     0
  0
DIMSTYLE
105
14A2
102
{ACAD_REACTORS
330
14F4
330
1501
330
150E
330
151B
330
1528
330
1535
330
1542
330
154F
330
155C
330
1569
330
1576
330
1583
330
1590
330
159F
330
15AC
330
15BB
330
15C8
330
15D5
330
15E4
330
15F1
330
15FE
330
160B
330
1618
330
1625
330
1632
330
163F
330
164C
330
1659
330
1668
330
1675
330
1682
330
168F
330
169E
330
16AD
330
16BA
330
16C7
330
16D6
330
16E3
330
16F2
330
16FF
330
1720
330
172D
330
1785
330
1792
102
}
330
9
100
AcDbSymbolTableRecord
100
AcDbDimStyleTableRecord
  2
SUNPOU_1
 70
     0
  3

  4

  5
OPEN30
  6

  7

 40
7.0
 41
2.5
 42
1.5
 43
0.0
 44
1.0
 45
0.0
 46
0.0
 47
0.0
 48
0.0
140
2.5
141
0.0
142
0.0
143
25.4
144
1.0
145
0.0
146
1.0
147
1.0
 71
     0
 72
     0
 73
     0
 74
     0
 75
     0
 76
     0
 77
     1
 78
     8
170
     0
171
     2
172
     1
173
     0
174
     0
175
     0
176
   256
177
   256
178
     6
270
     2
271
     1
272
     1
273
     2
274
     2
340
149C
275
     0
280
     0
281
     0
282
     0
283
     1
284
     0
285
     0
286
     0
287
     3
288
     0
  0
DIMSTYLE
105
20E3
330
9
100
AcDbSymbolTableRecord
100
AcDbDimStyleTableRecord
  2
SUNPOU_2
 70
     0
  3

  4

  5
OPEN30
  6

  7

 40
2.0
 41
2.5
 42
1.5
 43
0.0
 44
1.0
 45
0.0
 46
0.0
 47
0.0
 48
0.0
140
2.5
141
0.0
142
0.0
143
25.4
144
1.0
145
0.0
146
1.0
147
1.0
 71
     0
 72
     0
 73
     0
 74
     0
 75
     0
 76
     0
 77
     1
 78
     8
170
     0
171
     2
172
     1
173
     0
174
     0
175
     0
176
   256
177
   256
178
   256
270
     2
271
     1
272
     1
273
     2
274
     2
340
149C
275
     0
280
     0
281
     0
282
     0
283
     1
284
     0
285
     0
286
     0
287
     3
288
     0
  0
ENDTAB
  0
TABLE
  2
BLOCK_RECORD
  5
1
330
0
100
AcDbSymbolTable
 70
    47
  0
BLOCK_RECORD
  5
A
102
{ACAD_XDICTIONARY
360
206E
102
}
330
1
100
AcDbSymbolTableRecord
100
AcDbBlockTableRecord
  2
*MODEL_SPACE
  0
BLOCK_RECORD
  5
B
102
{ACAD_XDICTIONARY
360
2070
102
}
330
1
100
AcDbSymbolTableRecord
100
AcDbBlockTableRecord
  2
*PAPER_SPACE
  0
BLOCK_RECORD
  5
14A3
330
1
100
AcDbSymbolTableRecord
100
AcDbBlockTableRecord
  2
_OPEN30
1001
CONTENTBLOCKICON
1071
        0
1004
2800000020000000200000000100080000000000000400000000000000000000000000000000000000000000000080000080000000808000800000008000800080800000C0C0C000C0DCC000F0CAA6000020400000206000002080000020A0000020C0000020E00000400000004020000040400000406000004080000040A0
1004
000040C0000040E00000600000006020000060400000606000006080000060A0000060C0000060E00000800000008020000080400000806000008080000080A0000080C0000080E00000A0000000A0200000A0400000A0600000A0800000A0A00000A0C00000A0E00000C0000000C0200000C0400000C0600000C0800000C0
1004
A00000C0C00000C0E00000E0000000E0200000E0400000E0600000E0800000E0A00000E0C00000E0E00040000000400020004000400040006000400080004000A0004000C0004000E00040200000402020004020400040206000402080004020A0004020C0004020E000404000004040200040404000404060004040800040
1004
40A0004040C0004040E00040600000406020004060400040606000406080004060A0004060C0004060E00040800000408020004080400040806000408080004080A0004080C0004080E00040A0000040A0200040A0400040A0600040A0800040A0A00040A0C00040A0E00040C0000040C0200040C0400040C0600040C08000
1004
40C0A00040C0C00040C0E00040E0000040E0200040E0400040E0600040E0800040E0A00040E0C00040E0E00080000000800020008000400080006000800080008000A0008000C0008000E00080200000802020008020400080206000802080008020A0008020C0008020E00080400000804020008040400080406000804080
1004
008040A0008040C0008040E00080600000806020008060400080606000806080008060A0008060C0008060E00080800000808020008080400080806000808080008080A0008080C0008080E00080A0000080A0200080A0400080A0600080A0800080A0A00080A0C00080A0E00080C0000080C0200080C0400080C0600080C0
1004
800080C0A00080C0C00080C0E00080E0000080E0200080E0400080E0600080E0800080E0A00080E0C00080E0E000C0000000C0002000C0004000C0006000C0008000C000A000C000C000C000E000C0200000C0202000C0204000C0206000C0208000C020A000C020C000C020E000C0400000C0402000C0404000C0406000C0
1004
408000C040A000C040C000C040E000C0600000C0602000C0604000C0606000C0608000C060A000C060C000C060E000C0800000C0802000C0804000C0806000C0808000C080A000C080C000C080E000C0A00000C0A02000C0A04000C0A06000C0A08000C0A0A000C0A0C000C0A0E000C0C00000C0C02000C0C04000C0C06000
1004
C0C08000C0C0A000F0FBFF00A4A0A000808080000000FF0000FF000000FFFF00FF000000FF00FF00FFFF0000FFFFFF0000000000000000000000000000000000000000000000000000000000000000000000000000000000000000000000000000000000000000000000000000000000000000000000000000000000000000
1004
00000000000000000000000000000000000000000000000000000000000000000000000000000000000000000000000000000000000000000000000000000000000000000000000000000000000000000000000000000000000000000000000000000000000000000000000000000000000000000000000000000000000000
1004
000000000000000000000000000000000000000000000000000000000000000000000000000000000000000000000000000000FFFF0000000000000000000000000000000000000000000000000000000000000000FFFFFFFF0000000000000000000000000000000000000000000000000000000000000000FFFFFFFF0000
1004
000000000000000000000000000000000000000000000000000000000000FFFFFF0000000000000000000000000000000000000000000000000000000000000000FFFFFFFF0000000000000000000000000000000000000000000000000000000000000000FFFFFF0000000000000000000000000000000000000000000000
1004
000000000000000000FFFFFFFF0000000000000000000000000000000000000000000000000000000000000000FFFFFFFF00000000FFFFFFFFFFFFFFFFFFFFFFFFFFFFFFFFFFFFFFFFFFFFFFFFFFFFFFFFFFFF00000000000000000000000000000000000000000000000000FFFFFFFF000000000000000000000000000000
1004
000000000000000000FFFFFFFF000000000000000000000000000000000000000000000000FFFFFFFF000000000000000000000000000000000000000000000000FFFFFFFF000000000000000000000000000000000000000000000000FFFFFFFF000000000000000000000000000000000000000000000000FFFFFFFF0000
1004
0000000000000000000000000000000000000000000000FFFFFF0000000000000000000000000000000000000000000000000000000000000000000000000000000000000000000000000000000000000000000000000000000000000000000000000000000000000000000000000000000000000000000000000000000000
1004
00000000000000000000000000000000000000000000000000000000000000000000000000000000000000000000000000000000000000000000000000000000000000000000000000000000000000000000000000000000000000000000000000000000000000000000000000000000000000000000000000000000000000
1004
0000000000000000000000000000000000000000000000000000000000000000000000000000000000000000000000000000000000000000
  0
BLOCK_RECORD
  5
14F5
330
1
100
AcDbSymbolTableRecord
100
AcDbBlockTableRecord
  2
*D1
  0
BLOCK_RECORD
  5
1502
330
1
100
AcDbSymbolTableRecord
100
AcDbBlockTableRecord
  2
*D2
  0
BLOCK_RECORD
  5
150F
330
1
100
AcDbSymbolTableRecord
100
AcDbBlockTableRecord
  2
*D3
  0
BLOCK_RECORD
  5
151C
330
1
100
AcDbSymbolTableRecord
100
AcDbBlockTableRecord
  2
*D4
  0
BLOCK_RECORD
  5
1529
330
1
100
AcDbSymbolTableRecord
100
AcDbBlockTableRecord
  2
*D5
  0
BLOCK_RECORD
  5
1536
330
1
100
AcDbSymbolTableRecord
100
AcDbBlockTableRecord
  2
*D6
  0
BLOCK_RECORD
  5
1543
330
1
100
AcDbSymbolTableRecord
100
AcDbBlockTableRecord
  2
*D7
  0
BLOCK_RECORD
  5
1550
330
1
100
AcDbSymbolTableRecord
100
AcDbBlockTableRecord
  2
*D8
  0
BLOCK_RECORD
  5
155D
330
1
100
AcDbSymbolTableRecord
100
AcDbBlockTableRecord
  2
*D9
  0
BLOCK_RECORD
  5
156A
330
1
100
AcDbSymbolTableRecord
100
AcDbBlockTableRecord
  2
*D10
  0
BLOCK_RECORD
  5
1577
330
1
100
AcDbSymbolTableRecord
100
AcDbBlockTableRecord
  2
*D11
  0
BLOCK_RECORD
  5
1584
330
1
100
AcDbSymbolTableRecord
100
AcDbBlockTableRecord
  2
*D12
  0
BLOCK_RECORD
  5
1591
330
1
100
AcDbSymbolTableRecord
100
AcDbBlockTableRecord
  2
*D13
  0
BLOCK_RECORD
  5
15A0
330
1
100
AcDbSymbolTableRecord
100
AcDbBlockTableRecord
  2
*D14
  0
BLOCK_RECORD
  5
15AD
330
1
100
AcDbSymbolTableRecord
100
AcDbBlockTableRecord
  2
*D15
  0
BLOCK_RECORD
  5
15BC
330
1
100
AcDbSymbolTableRecord
100
AcDbBlockTableRecord
  2
*D16
  0
BLOCK_RECORD
  5
15C9
330
1
100
AcDbSymbolTableRecord
100
AcDbBlockTableRecord
  2
*D17
  0
BLOCK_RECORD
  5
15D6
330
1
100
AcDbSymbolTableRecord
100
AcDbBlockTableRecord
  2
*D18
  0
BLOCK_RECORD
  5
15E5
330
1
100
AcDbSymbolTableRecord
100
AcDbBlockTableRecord
  2
*D19
  0
BLOCK_RECORD
  5
15F2
330
1
100
AcDbSymbolTableRecord
100
AcDbBlockTableRecord
  2
*D20
  0
BLOCK_RECORD
  5
15FF
330
1
100
AcDbSymbolTableRecord
100
AcDbBlockTableRecord
  2
*D21
  0
BLOCK_RECORD
  5
160C
330
1
100
AcDbSymbolTableRecord
100
AcDbBlockTableRecord
  2
*D22
  0
BLOCK_RECORD
  5
1619
330
1
100
AcDbSymbolTableRecord
100
AcDbBlockTableRecord
  2
*D23
  0
BLOCK_RECORD
  5
1626
330
1
100
AcDbSymbolTableRecord
100
AcDbBlockTableRecord
  2
*D24
  0
BLOCK_RECORD
  5
1633
330
1
100
AcDbSymbolTableRecord
100
AcDbBlockTableRecord
  2
*D25
  0
BLOCK_RECORD
  5
1640
330
1
100
AcDbSymbolTableRecord
100
AcDbBlockTableRecord
  2
*D26
  0
BLOCK_RECORD
  5
164D
330
1
100
AcDbSymbolTableRecord
100
AcDbBlockTableRecord
  2
*D27
  0
BLOCK_RECORD
  5
165A
330
1
100
AcDbSymbolTableRecord
100
AcDbBlockTableRecord
  2
*D28
  0
BLOCK_RECORD
  5
1669
330
1
100
AcDbSymbolTableRecord
100
AcDbBlockTableRecord
  2
*D29
  0
BLOCK_RECORD
  5
1676
330
1
100
AcDbSymbolTableRecord
100
AcDbBlockTableRecord
  2
*D30
  0
BLOCK_RECORD
  5
1683
330
1
100
AcDbSymbolTableRecord
100
AcDbBlockTableRecord
  2
*D31
  0
BLOCK_RECORD
  5
1690
330
1
100
AcDbSymbolTableRecord
100
AcDbBlockTableRecord
  2
*D32
  0
BLOCK_RECORD
  5
169F
330
1
100
AcDbSymbolTableRecord
100
AcDbBlockTableRecord
  2
*D33
  0
BLOCK_RECORD
  5
16AE
330
1
100
AcDbSymbolTableRecord
100
AcDbBlockTableRecord
  2
*D34
  0
BLOCK_RECORD
  5
16BB
330
1
100
AcDbSymbolTableRecord
100
AcDbBlockTableRecord
  2
*D35
  0
BLOCK_RECORD
  5
16C8
330
1
100
AcDbSymbolTableRecord
100
AcDbBlockTableRecord
  2
*D36
  0
BLOCK_RECORD
  5
16D7
330
1
100
AcDbSymbolTableRecord
100
AcDbBlockTableRecord
  2
*D37
  0
BLOCK_RECORD
  5
16E4
330
1
100
AcDbSymbolTableRecord
100
AcDbBlockTableRecord
  2
*D38
  0
BLOCK_RECORD
  5
16F3
330
1
100
AcDbSymbolTableRecord
100
AcDbBlockTableRecord
  2
*D39
  0
BLOCK_RECORD
  5
1700
330
1
100
AcDbSymbolTableRecord
100
AcDbBlockTableRecord
  2
*D40
  0
BLOCK_RECORD
  5
1721
330
1
100
AcDbSymbolTableRecord
100
AcDbBlockTableRecord
  2
*D41
  0
BLOCK_RECORD
  5
172E
330
1
100
AcDbSymbolTableRecord
100
AcDbBlockTableRecord
  2
*D42
  0
BLOCK_RECORD
  5
1786
330
1
100
AcDbSymbolTableRecord
100
AcDbBlockTableRecord
  2
*D43
  0
BLOCK_RECORD
  5
1793
330
1
100
AcDbSymbolTableRecord
100
AcDbBlockTableRecord
  2
*D44
  0
BLOCK_RECORD
  5
2078
330
1
100
AcDbSymbolTableRecord
100
AcDbBlockTableRecord
  2
*X45
  0
BLOCK_RECORD
  5
209A
330
1
100
AcDbSymbolTableRecord
100
AcDbBlockTableRecord
  2
*X46
  0
ENDTAB
  0
ENDSEC
  0
SECTION
  2
BLOCKS
  0
BLOCK
  5
D
330
A
100
AcDbEntity
  8
0
100
AcDbBlockBegin
  2
*MODEL_SPACE
 70
     0
 10
0.0
 20
0.0
 30
0.0
  3
*MODEL_SPACE
  1

  0
ENDBLK
  5
E
330
A
100
AcDbEntity
  8
0
100
AcDbBlockEnd
  0
BLOCK
  5
F
330
B
100
AcDbEntity
 67
     1
  8
0
100
AcDbBlockBegin
  2
*PAPER_SPACE
 70
     0
 10
0.0
 20
0.0
 30
0.0
  3
*PAPER_SPACE
  1

  0
ENDBLK
  5
10
330
B
100
AcDbEntity
 67
     1
  8
0
100
AcDbBlockEnd
  0
BLOCK
  5
14A7
330
14A3
100
AcDbEntity
  8
0
100
AcDbBlockBegin
  2
_OPEN30
 70
     0
 10
0.0
 20
0.0
 30
0.0
  3
_OPEN30
  1

  0
LINE
  5
14A4
330
14A3
100
AcDbEntity
  8
0
  6
BYBLOCK
 62
     0
100
AcDbLine
 10
-1.0
 20
0.26794919
 30
0.0
 11
0.0
 21
0.0
 31
0.0
  0
LINE
  5
14A5
330
14A3
100
AcDbEntity
  8
0
  6
BYBLOCK
 62
     0
100
AcDbLine
 10
0.0
 20
0.0
 30
0.0
 11
-1.0
 21
-0.26794919
 31
0.0
  0
LINE
  5
14A6
330
14A3
100
AcDbEntity
  8
0
  6
BYBLOCK
 62
     0
100
AcDbLine
 10
0.0
 20
0.0
 30
0.0
 11
-1.0
 21
0.0
 31
0.0
  0
ENDBLK
  5
14A8
330
14A3
100
AcDbEntity
  8
0
100
AcDbBlockEnd
  0
BLOCK
  5
14FF
330
14F5
100
AcDbEntity
  8
0
100
AcDbBlockBegin
  2
*D1
 70
     1
 10
0.0
 20
0.0
 30
0.0
  3
*D1
  1

  0
LINE
  5
1EB6
330
14F5
100
AcDbEntity
  8
SUNPOU
  6
CONTINUOUS
100
AcDbLine
 10
551.8630778022448
 20
337.192553658921
 30
0.0
 11
551.8630778022448
 21
281.4785646042823
 31
0.0
  0
LINE
  5
1EB7
330
14F5
100
AcDbEntity
  8
SUNPOU
  6
CONTINUOUS
100
AcDbLine
 10
351.8630778022445
 20
337.192553658921
 30
0.0
 11
351.8630778022445
 21
281.4785646042823
 31
0.0
  0
LINE
  5
1EB8
330
14F5
100
AcDbEntity
  8
SUNPOU
  6
CONTINUOUS
100
AcDbLine
 10
534.3630778022448
 20
288.4785646042823
 30
0.0
 11
369.3630778022445
 21
288.4785646042823
 31
0.0
  0
MTEXT
  5
1EB9
330
14F5
100
AcDbEntity
  8
SUNPOU
  6
CONTINUOUS
 62
     6
100
AcDbMText
 10
451.8630778022447
 20
270.6514681036787
 30
0.0
 40
17.5
 41
0.0
 71
     5
 72
     1
  1
\A1;200
  7
SUNPOU
 11
-1.0
 21
0.0000000000000001
 31
0.0
1001
ACAD
1000
MTEXTBEGIN
1070
    73
1070
     1
1070
    44
1040
1.0
1070
    74
1070
     0
1000
MTEXTEND
1000
MTEXTBEGIN
1070
    73
1070
     1
1070
    44
1040
1.0
1070
    74
1070
     0
1000
MTEXTEND
  0
INSERT
  5
1EBA
330
14F5
100
AcDbEntity
  8
SUNPOU
  6
CONTINUOUS
100
AcDbBlockReference
  2
_OPEN30
 10
551.8630778022448
 20
288.4785646042823
 30
0.0
 41
17.5
 42
17.5
 43
17.5
  0
INSERT
  5
1EBB
330
14F5
100
AcDbEntity
  8
SUNPOU
  6
CONTINUOUS
100
AcDbBlockReference
  2
_OPEN30
 10
351.8630778022445
 20
288.4785646042823
 30
0.0
 41
17.5
 42
17.5
 43
17.5
 50
180.0
  0
POINT
  5
1EBC
330
14F5
100
AcDbEntity
  8
DEFPOINTS
  6
CONTINUOUS
 62
     0
100
AcDbPoint
 10
551.8630778022448
 20
347.6925536589209
 30
0.0
  0
POINT
  5
1EBD
330
14F5
100
AcDbEntity
  8
DEFPOINTS
  6
CONTINUOUS
 62
     0
100
AcDbPoint
 10
351.8630778022445
 20
347.6925536589209
 30
0.0
  0
POINT
  5
1EBE
330
14F5
100
AcDbEntity
  8
DEFPOINTS
  6
CONTINUOUS
 62
     0
100
AcDbPoint
 10
351.8630778022445
 20
288.4785646042823
 30
0.0
  0
ENDBLK
  5
1500
330
14F5
100
AcDbEntity
  8
0
100
AcDbBlockEnd
  0
BLOCK
  5
150C
330
1502
100
AcDbEntity
  8
0
100
AcDbBlockBegin
  2
*D2
 70
     1
 10
0.0
 20
0.0
 30
0.0
  3
*D2
  1

  0
LINE
  5
1EAD
330
1502
100
AcDbEntity
  8
SUNPOU
  6
CONTINUOUS
100
AcDbLine
 10
401.8630778022448
 20
413.5925536589223
 30
0.0
 11
401.8630778022448
 21
333.8175455316226
 31
0.0
  0
LINE
  5
1EAE
330
1502
100
AcDbEntity
  8
SUNPOU
  6
CONTINUOUS
100
AcDbLine
 10
501.8630778022448
 20
413.5925536589223
 30
0.0
 11
501.8630778022448
 21
333.8175455316226
 31
0.0
  0
LINE
  5
1EAF
330
1502
100
AcDbEntity
  8
SUNPOU
  6
CONTINUOUS
100
AcDbLine
 10
419.3630778022447
 20
340.8175455316226
 30
0.0
 11
484.363077802245
 21
340.8175455316226
 31
0.0
  0
MTEXT
  5
1EB0
330
1502
100
AcDbEntity
  8
SUNPOU
  6
CONTINUOUS
 62
     6
100
AcDbMText
 10
451.8630778022448
 20
324.8027296410846
 30
0.0
 40
17.5
 41
0.0
 71
     5
 72
     1
  1
\A1;100
  7
SUNPOU
 11
-1.0
 21
0.0000000000000001
 31
0.0
1001
ACAD
1000
MTEXTBEGIN
1070
    73
1070
     1
1070
    44
1040
1.0
1070
    74
1070
     0
1000
MTEXTEND
1000
MTEXTBEGIN
1070
    73
1070
     1
1070
    44
1040
1.0
1070
    74
1070
     0
1000
MTEXTEND
  0
INSERT
  5
1EB1
330
1502
100
AcDbEntity
  8
SUNPOU
  6
CONTINUOUS
100
AcDbBlockReference
  2
_OPEN30
 10
401.8630778022448
 20
340.8175455316226
 30
0.0
 41
17.5
 42
17.5
 43
17.5
 50
180.0
  0
INSERT
  5
1EB2
330
1502
100
AcDbEntity
  8
SUNPOU
  6
CONTINUOUS
100
AcDbBlockReference
  2
_OPEN30
 10
501.8630778022448
 20
340.8175455316226
 30
0.0
 41
17.5
 42
17.5
 43
17.5
  0
POINT
  5
1EB3
330
1502
100
AcDbEntity
  8
DEFPOINTS
  6
CONTINUOUS
 62
     0
100
AcDbPoint
 10
401.8630778022448
 20
424.0925536589225
 30
0.0
  0
POINT
  5
1EB4
330
1502
100
AcDbEntity
  8
DEFPOINTS
  6
CONTINUOUS
 62
     0
100
AcDbPoint
 10
501.8630778022448
 20
424.0925536589225
 30
0.0
  0
POINT
  5
1EB5
330
1502
100
AcDbEntity
  8
DEFPOINTS
  6
CONTINUOUS
 62
     0
100
AcDbPoint
 10
501.8630778022448
 20
340.8175455316226
 30
0.0
  0
ENDBLK
  5
150D
330
1502
100
AcDbEntity
  8
0
100
AcDbBlockEnd
  0
BLOCK
  5
1519
330
150F
100
AcDbEntity
  8
0
100
AcDbBlockBegin
  2
*D3
 70
     1
 10
0.0
 20
0.0
 30
0.0
  3
*D3
  1

  0
LINE
  5
1EA4
330
150F
100
AcDbEntity
  8
SUNPOU
  6
CONTINUOUS
100
AcDbLine
 10
401.3630778022448
 20
414.0925536589223
 30
0.0
 11
264.2610547297394
 21
414.0925536589224
 31
0.0
  0
LINE
  5
1EA5
330
150F
100
AcDbEntity
  8
SUNPOU
  6
CONTINUOUS
100
AcDbLine
 10
401.363077802245
 20
514.0925536589223
 30
0.0
 11
264.2610547297394
 21
514.0925536589223
 31
0.0
  0
LINE
  5
1EA6
330
150F
100
AcDbEntity
  8
SUNPOU
  6
CONTINUOUS
100
AcDbLine
 10
271.2610547297395
 20
431.5925536589225
 30
0.0
 11
271.2610547297395
 21
496.5925536589224
 31
0.0
  0
INSERT
  5
1EA7
330
150F
100
AcDbEntity
  8
SUNPOU
  6
CONTINUOUS
100
AcDbBlockReference
  2
_OPEN30
 10
271.2610547297395
 20
414.0925536589224
 30
0.0
 41
17.5
 42
17.5
 43
17.5
 50
270.0
  0
INSERT
  5
1EA8
330
150F
100
AcDbEntity
  8
SUNPOU
  6
CONTINUOUS
100
AcDbBlockReference
  2
_OPEN30
 10
271.2610547297395
 20
514.0925536589223
 30
0.0
 41
17.5
 42
17.5
 43
17.5
 50
90.0
  0
MTEXT
  5
1EA9
330
150F
100
AcDbEntity
  8
SUNPOU
  6
CONTINUOUS
 62
     6
100
AcDbMText
 10
255.5110547297394
 20
464.0925536589226
 30
0.0
 40
17.5
 41
0.0
 71
     5
 72
     1
  1
\A1;100
  7
SUNPOU
 11
0.0000000000000001
 21
1.0
 31
0.0
1001
ACAD
1000
MTEXTBEGIN
1070
    73
1070
     1
1070
    44
1040
1.0
1070
    74
1070
     0
1000
MTEXTEND
1000
MTEXTBEGIN
1070
    73
1070
     1
1070
    44
1040
1.0
1070
    74
1070
     0
1000
MTEXTEND
  0
POINT
  5
1EAA
330
150F
100
AcDbEntity
  8
DEFPOINTS
  6
CONTINUOUS
 62
     0
100
AcDbPoint
 10
411.8630778022447
 20
414.0925536589223
 30
0.0
  0
POINT
  5
1EAB
330
150F
100
AcDbEntity
  8
DEFPOINTS
  6
CONTINUOUS
 62
     0
100
AcDbPoint
 10
411.863077802245
 20
514.0925536589223
 30
0.0
  0
POINT
  5
1EAC
330
150F
100
AcDbEntity
  8
DEFPOINTS
  6
CONTINUOUS
 62
     0
100
AcDbPoint
 10
271.2610547297395
 20
514.0925536589223
 30
0.0
  0
ENDBLK
  5
151A
330
150F
100
AcDbEntity
  8
0
100
AcDbBlockEnd
  0
BLOCK
  5
1526
330
151C
100
AcDbEntity
  8
0
100
AcDbBlockBegin
  2
*D4
 70
     1
 10
0.0
 20
0.0
 30
0.0
  3
*D4
  1

  0
LINE
  5
1EC8
330
151C
100
AcDbEntity
  8
SUNPOU
  6
CONTINUOUS
100
AcDbLine
 10
560.7630778022446
 20
376.0925536589211
 30
0.0
 11
605.8630778022449
 21
376.0925536589211
 31
0.0
  0
LINE
  5
1EC9
330
151C
100
AcDbEntity
  8
SUNPOU
  6
CONTINUOUS
100
AcDbLine
 10
541.3782000742356
 20
464.0925536589202
 30
0.0
 11
605.8630778022449
 21
464.0925536589202
 31
0.0
  0
LINE
  5
1ECA
330
151C
100
AcDbEntity
  8
SUNPOU
  6
CONTINUOUS
100
AcDbLine
 10
598.863077802245
 20
393.5925536589211
 30
0.0
 11
598.863077802245
 21
446.5925536589202
 31
0.0
  0
INSERT
  5
1ECB
330
151C
100
AcDbEntity
  8
SUNPOU
  6
CONTINUOUS
100
AcDbBlockReference
  2
_OPEN30
 10
598.863077802245
 20
376.0925536589211
 30
0.0
 41
17.5
 42
17.5
 43
17.5
 50
270.0
  0
INSERT
  5
1ECC
330
151C
100
AcDbEntity
  8
SUNPOU
  6
CONTINUOUS
100
AcDbBlockReference
  2
_OPEN30
 10
598.863077802245
 20
464.0925536589202
 30
0.0
 41
17.5
 42
17.5
 43
17.5
 50
90.0
  0
MTEXT
  5
1ECD
330
151C
100
AcDbEntity
  8
SUNPOU
  6
CONTINUOUS
 62
     6
100
AcDbMText
 10
583.1130778022449
 20
420.0925536589206
 30
0.0
 40
17.5
 41
0.0
 71
     5
 72
     1
  1
\A1;88
  7
SUNPOU
 11
0.0000000000000001
 21
1.0
 31
0.0
1001
ACAD
1000
MTEXTBEGIN
1070
    73
1070
     1
1070
    44
1040
1.0
1070
    74
1070
     0
1000
MTEXTEND
1000
MTEXTBEGIN
1070
    73
1070
     1
1070
    44
1040
1.0
1070
    74
1070
     0
1000
MTEXTEND
  0
POINT
  5
1ECE
330
151C
100
AcDbEntity
  8
DEFPOINTS
  6
CONTINUOUS
 62
     0
100
AcDbPoint
 10
550.2630778022446
 20
376.0925536589211
 30
0.0
  0
POINT
  5
1ECF
330
151C
100
AcDbEntity
  8
DEFPOINTS
  6
CONTINUOUS
 62
     0
100
AcDbPoint
 10
530.8782000742358
 20
464.0925536589202
 30
0.0
  0
POINT
  5
1ED0
330
151C
100
AcDbEntity
  8
DEFPOINTS
  6
CONTINUOUS
 62
     0
100
AcDbPoint
 10
598.863077802245
 20
464.0925536589202
 30
0.0
  0
ENDBLK
  5
1527
330
151C
100
AcDbEntity
  8
0
100
AcDbBlockEnd
  0
BLOCK
  5
1533
330
1529
100
AcDbEntity
  8
0
100
AcDbBlockBegin
  2
*D5
 70
     1
 10
0.0
 20
0.0
 30
0.0
  3
*D5
  1

  0
LINE
  5
1E6E
330
1529
100
AcDbEntity
  8
SUNPOU
  6
CONTINUOUS
100
AcDbLine
 10
541.3782000742356
 20
464.0925536589202
 30
0.0
 11
605.8630778022449
 21
464.0925536589202
 31
0.0
  0
LINE
  5
1E6F
330
1529
100
AcDbEntity
  8
SUNPOU
  6
CONTINUOUS
100
AcDbLine
 10
527.683791205732
 20
1888.09255365892
 30
0.0
 11
605.8630778022452
 21
1888.09255365892
 31
0.0
  0
LINE
  5
1E70
330
1529
100
AcDbEntity
  8
SUNPOU
  6
CONTINUOUS
100
AcDbLine
 10
598.8630778022447
 20
481.5925536589202
 30
0.0
 11
598.8630778022452
 21
1870.59255365892
 31
0.0
  0
INSERT
  5
1E71
330
1529
100
AcDbEntity
  8
SUNPOU
  6
CONTINUOUS
100
AcDbBlockReference
  2
_OPEN30
 10
598.8630778022447
 20
464.0925536589202
 30
0.0
 41
17.5
 42
17.5
 43
17.5
 50
270.0
  0
INSERT
  5
1E72
330
1529
100
AcDbEntity
  8
SUNPOU
  6
CONTINUOUS
100
AcDbBlockReference
  2
_OPEN30
 10
598.8630778022452
 20
1888.09255365892
 30
0.0
 41
17.5
 42
17.5
 43
17.5
 50
90.0
  0
MTEXT
  5
1E73
330
1529
100
AcDbEntity
  8
SUNPOU
  6
CONTINUOUS
 62
     6
100
AcDbMText
 10
583.1130778022449
 20
1176.092553658921
 30
0.0
 40
17.5
 41
0.0
 71
     5
 72
     1
  1
\A1;W-176
  7
SUNPOU
 11
0.0000000000000001
 21
1.0
 31
0.0
1001
ACAD
1000
MTEXTBEGIN
1070
    73
1070
     1
1070
    44
1040
1.0
1070
    74
1070
     0
1000
MTEXTEND
1000
MTEXTBEGIN
1070
    73
1070
     1
1070
    44
1040
1.0
1070
    74
1070
     0
1000
MTEXTEND
  0
POINT
  5
1E74
330
1529
100
AcDbEntity
  8
DEFPOINTS
  6
CONTINUOUS
 62
     0
100
AcDbPoint
 10
530.8782000742358
 20
464.0925536589202
 30
0.0
  0
POINT
  5
1E75
330
1529
100
AcDbEntity
  8
DEFPOINTS
  6
CONTINUOUS
 62
     0
100
AcDbPoint
 10
517.1837912057322
 20
1888.09255365892
 30
0.0
  0
POINT
  5
1E76
330
1529
100
AcDbEntity
  8
DEFPOINTS
  6
CONTINUOUS
 62
     0
100
AcDbPoint
 10
598.8630778022452
 20
1888.09255365892
 30
0.0
  0
ENDBLK
  5
1534
330
1529
100
AcDbEntity
  8
0
100
AcDbBlockEnd
  0
BLOCK
  5
1540
330
1536
100
AcDbEntity
  8
0
100
AcDbBlockBegin
  2
*D6
 70
     1
 10
0.0
 20
0.0
 30
0.0
  3
*D6
  1

  0
LINE
  5
1EE3
330
1536
100
AcDbEntity
  8
SUNPOU
  6
CONTINUOUS
100
AcDbLine
 10
527.683791205732
 20
1888.09255365892
 30
0.0
 11
605.8630778022452
 21
1888.09255365892
 31
0.0
  0
LINE
  5
1EE4
330
1536
100
AcDbEntity
  8
SUNPOU
  6
CONTINUOUS
100
AcDbLine
 10
560.7630778022447
 20
1976.09255365892
 30
0.0
 11
605.8630778022452
 21
1976.09255365892
 31
0.0
  0
LINE
  5
1EE5
330
1536
100
AcDbEntity
  8
SUNPOU
  6
CONTINUOUS
100
AcDbLine
 10
598.8630778022452
 20
1905.592553658921
 30
0.0
 11
598.8630778022452
 21
1958.59255365892
 31
0.0
  0
INSERT
  5
1EE6
330
1536
100
AcDbEntity
  8
SUNPOU
  6
CONTINUOUS
100
AcDbBlockReference
  2
_OPEN30
 10
598.8630778022452
 20
1888.09255365892
 30
0.0
 41
17.5
 42
17.5
 43
17.5
 50
270.0
  0
INSERT
  5
1EE7
330
1536
100
AcDbEntity
  8
SUNPOU
  6
CONTINUOUS
100
AcDbBlockReference
  2
_OPEN30
 10
598.8630778022452
 20
1976.09255365892
 30
0.0
 41
17.5
 42
17.5
 43
17.5
 50
90.0
  0
MTEXT
  5
1EE8
330
1536
100
AcDbEntity
  8
SUNPOU
  6
CONTINUOUS
 62
     6
100
AcDbMText
 10
583.1130778022449
 20
1932.092553658921
 30
0.0
 40
17.5
 41
0.0
 71
     5
 72
     1
  1
\A1;88
  7
SUNPOU
 11
0.0000000000000001
 21
1.0
 31
0.0
1001
ACAD
1000
MTEXTBEGIN
1070
    73
1070
     1
1070
    44
1040
1.0
1070
    74
1070
     0
1000
MTEXTEND
1000
MTEXTBEGIN
1070
    73
1070
     1
1070
    44
1040
1.0
1070
    74
1070
     0
1000
MTEXTEND
  0
POINT
  5
1EE9
330
1536
100
AcDbEntity
  8
DEFPOINTS
  6
CONTINUOUS
 62
     0
100
AcDbPoint
 10
517.1837912057322
 20
1888.09255365892
 30
0.0
  0
POINT
  5
1EEA
330
1536
100
AcDbEntity
  8
DEFPOINTS
  6
CONTINUOUS
 62
     0
100
AcDbPoint
 10
550.2630778022449
 20
1976.09255365892
 30
0.0
  0
POINT
  5
1EEB
330
1536
100
AcDbEntity
  8
DEFPOINTS
  6
CONTINUOUS
 62
     0
100
AcDbPoint
 10
598.8630778022452
 20
1976.09255365892
 30
0.0
  0
ENDBLK
  5
1541
330
1536
100
AcDbEntity
  8
0
100
AcDbBlockEnd
  0
BLOCK
  5
154D
330
1543
100
AcDbEntity
  8
0
100
AcDbBlockBegin
  2
*D7
 70
     1
 10
0.0
 20
0.0
 30
0.0
  3
*D7
  1

  0
LINE
  5
1E77
330
1543
100
AcDbEntity
  8
SUNPOU
  6
CONTINUOUS
100
AcDbLine
 10
371.3630778022454
 20
1026.09255365892
 30
0.0
 11
314.2610547297393
 21
1026.09255365892
 31
0.0
  0
LINE
  5
1E78
330
1543
100
AcDbEntity
  8
SUNPOU
  6
CONTINUOUS
100
AcDbLine
 10
326.5708939916253
 20
1176.092553658919
 30
0.0
 11
314.2610547297393
 21
1176.092553658919
 31
0.0
  0
LINE
  5
1E79
330
1543
100
AcDbEntity
  8
SUNPOU
  6
CONTINUOUS
100
AcDbLine
 10
321.2610547297393
 20
1043.59255365892
 30
0.0
 11
321.2610547297395
 21
1158.592553658919
 31
0.0
  0
INSERT
  5
1E7A
330
1543
100
AcDbEntity
  8
SUNPOU
  6
CONTINUOUS
100
AcDbBlockReference
  2
_OPEN30
 10
321.2610547297393
 20
1026.09255365892
 30
0.0
 41
17.5
 42
17.5
 43
17.5
 50
270.0
  0
INSERT
  5
1E7B
330
1543
100
AcDbEntity
  8
SUNPOU
  6
CONTINUOUS
100
AcDbBlockReference
  2
_OPEN30
 10
321.2610547297395
 20
1176.092553658919
 30
0.0
 41
17.5
 42
17.5
 43
17.5
 50
90.0
  0
MTEXT
  5
1E7C
330
1543
100
AcDbEntity
  8
SUNPOU
  6
CONTINUOUS
 62
     6
100
AcDbMText
 10
305.5110547297392
 20
1101.09255365892
 30
0.0
 40
17.5
 41
0.0
 71
     5
 72
     1
  1
\A1;150
  7
SUNPOU
 11
0.0000000000000001
 21
1.0
 31
0.0
1001
ACAD
1000
MTEXTBEGIN
1070
    73
1070
     1
1070
    44
1040
1.0
1070
    74
1070
     0
1000
MTEXTEND
1000
MTEXTBEGIN
1070
    73
1070
     1
1070
    44
1040
1.0
1070
    74
1070
     0
1000
MTEXTEND
  0
POINT
  5
1E7D
330
1543
100
AcDbEntity
  8
DEFPOINTS
  6
CONTINUOUS
 62
     0
100
AcDbPoint
 10
381.8630778022454
 20
1026.09255365892
 30
0.0
  0
POINT
  5
1E7E
330
1543
100
AcDbEntity
  8
DEFPOINTS
  6
CONTINUOUS
 62
     0
100
AcDbPoint
 10
337.0708939916253
 20
1176.092553658919
 30
0.0
  0
POINT
  5
1E7F
330
1543
100
AcDbEntity
  8
DEFPOINTS
  6
CONTINUOUS
 62
     0
100
AcDbPoint
 10
321.2610547297395
 20
1176.092553658919
 30
0.0
  0
ENDBLK
  5
154E
330
1543
100
AcDbEntity
  8
0
100
AcDbBlockEnd
  0
BLOCK
  5
155A
330
1550
100
AcDbEntity
  8
0
100
AcDbBlockBegin
  2
*D8
 70
     1
 10
0.0
 20
0.0
 30
0.0
  3
*D8
  1

  0
LINE
  5
1EDA
330
1550
100
AcDbEntity
  8
SUNPOU
  6
CONTINUOUS
100
AcDbLine
 10
326.5708939916253
 20
1176.092553658919
 30
0.0
 11
314.2610547297393
 21
1176.092553658919
 31
0.0
  0
LINE
  5
1EDB
330
1550
100
AcDbEntity
  8
SUNPOU
  6
CONTINUOUS
100
AcDbLine
 10
371.3630778022454
 20
1541.09255365892
 30
0.0
 11
314.2610547297393
 21
1541.09255365892
 31
0.0
  0
LINE
  5
1EDC
330
1550
100
AcDbEntity
  8
SUNPOU
  6
CONTINUOUS
100
AcDbLine
 10
321.2610547297393
 20
1193.59255365892
 30
0.0
 11
321.2610547297395
 21
1523.59255365892
 31
0.0
  0
INSERT
  5
1EDD
330
1550
100
AcDbEntity
  8
SUNPOU
  6
CONTINUOUS
100
AcDbBlockReference
  2
_OPEN30
 10
321.2610547297393
 20
1176.092553658919
 30
0.0
 41
17.5
 42
17.5
 43
17.5
 50
270.0
  0
INSERT
  5
1EDE
330
1550
100
AcDbEntity
  8
SUNPOU
  6
CONTINUOUS
100
AcDbBlockReference
  2
_OPEN30
 10
321.2610547297395
 20
1541.09255365892
 30
0.0
 41
17.5
 42
17.5
 43
17.5
 50
90.0
  0
MTEXT
  5
1EDF
330
1550
100
AcDbEntity
  8
SUNPOU
  6
CONTINUOUS
 62
     6
100
AcDbMText
 10
305.5110547297392
 20
1358.59255365892
 30
0.0
 40
17.5
 41
0.0
 71
     5
 72
     1
  1
\A1;365
  7
SUNPOU
 11
0.0000000000000001
 21
1.0
 31
0.0
1001
ACAD
1000
MTEXTBEGIN
1070
    73
1070
     1
1070
    44
1040
1.0
1070
    74
1070
     0
1000
MTEXTEND
1000
MTEXTBEGIN
1070
    73
1070
     1
1070
    44
1040
1.0
1070
    74
1070
     0
1000
MTEXTEND
  0
POINT
  5
1EE0
330
1550
100
AcDbEntity
  8
DEFPOINTS
  6
CONTINUOUS
 62
     0
100
AcDbPoint
 10
337.0708939916253
 20
1176.092553658919
 30
0.0
  0
POINT
  5
1EE1
330
1550
100
AcDbEntity
  8
DEFPOINTS
  6
CONTINUOUS
 62
     0
100
AcDbPoint
 10
381.8630778022454
 20
1541.09255365892
 30
0.0
  0
POINT
  5
1EE2
330
1550
100
AcDbEntity
  8
DEFPOINTS
  6
CONTINUOUS
 62
     0
100
AcDbPoint
 10
321.2610547297395
 20
1541.09255365892
 30
0.0
  0
ENDBLK
  5
155B
330
1550
100
AcDbEntity
  8
0
100
AcDbBlockEnd
  0
BLOCK
  5
1567
330
155D
100
AcDbEntity
  8
0
100
AcDbBlockBegin
  2
*D9
 70
     1
 10
0.0
 20
0.0
 30
0.0
  3
*D9
  1

  0
LINE
  5
1E80
330
155D
100
AcDbEntity
  8
SUNPOU
  6
CONTINUOUS
100
AcDbLine
 10
371.3630778022454
 20
1026.09255365892
 30
0.0
 11
264.2610547297393
 21
1026.09255365892
 31
0.0
  0
LINE
  5
1E81
330
155D
100
AcDbEntity
  8
SUNPOU
  6
CONTINUOUS
100
AcDbLine
 10
371.3630778022454
 20
1541.09255365892
 30
0.0
 11
264.2610547297394
 21
1541.09255365892
 31
0.0
  0
LINE
  5
1E82
330
155D
100
AcDbEntity
  8
SUNPOU
  6
CONTINUOUS
100
AcDbLine
 10
271.2610547297393
 20
1043.59255365892
 30
0.0
 11
271.2610547297395
 21
1523.59255365892
 31
0.0
  0
INSERT
  5
1E83
330
155D
100
AcDbEntity
  8
SUNPOU
  6
CONTINUOUS
100
AcDbBlockReference
  2
_OPEN30
 10
271.2610547297393
 20
1026.09255365892
 30
0.0
 41
17.5
 42
17.5
 43
17.5
 50
270.0
  0
INSERT
  5
1E84
330
155D
100
AcDbEntity
  8
SUNPOU
  6
CONTINUOUS
100
AcDbBlockReference
  2
_OPEN30
 10
271.2610547297395
 20
1541.09255365892
 30
0.0
 41
17.5
 42
17.5
 43
17.5
 50
90.0
  0
MTEXT
  5
1E85
330
155D
100
AcDbEntity
  8
SUNPOU
  6
CONTINUOUS
 62
     6
100
AcDbMText
 10
255.5110547297391
 20
1283.59255365892
 30
0.0
 40
17.5
 41
0.0
 71
     5
 72
     1
  1
\A1;515
  7
SUNPOU
 11
0.0000000000000001
 21
1.0
 31
0.0
1001
ACAD
1000
MTEXTBEGIN
1070
    73
1070
     1
1070
    44
1040
1.0
1070
    74
1070
     0
1000
MTEXTEND
1000
MTEXTBEGIN
1070
    73
1070
     1
1070
    44
1040
1.0
1070
    74
1070
     0
1000
MTEXTEND
  0
POINT
  5
1E86
330
155D
100
AcDbEntity
  8
DEFPOINTS
  6
CONTINUOUS
 62
     0
100
AcDbPoint
 10
381.8630778022454
 20
1026.09255365892
 30
0.0
  0
POINT
  5
1E87
330
155D
100
AcDbEntity
  8
DEFPOINTS
  6
CONTINUOUS
 62
     0
100
AcDbPoint
 10
381.8630778022454
 20
1541.09255365892
 30
0.0
  0
POINT
  5
1E88
330
155D
100
AcDbEntity
  8
DEFPOINTS
  6
CONTINUOUS
 62
     0
100
AcDbPoint
 10
271.2610547297395
 20
1541.09255365892
 30
0.0
  0
ENDBLK
  5
1568
330
155D
100
AcDbEntity
  8
0
100
AcDbBlockEnd
  0
BLOCK
  5
1574
330
156A
100
AcDbEntity
  8
0
100
AcDbBlockBegin
  2
*D10
 70
     1
 10
0.0
 20
0.0
 30
0.0
  3
*D10
  1

  0
LINE
  5
1E89
330
156A
100
AcDbEntity
  8
SUNPOU
  6
CONTINUOUS
100
AcDbLine
 10
342.9630778022445
 20
376.0925536589211
 30
0.0
 11
214.2610547297393
 21
376.0925536589211
 31
0.0
  0
LINE
  5
1E8A
330
156A
100
AcDbEntity
  8
SUNPOU
  6
CONTINUOUS
100
AcDbLine
 10
326.5708939916253
 20
1176.092553658919
 30
0.0
 11
214.2610547297393
 21
1176.092553658919
 31
0.0
  0
LINE
  5
1E8B
330
156A
100
AcDbEntity
  8
SUNPOU
  6
CONTINUOUS
100
AcDbLine
 10
221.2610547297392
 20
393.5925536589211
 30
0.0
 11
221.2610547297395
 21
1158.592553658919
 31
0.0
  0
INSERT
  5
1E8C
330
156A
100
AcDbEntity
  8
SUNPOU
  6
CONTINUOUS
100
AcDbBlockReference
  2
_OPEN30
 10
221.2610547297392
 20
376.0925536589211
 30
0.0
 41
17.5
 42
17.5
 43
17.5
 50
270.0
  0
INSERT
  5
1E8D
330
156A
100
AcDbEntity
  8
SUNPOU
  6
CONTINUOUS
100
AcDbBlockReference
  2
_OPEN30
 10
221.2610547297395
 20
1176.092553658919
 30
0.0
 41
17.5
 42
17.5
 43
17.5
 50
90.0
  0
MTEXT
  5
1E8E
330
156A
100
AcDbEntity
  8
SUNPOU
  6
CONTINUOUS
 62
     6
100
AcDbMText
 10
205.5110547297393
 20
776.0925536589208
 30
0.0
 40
17.5
 41
0.0
 71
     5
 72
     1
  1
\A1;W/2
  7
SUNPOU
 11
0.0000000000000001
 21
1.0
 31
0.0
1001
ACAD
1000
MTEXTBEGIN
1070
    73
1070
     1
1070
    44
1040
1.0
1070
    74
1070
     0
1000
MTEXTEND
1000
MTEXTBEGIN
1070
    73
1070
     1
1070
    44
1040
1.0
1070
    74
1070
     0
1000
MTEXTEND
  0
POINT
  5
1E8F
330
156A
100
AcDbEntity
  8
DEFPOINTS
  6
CONTINUOUS
 62
     0
100
AcDbPoint
 10
353.4630778022446
 20
376.0925536589211
 30
0.0
  0
POINT
  5
1E90
330
156A
100
AcDbEntity
  8
DEFPOINTS
  6
CONTINUOUS
 62
     0
100
AcDbPoint
 10
337.0708939916253
 20
1176.092553658919
 30
0.0
  0
POINT
  5
1E91
330
156A
100
AcDbEntity
  8
DEFPOINTS
  6
CONTINUOUS
 62
     0
100
AcDbPoint
 10
221.2610547297395
 20
1176.092553658919
 30
0.0
  0
ENDBLK
  5
1575
330
156A
100
AcDbEntity
  8
0
100
AcDbBlockEnd
  0
BLOCK
  5
1581
330
1577
100
AcDbEntity
  8
0
100
AcDbBlockBegin
  2
*D11
 70
     1
 10
0.0
 20
0.0
 30
0.0
  3
*D11
  1

  0
LINE
  5
1ED1
330
1577
100
AcDbEntity
  8
SUNPOU
  6
CONTINUOUS
100
AcDbLine
 10
326.5708939916253
 20
1176.092553658919
 30
0.0
 11
214.2610547297394
 21
1176.092553658919
 31
0.0
  0
LINE
  5
1ED2
330
1577
100
AcDbEntity
  8
SUNPOU
  6
CONTINUOUS
100
AcDbLine
 10
342.9630778022448
 20
1976.09255365892
 30
0.0
 11
214.2610547297397
 21
1976.09255365892
 31
0.0
  0
LINE
  5
1ED3
330
1577
100
AcDbEntity
  8
SUNPOU
  6
CONTINUOUS
100
AcDbLine
 10
221.2610547297395
 20
1193.59255365892
 30
0.0
 11
221.2610547297396
 21
1958.59255365892
 31
0.0
  0
INSERT
  5
1ED4
330
1577
100
AcDbEntity
  8
SUNPOU
  6
CONTINUOUS
100
AcDbBlockReference
  2
_OPEN30
 10
221.2610547297395
 20
1176.092553658919
 30
0.0
 41
17.5
 42
17.5
 43
17.5
 50
270.0
  0
INSERT
  5
1ED5
330
1577
100
AcDbEntity
  8
SUNPOU
  6
CONTINUOUS
100
AcDbBlockReference
  2
_OPEN30
 10
221.2610547297396
 20
1976.09255365892
 30
0.0
 41
17.5
 42
17.5
 43
17.5
 50
90.0
  0
MTEXT
  5
1ED6
330
1577
100
AcDbEntity
  8
SUNPOU
  6
CONTINUOUS
 62
     6
100
AcDbMText
 10
205.5110547297394
 20
1576.09255365892
 30
0.0
 40
17.5
 41
0.0
 71
     5
 72
     1
  1
\A1;W/2
  7
SUNPOU
 11
0.0000000000000001
 21
1.0
 31
0.0
1001
ACAD
1000
MTEXTBEGIN
1070
    73
1070
     1
1070
    44
1040
1.0
1070
    74
1070
     0
1000
MTEXTEND
1000
MTEXTBEGIN
1070
    73
1070
     1
1070
    44
1040
1.0
1070
    74
1070
     0
1000
MTEXTEND
  0
POINT
  5
1ED7
330
1577
100
AcDbEntity
  8
DEFPOINTS
  6
CONTINUOUS
 62
     0
100
AcDbPoint
 10
337.0708939916253
 20
1176.092553658919
 30
0.0
  0
POINT
  5
1ED8
330
1577
100
AcDbEntity
  8
DEFPOINTS
  6
CONTINUOUS
 62
     0
100
AcDbPoint
 10
353.4630778022448
 20
1976.09255365892
 30
0.0
  0
POINT
  5
1ED9
330
1577
100
AcDbEntity
  8
DEFPOINTS
  6
CONTINUOUS
 62
     0
100
AcDbPoint
 10
221.2610547297396
 20
1976.09255365892
 30
0.0
  0
ENDBLK
  5
1582
330
1577
100
AcDbEntity
  8
0
100
AcDbBlockEnd
  0
BLOCK
  5
158E
330
1584
100
AcDbEntity
  8
0
100
AcDbBlockBegin
  2
*D12
 70
     1
 10
0.0
 20
0.0
 30
0.0
  3
*D12
  1

  0
LINE
  5
1E92
330
1584
100
AcDbEntity
  8
SUNPOU
  6
CONTINUOUS
100
AcDbLine
 10
342.9630778022445
 20
376.0925536589211
 30
0.0
 11
174.2610547297392
 21
376.0925536589211
 31
0.0
  0
LINE
  5
1E93
330
1584
100
AcDbEntity
  8
SUNPOU
  6
CONTINUOUS
100
AcDbLine
 10
342.9630778022448
 20
1976.09255365892
 30
0.0
 11
174.2610547297396
 21
1976.09255365892
 31
0.0
  0
LINE
  5
1E94
330
1584
100
AcDbEntity
  8
SUNPOU
  6
CONTINUOUS
100
AcDbLine
 10
181.2610547297392
 20
393.5925536589211
 30
0.0
 11
181.2610547297397
 21
1958.59255365892
 31
0.0
  0
INSERT
  5
1E95
330
1584
100
AcDbEntity
  8
SUNPOU
  6
CONTINUOUS
100
AcDbBlockReference
  2
_OPEN30
 10
181.2610547297392
 20
376.0925536589211
 30
0.0
 41
17.5
 42
17.5
 43
17.5
 50
270.0
  0
INSERT
  5
1E96
330
1584
100
AcDbEntity
  8
SUNPOU
  6
CONTINUOUS
100
AcDbBlockReference
  2
_OPEN30
 10
181.2610547297397
 20
1976.09255365892
 30
0.0
 41
17.5
 42
17.5
 43
17.5
 50
90.0
  0
MTEXT
  5
1E97
330
1584
100
AcDbEntity
  8
SUNPOU
  6
CONTINUOUS
 62
     6
100
AcDbMText
 10
165.5110547297392
 20
1176.092553658921
 30
0.0
 40
17.5
 41
0.0
 71
     5
 72
     1
  1
\A1;W
  7
SUNPOU
 11
0.0000000000000001
 21
1.0
 31
0.0
1001
ACAD
1000
MTEXTBEGIN
1070
    73
1070
     1
1070
    44
1040
1.0
1070
    74
1070
     0
1000
MTEXTEND
1000
MTEXTBEGIN
1070
    73
1070
     1
1070
    44
1040
1.0
1070
    74
1070
     0
1000
MTEXTEND
  0
POINT
  5
1E98
330
1584
100
AcDbEntity
  8
DEFPOINTS
  6
CONTINUOUS
 62
     0
100
AcDbPoint
 10
353.4630778022446
 20
376.0925536589211
 30
0.0
  0
POINT
  5
1E99
330
1584
100
AcDbEntity
  8
DEFPOINTS
  6
CONTINUOUS
 62
     0
100
AcDbPoint
 10
353.4630778022448
 20
1976.09255365892
 30
0.0
  0
POINT
  5
1E9A
330
1584
100
AcDbEntity
  8
DEFPOINTS
  6
CONTINUOUS
 62
     0
100
AcDbPoint
 10
181.2610547297397
 20
1976.09255365892
 30
0.0
  0
ENDBLK
  5
158F
330
1584
100
AcDbEntity
  8
0
100
AcDbBlockEnd
  0
BLOCK
  5
159D
330
1591
100
AcDbEntity
  8
0
100
AcDbBlockBegin
  2
*D13
 70
     1
 10
0.0
 20
0.0
 30
0.0
  3
*D13
  1

  0
LINE
  5
1F19
330
1591
100
AcDbEntity
  8
SUNPOU
  6
CONTINUOUS
100
AcDbLine
 10
1201.863077802244
 20
337.1925536589206
 30
0.0
 11
1201.863077802244
 21
273.4925536589205
 31
0.0
  0
LINE
  5
1F1A
330
1591
100
AcDbEntity
  8
SUNPOU
  6
CONTINUOUS
100
AcDbLine
 10
1198.863077802245
 20
365.5925536589205
 30
0.0
 11
1198.863077802245
 21
273.4925536589205
 31
0.0
  0
LINE
  5
1F1B
330
1591
100
AcDbEntity
  8
SUNPOU
  6
CONTINUOUS
100
AcDbLine
 10
1219.363077802245
 20
280.4925536589205
 30
0.0
 11
1236.863077802244
 21
280.4925536589205
 31
0.0
  0
LINE
  5
1F1C
330
1591
100
AcDbEntity
  8
SUNPOU
  6
CONTINUOUS
100
AcDbLine
 10
1181.363077802245
 20
280.4925536589205
 30
0.0
 11
1163.863077802245
 21
280.4925536589205
 31
0.0
  0
MTEXT
  5
1F1D
330
1591
100
AcDbEntity
  8
SUNPOU
  6
CONTINUOUS
 62
     6
100
AcDbMText
 10
1223.90365009743
 20
261.7630007508013
 30
0.0
 40
17.5
 41
0.0
 71
     5
 72
     1
  1
\A1;3
  7
SUNPOU
 11
-1.0
 21
0.0000000000000001
 31
0.0
1001
ACAD
1000
MTEXTBEGIN
1070
    73
1070
     1
1070
    44
1040
1.0
1070
    74
1070
     0
1000
MTEXTEND
1000
MTEXTBEGIN
1070
    73
1070
     1
1070
    44
1040
1.0
1070
    74
1070
     0
1000
MTEXTEND
  0
LINE
  5
1F1E
330
1591
100
AcDbEntity
  8
SUNPOU
  6
CONTINUOUS
100
AcDbLine
 10
1201.863077802244
 20
280.4925536589205
 30
0.0
 11
1198.863077802245
 21
280.4925536589205
 31
0.0
  0
INSERT
  5
1F1F
330
1591
100
AcDbEntity
  8
SUNPOU
  6
CONTINUOUS
100
AcDbBlockReference
  2
_OPEN30
 10
1201.863077802244
 20
280.4925536589205
 30
0.0
 41
17.5
 42
17.5
 43
17.5
 50
180.0
  0
INSERT
  5
1F20
330
1591
100
AcDbEntity
  8
SUNPOU
  6
CONTINUOUS
100
AcDbBlockReference
  2
_OPEN30
 10
1198.863077802245
 20
280.4925536589205
 30
0.0
 41
17.5
 42
17.5
 43
17.5
  0
POINT
  5
1F21
330
1591
100
AcDbEntity
  8
DEFPOINTS
  6
CONTINUOUS
 62
     0
100
AcDbPoint
 10
1201.863077802244
 20
347.6925536589206
 30
0.0
  0
POINT
  5
1F22
330
1591
100
AcDbEntity
  8
DEFPOINTS
  6
CONTINUOUS
 62
     0
100
AcDbPoint
 10
1198.863077802245
 20
376.0925536589205
 30
0.0
  0
POINT
  5
1F23
330
1591
100
AcDbEntity
  8
DEFPOINTS
  6
CONTINUOUS
 62
     0
100
AcDbPoint
 10
1198.863077802245
 20
280.4925536589205
 30
0.0
  0
ENDBLK
  5
159E
330
1591
100
AcDbEntity
  8
0
100
AcDbBlockEnd
  0
BLOCK
  5
15AA
330
15A0
100
AcDbEntity
  8
0
100
AcDbBlockBegin
  2
*D14
 70
     1
 10
0.0
 20
0.0
 30
0.0
  3
*D14
  1

  0
LINE
  5
1F3A
330
15A0
100
AcDbEntity
  8
SUNPOU
  6
CONTINUOUS
100
AcDbLine
 10
1198.863077802245
 20
365.5925536589205
 30
0.0
 11
1198.863077802245
 21
273.4925536589206
 31
0.0
  0
LINE
  5
1F3B
330
15A0
100
AcDbEntity
  8
SUNPOU
  6
CONTINUOUS
100
AcDbLine
 10
1004.863077802244
 20
365.5925536589202
 30
0.0
 11
1004.863077802244
 21
273.4925536589206
 31
0.0
  0
LINE
  5
1F3C
330
15A0
100
AcDbEntity
  8
SUNPOU
  6
CONTINUOUS
100
AcDbLine
 10
1181.363077802245
 20
280.4925536589206
 30
0.0
 11
1022.363077802243
 21
280.4925536589206
 31
0.0
  0
MTEXT
  5
1F3D
330
15A0
100
AcDbEntity
  8
SUNPOU
  6
CONTINUOUS
 62
     6
100
AcDbMText
 10
1101.863077802245
 20
261.1562948597393
 30
0.0
 40
17.5
 41
0.0
 71
     5
 72
     1
  1
\A1;194
  7
SUNPOU
 11
-1.0
 21
0.0000000000000001
 31
0.0
1001
ACAD
1000
MTEXTBEGIN
1070
    73
1070
     1
1070
    44
1040
1.0
1070
    74
1070
     0
1000
MTEXTEND
1000
MTEXTBEGIN
1070
    73
1070
     1
1070
    44
1040
1.0
1070
    74
1070
     0
1000
MTEXTEND
  0
INSERT
  5
1F3E
330
15A0
100
AcDbEntity
  8
SUNPOU
  6
CONTINUOUS
100
AcDbBlockReference
  2
_OPEN30
 10
1198.863077802245
 20
280.4925536589206
 30
0.0
 41
17.5
 42
17.5
 43
17.5
  0
INSERT
  5
1F3F
330
15A0
100
AcDbEntity
  8
SUNPOU
  6
CONTINUOUS
100
AcDbBlockReference
  2
_OPEN30
 10
1004.863077802244
 20
280.4925536589206
 30
0.0
 41
17.5
 42
17.5
 43
17.5
 50
180.0
  0
POINT
  5
1F40
330
15A0
100
AcDbEntity
  8
DEFPOINTS
  6
CONTINUOUS
 62
     0
100
AcDbPoint
 10
1198.863077802245
 20
376.0925536589205
 30
0.0
  0
POINT
  5
1F41
330
15A0
100
AcDbEntity
  8
DEFPOINTS
  6
CONTINUOUS
 62
     0
100
AcDbPoint
 10
1004.863077802244
 20
376.0925536589202
 30
0.0
  0
POINT
  5
1F42
330
15A0
100
AcDbEntity
  8
DEFPOINTS
  6
CONTINUOUS
 62
     0
100
AcDbPoint
 10
1004.863077802244
 20
280.4925536589206
 30
0.0
  0
ENDBLK
  5
15AB
330
15A0
100
AcDbEntity
  8
0
100
AcDbBlockEnd
  0
BLOCK
  5
15B9
330
15AD
100
AcDbEntity
  8
0
100
AcDbBlockBegin
  2
*D15
 70
     1
 10
0.0
 20
0.0
 30
0.0
  3
*D15
  1

  0
LINE
  5
1F2F
330
15AD
100
AcDbEntity
  8
SUNPOU
  6
CONTINUOUS
100
AcDbLine
 10
1004.863077802244
 20
365.5925536589202
 30
0.0
 11
1004.863077802244
 21
273.4925536589206
 31
0.0
  0
LINE
  5
1F30
330
15AD
100
AcDbEntity
  8
SUNPOU
  6
CONTINUOUS
100
AcDbLine
 10
1001.863077802243
 20
337.1925536589206
 30
0.0
 11
1001.863077802243
 21
273.4925536589206
 31
0.0
  0
LINE
  5
1F31
330
15AD
100
AcDbEntity
  8
SUNPOU
  6
CONTINUOUS
100
AcDbLine
 10
1022.363077802243
 20
280.4925536589206
 30
0.0
 11
1039.863077802243
 21
280.4925536589206
 31
0.0
  0
LINE
  5
1F32
330
15AD
100
AcDbEntity
  8
SUNPOU
  6
CONTINUOUS
100
AcDbLine
 10
984.3630778022443
 20
280.4925536589206
 30
0.0
 11
966.8630778022444
 21
280.4925536589206
 31
0.0
  0
MTEXT
  5
1F33
330
15AD
100
AcDbEntity
  8
SUNPOU
  6
CONTINUOUS
 62
     6
100
AcDbMText
 10
974.7041991591395
 20
261.2802710886743
 30
0.0
 40
17.5
 41
0.0
 71
     5
 72
     1
  1
\A1;3
  7
SUNPOU
 11
-1.0
 21
0.0000000000000001
 31
0.0
1001
ACAD
1000
MTEXTBEGIN
1070
    73
1070
     1
1070
    44
1040
1.0
1070
    74
1070
     0
1000
MTEXTEND
1000
MTEXTBEGIN
1070
    73
1070
     1
1070
    44
1040
1.0
1070
    74
1070
     0
1000
MTEXTEND
  0
LINE
  5
1F34
330
15AD
100
AcDbEntity
  8
SUNPOU
  6
CONTINUOUS
100
AcDbLine
 10
1004.863077802244
 20
280.4925536589206
 30
0.0
 11
1001.863077802243
 21
280.4925536589206
 31
0.0
  0
INSERT
  5
1F35
330
15AD
100
AcDbEntity
  8
SUNPOU
  6
CONTINUOUS
100
AcDbBlockReference
  2
_OPEN30
 10
1004.863077802244
 20
280.4925536589206
 30
0.0
 41
17.5
 42
17.5
 43
17.5
 50
180.0
  0
INSERT
  5
1F36
330
15AD
100
AcDbEntity
  8
SUNPOU
  6
CONTINUOUS
100
AcDbBlockReference
  2
_OPEN30
 10
1001.863077802243
 20
280.4925536589206
 30
0.0
 41
17.5
 42
17.5
 43
17.5
  0
POINT
  5
1F37
330
15AD
100
AcDbEntity
  8
DEFPOINTS
  6
CONTINUOUS
 62
     0
100
AcDbPoint
 10
1004.863077802244
 20
376.0925536589202
 30
0.0
  0
POINT
  5
1F38
330
15AD
100
AcDbEntity
  8
DEFPOINTS
  6
CONTINUOUS
 62
     0
100
AcDbPoint
 10
1001.863077802243
 20
347.6925536589206
 30
0.0
  0
POINT
  5
1F39
330
15AD
100
AcDbEntity
  8
DEFPOINTS
  6
CONTINUOUS
 62
     0
100
AcDbPoint
 10
1001.863077802243
 20
280.4925536589206
 30
0.0
  0
ENDBLK
  5
15BA
330
15AD
100
AcDbEntity
  8
0
100
AcDbBlockEnd
  0
BLOCK
  5
15C6
330
15BC
100
AcDbEntity
  8
0
100
AcDbBlockBegin
  2
*D16
 70
     1
 10
0.0
 20
0.0
 30
0.0
  3
*D16
  1

  0
LINE
  5
1F4C
330
15BC
100
AcDbEntity
  8
SUNPOU
  6
CONTINUOUS
100
AcDbLine
 10
1201.863077802244
 20
337.1925536589206
 30
0.0
 11
1201.863077802244
 21
223.4925536589205
 31
0.0
  0
LINE
  5
1F4D
330
15BC
100
AcDbEntity
  8
SUNPOU
  6
CONTINUOUS
100
AcDbLine
 10
1001.863077802243
 20
337.1925536589206
 30
0.0
 11
1001.863077802243
 21
223.4925536589205
 31
0.0
  0
LINE
  5
1F4E
330
15BC
100
AcDbEntity
  8
SUNPOU
  6
CONTINUOUS
100
AcDbLine
 10
1184.363077802243
 20
230.4925536589205
 30
0.0
 11
1019.363077802243
 21
230.4925536589205
 31
0.0
  0
MTEXT
  5
1F4F
330
15BC
100
AcDbEntity
  8
SUNPOU
  6
CONTINUOUS
 62
     6
100
AcDbMText
 10
1101.863077802244
 20
213.1279003496238
 30
0.0
 40
17.5
 41
0.0
 71
     5
 72
     1
  1
\A1;200
  7
SUNPOU
 11
-1.0
 21
0.0000000000000001
 31
0.0
1001
ACAD
1000
MTEXTBEGIN
1070
    73
1070
     1
1070
    44
1040
1.0
1070
    74
1070
     0
1000
MTEXTEND
1000
MTEXTBEGIN
1070
    73
1070
     1
1070
    44
1040
1.0
1070
    74
1070
     0
1000
MTEXTEND
  0
INSERT
  5
1F50
330
15BC
100
AcDbEntity
  8
SUNPOU
  6
CONTINUOUS
100
AcDbBlockReference
  2
_OPEN30
 10
1201.863077802244
 20
230.4925536589205
 30
0.0
 41
17.5
 42
17.5
 43
17.5
  0
INSERT
  5
1F51
330
15BC
100
AcDbEntity
  8
SUNPOU
  6
CONTINUOUS
100
AcDbBlockReference
  2
_OPEN30
 10
1001.863077802243
 20
230.4925536589205
 30
0.0
 41
17.5
 42
17.5
 43
17.5
 50
180.0
  0
POINT
  5
1F52
330
15BC
100
AcDbEntity
  8
DEFPOINTS
  6
CONTINUOUS
 62
     0
100
AcDbPoint
 10
1201.863077802244
 20
347.6925536589206
 30
0.0
  0
POINT
  5
1F53
330
15BC
100
AcDbEntity
  8
DEFPOINTS
  6
CONTINUOUS
 62
     0
100
AcDbPoint
 10
1001.863077802243
 20
347.6925536589206
 30
0.0
  0
POINT
  5
1F54
330
15BC
100
AcDbEntity
  8
DEFPOINTS
  6
CONTINUOUS
 62
     0
100
AcDbPoint
 10
1001.863077802243
 20
230.4925536589205
 30
0.0
  0
ENDBLK
  5
15C7
330
15BC
100
AcDbEntity
  8
0
100
AcDbBlockEnd
  0
BLOCK
  5
15D3
330
15C9
100
AcDbEntity
  8
0
100
AcDbBlockBegin
  2
*D17
 70
     1
 10
0.0
 20
0.0
 30
0.0
  3
*D17
  1

  0
LINE
  5
1F43
330
15C9
100
AcDbEntity
  8
SUNPOU
  6
CONTINUOUS
100
AcDbLine
 10
1061.863077802245
 20
403.5925536589193
 30
0.0
 11
1061.863077802245
 21
324.7991583501606
 31
0.0
  0
LINE
  5
1F44
330
15C9
100
AcDbEntity
  8
SUNPOU
  6
CONTINUOUS
100
AcDbLine
 10
1141.863077802245
 20
403.5925536589193
 30
0.0
 11
1141.863077802245
 21
324.7991583501606
 31
0.0
  0
LINE
  5
1F45
330
15C9
100
AcDbEntity
  8
SUNPOU
  6
CONTINUOUS
100
AcDbLine
 10
1079.363077802245
 20
331.7991583501606
 30
0.0
 11
1124.363077802245
 21
331.7991583501606
 31
0.0
  0
MTEXT
  5
1F46
330
15C9
100
AcDbEntity
  8
SUNPOU
  6
CONTINUOUS
 62
     6
100
AcDbMText
 10
1101.863077802245
 20
314.0827310028471
 30
0.0
 40
17.5
 41
0.0
 71
     5
 72
     1
  1
\A1;80
  7
SUNPOU
 11
-1.0
 21
0.0000000000000001
 31
0.0
1001
ACAD
1000
MTEXTBEGIN
1070
    73
1070
     1
1070
    44
1040
1.0
1070
    74
1070
     0
1000
MTEXTEND
1000
MTEXTBEGIN
1070
    73
1070
     1
1070
    44
1040
1.0
1070
    74
1070
     0
1000
MTEXTEND
  0
INSERT
  5
1F47
330
15C9
100
AcDbEntity
  8
SUNPOU
  6
CONTINUOUS
100
AcDbBlockReference
  2
_OPEN30
 10
1061.863077802245
 20
331.7991583501606
 30
0.0
 41
17.5
 42
17.5
 43
17.5
 50
180.0
  0
INSERT
  5
1F48
330
15C9
100
AcDbEntity
  8
SUNPOU
  6
CONTINUOUS
100
AcDbBlockReference
  2
_OPEN30
 10
1141.863077802245
 20
331.7991583501606
 30
0.0
 41
17.5
 42
17.5
 43
17.5
  0
POINT
  5
1F49
330
15C9
100
AcDbEntity
  8
DEFPOINTS
  6
CONTINUOUS
 62
     0
100
AcDbPoint
 10
1061.863077802245
 20
414.0925536589191
 30
0.0
  0
POINT
  5
1F4A
330
15C9
100
AcDbEntity
  8
DEFPOINTS
  6
CONTINUOUS
 62
     0
100
AcDbPoint
 10
1141.863077802245
 20
414.0925536589191
 30
0.0
  0
POINT
  5
1F4B
330
15C9
100
AcDbEntity
  8
DEFPOINTS
  6
CONTINUOUS
 62
     0
100
AcDbPoint
 10
1141.863077802245
 20
331.7991583501606
 30
0.0
  0
ENDBLK
  5
15D4
330
15C9
100
AcDbEntity
  8
0
100
AcDbBlockEnd
  0
BLOCK
  5
15E2
330
15D6
100
AcDbEntity
  8
0
100
AcDbBlockBegin
  2
*D18
 70
     1
 10
0.0
 20
0.0
 30
0.0
  3
*D18
  1

  0
LINE
  5
1F24
330
15D6
100
AcDbEntity
  8
SUNPOU
  6
CONTINUOUS
100
AcDbLine
 10
992.9630778022447
 20
376.0925536589205
 30
0.0
 11
914.2610547297394
 21
376.0925536589205
 31
0.0
  0
LINE
  5
1F25
330
15D6
100
AcDbEntity
  8
SUNPOU
  6
CONTINUOUS
100
AcDbLine
 10
980.1739281400116
 20
424.0925536589193
 30
0.0
 11
914.2610547297394
 21
424.0925536589193
 31
0.0
  0
LINE
  5
1F26
330
15D6
100
AcDbEntity
  8
SUNPOU
  6
CONTINUOUS
100
AcDbLine
 10
921.2610547297394
 20
358.5925536589205
 30
0.0
 11
921.2610547297394
 21
341.0925536589207
 31
0.0
  0
LINE
  5
1F27
330
15D6
100
AcDbEntity
  8
SUNPOU
  6
CONTINUOUS
100
AcDbLine
 10
921.2610547297394
 20
441.5925536589193
 30
0.0
 11
921.2610547297394
 21
459.0925536589193
 31
0.0
  0
LINE
  5
1F28
330
15D6
100
AcDbEntity
  8
SUNPOU
  6
CONTINUOUS
100
AcDbLine
 10
921.2610547297394
 20
376.0925536589205
 30
0.0
 11
921.2610547297394
 21
424.0925536589193
 31
0.0
  0
INSERT
  5
1F29
330
15D6
100
AcDbEntity
  8
SUNPOU
  6
CONTINUOUS
100
AcDbBlockReference
  2
_OPEN30
 10
921.2610547297394
 20
376.0925536589205
 30
0.0
 41
17.5
 42
17.5
 43
17.5
 50
90.0
  0
INSERT
  5
1F2A
330
15D6
100
AcDbEntity
  8
SUNPOU
  6
CONTINUOUS
100
AcDbBlockReference
  2
_OPEN30
 10
921.2610547297394
 20
424.0925536589193
 30
0.0
 41
17.5
 42
17.5
 43
17.5
 50
270.0
  0
MTEXT
  5
1F2B
330
15D6
100
AcDbEntity
  8
SUNPOU
  6
CONTINUOUS
 62
     6
100
AcDbMText
 10
905.5110547297394
 20
400.0925536589202
 30
0.0
 40
17.5
 41
0.0
 71
     5
 72
     1
  1
\A1;48
  7
SUNPOU
 11
0.0000000000000001
 21
1.0
 31
0.0
1001
ACAD
1000
MTEXTBEGIN
1070
    73
1070
     1
1070
    44
1040
1.0
1070
    74
1070
     0
1000
MTEXTEND
1000
MTEXTBEGIN
1070
    73
1070
     1
1070
    44
1040
1.0
1070
    74
1070
     0
1000
MTEXTEND
  0
POINT
  5
1F2C
330
15D6
100
AcDbEntity
  8
DEFPOINTS
  6
CONTINUOUS
 62
     0
100
AcDbPoint
 10
1003.463077802243
 20
376.0925536589205
 30
0.0
  0
POINT
  5
1F2D
330
15D6
100
AcDbEntity
  8
DEFPOINTS
  6
CONTINUOUS
 62
     0
100
AcDbPoint
 10
990.673928140012
 20
424.0925536589193
 30
0.0
  0
POINT
  5
1F2E
330
15D6
100
AcDbEntity
  8
DEFPOINTS
  6
CONTINUOUS
 62
     0
100
AcDbPoint
 10
921.2610547297394
 20
424.0925536589193
 30
0.0
  0
ENDBLK
  5
15E3
330
15D6
100
AcDbEntity
  8
0
100
AcDbBlockEnd
  0
BLOCK
  5
15EF
330
15E5
100
AcDbEntity
  8
0
100
AcDbBlockBegin
  2
*D19
 70
     1
 10
0.0
 20
0.0
 30
0.0
  3
*D19
  1

  0
LINE
  5
1F55
330
15E5
100
AcDbEntity
  8
SUNPOU
  6
CONTINUOUS
100
AcDbLine
 10
980.1739281400116
 20
424.0925536589193
 30
0.0
 11
914.2610547297394
 21
424.0925536589193
 31
0.0
  0
LINE
  5
1F56
330
15E5
100
AcDbEntity
  8
SUNPOU
  6
CONTINUOUS
100
AcDbLine
 10
980.1739281400116
 20
504.0925536589193
 30
0.0
 11
914.2610547297394
 21
504.0925536589193
 31
0.0
  0
LINE
  5
1F57
330
15E5
100
AcDbEntity
  8
SUNPOU
  6
CONTINUOUS
100
AcDbLine
 10
921.2610547297394
 20
441.5925536589193
 30
0.0
 11
921.2610547297394
 21
486.5925536589193
 31
0.0
  0
INSERT
  5
1F58
330
15E5
100
AcDbEntity
  8
SUNPOU
  6
CONTINUOUS
100
AcDbBlockReference
  2
_OPEN30
 10
921.2610547297394
 20
424.0925536589193
 30
0.0
 41
17.5
 42
17.5
 43
17.5
 50
270.0
  0
INSERT
  5
1F59
330
15E5
100
AcDbEntity
  8
SUNPOU
  6
CONTINUOUS
100
AcDbBlockReference
  2
_OPEN30
 10
921.2610547297394
 20
504.0925536589193
 30
0.0
 41
17.5
 42
17.5
 43
17.5
 50
90.0
  0
MTEXT
  5
1F5A
330
15E5
100
AcDbEntity
  8
SUNPOU
  6
CONTINUOUS
 62
     6
100
AcDbMText
 10
905.5110547297394
 20
464.0925536589193
 30
0.0
 40
17.5
 41
0.0
 71
     5
 72
     1
  1
\A1;80
  7
SUNPOU
 11
0.0000000000000001
 21
1.0
 31
0.0
1001
ACAD
1000
MTEXTBEGIN
1070
    73
1070
     1
1070
    44
1040
1.0
1070
    74
1070
     0
1000
MTEXTEND
1000
MTEXTBEGIN
1070
    73
1070
     1
1070
    44
1040
1.0
1070
    74
1070
     0
1000
MTEXTEND
  0
POINT
  5
1F5B
330
15E5
100
AcDbEntity
  8
DEFPOINTS
  6
CONTINUOUS
 62
     0
100
AcDbPoint
 10
990.673928140012
 20
424.0925536589193
 30
0.0
  0
POINT
  5
1F5C
330
15E5
100
AcDbEntity
  8
DEFPOINTS
  6
CONTINUOUS
 62
     0
100
AcDbPoint
 10
990.673928140012
 20
504.0925536589193
 30
0.0
  0
POINT
  5
1F5D
330
15E5
100
AcDbEntity
  8
DEFPOINTS
  6
CONTINUOUS
 62
     0
100
AcDbPoint
 10
921.2610547297394
 20
504.0925536589193
 30
0.0
  0
ENDBLK
  5
15F0
330
15E5
100
AcDbEntity
  8
0
100
AcDbBlockEnd
  0
BLOCK
  5
15FC
330
15F2
100
AcDbEntity
  8
0
100
AcDbBlockBegin
  2
*D20
 70
     1
 10
0.0
 20
0.0
 30
0.0
  3
*D20
  1

  0
LINE
  5
1EF5
330
15F2
100
AcDbEntity
  8
SUNPOU
  6
CONTINUOUS
100
AcDbLine
 10
992.8059502723579
 20
376.0848196352422
 30
0.0
 11
864.2610547297397
 21
376.0848196352422
 31
0.0
  0
LINE
  5
1EF6
330
15F2
100
AcDbEntity
  8
SUNPOU
  6
CONTINUOUS
100
AcDbLine
 10
978.240667874998
 20
1176.092553658919
 30
0.0
 11
864.2610547297397
 21
1176.092553658919
 31
0.0
  0
LINE
  5
1EF7
330
15F2
100
AcDbEntity
  8
SUNPOU
  6
CONTINUOUS
100
AcDbLine
 10
871.2610547297398
 20
393.5848196352421
 30
0.0
 11
871.26105472974
 21
1158.592553658919
 31
0.0
  0
INSERT
  5
1EF8
330
15F2
100
AcDbEntity
  8
SUNPOU
  6
CONTINUOUS
100
AcDbBlockReference
  2
_OPEN30
 10
871.2610547297398
 20
376.0848196352422
 30
0.0
 41
17.5
 42
17.5
 43
17.5
 50
270.0
  0
INSERT
  5
1EF9
330
15F2
100
AcDbEntity
  8
SUNPOU
  6
CONTINUOUS
100
AcDbBlockReference
  2
_OPEN30
 10
871.26105472974
 20
1176.092553658919
 30
0.0
 41
17.5
 42
17.5
 43
17.5
 50
90.0
  0
MTEXT
  5
1EFA
330
15F2
100
AcDbEntity
  8
SUNPOU
  6
CONTINUOUS
 62
     6
100
AcDbMText
 10
855.5110547297397
 20
776.0886866470817
 30
0.0
 40
17.5
 41
0.0
 71
     5
 72
     1
  1
\A1;W/2
  7
SUNPOU
 11
0.0000000000000001
 21
1.0
 31
0.0
1001
ACAD
1000
MTEXTBEGIN
1070
    73
1070
     1
1070
    44
1040
1.0
1070
    74
1070
     0
1000
MTEXTEND
1000
MTEXTBEGIN
1070
    73
1070
     1
1070
    44
1040
1.0
1070
    74
1070
     0
1000
MTEXTEND
  0
POINT
  5
1EFB
330
15F2
100
AcDbEntity
  8
DEFPOINTS
  6
CONTINUOUS
 62
     0
100
AcDbPoint
 10
1003.305950272358
 20
376.0848196352422
 30
0.0
  0
POINT
  5
1EFC
330
15F2
100
AcDbEntity
  8
DEFPOINTS
  6
CONTINUOUS
 62
     0
100
AcDbPoint
 10
988.7406678749981
 20
1176.092553658919
 30
0.0
  0
POINT
  5
1EFD
330
15F2
100
AcDbEntity
  8
DEFPOINTS
  6
CONTINUOUS
 62
     0
100
AcDbPoint
 10
871.26105472974
 20
1176.092553658919
 30
0.0
  0
ENDBLK
  5
15FD
330
15F2
100
AcDbEntity
  8
0
100
AcDbBlockEnd
  0
BLOCK
  5
1609
330
15FF
100
AcDbEntity
  8
0
100
AcDbBlockBegin
  2
*D21
 70
     1
 10
0.0
 20
0.0
 30
0.0
  3
*D21
  1

  0
LINE
  5
1F86
330
15FF
100
AcDbEntity
  8
SUNPOU
  6
CONTINUOUS
100
AcDbLine
 10
978.240667874998
 20
1176.092553658919
 30
0.0
 11
864.2610547297397
 21
1176.092553658919
 31
0.0
  0
LINE
  5
1F87
330
15FF
100
AcDbEntity
  8
SUNPOU
  6
CONTINUOUS
100
AcDbLine
 10
992.9630778022447
 20
1976.09255365892
 30
0.0
 11
864.2610547297397
 21
1976.09255365892
 31
0.0
  0
LINE
  5
1F88
330
15FF
100
AcDbEntity
  8
SUNPOU
  6
CONTINUOUS
100
AcDbLine
 10
871.2610547297398
 20
1193.59255365892
 30
0.0
 11
871.26105472974
 21
1958.592553658919
 31
0.0
  0
INSERT
  5
1F89
330
15FF
100
AcDbEntity
  8
SUNPOU
  6
CONTINUOUS
100
AcDbBlockReference
  2
_OPEN30
 10
871.2610547297398
 20
1176.092553658919
 30
0.0
 41
17.5
 42
17.5
 43
17.5
 50
270.0
  0
INSERT
  5
1F8A
330
15FF
100
AcDbEntity
  8
SUNPOU
  6
CONTINUOUS
100
AcDbBlockReference
  2
_OPEN30
 10
871.26105472974
 20
1976.09255365892
 30
0.0
 41
17.5
 42
17.5
 43
17.5
 50
90.0
  0
MTEXT
  5
1F8B
330
15FF
100
AcDbEntity
  8
SUNPOU
  6
CONTINUOUS
 62
     6
100
AcDbMText
 10
855.5110547297395
 20
1576.09255365892
 30
0.0
 40
17.5
 41
0.0
 71
     5
 72
     1
  1
\A1;W/2
  7
SUNPOU
 11
0.0000000000000001
 21
1.0
 31
0.0
1001
ACAD
1000
MTEXTBEGIN
1070
    73
1070
     1
1070
    44
1040
1.0
1070
    74
1070
     0
1000
MTEXTEND
1000
MTEXTBEGIN
1070
    73
1070
     1
1070
    44
1040
1.0
1070
    74
1070
     0
1000
MTEXTEND
  0
POINT
  5
1F8C
330
15FF
100
AcDbEntity
  8
DEFPOINTS
  6
CONTINUOUS
 62
     0
100
AcDbPoint
 10
988.7406678749981
 20
1176.092553658919
 30
0.0
  0
POINT
  5
1F8D
330
15FF
100
AcDbEntity
  8
DEFPOINTS
  6
CONTINUOUS
 62
     0
100
AcDbPoint
 10
1003.463077802243
 20
1976.09255365892
 30
0.0
  0
POINT
  5
1F8E
330
15FF
100
AcDbEntity
  8
DEFPOINTS
  6
CONTINUOUS
 62
     0
100
AcDbPoint
 10
871.26105472974
 20
1976.09255365892
 30
0.0
  0
ENDBLK
  5
160A
330
15FF
100
AcDbEntity
  8
0
100
AcDbBlockEnd
  0
BLOCK
  5
1616
330
160C
100
AcDbEntity
  8
0
100
AcDbBlockBegin
  2
*D22
 70
     1
 10
0.0
 20
0.0
 30
0.0
  3
*D22
  1

  0
LINE
  5
1F07
330
160C
100
AcDbEntity
  8
SUNPOU
  6
CONTINUOUS
100
AcDbLine
 10
992.775777974759
 20
376.0925536589205
 30
0.0
 11
814.2610547297397
 21
376.0925536589206
 31
0.0
  0
LINE
  5
1F08
330
160C
100
AcDbEntity
  8
SUNPOU
  6
CONTINUOUS
100
AcDbLine
 10
992.9630778022447
 20
1976.09255365892
 30
0.0
 11
814.2610547297397
 21
1976.09255365892
 31
0.0
  0
LINE
  5
1F09
330
160C
100
AcDbEntity
  8
SUNPOU
  6
CONTINUOUS
100
AcDbLine
 10
821.2610547297398
 20
393.5925536589206
 30
0.0
 11
821.26105472974
 21
1958.592553658919
 31
0.0
  0
INSERT
  5
1F0A
330
160C
100
AcDbEntity
  8
SUNPOU
  6
CONTINUOUS
100
AcDbBlockReference
  2
_OPEN30
 10
821.2610547297398
 20
376.0925536589206
 30
0.0
 41
17.5
 42
17.5
 43
17.5
 50
270.0
  0
INSERT
  5
1F0B
330
160C
100
AcDbEntity
  8
SUNPOU
  6
CONTINUOUS
100
AcDbBlockReference
  2
_OPEN30
 10
821.26105472974
 20
1976.09255365892
 30
0.0
 41
17.5
 42
17.5
 43
17.5
 50
90.0
  0
MTEXT
  5
1F0C
330
160C
100
AcDbEntity
  8
SUNPOU
  6
CONTINUOUS
 62
     6
100
AcDbMText
 10
805.5110547297395
 20
1176.092553658919
 30
0.0
 40
17.5
 41
0.0
 71
     5
 72
     1
  1
\A1;W
  7
SUNPOU
 11
0.0000000000000001
 21
1.0
 31
0.0
1001
ACAD
1000
MTEXTBEGIN
1070
    73
1070
     1
1070
    44
1040
1.0
1070
    74
1070
     0
1000
MTEXTEND
1000
MTEXTBEGIN
1070
    73
1070
     1
1070
    44
1040
1.0
1070
    74
1070
     0
1000
MTEXTEND
  0
POINT
  5
1F0D
330
160C
100
AcDbEntity
  8
DEFPOINTS
  6
CONTINUOUS
 62
     0
100
AcDbPoint
 10
1003.275777974758
 20
376.0925536589205
 30
0.0
  0
POINT
  5
1F0E
330
160C
100
AcDbEntity
  8
DEFPOINTS
  6
CONTINUOUS
 62
     0
100
AcDbPoint
 10
1003.463077802243
 20
1976.09255365892
 30
0.0
  0
POINT
  5
1F0F
330
160C
100
AcDbEntity
  8
DEFPOINTS
  6
CONTINUOUS
 62
     0
100
AcDbPoint
 10
821.26105472974
 20
1976.09255365892
 30
0.0
  0
ENDBLK
  5
1617
330
160C
100
AcDbEntity
  8
0
100
AcDbBlockEnd
  0
BLOCK
  5
1623
330
1619
100
AcDbEntity
  8
0
100
AcDbBlockBegin
  2
*D23
 70
     1
 10
0.0
 20
0.0
 30
0.0
  3
*D23
  1

  0
LINE
  5
1EFE
330
1619
100
AcDbEntity
  8
SUNPOU
  6
CONTINUOUS
100
AcDbLine
 10
1035.822675068269
 20
776.0925536589208
 30
0.0
 11
914.2610547297394
 21
776.0925536589208
 31
0.0
  0
LINE
  5
1EFF
330
1619
100
AcDbEntity
  8
SUNPOU
  6
CONTINUOUS
100
AcDbLine
 10
978.240667874998
 20
1176.092553658919
 30
0.0
 11
914.2610547297394
 21
1176.092553658919
 31
0.0
  0
LINE
  5
1F00
330
1619
100
AcDbEntity
  8
SUNPOU
  6
CONTINUOUS
100
AcDbLine
 10
921.2610547297394
 20
793.5925536589206
 30
0.0
 11
921.2610547297394
 21
1158.592553658919
 31
0.0
  0
INSERT
  5
1F01
330
1619
100
AcDbEntity
  8
SUNPOU
  6
CONTINUOUS
100
AcDbBlockReference
  2
_OPEN30
 10
921.2610547297394
 20
776.0925536589208
 30
0.0
 41
17.5
 42
17.5
 43
17.5
 50
270.0
  0
INSERT
  5
1F02
330
1619
100
AcDbEntity
  8
SUNPOU
  6
CONTINUOUS
100
AcDbBlockReference
  2
_OPEN30
 10
921.2610547297394
 20
1176.092553658919
 30
0.0
 41
17.5
 42
17.5
 43
17.5
 50
90.0
  0
MTEXT
  5
1F03
330
1619
100
AcDbEntity
  8
SUNPOU
  6
CONTINUOUS
 62
     6
100
AcDbMText
 10
905.5110547297394
 20
976.0925536589208
 30
0.0
 40
17.5
 41
0.0
 71
     5
 72
     1
  1
\A1;400
  7
SUNPOU
 11
0.0000000000000001
 21
1.0
 31
0.0
1001
ACAD
1000
MTEXTBEGIN
1070
    73
1070
     1
1070
    44
1040
1.0
1070
    74
1070
     0
1000
MTEXTEND
1000
MTEXTBEGIN
1070
    73
1070
     1
1070
    44
1040
1.0
1070
    74
1070
     0
1000
MTEXTEND
  0
POINT
  5
1F04
330
1619
100
AcDbEntity
  8
DEFPOINTS
  6
CONTINUOUS
 62
     0
100
AcDbPoint
 10
1046.32267506827
 20
776.0925536589208
 30
0.0
  0
POINT
  5
1F05
330
1619
100
AcDbEntity
  8
DEFPOINTS
  6
CONTINUOUS
 62
     0
100
AcDbPoint
 10
988.7406678749981
 20
1176.092553658919
 30
0.0
  0
POINT
  5
1F06
330
1619
100
AcDbEntity
  8
DEFPOINTS
  6
CONTINUOUS
 62
     0
100
AcDbPoint
 10
921.2610547297394
 20
1176.092553658919
 30
0.0
  0
ENDBLK
  5
1624
330
1619
100
AcDbEntity
  8
0
100
AcDbBlockEnd
  0
BLOCK
  5
1630
330
1626
100
AcDbEntity
  8
0
100
AcDbBlockBegin
  2
*D24
 70
     1
 10
0.0
 20
0.0
 30
0.0
  3
*D24
  1

  0
LINE
  5
1F98
330
1626
100
AcDbEntity
  8
SUNPOU
  6
CONTINUOUS
100
AcDbLine
 10
978.240667874998
 20
1176.092553658919
 30
0.0
 11
914.2610547297394
 21
1176.092553658919
 31
0.0
  0
LINE
  5
1F99
330
1626
100
AcDbEntity
  8
SUNPOU
  6
CONTINUOUS
100
AcDbLine
 10
1035.216932527504
 20
1576.09255365892
 30
0.0
 11
914.2610547297394
 21
1576.09255365892
 31
0.0
  0
LINE
  5
1F9A
330
1626
100
AcDbEntity
  8
SUNPOU
  6
CONTINUOUS
100
AcDbLine
 10
921.2610547297394
 20
1193.59255365892
 30
0.0
 11
921.2610547297394
 21
1558.59255365892
 31
0.0
  0
INSERT
  5
1F9B
330
1626
100
AcDbEntity
  8
SUNPOU
  6
CONTINUOUS
100
AcDbBlockReference
  2
_OPEN30
 10
921.2610547297394
 20
1176.092553658919
 30
0.0
 41
17.5
 42
17.5
 43
17.5
 50
270.0
  0
INSERT
  5
1F9C
330
1626
100
AcDbEntity
  8
SUNPOU
  6
CONTINUOUS
100
AcDbBlockReference
  2
_OPEN30
 10
921.2610547297394
 20
1576.09255365892
 30
0.0
 41
17.5
 42
17.5
 43
17.5
 50
90.0
  0
MTEXT
  5
1F9D
330
1626
100
AcDbEntity
  8
SUNPOU
  6
CONTINUOUS
 62
     6
100
AcDbMText
 10
905.5110547297392
 20
1376.092553658921
 30
0.0
 40
17.5
 41
0.0
 71
     5
 72
     1
  1
\A1;400
  7
SUNPOU
 11
0.0000000000000001
 21
1.0
 31
0.0
1001
ACAD
1000
MTEXTBEGIN
1070
    73
1070
     1
1070
    44
1040
1.0
1070
    74
1070
     0
1000
MTEXTEND
1000
MTEXTBEGIN
1070
    73
1070
     1
1070
    44
1040
1.0
1070
    74
1070
     0
1000
MTEXTEND
  0
POINT
  5
1F9E
330
1626
100
AcDbEntity
  8
DEFPOINTS
  6
CONTINUOUS
 62
     0
100
AcDbPoint
 10
988.7406678749981
 20
1176.092553658919
 30
0.0
  0
POINT
  5
1F9F
330
1626
100
AcDbEntity
  8
DEFPOINTS
  6
CONTINUOUS
 62
     0
100
AcDbPoint
 10
1045.716932527504
 20
1576.09255365892
 30
0.0
  0
POINT
  5
1FA0
330
1626
100
AcDbEntity
  8
DEFPOINTS
  6
CONTINUOUS
 62
     0
100
AcDbPoint
 10
921.2610547297394
 20
1576.09255365892
 30
0.0
  0
ENDBLK
  5
1631
330
1626
100
AcDbEntity
  8
0
100
AcDbBlockEnd
  0
BLOCK
  5
163D
330
1633
100
AcDbEntity
  8
0
100
AcDbBlockBegin
  2
*D25
 70
     1
 10
0.0
 20
0.0
 30
0.0
  3
*D25
  1

  0
LINE
  5
1FA1
330
1633
100
AcDbEntity
  8
SUNPOU
  6
CONTINUOUS
100
AcDbLine
 10
980.1739281400116
 20
1041.09255365892
 30
0.0
 11
964.2610547297399
 21
1041.09255365892
 31
0.0
  0
LINE
  5
1FA2
330
1633
100
AcDbEntity
  8
SUNPOU
  6
CONTINUOUS
100
AcDbLine
 10
978.240667874998
 20
1176.092553658919
 30
0.0
 11
964.2610547297399
 21
1176.092553658919
 31
0.0
  0
LINE
  5
1FA3
330
1633
100
AcDbEntity
  8
SUNPOU
  6
CONTINUOUS
100
AcDbLine
 10
971.26105472974
 20
1058.59255365892
 30
0.0
 11
971.26105472974
 21
1158.592553658919
 31
0.0
  0
INSERT
  5
1FA4
330
1633
100
AcDbEntity
  8
SUNPOU
  6
CONTINUOUS
100
AcDbBlockReference
  2
_OPEN30
 10
971.26105472974
 20
1041.09255365892
 30
0.0
 41
17.5
 42
17.5
 43
17.5
 50
270.0
  0
INSERT
  5
1FA5
330
1633
100
AcDbEntity
  8
SUNPOU
  6
CONTINUOUS
100
AcDbBlockReference
  2
_OPEN30
 10
971.26105472974
 20
1176.092553658919
 30
0.0
 41
17.5
 42
17.5
 43
17.5
 50
90.0
  0
MTEXT
  5
1FA6
330
1633
100
AcDbEntity
  8
SUNPOU
  6
CONTINUOUS
 62
     6
100
AcDbMText
 10
955.5110547297399
 20
1108.59255365892
 30
0.0
 40
17.5
 41
0.0
 71
     5
 72
     1
  1
\A1;135
  7
SUNPOU
 11
0.0000000000000001
 21
1.0
 31
0.0
1001
ACAD
1000
MTEXTBEGIN
1070
    73
1070
     1
1070
    44
1040
1.0
1070
    74
1070
     0
1000
MTEXTEND
1000
MTEXTBEGIN
1070
    73
1070
     1
1070
    44
1040
1.0
1070
    74
1070
     0
1000
MTEXTEND
  0
POINT
  5
1FA7
330
1633
100
AcDbEntity
  8
DEFPOINTS
  6
CONTINUOUS
 62
     0
100
AcDbPoint
 10
990.673928140012
 20
1041.09255365892
 30
0.0
  0
POINT
  5
1FA8
330
1633
100
AcDbEntity
  8
DEFPOINTS
  6
CONTINUOUS
 62
     0
100
AcDbPoint
 10
988.7406678749981
 20
1176.092553658919
 30
0.0
  0
POINT
  5
1FA9
330
1633
100
AcDbEntity
  8
DEFPOINTS
  6
CONTINUOUS
 62
     0
100
AcDbPoint
 10
971.26105472974
 20
1176.092553658919
 30
0.0
  0
ENDBLK
  5
163E
330
1633
100
AcDbEntity
  8
0
100
AcDbBlockEnd
  0
BLOCK
  5
164A
330
1640
100
AcDbEntity
  8
0
100
AcDbBlockBegin
  2
*D26
 70
     1
 10
0.0
 20
0.0
 30
0.0
  3
*D26
  1

  0
LINE
  5
1F8F
330
1640
100
AcDbEntity
  8
SUNPOU
  6
CONTINUOUS
100
AcDbLine
 10
978.240667874998
 20
1176.092553658919
 30
0.0
 11
964.2610547297397
 21
1176.092553658919
 31
0.0
  0
LINE
  5
1F90
330
1640
100
AcDbEntity
  8
SUNPOU
  6
CONTINUOUS
100
AcDbLine
 10
980.1739281400116
 20
1281.09255365892
 30
0.0
 11
964.2610547297399
 21
1281.09255365892
 31
0.0
  0
LINE
  5
1F91
330
1640
100
AcDbEntity
  8
SUNPOU
  6
CONTINUOUS
100
AcDbLine
 10
971.2610547297398
 20
1193.59255365892
 30
0.0
 11
971.2610547297398
 21
1263.59255365892
 31
0.0
  0
INSERT
  5
1F92
330
1640
100
AcDbEntity
  8
SUNPOU
  6
CONTINUOUS
100
AcDbBlockReference
  2
_OPEN30
 10
971.2610547297398
 20
1176.092553658919
 30
0.0
 41
17.5
 42
17.5
 43
17.5
 50
270.0
  0
INSERT
  5
1F93
330
1640
100
AcDbEntity
  8
SUNPOU
  6
CONTINUOUS
100
AcDbBlockReference
  2
_OPEN30
 10
971.26105472974
 20
1281.09255365892
 30
0.0
 41
17.5
 42
17.5
 43
17.5
 50
90.0
  0
MTEXT
  5
1F94
330
1640
100
AcDbEntity
  8
SUNPOU
  6
CONTINUOUS
 62
     6
100
AcDbMText
 10
955.5110547297397
 20
1228.592553658921
 30
0.0
 40
17.5
 41
0.0
 71
     5
 72
     1
  1
\A1;105
  7
SUNPOU
 11
0.0000000000000001
 21
1.0
 31
0.0
1001
ACAD
1000
MTEXTBEGIN
1070
    73
1070
     1
1070
    44
1040
1.0
1070
    74
1070
     0
1000
MTEXTEND
1000
MTEXTBEGIN
1070
    73
1070
     1
1070
    44
1040
1.0
1070
    74
1070
     0
1000
MTEXTEND
  0
POINT
  5
1F95
330
1640
100
AcDbEntity
  8
DEFPOINTS
  6
CONTINUOUS
 62
     0
100
AcDbPoint
 10
988.7406678749981
 20
1176.092553658919
 30
0.0
  0
POINT
  5
1F96
330
1640
100
AcDbEntity
  8
DEFPOINTS
  6
CONTINUOUS
 62
     0
100
AcDbPoint
 10
990.673928140012
 20
1281.09255365892
 30
0.0
  0
POINT
  5
1F97
330
1640
100
AcDbEntity
  8
DEFPOINTS
  6
CONTINUOUS
 62
     0
100
AcDbPoint
 10
971.26105472974
 20
1281.09255365892
 30
0.0
  0
ENDBLK
  5
164B
330
1640
100
AcDbEntity
  8
0
100
AcDbBlockEnd
  0
BLOCK
  5
1657
330
164D
100
AcDbEntity
  8
0
100
AcDbBlockBegin
  2
*D27
 70
     1
 10
0.0
 20
0.0
 30
0.0
  3
*D27
  1

  0
LINE
  5
1FB5
330
164D
100
AcDbEntity
  8
SUNPOU
  6
CONTINUOUS
100
AcDbLine
 10
1073.863077802242
 20
1140.09255365892
 30
0.0
 11
1061.442117962134
 21
1140.09255365892
 31
0.0
  0
LINE
  5
1FB6
330
164D
100
AcDbEntity
  8
SUNPOU
  6
CONTINUOUS
100
AcDbLine
 10
1073.863077802242
 20
1212.092553658919
 30
0.0
 11
1061.442117962134
 21
1212.092553658919
 31
0.0
  0
LINE
  5
1FB7
330
164D
100
AcDbEntity
  8
SUNPOU
  6
CONTINUOUS
100
AcDbLine
 10
1068.442117962135
 20
1157.592553658919
 30
0.0
 11
1068.442117962135
 21
1194.59255365892
 31
0.0
  0
MTEXT
  5
1FB8
330
164D
100
AcDbEntity
  8
SUNPOU
  6
CONTINUOUS
 62
     6
100
AcDbMText
 10
1052.639097734789
 20
1176.129535257625
 30
0.0
 40
17.5
 41
0.0
 71
     5
 72
     1
  1
\A1;72
  7
SUNPOU
 11
0.0000000000000001
 21
1.0
 31
0.0
1001
ACAD
1000
MTEXTBEGIN
1070
    73
1070
     1
1070
    44
1040
1.0
1070
    74
1070
     0
1000
MTEXTEND
1000
MTEXTBEGIN
1070
    73
1070
     1
1070
    44
1040
1.0
1070
    74
1070
     0
1000
MTEXTEND
  0
INSERT
  5
1FB9
330
164D
100
AcDbEntity
  8
SUNPOU
  6
CONTINUOUS
100
AcDbBlockReference
  2
_OPEN30
 10
1068.442117962135
 20
1140.09255365892
 30
0.0
 41
17.5
 42
17.5
 43
17.5
 50
270.0
  0
INSERT
  5
1FBA
330
164D
100
AcDbEntity
  8
SUNPOU
  6
CONTINUOUS
100
AcDbBlockReference
  2
_OPEN30
 10
1068.442117962135
 20
1212.092553658919
 30
0.0
 41
17.5
 42
17.5
 43
17.5
 50
90.0
  0
POINT
  5
1FBB
330
164D
100
AcDbEntity
  8
DEFPOINTS
  6
CONTINUOUS
 62
     0
100
AcDbPoint
 10
1084.363077802243
 20
1140.09255365892
 30
0.0
  0
POINT
  5
1FBC
330
164D
100
AcDbEntity
  8
DEFPOINTS
  6
CONTINUOUS
 62
     0
100
AcDbPoint
 10
1084.363077802243
 20
1212.092553658919
 30
0.0
  0
POINT
  5
1FBD
330
164D
100
AcDbEntity
  8
DEFPOINTS
  6
CONTINUOUS
 62
     0
100
AcDbPoint
 10
1068.442117962135
 20
1212.092553658919
 30
0.0
  0
ENDBLK
  5
1658
330
164D
100
AcDbEntity
  8
0
100
AcDbBlockEnd
  0
BLOCK
  5
1666
330
165A
100
AcDbEntity
  8
0
100
AcDbBlockBegin
  2
*D28
 70
     1
 10
0.0
 20
0.0
 30
0.0
  3
*D28
  1

  0
LINE
  5
1FAA
330
165A
100
AcDbEntity
  8
SUNPOU
  6
CONTINUOUS
100
AcDbLine
 10
1084.363077802243
 20
1129.592553658919
 30
0.0
 11
1084.363077802243
 21
1112.550620235279
 31
0.0
  0
LINE
  5
1FAB
330
165A
100
AcDbEntity
  8
SUNPOU
  6
CONTINUOUS
100
AcDbLine
 10
1119.363077802242
 20
1129.592553658919
 30
0.0
 11
1119.363077802242
 21
1112.550620235279
 31
0.0
  0
LINE
  5
1FAC
330
165A
100
AcDbEntity
  8
SUNPOU
  6
CONTINUOUS
100
AcDbLine
 10
1066.863077802243
 20
1119.55062023528
 30
0.0
 11
1049.363077802243
 21
1119.55062023528
 31
0.0
  0
LINE
  5
1FAD
330
165A
100
AcDbEntity
  8
SUNPOU
  6
CONTINUOUS
100
AcDbLine
 10
1136.863077802242
 20
1119.55062023528
 30
0.0
 11
1154.363077802242
 21
1119.55062023528
 31
0.0
  0
MTEXT
  5
1FAE
330
165A
100
AcDbEntity
  8
SUNPOU
  6
CONTINUOUS
 62
     6
100
AcDbMText
 10
1101.485205708497
 20
1105.639157690887
 30
0.0
 40
17.5
 41
0.0
 71
     5
 72
     1
  1
\A1;35
  7
SUNPOU
 11
-1.0
 21
0.0000000000000001
 31
0.0
1001
ACAD
1000
MTEXTBEGIN
1070
    73
1070
     1
1070
    44
1040
1.0
1070
    74
1070
     0
1000
MTEXTEND
1000
MTEXTBEGIN
1070
    73
1070
     1
1070
    44
1040
1.0
1070
    74
1070
     0
1000
MTEXTEND
  0
LINE
  5
1FAF
330
165A
100
AcDbEntity
  8
SUNPOU
  6
CONTINUOUS
100
AcDbLine
 10
1084.363077802243
 20
1119.55062023528
 30
0.0
 11
1119.363077802242
 21
1119.55062023528
 31
0.0
  0
INSERT
  5
1FB0
330
165A
100
AcDbEntity
  8
SUNPOU
  6
CONTINUOUS
100
AcDbBlockReference
  2
_OPEN30
 10
1084.363077802243
 20
1119.55062023528
 30
0.0
 41
17.5
 42
17.5
 43
17.5
  0
INSERT
  5
1FB1
330
165A
100
AcDbEntity
  8
SUNPOU
  6
CONTINUOUS
100
AcDbBlockReference
  2
_OPEN30
 10
1119.363077802242
 20
1119.55062023528
 30
0.0
 41
17.5
 42
17.5
 43
17.5
 50
180.0
  0
POINT
  5
1FB2
330
165A
100
AcDbEntity
  8
DEFPOINTS
  6
CONTINUOUS
 62
     0
100
AcDbPoint
 10
1084.363077802243
 20
1140.09255365892
 30
0.0
  0
POINT
  5
1FB3
330
165A
100
AcDbEntity
  8
DEFPOINTS
  6
CONTINUOUS
 62
     0
100
AcDbPoint
 10
1119.363077802242
 20
1140.09255365892
 30
0.0
  0
POINT
  5
1FB4
330
165A
100
AcDbEntity
  8
DEFPOINTS
  6
CONTINUOUS
 62
     0
100
AcDbPoint
 10
1119.363077802242
 20
1119.55062023528
 30
0.0
  0
ENDBLK
  5
1667
330
165A
100
AcDbEntity
  8
0
100
AcDbBlockEnd
  0
BLOCK
  5
1673
330
1669
100
AcDbEntity
  8
0
100
AcDbBlockBegin
  2
*D29
 70
     1
 10
0.0
 20
0.0
 30
0.0
  3
*D29
  1

  0
LINE
  5
1FBE
330
1669
100
AcDbEntity
  8
SUNPOU
  6
CONTINUOUS
100
AcDbLine
 10
1120.6112679786
 20
1134.59255365892
 30
0.0
 11
1159.810736314079
 21
1134.59255365892
 31
0.0
  0
LINE
  5
1FBF
330
1669
100
AcDbEntity
  8
SUNPOU
  6
CONTINUOUS
100
AcDbLine
 10
1120.6112679786
 20
1217.59255365892
 30
0.0
 11
1159.810736314079
 21
1217.59255365892
 31
0.0
  0
LINE
  5
1FC0
330
1669
100
AcDbEntity
  8
SUNPOU
  6
CONTINUOUS
100
AcDbLine
 10
1152.810736314078
 20
1152.092553658919
 30
0.0
 11
1152.810736314078
 21
1200.09255365892
 31
0.0
  0
INSERT
  5
1FC1
330
1669
100
AcDbEntity
  8
SUNPOU
  6
CONTINUOUS
100
AcDbBlockReference
  2
_OPEN30
 10
1152.810736314078
 20
1134.59255365892
 30
0.0
 41
17.5
 42
17.5
 43
17.5
 50
270.0
  0
INSERT
  5
1FC2
330
1669
100
AcDbEntity
  8
SUNPOU
  6
CONTINUOUS
100
AcDbBlockReference
  2
_OPEN30
 10
1152.810736314078
 20
1217.59255365892
 30
0.0
 41
17.5
 42
17.5
 43
17.5
 50
90.0
  0
MTEXT
  5
1FC3
330
1669
100
AcDbEntity
  8
SUNPOU
  6
CONTINUOUS
 62
     6
100
AcDbMText
 10
1137.060736314077
 20
1176.092553658919
 30
0.0
 40
17.5
 41
0.0
 71
     5
 72
     1
  1
\A1;83
  7
SUNPOU
 11
0.0000000000000001
 21
1.0
 31
0.0
1001
ACAD
1000
MTEXTBEGIN
1070
    73
1070
     1
1070
    44
1040
1.0
1070
    74
1070
     0
1000
MTEXTEND
1000
MTEXTBEGIN
1070
    73
1070
     1
1070
    44
1040
1.0
1070
    74
1070
     0
1000
MTEXTEND
  0
POINT
  5
1FC4
330
1669
100
AcDbEntity
  8
DEFPOINTS
  6
CONTINUOUS
 62
     0
100
AcDbPoint
 10
1110.111267978599
 20
1134.59255365892
 30
0.0
  0
POINT
  5
1FC5
330
1669
100
AcDbEntity
  8
DEFPOINTS
  6
CONTINUOUS
 62
     0
100
AcDbPoint
 10
1110.111267978599
 20
1217.59255365892
 30
0.0
  0
POINT
  5
1FC6
330
1669
100
AcDbEntity
  8
DEFPOINTS
  6
CONTINUOUS
 62
     0
100
AcDbPoint
 10
1152.810736314078
 20
1217.59255365892
 30
0.0
  0
ENDBLK
  5
1674
330
1669
100
AcDbEntity
  8
0
100
AcDbBlockEnd
  0
BLOCK
  5
1680
330
1676
100
AcDbEntity
  8
0
100
AcDbBlockBegin
  2
*D30
 70
     1
 10
0.0
 20
0.0
 30
0.0
  3
*D30
  1

  0
LINE
  5
1EEC
330
1676
100
AcDbEntity
  8
SUNPOU
  6
CONTINUOUS
100
AcDbLine
 10
1041.863077802245
 20
1020.592553658921
 30
0.0
 11
1041.863077802245
 21
967.092553658921
 31
0.0
  0
LINE
  5
1EED
330
1676
100
AcDbEntity
  8
SUNPOU
  6
CONTINUOUS
100
AcDbLine
 10
1161.863077802242
 20
1020.592553658921
 30
0.0
 11
1161.863077802242
 21
967.092553658921
 31
0.0
  0
LINE
  5
1EEE
330
1676
100
AcDbEntity
  8
SUNPOU
  6
CONTINUOUS
100
AcDbLine
 10
1059.363077802245
 20
974.0925536589212
 30
0.0
 11
1144.363077802242
 21
974.0925536589212
 31
0.0
  0
MTEXT
  5
1EEF
330
1676
100
AcDbEntity
  8
SUNPOU
  6
CONTINUOUS
 62
     6
100
AcDbMText
 10
1101.975929582045
 20
958.0445905757096
 30
0.0
 40
17.5
 41
0.0
 71
     5
 72
     1
  1
\A1;120
  7
SUNPOU
 11
-1.0
 21
0.0000000000000001
 31
0.0
1001
ACAD
1000
MTEXTBEGIN
1070
    73
1070
     1
1070
    44
1040
1.0
1070
    74
1070
     0
1000
MTEXTEND
1000
MTEXTBEGIN
1070
    73
1070
     1
1070
    44
1040
1.0
1070
    74
1070
     0
1000
MTEXTEND
  0
INSERT
  5
1EF0
330
1676
100
AcDbEntity
  8
SUNPOU
  6
CONTINUOUS
100
AcDbBlockReference
  2
_OPEN30
 10
1041.863077802245
 20
974.0925536589212
 30
0.0
 41
17.5
 42
17.5
 43
17.5
 50
180.0
  0
INSERT
  5
1EF1
330
1676
100
AcDbEntity
  8
SUNPOU
  6
CONTINUOUS
100
AcDbBlockReference
  2
_OPEN30
 10
1161.863077802242
 20
974.0925536589212
 30
0.0
 41
17.5
 42
17.5
 43
17.5
  0
POINT
  5
1EF2
330
1676
100
AcDbEntity
  8
DEFPOINTS
  6
CONTINUOUS
 62
     0
100
AcDbPoint
 10
1041.863077802245
 20
1031.092553658922
 30
0.0
  0
POINT
  5
1EF3
330
1676
100
AcDbEntity
  8
DEFPOINTS
  6
CONTINUOUS
 62
     0
100
AcDbPoint
 10
1161.863077802242
 20
1031.092553658922
 30
0.0
  0
POINT
  5
1EF4
330
1676
100
AcDbEntity
  8
DEFPOINTS
  6
CONTINUOUS
 62
     0
100
AcDbPoint
 10
1161.863077802242
 20
974.0925536589212
 30
0.0
  0
ENDBLK
  5
1681
330
1676
100
AcDbEntity
  8
0
100
AcDbBlockEnd
  0
BLOCK
  5
168D
330
1683
100
AcDbEntity
  8
0
100
AcDbBlockBegin
  2
*D31
 70
     1
 10
0.0
 20
0.0
 30
0.0
  3
*D31
  1

  0
LINE
  5
1F5E
330
1683
100
AcDbEntity
  8
SUNPOU
  6
CONTINUOUS
100
AcDbLine
 10
1060.363077802243
 20
761.5910226032756
 30
0.0
 11
1060.363077802243
 21
708.3035457924975
 31
0.0
  0
LINE
  5
1F5F
330
1683
100
AcDbEntity
  8
SUNPOU
  6
CONTINUOUS
100
AcDbLine
 10
1143.363077802243
 20
761.5910226032756
 30
0.0
 11
1143.363077802243
 21
708.3035457924975
 31
0.0
  0
LINE
  5
1F60
330
1683
100
AcDbEntity
  8
SUNPOU
  6
CONTINUOUS
100
AcDbLine
 10
1077.863077802243
 20
715.3035457924975
 30
0.0
 11
1125.863077802244
 21
715.3035457924975
 31
0.0
  0
MTEXT
  5
1F61
330
1683
100
AcDbEntity
  8
SUNPOU
  6
CONTINUOUS
 62
     6
100
AcDbMText
 10
1102.027500494437
 20
698.7988708580615
 30
0.0
 40
17.5
 41
0.0
 71
     5
 72
     1
  1
\A1;83
  7
SUNPOU
 11
-1.0
 21
0.0000000000000001
 31
0.0
1001
ACAD
1000
MTEXTBEGIN
1070
    73
1070
     1
1070
    44
1040
1.0
1070
    74
1070
     0
1000
MTEXTEND
1000
MTEXTBEGIN
1070
    73
1070
     1
1070
    44
1040
1.0
1070
    74
1070
     0
1000
MTEXTEND
  0
INSERT
  5
1F62
330
1683
100
AcDbEntity
  8
SUNPOU
  6
CONTINUOUS
100
AcDbBlockReference
  2
_OPEN30
 10
1060.363077802243
 20
715.3035457924975
 30
0.0
 41
17.5
 42
17.5
 43
17.5
 50
180.0
  0
INSERT
  5
1F63
330
1683
100
AcDbEntity
  8
SUNPOU
  6
CONTINUOUS
100
AcDbBlockReference
  2
_OPEN30
 10
1143.363077802243
 20
715.3035457924975
 30
0.0
 41
17.5
 42
17.5
 43
17.5
  0
POINT
  5
1F64
330
1683
100
AcDbEntity
  8
DEFPOINTS
  6
CONTINUOUS
 62
     0
100
AcDbPoint
 10
1060.363077802243
 20
772.0910226032756
 30
0.0
  0
POINT
  5
1F65
330
1683
100
AcDbEntity
  8
DEFPOINTS
  6
CONTINUOUS
 62
     0
100
AcDbPoint
 10
1143.363077802243
 20
772.0910226032756
 30
0.0
  0
POINT
  5
1F66
330
1683
100
AcDbEntity
  8
DEFPOINTS
  6
CONTINUOUS
 62
     0
100
AcDbPoint
 10
1143.363077802243
 20
715.3035457924975
 30
0.0
  0
ENDBLK
  5
168E
330
1683
100
AcDbEntity
  8
0
100
AcDbBlockEnd
  0
BLOCK
  5
169C
330
1690
100
AcDbEntity
  8
0
100
AcDbBlockBegin
  2
*D32
 70
     1
 10
0.0
 20
0.0
 30
0.0
  3
*D32
  1

  0
LINE
  5
1F67
330
1690
100
AcDbEntity
  8
SUNPOU
  6
CONTINUOUS
100
AcDbLine
 10
1084.363077802243
 20
754.5925536589208
 30
0.0
 11
1084.363077802243
 21
739.3215878098129
 31
0.0
  0
LINE
  5
1F68
330
1690
100
AcDbEntity
  8
SUNPOU
  6
CONTINUOUS
100
AcDbLine
 10
1119.363077802243
 20
754.5925536589208
 30
0.0
 11
1119.363077802243
 21
739.3215878098129
 31
0.0
  0
LINE
  5
1F69
330
1690
100
AcDbEntity
  8
SUNPOU
  6
CONTINUOUS
100
AcDbLine
 10
1066.863077802244
 20
746.3215878098131
 30
0.0
 11
1049.363077802244
 21
746.3215878098131
 31
0.0
  0
LINE
  5
1F6A
330
1690
100
AcDbEntity
  8
SUNPOU
  6
CONTINUOUS
100
AcDbLine
 10
1136.863077802243
 20
746.3215878098131
 30
0.0
 11
1154.363077802244
 21
746.3215878098131
 31
0.0
  0
MTEXT
  5
1F6B
330
1690
100
AcDbEntity
  8
SUNPOU
  6
CONTINUOUS
 62
     6
100
AcDbMText
 10
1102.680637909527
 20
730.2825275854639
 30
0.0
 40
17.5
 41
0.0
 71
     5
 72
     1
  1
\A1;35
  7
SUNPOU
 11
-1.0
 21
0.0000000000000001
 31
0.0
1001
ACAD
1000
MTEXTBEGIN
1070
    73
1070
     1
1070
    44
1040
1.0
1070
    74
1070
     0
1000
MTEXTEND
1000
MTEXTBEGIN
1070
    73
1070
     1
1070
    44
1040
1.0
1070
    74
1070
     0
1000
MTEXTEND
  0
LINE
  5
1F6C
330
1690
100
AcDbEntity
  8
SUNPOU
  6
CONTINUOUS
100
AcDbLine
 10
1084.363077802243
 20
746.3215878098131
 30
0.0
 11
1119.363077802243
 21
746.3215878098131
 31
0.0
  0
INSERT
  5
1F6D
330
1690
100
AcDbEntity
  8
SUNPOU
  6
CONTINUOUS
100
AcDbBlockReference
  2
_OPEN30
 10
1084.363077802243
 20
746.3215878098131
 30
0.0
 41
17.5
 42
17.5
 43
17.5
  0
INSERT
  5
1F6E
330
1690
100
AcDbEntity
  8
SUNPOU
  6
CONTINUOUS
100
AcDbBlockReference
  2
_OPEN30
 10
1119.363077802243
 20
746.3215878098131
 30
0.0
 41
17.5
 42
17.5
 43
17.5
 50
180.0
  0
POINT
  5
1F6F
330
1690
100
AcDbEntity
  8
DEFPOINTS
  6
CONTINUOUS
 62
     0
100
AcDbPoint
 10
1084.363077802243
 20
765.0925536589205
 30
0.0
  0
POINT
  5
1F70
330
1690
100
AcDbEntity
  8
DEFPOINTS
  6
CONTINUOUS
 62
     0
100
AcDbPoint
 10
1119.363077802243
 20
765.0925536589205
 30
0.0
  0
POINT
  5
1F71
330
1690
100
AcDbEntity
  8
DEFPOINTS
  6
CONTINUOUS
 62
     0
100
AcDbPoint
 10
1119.363077802243
 20
746.3215878098131
 30
0.0
  0
ENDBLK
  5
169D
330
1690
100
AcDbEntity
  8
0
100
AcDbBlockEnd
  0
BLOCK
  5
16AB
330
169F
100
AcDbEntity
  8
0
100
AcDbBlockBegin
  2
*D33
 70
     1
 10
0.0
 20
0.0
 30
0.0
  3
*D33
  1

  0
LINE
  5
1F72
330
169F
100
AcDbEntity
  8
SUNPOU
  6
CONTINUOUS
100
AcDbLine
 10
1129.863077802243
 20
765.0925536589205
 30
0.0
 11
1183.790753824252
 21
765.0925536589205
 31
0.0
  0
LINE
  5
1F73
330
169F
100
AcDbEntity
  8
SUNPOU
  6
CONTINUOUS
100
AcDbLine
 10
1129.863077802242
 20
787.0925536589205
 30
0.0
 11
1183.790753824252
 21
787.0925536589205
 31
0.0
  0
LINE
  5
1F74
330
169F
100
AcDbEntity
  8
SUNPOU
  6
CONTINUOUS
100
AcDbLine
 10
1176.790753824252
 20
747.5925536589206
 30
0.0
 11
1176.790753824252
 21
730.0925536589208
 31
0.0
  0
LINE
  5
1F75
330
169F
100
AcDbEntity
  8
SUNPOU
  6
CONTINUOUS
100
AcDbLine
 10
1176.790753824252
 20
804.5925536589207
 30
0.0
 11
1176.790753824252
 21
822.0925536589206
 31
0.0
  0
MTEXT
  5
1F76
330
169F
100
AcDbEntity
  8
SUNPOU
  6
CONTINUOUS
 62
     6
100
AcDbMText
 10
1162.502924525844
 20
731.5856918633171
 30
0.0
 40
17.5
 41
0.0
 71
     5
 72
     1
  1
\A1;22
  7
SUNPOU
 11
0.0000000000000001
 21
1.0
 31
0.0
1001
ACAD
1000
MTEXTBEGIN
1070
    73
1070
     1
1070
    44
1040
1.0
1070
    74
1070
     0
1000
MTEXTEND
1000
MTEXTBEGIN
1070
    73
1070
     1
1070
    44
1040
1.0
1070
    74
1070
     0
1000
MTEXTEND
  0
LINE
  5
1F77
330
169F
100
AcDbEntity
  8
SUNPOU
  6
CONTINUOUS
100
AcDbLine
 10
1176.790753824252
 20
765.0925536589205
 30
0.0
 11
1176.790753824252
 21
787.0925536589205
 31
0.0
  0
INSERT
  5
1F78
330
169F
100
AcDbEntity
  8
SUNPOU
  6
CONTINUOUS
100
AcDbBlockReference
  2
_OPEN30
 10
1176.790753824252
 20
765.0925536589205
 30
0.0
 41
17.5
 42
17.5
 43
17.5
 50
90.0
  0
INSERT
  5
1F79
330
169F
100
AcDbEntity
  8
SUNPOU
  6
CONTINUOUS
100
AcDbBlockReference
  2
_OPEN30
 10
1176.790753824252
 20
787.0925536589205
 30
0.0
 41
17.5
 42
17.5
 43
17.5
 50
270.0
  0
POINT
  5
1F7A
330
169F
100
AcDbEntity
  8
DEFPOINTS
  6
CONTINUOUS
 62
     0
100
AcDbPoint
 10
1119.363077802243
 20
765.0925536589205
 30
0.0
  0
POINT
  5
1F7B
330
169F
100
AcDbEntity
  8
DEFPOINTS
  6
CONTINUOUS
 62
     0
100
AcDbPoint
 10
1119.363077802242
 20
787.0925536589205
 30
0.0
  0
POINT
  5
1F7C
330
169F
100
AcDbEntity
  8
DEFPOINTS
  6
CONTINUOUS
 62
     0
100
AcDbPoint
 10
1176.790753824252
 20
787.0925536589205
 30
0.0
  0
ENDBLK
  5
16AC
330
169F
100
AcDbEntity
  8
0
100
AcDbBlockEnd
  0
BLOCK
  5
16B8
330
16AE
100
AcDbEntity
  8
0
100
AcDbBlockBegin
  2
*D34
 70
     1
 10
0.0
 20
0.0
 30
0.0
  3
*D34
  1

  0
LINE
  5
1F10
330
16AE
100
AcDbEntity
  8
SUNPOU
  6
CONTINUOUS
100
AcDbLine
 10
1210.763077802244
 20
376.0925536589205
 30
0.0
 11
1265.863077802245
 21
376.0925536589205
 31
0.0
  0
LINE
  5
1F11
330
16AE
100
AcDbEntity
  8
SUNPOU
  6
CONTINUOUS
100
AcDbLine
 10
1142.551461394416
 20
464.0925536589195
 30
0.0
 11
1265.863077802245
 21
464.0925536589193
 31
0.0
  0
LINE
  5
1F12
330
16AE
100
AcDbEntity
  8
SUNPOU
  6
CONTINUOUS
100
AcDbLine
 10
1258.863077802245
 20
393.5925536589205
 30
0.0
 11
1258.863077802245
 21
446.5925536589193
 31
0.0
  0
INSERT
  5
1F13
330
16AE
100
AcDbEntity
  8
SUNPOU
  6
CONTINUOUS
100
AcDbBlockReference
  2
_OPEN30
 10
1258.863077802245
 20
376.0925536589205
 30
0.0
 41
17.5
 42
17.5
 43
17.5
 50
270.0
  0
INSERT
  5
1F14
330
16AE
100
AcDbEntity
  8
SUNPOU
  6
CONTINUOUS
100
AcDbBlockReference
  2
_OPEN30
 10
1258.863077802245
 20
464.0925536589193
 30
0.0
 41
17.5
 42
17.5
 43
17.5
 50
90.0
  0
MTEXT
  5
1F15
330
16AE
100
AcDbEntity
  8
SUNPOU
  6
CONTINUOUS
 62
     6
100
AcDbMText
 10
1243.113077802245
 20
420.0925536589203
 30
0.0
 40
17.5
 41
0.0
 71
     5
 72
     1
  1
\A1;88
  7
SUNPOU
 11
0.0000000000000001
 21
1.0
 31
0.0
1001
ACAD
1000
MTEXTBEGIN
1070
    73
1070
     1
1070
    44
1040
1.0
1070
    74
1070
     0
1000
MTEXTEND
1000
MTEXTBEGIN
1070
    73
1070
     1
1070
    44
1040
1.0
1070
    74
1070
     0
1000
MTEXTEND
  0
POINT
  5
1F16
330
16AE
100
AcDbEntity
  8
DEFPOINTS
  6
CONTINUOUS
 62
     0
100
AcDbPoint
 10
1200.263077802245
 20
376.0925536589205
 30
0.0
  0
POINT
  5
1F17
330
16AE
100
AcDbEntity
  8
DEFPOINTS
  6
CONTINUOUS
 62
     0
100
AcDbPoint
 10
1132.051461394417
 20
464.0925536589195
 30
0.0
  0
POINT
  5
1F18
330
16AE
100
AcDbEntity
  8
DEFPOINTS
  6
CONTINUOUS
 62
     0
100
AcDbPoint
 10
1258.863077802245
 20
464.0925536589193
 30
0.0
  0
ENDBLK
  5
16B9
330
16AE
100
AcDbEntity
  8
0
100
AcDbBlockEnd
  0
BLOCK
  5
16C5
330
16BB
100
AcDbEntity
  8
0
100
AcDbBlockBegin
  2
*D35
 70
     1
 10
0.0
 20
0.0
 30
0.0
  3
*D35
  1

  0
LINE
  5
2004
330
16BB
100
AcDbEntity
  8
SUNPOU
  6
CONTINUOUS
100
AcDbLine
 10
1232.917085741515
 20
1041.09255365892
 30
0.0
 11
1295.863077802245
 21
1041.09255365892
 31
0.0
  0
LINE
  5
2005
330
16BB
100
AcDbEntity
  8
SUNPOU
  6
CONTINUOUS
100
AcDbLine
 10
1232.917085741515
 20
1526.09255365892
 30
0.0
 11
1295.863077802245
 21
1526.09255365892
 31
0.0
  0
LINE
  5
2006
330
16BB
100
AcDbEntity
  8
SUNPOU
  6
CONTINUOUS
100
AcDbLine
 10
1288.863077802245
 20
1058.59255365892
 30
0.0
 11
1288.863077802245
 21
1508.59255365892
 31
0.0
  0
INSERT
  5
2007
330
16BB
100
AcDbEntity
  8
SUNPOU
  6
CONTINUOUS
100
AcDbBlockReference
  2
_OPEN30
 10
1288.863077802245
 20
1041.09255365892
 30
0.0
 41
17.5
 42
17.5
 43
17.5
 50
270.0
  0
INSERT
  5
2008
330
16BB
100
AcDbEntity
  8
SUNPOU
  6
CONTINUOUS
100
AcDbBlockReference
  2
_OPEN30
 10
1288.863077802245
 20
1526.09255365892
 30
0.0
 41
17.5
 42
17.5
 43
17.5
 50
90.0
  0
MTEXT
  5
2009
330
16BB
100
AcDbEntity
  8
SUNPOU
  6
CONTINUOUS
 62
     6
100
AcDbMText
 10
1273.113077802245
 20
1283.59255365892
 30
0.0
 40
17.5
 41
0.0
 71
     5
 72
     1
  1
\A1;485
  7
SUNPOU
 11
0.0000000000000001
 21
1.0
 31
0.0
1001
ACAD
1000
MTEXTBEGIN
1070
    73
1070
     1
1070
    44
1040
1.0
1070
    74
1070
     0
1000
MTEXTEND
1000
MTEXTBEGIN
1070
    73
1070
     1
1070
    44
1040
1.0
1070
    74
1070
     0
1000
MTEXTEND
  0
POINT
  5
200A
330
16BB
100
AcDbEntity
  8
DEFPOINTS
  6
CONTINUOUS
 62
     0
100
AcDbPoint
 10
1222.417085741515
 20
1041.09255365892
 30
0.0
  0
POINT
  5
200B
330
16BB
100
AcDbEntity
  8
DEFPOINTS
  6
CONTINUOUS
 62
     0
100
AcDbPoint
 10
1222.417085741515
 20
1526.09255365892
 30
0.0
  0
POINT
  5
200C
330
16BB
100
AcDbEntity
  8
DEFPOINTS
  6
CONTINUOUS
 62
     0
100
AcDbPoint
 10
1288.863077802245
 20
1526.09255365892
 30
0.0
  0
ENDBLK
  5
16C6
330
16BB
100
AcDbEntity
  8
0
100
AcDbBlockEnd
  0
BLOCK
  5
16D4
330
16C8
100
AcDbEntity
  8
0
100
AcDbBlockBegin
  2
*D36
 70
     1
 10
0.0
 20
0.0
 30
0.0
  3
*D36
  1

  0
LINE
  5
1FD1
330
16C8
100
AcDbEntity
  8
SUNPOU
  6
CONTINUOUS
100
AcDbLine
 10
1084.363077802245
 20
1597.59255365892
 30
0.0
 11
1084.363077802245
 21
1624.164355866965
 31
0.0
  0
LINE
  5
1FD2
330
16C8
100
AcDbEntity
  8
SUNPOU
  6
CONTINUOUS
100
AcDbLine
 10
1119.363077802246
 20
1597.592553658917
 30
0.0
 11
1119.363077802246
 21
1624.164355866965
 31
0.0
  0
LINE
  5
1FD3
330
16C8
100
AcDbEntity
  8
SUNPOU
  6
CONTINUOUS
100
AcDbLine
 10
1066.863077802245
 20
1617.164355866966
 30
0.0
 11
1049.363077802246
 21
1617.164355866966
 31
0.0
  0
LINE
  5
1FD4
330
16C8
100
AcDbEntity
  8
SUNPOU
  6
CONTINUOUS
100
AcDbLine
 10
1136.863077802247
 20
1617.164355866966
 30
0.0
 11
1154.363077802247
 21
1617.164355866966
 31
0.0
  0
MTEXT
  5
1FD5
330
16C8
100
AcDbEntity
  8
SUNPOU
  6
CONTINUOUS
 62
     6
100
AcDbMText
 10
1101.833728298426
 20
1603.952516633017
 30
0.0
 40
17.5
 41
0.0
 71
     5
 72
     1
  1
\A1;35
  7
SUNPOU
 11
-1.0
 21
0.0000000000000001
 31
0.0
1001
ACAD
1000
MTEXTBEGIN
1070
    73
1070
     1
1070
    44
1040
1.0
1070
    74
1070
     0
1000
MTEXTEND
1000
MTEXTBEGIN
1070
    73
1070
     1
1070
    44
1040
1.0
1070
    74
1070
     0
1000
MTEXTEND
  0
LINE
  5
1FD6
330
16C8
100
AcDbEntity
  8
SUNPOU
  6
CONTINUOUS
100
AcDbLine
 10
1084.363077802245
 20
1617.164355866966
 30
0.0
 11
1119.363077802246
 21
1617.164355866966
 31
0.0
  0
INSERT
  5
1FD7
330
16C8
100
AcDbEntity
  8
SUNPOU
  6
CONTINUOUS
100
AcDbBlockReference
  2
_OPEN30
 10
1084.363077802245
 20
1617.164355866966
 30
0.0
 41
17.5
 42
17.5
 43
17.5
  0
INSERT
  5
1FD8
330
16C8
100
AcDbEntity
  8
SUNPOU
  6
CONTINUOUS
100
AcDbBlockReference
  2
_OPEN30
 10
1119.363077802246
 20
1617.164355866966
 30
0.0
 41
17.5
 42
17.5
 43
17.5
 50
180.0
  0
POINT
  5
1FD9
330
16C8
100
AcDbEntity
  8
DEFPOINTS
  6
CONTINUOUS
 62
     0
100
AcDbPoint
 10
1084.363077802245
 20
1587.092553658919
 30
0.0
  0
POINT
  5
1FDA
330
16C8
100
AcDbEntity
  8
DEFPOINTS
  6
CONTINUOUS
 62
     0
100
AcDbPoint
 10
1119.363077802246
 20
1587.092553658917
 30
0.0
  0
POINT
  5
1FDB
330
16C8
100
AcDbEntity
  8
DEFPOINTS
  6
CONTINUOUS
 62
     0
100
AcDbPoint
 10
1119.363077802246
 20
1617.164355866966
 30
0.0
  0
ENDBLK
  5
16D5
330
16C8
100
AcDbEntity
  8
0
100
AcDbBlockEnd
  0
BLOCK
  5
16E1
330
16D7
100
AcDbEntity
  8
0
100
AcDbBlockBegin
  2
*D37
 70
     1
 10
0.0
 20
0.0
 30
0.0
  3
*D37
  1

  0
LINE
  5
2034
330
16D7
100
AcDbEntity
  8
SUNPOU
  6
CONTINUOUS
100
AcDbLine
 10
1060.363077802243
 20
1590.594084714565
 30
0.0
 11
1060.363077802243
 21
1657.060978121931
 31
0.0
  0
LINE
  5
2035
330
16D7
100
AcDbEntity
  8
SUNPOU
  6
CONTINUOUS
100
AcDbLine
 10
1143.363077802243
 20
1590.594084714565
 30
0.0
 11
1143.363077802243
 21
1657.060978121931
 31
0.0
  0
LINE
  5
2036
330
16D7
100
AcDbEntity
  8
SUNPOU
  6
CONTINUOUS
100
AcDbLine
 10
1077.863077802243
 20
1650.060978121931
 30
0.0
 11
1125.863077802244
 21
1650.060978121931
 31
0.0
  0
MTEXT
  5
2037
330
16D7
100
AcDbEntity
  8
SUNPOU
  6
CONTINUOUS
 62
     6
100
AcDbMText
 10
1101.250820712914
 20
1633.958942945261
 30
0.0
 40
17.5
 41
0.0
 71
     5
 72
     1
  1
\A1;83
  7
SUNPOU
 11
-1.0
 21
0.0000000000000001
 31
0.0
1001
ACAD
1000
MTEXTBEGIN
1070
    73
1070
     1
1070
    44
1040
1.0
1070
    74
1070
     0
1000
MTEXTEND
1000
MTEXTBEGIN
1070
    73
1070
     1
1070
    44
1040
1.0
1070
    74
1070
     0
1000
MTEXTEND
  0
INSERT
  5
2038
330
16D7
100
AcDbEntity
  8
SUNPOU
  6
CONTINUOUS
100
AcDbBlockReference
  2
_OPEN30
 10
1060.363077802243
 20
1650.060978121931
 30
0.0
 41
17.5
 42
17.5
 43
17.5
 50
180.0
  0
INSERT
  5
2039
330
16D7
100
AcDbEntity
  8
SUNPOU
  6
CONTINUOUS
100
AcDbBlockReference
  2
_OPEN30
 10
1143.363077802243
 20
1650.060978121931
 30
0.0
 41
17.5
 42
17.5
 43
17.5
  0
POINT
  5
203A
330
16D7
100
AcDbEntity
  8
DEFPOINTS
  6
CONTINUOUS
 62
     0
100
AcDbPoint
 10
1060.363077802243
 20
1580.094084714565
 30
0.0
  0
POINT
  5
203B
330
16D7
100
AcDbEntity
  8
DEFPOINTS
  6
CONTINUOUS
 62
     0
100
AcDbPoint
 10
1143.363077802243
 20
1580.094084714565
 30
0.0
  0
POINT
  5
203C
330
16D7
100
AcDbEntity
  8
DEFPOINTS
  6
CONTINUOUS
 62
     0
100
AcDbPoint
 10
1143.363077802243
 20
1650.060978121931
 30
0.0
  0
ENDBLK
  5
16E2
330
16D7
100
AcDbEntity
  8
0
100
AcDbBlockEnd
  0
BLOCK
  5
16F0
330
16E4
100
AcDbEntity
  8
0
100
AcDbBlockBegin
  2
*D38
 70
     1
 10
0.0
 20
0.0
 30
0.0
  3
*D38
  1

  0
LINE
  5
1FDC
330
16E4
100
AcDbEntity
  8
SUNPOU
  6
CONTINUOUS
100
AcDbLine
 10
1129.863077802243
 20
1565.09255365892
 30
0.0
 11
1183.044678577203
 21
1565.09255365892
 31
0.0
  0
LINE
  5
1FDD
330
16E4
100
AcDbEntity
  8
SUNPOU
  6
CONTINUOUS
100
AcDbLine
 10
1129.863077802247
 20
1587.092553658919
 30
0.0
 11
1183.044678577203
 21
1587.092553658919
 31
0.0
  0
LINE
  5
1FDE
330
16E4
100
AcDbEntity
  8
SUNPOU
  6
CONTINUOUS
100
AcDbLine
 10
1176.044678577204
 20
1547.59255365892
 30
0.0
 11
1176.044678577204
 21
1530.09255365892
 31
0.0
  0
LINE
  5
1FDF
330
16E4
100
AcDbEntity
  8
SUNPOU
  6
CONTINUOUS
100
AcDbLine
 10
1176.044678577204
 20
1604.59255365892
 30
0.0
 11
1176.044678577204
 21
1622.092553658919
 31
0.0
  0
MTEXT
  5
1FE0
330
16E4
100
AcDbEntity
  8
SUNPOU
  6
CONTINUOUS
 62
     6
100
AcDbMText
 10
1161.943712447174
 20
1604.127226995185
 30
0.0
 40
17.5
 41
0.0
 71
     5
 72
     1
  1
\A1;22
  7
SUNPOU
 11
0.0000000000000001
 21
1.0
 31
0.0
1001
ACAD
1000
MTEXTBEGIN
1070
    73
1070
     1
1070
    44
1040
1.0
1070
    74
1070
     0
1000
MTEXTEND
1000
MTEXTBEGIN
1070
    73
1070
     1
1070
    44
1040
1.0
1070
    74
1070
     0
1000
MTEXTEND
  0
LINE
  5
1FE1
330
16E4
100
AcDbEntity
  8
SUNPOU
  6
CONTINUOUS
100
AcDbLine
 10
1176.044678577204
 20
1565.09255365892
 30
0.0
 11
1176.044678577204
 21
1587.092553658919
 31
0.0
  0
INSERT
  5
1FE2
330
16E4
100
AcDbEntity
  8
SUNPOU
  6
CONTINUOUS
100
AcDbBlockReference
  2
_OPEN30
 10
1176.044678577204
 20
1565.09255365892
 30
0.0
 41
17.5
 42
17.5
 43
17.5
 50
90.0
  0
INSERT
  5
1FE3
330
16E4
100
AcDbEntity
  8
SUNPOU
  6
CONTINUOUS
100
AcDbBlockReference
  2
_OPEN30
 10
1176.044678577204
 20
1587.092553658919
 30
0.0
 41
17.5
 42
17.5
 43
17.5
 50
270.0
  0
POINT
  5
1FE4
330
16E4
100
AcDbEntity
  8
DEFPOINTS
  6
CONTINUOUS
 62
     0
100
AcDbPoint
 10
1119.363077802243
 20
1565.09255365892
 30
0.0
  0
POINT
  5
1FE5
330
16E4
100
AcDbEntity
  8
DEFPOINTS
  6
CONTINUOUS
 62
     0
100
AcDbPoint
 10
1119.363077802246
 20
1587.092553658919
 30
0.0
  0
POINT
  5
1FE6
330
16E4
100
AcDbEntity
  8
DEFPOINTS
  6
CONTINUOUS
 62
     0
100
AcDbPoint
 10
1176.044678577204
 20
1587.092553658919
 30
0.0
  0
ENDBLK
  5
16F1
330
16E4
100
AcDbEntity
  8
0
100
AcDbBlockEnd
  0
BLOCK
  5
16FD
330
16F3
100
AcDbEntity
  8
0
100
AcDbBlockBegin
  2
*D39
 70
     1
 10
0.0
 20
0.0
 30
0.0
  3
*D39
  1

  0
LINE
  5
1FE7
330
16F3
100
AcDbEntity
  8
SUNPOU
  6
CONTINUOUS
100
AcDbLine
 10
980.1739281400124
 20
1848.09255365892
 30
0.0
 11
914.2610547297399
 21
1848.09255365892
 31
0.0
  0
LINE
  5
1FE8
330
16F3
100
AcDbEntity
  8
SUNPOU
  6
CONTINUOUS
100
AcDbLine
 10
980.1739281400124
 20
1928.09255365892
 30
0.0
 11
914.2610547297399
 21
1928.09255365892
 31
0.0
  0
LINE
  5
1FE9
330
16F3
100
AcDbEntity
  8
SUNPOU
  6
CONTINUOUS
100
AcDbLine
 10
921.26105472974
 20
1865.59255365892
 30
0.0
 11
921.26105472974
 21
1910.59255365892
 31
0.0
  0
INSERT
  5
1FEA
330
16F3
100
AcDbEntity
  8
SUNPOU
  6
CONTINUOUS
100
AcDbBlockReference
  2
_OPEN30
 10
921.26105472974
 20
1848.09255365892
 30
0.0
 41
17.5
 42
17.5
 43
17.5
 50
270.0
  0
INSERT
  5
1FEB
330
16F3
100
AcDbEntity
  8
SUNPOU
  6
CONTINUOUS
100
AcDbBlockReference
  2
_OPEN30
 10
921.26105472974
 20
1928.09255365892
 30
0.0
 41
17.5
 42
17.5
 43
17.5
 50
90.0
  0
MTEXT
  5
1FEC
330
16F3
100
AcDbEntity
  8
SUNPOU
  6
CONTINUOUS
 62
     6
100
AcDbMText
 10
905.5110547297397
 20
1888.09255365892
 30
0.0
 40
17.5
 41
0.0
 71
     5
 72
     1
  1
\A1;80
  7
SUNPOU
 11
0.0000000000000001
 21
1.0
 31
0.0
1001
ACAD
1000
MTEXTBEGIN
1070
    73
1070
     1
1070
    44
1040
1.0
1070
    74
1070
     0
1000
MTEXTEND
1000
MTEXTBEGIN
1070
    73
1070
     1
1070
    44
1040
1.0
1070
    74
1070
     0
1000
MTEXTEND
  0
POINT
  5
1FED
330
16F3
100
AcDbEntity
  8
DEFPOINTS
  6
CONTINUOUS
 62
     0
100
AcDbPoint
 10
990.6739281400122
 20
1848.09255365892
 30
0.0
  0
POINT
  5
1FEE
330
16F3
100
AcDbEntity
  8
DEFPOINTS
  6
CONTINUOUS
 62
     0
100
AcDbPoint
 10
990.6739281400122
 20
1928.09255365892
 30
0.0
  0
POINT
  5
1FEF
330
16F3
100
AcDbEntity
  8
DEFPOINTS
  6
CONTINUOUS
 62
     0
100
AcDbPoint
 10
921.26105472974
 20
1928.09255365892
 30
0.0
  0
ENDBLK
  5
16FE
330
16F3
100
AcDbEntity
  8
0
100
AcDbBlockEnd
  0
BLOCK
  5
170C
330
1700
100
AcDbEntity
  8
0
100
AcDbBlockBegin
  2
*D40
 70
     1
 10
0.0
 20
0.0
 30
0.0
  3
*D40
  1

  0
LINE
  5
1FF0
330
1700
100
AcDbEntity
  8
SUNPOU
  6
CONTINUOUS
100
AcDbLine
 10
980.1739281400124
 20
1928.09255365892
 30
0.0
 11
914.2610547297399
 21
1928.09255365892
 31
0.0
  0
LINE
  5
1FF1
330
1700
100
AcDbEntity
  8
SUNPOU
  6
CONTINUOUS
100
AcDbLine
 10
992.9630778022447
 20
1976.09255365892
 30
0.0
 11
914.2610547297399
 21
1976.09255365892
 31
0.0
  0
LINE
  5
1FF2
330
1700
100
AcDbEntity
  8
SUNPOU
  6
CONTINUOUS
100
AcDbLine
 10
921.26105472974
 20
1910.59255365892
 30
0.0
 11
921.26105472974
 21
1893.092553658921
 31
0.0
  0
LINE
  5
1FF3
330
1700
100
AcDbEntity
  8
SUNPOU
  6
CONTINUOUS
100
AcDbLine
 10
921.26105472974
 20
1993.59255365892
 30
0.0
 11
921.26105472974
 21
2011.09255365892
 31
0.0
  0
LINE
  5
1FF4
330
1700
100
AcDbEntity
  8
SUNPOU
  6
CONTINUOUS
100
AcDbLine
 10
921.26105472974
 20
1928.09255365892
 30
0.0
 11
921.26105472974
 21
1976.09255365892
 31
0.0
  0
INSERT
  5
1FF5
330
1700
100
AcDbEntity
  8
SUNPOU
  6
CONTINUOUS
100
AcDbBlockReference
  2
_OPEN30
 10
921.26105472974
 20
1928.09255365892
 30
0.0
 41
17.5
 42
17.5
 43
17.5
 50
90.0
  0
INSERT
  5
1FF6
330
1700
100
AcDbEntity
  8
SUNPOU
  6
CONTINUOUS
100
AcDbBlockReference
  2
_OPEN30
 10
921.26105472974
 20
1976.09255365892
 30
0.0
 41
17.5
 42
17.5
 43
17.5
 50
270.0
  0
MTEXT
  5
1FF7
330
1700
100
AcDbEntity
  8
SUNPOU
  6
CONTINUOUS
 62
     6
100
AcDbMText
 10
905.5110547297397
 20
1952.092553658919
 30
0.0
 40
17.5
 41
0.0
 71
     5
 72
     1
  1
\A1;48
  7
SUNPOU
 11
0.0000000000000001
 21
1.0
 31
0.0
1001
ACAD
1000
MTEXTBEGIN
1070
    73
1070
     1
1070
    44
1040
1.0
1070
    74
1070
     0
1000
MTEXTEND
1000
MTEXTBEGIN
1070
    73
1070
     1
1070
    44
1040
1.0
1070
    74
1070
     0
1000
MTEXTEND
  0
POINT
  5
1FF8
330
1700
100
AcDbEntity
  8
DEFPOINTS
  6
CONTINUOUS
 62
     0
100
AcDbPoint
 10
990.6739281400122
 20
1928.09255365892
 30
0.0
  0
POINT
  5
1FF9
330
1700
100
AcDbEntity
  8
DEFPOINTS
  6
CONTINUOUS
 62
     0
100
AcDbPoint
 10
1003.463077802243
 20
1976.09255365892
 30
0.0
  0
POINT
  5
1FFA
330
1700
100
AcDbEntity
  8
DEFPOINTS
  6
CONTINUOUS
 62
     0
100
AcDbPoint
 10
921.26105472974
 20
1976.09255365892
 30
0.0
  0
ENDBLK
  5
170D
330
1700
100
AcDbEntity
  8
0
100
AcDbBlockEnd
  0
BLOCK
  5
172B
330
1721
100
AcDbEntity
  8
0
100
AcDbBlockBegin
  2
*D41
 70
     1
 10
0.0
 20
0.0
 30
0.0
  3
*D41
  1

  0
LINE
  5
1FFB
330
1721
100
AcDbEntity
  8
SUNPOU
  6
CONTINUOUS
100
AcDbLine
 10
1061.863077802245
 20
1948.592553658921
 30
0.0
 11
1061.863077802245
 21
2038.374022963205
 31
0.0
  0
LINE
  5
1FFC
330
1721
100
AcDbEntity
  8
SUNPOU
  6
CONTINUOUS
100
AcDbLine
 10
1141.863077802245
 20
1948.592553658921
 30
0.0
 11
1141.863077802245
 21
2038.374022963205
 31
0.0
  0
LINE
  5
1FFD
330
1721
100
AcDbEntity
  8
SUNPOU
  6
CONTINUOUS
100
AcDbLine
 10
1079.363077802245
 20
2031.374022963205
 30
0.0
 11
1124.363077802245
 21
2031.374022963205
 31
0.0
  0
MTEXT
  5
1FFE
330
1721
100
AcDbEntity
  8
SUNPOU
  6
CONTINUOUS
 62
     6
100
AcDbMText
 10
1102.379487504915
 20
2015.351007931974
 30
0.0
 40
17.5
 41
0.0
 71
     5
 72
     1
  1
\A1;80
  7
SUNPOU
 11
-1.0
 21
0.0000000000000001
 31
0.0
1001
ACAD
1000
MTEXTBEGIN
1070
    73
1070
     1
1070
    44
1040
1.0
1070
    74
1070
     0
1000
MTEXTEND
1000
MTEXTBEGIN
1070
    73
1070
     1
1070
    44
1040
1.0
1070
    74
1070
     0
1000
MTEXTEND
  0
INSERT
  5
1FFF
330
1721
100
AcDbEntity
  8
SUNPOU
  6
CONTINUOUS
100
AcDbBlockReference
  2
_OPEN30
 10
1061.863077802245
 20
2031.374022963205
 30
0.0
 41
17.5
 42
17.5
 43
17.5
 50
180.0
  0
INSERT
  5
2000
330
1721
100
AcDbEntity
  8
SUNPOU
  6
CONTINUOUS
100
AcDbBlockReference
  2
_OPEN30
 10
1141.863077802245
 20
2031.374022963205
 30
0.0
 41
17.5
 42
17.5
 43
17.5
  0
POINT
  5
2001
330
1721
100
AcDbEntity
  8
DEFPOINTS
  6
CONTINUOUS
 62
     0
100
AcDbPoint
 10
1061.863077802245
 20
1938.09255365892
 30
0.0
  0
POINT
  5
2002
330
1721
100
AcDbEntity
  8
DEFPOINTS
  6
CONTINUOUS
 62
     0
100
AcDbPoint
 10
1141.863077802245
 20
1938.092553658919
 30
0.0
  0
POINT
  5
2003
330
1721
100
AcDbEntity
  8
DEFPOINTS
  6
CONTINUOUS
 62
     0
100
AcDbPoint
 10
1141.863077802245
 20
2031.374022963205
 30
0.0
  0
ENDBLK
  5
172C
330
1721
100
AcDbEntity
  8
0
100
AcDbBlockEnd
  0
BLOCK
  5
1738
330
172E
100
AcDbEntity
  8
0
100
AcDbBlockBegin
  2
*D42
 70
     1
 10
0.0
 20
0.0
 30
0.0
  3
*D42
  1

  0
LINE
  5
1F7D
330
172E
100
AcDbEntity
  8
HIKIDASI
  6
CONTINUOUS
100
AcDbLine
 10
1142.551461394416
 20
1888.09255365892
 30
0.0
 11
1265.942859348436
 21
1888.09255365892
 31
0.0
  0
LINE
  5
1F7E
330
172E
100
AcDbEntity
  8
HIKIDASI
  6
CONTINUOUS
100
AcDbLine
 10
1210.763077802244
 20
1976.09255365892
 30
0.0
 11
1265.942859348436
 21
1976.09255365892
 31
0.0
  0
LINE
  5
1F7F
330
172E
100
AcDbEntity
  8
HIKIDASI
  6
CONTINUOUS
100
AcDbLine
 10
1258.942859348437
 20
1905.592553658921
 30
0.0
 11
1258.942859348437
 21
1958.59255365892
 31
0.0
  0
INSERT
  5
1F80
330
172E
100
AcDbEntity
  8
HIKIDASI
  6
CONTINUOUS
100
AcDbBlockReference
  2
_OPEN30
 10
1258.942859348437
 20
1888.09255365892
 30
0.0
 41
17.5
 42
17.5
 43
17.5
 50
270.0
  0
INSERT
  5
1F81
330
172E
100
AcDbEntity
  8
HIKIDASI
  6
CONTINUOUS
100
AcDbBlockReference
  2
_OPEN30
 10
1258.942859348437
 20
1976.09255365892
 30
0.0
 41
17.5
 42
17.5
 43
17.5
 50
90.0
  0
MTEXT
  5
1F82
330
172E
100
AcDbEntity
  8
HIKIDASI
  6
CONTINUOUS
 62
     6
100
AcDbMText
 10
1243.192859348437
 20
1932.092553658921
 30
0.0
 40
17.5
 41
0.0
 71
     5
 72
     1
  1
\A1;88
  7
SUNPOU
 11
0.0000000000000001
 21
1.0
 31
0.0
1001
ACAD
1000
MTEXTBEGIN
1070
    73
1070
     1
1070
    44
1040
1.0
1070
    74
1070
     0
1000
MTEXTEND
1000
MTEXTBEGIN
1070
    73
1070
     1
1070
    44
1040
1.0
1070
    74
1070
     0
1000
MTEXTEND
  0
POINT
  5
1F83
330
172E
100
AcDbEntity
  8
DEFPOINTS
  6
CONTINUOUS
 62
     0
100
AcDbPoint
 10
1132.051461394417
 20
1888.09255365892
 30
0.0
  0
POINT
  5
1F84
330
172E
100
AcDbEntity
  8
DEFPOINTS
  6
CONTINUOUS
 62
     0
100
AcDbPoint
 10
1200.263077802245
 20
1976.09255365892
 30
0.0
  0
POINT
  5
1F85
330
172E
100
AcDbEntity
  8
DEFPOINTS
  6
CONTINUOUS
 62
     0
100
AcDbPoint
 10
1258.942859348437
 20
1976.09255365892
 30
0.0
  0
ENDBLK
  5
1739
330
172E
100
AcDbEntity
  8
0
100
AcDbBlockEnd
  0
BLOCK
  5
1790
330
1786
100
AcDbEntity
  8
0
100
AcDbBlockBegin
  2
*D43
 70
     1
 10
0.0
 20
0.0
 30
0.0
  3
*D43
  1

  0
LINE
  5
1E9B
330
1786
100
AcDbEntity
  8
SUNPOU
  6
CONTINUOUS
100
AcDbLine
 10
376.8630778022454
 20
1020.592553658919
 30
0.0
 11
376.8630778022454
 21
982.4111751613733
 31
0.0
  0
LINE
  5
1E9C
330
1786
100
AcDbEntity
  8
SUNPOU
  6
CONTINUOUS
100
AcDbLine
 10
526.8630778022453
 20
1020.592553658919
 30
0.0
 11
526.8630778022453
 21
982.4111751613733
 31
0.0
  0
LINE
  5
1E9D
330
1786
100
AcDbEntity
  8
SUNPOU
  6
CONTINUOUS
100
AcDbLine
 10
394.3630778022454
 20
989.4111751613733
 30
0.0
 11
509.3630778022454
 21
989.4111751613733
 31
0.0
  0
MTEXT
  5
1E9E
330
1786
100
AcDbEntity
  8
SUNPOU
  6
CONTINUOUS
 62
     6
100
AcDbMText
 10
451.2208308108802
 20
972.913032460613
 30
0.0
 40
17.5
 41
0.0
 71
     5
 72
     1
  1
\A1;150
  7
SUNPOU
 11
-1.0
 21
0.0000000000000001
 31
0.0
1001
ACAD
1000
MTEXTBEGIN
1070
    73
1070
     1
1070
    44
1040
1.0
1070
    74
1070
     0
1000
MTEXTEND
1000
MTEXTBEGIN
1070
    73
1070
     1
1070
    44
1040
1.0
1070
    74
1070
     0
1000
MTEXTEND
  0
INSERT
  5
1E9F
330
1786
100
AcDbEntity
  8
SUNPOU
  6
CONTINUOUS
100
AcDbBlockReference
  2
_OPEN30
 10
376.8630778022454
 20
989.4111751613733
 30
0.0
 41
17.5
 42
17.5
 43
17.5
 50
180.0
  0
INSERT
  5
1EA0
330
1786
100
AcDbEntity
  8
SUNPOU
  6
CONTINUOUS
100
AcDbBlockReference
  2
_OPEN30
 10
526.8630778022453
 20
989.4111751613733
 30
0.0
 41
17.5
 42
17.5
 43
17.5
  0
POINT
  5
1EA1
330
1786
100
AcDbEntity
  8
DEFPOINTS
  6
CONTINUOUS
 62
     0
100
AcDbPoint
 10
376.8630778022454
 20
1031.09255365892
 30
0.0
  0
POINT
  5
1EA2
330
1786
100
AcDbEntity
  8
DEFPOINTS
  6
CONTINUOUS
 62
     0
100
AcDbPoint
 10
526.8630778022453
 20
1031.09255365892
 30
0.0
  0
POINT
  5
1EA3
330
1786
100
AcDbEntity
  8
DEFPOINTS
  6
CONTINUOUS
 62
     0
100
AcDbPoint
 10
526.8630778022453
 20
989.4111751613733
 30
0.0
  0
ENDBLK
  5
1791
330
1786
100
AcDbEntity
  8
0
100
AcDbBlockEnd
  0
BLOCK
  5
179D
330
1793
100
AcDbEntity
  8
0
100
AcDbBlockBegin
  2
*D44
 70
     1
 10
0.0
 20
0.0
 30
0.0
  3
*D44
  1

  0
LINE
  5
1EBF
330
1793
100
AcDbEntity
  8
SUNPOU
  6
CONTINUOUS
100
AcDbLine
 10
548.8630778022451
 20
958.3739710686206
 30
0.0
 11
548.8630778022451
 21
954.8739710686206
 31
0.0
  0
LINE
  5
1EC0
330
1793
100
AcDbEntity
  8
SUNPOU
  6
CONTINUOUS
100
AcDbLine
 10
354.863077802245
 20
958.3739710686206
 30
0.0
 11
354.863077802245
 21
954.8739710686206
 31
0.0
  0
LINE
  5
1EC1
330
1793
100
AcDbEntity
  8
SUNPOU
  6
CONTINUOUS
100
AcDbLine
 10
531.3630778022451
 20
947.8739710686204
 30
0.0
 11
372.363077802245
 21
947.8739710686204
 31
0.0
  0
MTEXT
  5
1EC2
330
1793
100
AcDbEntity
  8
SUNPOU
  6
CONTINUOUS
 62
     6
100
AcDbMText
 10
451.2208308108802
 20
931.8082194713834
 30
0.0
 40
17.5
 41
0.0
 71
     5
 72
     1
  1
\A1;194
  7
SUNPOU
 11
-1.0
 21
0.0000000000000001
 31
0.0
1001
ACAD
1000
MTEXTBEGIN
1070
    73
1070
     1
1070
    44
1040
1.0
1070
    74
1070
     0
1000
MTEXTEND
1000
MTEXTBEGIN
1070
    73
1070
     1
1070
    44
1040
1.0
1070
    74
1070
     0
1000
MTEXTEND
  0
INSERT
  5
1EC3
330
1793
100
AcDbEntity
  8
SUNPOU
  6
CONTINUOUS
100
AcDbBlockReference
  2
_OPEN30
 10
548.8630778022451
 20
947.8739710686204
 30
0.0
 41
17.5
 42
17.5
 43
17.5
  0
INSERT
  5
1EC4
330
1793
100
AcDbEntity
  8
SUNPOU
  6
CONTINUOUS
100
AcDbBlockReference
  2
_OPEN30
 10
354.863077802245
 20
947.8739710686204
 30
0.0
 41
17.5
 42
17.5
 43
17.5
 50
180.0
  0
POINT
  5
1EC5
330
1793
100
AcDbEntity
  8
DEFPOINTS
  6
CONTINUOUS
 62
     0
100
AcDbPoint
 10
548.8630778022451
 20
947.8739710686204
 30
0.0
  0
POINT
  5
1EC6
330
1793
100
AcDbEntity
  8
DEFPOINTS
  6
CONTINUOUS
 62
     0
100
AcDbPoint
 10
354.863077802245
 20
947.8739710686204
 30
0.0
  0
POINT
  5
1EC7
330
1793
100
AcDbEntity
  8
DEFPOINTS
  6
CONTINUOUS
 62
     0
100
AcDbPoint
 10
354.863077802245
 20
947.8739710686204
 30
0.0
  0
ENDBLK
  5
179E
330
1793
100
AcDbEntity
  8
0
100
AcDbBlockEnd
  0
BLOCK
  5
2098
330
2078
100
AcDbEntity
  8
0
100
AcDbBlockBegin
  2
*X45
 70
     1
 10
0.0
 20
0.0
 30
0.0
  3
*X45
  1

  0
LINE
  5
2079
330
2078
100
AcDbEntity
  8
0
  6
CONTINUOUS
 62
     0
100
AcDbLine
 10
1119.363077802242
 20
1205.918884359419
 30
0.0
 11
1113.189408502742
 21
1212.092553658921
 31
0.0
  0
LINE
  5
207A
330
2078
100
AcDbEntity
  8
0
  6
CONTINUOUS
 62
     0
100
AcDbLine
 10
1119.363077802242
 20
1198.847816547554
 30
0.0
 11
1106.118340690876
 21
1212.092553658919
 31
0.0
  0
LINE
  5
207B
330
2078
100
AcDbEntity
  8
0
  6
CONTINUOUS
 62
     0
100
AcDbLine
 10
1101.863077802245
 20
1209.276748735685
 30
0.0
 11
1099.047272879011
 21
1212.092553658919
 31
0.0
  0
LINE
  5
207C
330
2078
100
AcDbEntity
  8
0
  6
CONTINUOUS
 62
     0
100
AcDbLine
 10
1119.363077802242
 20
1191.776748735688
 30
0.0
 11
1101.863077802245
 21
1209.276748735685
 31
0.0
  0
LINE
  5
207D
330
2078
100
AcDbEntity
  8
0
  6
CONTINUOUS
 62
     0
100
AcDbLine
 10
1101.863077802244
 20
1202.20568092382
 30
0.0
 11
1091.976205067145
 21
1212.092553658919
 31
0.0
  0
LINE
  5
207E
330
2078
100
AcDbEntity
  8
0
  6
CONTINUOUS
 62
     0
100
AcDbLine
 10
1119.363077802242
 20
1184.705680923824
 30
0.0
 11
1101.863077802244
 21
1202.20568092382
 31
0.0
  0
LINE
  5
207F
330
2078
100
AcDbEntity
  8
0
  6
CONTINUOUS
 62
     0
100
AcDbLine
 10
1101.863077802244
 20
1195.134613111956
 30
0.0
 11
1084.90513725528
 21
1212.092553658921
 31
0.0
  0
LINE
  5
2080
330
2078
100
AcDbEntity
  8
0
  6
CONTINUOUS
 62
     0
100
AcDbLine
 10
1119.363077802242
 20
1177.634613111958
 30
0.0
 11
1101.863077802244
 21
1195.134613111956
 31
0.0
  0
LINE
  5
2081
330
2078
100
AcDbEntity
  8
0
  6
CONTINUOUS
 62
     0
100
AcDbLine
 10
1113.834069443415
 20
1176.092553658919
 30
0.0
 11
1101.863077802245
 21
1188.06354530009
 31
0.0
  0
LINE
  5
2082
330
2078
100
AcDbEntity
  8
0
  6
CONTINUOUS
 62
     0
100
AcDbLine
 10
1101.863077802245
 20
1188.06354530009
 30
0.0
 11
1084.363077802243
 21
1205.563545300092
 31
0.0
  0
LINE
  5
2083
330
2078
100
AcDbEntity
  8
0
  6
CONTINUOUS
 62
     0
100
AcDbLine
 10
1119.363077802242
 20
1170.563545300093
 30
0.0
 11
1113.834069443415
 21
1176.092553658919
 31
0.0
  0
LINE
  5
2084
330
2078
100
AcDbEntity
  8
0
  6
CONTINUOUS
 62
     0
100
AcDbLine
 10
1106.763001631549
 20
1176.092553658919
 30
0.0
 11
1101.863077802244
 21
1180.992477488224
 31
0.0
  0
LINE
  5
2085
330
2078
100
AcDbEntity
  8
0
  6
CONTINUOUS
 62
     0
100
AcDbLine
 10
1101.863077802244
 20
1180.992477488224
 30
0.0
 11
1084.363077802243
 21
1198.492477488226
 31
0.0
  0
LINE
  5
2086
330
2078
100
AcDbEntity
  8
0
  6
CONTINUOUS
 62
     0
100
AcDbLine
 10
1119.363077802242
 20
1163.492477488228
 30
0.0
 11
1106.763001631549
 21
1176.092553658919
 31
0.0
  0
LINE
  5
2087
330
2078
100
AcDbEntity
  8
0
  6
CONTINUOUS
 62
     0
100
AcDbLine
 10
1101.863077802244
 20
1173.921409676359
 30
0.0
 11
1099.691933819683
 21
1176.092553658919
 31
0.0
  0
LINE
  5
2088
330
2078
100
AcDbEntity
  8
0
  6
CONTINUOUS
 62
     0
100
AcDbLine
 10
1113.564643604947
 20
1162.219843873657
 30
0.0
 11
1101.863077802245
 21
1173.921409676359
 31
0.0
  0
LINE
  5
2089
330
2078
100
AcDbEntity
  8
0
  6
CONTINUOUS
 62
     0
100
AcDbLine
 10
1099.691933819683
 20
1176.092553658919
 30
0.0
 11
1084.363077802243
 21
1191.421409676361
 31
0.0
  0
LINE
  5
208A
330
2078
100
AcDbEntity
  8
0
  6
CONTINUOUS
 62
     0
100
AcDbLine
 10
1119.363077802242
 20
1156.421409676361
 30
0.0
 11
1114.382928787361
 21
1161.401558691242
 31
0.0
  0
LINE
  5
208B
330
2078
100
AcDbEntity
  8
0
  6
CONTINUOUS
 62
     0
100
AcDbLine
 10
1101.863077802244
 20
1166.850341864494
 30
0.0
 11
1092.620866007818
 21
1176.092553658919
 31
0.0
  0
LINE
  5
208C
330
2078
100
AcDbEntity
  8
0
  6
CONTINUOUS
 62
     0
100
AcDbLine
 10
1092.620866007818
 20
1176.092553658919
 30
0.0
 11
1084.363077802243
 21
1184.350341864494
 31
0.0
  0
LINE
  5
208D
330
2078
100
AcDbEntity
  8
0
  6
CONTINUOUS
 62
     0
100
AcDbLine
 10
1119.363077802242
 20
1149.350341864495
 30
0.0
 11
1101.863077802244
 21
1166.850341864494
 31
0.0
  0
LINE
  5
208E
330
2078
100
AcDbEntity
  8
0
  6
CONTINUOUS
 62
     0
100
AcDbLine
 10
1101.863077802244
 20
1159.779274052628
 30
0.0
 11
1085.549798195952
 21
1176.092553658919
 31
0.0
  0
LINE
  5
208F
330
2078
100
AcDbEntity
  8
0
  6
CONTINUOUS
 62
     0
100
AcDbLine
 10
1085.549798195952
 20
1176.092553658919
 30
0.0
 11
1084.363077802243
 21
1177.279274052629
 31
0.0
  0
LINE
  5
2090
330
2078
100
AcDbEntity
  8
0
  6
CONTINUOUS
 62
     0
100
AcDbLine
 10
1119.363077802242
 20
1142.279274052631
 30
0.0
 11
1101.863077802244
 21
1159.779274052628
 31
0.0
  0
LINE
  5
2091
330
2078
100
AcDbEntity
  8
0
  6
CONTINUOUS
 62
     0
100
AcDbLine
 10
1101.863077802244
 20
1152.708206240763
 30
0.0
 11
1084.363077802243
 21
1170.208206240765
 31
0.0
  0
LINE
  5
2092
330
2078
100
AcDbEntity
  8
0
  6
CONTINUOUS
 62
     0
100
AcDbLine
 10
1114.478730384087
 20
1140.092553658921
 30
0.0
 11
1101.863077802244
 21
1152.708206240763
 31
0.0
  0
LINE
  5
2093
330
2078
100
AcDbEntity
  8
0
  6
CONTINUOUS
 62
     0
100
AcDbLine
 10
1101.863077802244
 20
1145.637138428898
 30
0.0
 11
1084.363077802243
 21
1163.137138428899
 31
0.0
  0
LINE
  5
2094
330
2078
100
AcDbEntity
  8
0
  6
CONTINUOUS
 62
     0
100
AcDbLine
 10
1107.407662572222
 20
1140.09255365892
 30
0.0
 11
1101.863077802244
 21
1145.637138428898
 31
0.0
  0
LINE
  5
2095
330
2078
100
AcDbEntity
  8
0
  6
CONTINUOUS
 62
     0
100
AcDbLine
 10
1100.336594760356
 20
1140.09255365892
 30
0.0
 11
1084.363077802243
 21
1156.066070617032
 31
0.0
  0
LINE
  5
2096
330
2078
100
AcDbEntity
  8
0
  6
CONTINUOUS
 62
     0
100
AcDbLine
 10
1093.265526948489
 20
1140.09255365892
 30
0.0
 11
1084.363077802243
 21
1148.995002805168
 31
0.0
  0
LINE
  5
2097
330
2078
100
AcDbEntity
  8
0
  6
CONTINUOUS
 62
     0
100
AcDbLine
 10
1086.194459136625
 20
1140.092553658921
 30
0.0
 11
1084.363077802243
 21
1141.923934993303
 31
0.0
  0
ENDBLK
  5
2099
330
2078
100
AcDbEntity
  8
0
100
AcDbBlockEnd
  0
BLOCK
  5
20AC
330
209A
100
AcDbEntity
  8
0
100
AcDbBlockBegin
  2
*X46
 70
     1
 10
0.0
 20
0.0
 30
0.0
  3
*X46
  1

  0
LINE
  5
209B
330
209A
100
AcDbEntity
  8
0
  6
CONTINUOUS
 62
     0
100
AcDbLine
 10
1116.4757160683
 20
784.5421773814337
 30
0.0
 11
1113.925339790813
 21
787.0925536589205
 31
0.0
  0
LINE
  5
209C
330
209A
100
AcDbEntity
  8
0
  6
CONTINUOUS
 62
     0
100
AcDbLine
 10
1119.363077802242
 20
781.6548156474905
 30
0.0
 11
1118.168074815679
 21
782.8498186340547
 31
0.0
  0
LINE
  5
209D
330
209A
100
AcDbEntity
  8
0
  6
CONTINUOUS
 62
     0
100
AcDbLine
 10
1117.854271978947
 20
776.0925536589208
 30
0.0
 11
1106.854271978948
 21
787.0925536589208
 31
0.0
  0
LINE
  5
209E
330
209A
100
AcDbEntity
  8
0
  6
CONTINUOUS
 62
     0
100
AcDbLine
 10
1119.363077802242
 20
774.5837478356251
 30
0.0
 11
1117.854271978947
 21
776.0925536589208
 31
0.0
  0
LINE
  5
209F
330
209A
100
AcDbEntity
  8
0
  6
CONTINUOUS
 62
     0
100
AcDbLine
 10
1110.783204167081
 20
776.0925536589208
 30
0.0
 11
1101.863077802244
 21
785.0126800237585
 31
0.0
  0
LINE
  5
20A0
330
209A
100
AcDbEntity
  8
0
  6
CONTINUOUS
 62
     0
100
AcDbLine
 10
1101.863077802244
 20
785.0126800237585
 30
0.0
 11
1099.783204167082
 21
787.0925536589208
 31
0.0
  0
LINE
  5
20A1
330
209A
100
AcDbEntity
  8
0
  6
CONTINUOUS
 62
     0
100
AcDbLine
 10
1119.363077802242
 20
767.5126800237594
 30
0.0
 11
1110.783204167081
 21
776.0925536589208
 31
0.0
  0
LINE
  5
20A2
330
209A
100
AcDbEntity
  8
0
  6
CONTINUOUS
 62
     0
100
AcDbLine
 10
1103.712136355216
 20
776.0925536589208
 30
0.0
 11
1101.863077802244
 21
777.941612211893
 31
0.0
  0
LINE
  5
20A3
330
209A
100
AcDbEntity
  8
0
  6
CONTINUOUS
 62
     0
100
AcDbLine
 10
1101.863077802244
 20
777.941612211893
 30
0.0
 11
1092.712136355217
 21
787.0925536589204
 31
0.0
  0
LINE
  5
20A4
330
209A
100
AcDbEntity
  8
0
  6
CONTINUOUS
 62
     0
100
AcDbLine
 10
1114.712136355217
 20
765.0925536589205
 30
0.0
 11
1103.712136355216
 21
776.0925536589208
 31
0.0
  0
LINE
  5
20A5
330
209A
100
AcDbEntity
  8
0
  6
CONTINUOUS
 62
     0
100
AcDbLine
 10
1101.863077802244
 20
770.8705444000278
 30
0.0
 11
1096.64106854335
 21
776.0925536589208
 31
0.0
  0
LINE
  5
20A6
330
209A
100
AcDbEntity
  8
0
  6
CONTINUOUS
 62
     0
100
AcDbLine
 10
1096.64106854335
 20
776.0925536589208
 30
0.0
 11
1085.641068543351
 21
787.0925536589205
 31
0.0
  0
LINE
  5
20A7
330
209A
100
AcDbEntity
  8
0
  6
CONTINUOUS
 62
     0
100
AcDbLine
 10
1107.641068543351
 20
765.0925536589205
 30
0.0
 11
1101.863077802244
 21
770.8705444000278
 31
0.0
  0
LINE
  5
20A8
330
209A
100
AcDbEntity
  8
0
  6
CONTINUOUS
 62
     0
100
AcDbLine
 10
1089.570000731486
 20
776.0925536589208
 30
0.0
 11
1084.363077802243
 21
781.2994765881633
 31
0.0
  0
LINE
  5
20A9
330
209A
100
AcDbEntity
  8
0
  6
CONTINUOUS
 62
     0
100
AcDbLine
 10
1100.570000731486
 20
765.0925536589207
 30
0.0
 11
1089.570000731486
 21
776.0925536589208
 31
0.0
  0
LINE
  5
20AA
330
209A
100
AcDbEntity
  8
0
  6
CONTINUOUS
 62
     0
100
AcDbLine
 10
1093.498932919619
 20
765.0925536589205
 30
0.0
 11
1084.363077802243
 21
774.2284087762977
 31
0.0
  0
LINE
  5
20AB
330
209A
100
AcDbEntity
  8
0
  6
CONTINUOUS
 62
     0
100
AcDbLine
 10
1086.427865107755
 20
765.0925536589205
 30
0.0
 11
1084.363077802243
 21
767.157340964432
 31
0.0
  0
ENDBLK
  5
20AD
330
209A
100
AcDbEntity
  8
0
100
AcDbBlockEnd
  0
ENDSEC
  0
SECTION
  2
ENTITIES
  0
LINE
  5
5DF
330
A
100
AcDbEntity
  8
02
100
AcDbLine
 10
361.4630778022446
 20
1947.09255365892
 30
0.0
 11
536.2630778022443
 21
1947.09255365892
 31
0.0
  0
LINE
  5
5E0
330
A
100
AcDbEntity
  8
02
100
AcDbLine
 10
361.4630778022446
 20
1953.092553658921
 30
0.0
 11
536.2630778022443
 21
1953.092553658921
 31
0.0
  0
LINE
  5
5E1
330
A
100
AcDbEntity
  8
03
100
AcDbLine
 10
470.9630778022447
 20
1953.092553658921
 30
0.0
 11
470.963077802245
 21
1976.09255365892
 31
0.0
  0
LINE
  5
5E2
330
A
100
AcDbEntity
  8
03
100
AcDbLine
 10
432.763077802245
 20
1953.092553658921
 30
0.0
 11
432.7630778022453
 21
1976.09255365892
 31
0.0
  0
LINE
  5
5E3
330
A
100
AcDbEntity
  8
02
100
AcDbLine
 10
361.4630778022448
 20
1873.09255365892
 30
0.0
 11
401.8630778022417
 21
1873.09255365892
 31
0.0
  0
LINE
  5
5E4
330
A
100
AcDbEntity
  8
02
100
AcDbLine
 10
501.8630778022416
 20
1873.09255365892
 30
0.0
 11
536.2630778022446
 21
1873.09255365892
 31
0.0
  0
LINE
  5
5E5
330
A
100
AcDbEntity
  8
02
100
AcDbLine
 10
361.4630778022446
 20
1903.09255365892
 30
0.0
 11
401.8630778022448
 21
1903.09255365892
 31
0.0
  0
LINE
  5
5E6
330
A
100
AcDbEntity
  8
02
100
AcDbLine
 10
501.8630778022448
 20
1903.09255365892
 30
0.0
 11
536.2630778022443
 21
1903.09255365892
 31
0.0
  0
LINE
  5
5E7
330
A
100
AcDbEntity
  8
02
100
AcDbLine
 10
361.4630778022448
 20
1823.09255365892
 30
0.0
 11
536.2630778022446
 21
1823.09255365892
 31
0.0
  0
ARC
  5
5E8
330
A
100
AcDbEntity
  8
03
100
AcDbCircle
 10
353.4630778022446
 20
1977.69255365892
 30
0.0
 40
1.6
100
AcDbArc
 50
179.9999999999998
 51
269.9999999999996
  0
LINE
  5
5E9
330
A
100
AcDbEntity
  8
02
100
AcDbLine
 10
361.4630778022537
 20
399.0925536589211
 30
0.0
 11
536.2630778022537
 21
399.0925536589211
 31
0.0
  0
LINE
  5
5EA
330
A
100
AcDbEntity
  8
02
100
AcDbLine
 10
361.4630778022537
 20
404.0925536589211
 30
0.0
 11
536.2630778022537
 21
404.0925536589211
 31
0.0
  0
LINE
  5
5EB
330
A
100
AcDbEntity
  8
03
100
AcDbLine
 10
470.9630778022542
 20
399.0925536589211
 30
0.0
 11
470.9630778022448
 21
376.0925536589211
 31
0.0
  0
LINE
  5
5EC
330
A
100
AcDbEntity
  8
03
100
AcDbLine
 10
353.4630778022446
 20
376.0925536589211
 30
0.0
 11
550.2630778022446
 21
376.0925536589211
 31
0.0
  0
LINE
  5
5ED
330
A
100
AcDbEntity
  8
03
100
AcDbLine
 10
432.7630778022531
 20
399.0925536589211
 30
0.0
 11
432.7630778022442
 21
376.0925536589211
 31
0.0
  0
LINE
  5
5EE
330
A
100
AcDbEntity
  8
02
100
AcDbLine
 10
361.463077802254
 20
449.0925536589211
 30
0.0
 11
401.8630778022538
 21
449.0925536589211
 31
0.0
  0
LINE
  5
5EF
330
A
100
AcDbEntity
  8
02
100
AcDbLine
 10
501.8630778022538
 20
449.0925536589211
 30
0.0
 11
536.2630778022537
 21
449.0925536589211
 31
0.0
  0
LINE
  5
5F0
330
A
100
AcDbEntity
  8
02
100
AcDbLine
 10
361.4630778022481
 20
479.0925536589236
 30
0.0
 11
401.8630778022476
 21
479.0925536589236
 31
0.0
  0
LINE
  5
5F1
330
A
100
AcDbEntity
  8
02
100
AcDbLine
 10
501.863077802248
 20
479.0925536589236
 30
0.0
 11
536.2630778022478
 21
479.0925536589236
 31
0.0
  0
ARC
  5
5F2
330
A
100
AcDbEntity
  8
03
100
AcDbCircle
 10
353.4630778022446
 20
374.4925536589212
 30
0.0
 40
1.6
100
AcDbArc
 50
90.0
 51
179.9999999999998
  0
LINE
  5
5F3
330
A
100
AcDbEntity
  8
02
100
AcDbLine
 10
361.4630778022481
 20
524.0925536589237
 30
0.0
 11
536.2630778022478
 21
524.0925536589237
 31
0.0
  0
LINE
  5
5F4
330
A
100
AcDbEntity
  8
02
100
AcDbLine
 10
361.4630778022481
 20
529.0925536589237
 30
0.0
 11
536.2630778022478
 21
529.0925536589237
 31
0.0
  0
LINE
  5
5F5
330
A
100
AcDbEntity
  8
03
100
AcDbLine
 10
432.7630778022438
 20
609.9925536589218
 30
0.0
 11
432.7630778022474
 21
529.0925536589237
 31
0.0
  0
LINE
  5
5F6
330
A
100
AcDbEntity
  8
03
100
AcDbLine
 10
470.9630778022443
 20
609.9925536589218
 30
0.0
 11
470.9630778022482
 21
529.0925536589237
 31
0.0
  0
LINE
  5
5F7
330
A
100
AcDbEntity
  8
02
100
AcDbLine
 10
361.4630778022448
 20
1829.092553658921
 30
0.0
 11
536.2630778022446
 21
1829.092553658921
 31
0.0
  0
LINE
  5
5F8
330
A
100
AcDbEntity
  8
02
100
AcDbLine
 10
361.4630778022448
 20
1551.09255365892
 30
0.0
 11
536.2630778022447
 21
1551.09255365892
 31
0.0
  0
LINE
  5
5F9
330
A
100
AcDbEntity
  8
02
100
AcDbLine
 10
361.4630778022448
 20
1545.092553658919
 30
0.0
 11
536.2630778022447
 21
1545.092553658919
 31
0.0
  0
LINE
  5
5FA
330
A
100
AcDbEntity
  8
02
100
AcDbLine
 10
361.4630778022448
 20
1016.092553658921
 30
0.0
 11
536.2630778022438
 21
1016.092553658921
 31
0.0
  0
LINE
  5
5FB
330
A
100
AcDbEntity
  8
02
100
AcDbLine
 10
361.4630778022448
 20
1022.09255365892
 30
0.0
 11
536.2630778022438
 21
1022.09255365892
 31
0.0
  0
LINE
  5
5FC
330
A
100
AcDbEntity
  8
02
100
AcDbLine
 10
361.4630778022448
 20
1501.09255365892
 30
0.0
 11
376.8630778022454
 21
1501.09255365892
 31
0.0
  0
LINE
  5
5FD
330
A
100
AcDbEntity
  8
02
100
AcDbLine
 10
526.8630778022453
 20
1501.09255365892
 30
0.0
 11
536.2630778022447
 21
1501.09255365892
 31
0.0
  0
LINE
  5
5FE
330
A
100
AcDbEntity
  8
02
100
AcDbLine
 10
361.4630778022438
 20
1066.092553658921
 30
0.0
 11
376.8630778022454
 21
1066.092553658921
 31
0.0
  0
LINE
  5
5FF
330
A
100
AcDbEntity
  8
02
100
AcDbLine
 10
526.8630778022453
 20
1066.092553658921
 30
0.0
 11
536.2630778022438
 21
1066.092553658921
 31
0.0
  0
LINE
  5
605
330
A
100
AcDbEntity
  8
03
100
AcDbLine
 10
361.4630778022448
 20
1781.872949070263
 30
0.0
 11
361.4630778022446
 21
621.9925536589216
 31
0.0
  0
LINE
  5
606
330
A
100
AcDbEntity
  8
03
100
AcDbLine
 10
356.4630778022448
 20
1781.872949070263
 30
0.0
 11
356.4630778022447
 21
621.9925536589216
 31
0.0
  0
LINE
  5
607
330
A
100
AcDbEntity
  8
03
100
AcDbLine
 10
354.863077802245
 20
1781.872949070263
 30
0.0
 11
354.863077802245
 21
621.9925536589216
 31
0.0
  0
LINE
  5
608
330
A
100
AcDbEntity
  8
03
100
AcDbLine
 10
536.2630778022446
 20
1781.872949070263
 30
0.0
 11
536.2630778022443
 21
621.9925536589216
 31
0.0
  0
LINE
  5
609
330
A
100
AcDbEntity
  8
03
100
AcDbLine
 10
541.2630778022446
 20
1781.872949070263
 30
0.0
 11
541.2630778022442
 21
621.9925536589216
 31
0.0
  0
LINE
  5
60A
330
A
100
AcDbEntity
  8
03
100
AcDbLine
 10
547.2630778022451
 20
621.9925536589216
 30
0.0
 11
547.2630778022453
 21
1781.872949070263
 31
0.0
  0
LINE
  5
60B
330
A
100
AcDbEntity
  8
03
100
AcDbLine
 10
548.8630778022451
 20
1781.872949070263
 30
0.0
 11
548.863077802245
 21
621.9925536589216
 31
0.0
  0
LINE
  5
60C
330
A
100
AcDbEntity
  8
03
100
AcDbLine
 10
432.7630778022461
 20
1016.092553658921
 30
0.0
 11
432.7630778022458
 21
995.9936789021076
 31
0.0
  0
LINE
  5
60D
330
A
100
AcDbEntity
  8
03
100
AcDbLine
 10
470.9630778022424
 20
1016.092553658921
 30
0.0
 11
470.9630778022424
 21
995.993678902108
 31
0.0
  0
LINE
  5
60E
330
A
100
AcDbEntity
  8
03
100
AcDbLine
 10
548.8630778022447
 20
609.9925536589218
 30
0.0
 11
548.8630778022447
 21
376.0925536589205
 31
0.0
  0
LINE
  5
60F
330
A
100
AcDbEntity
  8
03
100
AcDbLine
 10
547.2630778022451
 20
376.0925536589211
 30
0.0
 11
547.2630778022451
 21
609.9925536589218
 31
0.0
  0
LINE
  5
610
330
A
100
AcDbEntity
  8
03
100
AcDbLine
 10
541.2630778022442
 20
609.9925536589218
 30
0.0
 11
541.2630778022442
 21
376.0925536589211
 31
0.0
  0
LINE
  5
611
330
A
100
AcDbEntity
  8
03
100
AcDbLine
 10
536.2630778022443
 20
609.9925536589218
 30
0.0
 11
536.2630778022443
 21
376.0925536589211
 31
0.0
  0
LINE
  5
612
330
A
100
AcDbEntity
  8
03
100
AcDbLine
 10
361.4630778022446
 20
609.9925536589218
 30
0.0
 11
361.4630778022446
 21
376.0925536589205
 31
0.0
  0
LINE
  5
613
330
A
100
AcDbEntity
  8
03
100
AcDbLine
 10
356.4630778022447
 20
609.9925536589218
 30
0.0
 11
356.4630778022447
 21
376.0925536589205
 31
0.0
  0
LINE
  5
614
330
A
100
AcDbEntity
  8
03
100
AcDbLine
 10
354.863077802245
 20
609.9925536589218
 30
0.0
 11
354.863077802245
 21
376.0925536589205
 31
0.0
  0
LINE
  5
615
330
A
100
AcDbEntity
  8
03
100
AcDbLine
 10
361.463077802245
 20
1976.09255365892
 30
0.0
 11
361.4630778022448
 21
1793.872949070263
 31
0.0
  0
LINE
  5
616
330
A
100
AcDbEntity
  8
03
100
AcDbLine
 10
356.4630778022451
 20
1976.09255365892
 30
0.0
 11
356.4630778022448
 21
1793.872949070263
 31
0.0
  0
LINE
  5
617
330
A
100
AcDbEntity
  8
03
100
AcDbLine
 10
354.8630778022451
 20
1976.09255365892
 30
0.0
 11
354.8630778022447
 21
1793.872949070263
 31
0.0
  0
LINE
  5
618
330
A
100
AcDbEntity
  8
03
100
AcDbLine
 10
536.2630778022446
 20
1976.09255365892
 30
0.0
 11
536.2630778022446
 21
1793.872949070263
 31
0.0
  0
LINE
  5
619
330
A
100
AcDbEntity
  8
03
100
AcDbLine
 10
470.963077802246
 20
1823.09255365892
 30
0.0
 11
470.963077802246
 21
1793.872949070263
 31
0.0
  0
LINE
  5
61A
330
A
100
AcDbEntity
  8
03
100
AcDbLine
 10
432.7630778022436
 20
1823.09255365892
 30
0.0
 11
432.7630778022438
 21
1793.872949070263
 31
0.0
  0
LINE
  5
61B
330
A
100
AcDbEntity
  8
03
100
AcDbLine
 10
541.2630778022446
 20
1976.09255365892
 30
0.0
 11
541.2630778022446
 21
1793.872949070263
 31
0.0
  0
LINE
  5
61C
330
A
100
AcDbEntity
  8
03
100
AcDbLine
 10
547.2630778022453
 20
1793.872949070263
 30
0.0
 11
547.2630778022453
 21
1976.09255365892
 31
0.0
  0
LINE
  5
61D
330
A
100
AcDbEntity
  8
03
100
AcDbLine
 10
548.863077802245
 20
1976.09255365892
 30
0.0
 11
548.863077802245
 21
1793.872949070263
 31
0.0
  0
LINE
  5
61E
330
A
100
AcDbEntity
  8
02
100
AcDbLine
 10
1011.463077802243
 20
399.0925536589193
 30
0.0
 11
1186.263077802244
 21
399.0925536589193
 31
0.0
  0
LINE
  5
61F
330
A
100
AcDbEntity
  8
02
100
AcDbLine
 10
1011.463077802243
 20
404.0925536589193
 30
0.0
 11
1186.263077802244
 21
404.0925536589193
 31
0.0
  0
LINE
  5
620
330
A
100
AcDbEntity
  8
03
100
AcDbLine
 10
1120.963077802244
 20
399.0925536589193
 30
0.0
 11
1120.963077802244
 21
376.0925536589205
 31
0.0
  0
LINE
  5
621
330
A
100
AcDbEntity
  8
03
100
AcDbLine
 10
1003.463077802243
 20
376.0925536589205
 30
0.0
 11
1200.263077802245
 21
376.0925536589205
 31
0.0
  0
LINE
  5
622
330
A
100
AcDbEntity
  8
03
100
AcDbLine
 10
1082.763077802244
 20
399.0925536589193
 30
0.0
 11
1082.763077802244
 21
376.0925536589205
 31
0.0
  0
LINE
  5
623
330
A
100
AcDbEntity
  8
02
100
AcDbLine
 10
1011.463077802245
 20
1551.09255365892
 30
0.0
 11
1186.263077802244
 21
1551.09255365892
 31
0.0
  0
LINE
  5
624
330
A
100
AcDbEntity
  8
02
100
AcDbLine
 10
1011.463077802245
 20
1545.092553658919
 30
0.0
 11
1186.263077802244
 21
1545.092553658919
 31
0.0
  0
LINE
  5
625
330
A
100
AcDbEntity
  8
02
100
AcDbLine
 10
1011.463077802243
 20
449.0925536589193
 30
0.0
 11
1186.263077802244
 21
449.0925536589193
 31
0.0
  0
LINE
  5
626
330
A
100
AcDbEntity
  8
02
100
AcDbLine
 10
1011.463077802243
 20
479.0925536589193
 30
0.0
 11
1186.263077802244
 21
479.0925536589193
 31
0.0
  0
ARC
  5
627
330
A
100
AcDbEntity
  8
03
100
AcDbCircle
 10
1003.463077802243
 20
374.4925536589203
 30
0.0
 40
1.6
100
AcDbArc
 50
90.0
 51
179.9999999999998
  0
ARC
  5
628
330
A
100
AcDbEntity
  8
03
100
AcDbCircle
 10
1003.463077802243
 20
1977.69255365892
 30
0.0
 40
1.6
100
AcDbArc
 50
179.9999999999998
 51
269.9999999999996
  0
LINE
  5
629
330
A
100
AcDbEntity
  8
02
100
AcDbLine
 10
1011.463077802243
 20
524.0925536589193
 30
0.0
 11
1186.263077802244
 21
524.0925536589193
 31
0.0
  0
LINE
  5
62A
330
A
100
AcDbEntity
  8
02
100
AcDbLine
 10
1011.463077802243
 20
529.0925536589193
 30
0.0
 11
1186.263077802244
 21
529.0925536589193
 31
0.0
  0
LINE
  5
62B
330
A
100
AcDbEntity
  8
03
100
AcDbLine
 10
1082.763077802258
 20
1781.872949070264
 30
0.0
 11
1082.763077802244
 21
1551.09255365892
 31
0.0
  0
LINE
  5
62C
330
A
100
AcDbEntity
  8
03
100
AcDbLine
 10
1120.963077802268
 20
1781.872949070261
 30
0.0
 11
1120.963077802244
 21
1551.09255365892
 31
0.0
  0
LINE
  5
62D
330
A
100
AcDbEntity
  8
02
100
AcDbLine
 10
1011.463077802245
 20
1506.09255365892
 30
0.0
 11
1186.263077802244
 21
1506.09255365892
 31
0.0
  0
LINE
  5
62E
330
A
100
AcDbEntity
  8
02
100
AcDbLine
 10
1011.463077802243
 20
1066.092553658922
 30
0.0
 11
1186.263077802244
 21
1066.092553658922
 31
0.0
  0
LINE
  5
62F
330
A
100
AcDbEntity
  8
02
100
AcDbLine
 10
1011.463077802243
 20
1022.092553658921
 30
0.0
 11
1186.263077802244
 21
1022.092553658921
 31
0.0
  0
LINE
  5
630
330
A
100
AcDbEntity
  8
02
100
AcDbLine
 10
1011.463077802243
 20
1016.092553658922
 30
0.0
 11
1186.263077802244
 21
1016.092553658922
 31
0.0
  0
LINE
  5
631
330
A
100
AcDbEntity
  8
03
100
AcDbLine
 10
1082.763077802244
 20
479.0925536589193
 30
0.0
 11
1082.763077802244
 21
449.0925536589193
 31
0.0
  0
LINE
  5
632
330
A
100
AcDbEntity
  8
03
100
AcDbLine
 10
1120.963077802245
 20
479.0925536589193
 30
0.0
 11
1120.963077802245
 21
449.0925536589202
 31
0.0
  0
LINE
  5
633
330
A
100
AcDbEntity
  8
02
100
AcDbLine
 10
1011.463077802243
 20
1256.09255365892
 30
0.0
 11
1186.263077802244
 21
1256.09255365892
 31
0.0
  0
LINE
  5
634
330
A
100
AcDbEntity
  8
02
100
AcDbLine
 10
1011.463077802243
 20
1306.09255365892
 30
0.0
 11
1186.263077802244
 21
1306.09255365892
 31
0.0
  0
CIRCLE
  5
635
330
A
100
AcDbEntity
  8
03
100
AcDbCircle
 10
1101.863077802244
 20
464.0925536589195
 30
0.0
 40
15.0
  0
LINE
  5
636
330
A
100
AcDbEntity
  8
03
100
AcDbLine
 10
1082.763077802243
 20
1506.09255365892
 30
0.0
 11
1082.763077802243
 21
1306.09255365892
 31
0.0
  0
LINE
  5
637
330
A
100
AcDbEntity
  8
03
100
AcDbLine
 10
1082.763077802243
 20
1256.09255365892
 30
0.0
 11
1082.763077802243
 21
1066.092553658922
 31
0.0
  0
LINE
  5
638
330
A
100
AcDbEntity
  8
03
100
AcDbLine
 10
1120.963077802244
 20
1506.09255365892
 30
0.0
 11
1120.963077802244
 21
1306.09255365892
 31
0.0
  0
LINE
  5
639
330
A
100
AcDbEntity
  8
03
100
AcDbLine
 10
1120.963077802244
 20
1256.09255365892
 30
0.0
 11
1120.963077802244
 21
1066.092553658922
 31
0.0
  0
LINE
  5
63A
330
A
100
AcDbEntity
  8
03
100
AcDbLine
 10
1082.763077802245
 20
1016.092553658922
 30
0.0
 11
1082.763077802245
 21
981.3092232250571
 31
0.0
  0
LINE
  5
63B
330
A
100
AcDbEntity
  8
03
100
AcDbLine
 10
1120.963077802244
 20
1016.092553658922
 30
0.0
 11
1120.963077802244
 21
981.3092232250577
 31
0.0
  0
LINE
  5
63C
330
A
100
AcDbEntity
  8
02
100
AcDbLine
 10
1011.463077802243
 20
1953.092553658921
 30
0.0
 11
1186.263077802244
 21
1953.092553658921
 31
0.0
  0
LINE
  5
63D
330
A
100
AcDbEntity
  8
02
100
AcDbLine
 10
1011.463077802243
 20
1948.09255365892
 30
0.0
 11
1186.263077802244
 21
1948.09255365892
 31
0.0
  0
LINE
  5
63E
330
A
100
AcDbEntity
  8
02
100
AcDbLine
 10
1011.463077802243
 20
1903.09255365892
 30
0.0
 11
1186.263077802244
 21
1903.09255365892
 31
0.0
  0
LINE
  5
63F
330
A
100
AcDbEntity
  8
02
100
AcDbLine
 10
1011.463077802243
 20
1873.09255365892
 30
0.0
 11
1186.263077802244
 21
1873.09255365892
 31
0.0
  0
LINE
  5
640
330
A
100
AcDbEntity
  8
02
100
AcDbLine
 10
1011.463077802243
 20
1828.092553658921
 30
0.0
 11
1186.263077802244
 21
1828.092553658921
 31
0.0
  0
LINE
  5
641
330
A
100
AcDbEntity
  8
02
100
AcDbLine
 10
1011.463077802243
 20
1823.09255365892
 30
0.0
 11
1186.263077802244
 21
1823.09255365892
 31
0.0
  0
LINE
  5
642
330
A
100
AcDbEntity
  8
03
100
AcDbLine
 10
1082.763077802244
 20
1873.09255365892
 30
0.0
 11
1082.763077802244
 21
1903.09255365892
 31
0.0
  0
LINE
  5
643
330
A
100
AcDbEntity
  8
03
100
AcDbLine
 10
1120.963077802245
 20
1873.09255365892
 30
0.0
 11
1120.963077802244
 21
1903.09255365892
 31
0.0
  0
CIRCLE
  5
644
330
A
100
AcDbEntity
  8
03
100
AcDbCircle
 10
1101.863077802244
 20
1888.09255365892
 30
0.0
 40
15.0
  0
LINE
  5
645
330
A
100
AcDbEntity
  8
03
100
AcDbLine
 10
1082.763077802244
 20
1953.092553658921
 30
0.0
 11
1082.763077802244
 21
1976.09255365892
 31
0.0
  0
LINE
  5
646
330
A
100
AcDbEntity
  8
03
100
AcDbLine
 10
1120.963077802245
 20
1953.092553658921
 30
0.0
 11
1120.963077802245
 21
1976.09255365892
 31
0.0
  0
LINE
  5
647
330
A
100
AcDbEntity
  8
03
100
AcDbLine
 10
1186.263077802244
 20
1976.09255365892
 30
0.0
 11
1186.263077802244
 21
1793.872949070263
 31
0.0
  0
LINE
  5
648
330
A
100
AcDbEntity
  8
03
100
AcDbLine
 10
1191.263077802243
 20
1976.09255365892
 30
0.0
 11
1191.263077802243
 21
1793.872949070263
 31
0.0
  0
LINE
  5
649
330
A
100
AcDbEntity
  8
03
100
AcDbLine
 10
1197.263077802245
 20
1793.872949070263
 30
0.0
 11
1197.263077802245
 21
1976.09255365892
 31
0.0
  0
LINE
  5
64A
330
A
100
AcDbEntity
  8
03
100
AcDbLine
 10
1198.863077802245
 20
1976.09255365892
 30
0.0
 11
1198.863077802245
 21
1793.872949070263
 31
0.0
  0
LINE
  5
64B
330
A
100
AcDbEntity
  8
03
100
AcDbLine
 10
1011.463077802245
 20
1976.09255365892
 30
0.0
 11
1011.463077802245
 21
1793.872949070263
 31
0.0
  0
LINE
  5
64C
330
A
100
AcDbEntity
  8
03
100
AcDbLine
 10
1006.463077802245
 20
1976.09255365892
 30
0.0
 11
1006.463077802245
 21
1793.872949070263
 31
0.0
  0
LINE
  5
64D
330
A
100
AcDbEntity
  8
03
100
AcDbLine
 10
1004.863077802244
 20
1976.09255365892
 30
0.0
 11
1004.863077802244
 21
1793.872949070263
 31
0.0
  0
LINE
  5
64E
330
A
100
AcDbEntity
  8
03
100
AcDbLine
 10
1082.763077802244
 20
1823.09255365892
 30
0.0
 11
1082.763077802244
 21
1793.872949070263
 31
0.0
  0
LINE
  5
64F
330
A
100
AcDbEntity
  8
03
100
AcDbLine
 10
1120.963077802244
 20
1823.09255365892
 30
0.0
 11
1120.963077802245
 21
1793.872949070263
 31
0.0
  0
LINE
  5
650
330
A
100
AcDbEntity
  8
03
100
AcDbLine
 10
1011.463077802243
 20
609.9925536589213
 30
0.0
 11
1011.463077802243
 21
376.0925536589202
 31
0.0
  0
LINE
  5
651
330
A
100
AcDbEntity
  8
03
100
AcDbLine
 10
1006.463077802243
 20
609.9925536589213
 30
0.0
 11
1006.463077802243
 21
376.0925536589202
 31
0.0
  0
LINE
  5
652
330
A
100
AcDbEntity
  8
03
100
AcDbLine
 10
1004.863077802244
 20
609.9925536589213
 30
0.0
 11
1004.863077802244
 21
376.0925536589202
 31
0.0
  0
LINE
  5
653
330
A
100
AcDbEntity
  8
03
100
AcDbLine
 10
1082.763077802244
 20
609.9925536589213
 30
0.0
 11
1082.763077802244
 21
529.0925536589195
 31
0.0
  0
LINE
  5
654
330
A
100
AcDbEntity
  8
03
100
AcDbLine
 10
1120.963077802245
 20
609.9925536589213
 30
0.0
 11
1120.963077802245
 21
529.0925536589193
 31
0.0
  0
LINE
  5
655
330
A
100
AcDbEntity
  8
03
100
AcDbLine
 10
1186.263077802244
 20
609.9925536589213
 30
0.0
 11
1186.263077802244
 21
376.0925536589205
 31
0.0
  0
LINE
  5
656
330
A
100
AcDbEntity
  8
03
100
AcDbLine
 10
1191.263077802243
 20
609.9925536589213
 30
0.0
 11
1191.263077802243
 21
376.0925536589205
 31
0.0
  0
LINE
  5
657
330
A
100
AcDbEntity
  8
03
100
AcDbLine
 10
1198.863077802245
 20
609.9925536589213
 30
0.0
 11
1198.863077802245
 21
376.0925536589202
 31
0.0
  0
LINE
  5
658
330
A
100
AcDbEntity
  8
03
100
AcDbLine
 10
1197.263077802245
 20
376.0925536589205
 30
0.0
 11
1197.263077802245
 21
609.9925536589213
 31
0.0
  0
LINE
  5
659
330
A
100
AcDbEntity
  8
03
100
AcDbLine
 10
1004.863077802245
 20
1781.872949070263
 30
0.0
 11
1004.863077802244
 21
621.9925536589213
 31
0.0
  0
LINE
  5
65A
330
A
100
AcDbEntity
  8
03
100
AcDbLine
 10
1006.463077802245
 20
1781.872949070263
 30
0.0
 11
1006.463077802243
 21
621.9925536589213
 31
0.0
  0
LINE
  5
65B
330
A
100
AcDbEntity
  8
03
100
AcDbLine
 10
1011.463077802245
 20
1781.872949070263
 30
0.0
 11
1011.463077802243
 21
621.9925536589213
 31
0.0
  0
LINE
  5
65C
330
A
100
AcDbEntity
  8
03
100
AcDbLine
 10
1082.763077802245
 20
945.504849661439
 30
0.0
 11
1082.763077802245
 21
621.9925536589213
 31
0.0
  0
LINE
  5
65D
330
A
100
AcDbEntity
  8
03
100
AcDbLine
 10
1120.963077802244
 20
945.5048496614397
 30
0.0
 11
1120.963077802244
 21
621.9925536589213
 31
0.0
  0
LINE
  5
65E
330
A
100
AcDbEntity
  8
03
100
AcDbLine
 10
1186.263077802244
 20
1781.872949070263
 30
0.0
 11
1186.263077802244
 21
621.9925536589213
 31
0.0
  0
LINE
  5
65F
330
A
100
AcDbEntity
  8
03
100
AcDbLine
 10
1191.263077802243
 20
1781.872949070263
 30
0.0
 11
1191.263077802243
 21
621.9925536589213
 31
0.0
  0
LINE
  5
660
330
A
100
AcDbEntity
  8
03
100
AcDbLine
 10
1197.263077802245
 20
621.9925536589213
 30
0.0
 11
1197.263077802245
 21
1781.872949070263
 31
0.0
  0
LINE
  5
661
330
A
100
AcDbEntity
  8
03
100
AcDbLine
 10
1198.863077802245
 20
1781.872949070263
 30
0.0
 11
1198.863077802245
 21
621.9925536589213
 31
0.0
  0
LINE
  5
662
330
A
100
AcDbEntity
  8
02
100
AcDbLine
 10
536.2630778022443
 20
1256.09255365892
 30
0.0
 11
526.8630778022453
 21
1256.09255365892
 31
0.0
  0
LINE
  5
663
330
A
100
AcDbEntity
  8
02
100
AcDbLine
 10
536.2630778022447
 20
1306.09255365892
 30
0.0
 11
526.8630778022453
 21
1306.09255365892
 31
0.0
  0
LINE
  5
664
330
A
100
AcDbEntity
  8
02
100
AcDbLine
 10
376.8630778022454
 20
1306.09255365892
 30
0.0
 11
361.4630778022448
 21
1306.09255365892
 31
0.0
  0
LINE
  5
665
330
A
100
AcDbEntity
  8
02
100
AcDbLine
 10
376.8630778022454
 20
1256.09255365892
 30
0.0
 11
361.4630778022448
 21
1256.09255365892
 31
0.0
  0
LINE
  5
666
330
A
100
AcDbEntity
  8
03
100
AcDbLine
 10
432.7630778022435
 20
1781.872949070263
 30
0.0
 11
432.7630778022443
 21
1590.09255365892
 31
0.0
  0
LINE
  5
667
330
A
100
AcDbEntity
  8
03
100
AcDbLine
 10
432.7630778022443
 20
1561.919752653873
 30
0.0
 11
432.7630778022446
 21
1551.09255365892
 31
0.0
  0
LINE
  5
668
330
A
100
AcDbEntity
  8
03
100
AcDbLine
 10
470.9630778022463
 20
1781.872949070263
 30
0.0
 11
470.9630778022455
 21
1590.09255365892
 31
0.0
  0
LINE
  5
669
330
A
100
AcDbEntity
  8
03
100
AcDbLine
 10
470.9630778022454
 20
1561.919752653873
 30
0.0
 11
470.963077802245
 21
1551.09255365892
 31
0.0
  0
LINE
  5
66A
330
A
100
AcDbEntity
  8
03
100
AcDbLine
 10
432.763077802245
 20
908.6550926835796
 30
0.0
 11
432.7630778022446
 21
790.9777213172815
 31
0.0
  0
LINE
  5
66B
330
A
100
AcDbEntity
  8
03
100
AcDbLine
 10
432.7630778022443
 20
762.0925536589203
 30
0.0
 11
432.7630778022438
 21
621.5175536589217
 31
0.0
  0
LINE
  5
66C
330
A
100
AcDbEntity
  8
03
100
AcDbLine
 10
470.9630778022433
 20
908.6550926835796
 30
0.0
 11
470.9630778022435
 21
790.9777213172815
 31
0.0
  0
LINE
  5
66D
330
A
100
AcDbEntity
  8
03
100
AcDbLine
 10
470.9630778022435
 20
762.0925536589203
 30
0.0
 11
470.9630778022441
 21
621.5175536589217
 31
0.0
  0
LINE
  5
66E
330
A
100
AcDbEntity
  8
03
100
AcDbLine
 10
1084.363077802243
 20
765.0925536589205
 30
0.0
 11
1084.363077802243
 21
787.0925536589205
 31
0.0
  0
LINE
  5
66F
330
A
100
AcDbEntity
  8
03
100
AcDbLine
 10
1119.363077802243
 20
765.0925536589205
 30
0.0
 11
1119.363077802243
 21
787.0925536589205
 31
0.0
  0
LINE
  5
670
330
A
100
AcDbEntity
  8
03
100
AcDbLine
 10
1119.363077802243
 20
765.0925536589205
 30
0.0
 11
1084.363077802243
 21
765.0925536589205
 31
0.0
  0
LINE
  5
671
330
A
100
AcDbEntity
  8
03
100
AcDbLine
 10
1119.363077802243
 20
787.0925536589205
 30
0.0
 11
1084.363077802243
 21
787.0925536589205
 31
0.0
  0
LINE
  5
672
330
A
100
AcDbEntity
  8
03
100
AcDbLine
 10
1084.363077802245
 20
1565.09255365892
 30
0.0
 11
1084.363077802245
 21
1587.092553658919
 31
0.0
  0
LINE
  5
673
330
A
100
AcDbEntity
  8
03
100
AcDbLine
 10
1119.363077802243
 20
1565.09255365892
 30
0.0
 11
1119.363077802243
 21
1587.092553658919
 31
0.0
  0
LINE
  5
674
330
A
100
AcDbEntity
  8
03
100
AcDbLine
 10
1119.363077802243
 20
1565.09255365892
 30
0.0
 11
1084.363077802245
 21
1565.09255365892
 31
0.0
  0
LINE
  5
675
330
A
100
AcDbEntity
  8
03
100
AcDbLine
 10
1119.363077802243
 20
1587.092553658919
 30
0.0
 11
1084.363077802245
 21
1587.092553658919
 31
0.0
  0
LINE
  5
676
330
A
100
AcDbEntity
  8
03
100
AcDbLine
 10
1084.363077802243
 20
1140.09255365892
 30
0.0
 11
1119.363077802242
 21
1140.09255365892
 31
0.0
  0
LINE
  5
677
330
A
100
AcDbEntity
  8
03
100
AcDbLine
 10
1084.363077802243
 20
1140.09255365892
 30
0.0
 11
1084.363077802243
 21
1212.092553658919
 31
0.0
  0
LINE
  5
678
330
A
100
AcDbEntity
  8
03
100
AcDbLine
 10
1084.363077802243
 20
1212.092553658919
 30
0.0
 11
1119.363077802242
 21
1212.092553658919
 31
0.0
  0
LINE
  5
679
330
A
100
AcDbEntity
  8
03
100
AcDbLine
 10
1119.363077802242
 20
1212.092553658919
 30
0.0
 11
1119.363077802242
 21
1140.09255365892
 31
0.0
  0
LINE
  5
67A
330
A
100
AcDbEntity
  8
03
100
AcDbLine
 10
1052.763077802244
 20
609.9925536589213
 30
0.0
 11
1052.763077802244
 21
529.0925536589193
 31
0.0
  0
LINE
  5
67B
330
A
100
AcDbEntity
  8
03
100
AcDbLine
 10
1052.763077802244
 20
479.0925536589193
 30
0.0
 11
1052.763077802244
 21
449.0925536589193
 31
0.0
  0
LINE
  5
67C
330
A
100
AcDbEntity
  8
03
100
AcDbLine
 10
1052.763077802244
 20
399.0925536589193
 30
0.0
 11
1052.763077802244
 21
376.0925536589205
 31
0.0
  0
LINE
  5
67D
330
A
100
AcDbEntity
  8
03
100
AcDbLine
 10
1052.763077802244
 20
621.9925536589213
 30
0.0
 11
1052.763077802244
 21
1016.092553658922
 31
0.0
  0
LINE
  5
67E
330
A
100
AcDbEntity
  8
03
100
AcDbLine
 10
1052.763077802244
 20
1306.09255365892
 30
0.0
 11
1052.763077802244
 21
1506.09255365892
 31
0.0
  0
LINE
  5
67F
330
A
100
AcDbEntity
  8
03
100
AcDbLine
 10
1052.763077802244
 20
1551.09255365892
 30
0.0
 11
1052.763077802244
 21
1781.872949070263
 31
0.0
  0
LINE
  5
680
330
A
100
AcDbEntity
  8
03
100
AcDbLine
 10
1052.763077802244
 20
1793.872949070263
 30
0.0
 11
1052.763077802244
 21
1823.09255365892
 31
0.0
  0
LINE
  5
681
330
A
100
AcDbEntity
  8
03
100
AcDbLine
 10
1052.763077802244
 20
1873.09255365892
 30
0.0
 11
1052.763077802244
 21
1903.09255365892
 31
0.0
  0
LINE
  5
682
330
A
100
AcDbEntity
  8
03
100
AcDbLine
 10
1052.763077802244
 20
1953.092553658921
 30
0.0
 11
1052.763077802244
 21
1976.09255365892
 31
0.0
  0
LINE
  5
683
330
A
100
AcDbEntity
  8
03
100
AcDbLine
 10
1150.963077802244
 20
399.0925536589193
 30
0.0
 11
1150.963077802244
 21
376.0925536589205
 31
0.0
  0
LINE
  5
684
330
A
100
AcDbEntity
  8
03
100
AcDbLine
 10
1150.963077802244
 20
449.0925536589193
 30
0.0
 11
1150.963077802244
 21
479.0925536589193
 31
0.0
  0
LINE
  5
685
330
A
100
AcDbEntity
  8
03
100
AcDbLine
 10
1150.963077802244
 20
529.0925536589193
 30
0.0
 11
1150.963077802244
 21
609.9925536589213
 31
0.0
  0
LINE
  5
686
330
A
100
AcDbEntity
  8
03
100
AcDbLine
 10
1150.963077802244
 20
621.9925536589213
 30
0.0
 11
1150.963077802244
 21
1016.092553658922
 31
0.0
  0
LINE
  5
687
330
A
100
AcDbEntity
  8
03
100
AcDbLine
 10
1150.963077802244
 20
1306.09255365892
 30
0.0
 11
1150.963077802244
 21
1506.09255365892
 31
0.0
  0
LINE
  5
688
330
A
100
AcDbEntity
  8
03
100
AcDbLine
 10
1150.963077802244
 20
1551.09255365892
 30
0.0
 11
1150.963077802244
 21
1781.872949070263
 31
0.0
  0
LINE
  5
689
330
A
100
AcDbEntity
  8
03
100
AcDbLine
 10
1150.963077802244
 20
1793.872949070263
 30
0.0
 11
1150.963077802244
 21
1823.09255365892
 31
0.0
  0
LINE
  5
68A
330
A
100
AcDbEntity
  8
03
100
AcDbLine
 10
1150.963077802244
 20
1873.09255365892
 30
0.0
 11
1150.963077802244
 21
1903.09255365892
 31
0.0
  0
LINE
  5
68B
330
A
100
AcDbEntity
  8
03
100
AcDbLine
 10
1150.963077802244
 20
1953.092553658921
 30
0.0
 11
1150.963077802244
 21
1976.09255365892
 31
0.0
  0
LINE
  5
68C
330
A
100
AcDbEntity
  8
03
100
AcDbLine
 10
402.7630778022438
 20
529.0925536589237
 30
0.0
 11
402.7630778022438
 21
609.9925536589218
 31
0.0
  0
LINE
  5
68D
330
A
100
AcDbEntity
  8
03
100
AcDbLine
 10
402.7630778022438
 20
621.9925536589216
 30
0.0
 11
402.7630778022438
 21
1016.092553658921
 31
0.0
  0
LINE
  5
68E
330
A
100
AcDbEntity
  8
03
100
AcDbLine
 10
404.6662357172493
 20
1551.09255365892
 30
0.0
 11
404.6662357172493
 21
1781.872949070263
 31
0.0
  0
LINE
  5
68F
330
A
100
AcDbEntity
  8
03
100
AcDbLine
 10
404.6662357172493
 20
1793.872949070263
 30
0.0
 11
404.6662357172493
 21
1823.09255365892
 31
0.0
  0
LINE
  5
690
330
A
100
AcDbEntity
  8
03
100
AcDbLine
 10
499.05991988724
 20
1551.09255365892
 30
0.0
 11
499.05991988724
 21
1781.872949070263
 31
0.0
  0
LINE
  5
691
330
A
100
AcDbEntity
  8
03
100
AcDbLine
 10
499.05991988724
 20
1793.872949070263
 30
0.0
 11
499.05991988724
 21
1823.09255365892
 31
0.0
  0
LINE
  5
692
330
A
100
AcDbEntity
  8
03
100
AcDbLine
 10
499.05991988724
 20
1953.092553658921
 30
0.0
 11
499.05991988724
 21
1976.09255365892
 31
0.0
  0
LINE
  5
693
330
A
100
AcDbEntity
  8
03
100
AcDbLine
 10
404.6662357172496
 20
1953.092553658921
 30
0.0
 11
404.6662357172496
 21
1976.09255365892
 31
0.0
  0
LINE
  5
694
330
A
100
AcDbEntity
  8
03
100
AcDbLine
 10
500.9630778022454
 20
529.0925536589237
 30
0.0
 11
500.9630778022454
 21
609.9925536589218
 31
0.0
  0
LINE
  5
695
330
A
100
AcDbEntity
  8
03
100
AcDbLine
 10
500.9630778022454
 20
621.9925536589216
 30
0.0
 11
500.9630778022454
 21
1016.092553658921
 31
0.0
  0
LINE
  5
696
330
A
100
AcDbEntity
  8
03
100
AcDbLine
 10
1052.763077802244
 20
1066.092553658922
 30
0.0
 11
1052.763077802244
 21
1160.286634107231
 31
0.0
  0
LINE
  5
697
330
A
100
AcDbEntity
  8
03
100
AcDbLine
 10
1052.763077802244
 20
1191.560678260723
 30
0.0
 11
1052.763077802244
 21
1256.09255365892
 31
0.0
  0
LINE
  5
698
330
A
100
AcDbEntity
  8
03
100
AcDbLine
 10
1150.963077802244
 20
1066.092553658922
 30
0.0
 11
1150.963077802244
 21
1127.695799660805
 31
0.0
  0
LINE
  5
699
330
A
100
AcDbEntity
  8
03
100
AcDbLine
 10
1150.963077802244
 20
1224.196374825788
 30
0.0
 11
1150.963077802244
 21
1256.09255365892
 31
0.0
  0
LINE
  5
6A2
330
A
100
AcDbEntity
  8
KAKURE
100
AcDbLine
 10
434.3630778022451
 20
1976.09255365892
 30
0.0
 11
434.363077802245
 21
1953.092553658921
 31
0.0
  0
LINE
  5
6A3
330
A
100
AcDbEntity
  8
KAKURE
100
AcDbLine
 10
469.3630778022451
 20
1976.09255365892
 30
0.0
 11
469.363077802245
 21
1953.092553658921
 31
0.0
  0
LINE
  5
6A4
330
A
100
AcDbEntity
  8
KAKURE
100
AcDbLine
 10
434.3630778022533
 20
399.0925536589211
 30
0.0
 11
434.3630778022441
 21
376.0925536589211
 31
0.0
  0
LINE
  5
6A5
330
A
100
AcDbEntity
  8
KAKURE
100
AcDbLine
 10
469.3630778022541
 20
399.0925536589211
 30
0.0
 11
469.3630778022451
 21
376.0925536589211
 31
0.0
  0
LINE
  5
6A6
330
A
100
AcDbEntity
  8
KAKURE
100
AcDbLine
 10
510.8630778022451
 20
1369.09255365892
 30
0.0
 11
392.863077802245
 21
1369.09255365892
 31
0.0
  0
LINE
  5
6A7
330
A
100
AcDbEntity
  8
KAKURE
100
AcDbLine
 10
434.3630778022412
 20
1016.092553658921
 30
0.0
 11
434.3630778022416
 21
995.9936789021076
 31
0.0
  0
LINE
  5
6A8
330
A
100
AcDbEntity
  8
KAKURE
100
AcDbLine
 10
469.3630778022374
 20
1016.092553658922
 30
0.0
 11
469.3630778022384
 21
995.993678902108
 31
0.0
  0
LINE
  5
6A9
330
A
100
AcDbEntity
  8
KAKURE
100
AcDbLine
 10
434.3630778022432
 20
609.9925536589221
 30
0.0
 11
434.3630778022467
 21
529.0925536589261
 31
0.0
  0
LINE
  5
6AA
330
A
100
AcDbEntity
  8
KAKURE
100
AcDbLine
 10
469.3630778022433
 20
609.9925536589221
 30
0.0
 11
469.3630778022477
 21
529.0925536589261
 31
0.0
  0
LINE
  5
6AB
330
A
100
AcDbEntity
  8
KAKURE
100
AcDbLine
 10
469.3630778022451
 20
1823.09255365892
 30
0.0
 11
469.3630778022451
 21
1793.872949070263
 31
0.0
  0
LINE
  5
6AC
330
A
100
AcDbEntity
  8
KAKURE
100
AcDbLine
 10
434.363077802245
 20
1823.09255365892
 30
0.0
 11
434.363077802245
 21
1793.872949070263
 31
0.0
  0
LINE
  5
6AD
330
A
100
AcDbEntity
  8
KAKURE
100
AcDbLine
 10
1084.363077802243
 20
399.0925536589193
 30
0.0
 11
1084.363077802243
 21
376.0925536589205
 31
0.0
  0
LINE
  5
6AE
330
A
100
AcDbEntity
  8
KAKURE
100
AcDbLine
 10
1119.363077802243
 20
399.0925536589193
 30
0.0
 11
1119.363077802245
 21
376.0925536589205
 31
0.0
  0
LINE
  5
6AF
330
A
100
AcDbEntity
  8
KAKURE
100
AcDbLine
 10
1084.363077802263
 20
1781.872949070264
 30
0.0
 11
1084.363077802243
 21
1551.09255365892
 31
0.0
  0
LINE
  5
6B0
330
A
100
AcDbEntity
  8
KAKURE
100
AcDbLine
 10
1119.363077802262
 20
1781.872949070261
 30
0.0
 11
1119.363077802243
 21
1551.09255365892
 31
0.0
  0
LINE
  5
6B1
330
A
100
AcDbEntity
  8
KAKURE
100
AcDbLine
 10
1119.363077802246
 20
479.0925536589193
 30
0.0
 11
1119.363077802246
 21
449.0925536589202
 31
0.0
  0
LINE
  5
6B2
330
A
100
AcDbEntity
  8
KAKURE
100
AcDbLine
 10
1084.363077802243
 20
479.0925536589193
 30
0.0
 11
1084.363077802243
 21
449.0925536589195
 31
0.0
  0
LINE
  5
6B3
330
A
100
AcDbEntity
  8
KAKURE
100
AcDbLine
 10
1084.363077802243
 20
1066.092553658922
 30
0.0
 11
1084.363077802243
 21
1256.09255365892
 31
0.0
  0
LINE
  5
6B4
330
A
100
AcDbEntity
  8
KAKURE
100
AcDbLine
 10
1084.363077802243
 20
1306.09255365892
 30
0.0
 11
1084.363077802243
 21
1506.09255365892
 31
0.0
  0
LINE
  5
6B5
330
A
100
AcDbEntity
  8
KAKURE
100
AcDbLine
 10
1119.363077802242
 20
1066.092553658922
 30
0.0
 11
1119.363077802242
 21
1256.09255365892
 31
0.0
  0
LINE
  5
6B6
330
A
100
AcDbEntity
  8
KAKURE
100
AcDbLine
 10
1119.363077802242
 20
1306.09255365892
 30
0.0
 11
1119.363077802242
 21
1506.09255365892
 31
0.0
  0
LINE
  5
6B7
330
A
100
AcDbEntity
  8
KAKURE
100
AcDbLine
 10
1084.363077802243
 20
1016.092553658922
 30
0.0
 11
1084.363077802243
 21
981.3092232250571
 31
0.0
  0
LINE
  5
6B8
330
A
100
AcDbEntity
  8
KAKURE
100
AcDbLine
 10
1119.363077802242
 20
1016.092553658922
 30
0.0
 11
1119.363077802242
 21
981.3092232250577
 31
0.0
  0
LINE
  5
6B9
330
A
100
AcDbEntity
  8
KAKURE
100
AcDbLine
 10
1082.763077802243
 20
1506.09255365892
 30
0.0
 11
1082.763077802243
 21
1551.09255365892
 31
0.0
  0
LINE
  5
6BA
330
A
100
AcDbEntity
  8
KAKURE
100
AcDbLine
 10
1120.963077802244
 20
1506.09255365892
 30
0.0
 11
1120.963077802244
 21
1551.09255365892
 31
0.0
  0
LINE
  5
6BB
330
A
100
AcDbEntity
  8
KAKURE
100
AcDbLine
 10
1082.763077802243
 20
1306.09255365892
 30
0.0
 11
1082.763077802243
 21
1256.09255365892
 31
0.0
  0
LINE
  5
6BC
330
A
100
AcDbEntity
  8
KAKURE
100
AcDbLine
 10
1120.963077802244
 20
1256.09255365892
 30
0.0
 11
1120.963077802244
 21
1306.09255365892
 31
0.0
  0
LINE
  5
6BD
330
A
100
AcDbEntity
  8
KAKURE
100
AcDbLine
 10
1082.763077802243
 20
1066.092553658922
 30
0.0
 11
1082.763077802243
 21
1016.092553658922
 31
0.0
  0
LINE
  5
6BE
330
A
100
AcDbEntity
  8
KAKURE
100
AcDbLine
 10
1120.963077802244
 20
1016.092553658922
 30
0.0
 11
1120.963077802244
 21
1066.092553658922
 31
0.0
  0
LINE
  5
6BF
330
A
100
AcDbEntity
  8
KAKURE
100
AcDbLine
 10
1082.763077802244
 20
529.0925536589195
 30
0.0
 11
1082.763077802244
 21
479.0925536589193
 31
0.0
  0
LINE
  5
6C0
330
A
100
AcDbEntity
  8
KAKURE
100
AcDbLine
 10
1120.963077802245
 20
479.0925536589193
 30
0.0
 11
1120.963077802245
 21
529.0925536589193
 31
0.0
  0
LINE
  5
6C1
330
A
100
AcDbEntity
  8
KAKURE
100
AcDbLine
 10
1082.763077802244
 20
449.0925536589193
 30
0.0
 11
1082.763077802244
 21
399.0925536589193
 31
0.0
  0
LINE
  5
6C2
330
A
100
AcDbEntity
  8
KAKURE
100
AcDbLine
 10
1120.963077802244
 20
399.0925536589193
 30
0.0
 11
1120.963077802245
 21
449.0925536589202
 31
0.0
  0
LINE
  5
6C3
330
A
100
AcDbEntity
  8
KAKURE
100
AcDbLine
 10
1119.363077802246
 20
1873.09255365892
 30
0.0
 11
1119.363077802246
 21
1903.09255365892
 31
0.0
  0
LINE
  5
6C4
330
A
100
AcDbEntity
  8
KAKURE
100
AcDbLine
 10
1084.363077802243
 20
1873.09255365892
 30
0.0
 11
1084.363077802243
 21
1903.09255365892
 31
0.0
  0
LINE
  5
6C5
330
A
100
AcDbEntity
  8
KAKURE
100
AcDbLine
 10
1082.763077802244
 20
1823.09255365892
 30
0.0
 11
1082.763077802244
 21
1873.09255365892
 31
0.0
  0
LINE
  5
6C6
330
A
100
AcDbEntity
  8
KAKURE
100
AcDbLine
 10
1120.963077802245
 20
1873.09255365892
 30
0.0
 11
1120.963077802244
 21
1823.09255365892
 31
0.0
  0
LINE
  5
6C7
330
A
100
AcDbEntity
  8
KAKURE
100
AcDbLine
 10
1082.763077802244
 20
1903.09255365892
 30
0.0
 11
1082.763077802244
 21
1953.092553658921
 31
0.0
  0
LINE
  5
6C8
330
A
100
AcDbEntity
  8
KAKURE
100
AcDbLine
 10
1120.963077802245
 20
1953.092553658921
 30
0.0
 11
1120.963077802244
 21
1903.09255365892
 31
0.0
  0
LINE
  5
6C9
330
A
100
AcDbEntity
  8
KAKURE
100
AcDbLine
 10
1084.363077802243
 20
1953.092553658921
 30
0.0
 11
1084.363077802243
 21
1976.09255365892
 31
0.0
  0
LINE
  5
6CA
330
A
100
AcDbEntity
  8
KAKURE
100
AcDbLine
 10
1119.363077802245
 20
1953.092553658921
 30
0.0
 11
1119.363077802245
 21
1976.09255365892
 31
0.0
  0
LINE
  5
6CB
330
A
100
AcDbEntity
  8
KAKURE
100
AcDbLine
 10
1119.363077802245
 20
1793.872949070263
 30
0.0
 11
1119.363077802245
 21
1823.09255365892
 31
0.0
  0
LINE
  5
6CC
330
A
100
AcDbEntity
  8
KAKURE
100
AcDbLine
 10
1084.363077802245
 20
1793.872949070263
 30
0.0
 11
1084.363077802243
 21
1823.09255365892
 31
0.0
  0
LINE
  5
6CD
330
A
100
AcDbEntity
  8
KAKURE
100
AcDbLine
 10
1084.363077802243
 20
609.9925536589213
 30
0.0
 11
1084.363077802243
 21
529.0925536589195
 31
0.0
  0
LINE
  5
6CE
330
A
100
AcDbEntity
  8
KAKURE
100
AcDbLine
 10
1119.363077802243
 20
609.9925536589213
 30
0.0
 11
1119.363077802245
 21
529.0925536589193
 31
0.0
  0
LINE
  5
6CF
330
A
100
AcDbEntity
  8
KAKURE
100
AcDbLine
 10
1084.363077802243
 20
945.504849661439
 30
0.0
 11
1084.363077802243
 21
621.9925536589213
 31
0.0
  0
LINE
  5
6D0
330
A
100
AcDbEntity
  8
KAKURE
100
AcDbLine
 10
1119.363077802242
 20
945.5048496614397
 30
0.0
 11
1119.363077802243
 21
621.9925536589213
 31
0.0
  0
LINE
  5
6D1
330
A
100
AcDbEntity
  8
KAKURE
100
AcDbLine
 10
434.3630778022448
 20
1781.872949070263
 30
0.0
 11
434.3630778022448
 21
1590.09255365892
 31
0.0
  0
LINE
  5
6D2
330
A
100
AcDbEntity
  8
KAKURE
100
AcDbLine
 10
434.3630778022448
 20
1561.919752653873
 30
0.0
 11
434.3630778022448
 21
1551.09255365892
 31
0.0
  0
LINE
  5
6D3
330
A
100
AcDbEntity
  8
KAKURE
100
AcDbLine
 10
469.3630778022451
 20
1781.872949070263
 30
0.0
 11
469.3630778022451
 21
1590.09255365892
 31
0.0
  0
LINE
  5
6D4
330
A
100
AcDbEntity
  8
KAKURE
100
AcDbLine
 10
469.3630778022451
 20
1561.919752653873
 30
0.0
 11
469.3630778022451
 21
1551.09255365892
 31
0.0
  0
LINE
  5
6D5
330
A
100
AcDbEntity
  8
KAKURE
100
AcDbLine
 10
434.3630778022422
 20
908.6550926835794
 30
0.0
 11
434.3630778022427
 21
790.9777213172815
 31
0.0
  0
LINE
  5
6D6
330
A
100
AcDbEntity
  8
KAKURE
100
AcDbLine
 10
434.3630778022427
 20
762.0925536589203
 30
0.0
 11
434.3630778022432
 21
621.9925536589216
 31
0.0
  0
LINE
  5
6D7
330
A
100
AcDbEntity
  8
KAKURE
100
AcDbLine
 10
469.3630778022407
 20
908.6550926835796
 30
0.0
 11
469.3630778022416
 21
790.9777213172815
 31
0.0
  0
LINE
  5
6D8
330
A
100
AcDbEntity
  8
KAKURE
100
AcDbLine
 10
469.3630778022419
 20
762.0925536589203
 30
0.0
 11
469.3630778022433
 21
621.9925536589221
 31
0.0
  0
LINE
  5
6E1
330
A
100
AcDbEntity
  8
KAKURE
100
AcDbLine
 10
1079.763077802244
 20
399.0925536589193
 30
0.0
 11
1079.763077802244
 21
376.0925536589205
 31
0.0
  0
LINE
  5
6E2
330
A
100
AcDbEntity
  8
KAKURE
100
AcDbLine
 10
1079.763077802244
 20
449.0925536589193
 30
0.0
 11
1079.763077802244
 21
479.0925536589193
 31
0.0
  0
LINE
  5
6E3
330
A
100
AcDbEntity
  8
KAKURE
100
AcDbLine
 10
1079.763077802244
 20
529.0925536589193
 30
0.0
 11
1079.763077802244
 21
609.9925536589213
 31
0.0
  0
LINE
  5
6E4
330
A
100
AcDbEntity
  8
KAKURE
100
AcDbLine
 10
1079.763077802244
 20
621.9925536589213
 30
0.0
 11
1079.763077802244
 21
945.504849661439
 31
0.0
  0
LINE
  5
6E5
330
A
100
AcDbEntity
  8
KAKURE
100
AcDbLine
 10
1079.763077802244
 20
981.3092232250571
 30
0.0
 11
1079.763077802244
 21
1016.092553658922
 31
0.0
  0
LINE
  5
6E6
330
A
100
AcDbEntity
  8
KAKURE
100
AcDbLine
 10
1079.763077802244
 20
1066.092553658922
 30
0.0
 11
1079.763077802244
 21
1256.09255365892
 31
0.0
  0
LINE
  5
6E7
330
A
100
AcDbEntity
  8
KAKURE
100
AcDbLine
 10
1079.763077802244
 20
1306.09255365892
 30
0.0
 11
1079.763077802244
 21
1506.09255365892
 31
0.0
  0
LINE
  5
6E8
330
A
100
AcDbEntity
  8
KAKURE
100
AcDbLine
 10
1079.763077802244
 20
1551.09255365892
 30
0.0
 11
1079.763077802244
 21
1781.872949070263
 31
0.0
  0
LINE
  5
6E9
330
A
100
AcDbEntity
  8
KAKURE
100
AcDbLine
 10
1079.763077802244
 20
1793.872949070263
 30
0.0
 11
1079.763077802244
 21
1823.09255365892
 31
0.0
  0
LINE
  5
6EA
330
A
100
AcDbEntity
  8
KAKURE
100
AcDbLine
 10
1079.763077802244
 20
1873.09255365892
 30
0.0
 11
1079.763077802244
 21
1903.09255365892
 31
0.0
  0
LINE
  5
6EB
330
A
100
AcDbEntity
  8
KAKURE
100
AcDbLine
 10
1079.763077802244
 20
1953.092553658921
 30
0.0
 11
1079.763077802244
 21
1976.09255365892
 31
0.0
  0
LINE
  5
6EC
330
A
100
AcDbEntity
  8
KAKURE
100
AcDbLine
 10
1123.963077802245
 20
1551.09255365892
 30
0.0
 11
1123.963077802245
 21
1781.872949070263
 31
0.0
  0
LINE
  5
6ED
330
A
100
AcDbEntity
  8
KAKURE
100
AcDbLine
 10
1123.963077802245
 20
1793.872949070263
 30
0.0
 11
1123.963077802245
 21
1823.09255365892
 31
0.0
  0
LINE
  5
6EE
330
A
100
AcDbEntity
  8
KAKURE
100
AcDbLine
 10
1123.963077802245
 20
1873.09255365892
 30
0.0
 11
1123.963077802245
 21
1903.09255365892
 31
0.0
  0
LINE
  5
6EF
330
A
100
AcDbEntity
  8
KAKURE
100
AcDbLine
 10
1123.963077802245
 20
1953.092553658921
 30
0.0
 11
1123.963077802245
 21
1976.09255365892
 31
0.0
  0
LINE
  5
6F0
330
A
100
AcDbEntity
  8
KAKURE
100
AcDbLine
 10
1123.963077802245
 20
1306.09255365892
 30
0.0
 11
1123.963077802245
 21
1506.09255365892
 31
0.0
  0
LINE
  5
6F1
330
A
100
AcDbEntity
  8
KAKURE
100
AcDbLine
 10
1123.963077802245
 20
1066.092553658922
 30
0.0
 11
1123.963077802245
 21
1256.09255365892
 31
0.0
  0
LINE
  5
6F2
330
A
100
AcDbEntity
  8
KAKURE
100
AcDbLine
 10
1123.963077802245
 20
981.3092232250571
 30
0.0
 11
1123.963077802245
 21
1016.092553658922
 31
0.0
  0
LINE
  5
6F3
330
A
100
AcDbEntity
  8
KAKURE
100
AcDbLine
 10
1123.963077802245
 20
621.9925536589213
 30
0.0
 11
1123.963077802245
 21
945.504849661439
 31
0.0
  0
LINE
  5
6F4
330
A
100
AcDbEntity
  8
KAKURE
100
AcDbLine
 10
1123.963077802245
 20
529.0925536589193
 30
0.0
 11
1123.963077802245
 21
609.9925536589213
 31
0.0
  0
LINE
  5
6F5
330
A
100
AcDbEntity
  8
KAKURE
100
AcDbLine
 10
1123.963077802245
 20
449.0925536589193
 30
0.0
 11
1123.963077802245
 21
479.0925536589193
 31
0.0
  0
LINE
  5
6F6
330
A
100
AcDbEntity
  8
KAKURE
100
AcDbLine
 10
1123.963077802245
 20
399.0925536589193
 30
0.0
 11
1123.963077802245
 21
376.0925536589205
 31
0.0
  0
LINE
  5
6F7
330
A
100
AcDbEntity
  8
KAKURE
100
AcDbLine
 10
473.963077802245
 20
399.0925536589196
 30
0.0
 11
473.963077802245
 21
376.0925536589205
 31
0.0
  0
LINE
  5
6F8
330
A
100
AcDbEntity
  8
KAKURE
100
AcDbLine
 10
429.7630778022436
 20
399.0925536589196
 30
0.0
 11
429.7630778022436
 21
376.0925536589205
 31
0.0
  0
LINE
  5
6F9
330
A
100
AcDbEntity
  8
KAKURE
100
AcDbLine
 10
473.963077802245
 20
529.0925536589196
 30
0.0
 11
473.963077802245
 21
609.9925536589221
 31
0.0
  0
LINE
  5
6FA
330
A
100
AcDbEntity
  8
KAKURE
100
AcDbLine
 10
429.7630778022436
 20
529.0925536589196
 30
0.0
 11
429.7630778022436
 21
609.9925536589221
 31
0.0
  0
LINE
  5
6FB
330
A
100
AcDbEntity
  8
KAKURE
100
AcDbLine
 10
473.963077802245
 20
995.993678902108
 30
0.0
 11
473.963077802245
 21
1016.092553658922
 31
0.0
  0
LINE
  5
6FC
330
A
100
AcDbEntity
  8
KAKURE
100
AcDbLine
 10
429.7630778022436
 20
995.9936789021076
 30
0.0
 11
429.7630778022436
 21
1016.092553658922
 31
0.0
  0
LINE
  5
6FD
330
A
100
AcDbEntity
  8
KAKURE
100
AcDbLine
 10
473.963077802245
 20
1793.872949070263
 30
0.0
 11
473.963077802245
 21
1823.092553658922
 31
0.0
  0
LINE
  5
6FE
330
A
100
AcDbEntity
  8
KAKURE
100
AcDbLine
 10
429.7630778022436
 20
1793.872949070263
 30
0.0
 11
429.7630778022436
 21
1823.092553658922
 31
0.0
  0
LINE
  5
6FF
330
A
100
AcDbEntity
  8
KAKURE
100
AcDbLine
 10
429.763077802244
 20
1953.092553658922
 30
0.0
 11
429.763077802244
 21
1976.09255365892
 31
0.0
  0
LINE
  5
700
330
A
100
AcDbEntity
  8
KAKURE
100
AcDbLine
 10
473.963077802245
 20
1953.092553658922
 30
0.0
 11
473.963077802245
 21
1976.09255365892
 31
0.0
  0
LINE
  5
701
330
A
100
AcDbEntity
  8
KAKURE
100
AcDbLine
 10
429.7630778022436
 20
621.9925536589216
 30
0.0
 11
429.7630778022436
 21
762.0925536589203
 31
0.0
  0
LINE
  5
702
330
A
100
AcDbEntity
  8
KAKURE
100
AcDbLine
 10
429.7630778022436
 20
790.9777213172815
 30
0.0
 11
429.7630778022436
 21
908.6550926835796
 31
0.0
  0
LINE
  5
703
330
A
100
AcDbEntity
  8
KAKURE
100
AcDbLine
 10
473.963077802245
 20
621.9925536589216
 30
0.0
 11
473.963077802245
 21
762.0925536589203
 31
0.0
  0
LINE
  5
704
330
A
100
AcDbEntity
  8
KAKURE
100
AcDbLine
 10
473.963077802245
 20
790.9777213172815
 30
0.0
 11
473.963077802245
 21
908.6550926835796
 31
0.0
  0
LINE
  5
705
330
A
100
AcDbEntity
  8
KAKURE
100
AcDbLine
 10
429.7630778022436
 20
1551.092553658921
 30
0.0
 11
429.7630778022436
 21
1561.919752653873
 31
0.0
  0
LINE
  5
706
330
A
100
AcDbEntity
  8
KAKURE
100
AcDbLine
 10
429.7630778022436
 20
1590.09255365892
 30
0.0
 11
429.7630778022436
 21
1781.872949070263
 31
0.0
  0
LINE
  5
707
330
A
100
AcDbEntity
  8
KAKURE
100
AcDbLine
 10
473.963077802245
 20
1551.092553658921
 30
0.0
 11
473.963077802245
 21
1561.919752653873
 31
0.0
  0
LINE
  5
708
330
A
100
AcDbEntity
  8
KAKURE
100
AcDbLine
 10
473.963077802245
 20
1590.09255365892
 30
0.0
 11
473.963077802245
 21
1781.872949070263
 31
0.0
  0
LINE
  5
709
330
A
100
AcDbEntity
  8
CHUSIN
100
AcDbLine
 10
529.8754846361665
 20
1966.104960492843
 30
0.0
 11
274.227179721012
 21
1710.456655577689
 31
0.0
  0
LINE
  5
70A
330
A
100
AcDbEntity
  8
CHUSIN
100
AcDbLine
 10
331.7313509525877
 20
464.0925536589202
 30
0.0
 11
530.8782000742358
 21
464.0925536589202
 31
0.0
  0
LINE
  5
70B
330
A
100
AcDbEntity
  8
CHUSIN
100
AcDbLine
 10
387.8325419425389
 20
1888.09255365892
 30
0.0
 11
517.1837912057322
 21
1888.09255365892
 31
0.0
  0
LINE
  5
70C
330
A
100
AcDbEntity
  8
CHUSIN
100
AcDbLine
 10
391.8630778022454
 20
1031.092553658921
 30
0.0
 11
391.8630778022454
 21
1051.685991918634
 31
0.0
  0
LINE
  5
70D
330
A
100
AcDbEntity
  8
CHUSIN
100
AcDbLine
 10
391.8630778022454
 20
1514.591547638412
 30
0.0
 11
391.8630778022454
 21
1537.720230220246
 31
0.0
  0
LINE
  5
70E
330
A
100
AcDbEntity
  8
CHUSIN
100
AcDbLine
 10
511.8630778022456
 20
1514.591547638412
 30
0.0
 11
511.8630778022456
 21
1537.720230220246
 31
0.0
  0
LINE
  5
70F
330
A
100
AcDbEntity
  8
CHUSIN
100
AcDbLine
 10
511.8630778022433
 20
1031.092553658921
 30
0.0
 11
511.8630778022436
 21
1051.685991918634
 31
0.0
  0
LINE
  5
710
330
A
100
AcDbEntity
  8
CHUSIN
100
AcDbLine
 10
402.7509900739691
 20
1041.09255365892
 30
0.0
 11
380.1221833899463
 21
1041.09255365892
 31
0.0
  0
LINE
  5
711
330
A
100
AcDbEntity
  8
CHUSIN
100
AcDbLine
 10
500.9751655305199
 20
1041.09255365892
 30
0.0
 11
523.6039722145426
 21
1041.09255365892
 31
0.0
  0
LINE
  5
712
330
A
100
AcDbEntity
  8
CHUSIN
100
AcDbLine
 10
522.1420137699083
 20
1526.09255365892
 30
0.0
 11
502.5554676259985
 21
1526.09255365892
 31
0.0
  0
LINE
  5
713
330
A
100
AcDbEntity
  8
CHUSIN
100
AcDbLine
 10
402.1420137699079
 20
1526.09255365892
 30
0.0
 11
380.7616944882351
 21
1526.09255365892
 31
0.0
  0
LINE
  5
714
330
A
100
AcDbEntity
  8
CHUSIN
100
AcDbLine
 10
416.8630778022459
 20
1029.479519112595
 30
0.0
 11
416.8630778022459
 21
1067.6696549966
 31
0.0
  0
LINE
  5
715
330
A
100
AcDbEntity
  8
CHUSIN
100
AcDbLine
 10
486.8630778022462
 20
1067.6696549966
 30
0.0
 11
486.8630778022462
 21
1029.479519112595
 31
0.0
  0
ARC
  5
71E
330
A
100
AcDbEntity
  8
CHUSIN
100
AcDbCircle
 10
451.8630778022448
 20
1455.592553658919
 30
0.0
 40
6.684999942779541
100
AcDbArc
 50
18.51666609420687
 51
161.4833339057914
  0
LINE
  5
720
330
A
100
AcDbEntity
  8
CHUSIN
100
AcDbLine
 10
500.0342270928154
 20
1341.33805365892
 30
0.0
 11
402.6291293147685
 21
1341.33805365892
 31
0.0
  0
LINE
  5
72A
330
A
100
AcDbEntity
  8
CHUSIN
100
AcDbLine
 10
516.3003645213747
 20
1227.09255365892
 30
0.0
 11
386.8818813400948
 21
1227.09255365892
 31
0.0
  0
ARC
  5
734
330
A
100
AcDbEntity
  8
CHUSIN
100
AcDbCircle
 10
451.8630778022445
 20
1341.33805365892
 30
0.0
 40
42.96999999999999
100
AcDbArc
 50
161.4833339057923
 51
18.51666609420687
  0
LINE
  5
735
330
A
100
AcDbEntity
  8
CHUSIN
100
AcDbLine
 10
502.4699951434612
 20
1455.592553658919
 30
0.0
 11
400.9197827791431
 21
1455.592553658919
 31
0.0
  0
LINE
  5
736
330
A
100
AcDbEntity
  8
CHUSIN
100
AcDbLine
 10
411.1175780645281
 20
1354.984487300123
 30
0.0
 11
445.5241514951661
 21
1457.715579214204
 31
0.0
  0
LINE
  5
737
330
A
100
AcDbEntity
  8
CHUSIN
100
AcDbLine
 10
458.2020041093231
 20
1457.715579214204
 30
0.0
 11
492.6085775399614
 21
1354.984487300123
 31
0.0
  0
LINE
  5
738
330
A
100
AcDbEntity
  8
CHUSIN
100
AcDbLine
 10
516.3003645213747
 20
1125.09255365892
 30
0.0
 11
386.8818813400948
 21
1125.09255365892
 31
0.0
  0
LINE
  5
739
330
A
100
AcDbEntity
  8
CHUSIN
100
AcDbLine
 10
421.8630778022418
 20
1848.09255365892
 30
0.0
 11
401.8630778022417
 21
1848.09255365892
 31
0.0
  0
LINE
  5
73A
330
A
100
AcDbEntity
  8
CHUSIN
100
AcDbLine
 10
411.8630778022418
 20
1858.09255365892
 30
0.0
 11
411.8630778022418
 21
1838.09255365892
 31
0.0
  0
LINE
  5
73B
330
A
100
AcDbEntity
  8
CHUSIN
100
AcDbLine
 10
421.8630778022418
 20
1928.09255365892
 30
0.0
 11
401.8630778022417
 21
1928.09255365892
 31
0.0
  0
LINE
  5
73C
330
A
100
AcDbEntity
  8
CHUSIN
100
AcDbLine
 10
411.8630778022418
 20
1938.092553658919
 30
0.0
 11
411.8630778022418
 21
1918.09255365892
 31
0.0
  0
LINE
  5
73D
330
A
100
AcDbEntity
  8
CHUSIN
100
AcDbLine
 10
491.8630778022416
 20
1858.09255365892
 30
0.0
 11
491.8630778022416
 21
1838.09255365892
 31
0.0
  0
LINE
  5
73E
330
A
100
AcDbEntity
  8
CHUSIN
100
AcDbLine
 10
481.8630778022416
 20
1848.09255365892
 30
0.0
 11
501.8630778022416
 21
1848.09255365892
 31
0.0
  0
LINE
  5
73F
330
A
100
AcDbEntity
  8
CHUSIN
100
AcDbLine
 10
481.8630778022416
 20
1928.09255365892
 30
0.0
 11
501.8630778022416
 21
1928.09255365892
 31
0.0
  0
LINE
  5
740
330
A
100
AcDbEntity
  8
CHUSIN
100
AcDbLine
 10
491.8630778022416
 20
1918.09255365892
 30
0.0
 11
491.8630778022416
 21
1938.092553658919
 31
0.0
  0
LINE
  5
741
330
A
100
AcDbEntity
  8
CHUSIN
100
AcDbLine
 10
421.8630778022448
 20
504.0925536589225
 30
0.0
 11
401.8630778022448
 21
504.0925536589225
 31
0.0
  0
LINE
  5
742
330
A
100
AcDbEntity
  8
CHUSIN
100
AcDbLine
 10
411.8630778022447
 20
514.0925536589223
 30
0.0
 11
411.8630778022447
 21
494.0925536589225
 31
0.0
  0
LINE
  5
743
330
A
100
AcDbEntity
  8
CHUSIN
100
AcDbLine
 10
421.8630778022448
 20
424.0925536589225
 30
0.0
 11
401.8630778022448
 21
424.0925536589225
 31
0.0
  0
LINE
  5
744
330
A
100
AcDbEntity
  8
CHUSIN
100
AcDbLine
 10
411.8630778022447
 20
434.0925536589223
 30
0.0
 11
411.8630778022447
 21
414.0925536589223
 31
0.0
  0
LINE
  5
745
330
A
100
AcDbEntity
  8
CHUSIN
100
AcDbLine
 10
491.8630778022447
 20
434.0925536589223
 30
0.0
 11
491.8630778022447
 21
414.0925536589223
 31
0.0
  0
LINE
  5
746
330
A
100
AcDbEntity
  8
CHUSIN
100
AcDbLine
 10
481.8630778022447
 20
424.0925536589225
 30
0.0
 11
501.8630778022448
 21
424.0925536589225
 31
0.0
  0
LINE
  5
747
330
A
100
AcDbEntity
  8
CHUSIN
100
AcDbLine
 10
491.8630778022447
 20
494.092553658922
 30
0.0
 11
491.8630778022447
 21
514.0925536589219
 31
0.0
  0
LINE
  5
748
330
A
100
AcDbEntity
  8
CHUSIN
100
AcDbLine
 10
481.8630778022447
 20
504.0925536589219
 30
0.0
 11
501.8630778022448
 21
504.0925536589219
 31
0.0
  0
LINE
  5
749
330
A
100
AcDbEntity
  8
CHUSIN
100
AcDbLine
 10
337.0708939916253
 20
1176.092553658919
 30
0.0
 11
564.0484668818943
 21
1176.092553658919
 31
0.0
  0
LINE
  5
74A
330
A
100
AcDbEntity
  8
CHUSIN
100
AcDbLine
 10
451.8630778022448
 20
2001.792543790556
 30
0.0
 11
451.8630778022448
 21
995.9936789021076
 31
0.0
  0
LINE
  5
74B
330
A
100
AcDbEntity
  8
CHUSIN
100
AcDbLine
 10
451.8630778022448
 20
908.6550926835794
 30
0.0
 11
451.8630778022445
 21
353.2366405740571
 31
0.0
  0
CIRCLE
  5
75C
330
A
100
AcDbEntity
  8
CHUSIN
100
AcDbCircle
 10
451.8630778022467
 20
1125.092553658921
 30
0.0
 40
37.00999999999572
  0
CIRCLE
  5
75D
330
A
100
AcDbEntity
  8
CHUSIN
100
AcDbCircle
 10
451.8630778022461
 20
1227.09255365892
 30
0.0
 40
37.00999999999572
  0
CIRCLE
  5
75E
330
A
100
AcDbEntity
  8
CHUSIN
100
AcDbCircle
 10
451.8630778022464
 20
1888.092553658922
 30
0.0
 40
37.00999999999572
  0
CIRCLE
  5
75F
330
A
100
AcDbEntity
  8
CHUSIN
100
AcDbCircle
 10
451.8630778022461
 20
464.0925536589207
 30
0.0
 40
37.00999999999572
  0
LINE
  5
760
330
A
100
AcDbEntity
  8
CHUSIN
100
AcDbLine
 10
414.8530778022505
 20
464.0925536589203
 30
0.0
 11
414.8530778022773
 21
1125.092553658922
 31
0.0
  0
LINE
  5
761
330
A
100
AcDbEntity
  8
CHUSIN
100
AcDbLine
 10
488.8730778022418
 20
464.0925536589203
 30
0.0
 11
488.8730778022686
 21
1125.092553658922
 31
0.0
  0
LINE
  5
762
330
A
100
AcDbEntity
  8
CHUSIN
100
AcDbLine
 10
414.8530778022505
 20
1227.09255365892
 30
0.0
 11
414.8530778022506
 21
1888.092553658922
 31
0.0
  0
LINE
  5
763
330
A
100
AcDbEntity
  8
CHUSIN
100
AcDbLine
 10
488.8730778022418
 20
1227.09255365892
 30
0.0
 11
488.8730778022423
 21
1888.092553658922
 31
0.0
  0
LINE
  5
764
330
A
100
AcDbEntity
  8
CHUSIN
100
AcDbLine
 10
1071.654497817566
 20
464.0925536589195
 30
0.0
 11
1132.051461394417
 21
464.0925536589195
 31
0.0
  0
LINE
  5
765
330
A
100
AcDbEntity
  8
CHUSIN
100
AcDbLine
 10
1041.863077802245
 20
1031.092553658922
 30
0.0
 11
1041.863077802245
 21
1537.720230220248
 31
0.0
  0
LINE
  5
766
330
A
100
AcDbEntity
  8
CHUSIN
100
AcDbLine
 10
1161.863077802244
 20
1031.092553658922
 30
0.0
 11
1161.863077802244
 21
1537.720230220248
 31
0.0
  0
LINE
  5
767
330
A
100
AcDbEntity
  8
CHUSIN
100
AcDbLine
 10
990.673928140012
 20
1041.09255365892
 30
0.0
 11
1222.417085741515
 21
1041.09255365892
 31
0.0
  0
LINE
  5
768
330
A
100
AcDbEntity
  8
CHUSIN
100
AcDbLine
 10
1222.417085741515
 20
1526.09255365892
 30
0.0
 11
990.6739281400122
 21
1526.09255365892
 31
0.0
  0
LINE
  5
769
330
A
100
AcDbEntity
  8
CHUSIN
100
AcDbLine
 10
1222.417085741515
 20
504.0925536589193
 30
0.0
 11
990.673928140012
 21
504.0925536589193
 31
0.0
  0
LINE
  5
76A
330
A
100
AcDbEntity
  8
CHUSIN
100
AcDbLine
 10
1061.863077802245
 20
514.0925536589191
 30
0.0
 11
1061.863077802245
 21
414.0925536589191
 31
0.0
  0
LINE
  5
76B
330
A
100
AcDbEntity
  8
CHUSIN
100
AcDbLine
 10
990.673928140012
 20
424.0925536589193
 30
0.0
 11
1222.417085741515
 21
424.0925536589193
 31
0.0
  0
LINE
  5
76C
330
A
100
AcDbEntity
  8
CHUSIN
100
AcDbLine
 10
1141.863077802245
 20
414.0925536589191
 30
0.0
 11
1141.863077802245
 21
514.0925536589191
 31
0.0
  0
LINE
  5
76D
330
A
100
AcDbEntity
  8
CHUSIN
100
AcDbLine
 10
990.673928140012
 20
1281.09255365892
 30
0.0
 11
1222.417085741515
 21
1281.09255365892
 31
0.0
  0
LINE
  5
76E
330
A
100
AcDbEntity
  8
CHUSIN
100
AcDbLine
 10
1071.654497817566
 20
1888.09255365892
 30
0.0
 11
1132.051461394417
 21
1888.09255365892
 31
0.0
  0
LINE
  5
76F
330
A
100
AcDbEntity
  8
CHUSIN
100
AcDbLine
 10
1222.417085741515
 20
1848.09255365892
 30
0.0
 11
990.6739281400122
 21
1848.09255365892
 31
0.0
  0
LINE
  5
770
330
A
100
AcDbEntity
  8
CHUSIN
100
AcDbLine
 10
1061.863077802245
 20
1838.092553658922
 30
0.0
 11
1061.863077802245
 21
1938.09255365892
 31
0.0
  0
LINE
  5
771
330
A
100
AcDbEntity
  8
CHUSIN
100
AcDbLine
 10
990.6739281400122
 20
1928.09255365892
 30
0.0
 11
1222.417085741515
 21
1928.09255365892
 31
0.0
  0
LINE
  5
772
330
A
100
AcDbEntity
  8
CHUSIN
100
AcDbLine
 10
1141.863077802245
 20
1938.09255365892
 30
0.0
 11
1141.863077802245
 21
1838.092553658922
 31
0.0
  0
LINE
  5
773
330
A
100
AcDbEntity
  8
CHUSIN
100
AcDbLine
 10
417.6174138372792
 20
776.0925536589208
 30
0.0
 11
486.5248410972448
 21
776.0925536589208
 31
0.0
  0
LINE
  5
774
330
A
100
AcDbEntity
  8
CHUSIN
100
AcDbLine
 10
1155.728642455573
 20
776.0925536589208
 30
0.0
 11
1046.32267506827
 21
776.0925536589208
 31
0.0
  0
LINE
  5
775
330
A
100
AcDbEntity
  8
CHUSIN
100
AcDbLine
 10
1060.363077802243
 20
779.9316829898288
 30
0.0
 11
1060.363077802243
 21
772.0910226032756
 31
0.0
  0
LINE
  5
776
330
A
100
AcDbEntity
  8
CHUSIN
100
AcDbLine
 10
1154.927880365097
 20
1576.09255365892
 30
0.0
 11
1045.716932527504
 21
1576.09255365892
 31
0.0
  0
LINE
  5
777
330
A
100
AcDbEntity
  8
CHUSIN
100
AcDbLine
 10
1060.363077802243
 20
1572.253424328012
 30
0.0
 11
1060.363077802243
 21
1580.094084714565
 31
0.0
  0
LINE
  5
778
330
A
100
AcDbEntity
  8
CHUSIN
100
AcDbLine
 10
1094.167694690471
 20
1134.59255365892
 30
0.0
 11
1110.111267978599
 21
1134.59255365892
 31
0.0
  0
LINE
  5
779
330
A
100
AcDbEntity
  8
CHUSIN
100
AcDbLine
 10
1094.167694690471
 20
1217.59255365892
 30
0.0
 11
1110.111267978599
 21
1217.59255365892
 31
0.0
  0
LINE
  5
77A
330
A
100
AcDbEntity
  8
CHUSIN
100
AcDbLine
 10
1156.363527555311
 20
1176.092553658919
 30
0.0
 11
1247.703791698749
 21
1176.092553658919
 31
0.0
  0
LINE
  5
77B
330
A
100
AcDbEntity
  8
CHUSIN
100
AcDbLine
 10
988.7406678749981
 20
1176.092553658919
 30
0.0
 11
1045.494898696734
 21
1176.092553658919
 31
0.0
  0
LINE
  5
77C
330
A
100
AcDbEntity
  8
CHUSIN
100
AcDbLine
 10
1068.947877878356
 20
1176.092553658919
 30
0.0
 11
1130.067763018341
 21
1176.092553658919
 31
0.0
  0
LINE
  5
77D
330
A
100
AcDbEntity
  8
CHUSIN
100
AcDbLine
 10
399.5257586764955
 20
1576.09255365892
 30
0.0
 11
505.5650774735791
 21
1576.09255365892
 31
0.0
  0
LINE
  5
77E
330
A
100
AcDbEntity
  8
CHUSIN
100
AcDbLine
 10
409.5917146763898
 20
672.2209669346174
 30
0.0
 11
420.8568817806259
 21
672.2209669346174
 31
0.0
  0
LINE
  5
77F
330
A
100
AcDbEntity
  8
CHUSIN
100
AcDbLine
 10
409.5917146763898
 20
863.2209669346176
 30
0.0
 11
420.8568817806259
 21
863.2209669346176
 31
0.0
  0
LINE
  5
780
330
A
100
AcDbEntity
  8
CHUSIN
100
AcDbLine
 10
483.6117146764081
 20
672.2209669346174
 30
0.0
 11
494.8768817806441
 21
672.2209669346174
 31
0.0
  0
LINE
  5
781
330
A
100
AcDbEntity
  8
CHUSIN
100
AcDbLine
 10
483.6117146764081
 20
863.2209669346176
 30
0.0
 11
494.8768817806441
 21
863.2209669346176
 31
0.0
  0
LINE
  5
782
330
A
100
AcDbEntity
  8
CHUSIN
100
AcDbLine
 10
1143.363077802243
 20
779.9316829898288
 30
0.0
 11
1143.363077802243
 21
772.0910226032756
 31
0.0
  0
LINE
  5
783
330
A
100
AcDbEntity
  8
CHUSIN
100
AcDbLine
 10
1101.863077802244
 20
945.504849661439
 30
0.0
 11
1101.863077802244
 21
749.1351910103193
 31
0.0
  0
LINE
  5
784
330
A
100
AcDbEntity
  8
CHUSIN
100
AcDbLine
 10
1101.863077802244
 20
691.8614950704903
 30
0.0
 11
1101.863077802244
 21
337.3100715365354
 31
0.0
  0
LINE
  5
785
330
A
100
AcDbEntity
  8
CHUSIN
100
AcDbLine
 10
1143.363077802243
 20
1572.253424328012
 30
0.0
 11
1143.363077802243
 21
1580.094084714565
 31
0.0
  0
LINE
  5
786
330
A
100
AcDbEntity
  8
CHUSIN
100
AcDbLine
 10
1101.863077802245
 20
2006.649496717518
 30
0.0
 11
1101.863077802244
 21
1649.511012493347
 31
0.0
  0
LINE
  5
787
330
A
100
AcDbEntity
  8
CHUSIN
100
AcDbLine
 10
409.5917146763812
 20
1564.960449070262
 30
0.0
 11
420.8568817806176
 21
1564.960449070262
 31
0.0
  0
LINE
  5
788
330
A
100
AcDbEntity
  8
CHUSIN
100
AcDbLine
 10
409.5917146763812
 20
1755.960449070262
 30
0.0
 11
420.8568817806176
 21
1755.960449070262
 31
0.0
  0
LINE
  5
789
330
A
100
AcDbEntity
  8
CHUSIN
100
AcDbLine
 10
483.6117146763704
 20
1755.960449070262
 30
0.0
 11
494.8768817806064
 21
1755.960449070262
 31
0.0
  0
LINE
  5
78A
330
A
100
AcDbEntity
  8
CHUSIN
100
AcDbLine
 10
483.6117146763704
 20
1564.960449070263
 30
0.0
 11
494.8768817806061
 21
1564.960449070263
 31
0.0
  0
LINE
  5
78B
330
A
100
AcDbEntity
  8
CHUSIN
100
AcDbLine
 10
1101.863077802244
 20
1594.787938846081
 30
0.0
 11
1101.863077802244
 21
1122.920005889886
 31
0.0
  0
LINE
  5
78C
330
A
100
AcDbEntity
  8
CHUSIN
100
AcDbLine
 10
1101.863077802244
 20
1096.816899998986
 30
0.0
 11
1101.863077802244
 21
981.3092232250577
 31
0.0
  0
LINE
  5
78D
330
A
100
AcDbEntity
  8
CHUSIN
100
AcDbLine
 10
529.8754846361663
 20
386.0801468249983
 30
0.0
 11
329.1877121638458
 21
586.7679192973191
 31
0.0
  0
LINE
  5
78E
330
A
100
AcDbEntity
  8
CHUSIN
100
AcDbLine
 10
304.8600627290643
 20
611.0955687321006
 30
0.0
 11
279.0461696838034
 21
636.9094617773615
 31
0.0
  0
LINE
  5
790
330
A
100
AcDbEntity
  8
03
100
AcDbLine
 10
426.3630778022451
 20
1040.092553658921
 30
0.0
 11
426.3630778022451
 21
1033.092553658921
 31
0.0
  0
LINE
  5
791
330
A
100
AcDbEntity
  8
03
100
AcDbLine
 10
426.3630778022451
 20
1033.092553658921
 30
0.0
 11
407.3630778022452
 21
1033.092553658921
 31
0.0
  0
LINE
  5
792
330
A
100
AcDbEntity
  8
03
100
AcDbLine
 10
407.3630778022452
 20
1033.092553658921
 30
0.0
 11
407.3630778022452
 21
1040.092553658921
 31
0.0
  0
ARC
  5
796
330
A
100
AcDbEntity
  8
03
100
AcDbCircle
 10
423.4630778022451
 20
1040.692553658919
 30
0.0
 40
0.6000000000000015
100
AcDbArc
 50
179.9999999999998
 51
269.9999999999996
  0
ARC
  5
797
330
A
100
AcDbEntity
  8
03
100
AcDbCircle
 10
410.2630778022451
 20
1040.692553658919
 30
0.0
 40
0.6000000000000229
100
AcDbArc
 50
269.9999999999996
 51
359.9999999999993
  0
LINE
  5
79B
330
A
100
AcDbEntity
  8
03
100
AcDbLine
 10
410.8630778022451
 20
1054.09255365892
 30
0.0
 11
410.8630778022451
 21
1040.692553658919
 31
0.0
  0
LINE
  5
79E
330
A
100
AcDbEntity
  8
03
100
AcDbLine
 10
422.8630778022451
 20
1040.692553658919
 30
0.0
 11
422.8630778022451
 21
1054.09255365892
 31
0.0
  0
CIRCLE
  5
7A2
330
A
100
AcDbEntity
  8
03
100
AcDbCircle
 10
451.8630778022448
 20
1455.592553658919
 30
0.0
 40
6.031999893784103
  0
CIRCLE
  5
7A9
330
A
100
AcDbEntity
  8
03
100
AcDbCircle
 10
451.8630778022448
 20
1341.33805365892
 30
0.0
 40
6.0
  0
LINE
  5
7AB
330
A
100
AcDbEntity
  8
03
100
AcDbLine
 10
477.3630778022443
 20
1040.092553658921
 30
0.0
 11
477.3630778022443
 21
1033.092553658921
 31
0.0
  0
LINE
  5
7AC
330
A
100
AcDbEntity
  8
03
100
AcDbLine
 10
477.3630778022443
 20
1033.092553658921
 30
0.0
 11
496.3630778022443
 21
1033.092553658921
 31
0.0
  0
LINE
  5
7AD
330
A
100
AcDbEntity
  8
03
100
AcDbLine
 10
496.3630778022443
 20
1033.092553658921
 30
0.0
 11
496.3630778022443
 21
1040.092553658921
 31
0.0
  0
ARC
  5
7B1
330
A
100
AcDbEntity
  8
03
100
AcDbCircle
 10
480.263077802244
 20
1040.692553658919
 30
0.0
 40
0.6000000000000015
100
AcDbArc
 50
269.9999999999996
 51
359.9999999999993
  0
ARC
  5
7B2
330
A
100
AcDbEntity
  8
03
100
AcDbCircle
 10
493.4630778022442
 20
1040.692553658919
 30
0.0
 40
0.6000000000000229
100
AcDbArc
 50
179.9999999999998
 51
269.9999999999996
  0
LINE
  5
7B6
330
A
100
AcDbEntity
  8
03
100
AcDbLine
 10
492.8630778022443
 20
1054.09255365892
 30
0.0
 11
492.8630778022443
 21
1040.692553658919
 31
0.0
  0
LINE
  5
7B9
330
A
100
AcDbEntity
  8
03
100
AcDbLine
 10
480.8630778022443
 20
1040.692553658919
 30
0.0
 11
480.8630778022443
 21
1054.09255365892
 31
0.0
  0
CIRCLE
  5
7BF
330
A
100
AcDbEntity
  8
03
100
AcDbCircle
 10
1061.863077802245
 20
424.0925536589193
 30
0.0
 40
4.0
  0
CIRCLE
  5
7C0
330
A
100
AcDbEntity
  8
03
100
AcDbCircle
 10
1061.863077802245
 20
424.0925536589193
 30
0.0
 40
1.5
  0
CIRCLE
  5
7C1
330
A
100
AcDbEntity
  8
03
100
AcDbCircle
 10
1141.863077802245
 20
424.0925536589193
 30
0.0
 40
4.0
  0
CIRCLE
  5
7C2
330
A
100
AcDbEntity
  8
03
100
AcDbCircle
 10
1141.863077802245
 20
424.0925536589193
 30
0.0
 40
1.5
  0
CIRCLE
  5
7C3
330
A
100
AcDbEntity
  8
03
100
AcDbCircle
 10
1141.863077802245
 20
504.0925536589193
 30
0.0
 40
4.0
  0
CIRCLE
  5
7C4
330
A
100
AcDbEntity
  8
03
100
AcDbCircle
 10
1141.863077802245
 20
504.0925536589193
 30
0.0
 40
1.5
  0
CIRCLE
  5
7C5
330
A
100
AcDbEntity
  8
03
100
AcDbCircle
 10
1061.863077802245
 20
504.0925536589193
 30
0.0
 40
4.0
  0
CIRCLE
  5
7C6
330
A
100
AcDbEntity
  8
03
100
AcDbCircle
 10
1061.863077802245
 20
504.0925536589193
 30
0.0
 40
1.5
  0
CIRCLE
  5
7C7
330
A
100
AcDbEntity
  8
03
100
AcDbCircle
 10
1041.863077802245
 20
1041.09255365892
 30
0.0
 40
4.0
  0
CIRCLE
  5
7C8
330
A
100
AcDbEntity
  8
03
100
AcDbCircle
 10
1041.863077802245
 20
1041.09255365892
 30
0.0
 40
1.5
  0
CIRCLE
  5
7C9
330
A
100
AcDbEntity
  8
03
100
AcDbCircle
 10
1161.863077802242
 20
1041.09255365892
 30
0.0
 40
4.0
  0
CIRCLE
  5
7CA
330
A
100
AcDbEntity
  8
03
100
AcDbCircle
 10
1161.863077802242
 20
1041.09255365892
 30
0.0
 40
1.5
  0
CIRCLE
  5
7CB
330
A
100
AcDbEntity
  8
03
100
AcDbCircle
 10
1161.863077802244
 20
1526.09255365892
 30
0.0
 40
4.0
  0
CIRCLE
  5
7CC
330
A
100
AcDbEntity
  8
03
100
AcDbCircle
 10
1161.863077802244
 20
1526.09255365892
 30
0.0
 40
1.5
  0
CIRCLE
  5
7CD
330
A
100
AcDbEntity
  8
03
100
AcDbCircle
 10
1041.863077802245
 20
1526.09255365892
 30
0.0
 40
4.0
  0
CIRCLE
  5
7CE
330
A
100
AcDbEntity
  8
03
100
AcDbCircle
 10
1041.863077802245
 20
1526.09255365892
 30
0.0
 40
1.5
  0
CIRCLE
  5
7CF
330
A
100
AcDbEntity
  8
03
100
AcDbCircle
 10
1061.863077802245
 20
1928.09255365892
 30
0.0
 40
4.0
  0
CIRCLE
  5
7D0
330
A
100
AcDbEntity
  8
03
100
AcDbCircle
 10
1061.863077802245
 20
1928.09255365892
 30
0.0
 40
1.5
  0
CIRCLE
  5
7D1
330
A
100
AcDbEntity
  8
03
100
AcDbCircle
 10
1141.863077802245
 20
1928.09255365892
 30
0.0
 40
4.0
  0
CIRCLE
  5
7D2
330
A
100
AcDbEntity
  8
03
100
AcDbCircle
 10
1141.863077802245
 20
1928.09255365892
 30
0.0
 40
1.5
  0
CIRCLE
  5
7D3
330
A
100
AcDbEntity
  8
03
100
AcDbCircle
 10
1141.863077802245
 20
1848.09255365892
 30
0.0
 40
4.0
  0
CIRCLE
  5
7D4
330
A
100
AcDbEntity
  8
03
100
AcDbCircle
 10
1141.863077802245
 20
1848.09255365892
 30
0.0
 40
1.5
  0
CIRCLE
  5
7D5
330
A
100
AcDbEntity
  8
03
100
AcDbCircle
 10
1061.863077802245
 20
1848.09255365892
 30
0.0
 40
4.0
  0
CIRCLE
  5
7D6
330
A
100
AcDbEntity
  8
03
100
AcDbCircle
 10
1061.863077802245
 20
1848.09255365892
 30
0.0
 40
1.5
  0
CIRCLE
  5
7D7
330
A
100
AcDbEntity
  8
03
100
AcDbCircle
 10
1060.363077802243
 20
776.0925536589208
 30
0.0
 40
2.0
  0
CIRCLE
  5
7D8
330
A
100
AcDbEntity
  8
03
100
AcDbCircle
 10
1060.363077802243
 20
776.0925536589208
 30
0.0
 40
0.8000000000000111
  0
CIRCLE
  5
7D9
330
A
100
AcDbEntity
  8
03
100
AcDbCircle
 10
1060.363077802243
 20
1576.09255365892
 30
0.0
 40
2.0
  0
CIRCLE
  5
7DA
330
A
100
AcDbEntity
  8
03
100
AcDbCircle
 10
1060.363077802243
 20
1576.09255365892
 30
0.0
 40
0.8000000000000111
  0
CIRCLE
  5
7DB
330
A
100
AcDbEntity
  8
03
100
AcDbCircle
 10
1101.863077802244
 20
1134.59255365892
 30
0.0
 40
2.0
  0
CIRCLE
  5
7DC
330
A
100
AcDbEntity
  8
03
100
AcDbCircle
 10
1101.863077802244
 20
1134.59255365892
 30
0.0
 40
0.8000000000000111
  0
CIRCLE
  5
7DD
330
A
100
AcDbEntity
  8
03
100
AcDbCircle
 10
1101.863077802244
 20
1217.59255365892
 30
0.0
 40
2.0
  0
CIRCLE
  5
7DE
330
A
100
AcDbEntity
  8
03
100
AcDbCircle
 10
1101.863077802244
 20
1217.59255365892
 30
0.0
 40
0.8000000000000111
  0
LINE
  5
7DF
330
A
100
AcDbEntity
  8
04
100
AcDbLine
 10
423.2546715644356
 20
788.5925536589208
 30
0.0
 11
480.6735804012985
 21
788.5925536589208
 31
0.0
  0
LINE
  5
7E0
330
A
100
AcDbEntity
  8
04
100
AcDbLine
 10
442.3630778022448
 20
763.5925536589208
 30
0.0
 11
442.3630778022448
 21
774.0925536589205
 31
0.0
  0
LINE
  5
7E1
330
A
100
AcDbEntity
  8
04
100
AcDbLine
 10
442.3630778022448
 20
774.0925536589205
 30
0.0
 11
432.3630778022446
 21
774.0925536589205
 31
0.0
  0
LINE
  5
7E2
330
A
100
AcDbEntity
  8
04
100
AcDbLine
 10
432.3630778022446
 20
774.0925536589205
 30
0.0
 11
432.3630778022446
 21
763.5925536589208
 31
0.0
  0
LINE
  5
7E3
330
A
100
AcDbEntity
  8
04
100
AcDbLine
 10
423.2546715644356
 20
763.5925536589208
 30
0.0
 11
432.3630778022446
 21
763.5925536589208
 31
0.0
  0
LINE
  5
7E4
330
A
100
AcDbEntity
  8
04
100
AcDbLine
 10
442.3630778022448
 20
763.5925536589208
 30
0.0
 11
480.6735804012985
 21
763.5925536589208
 31
0.0
  0
LINE
  5
7E5
330
A
100
AcDbEntity
  8
04
100
AcDbLine
 10
498.3630778022448
 20
1568.59255365892
 30
0.0
 11
498.3630778022448
 21
1583.59255365892
 31
0.0
  0
LINE
  5
7E6
330
A
100
AcDbEntity
  8
04
100
AcDbLine
 10
421.3054882367158
 20
1588.59255365892
 30
0.0
 11
483.7946504676371
 21
1588.59255365892
 31
0.0
  0
LINE
  5
7E7
330
A
100
AcDbEntity
  8
04
100
AcDbLine
 10
410.0394674959799
 20
1573.59255365892
 30
0.0
 11
405.3630778022448
 21
1573.59255365892
 31
0.0
  0
LINE
  5
7E8
330
A
100
AcDbEntity
  8
04
100
AcDbLine
 10
410.0394674959799
 20
1578.59255365892
 30
0.0
 11
405.3630778022448
 21
1578.59255365892
 31
0.0
  0
LINE
  5
7E9
330
A
100
AcDbEntity
  8
04
100
AcDbLine
 10
405.3630778022448
 20
1568.59255365892
 30
0.0
 11
405.3630778022448
 21
1573.59255365892
 31
0.0
  0
LINE
  5
7EA
330
A
100
AcDbEntity
  8
04
100
AcDbLine
 10
405.3630778022448
 20
1578.59255365892
 30
0.0
 11
405.3630778022448
 21
1583.59255365892
 31
0.0
  0
LINE
  5
7EB
330
A
100
AcDbEntity
  8
04
100
AcDbLine
 10
410.3630778022448
 20
1563.59255365892
 30
0.0
 11
405.3630778022448
 21
1568.59255365892
 31
0.0
  0
LINE
  5
7EC
330
A
100
AcDbEntity
  8
04
100
AcDbLine
 10
410.3630778022448
 20
1588.59255365892
 30
0.0
 11
405.3630778022448
 21
1583.59255365892
 31
0.0
  0
LINE
  5
7ED
330
A
100
AcDbEntity
  8
04
100
AcDbLine
 10
498.3630778022448
 20
1583.59255365892
 30
0.0
 11
494.8453592633713
 21
1587.110272197794
 31
0.0
  0
LINE
  5
7EE
330
A
100
AcDbEntity
  8
04
100
AcDbLine
 10
494.7524307610665
 20
1564.981906617742
 30
0.0
 11
498.3630778022448
 21
1568.59255365892
 31
0.0
  0
LINE
  5
7EF
330
A
100
AcDbEntity
  8
04
100
AcDbLine
 10
442.3630778022448
 20
1563.59255365892
 30
0.0
 11
442.3630778022448
 21
1574.09255365892
 31
0.0
  0
LINE
  5
7F0
330
A
100
AcDbEntity
  8
04
100
AcDbLine
 10
442.3630778022448
 20
1574.09255365892
 30
0.0
 11
432.3630778022446
 21
1574.09255365892
 31
0.0
  0
LINE
  5
7F1
330
A
100
AcDbEntity
  8
04
100
AcDbLine
 10
432.3630778022446
 20
1574.09255365892
 30
0.0
 11
432.3630778022446
 21
1563.59255365892
 31
0.0
  0
LINE
  5
7F2
330
A
100
AcDbEntity
  8
04
100
AcDbLine
 10
421.0661460620717
 20
1563.59255365892
 30
0.0
 11
432.3630778022446
 21
1563.59255365892
 31
0.0
  0
LINE
  5
7F3
330
A
100
AcDbEntity
  8
04
100
AcDbLine
 10
442.3630778022448
 20
1563.59255365892
 30
0.0
 11
483.7946504676371
 21
1563.59255365892
 31
0.0
  0
LINE
  5
7F5
330
A
100
AcDbEntity
  8
03
100
AcDbLine
 10
409.1030778022356
 20
705.2209669346174
 30
0.0
 11
409.1030778022356
 21
718.2209669346174
 31
0.0
  0
LINE
  5
7F6
330
A
100
AcDbEntity
  8
03
100
AcDbLine
 10
420.6030778022356
 20
718.2209669346174
 30
0.0
 11
420.6030778022356
 21
705.2209669346174
 31
0.0
  0
LINE
  5
7F8
330
A
100
AcDbEntity
  8
03
100
AcDbLine
 10
409.1030779336406
 20
718.2209664442074
 30
0.0
 11
407.8530778022357
 21
722.8860304440786
 31
0.0
  0
LINE
  5
7F9
330
A
100
AcDbEntity
  8
03
100
AcDbLine
 10
420.6030777685749
 20
718.2209668089949
 30
0.0
 11
421.8530778022357
 21
722.8860304440786
 31
0.0
  0
LINE
  5
7FD
330
A
100
AcDbEntity
  8
03
100
AcDbLine
 10
410.8530778022356
 20
669.2209669346174
 30
0.0
 11
410.8530778022356
 21
700.2209669346174
 31
0.0
  0
LINE
  5
800
330
A
100
AcDbEntity
  8
03
100
AcDbLine
 10
418.8530778022356
 20
669.2209669346174
 30
0.0
 11
418.8530778022356
 21
700.2209669346174
 31
0.0
  0
LINE
  5
802
330
A
100
AcDbEntity
  8
03
100
AcDbLine
 10
409.1030778022356
 20
830.2209669346176
 30
0.0
 11
409.1030778022356
 21
817.2209669346173
 31
0.0
  0
LINE
  5
803
330
A
100
AcDbEntity
  8
03
100
AcDbLine
 10
420.6030778022356
 20
817.2209669346173
 30
0.0
 11
420.6030778022356
 21
830.2209669346176
 31
0.0
  0
LINE
  5
805
330
A
100
AcDbEntity
  8
03
100
AcDbLine
 10
409.1030779336406
 20
817.2209674250279
 30
0.0
 11
407.8530778022357
 21
812.5559034251569
 31
0.0
  0
LINE
  5
806
330
A
100
AcDbEntity
  8
03
100
AcDbLine
 10
420.6030777685749
 20
817.2209670602406
 30
0.0
 11
421.8530778022357
 21
812.5559034251564
 31
0.0
  0
LINE
  5
807
330
A
100
AcDbEntity
  8
03
100
AcDbLine
 10
415.8530778022357
 20
666.2209669346174
 30
0.0
 11
413.8530778022357
 21
666.2209669346174
 31
0.0
  0
LINE
  5
808
330
A
100
AcDbEntity
  8
03
100
AcDbLine
 10
410.8530778022356
 20
669.2209669346174
 30
0.0
 11
413.8530778022357
 21
666.2209669346174
 31
0.0
  0
LINE
  5
809
330
A
100
AcDbEntity
  8
03
100
AcDbLine
 10
415.8530778022357
 20
666.2209669346174
 30
0.0
 11
418.8530778022356
 21
669.2209669346174
 31
0.0
  0
LINE
  5
816
330
A
100
AcDbEntity
  8
03
100
AcDbLine
 10
410.8530778022356
 20
866.2209669346173
 30
0.0
 11
410.8530778022356
 21
835.2209669346175
 31
0.0
  0
LINE
  5
819
330
A
100
AcDbEntity
  8
03
100
AcDbLine
 10
418.8530778022356
 20
866.2209669346173
 30
0.0
 11
418.8530778022356
 21
835.2209669346175
 31
0.0
  0
LINE
  5
81A
330
A
100
AcDbEntity
  8
03
100
AcDbLine
 10
415.8530778022357
 20
869.2209669346175
 30
0.0
 11
413.8530778022357
 21
869.2209669346175
 31
0.0
  0
LINE
  5
81B
330
A
100
AcDbEntity
  8
03
100
AcDbLine
 10
410.8530778022356
 20
866.2209669346173
 30
0.0
 11
413.8530778022357
 21
869.2209669346175
 31
0.0
  0
LINE
  5
81C
330
A
100
AcDbEntity
  8
03
100
AcDbLine
 10
415.8530778022357
 20
869.2209669346175
 30
0.0
 11
418.8530778022356
 21
866.2209669346173
 31
0.0
  0
LINE
  5
826
330
A
100
AcDbEntity
  8
03
100
AcDbLine
 10
409.3530778022357
 20
760.7209669346174
 30
0.0
 11
408.4889761870977
 21
760.7209669346174
 31
0.0
  0
LINE
  5
829
330
A
100
AcDbEntity
  8
03
100
AcDbLine
 10
409.3530778022357
 20
760.7209669346174
 30
0.0
 11
409.3530778022357
 21
774.7209669346174
 31
0.0
  0
LINE
  5
82A
330
A
100
AcDbEntity
  8
03
100
AcDbLine
 10
407.9530778022355
 20
758.7209669346174
 30
0.0
 11
408.4889761894697
 21
760.7209669434696
 31
0.0
  0
LINE
  5
82C
330
A
100
AcDbEntity
  8
03
100
AcDbLine
 10
409.3530778022357
 20
774.7209669346174
 30
0.0
 11
408.4889761870977
 21
774.7209669346174
 31
0.0
  0
LINE
  5
82D
330
A
100
AcDbEntity
  8
03
100
AcDbLine
 10
407.9530778022355
 20
776.7209669346174
 30
0.0
 11
408.4889761894697
 21
774.7209669257663
 31
0.0
  0
LINE
  5
82E
330
A
100
AcDbEntity
  8
03
100
AcDbLine
 10
420.3530778022357
 20
760.7209669346174
 30
0.0
 11
421.2171794173731
 21
760.7209669346174
 31
0.0
  0
LINE
  5
82F
330
A
100
AcDbEntity
  8
03
100
AcDbLine
 10
420.3530778022357
 20
760.7209669346174
 30
0.0
 11
420.3530778022357
 21
774.7209669346174
 31
0.0
  0
LINE
  5
830
330
A
100
AcDbEntity
  8
03
100
AcDbLine
 10
421.7530778022354
 20
758.7209669346174
 30
0.0
 11
421.2171794150013
 21
760.7209669434696
 31
0.0
  0
LINE
  5
832
330
A
100
AcDbEntity
  8
03
100
AcDbLine
 10
420.3530778022357
 20
774.7209669346174
 30
0.0
 11
421.2171794173731
 21
774.7209669346174
 31
0.0
  0
LINE
  5
833
330
A
100
AcDbEntity
  8
03
100
AcDbLine
 10
421.7530778022354
 20
776.7209669346174
 30
0.0
 11
421.2171794150013
 21
774.7209669257663
 31
0.0
  0
LINE
  5
834
330
A
100
AcDbEntity
  8
03
100
AcDbLine
 10
407.9530778022355
 20
722.5128253633219
 30
0.0
 11
407.9530778022355
 21
758.7209669346174
 31
0.0
  0
LINE
  5
835
330
A
100
AcDbEntity
  8
03
100
AcDbLine
 10
421.7530778022354
 20
758.7209669346174
 30
0.0
 11
421.7530778022354
 21
722.5128253633219
 31
0.0
  0
LINE
  5
838
330
A
100
AcDbEntity
  8
03
100
AcDbLine
 10
407.9530778022355
 20
776.7209669346174
 30
0.0
 11
407.9530778022355
 21
812.9291085059135
 31
0.0
  0
LINE
  5
839
330
A
100
AcDbEntity
  8
03
100
AcDbLine
 10
421.7530778022354
 20
812.9291085059135
 30
0.0
 11
421.7530778022354
 21
776.7209669346174
 31
0.0
  0
LINE
  5
83B
330
A
100
AcDbEntity
  8
03
100
AcDbLine
 10
483.1230778022536
 20
705.2209669346174
 30
0.0
 11
483.1230778022536
 21
718.2209669346174
 31
0.0
  0
LINE
  5
83C
330
A
100
AcDbEntity
  8
03
100
AcDbLine
 10
494.6230778022536
 20
718.2209669346174
 30
0.0
 11
494.6230778022536
 21
705.2209669346174
 31
0.0
  0
LINE
  5
83E
330
A
100
AcDbEntity
  8
03
100
AcDbLine
 10
483.1230779336586
 20
718.2209664442074
 30
0.0
 11
481.8730778022536
 21
722.8860304440786
 31
0.0
  0
LINE
  5
83F
330
A
100
AcDbEntity
  8
03
100
AcDbLine
 10
494.6230777685932
 20
718.2209668089949
 30
0.0
 11
495.8730778022536
 21
722.8860304440786
 31
0.0
  0
LINE
  5
843
330
A
100
AcDbEntity
  8
03
100
AcDbLine
 10
484.8730778022536
 20
669.2209669346174
 30
0.0
 11
484.8730778022536
 21
700.2209669346174
 31
0.0
  0
LINE
  5
846
330
A
100
AcDbEntity
  8
03
100
AcDbLine
 10
492.8730778022536
 20
669.2209669346174
 30
0.0
 11
492.8730778022536
 21
700.2209669346174
 31
0.0
  0
LINE
  5
848
330
A
100
AcDbEntity
  8
03
100
AcDbLine
 10
483.1230778022536
 20
830.2209669346176
 30
0.0
 11
483.1230778022536
 21
817.2209669346173
 31
0.0
  0
LINE
  5
849
330
A
100
AcDbEntity
  8
03
100
AcDbLine
 10
494.6230778022536
 20
817.2209669346173
 30
0.0
 11
494.6230778022536
 21
830.2209669346176
 31
0.0
  0
LINE
  5
84B
330
A
100
AcDbEntity
  8
03
100
AcDbLine
 10
483.1230779336586
 20
817.2209674250279
 30
0.0
 11
481.8730778022536
 21
812.5559034251569
 31
0.0
  0
LINE
  5
84C
330
A
100
AcDbEntity
  8
03
100
AcDbLine
 10
494.6230777685932
 20
817.2209670602406
 30
0.0
 11
495.8730778022536
 21
812.5559034251564
 31
0.0
  0
LINE
  5
84D
330
A
100
AcDbEntity
  8
03
100
AcDbLine
 10
489.8730778022536
 20
666.2209669346174
 30
0.0
 11
487.8730778022536
 21
666.2209669346174
 31
0.0
  0
LINE
  5
84E
330
A
100
AcDbEntity
  8
03
100
AcDbLine
 10
484.8730778022536
 20
669.2209669346174
 30
0.0
 11
487.8730778022536
 21
666.2209669346174
 31
0.0
  0
LINE
  5
84F
330
A
100
AcDbEntity
  8
03
100
AcDbLine
 10
489.8730778022536
 20
666.2209669346174
 30
0.0
 11
492.8730778022536
 21
669.2209669346174
 31
0.0
  0
LINE
  5
85C
330
A
100
AcDbEntity
  8
03
100
AcDbLine
 10
484.8730778022536
 20
866.2209669346173
 30
0.0
 11
484.8730778022536
 21
835.2209669346175
 31
0.0
  0
LINE
  5
85F
330
A
100
AcDbEntity
  8
03
100
AcDbLine
 10
492.8730778022536
 20
866.2209669346173
 30
0.0
 11
492.8730778022536
 21
835.2209669346175
 31
0.0
  0
LINE
  5
860
330
A
100
AcDbEntity
  8
03
100
AcDbLine
 10
489.8730778022536
 20
869.2209669346175
 30
0.0
 11
487.8730778022536
 21
869.2209669346175
 31
0.0
  0
LINE
  5
861
330
A
100
AcDbEntity
  8
03
100
AcDbLine
 10
484.8730778022536
 20
866.2209669346173
 30
0.0
 11
487.8730778022536
 21
869.2209669346175
 31
0.0
  0
LINE
  5
862
330
A
100
AcDbEntity
  8
03
100
AcDbLine
 10
489.8730778022536
 20
869.2209669346175
 30
0.0
 11
492.8730778022536
 21
866.2209669346173
 31
0.0
  0
LINE
  5
86C
330
A
100
AcDbEntity
  8
03
100
AcDbLine
 10
483.3730778022536
 20
760.7209669346174
 30
0.0
 11
482.5089761871161
 21
760.7209669346174
 31
0.0
  0
LINE
  5
86F
330
A
100
AcDbEntity
  8
03
100
AcDbLine
 10
483.3730778022536
 20
760.7209669346174
 30
0.0
 11
483.3730778022536
 21
774.7209669346174
 31
0.0
  0
LINE
  5
870
330
A
100
AcDbEntity
  8
03
100
AcDbLine
 10
481.9730778022537
 20
758.7209669346174
 30
0.0
 11
482.5089761894878
 21
760.720966943469
 31
0.0
  0
LINE
  5
872
330
A
100
AcDbEntity
  8
03
100
AcDbLine
 10
483.3730778022536
 20
774.7209669346174
 30
0.0
 11
482.5089761871161
 21
774.7209669346174
 31
0.0
  0
LINE
  5
873
330
A
100
AcDbEntity
  8
03
100
AcDbLine
 10
481.9730778022537
 20
776.7209669346174
 30
0.0
 11
482.5089761894878
 21
774.7209669257663
 31
0.0
  0
LINE
  5
874
330
A
100
AcDbEntity
  8
03
100
AcDbLine
 10
494.3730778022536
 20
760.7209669346174
 30
0.0
 11
495.2371794173913
 21
760.7209669346174
 31
0.0
  0
LINE
  5
875
330
A
100
AcDbEntity
  8
03
100
AcDbLine
 10
494.3730778022536
 20
760.7209669346174
 30
0.0
 11
494.3730778022536
 21
774.7209669346174
 31
0.0
  0
LINE
  5
876
330
A
100
AcDbEntity
  8
03
100
AcDbLine
 10
495.7730778022537
 20
758.7209669346174
 30
0.0
 11
495.2371794150199
 21
760.720966943469
 31
0.0
  0
LINE
  5
878
330
A
100
AcDbEntity
  8
03
100
AcDbLine
 10
494.3730778022536
 20
774.7209669346174
 30
0.0
 11
495.2371794173913
 21
774.7209669346174
 31
0.0
  0
LINE
  5
879
330
A
100
AcDbEntity
  8
03
100
AcDbLine
 10
495.7730778022537
 20
776.7209669346174
 30
0.0
 11
495.2371794150199
 21
774.7209669257663
 31
0.0
  0
LINE
  5
87A
330
A
100
AcDbEntity
  8
03
100
AcDbLine
 10
481.9730778022537
 20
722.5128253633219
 30
0.0
 11
481.9730778022537
 21
758.7209669346174
 31
0.0
  0
LINE
  5
87B
330
A
100
AcDbEntity
  8
03
100
AcDbLine
 10
495.7730778022537
 20
758.7209669346174
 30
0.0
 11
495.7730778022537
 21
722.5128253633219
 31
0.0
  0
LINE
  5
87E
330
A
100
AcDbEntity
  8
03
100
AcDbLine
 10
481.9730778022537
 20
776.7209669346174
 30
0.0
 11
481.9730778022537
 21
812.9291085059135
 31
0.0
  0
LINE
  5
87F
330
A
100
AcDbEntity
  8
03
100
AcDbLine
 10
495.7730778022537
 20
812.9291085059135
 30
0.0
 11
495.7730778022537
 21
776.7209669346174
 31
0.0
  0
LINE
  5
881
330
A
100
AcDbEntity
  8
03
100
AcDbLine
 10
409.1030778022505
 20
1722.960449070262
 30
0.0
 11
409.1030778022505
 21
1709.960449070262
 31
0.0
  0
LINE
  5
882
330
A
100
AcDbEntity
  8
03
100
AcDbLine
 10
420.6030778022505
 20
1709.960449070262
 30
0.0
 11
420.6030778022505
 21
1722.960449070262
 31
0.0
  0
LINE
  5
884
330
A
100
AcDbEntity
  8
03
100
AcDbLine
 10
409.1030779336554
 20
1709.960449560671
 30
0.0
 11
407.8530778022503
 21
1705.295385560802
 31
0.0
  0
LINE
  5
885
330
A
100
AcDbEntity
  8
03
100
AcDbLine
 10
420.6030777685898
 20
1709.960449195885
 30
0.0
 11
421.8530778022503
 21
1705.295385560801
 31
0.0
  0
LINE
  5
889
330
A
100
AcDbEntity
  8
03
100
AcDbLine
 10
410.8530778022505
 20
1758.960449070262
 30
0.0
 11
410.8530778022505
 21
1727.960449070262
 31
0.0
  0
LINE
  5
88C
330
A
100
AcDbEntity
  8
03
100
AcDbLine
 10
418.8530778022505
 20
1758.960449070262
 30
0.0
 11
418.8530778022505
 21
1727.960449070262
 31
0.0
  0
LINE
  5
88E
330
A
100
AcDbEntity
  8
03
100
AcDbLine
 10
409.1030778022505
 20
1597.960449070262
 30
0.0
 11
409.1030778022505
 21
1610.960449070262
 31
0.0
  0
LINE
  5
88F
330
A
100
AcDbEntity
  8
03
100
AcDbLine
 10
420.6030778022505
 20
1610.960449070262
 30
0.0
 11
420.6030778022505
 21
1597.960449070262
 31
0.0
  0
LINE
  5
891
330
A
100
AcDbEntity
  8
03
100
AcDbLine
 10
409.1030779336554
 20
1610.960448579852
 30
0.0
 11
407.8530778022503
 21
1615.625512579723
 31
0.0
  0
LINE
  5
892
330
A
100
AcDbEntity
  8
03
100
AcDbLine
 10
420.6030777685898
 20
1610.96044894464
 30
0.0
 11
421.8530778022503
 21
1615.625512579723
 31
0.0
  0
LINE
  5
893
330
A
100
AcDbEntity
  8
03
100
AcDbLine
 10
415.8530778022504
 20
1761.960449070262
 30
0.0
 11
413.8530778022503
 21
1761.960449070262
 31
0.0
  0
LINE
  5
894
330
A
100
AcDbEntity
  8
03
100
AcDbLine
 10
410.8530778022505
 20
1758.960449070262
 30
0.0
 11
413.8530778022503
 21
1761.960449070262
 31
0.0
  0
LINE
  5
895
330
A
100
AcDbEntity
  8
03
100
AcDbLine
 10
415.8530778022504
 20
1761.960449070262
 30
0.0
 11
418.8530778022505
 21
1758.960449070262
 31
0.0
  0
LINE
  5
8A2
330
A
100
AcDbEntity
  8
03
100
AcDbLine
 10
410.8530778022505
 20
1561.960449070262
 30
0.0
 11
410.8530778022505
 21
1592.960449070262
 31
0.0
  0
LINE
  5
8A5
330
A
100
AcDbEntity
  8
03
100
AcDbLine
 10
418.8530778022505
 20
1561.960449070262
 30
0.0
 11
418.8530778022505
 21
1592.960449070262
 31
0.0
  0
LINE
  5
8A6
330
A
100
AcDbEntity
  8
03
100
AcDbLine
 10
415.8530778022504
 20
1558.960449070262
 30
0.0
 11
413.8530778022503
 21
1558.960449070262
 31
0.0
  0
LINE
  5
8A7
330
A
100
AcDbEntity
  8
03
100
AcDbLine
 10
410.8530778022505
 20
1561.960449070262
 30
0.0
 11
413.8530778022503
 21
1558.960449070262
 31
0.0
  0
LINE
  5
8A8
330
A
100
AcDbEntity
  8
03
100
AcDbLine
 10
415.8530778022504
 20
1558.960449070262
 30
0.0
 11
418.8530778022505
 21
1561.960449070262
 31
0.0
  0
LINE
  5
8B2
330
A
100
AcDbEntity
  8
03
100
AcDbLine
 10
409.3530778022503
 20
1667.460449070262
 30
0.0
 11
408.4889761871126
 21
1667.460449070262
 31
0.0
  0
LINE
  5
8B5
330
A
100
AcDbEntity
  8
03
100
AcDbLine
 10
409.3530778022503
 20
1667.460449070262
 30
0.0
 11
409.3530778022503
 21
1653.460449070262
 31
0.0
  0
LINE
  5
8B6
330
A
100
AcDbEntity
  8
03
100
AcDbLine
 10
407.9530778022504
 20
1669.460449070262
 30
0.0
 11
408.4889761894843
 21
1667.460449061411
 31
0.0
  0
LINE
  5
8B8
330
A
100
AcDbEntity
  8
03
100
AcDbLine
 10
409.3530778022503
 20
1653.460449070262
 30
0.0
 11
408.4889761871126
 21
1653.460449070262
 31
0.0
  0
LINE
  5
8B9
330
A
100
AcDbEntity
  8
03
100
AcDbLine
 10
407.9530778022504
 20
1651.460449070262
 30
0.0
 11
408.4889761894843
 21
1653.460449079114
 31
0.0
  0
LINE
  5
8BA
330
A
100
AcDbEntity
  8
03
100
AcDbLine
 10
420.3530778022503
 20
1667.460449070262
 30
0.0
 11
421.2171794173881
 21
1667.460449070262
 31
0.0
  0
LINE
  5
8BB
330
A
100
AcDbEntity
  8
03
100
AcDbLine
 10
420.3530778022503
 20
1667.460449070262
 30
0.0
 11
420.3530778022503
 21
1653.460449070262
 31
0.0
  0
LINE
  5
8BC
330
A
100
AcDbEntity
  8
03
100
AcDbLine
 10
421.7530778022503
 20
1669.460449070262
 30
0.0
 11
421.2171794150163
 21
1667.460449061411
 31
0.0
  0
LINE
  5
8BE
330
A
100
AcDbEntity
  8
03
100
AcDbLine
 10
420.3530778022503
 20
1653.460449070262
 30
0.0
 11
421.2171794173881
 21
1653.460449070262
 31
0.0
  0
LINE
  5
8BF
330
A
100
AcDbEntity
  8
03
100
AcDbLine
 10
421.7530778022503
 20
1651.460449070262
 30
0.0
 11
421.2171794150163
 21
1653.460449079114
 31
0.0
  0
LINE
  5
8C0
330
A
100
AcDbEntity
  8
03
100
AcDbLine
 10
407.9530778022504
 20
1705.668590641558
 30
0.0
 11
407.9530778022504
 21
1669.460449070262
 31
0.0
  0
LINE
  5
8C1
330
A
100
AcDbEntity
  8
03
100
AcDbLine
 10
421.7530778022503
 20
1669.460449070262
 30
0.0
 11
421.7530778022503
 21
1705.668590641558
 31
0.0
  0
LINE
  5
8C4
330
A
100
AcDbEntity
  8
03
100
AcDbLine
 10
407.9530778022504
 20
1651.460449070262
 30
0.0
 11
407.9530778022504
 21
1615.252307498965
 31
0.0
  0
LINE
  5
8C5
330
A
100
AcDbEntity
  8
03
100
AcDbLine
 10
421.7530778022503
 20
1615.252307498965
 30
0.0
 11
421.7530778022503
 21
1651.460449070262
 31
0.0
  0
LINE
  5
8C6
330
A
100
AcDbEntity
  8
03
100
AcDbLine
 10
494.6230778022391
 20
1597.960449070263
 30
0.0
 11
494.6230778022391
 21
1610.960449070263
 31
0.0
  0
LINE
  5
8C7
330
A
100
AcDbEntity
  8
03
100
AcDbLine
 10
494.6230776708343
 20
1610.960448579852
 30
0.0
 11
495.8730778022391
 21
1615.625512579723
 31
0.0
  0
LINE
  5
8CB
330
A
100
AcDbEntity
  8
03
100
AcDbLine
 10
492.8730778022391
 20
1561.960449070263
 30
0.0
 11
492.8730778022391
 21
1592.960449070263
 31
0.0
  0
LINE
  5
8CE
330
A
100
AcDbEntity
  8
03
100
AcDbLine
 10
484.8730778022392
 20
1561.960449070263
 30
0.0
 11
484.8730778022392
 21
1592.960449070263
 31
0.0
  0
LINE
  5
8CF
330
A
100
AcDbEntity
  8
03
100
AcDbLine
 10
487.8730778022391
 20
1558.960449070263
 30
0.0
 11
489.873077802239
 21
1558.960449070263
 31
0.0
  0
LINE
  5
8D0
330
A
100
AcDbEntity
  8
03
100
AcDbLine
 10
492.8730778022391
 20
1561.960449070263
 30
0.0
 11
489.873077802239
 21
1558.960449070263
 31
0.0
  0
LINE
  5
8D1
330
A
100
AcDbEntity
  8
03
100
AcDbLine
 10
487.8730778022391
 20
1558.960449070263
 30
0.0
 11
484.8730778022392
 21
1561.960449070263
 31
0.0
  0
LINE
  5
8DB
330
A
100
AcDbEntity
  8
03
100
AcDbLine
 10
494.373077802239
 20
1667.460449070262
 30
0.0
 11
495.2371794173767
 21
1667.460449070262
 31
0.0
  0
LINE
  5
8DE
330
A
100
AcDbEntity
  8
03
100
AcDbLine
 10
494.373077802239
 20
1667.460449070262
 30
0.0
 11
494.373077802239
 21
1653.460449070262
 31
0.0
  0
LINE
  5
8DF
330
A
100
AcDbEntity
  8
03
100
AcDbLine
 10
495.7730778022391
 20
1669.460449070262
 30
0.0
 11
495.2371794150053
 21
1667.460449061411
 31
0.0
  0
LINE
  5
8E1
330
A
100
AcDbEntity
  8
03
100
AcDbLine
 10
494.373077802239
 20
1653.460449070262
 30
0.0
 11
495.2371794173767
 21
1653.460449070262
 31
0.0
  0
LINE
  5
8E2
330
A
100
AcDbEntity
  8
03
100
AcDbLine
 10
495.7730778022391
 20
1651.460449070262
 30
0.0
 11
495.2371794150053
 21
1653.460449079114
 31
0.0
  0
LINE
  5
8E4
330
A
100
AcDbEntity
  8
03
100
AcDbLine
 10
495.7730778022391
 20
1651.460449070262
 30
0.0
 11
495.7730778022391
 21
1615.252307498965
 31
0.0
  0
LINE
  5
8E6
330
A
100
AcDbEntity
  8
03
100
AcDbLine
 10
494.6230778022391
 20
1722.960449070262
 30
0.0
 11
494.6230778022391
 21
1709.960449070262
 31
0.0
  0
LINE
  5
8E7
330
A
100
AcDbEntity
  8
03
100
AcDbLine
 10
483.1230778022391
 20
1709.960449070262
 30
0.0
 11
483.1230778022391
 21
1722.960449070262
 31
0.0
  0
LINE
  5
8E9
330
A
100
AcDbEntity
  8
03
100
AcDbLine
 10
494.6230776708343
 20
1709.960449560671
 30
0.0
 11
495.8730778022391
 21
1705.295385560802
 31
0.0
  0
LINE
  5
8EA
330
A
100
AcDbEntity
  8
03
100
AcDbLine
 10
483.1230778358999
 20
1709.960449195885
 30
0.0
 11
481.873077802239
 21
1705.295385560801
 31
0.0
  0
LINE
  5
8EE
330
A
100
AcDbEntity
  8
03
100
AcDbLine
 10
492.8730778022393
 20
1758.960449070262
 30
0.0
 11
492.8730778022391
 21
1727.960449070262
 31
0.0
  0
LINE
  5
8F1
330
A
100
AcDbEntity
  8
03
100
AcDbLine
 10
484.8730778022392
 20
1758.960449070262
 30
0.0
 11
484.8730778022392
 21
1727.960449070262
 31
0.0
  0
LINE
  5
8F3
330
A
100
AcDbEntity
  8
03
100
AcDbLine
 10
483.1230778022391
 20
1610.960449070263
 30
0.0
 11
483.1230778022391
 21
1597.960449070263
 31
0.0
  0
LINE
  5
8F5
330
A
100
AcDbEntity
  8
03
100
AcDbLine
 10
483.1230778358999
 20
1610.96044894464
 30
0.0
 11
481.873077802239
 21
1615.625512579723
 31
0.0
  0
LINE
  5
8FF
330
A
100
AcDbEntity
  8
03
100
AcDbLine
 10
483.3730778022391
 20
1667.460449070262
 30
0.0
 11
482.5089761871015
 21
1667.460449070262
 31
0.0
  0
LINE
  5
900
330
A
100
AcDbEntity
  8
03
100
AcDbLine
 10
483.3730778022391
 20
1667.460449070262
 30
0.0
 11
483.3730778022391
 21
1653.460449070262
 31
0.0
  0
LINE
  5
901
330
A
100
AcDbEntity
  8
03
100
AcDbLine
 10
481.9730778022393
 20
1669.460449070262
 30
0.0
 11
482.5089761894733
 21
1667.460449061411
 31
0.0
  0
LINE
  5
902
330
A
100
AcDbEntity
  8
03
100
AcDbLine
 10
483.3730778022391
 20
1653.460449070262
 30
0.0
 11
482.5089761871015
 21
1653.460449070262
 31
0.0
  0
LINE
  5
903
330
A
100
AcDbEntity
  8
03
100
AcDbLine
 10
481.9730778022393
 20
1651.460449070262
 30
0.0
 11
482.5089761894733
 21
1653.460449079114
 31
0.0
  0
LINE
  5
904
330
A
100
AcDbEntity
  8
03
100
AcDbLine
 10
495.7730778022391
 20
1705.668590641558
 30
0.0
 11
495.7730778022391
 21
1669.460449070262
 31
0.0
  0
LINE
  5
905
330
A
100
AcDbEntity
  8
03
100
AcDbLine
 10
481.9730778022393
 20
1669.460449070262
 30
0.0
 11
481.9730778022393
 21
1705.668590641558
 31
0.0
  0
LINE
  5
908
330
A
100
AcDbEntity
  8
03
100
AcDbLine
 10
481.9730778022393
 20
1615.252307498965
 30
0.0
 11
481.9730778022393
 21
1651.460449070262
 31
0.0
  0
LINE
  5
909
330
A
100
AcDbEntity
  8
03
100
AcDbLine
 10
487.8730778022393
 20
1761.960449070262
 30
0.0
 11
489.8730778022393
 21
1761.960449070262
 31
0.0
  0
LINE
  5
90A
330
A
100
AcDbEntity
  8
03
100
AcDbLine
 10
492.8730778022393
 20
1758.960449070262
 30
0.0
 11
489.8730778022393
 21
1761.960449070262
 31
0.0
  0
LINE
  5
90B
330
A
100
AcDbEntity
  8
03
100
AcDbLine
 10
487.8730778022393
 20
1761.960449070262
 30
0.0
 11
484.8730778022392
 21
1758.960449070262
 31
0.0
  0
CIRCLE
  5
90C
330
A
100
AcDbEntity
  8
03
100
AcDbCircle
 10
1143.363077802243
 20
776.0925536589208
 30
0.0
 40
2.0
  0
CIRCLE
  5
90D
330
A
100
AcDbEntity
  8
03
100
AcDbCircle
 10
1143.363077802243
 20
776.0925536589208
 30
0.0
 40
0.8000000000000111
  0
CIRCLE
  5
90E
330
A
100
AcDbEntity
  8
03
100
AcDbCircle
 10
1143.363077802243
 20
1576.09255365892
 30
0.0
 40
2.0
  0
CIRCLE
  5
90F
330
A
100
AcDbEntity
  8
03
100
AcDbCircle
 10
1143.363077802243
 20
1576.09255365892
 30
0.0
 40
0.8000000000000111
  0
LINE
  5
910
330
A
100
AcDbEntity
  8
03
100
AcDbLine
 10
353.4630778022448
 20
1976.09255365892
 30
0.0
 11
550.2630778022449
 21
1976.09255365892
 31
0.0
  0
LINE
  5
911
330
A
100
AcDbEntity
  8
03
100
AcDbLine
 10
351.863077802245
 20
1977.69255365892
 30
0.0
 11
351.863077802245
 21
2004.492553658919
 31
0.0
  0
LINE
  5
912
330
A
100
AcDbEntity
  8
03
100
AcDbLine
 10
551.8630778022448
 20
1977.69255365892
 30
0.0
 11
551.8630778022448
 21
2004.492553658919
 31
0.0
  0
LINE
  5
913
330
A
100
AcDbEntity
  8
03
100
AcDbLine
 10
550.2630778022449
 20
1977.69255365892
 30
0.0
 11
353.4630778022448
 21
1977.69255365892
 31
0.0
  0
LINE
  5
914
330
A
100
AcDbEntity
  8
03
100
AcDbLine
 10
550.2630778022449
 20
1977.69255365892
 30
0.0
 11
550.2630778022449
 21
2004.492553658919
 31
0.0
  0
LINE
  5
915
330
A
100
AcDbEntity
  8
03
100
AcDbLine
 10
353.4630778022448
 20
1977.69255365892
 30
0.0
 11
353.4630778022448
 21
2004.492553658919
 31
0.0
  0
LINE
  5
916
330
A
100
AcDbEntity
  8
03
100
AcDbLine
 10
366.863077802245
 20
2006.092553658921
 30
0.0
 11
366.863077802245
 21
2004.492553658919
 31
0.0
  0
LINE
  5
917
330
A
100
AcDbEntity
  8
03
100
AcDbLine
 10
536.8630778022446
 20
2006.092553658921
 30
0.0
 11
536.8630778022446
 21
2004.492553658919
 31
0.0
  0
LINE
  5
918
330
A
100
AcDbEntity
  8
03
100
AcDbLine
 10
550.2630778022449
 20
2004.492553658919
 30
0.0
 11
536.8630778022446
 21
2004.492553658919
 31
0.0
  0
LINE
  5
919
330
A
100
AcDbEntity
  8
03
100
AcDbLine
 10
366.863077802245
 20
2004.492553658919
 30
0.0
 11
353.4630778022448
 21
2004.492553658919
 31
0.0
  0
LINE
  5
91A
330
A
100
AcDbEntity
  8
03
100
AcDbLine
 10
550.2630778022449
 20
2006.092553658921
 30
0.0
 11
536.8630778022446
 21
2006.092553658921
 31
0.0
  0
LINE
  5
91B
330
A
100
AcDbEntity
  8
03
100
AcDbLine
 10
366.863077802245
 20
2006.092553658921
 30
0.0
 11
353.4630778022448
 21
2006.092553658921
 31
0.0
  0
ARC
  5
91C
330
A
100
AcDbEntity
  8
03
100
AcDbCircle
 10
353.4630778022446
 20
2004.492553658919
 30
0.0
 40
1.6
100
AcDbArc
 50
89.99999999999912
 51
179.9999999999988
  0
ARC
  5
91D
330
A
100
AcDbEntity
  8
03
100
AcDbCircle
 10
550.2630778022446
 20
2004.492553658919
 30
0.0
 40
1.6
100
AcDbArc
 50
359.9999999999993
 51
89.99999999999912
  0
ARC
  5
91E
330
A
100
AcDbEntity
  8
03
100
AcDbCircle
 10
550.2630778022446
 20
1977.69255365892
 30
0.0
 40
1.6
100
AcDbArc
 50
269.9999999999996
 51
359.9999999999993
  0
LINE
  5
91F
330
A
100
AcDbEntity
  8
03
100
AcDbLine
 10
351.8630778022445
 20
374.492553658921
 30
0.0
 11
351.8630778022445
 21
347.6925536589209
 31
0.0
  0
LINE
  5
920
330
A
100
AcDbEntity
  8
03
100
AcDbLine
 10
551.8630778022444
 20
374.492553658921
 30
0.0
 11
551.8630778022444
 21
347.6925536589209
 31
0.0
  0
LINE
  5
921
330
A
100
AcDbEntity
  8
03
100
AcDbLine
 10
550.2630778022446
 20
374.492553658921
 30
0.0
 11
353.4630778022446
 21
374.492553658921
 31
0.0
  0
LINE
  5
922
330
A
100
AcDbEntity
  8
03
100
AcDbLine
 10
550.2630778022446
 20
374.492553658921
 30
0.0
 11
550.2630778022446
 21
347.6925536589209
 31
0.0
  0
LINE
  5
923
330
A
100
AcDbEntity
  8
03
100
AcDbLine
 10
353.4630778022446
 20
374.492553658921
 30
0.0
 11
353.4630778022446
 21
347.6925536589209
 31
0.0
  0
LINE
  5
924
330
A
100
AcDbEntity
  8
03
100
AcDbLine
 10
366.8630778022444
 20
346.0925536589211
 30
0.0
 11
366.8630778022444
 21
347.6925536589209
 31
0.0
  0
LINE
  5
925
330
A
100
AcDbEntity
  8
03
100
AcDbLine
 10
536.8630778022446
 20
346.0925536589211
 30
0.0
 11
536.8630778022446
 21
347.6925536589209
 31
0.0
  0
LINE
  5
926
330
A
100
AcDbEntity
  8
03
100
AcDbLine
 10
550.2630778022446
 20
347.6925536589209
 30
0.0
 11
536.8630778022446
 21
347.6925536589209
 31
0.0
  0
LINE
  5
927
330
A
100
AcDbEntity
  8
03
100
AcDbLine
 10
366.8630778022444
 20
347.6925536589209
 30
0.0
 11
353.4630778022446
 21
347.6925536589209
 31
0.0
  0
LINE
  5
928
330
A
100
AcDbEntity
  8
03
100
AcDbLine
 10
550.2630778022446
 20
346.0925536589211
 30
0.0
 11
536.8630778022446
 21
346.0925536589211
 31
0.0
  0
LINE
  5
929
330
A
100
AcDbEntity
  8
03
100
AcDbLine
 10
366.8630778022444
 20
346.0925536589211
 30
0.0
 11
353.4630778022446
 21
346.0925536589211
 31
0.0
  0
ARC
  5
92A
330
A
100
AcDbEntity
  8
03
100
AcDbCircle
 10
353.4630778022446
 20
347.6925536589212
 30
0.0
 40
1.6
100
AcDbArc
 50
179.9999999999998
 51
269.9999999999996
  0
ARC
  5
92B
330
A
100
AcDbEntity
  8
03
100
AcDbCircle
 10
550.2630778022446
 20
347.6925536589212
 30
0.0
 40
1.6
100
AcDbArc
 50
269.9999999999996
 51
359.9999999999993
  0
ARC
  5
92C
330
A
100
AcDbEntity
  8
03
100
AcDbCircle
 10
550.2630778022446
 20
374.4925536589212
 30
0.0
 40
1.6
100
AcDbArc
 50
359.9999999999993
 51
89.99999999999912
  0
LINE
  5
92D
330
A
100
AcDbEntity
  8
06
100
AcDbLine
 10
526.8630778022448
 20
1364.09255365892
 30
0.0
 11
526.8630778022457
 21
1068.09255365892
 31
0.0
  0
LINE
  5
92E
330
A
100
AcDbEntity
  8
06
100
AcDbLine
 10
376.8630778022457
 20
1364.09255365892
 30
0.0
 11
376.8630778022445
 21
1068.09255365892
 31
0.0
  0
LINE
  5
92F
330
A
100
AcDbEntity
  8
06
100
AcDbLine
 10
392.863077802245
 20
1066.09255365892
 30
0.0
 11
392.863077802245
 21
1510.092553658919
 31
0.0
  0
LINE
  5
930
330
A
100
AcDbEntity
  8
06
100
AcDbLine
 10
510.8630778022451
 20
1066.09255365892
 30
0.0
 11
510.8630778022451
 21
1510.092553658919
 31
0.0
  0
LINE
  5
931
330
A
100
AcDbEntity
  8
06
100
AcDbLine
 10
395.863077802245
 20
1063.09255365892
 30
0.0
 11
392.863077802245
 21
1066.09255365892
 31
0.0
  0
LINE
  5
932
330
A
100
AcDbEntity
  8
06
100
AcDbLine
 10
507.8630778022452
 20
1063.09255365892
 30
0.0
 11
510.8630778022451
 21
1066.09255365892
 31
0.0
  0
LINE
  5
933
330
A
100
AcDbEntity
  8
06
100
AcDbLine
 10
526.8630778022448
 20
1364.09255365892
 30
0.0
 11
526.8630778022448
 21
1068.09255365892
 31
0.0
  0
ARC
  5
934
330
A
100
AcDbEntity
  8
06
100
AcDbCircle
 10
521.8630778022444
 20
1068.09255365892
 30
0.0
 40
5.0
100
AcDbArc
 50
269.9999999999996
 51
359.9999999999993
  0
ARC
  5
935
330
A
100
AcDbEntity
  8
06
100
AcDbCircle
 10
521.8630778022448
 20
1364.09255365892
 30
0.0
 40
5.0
100
AcDbArc
 50
359.9999999999993
 51
89.99999999999912
  0
LINE
  5
936
330
A
100
AcDbEntity
  8
06
100
AcDbLine
 10
376.8630778022445
 20
1364.09255365892
 30
0.0
 11
376.8630778022445
 21
1068.09255365892
 31
0.0
  0
ARC
  5
937
330
A
100
AcDbEntity
  8
06
100
AcDbCircle
 10
381.8630778022447
 20
1068.09255365892
 30
0.0
 40
5.0
100
AcDbArc
 50
179.9999999999998
 51
269.9999999999996
  0
ARC
  5
938
330
A
100
AcDbEntity
  8
06
100
AcDbCircle
 10
381.8630778022445
 20
1364.09255365892
 30
0.0
 40
5.0
100
AcDbArc
 50
89.99999999999912
 51
179.9999999999988
  0
ARC
  5
939
330
A
100
AcDbEntity
  8
06
100
AcDbCircle
 10
427.8630778022445
 20
1062.09255365892
 30
0.0
 40
1.0
100
AcDbArc
 50
89.99999999999912
 51
179.9999999999988
  0
ARC
  5
93A
330
A
100
AcDbEntity
  8
06
100
AcDbCircle
 10
405.8630778022445
 20
1062.09255365892
 30
0.0
 40
1.0
100
AcDbArc
 50
359.9999999999993
 51
89.99999999999912
  0
LINE
  5
93B
330
A
100
AcDbEntity
  8
06
100
AcDbLine
 10
426.8630778022445
 20
1061.092553658919
 30
0.0
 11
426.8630778022445
 21
1062.09255365892
 31
0.0
  0
LINE
  5
93C
330
A
100
AcDbEntity
  8
06
100
AcDbLine
 10
406.8630778022445
 20
1062.09255365892
 30
0.0
 11
406.8630778022445
 21
1061.092553628304
 31
0.0
  0
LINE
  5
93D
330
A
100
AcDbEntity
  8
06
100
AcDbLine
 10
381.8630778022447
 20
1063.09255365892
 30
0.0
 11
521.8630778022448
 21
1063.09255365892
 31
0.0
  0
ARC
  5
940
330
A
100
AcDbEntity
  8
06
100
AcDbCircle
 10
475.8630778022448
 20
1062.09255365892
 30
0.0
 40
1.0
100
AcDbArc
 50
359.9999999999993
 51
89.99999999999912
  0
ARC
  5
941
330
A
100
AcDbEntity
  8
06
100
AcDbCircle
 10
497.8630778022448
 20
1062.09255365892
 30
0.0
 40
1.0
100
AcDbArc
 50
90.0
 51
179.9999999999998
  0
LINE
  5
942
330
A
100
AcDbEntity
  8
06
100
AcDbLine
 10
476.8630778022448
 20
1061.092553658919
 30
0.0
 11
476.8630778022448
 21
1062.09255365892
 31
0.0
  0
LINE
  5
943
330
A
100
AcDbEntity
  8
06
100
AcDbLine
 10
496.8630778022448
 20
1062.09255365892
 30
0.0
 11
496.8630778022448
 21
1061.092553628304
 31
0.0
  0
LINE
  5
944
330
A
100
AcDbEntity
  8
06
100
AcDbLine
 10
510.8630778022451
 20
1369.09255365892
 30
0.0
 11
521.8630778022448
 21
1369.09255365892
 31
0.0
  0
LINE
  5
945
330
A
100
AcDbEntity
  8
06
100
AcDbLine
 10
381.8630778022445
 20
1369.09255365892
 30
0.0
 11
392.863077802245
 21
1369.09255365892
 31
0.0
  0
LINE
  5
948
330
A
100
AcDbEntity
  8
06
100
AcDbLine
 10
507.8630778022452
 20
1513.09255365892
 30
0.0
 11
395.863077802245
 21
1513.09255365892
 31
0.0
  0
LINE
  5
949
330
A
100
AcDbEntity
  8
06
100
AcDbLine
 10
392.863077802245
 20
1510.092553658919
 30
0.0
 11
395.863077802245
 21
1513.09255365892
 31
0.0
  0
LINE
  5
94A
330
A
100
AcDbEntity
  8
06
100
AcDbLine
 10
507.8630778022452
 20
1513.09255365892
 30
0.0
 11
510.8630778022451
 21
1510.092553658919
 31
0.0
  0
LINE
  5
94B
330
A
100
AcDbEntity
  8
03
100
AcDbLine
 10
1001.863077802243
 20
374.4925536589203
 30
0.0
 11
1001.863077802243
 21
347.6925536589206
 31
0.0
  0
LINE
  5
94C
330
A
100
AcDbEntity
  8
03
100
AcDbLine
 10
1201.863077802244
 20
374.4925536589205
 30
0.0
 11
1201.863077802244
 21
347.6925536589206
 31
0.0
  0
LINE
  5
94D
330
A
100
AcDbEntity
  8
03
100
AcDbLine
 10
1200.263077802245
 20
374.4925536589203
 30
0.0
 11
1003.463077802243
 21
374.4925536589203
 31
0.0
  0
LINE
  5
94E
330
A
100
AcDbEntity
  8
03
100
AcDbLine
 10
1200.263077802245
 20
374.4925536589203
 30
0.0
 11
1200.263077802245
 21
347.6925536589206
 31
0.0
  0
LINE
  5
94F
330
A
100
AcDbEntity
  8
03
100
AcDbLine
 10
1003.463077802243
 20
374.4925536589203
 30
0.0
 11
1003.463077802243
 21
347.6925536589206
 31
0.0
  0
LINE
  5
950
330
A
100
AcDbEntity
  8
03
100
AcDbLine
 10
1016.863077802244
 20
346.0925536589205
 30
0.0
 11
1016.863077802244
 21
347.6925536589206
 31
0.0
  0
LINE
  5
951
330
A
100
AcDbEntity
  8
03
100
AcDbLine
 10
1186.863077802243
 20
346.0925536589205
 30
0.0
 11
1186.863077802243
 21
347.6925536589206
 31
0.0
  0
LINE
  5
952
330
A
100
AcDbEntity
  8
03
100
AcDbLine
 10
1200.263077802245
 20
347.6925536589206
 30
0.0
 11
1186.863077802243
 21
347.6925536589206
 31
0.0
  0
LINE
  5
953
330
A
100
AcDbEntity
  8
03
100
AcDbLine
 10
1016.863077802244
 20
347.6925536589206
 30
0.0
 11
1003.463077802243
 21
347.6925536589206
 31
0.0
  0
LINE
  5
954
330
A
100
AcDbEntity
  8
03
100
AcDbLine
 10
1200.263077802245
 20
346.0925536589205
 30
0.0
 11
1186.863077802243
 21
346.0925536589205
 31
0.0
  0
LINE
  5
955
330
A
100
AcDbEntity
  8
03
100
AcDbLine
 10
1016.863077802244
 20
346.0925536589205
 30
0.0
 11
1003.463077802243
 21
346.0925536589205
 31
0.0
  0
ARC
  5
956
330
A
100
AcDbEntity
  8
03
100
AcDbCircle
 10
1003.463077802243
 20
347.6925536589206
 30
0.0
 40
1.6
100
AcDbArc
 50
179.9999999999998
 51
269.9999999999996
  0
ARC
  5
957
330
A
100
AcDbEntity
  8
03
100
AcDbCircle
 10
1200.263077802245
 20
347.6925536589206
 30
0.0
 40
1.6
100
AcDbArc
 50
269.9999999999996
 51
359.9999999999993
  0
ARC
  5
958
330
A
100
AcDbEntity
  8
03
100
AcDbCircle
 10
1200.263077802245
 20
374.4925536589205
 30
0.0
 40
1.6
100
AcDbArc
 50
359.9999999999993
 51
89.99999999999912
  0
LINE
  5
959
330
A
100
AcDbEntity
  8
03
100
AcDbLine
 10
1003.463077802243
 20
1976.09255365892
 30
0.0
 11
1200.263077802245
 21
1976.09255365892
 31
0.0
  0
LINE
  5
95A
330
A
100
AcDbEntity
  8
03
100
AcDbLine
 10
1001.863077802243
 20
1977.69255365892
 30
0.0
 11
1001.863077802243
 21
2004.492553658919
 31
0.0
  0
LINE
  5
95B
330
A
100
AcDbEntity
  8
03
100
AcDbLine
 10
1201.863077802244
 20
1977.69255365892
 30
0.0
 11
1201.863077802244
 21
2004.492553658919
 31
0.0
  0
LINE
  5
95C
330
A
100
AcDbEntity
  8
03
100
AcDbLine
 10
1200.263077802245
 20
1977.69255365892
 30
0.0
 11
1003.463077802243
 21
1977.69255365892
 31
0.0
  0
LINE
  5
95D
330
A
100
AcDbEntity
  8
03
100
AcDbLine
 10
1200.263077802245
 20
1977.69255365892
 30
0.0
 11
1200.263077802245
 21
2004.492553658919
 31
0.0
  0
LINE
  5
95E
330
A
100
AcDbEntity
  8
03
100
AcDbLine
 10
1003.463077802243
 20
1977.69255365892
 30
0.0
 11
1003.463077802243
 21
2004.492553658919
 31
0.0
  0
LINE
  5
95F
330
A
100
AcDbEntity
  8
03
100
AcDbLine
 10
1016.863077802244
 20
2006.092553658919
 30
0.0
 11
1016.863077802244
 21
2004.492553658919
 31
0.0
  0
LINE
  5
960
330
A
100
AcDbEntity
  8
03
100
AcDbLine
 10
1186.863077802243
 20
2006.092553658919
 30
0.0
 11
1186.863077802243
 21
2004.492553658919
 31
0.0
  0
LINE
  5
961
330
A
100
AcDbEntity
  8
03
100
AcDbLine
 10
1200.263077802245
 20
2004.492553658919
 30
0.0
 11
1186.863077802243
 21
2004.492553658919
 31
0.0
  0
LINE
  5
962
330
A
100
AcDbEntity
  8
03
100
AcDbLine
 10
1016.863077802244
 20
2004.492553658919
 30
0.0
 11
1003.463077802243
 21
2004.492553658919
 31
0.0
  0
LINE
  5
963
330
A
100
AcDbEntity
  8
03
100
AcDbLine
 10
1200.263077802245
 20
2006.092553658919
 30
0.0
 11
1186.863077802243
 21
2006.092553658919
 31
0.0
  0
LINE
  5
964
330
A
100
AcDbEntity
  8
03
100
AcDbLine
 10
1016.863077802244
 20
2006.092553658919
 30
0.0
 11
1003.463077802243
 21
2006.092553658919
 31
0.0
  0
ARC
  5
965
330
A
100
AcDbEntity
  8
03
100
AcDbCircle
 10
1003.463077802243
 20
2004.492553658919
 30
0.0
 40
1.6
100
AcDbArc
 50
89.99999999999912
 51
179.9999999999988
  0
ARC
  5
966
330
A
100
AcDbEntity
  8
03
100
AcDbCircle
 10
1200.263077802245
 20
2004.492553658919
 30
0.0
 40
1.6
100
AcDbArc
 50
359.9999999999993
 51
89.99999999999912
  0
ARC
  5
967
330
A
100
AcDbEntity
  8
03
100
AcDbCircle
 10
1200.263077802245
 20
1977.69255365892
 30
0.0
 40
1.6
100
AcDbArc
 50
269.9999999999996
 51
359.9999999999993
  0
LINE
  5
968
330
A
100
AcDbEntity
  8
SOUZOU
100
AcDbLine
 10
523.9879694832675
 20
1931.933174092482
 30
0.0
 11
300.4898733889053
 21
1708.43507799812
 31
0.0
  0
LINE
  5
969
330
A
100
AcDbEntity
  8
SOUZOU
100
AcDbLine
 10
495.7036982358054
 20
1960.217445339943
 30
0.0
 11
273.4803337988007
 21
1737.994080902939
 31
0.0
  0
LINE
  5
D72
330
A
100
AcDbEntity
  8
SOUZOU
100
AcDbLine
 10
523.9879694832717
 20
420.2519332253546
 30
0.0
 11
495.7036982358098
 21
391.9676619778928
 31
0.0
  0
LINE
  5
D73
330
A
100
AcDbEntity
  8
SOUZOU
100
AcDbLine
 10
523.9879694832675
 20
1931.933174092482
 30
0.0
 11
495.7036982358054
 21
1960.217445339943
 31
0.0
  0
LINE
  5
D74
330
A
100
AcDbEntity
  8
SOUZOU
100
AcDbLine
 10
523.9879694832717
 20
420.2519332253546
 30
0.0
 11
328.9703567004717
 21
615.2695460081552
 31
0.0
  0
LINE
  5
D75
330
A
100
AcDbEntity
  8
SOUZOU
100
AcDbLine
 10
304.3014873969831
 20
639.9384153116433
 30
0.0
 11
300.4898733889051
 21
643.7500293197217
 31
0.0
  0
LINE
  5
D76
330
A
100
AcDbEntity
  8
SOUZOU
100
AcDbLine
 10
495.7036982358098
 20
391.9676619778928
 30
0.0
 11
317.8070171337888
 21
569.8643430799141
 31
0.0
  0
LINE
  5
D77
330
A
100
AcDbEntity
  8
SOUZOU
100
AcDbLine
 10
298.4769329780703
 20
589.1944272356328
 30
0.0
 11
272.2056021414431
 21
615.4657580722596
 31
0.0
  0
LINE
  5
D93
330
A
100
AcDbEntity
  8
KAKURE
 48
0.3
100
AcDbLine
 10
439.3630778022448
 20
1223.092553658921
 30
0.0
 11
439.3630778022448
 21
1129.09255365892
 31
0.0
  0
LINE
  5
D94
330
A
100
AcDbEntity
  8
KAKURE
 48
0.3
100
AcDbLine
 10
464.3630778022448
 20
1223.092553658921
 30
0.0
 11
464.3630778022448
 21
1129.09255365892
 31
0.0
  0
LINE
  5
D95
330
A
100
AcDbEntity
  8
KAKURE
 48
0.3
100
AcDbLine
 10
449.3630778022447
 20
1134.59255365892
 30
0.0
 11
449.3630778022447
 21
1124.09255365892
 31
0.0
  0
LINE
  5
D96
330
A
100
AcDbEntity
  8
KAKURE
 48
0.3
100
AcDbLine
 10
454.3630778022447
 20
1134.59255365892
 30
0.0
 11
454.3630778022447
 21
1124.09255365892
 31
0.0
  0
LINE
  5
D97
330
A
100
AcDbEntity
  8
KAKURE
 48
0.3
100
AcDbLine
 10
444.3630778022447
 20
1124.09255365892
 30
0.0
 11
449.3630778022447
 21
1124.09255365892
 31
0.0
  0
LINE
  5
D98
330
A
100
AcDbEntity
  8
KAKURE
 48
0.3
100
AcDbLine
 10
454.3630778022447
 20
1124.09255365892
 30
0.0
 11
459.3630778022448
 21
1124.09255365892
 31
0.0
  0
ARC
  5
D99
330
A
100
AcDbEntity
  8
KAKURE
 48
0.3
100
AcDbCircle
 10
451.8630778022448
 20
1134.59255365892
 30
0.0
 40
2.5
100
AcDbArc
 50
359.9999999999993
 51
179.9999999999988
  0
LINE
  5
D9A
330
A
100
AcDbEntity
  8
KAKURE
 48
0.3
100
AcDbLine
 10
439.3630778022448
 20
1129.09255365892
 30
0.0
 11
444.3630778022447
 21
1124.09255365892
 31
0.0
  0
LINE
  5
D9B
330
A
100
AcDbEntity
  8
KAKURE
 48
0.3
100
AcDbLine
 10
464.3630778022448
 20
1129.09255365892
 30
0.0
 11
459.3630778022448
 21
1124.09255365892
 31
0.0
  0
LINE
  5
D9D
330
A
100
AcDbEntity
  8
KAKURE
 48
0.3
100
AcDbLine
 10
439.3630778022448
 20
1141.39255365892
 30
0.0
 11
464.3630778022448
 21
1141.39255365892
 31
0.0
  0
LINE
  5
D9E
330
A
100
AcDbEntity
  8
KAKURE
 48
0.3
100
AcDbLine
 10
449.3630778022447
 20
1217.592553658921
 30
0.0
 11
449.3630778022447
 21
1228.092553658921
 31
0.0
  0
LINE
  5
D9F
330
A
100
AcDbEntity
  8
KAKURE
 48
0.3
100
AcDbLine
 10
454.3630778022447
 20
1217.592553658921
 30
0.0
 11
454.3630778022447
 21
1228.092553658921
 31
0.0
  0
LINE
  5
DA0
330
A
100
AcDbEntity
  8
KAKURE
 48
0.3
100
AcDbLine
 10
444.3630778022447
 20
1228.092553658921
 30
0.0
 11
449.3630778022447
 21
1228.092553658921
 31
0.0
  0
LINE
  5
DA1
330
A
100
AcDbEntity
  8
KAKURE
 48
0.3
100
AcDbLine
 10
454.3630778022447
 20
1228.092553658921
 30
0.0
 11
459.3630778022448
 21
1228.092553658921
 31
0.0
  0
ARC
  5
DA2
330
A
100
AcDbEntity
  8
KAKURE
 48
0.3
100
AcDbCircle
 10
451.8630778022448
 20
1217.592553658921
 30
0.0
 40
2.5
100
AcDbArc
 50
179.9999999999998
 51
359.9999999999993
  0
LINE
  5
DA3
330
A
100
AcDbEntity
  8
KAKURE
 48
0.3
100
AcDbLine
 10
439.3630778022448
 20
1223.092553658921
 30
0.0
 11
444.3630778022447
 21
1228.092553658921
 31
0.0
  0
LINE
  5
DA4
330
A
100
AcDbEntity
  8
KAKURE
 48
0.3
100
AcDbLine
 10
464.3630778022448
 20
1223.092553658921
 30
0.0
 11
459.3630778022448
 21
1228.092553658921
 31
0.0
  0
LINE
  5
DA6
330
A
100
AcDbEntity
  8
KAKURE
 48
0.3
100
AcDbLine
 10
439.3630778022448
 20
1210.792553658921
 30
0.0
 11
464.3630778022448
 21
1210.792553658921
 31
0.0
  0
LINE
  5
DC0
330
A
100
AcDbEntity
  8
SAISEN
100
AcDbLine
 10
344.8630778022447
 20
609.9925536589218
 30
0.0
 11
558.863077802245
 21
609.9925536589218
 31
0.0
  0
LINE
  5
DC1
330
A
100
AcDbEntity
  8
SAISEN
100
AcDbLine
 10
558.863077802245
 20
621.9925536589216
 30
0.0
 11
344.8630778022447
 21
621.9925536589216
 31
0.0
  0
LINE
  5
DC2
330
A
100
AcDbEntity
  8
SAISEN
100
AcDbLine
 10
558.8630778022451
 20
1781.872949070263
 30
0.0
 11
344.863077802245
 21
1781.872949070263
 31
0.0
  0
LINE
  5
DC3
330
A
100
AcDbEntity
  8
SAISEN
100
AcDbLine
 10
344.863077802245
 20
1793.872949070263
 30
0.0
 11
558.8630778022451
 21
1793.872949070263
 31
0.0
  0
LINE
  5
DC4
330
A
100
AcDbEntity
  8
SAISEN
100
AcDbLine
 10
984.8630778022451
 20
1781.872949070263
 30
0.0
 11
1218.863077802245
 21
1781.872949070263
 31
0.0
  0
LINE
  5
DC5
330
A
100
AcDbEntity
  8
SAISEN
100
AcDbLine
 10
984.8630778022451
 20
1793.872949070263
 30
0.0
 11
1218.863077802245
 21
1793.872949070263
 31
0.0
  0
LINE
  5
DC6
330
A
100
AcDbEntity
  8
SAISEN
100
AcDbLine
 10
984.8630778022446
 20
621.9925536589213
 30
0.0
 11
1218.863077802245
 21
621.9925536589213
 31
0.0
  0
LINE
  5
DC7
330
A
100
AcDbEntity
  8
SAISEN
100
AcDbLine
 10
984.8630778022446
 20
609.9925536589213
 30
0.0
 11
1218.863077802245
 21
609.9925536589213
 31
0.0
  0
LINE
  5
1086
330
A
100
AcDbEntity
  8
06
100
AcDbLine
 10
376.8630778022454
 20
1031.09255365892
 30
0.0
 11
376.8630778022454
 21
1536.09255365892
 31
0.0
  0
LINE
  5
1087
330
A
100
AcDbEntity
  8
06
100
AcDbLine
 10
526.8630778022453
 20
1031.09255365892
 30
0.0
 11
526.8630778022453
 21
1536.09255365892
 31
0.0
  0
LINE
  5
1088
330
A
100
AcDbEntity
  8
06
100
AcDbLine
 10
381.8630778022454
 20
1541.09255365892
 30
0.0
 11
521.8630778022453
 21
1541.09255365892
 31
0.0
  0
LINE
  5
1089
330
A
100
AcDbEntity
  8
06
100
AcDbLine
 10
376.8630778022454
 20
1031.09255365892
 30
0.0
 11
381.8630778022454
 21
1026.09255365892
 31
0.0
  0
LINE
  5
108A
330
A
100
AcDbEntity
  8
06
100
AcDbLine
 10
526.8630778022453
 20
1031.09255365892
 30
0.0
 11
521.8630778022453
 21
1026.09255365892
 31
0.0
  0
LINE
  5
108B
330
A
100
AcDbEntity
  8
06
100
AcDbLine
 10
526.8630778022453
 20
1536.09255365892
 30
0.0
 11
521.8630778022453
 21
1541.09255365892
 31
0.0
  0
LINE
  5
108C
330
A
100
AcDbEntity
  8
06
100
AcDbLine
 10
376.8630778022454
 20
1536.09255365892
 30
0.0
 11
381.8630778022454
 21
1541.09255365892
 31
0.0
  0
LINE
  5
108E
330
A
100
AcDbEntity
  8
06
100
AcDbLine
 10
407.3630778022452
 20
1061.092553658919
 30
0.0
 11
406.8630778022445
 21
1061.092553658919
 31
0.0
  0
CIRCLE
  5
1090
330
A
100
AcDbEntity
  8
06
100
AcDbCircle
 10
451.8630778022448
 20
1341.33805365892
 30
0.0
 40
45.00000000000002
  0
LINE
  5
1091
330
A
100
AcDbEntity
  8
06
100
AcDbLine
 10
476.8630778022448
 20
1061.092553658919
 30
0.0
 11
477.3630778022443
 21
1061.092553658919
 31
0.0
  0
ARC
  5
1098
330
A
100
AcDbEntity
  8
06
100
AcDbCircle
 10
411.8630778022414
 20
1848.09255365892
 30
0.0
 40
10.0
100
AcDbArc
 50
179.9999999999996
 51
269.9999999999996
  0
LINE
  5
1099
330
A
100
AcDbEntity
  8
06
100
AcDbLine
 10
411.8630778022418
 20
1838.09255365892
 30
0.0
 11
491.8630778022416
 21
1838.09255365892
 31
0.0
  0
LINE
  5
109A
330
A
100
AcDbEntity
  8
06
100
AcDbLine
 10
401.8630778022417
 20
1928.09255365892
 30
0.0
 11
401.8630778022417
 21
1848.09255365892
 31
0.0
  0
ARC
  5
109B
330
A
100
AcDbEntity
  8
06
100
AcDbCircle
 10
411.8630778022414
 20
1928.09255365892
 30
0.0
 40
10.0
100
AcDbArc
 50
89.99999999999912
 51
179.9999999999988
  0
LINE
  5
109C
330
A
100
AcDbEntity
  8
06
100
AcDbLine
 10
411.8630778022418
 20
1938.092553658919
 30
0.0
 11
491.8630778022416
 21
1938.092553658919
 31
0.0
  0
ARC
  5
109D
330
A
100
AcDbEntity
  8
06
100
AcDbCircle
 10
491.8630778022416
 20
1848.09255365892
 30
0.0
 40
10.0
100
AcDbArc
 50
269.9999999999996
 51
359.9999999999991
  0
LINE
  5
109E
330
A
100
AcDbEntity
  8
06
100
AcDbLine
 10
501.8630778022416
 20
1928.09255365892
 30
0.0
 11
501.8630778022416
 21
1848.09255365892
 31
0.0
  0
ARC
  5
109F
330
A
100
AcDbEntity
  8
06
100
AcDbCircle
 10
491.8630778022416
 20
1928.09255365892
 30
0.0
 40
10.0
100
AcDbArc
 50
359.9999999999993
 51
89.99999999999912
  0
LINE
  5
10A0
330
A
100
AcDbEntity
  8
06
100
AcDbLine
 10
381.8630778022454
 20
1026.09255365892
 30
0.0
 11
521.8630778022453
 21
1026.09255365892
 31
0.0
  0
ARC
  5
10A1
330
A
100
AcDbEntity
  8
06
100
AcDbCircle
 10
411.8630778022447
 20
504.0925536589225
 30
0.0
 40
10.0
100
AcDbArc
 50
89.99999999999912
 51
179.9999999999988
  0
ARC
  5
10A2
330
A
100
AcDbEntity
  8
06
100
AcDbCircle
 10
491.8630778022447
 20
424.0925536589227
 30
0.0
 40
10.0
100
AcDbArc
 50
269.9999999999996
 51
359.9999999999991
  0
ARC
  5
10A3
330
A
100
AcDbEntity
  8
06
100
AcDbCircle
 10
411.8630778022447
 20
424.0925536589227
 30
0.0
 40
10.0
100
AcDbArc
 50
179.9999999999996
 51
269.9999999999996
  0
ARC
  5
10A4
330
A
100
AcDbEntity
  8
06
100
AcDbCircle
 10
491.8630778022447
 20
504.0925536589222
 30
0.0
 40
10.0
100
AcDbArc
 50
359.9999999999993
 51
89.99999999999912
  0
LINE
  5
10A5
330
A
100
AcDbEntity
  8
06
100
AcDbLine
 10
411.8630778022447
 20
514.0925536589223
 30
0.0
 11
491.8630778022447
 21
514.0925536589223
 31
0.0
  0
LINE
  5
10A6
330
A
100
AcDbEntity
  8
06
100
AcDbLine
 10
401.8630778022448
 20
504.0925536589225
 30
0.0
 11
401.8630778022448
 21
424.0925536589225
 31
0.0
  0
LINE
  5
10A7
330
A
100
AcDbEntity
  8
06
100
AcDbLine
 10
411.8630778022447
 20
414.0925536589223
 30
0.0
 11
491.8630778022447
 21
414.0925536589223
 31
0.0
  0
LINE
  5
10A8
330
A
100
AcDbEntity
  8
06
100
AcDbLine
 10
501.8630778022448
 20
504.0925536589219
 30
0.0
 11
501.8630778022448
 21
424.0925536589225
 31
0.0
  0
CIRCLE
  5
10AA
330
A
100
AcDbEntity
  8
06
100
AcDbCircle
 10
451.8630778022543
 20
1125.092553658922
 30
0.0
 40
39.4999999999964
  0
CIRCLE
  5
10AB
330
A
100
AcDbEntity
  8
06
100
AcDbCircle
 10
451.8630778022538
 20
1227.092553658921
 30
0.0
 40
39.4999999999964
  0
CIRCLE
  5
10AC
330
A
100
AcDbEntity
  8
06
100
AcDbCircle
 10
451.8630778022538
 20
1888.092553658923
 30
0.0
 40
39.4999999999964
  0
CIRCLE
  5
10AD
330
A
100
AcDbEntity
  8
06
100
AcDbCircle
 10
451.8630778022538
 20
464.0925536589214
 30
0.0
 40
39.4999999999964
  0
LINE
  5
11B9
330
A
100
AcDbEntity
  8
SAISEN
100
AcDbLine
 10
766.2610547297397
 20
936.0925536589205
 30
0.0
 11
766.2610547297397
 21
1416.09255365892
 31
0.0
  0
LINE
  5
11BA
330
A
100
AcDbEntity
  8
SAISEN
100
AcDbLine
 10
766.2610547297397
 20
1416.09255365892
 30
0.0
 11
715.2610547297397
 21
1416.09255365892
 31
0.0
  0
LINE
  5
11BB
330
A
100
AcDbEntity
  8
SAISEN
100
AcDbLine
 10
715.2610547297397
 20
936.0925536589205
 30
0.0
 11
715.2610547297397
 21
1416.09255365892
 31
0.0
  0
LINE
  5
11BC
330
A
100
AcDbEntity
  8
SAISEN
100
AcDbLine
 10
766.2610547297397
 20
936.0925536589205
 30
0.0
 11
715.2610547297397
 21
936.0925536589205
 31
0.0
  0
LINE
  5
11BD
330
A
100
AcDbEntity
  8
SAISEN
100
AcDbLine
 10
758.7610547297397
 20
943.5925536589204
 30
0.0
 11
758.7610547297397
 21
1408.59255365892
 31
0.0
  0
LINE
  5
11BE
330
A
100
AcDbEntity
  8
SAISEN
100
AcDbLine
 10
758.7610547297397
 20
1408.59255365892
 30
0.0
 11
722.7610547297397
 21
1408.59255365892
 31
0.0
  0
LINE
  5
11BF
330
A
100
AcDbEntity
  8
SAISEN
100
AcDbLine
 10
722.7610547297397
 20
943.5925536589204
 30
0.0
 11
722.7610547297397
 21
1408.59255365892
 31
0.0
  0
LINE
  5
11C0
330
A
100
AcDbEntity
  8
SAISEN
100
AcDbLine
 10
758.7610547297397
 20
943.5925536589204
 30
0.0
 11
722.7610547297397
 21
943.5925536589204
 31
0.0
  0
LINE
  5
11C2
330
A
100
AcDbEntity
  8
SAISEN
100
AcDbLine
 10
131.7610547297393
 20
950.5925536589206
 30
0.0
 11
131.7610547297393
 21
1401.59255365892
 31
0.0
  0
LINE
  5
11C3
330
A
100
AcDbEntity
  8
SAISEN
100
AcDbLine
 10
131.7610547297393
 20
1401.59255365892
 30
0.0
 11
80.76105472973948
 21
1401.59255365892
 31
0.0
  0
LINE
  5
11C4
330
A
100
AcDbEntity
  8
SAISEN
100
AcDbLine
 10
80.76105472973948
 20
950.5925536589206
 30
0.0
 11
80.76105472973948
 21
1401.59255365892
 31
0.0
  0
LINE
  5
11C5
330
A
100
AcDbEntity
  8
SAISEN
100
AcDbLine
 10
131.7610547297393
 20
950.5925536589206
 30
0.0
 11
80.76105472973948
 21
950.5925536589206
 31
0.0
  0
LINE
  5
11C6
330
A
100
AcDbEntity
  8
SAISEN
100
AcDbLine
 10
124.2610547297394
 20
958.0925536589207
 30
0.0
 11
124.2610547297394
 21
1394.09255365892
 31
0.0
  0
LINE
  5
11C7
330
A
100
AcDbEntity
  8
SAISEN
100
AcDbLine
 10
124.2610547297394
 20
1394.09255365892
 30
0.0
 11
88.26105472973948
 21
1394.09255365892
 31
0.0
  0
LINE
  5
11C8
330
A
100
AcDbEntity
  8
SAISEN
100
AcDbLine
 10
88.26105472973948
 20
958.0925536589207
 30
0.0
 11
88.26105472973948
 21
1394.09255365892
 31
0.0
  0
LINE
  5
11C9
330
A
100
AcDbEntity
  8
SAISEN
100
AcDbLine
 10
124.2610547297394
 20
958.0925536589207
 30
0.0
 11
88.26105472973948
 21
958.0925536589207
 31
0.0
  0
LINE
  5
11CA
330
A
100
AcDbEntity
  8
06
100
AcDbLine
 10
1113.863077439128
 20
1565.09255365892
 30
0.0
 11
1091.863077439129
 21
1587.092553658919
 31
0.0
  0
LINE
  5
11CB
330
A
100
AcDbEntity
  8
06
100
AcDbLine
 10
1106.792009629071
 20
1565.09255365892
 30
0.0
 11
1084.792009629069
 21
1587.092553658919
 31
0.0
  0
LINE
  5
11CC
330
A
100
AcDbEntity
  8
06
100
AcDbLine
 10
1099.720941819011
 20
1565.09255365892
 30
0.0
 11
1084.363077802245
 21
1580.450417675686
 31
0.0
  0
LINE
  5
11CD
330
A
100
AcDbEntity
  8
06
100
AcDbLine
 10
1092.649874008952
 20
1565.09255365892
 30
0.0
 11
1084.363077802245
 21
1573.379349865628
 31
0.0
  0
LINE
  5
11CE
330
A
100
AcDbEntity
  8
06
100
AcDbLine
 10
1085.578806198894
 20
1565.09255365892
 30
0.0
 11
1084.363077802245
 21
1566.30828205557
 31
0.0
  0
LINE
  5
11CF
330
A
100
AcDbEntity
  8
06
100
AcDbLine
 10
1119.363077802243
 20
1566.663621105863
 30
0.0
 11
1098.934145249187
 21
1587.092553658919
 31
0.0
  0
LINE
  5
11D0
330
A
100
AcDbEntity
  8
06
100
AcDbLine
 10
1119.363077802243
 20
1573.734688915922
 30
0.0
 11
1106.005213059246
 21
1587.092553658919
 31
0.0
  0
LINE
  5
11D1
330
A
100
AcDbEntity
  8
06
100
AcDbLine
 10
1119.363077802243
 20
1580.805756725981
 30
0.0
 11
1113.076280869305
 21
1587.092553658919
 31
0.0
  0
LINE
  5
1202
330
A
100
AcDbEntity
  8
03
100
AcDbLine
 10
482.3730778022389
 20
1727.960449070262
 30
0.0
 11
482.3730778022389
 21
1722.960449070262
 31
0.0
  0
LINE
  5
1203
330
A
100
AcDbEntity
  8
03
100
AcDbLine
 10
482.3730778022389
 20
1722.960449070262
 30
0.0
 11
483.1230778022391
 21
1722.960449070262
 31
0.0
  0
LINE
  5
1204
330
A
100
AcDbEntity
  8
03
100
AcDbLine
 10
495.3730778022389
 20
1722.960449070262
 30
0.0
 11
495.3730778022389
 21
1727.960449070262
 31
0.0
  0
LINE
  5
120B
330
A
100
AcDbEntity
  8
03
100
AcDbLine
 10
495.3730778022389
 20
1592.960449070263
 30
0.0
 11
495.3730778022389
 21
1597.960449070263
 31
0.0
  0
LINE
  5
120C
330
A
100
AcDbEntity
  8
03
100
AcDbLine
 10
483.1230778022391
 20
1597.960449070263
 30
0.0
 11
482.3730778022389
 21
1597.960449070263
 31
0.0
  0
LINE
  5
120D
330
A
100
AcDbEntity
  8
03
100
AcDbLine
 10
482.3730778022389
 20
1597.960449070263
 30
0.0
 11
482.3730778022389
 21
1592.960449070263
 31
0.0
  0
LINE
  5
1214
330
A
100
AcDbEntity
  8
03
100
AcDbLine
 10
421.3530778022503
 20
1727.960449070262
 30
0.0
 11
421.3530778022503
 21
1722.960449070262
 31
0.0
  0
LINE
  5
1215
330
A
100
AcDbEntity
  8
03
100
AcDbLine
 10
409.1030778022505
 20
1722.960449070262
 30
0.0
 11
408.3530778022503
 21
1722.960449070262
 31
0.0
  0
LINE
  5
1216
330
A
100
AcDbEntity
  8
03
100
AcDbLine
 10
408.3530778022503
 20
1722.960449070262
 30
0.0
 11
408.3530778022503
 21
1727.960449070262
 31
0.0
  0
LINE
  5
121D
330
A
100
AcDbEntity
  8
03
100
AcDbLine
 10
408.3530778022503
 20
1592.960449070262
 30
0.0
 11
408.3530778022503
 21
1597.960449070262
 31
0.0
  0
LINE
  5
121E
330
A
100
AcDbEntity
  8
03
100
AcDbLine
 10
408.3530778022503
 20
1597.960449070262
 30
0.0
 11
409.1030778022505
 21
1597.960449070262
 31
0.0
  0
LINE
  5
121F
330
A
100
AcDbEntity
  8
03
100
AcDbLine
 10
421.3530778022503
 20
1597.960449070262
 30
0.0
 11
421.3530778022503
 21
1592.960449070262
 31
0.0
  0
LINE
  5
1226
330
A
100
AcDbEntity
  8
03
100
AcDbLine
 10
495.3730778022536
 20
700.2209669346174
 30
0.0
 11
495.3730778022536
 21
705.2209669346174
 31
0.0
  0
LINE
  5
1227
330
A
100
AcDbEntity
  8
03
100
AcDbLine
 10
483.1230778022536
 20
705.2209669346174
 30
0.0
 11
482.3730778022536
 21
705.2209669346174
 31
0.0
  0
LINE
  5
1228
330
A
100
AcDbEntity
  8
03
100
AcDbLine
 10
482.3730778022536
 20
705.2209669346174
 30
0.0
 11
482.3730778022536
 21
700.2209669346174
 31
0.0
  0
LINE
  5
122F
330
A
100
AcDbEntity
  8
03
100
AcDbLine
 10
482.3730778022536
 20
835.2209669346175
 30
0.0
 11
482.3730778022536
 21
830.2209669346176
 31
0.0
  0
LINE
  5
1230
330
A
100
AcDbEntity
  8
03
100
AcDbLine
 10
482.3730778022536
 20
830.2209669346176
 30
0.0
 11
483.1230778022536
 21
830.2209669346176
 31
0.0
  0
LINE
  5
1231
330
A
100
AcDbEntity
  8
03
100
AcDbLine
 10
495.3730778022536
 20
830.2209669346176
 30
0.0
 11
495.3730778022536
 21
835.2209669346175
 31
0.0
  0
LINE
  5
1238
330
A
100
AcDbEntity
  8
03
100
AcDbLine
 10
421.3530778022357
 20
700.2209669346174
 30
0.0
 11
421.3530778022357
 21
705.2209669346174
 31
0.0
  0
LINE
  5
1239
330
A
100
AcDbEntity
  8
03
100
AcDbLine
 10
421.3530778022357
 20
705.2209669346174
 30
0.0
 11
420.6030778022356
 21
705.2209669346174
 31
0.0
  0
LINE
  5
123A
330
A
100
AcDbEntity
  8
03
100
AcDbLine
 10
408.3530778022357
 20
705.2209669346174
 30
0.0
 11
408.3530778022357
 21
700.2209669346174
 31
0.0
  0
LINE
  5
1241
330
A
100
AcDbEntity
  8
03
100
AcDbLine
 10
408.3530778022357
 20
835.2209669346175
 30
0.0
 11
408.3530778022357
 21
830.2209669346176
 31
0.0
  0
LINE
  5
1242
330
A
100
AcDbEntity
  8
03
100
AcDbLine
 10
408.3530778022357
 20
830.2209669346176
 30
0.0
 11
409.1030778022356
 21
830.2209669346176
 31
0.0
  0
LINE
  5
1243
330
A
100
AcDbEntity
  8
03
100
AcDbLine
 10
421.3530778022357
 20
830.2209669346176
 30
0.0
 11
421.3530778022357
 21
835.2209669346175
 31
0.0
  0
CIRCLE
  5
139E
330
A
100
AcDbEntity
  8
03
100
AcDbCircle
 10
451.863077802248
 20
464.0925536589239
 30
0.0
 40
6.5
  0
CIRCLE
  5
13DD
330
A
100
AcDbEntity
  8
03
100
AcDbCircle
 10
451.8630778022461
 20
1125.09255365892
 30
0.0
 40
6.5
  0
CIRCLE
  5
1401
330
A
100
AcDbEntity
  8
03
100
AcDbCircle
 10
451.8630778022461
 20
1227.09255365892
 30
0.0
 40
6.5
  0
LINE
  5
1407
330
A
100
AcDbEntity
  8
03
100
AcDbLine
 10
496.3630778022443
 20
1054.09255365892
 30
0.0
 11
496.3630778022443
 21
1061.092553658919
 31
0.0
  0
LINE
  5
1409
330
A
100
AcDbEntity
  8
03
100
AcDbLine
 10
477.3630778022443
 20
1061.092553658919
 30
0.0
 11
477.3630778022443
 21
1054.09255365892
 31
0.0
  0
LINE
  5
142B
330
A
100
AcDbEntity
  8
03
100
AcDbLine
 10
407.3630778022452
 20
1054.09255365892
 30
0.0
 11
407.3630778022452
 21
1061.092553658919
 31
0.0
  0
LINE
  5
142D
330
A
100
AcDbEntity
  8
03
100
AcDbLine
 10
426.3630778022451
 20
1061.092553658919
 30
0.0
 11
426.3630778022451
 21
1054.09255365892
 31
0.0
  0
CIRCLE
  5
1449
330
A
100
AcDbEntity
  8
03
100
AcDbCircle
 10
451.8630778022445
 20
1888.09255365892
 30
0.0
 40
6.5
  0
LINE
  5
1471
330
A
100
AcDbEntity
  8
SOUZOU
100
AcDbLine
 10
300.4898733889051
 20
643.7500293197217
 30
0.0
 11
298.3766552179194
 21
644.0554385009717
 31
0.0
  0
LINE
  5
1472
330
A
100
AcDbEntity
  8
SOUZOU
100
AcDbLine
 10
298.3766552179194
 20
644.0554385009717
 30
0.0
 11
296.3349473915158
 21
644.1495363552457
 31
0.0
  0
LINE
  5
1473
330
A
100
AcDbEntity
  8
SOUZOU
100
AcDbLine
 10
296.3349473915158
 20
644.1495363552457
 30
0.0
 11
294.4362602542761
 21
643.8210115555657
 31
0.0
  0
LINE
  5
1474
330
A
100
AcDbEntity
  8
SOUZOU
100
AcDbLine
 10
294.4362602542761
 20
643.8210115555657
 30
0.0
 11
292.7521041507824
 21
642.8585527749564
 31
0.0
  0
LINE
  5
1475
330
A
100
AcDbEntity
  8
SOUZOU
100
AcDbLine
 10
292.7521041507824
 20
642.8585527749564
 30
0.0
 11
291.3539894256166
 21
641.050848686441
 31
0.0
  0
LINE
  5
1476
330
A
100
AcDbEntity
  8
SOUZOU
100
AcDbLine
 10
291.3539894256166
 20
641.050848686441
 30
0.0
 11
290.2705432298775
 21
638.2829372646479
 31
0.0
  0
LINE
  5
1477
330
A
100
AcDbEntity
  8
SOUZOU
100
AcDbLine
 10
290.2705432298775
 20
638.2829372646479
 30
0.0
 11
289.3588599407326
 21
634.8252536906328
 31
0.0
  0
LINE
  5
1478
330
A
100
AcDbEntity
  8
SOUZOU
100
AcDbLine
 10
289.3588599407326
 20
634.8252536906328
 30
0.0
 11
288.4331507418662
 21
631.0445824470563
 31
0.0
  0
LINE
  5
1479
330
A
100
AcDbEntity
  8
SOUZOU
100
AcDbLine
 10
288.4331507418662
 20
631.0445824470563
 30
0.0
 11
287.3076268169625
 21
627.3077080165776
 31
0.0
  0
LINE
  5
147A
330
A
100
AcDbEntity
  8
SOUZOU
100
AcDbLine
 10
287.3076268169625
 20
627.3077080165776
 30
0.0
 11
285.7964993497062
 21
623.9814148818582
 31
0.0
  0
LINE
  5
147B
330
A
100
AcDbEntity
  8
SOUZOU
100
AcDbLine
 10
285.7964993497062
 20
623.9814148818582
 30
0.0
 11
283.7639907384556
 21
621.3454445858347
 31
0.0
  0
LINE
  5
147C
330
A
100
AcDbEntity
  8
SOUZOU
100
AcDbLine
 10
283.7639907384556
 20
621.3454445858347
 30
0.0
 11
281.2743682402705
 21
619.3313669125472
 31
0.0
  0
LINE
  5
147D
330
A
100
AcDbEntity
  8
SOUZOU
100
AcDbLine
 10
281.2743682402705
 20
619.3313669125472
 30
0.0
 11
278.4419103268843
 21
617.7837087063112
 31
0.0
  0
LINE
  5
147E
330
A
100
AcDbEntity
  8
SOUZOU
100
AcDbLine
 10
278.4419103268843
 20
617.7837087063112
 30
0.0
 11
275.3808954700307
 21
616.5469968114438
 31
0.0
  0
LINE
  5
147F
330
A
100
AcDbEntity
  8
SOUZOU
100
AcDbLine
 10
275.3808954700307
 20
616.5469968114438
 30
0.0
 11
272.2056021414431
 21
615.4657580722596
 31
0.0
  0
LINE
  5
1480
330
A
100
AcDbEntity
  8
SOUZOU
100
AcDbLine
 10
300.4898733889053
 20
1708.43507799812
 30
0.0
 11
299.1932329678792
 21
1710.361245740994
 31
0.0
  0
LINE
  5
1481
330
A
100
AcDbEntity
  8
SOUZOU
100
AcDbLine
 10
299.1932329678792
 20
1710.361245740994
 30
0.0
 11
297.8457790409671
 21
1712.240206682479
 31
0.0
  0
LINE
  5
1482
330
A
100
AcDbEntity
  8
SOUZOU
100
AcDbLine
 10
297.8457790409671
 20
1712.240206682479
 30
0.0
 11
296.3966981022826
 21
1714.024754021182
 31
0.0
  0
LINE
  5
1483
330
A
100
AcDbEntity
  8
SOUZOU
100
AcDbLine
 10
296.3966981022826
 20
1714.024754021182
 30
0.0
 11
294.7951766459396
 21
1715.667680955715
 31
0.0
  0
LINE
  5
1484
330
A
100
AcDbEntity
  8
SOUZOU
100
AcDbLine
 10
294.7951766459396
 20
1715.667680955715
 30
0.0
 11
292.9904011660516
 21
1717.121780684687
 31
0.0
  0
LINE
  5
1485
330
A
100
AcDbEntity
  8
SOUZOU
100
AcDbLine
 10
292.9904011660516
 20
1717.121780684687
 30
0.0
 11
290.9551845379378
 21
1718.372048900645
 31
0.0
  0
LINE
  5
1486
330
A
100
AcDbEntity
  8
SOUZOU
100
AcDbLine
 10
290.9551845379378
 20
1718.372048900645
 30
0.0
 11
288.7568451617361
 21
1719.532291271888
 31
0.0
  0
LINE
  5
1487
330
A
100
AcDbEntity
  8
SOUZOU
100
AcDbLine
 10
288.7568451617361
 20
1719.532291271888
 30
0.0
 11
286.4863278187901
 21
1720.748515960654
 31
0.0
  0
LINE
  5
1488
330
A
100
AcDbEntity
  8
SOUZOU
100
AcDbLine
 10
286.4863278187901
 20
1720.748515960654
 30
0.0
 11
284.2345772904423
 21
1722.166731129177
 31
0.0
  0
LINE
  5
1489
330
A
100
AcDbEntity
  8
SOUZOU
100
AcDbLine
 10
284.2345772904423
 20
1722.166731129177
 30
0.0
 11
282.0925383580359
 21
1723.932944939695
 31
0.0
  0
LINE
  5
148A
330
A
100
AcDbEntity
  8
SOUZOU
100
AcDbLine
 10
282.0925383580359
 20
1723.932944939695
 30
0.0
 11
280.129309793447
 21
1726.152363967267
 31
0.0
  0
LINE
  5
148B
330
A
100
AcDbEntity
  8
SOUZOU
100
AcDbLine
 10
280.129309793447
 20
1726.152363967267
 30
0.0
 11
278.3266063306863
 21
1728.766988438223
 31
0.0
  0
LINE
  5
148C
330
A
100
AcDbEntity
  8
SOUZOU
100
AcDbLine
 10
278.3266063306863
 20
1728.766988438223
 30
0.0
 11
276.6442966942963
 21
1731.678016991718
 31
0.0
  0
LINE
  5
148D
330
A
100
AcDbEntity
  8
SOUZOU
100
AcDbLine
 10
276.6442966942963
 20
1731.678016991718
 30
0.0
 11
275.0422496088201
 21
1734.786648266904
 31
0.0
  0
LINE
  5
148E
330
A
100
AcDbEntity
  8
SOUZOU
100
AcDbLine
 10
275.0422496088201
 20
1734.786648266904
 30
0.0
 11
273.4803337988007
 21
1737.994080902939
 31
0.0
  0
POLYLINE
  5
14BD
330
A
100
AcDbEntity
  8
DEFPOINTS
  6
CONTINUOUS
100
AcDb2dPolyline
 66
     1
 10
0.0
 20
0.0
 30
0.0
 70
     1
  0
VERTEX
  5
212A
330
14BD
100
AcDbEntity
  8
DEFPOINTS
  6
CONTINUOUS
100
AcDbVertex
100
AcDb2dVertex
 10
1490.0
 20
0.0
 30
0.0
  0
VERTEX
  5
212B
330
14BD
100
AcDbEntity
  8
DEFPOINTS
  6
CONTINUOUS
100
AcDbVertex
100
AcDb2dVertex
 10
1490.0
 20
2100.0
 30
0.0
  0
VERTEX
  5
212C
330
14BD
100
AcDbEntity
  8
DEFPOINTS
  6
CONTINUOUS
100
AcDbVertex
100
AcDb2dVertex
 10
0.0000000000002274
 20
2100.0
 30
0.0
  0
VERTEX
  5
212D
330
14BD
100
AcDbEntity
  8
DEFPOINTS
  6
CONTINUOUS
100
AcDbVertex
100
AcDb2dVertex
 10
0.0
 20
0.0
 30
0.0
  0
SEQEND
  5
212E
330
14BD
100
AcDbEntity
  8
DEFPOINTS
  6
CONTINUOUS
  0
INSERT
  5
14D6
330
A
100
AcDbEntity
  8
06
  6
CONTINUOUS
100
AcDbBlockReference
  2
*X45
 10
0.0
 20
0.0
 30
0.0
1001
ACAD
1000
HATCH
1002
{
1070
    19
1000
ANSI31
1040
40.0
1040
1.570796326794896
1000
R14_HATCH_DATA
1000
14D6
1011
1.0
1021
0.0
1031
0.0
1011
0.0
1021
1.0
1031
0.0
1011
0.0
1021
0.0
1031
1.0
1040
0.0
1010
0.0
1020
0.0
1030
1.0
1000
ANSI31
1070
     0
1070
     0
1071
        4
1071
        7
1070
     0
1070
     1
1071
        4
1040
1084.363077802243
1040
1212.092553658919
1040
1084.363077802243
1040
1176.092553658919
1040
1101.863077802244
1040
1176.092553658919
1040
1101.863077802244
1040
1212.092553658919
1071
        0
1071
        7
1070
     0
1070
     1
1071
        4
1040
1101.863077802244
1040
1212.092553658919
1040
1101.863077802244
1040
1176.092553658919
1040
1119.363077802242
1040
1176.092553658919
1040
1119.363077802242
1040
1212.092553658919
1071
        0
1071
        7
1070
     0
1070
     1
1071
        7
1040
1101.863077802244
1040
1176.092553658919
1040
1101.863077802244
1040
1140.092553658921
1040
1119.363077802242
1040
1140.092553658921
1040
1119.363077802242
1040
1160.770953656829
1040
1106.783240363371
1040
1162.363859571363
1040
1119.363077802242
1040
1162.096703349967
1040
1119.363077802242
1040
1176.092553658919
1071
        0
1071
        7
1070
     0
1070
     1
1071
        4
1040
1084.363077802243
1040
1176.092553658919
1040
1084.363077802243
1040
1140.092553658921
1040
1101.863077802244
1040
1140.09255365892
1040
1101.863077802244
1040
1176.092553658919
1071
        0
1070
     0
1070
     1
1040
1.570796326794896
1040
40.0
1070
     0
1070
     1
1040
2.356194490192344
1040
1490.0
1040
-20.31724307405966
1040
-3.535533905932736
1040
-3.535533905932736
1070
     0
1040
0.2360466465764736
1071
        4
1040
1091.584340767869
1040
1200.913406790609
1040
0.0
1040
1110.468070349682
1040
1196.662697056775
1040
0.0
1040
1107.163416601966
1040
1171.63074598769
1040
0.0
1040
1090.168057252415
1040
1168.324635574933
1040
0.0
1002
}
  0
INSERT
  5
14EB
330
A
100
AcDbEntity
  8
06
  6
CONTINUOUS
100
AcDbBlockReference
  2
*X46
 10
0.0
 20
0.0
 30
0.0
1001
ACAD
1000
HATCH
1002
{
1070
    19
1000
ANSI31
1040
40.0
1040
1.570796326794896
1000
R14_HATCH_DATA
1000
14EB
1011
1.0
1021
0.0
1031
0.0
1011
0.0
1021
1.0
1031
0.0
1011
0.0
1021
0.0
1031
1.0
1040
0.0
1010
0.0
1020
0.0
1030
1.0
1000
ANSI31
1070
     0
1070
     0
1071
        4
1071
        7
1070
     0
1070
     1
1071
        4
1040
1084.363077802243
1040
787.0925536589205
1040
1084.363077802243
1040
776.0925536589208
1040
1101.863077802244
1040
776.0925536589208
1040
1101.863077802244
1040
787.0925536589205
1071
        0
1071
        7
1070
     0
1070
     1
1071
        7
1040
1101.863077802244
1040
787.0925536589205
1040
1101.863077802244
1040
776.0925536589208
1040
1119.363077802242
1040
776.0925536589208
1040
1119.363077802242
1040
782.5808504275597
1040
1110.322392447762
1040
784.6157046937157
1040
1119.363077802242
1040
784.5076757103087
1040
1119.363077802242
1040
787.0925536589205
1071
        0
1071
        7
1070
     0
1070
     1
1071
        4
1040
1101.863077802244
1040
776.0925536589208
1040
1101.863077802244
1040
765.0925536589205
1040
1119.363077802242
1040
765.0925536589205
1040
1119.363077802242
1040
776.0925536589208
1071
        0
1071
        7
1070
     0
1070
     1
1071
        4
1040
1084.363077802243
1040
776.0925536589208
1040
1084.363077802243
1040
765.0925536589205
1040
1101.863077802244
1040
765.0925536589205
1040
1101.863077802244
1040
776.0925536589208
1071
        0
1070
     0
1070
     1
1040
1.570796326794896
1040
40.0
1070
     0
1070
     1
1040
2.356194490192344
1040
1490.0
1040
-20.31724307405966
1040
-3.535533905932736
1040
-3.535533905932736
1070
     0
1040
0.0868269730947124
1071
        4
1040
1096.360925765352
1040
781.4490361209127
1040
0.0
1040
1109.471796773497
1040
781.7964974132228
1040
0.0
1040
1108.950838183659
1040
772.7625191599464
1040
0.0
1040
1088.633324672256
1040
771.4595367559886
1040
0.0
1002
}
  0
DIMENSION
  5
14F4
330
A
100
AcDbEntity
  8
SUNPOU
  6
CONTINUOUS
100
AcDbDimension
  2
*D1
 10
351.8630778022445
 20
288.4785646042823
 30
0.0
 11
451.8630778022447
 21
270.6514681036787
 31
0.0
 70
   160
 53
180.0
  3
SUNPOU_1
100
AcDbAlignedDimension
 13
551.8630778022448
 23
347.6925536589209
 33
0.0
 14
351.8630778022445
 24
347.6925536589209
 34
0.0
 50
180.0
100
AcDbRotatedDimension
  0
DIMENSION
  5
1501
330
A
100
AcDbEntity
  8
SUNPOU
  6
CONTINUOUS
100
AcDbDimension
  2
*D2
 10
501.8630778022448
 20
340.8175455316226
 30
0.0
 11
451.8630778022448
 21
324.8027296410846
 31
0.0
 70
   160
 53
180.0
  3
SUNPOU_1
100
AcDbAlignedDimension
 13
401.8630778022448
 23
424.0925536589225
 33
0.0
 14
501.8630778022448
 24
424.0925536589225
 34
0.0
 50
180.0
100
AcDbRotatedDimension
  0
DIMENSION
  5
150E
330
A
100
AcDbEntity
  8
SUNPOU
  6
CONTINUOUS
100
AcDbDimension
  2
*D3
 10
271.2610547297395
 20
514.0925536589223
 30
0.0
 11
255.5110547297394
 21
464.0925536589226
 31
0.0
 70
    32
  3
SUNPOU_1
100
AcDbAlignedDimension
 13
411.8630778022447
 23
414.0925536589223
 33
0.0
 14
411.863077802245
 24
514.0925536589223
 34
0.0
 50
90.0
100
AcDbRotatedDimension
  0
DIMENSION
  5
151B
330
A
100
AcDbEntity
  8
SUNPOU
  6
CONTINUOUS
100
AcDbDimension
  2
*D4
 10
598.863077802245
 20
464.0925536589202
 30
0.0
 11
583.1130778022449
 21
420.0925536589206
 31
0.0
 70
    32
  3
SUNPOU_1
100
AcDbAlignedDimension
 13
550.2630778022446
 23
376.0925536589211
 33
0.0
 14
530.8782000742358
 24
464.0925536589202
 34
0.0
 50
90.0
100
AcDbRotatedDimension
  0
DIMENSION
  5
1528
330
A
100
AcDbEntity
  8
SUNPOU
  6
CONTINUOUS
100
AcDbDimension
  2
*D5
 10
598.8630778022452
 20
1888.09255365892
 30
0.0
 11
583.1130778022449
 21
1176.092553658921
 31
0.0
 70
    32
  1
W-176
  3
SUNPOU_1
100
AcDbAlignedDimension
 13
530.8782000742358
 23
464.0925536589202
 33
0.0
 14
517.1837912057322
 24
1888.09255365892
 34
0.0
 50
90.0
100
AcDbRotatedDimension
  0
DIMENSION
  5
1535
330
A
100
AcDbEntity
  8
SUNPOU
  6
CONTINUOUS
100
AcDbDimension
  2
*D6
 10
598.8630778022452
 20
1976.09255365892
 30
0.0
 11
583.1130778022449
 21
1932.092553658921
 31
0.0
 70
    32
  3
SUNPOU_1
100
AcDbAlignedDimension
 13
517.1837912057322
 23
1888.09255365892
 33
0.0
 14
550.2630778022449
 24
1976.09255365892
 34
0.0
 50
90.0
100
AcDbRotatedDimension
  0
DIMENSION
  5
1542
330
A
100
AcDbEntity
  8
SUNPOU
  6
CONTINUOUS
100
AcDbDimension
  2
*D7
 10
321.2610547297395
 20
1176.092553658919
 30
0.0
 11
305.5110547297392
 21
1101.09255365892
 31
0.0
 70
    32
  3
SUNPOU_1
100
AcDbAlignedDimension
 13
381.8630778022454
 23
1026.09255365892
 33
0.0
 14
337.0708939916253
 24
1176.092553658919
 34
0.0
 50
90.0
100
AcDbRotatedDimension
  0
DIMENSION
  5
154F
330
A
100
AcDbEntity
  8
SUNPOU
  6
CONTINUOUS
100
AcDbDimension
  2
*D8
 10
321.2610547297395
 20
1541.09255365892
 30
0.0
 11
305.5110547297392
 21
1358.59255365892
 31
0.0
 70
    32
  3
SUNPOU_1
100
AcDbAlignedDimension
 13
337.0708939916253
 23
1176.092553658919
 33
0.0
 14
381.8630778022454
 24
1541.09255365892
 34
0.0
 50
90.0
100
AcDbRotatedDimension
  0
DIMENSION
  5
155C
330
A
100
AcDbEntity
  8
SUNPOU
  6
CONTINUOUS
100
AcDbDimension
  2
*D9
 10
271.2610547297395
 20
1541.09255365892
 30
0.0
 11
255.5110547297391
 21
1283.59255365892
 31
0.0
 70
    32
  3
SUNPOU_1
100
AcDbAlignedDimension
 13
381.8630778022454
 23
1026.09255365892
 33
0.0
 14
381.8630778022454
 24
1541.09255365892
 34
0.0
 50
90.0
100
AcDbRotatedDimension
  0
DIMENSION
  5
1569
330
A
100
AcDbEntity
  8
SUNPOU
  6
CONTINUOUS
100
AcDbDimension
  2
*D10
 10
221.2610547297395
 20
1176.092553658919
 30
0.0
 11
205.5110547297393
 21
776.0925536589208
 31
0.0
 70
    32
  1
W/2
  3
SUNPOU_1
100
AcDbAlignedDimension
 13
353.4630778022446
 23
376.0925536589211
 33
0.0
 14
337.0708939916253
 24
1176.092553658919
 34
0.0
 50
90.0
100
AcDbRotatedDimension
  0
DIMENSION
  5
1576
330
A
100
AcDbEntity
  8
SUNPOU
  6
CONTINUOUS
100
AcDbDimension
  2
*D11
 10
221.2610547297396
 20
1976.09255365892
 30
0.0
 11
205.5110547297394
 21
1576.09255365892
 31
0.0
 70
    32
  1
W/2
  3
SUNPOU_1
100
AcDbAlignedDimension
 13
337.0708939916253
 23
1176.092553658919
 33
0.0
 14
353.4630778022448
 24
1976.09255365892
 34
0.0
 50
90.0
100
AcDbRotatedDimension
  0
DIMENSION
  5
1583
330
A
100
AcDbEntity
  8
SUNPOU
  6
CONTINUOUS
100
AcDbDimension
  2
*D12
 10
181.2610547297397
 20
1976.09255365892
 30
0.0
 11
165.5110547297392
 21
1176.092553658921
 31
0.0
 70
    32
  1
W
  3
SUNPOU_1
100
AcDbAlignedDimension
 13
353.4630778022446
 23
376.0925536589211
 33
0.0
 14
353.4630778022448
 24
1976.09255365892
 34
0.0
 50
90.0
100
AcDbRotatedDimension
  0
DIMENSION
  5
1590
330
A
100
AcDbEntity
  8
SUNPOU
  6
CONTINUOUS
100
AcDbDimension
  2
*D13
 10
1198.863077802245
 20
280.4925536589205
 30
0.0
 11
1223.90365009743
 21
261.7630007508013
 31
0.0
 70
   160
 53
180.0
  3
SUNPOU_1
100
AcDbAlignedDimension
 13
1201.863077802244
 23
347.6925536589206
 33
0.0
 14
1198.863077802245
 24
376.0925536589205
 34
0.0
 50
180.0
100
AcDbRotatedDimension
  0
DIMENSION
  5
159F
330
A
100
AcDbEntity
  8
SUNPOU
  6
CONTINUOUS
100
AcDbDimension
  2
*D14
 10
1004.863077802244
 20
280.4925536589206
 30
0.0
 11
1101.863077802245
 21
261.1562948597393
 31
0.0
 70
   160
 53
180.0
  3
SUNPOU_1
100
AcDbAlignedDimension
 13
1198.863077802245
 23
376.0925536589205
 33
0.0
 14
1004.863077802244
 24
376.0925536589202
 34
0.0
 50
180.0
100
AcDbRotatedDimension
  0
DIMENSION
  5
15AC
330
A
100
AcDbEntity
  8
SUNPOU
  6
CONTINUOUS
100
AcDbDimension
  2
*D15
 10
1001.863077802243
 20
280.4925536589206
 30
0.0
 11
974.7041991591395
 21
261.2802710886743
 31
0.0
 70
   160
 53
180.0
  3
SUNPOU_1
100
AcDbAlignedDimension
 13
1004.863077802244
 23
376.0925536589202
 33
0.0
 14
1001.863077802243
 24
347.6925536589206
 34
0.0
 50
180.0
100
AcDbRotatedDimension
  0
DIMENSION
  5
15BB
330
A
100
AcDbEntity
  8
SUNPOU
  6
CONTINUOUS
100
AcDbDimension
  2
*D16
 10
1001.863077802243
 20
230.4925536589205
 30
0.0
 11
1101.863077802244
 21
213.1279003496238
 31
0.0
 70
   160
 53
180.0
  3
SUNPOU_1
100
AcDbAlignedDimension
 13
1201.863077802244
 23
347.6925536589206
 33
0.0
 14
1001.863077802243
 24
347.6925536589206
 34
0.0
 50
180.0
100
AcDbRotatedDimension
  0
DIMENSION
  5
15C8
330
A
100
AcDbEntity
  8
SUNPOU
  6
CONTINUOUS
100
AcDbDimension
  2
*D17
 10
1141.863077802245
 20
331.7991583501606
 30
0.0
 11
1101.863077802245
 21
314.0827310028471
 31
0.0
 70
   160
 53
180.0
  3
SUNPOU_1
100
AcDbAlignedDimension
 13
1061.863077802245
 23
414.0925536589191
 33
0.0
 14
1141.863077802245
 24
414.0925536589191
 34
0.0
 50
180.0
100
AcDbRotatedDimension
  0
DIMENSION
  5
15D5
330
A
100
AcDbEntity
  8
SUNPOU
  6
CONTINUOUS
100
AcDbDimension
  2
*D18
 10
921.2610547297394
 20
424.0925536589193
 30
0.0
 11
905.5110547297394
 21
400.0925536589202
 31
0.0
 70
    32
  3
SUNPOU_1
100
AcDbAlignedDimension
 13
1003.463077802243
 23
376.0925536589205
 33
0.0
 14
990.673928140012
 24
424.0925536589193
 34
0.0
 50
90.0
100
AcDbRotatedDimension
  0
DIMENSION
  5
15E4
330
A
100
AcDbEntity
  8
SUNPOU
  6
CONTINUOUS
100
AcDbDimension
  2
*D19
 10
921.2610547297394
 20
504.0925536589193
 30
0.0
 11
905.5110547297394
 21
464.0925536589193
 31
0.0
 70
    32
  3
SUNPOU_1
100
AcDbAlignedDimension
 13
990.673928140012
 23
424.0925536589193
 33
0.0
 14
990.673928140012
 24
504.0925536589193
 34
0.0
 50
90.0
100
AcDbRotatedDimension
  0
DIMENSION
  5
15F1
330
A
100
AcDbEntity
  8
SUNPOU
  6
CONTINUOUS
100
AcDbDimension
  2
*D20
 10
871.26105472974
 20
1176.092553658919
 30
0.0
 11
855.5110547297397
 21
776.0886866470817
 31
0.0
 70
    32
  1
W/2
  3
SUNPOU_1
100
AcDbAlignedDimension
 13
1003.305950272358
 23
376.0848196352422
 33
0.0
 14
988.7406678749981
 24
1176.092553658919
 34
0.0
 50
90.0
100
AcDbRotatedDimension
  0
DIMENSION
  5
15FE
330
A
100
AcDbEntity
  8
SUNPOU
  6
CONTINUOUS
100
AcDbDimension
  2
*D21
 10
871.26105472974
 20
1976.09255365892
 30
0.0
 11
855.5110547297395
 21
1576.09255365892
 31
0.0
 70
    32
  1
W/2
  3
SUNPOU_1
100
AcDbAlignedDimension
 13
988.7406678749981
 23
1176.092553658919
 33
0.0
 14
1003.463077802243
 24
1976.09255365892
 34
0.0
 50
90.0
100
AcDbRotatedDimension
  0
DIMENSION
  5
160B
330
A
100
AcDbEntity
  8
SUNPOU
  6
CONTINUOUS
100
AcDbDimension
  2
*D22
 10
821.26105472974
 20
1976.09255365892
 30
0.0
 11
805.5110547297395
 21
1176.092553658919
 31
0.0
 70
    32
  1
W
  3
SUNPOU_1
100
AcDbAlignedDimension
 13
1003.275777974758
 23
376.0925536589205
 33
0.0
 14
1003.463077802243
 24
1976.09255365892
 34
0.0
 50
90.0
100
AcDbRotatedDimension
  0
DIMENSION
  5
1618
330
A
100
AcDbEntity
  8
SUNPOU
  6
CONTINUOUS
100
AcDbDimension
  2
*D23
 10
921.2610547297394
 20
1176.092553658919
 30
0.0
 11
905.5110547297394
 21
976.0925536589208
 31
0.0
 70
    32
  3
SUNPOU_1
100
AcDbAlignedDimension
 13
1046.32267506827
 23
776.0925536589208
 33
0.0
 14
988.7406678749981
 24
1176.092553658919
 34
0.0
 50
90.0
100
AcDbRotatedDimension
  0
DIMENSION
  5
1625
330
A
100
AcDbEntity
  8
SUNPOU
  6
CONTINUOUS
100
AcDbDimension
  2
*D24
 10
921.2610547297394
 20
1576.09255365892
 30
0.0
 11
905.5110547297392
 21
1376.092553658921
 31
0.0
 70
    32
  3
SUNPOU_1
100
AcDbAlignedDimension
 13
988.7406678749981
 23
1176.092553658919
 33
0.0
 14
1045.716932527504
 24
1576.09255365892
 34
0.0
 50
90.0
100
AcDbRotatedDimension
  0
DIMENSION
  5
1632
330
A
100
AcDbEntity
  8
SUNPOU
  6
CONTINUOUS
100
AcDbDimension
  2
*D25
 10
971.26105472974
 20
1176.092553658919
 30
0.0
 11
955.5110547297399
 21
1108.59255365892
 31
0.0
 70
    32
  3
SUNPOU_1
100
AcDbAlignedDimension
 13
990.673928140012
 23
1041.09255365892
 33
0.0
 14
988.7406678749981
 24
1176.092553658919
 34
0.0
 50
90.0
100
AcDbRotatedDimension
  0
DIMENSION
  5
163F
330
A
100
AcDbEntity
  8
SUNPOU
  6
CONTINUOUS
100
AcDbDimension
  2
*D26
 10
971.26105472974
 20
1281.09255365892
 30
0.0
 11
955.5110547297397
 21
1228.592553658921
 31
0.0
 70
    32
  3
SUNPOU_1
100
AcDbAlignedDimension
 13
988.7406678749981
 23
1176.092553658919
 33
0.0
 14
990.673928140012
 24
1281.09255365892
 34
0.0
 50
90.0
100
AcDbRotatedDimension
  0
DIMENSION
  5
164C
330
A
100
AcDbEntity
  8
SUNPOU
  6
CONTINUOUS
100
AcDbDimension
  2
*D27
 10
1068.442117962135
 20
1212.092553658919
 30
0.0
 11
1052.639097734789
 21
1176.129535257625
 31
0.0
 70
   160
  3
SUNPOU_1
100
AcDbAlignedDimension
 13
1084.363077802243
 23
1140.09255365892
 33
0.0
 14
1084.363077802243
 24
1212.092553658919
 34
0.0
 50
90.0
100
AcDbRotatedDimension
  0
DIMENSION
  5
1659
330
A
100
AcDbEntity
  8
SUNPOU
  6
CONTINUOUS
100
AcDbDimension
  2
*D28
 10
1119.363077802242
 20
1119.55062023528
 30
0.0
 11
1101.485205708497
 21
1105.639157690887
 31
0.0
 70
   160
 53
180.0
  3
SUNPOU_1
100
AcDbAlignedDimension
 13
1084.363077802243
 23
1140.09255365892
 33
0.0
 14
1119.363077802242
 24
1140.09255365892
 34
0.0
 50
180.0
100
AcDbRotatedDimension
  0
DIMENSION
  5
1668
330
A
100
AcDbEntity
  8
SUNPOU
  6
CONTINUOUS
100
AcDbDimension
  2
*D29
 10
1152.810736314078
 20
1217.59255365892
 30
0.0
 11
1137.060736314077
 21
1176.092553658919
 31
0.0
 70
    32
  3
SUNPOU_1
100
AcDbAlignedDimension
 13
1110.111267978599
 23
1134.59255365892
 33
0.0
 14
1110.111267978599
 24
1217.59255365892
 34
0.0
 50
90.0
100
AcDbRotatedDimension
  0
DIMENSION
  5
1675
330
A
100
AcDbEntity
  8
SUNPOU
  6
CONTINUOUS
100
AcDbDimension
  2
*D30
 10
1161.863077802242
 20
974.0925536589212
 30
0.0
 11
1101.975929582045
 21
958.0445905757096
 31
0.0
 70
   160
 53
180.0
  3
SUNPOU_1
100
AcDbAlignedDimension
 13
1041.863077802245
 23
1031.092553658922
 33
0.0
 14
1161.863077802242
 24
1031.092553658922
 34
0.0
 50
180.0
100
AcDbRotatedDimension
  0
DIMENSION
  5
1682
330
A
100
AcDbEntity
  8
SUNPOU
  6
CONTINUOUS
100
AcDbDimension
  2
*D31
 10
1143.363077802243
 20
715.3035457924975
 30
0.0
 11
1102.027500494437
 21
698.7988708580615
 31
0.0
 70
   160
 53
180.0
  3
SUNPOU_1
100
AcDbAlignedDimension
 13
1060.363077802243
 23
772.0910226032756
 33
0.0
 14
1143.363077802243
 24
772.0910226032756
 34
0.0
 50
180.0
100
AcDbRotatedDimension
  0
DIMENSION
  5
168F
330
A
100
AcDbEntity
  8
SUNPOU
  6
CONTINUOUS
100
AcDbDimension
  2
*D32
 10
1119.363077802243
 20
746.3215878098131
 30
0.0
 11
1102.680637909527
 21
730.2825275854639
 31
0.0
 70
   160
 53
180.0
  3
SUNPOU_1
100
AcDbAlignedDimension
 13
1084.363077802243
 23
765.0925536589205
 33
0.0
 14
1119.363077802243
 24
765.0925536589205
 34
0.0
 50
180.0
100
AcDbRotatedDimension
  0
DIMENSION
  5
169E
330
A
100
AcDbEntity
  8
SUNPOU
  6
CONTINUOUS
100
AcDbDimension
  2
*D33
 10
1176.790753824252
 20
787.0925536589205
 30
0.0
 11
1162.502924525844
 21
731.5856918633171
 31
0.0
 70
   160
  3
SUNPOU_1
100
AcDbAlignedDimension
 13
1119.363077802243
 23
765.0925536589205
 33
0.0
 14
1119.363077802242
 24
787.0925536589205
 34
0.0
 50
90.0
100
AcDbRotatedDimension
  0
DIMENSION
  5
16AD
330
A
100
AcDbEntity
  8
SUNPOU
  6
CONTINUOUS
100
AcDbDimension
  2
*D34
 10
1258.863077802245
 20
464.0925536589193
 30
0.0
 11
1243.113077802245
 21
420.0925536589203
 31
0.0
 70
    32
  3
SUNPOU_1
100
AcDbAlignedDimension
 13
1200.263077802245
 23
376.0925536589205
 33
0.0
 14
1132.051461394417
 24
464.0925536589195
 34
0.0
 50
90.0
100
AcDbRotatedDimension
  0
DIMENSION
  5
16BA
330
A
100
AcDbEntity
  8
SUNPOU
  6
CONTINUOUS
100
AcDbDimension
  2
*D35
 10
1288.863077802245
 20
1526.09255365892
 30
0.0
 11
1273.113077802245
 21
1283.59255365892
 31
0.0
 70
    32
  3
SUNPOU_1
100
AcDbAlignedDimension
 13
1222.417085741515
 23
1041.09255365892
 33
0.0
 14
1222.417085741515
 24
1526.09255365892
 34
0.0
 50
90.0
100
AcDbRotatedDimension
  0
DIMENSION
  5
16C7
330
A
100
AcDbEntity
  8
SUNPOU
  6
CONTINUOUS
100
AcDbDimension
  2
*D36
 10
1119.363077802246
 20
1617.164355866966
 30
0.0
 11
1101.833728298426
 21
1603.952516633017
 31
0.0
 70
   160
 53
180.0
  3
SUNPOU_1
100
AcDbAlignedDimension
 13
1084.363077802245
 23
1587.092553658919
 33
0.0
 14
1119.363077802246
 24
1587.092553658917
 34
0.0
 50
180.0
100
AcDbRotatedDimension
  0
DIMENSION
  5
16D6
330
A
100
AcDbEntity
  8
SUNPOU
  6
CONTINUOUS
100
AcDbDimension
  2
*D37
 10
1143.363077802243
 20
1650.060978121931
 30
0.0
 11
1101.250820712914
 21
1633.958942945261
 31
0.0
 70
   160
 53
180.0
  3
SUNPOU_1
100
AcDbAlignedDimension
 13
1060.363077802243
 23
1580.094084714565
 33
0.0
 14
1143.363077802243
 24
1580.094084714565
 34
0.0
 50
180.0
100
AcDbRotatedDimension
  0
DIMENSION
  5
16E3
330
A
100
AcDbEntity
  8
SUNPOU
  6
CONTINUOUS
100
AcDbDimension
  2
*D38
 10
1176.044678577204
 20
1587.092553658919
 30
0.0
 11
1161.943712447174
 21
1604.127226995185
 31
0.0
 70
   160
  3
SUNPOU_1
100
AcDbAlignedDimension
 13
1119.363077802243
 23
1565.09255365892
 33
0.0
 14
1119.363077802246
 24
1587.092553658919
 34
0.0
 50
90.0
100
AcDbRotatedDimension
  0
DIMENSION
  5
16F2
330
A
100
AcDbEntity
  8
SUNPOU
  6
CONTINUOUS
100
AcDbDimension
  2
*D39
 10
921.26105472974
 20
1928.09255365892
 30
0.0
 11
905.5110547297397
 21
1888.09255365892
 31
0.0
 70
    32
  3
SUNPOU_1
100
AcDbAlignedDimension
 13
990.6739281400122
 23
1848.09255365892
 33
0.0
 14
990.6739281400122
 24
1928.09255365892
 34
0.0
 50
90.0
100
AcDbRotatedDimension
  0
DIMENSION
  5
16FF
330
A
100
AcDbEntity
  8
SUNPOU
  6
CONTINUOUS
100
AcDbDimension
  2
*D40
 10
921.26105472974
 20
1976.09255365892
 30
0.0
 11
905.5110547297397
 21
1952.092553658919
 31
0.0
 70
    32
  3
SUNPOU_1
100
AcDbAlignedDimension
 13
990.6739281400122
 23
1928.09255365892
 33
0.0
 14
1003.463077802243
 24
1976.09255365892
 34
0.0
 50
90.0
100
AcDbRotatedDimension
  0
DIMENSION
  5
1720
330
A
100
AcDbEntity
  8
SUNPOU
  6
CONTINUOUS
100
AcDbDimension
  2
*D41
 10
1141.863077802245
 20
2031.374022963205
 30
0.0
 11
1102.379487504915
 21
2015.351007931974
 31
0.0
 70
   160
 53
180.0
  3
SUNPOU_1
100
AcDbAlignedDimension
 13
1061.863077802245
 23
1938.09255365892
 33
0.0
 14
1141.863077802245
 24
1938.092553658919
 34
0.0
 50
180.0
100
AcDbRotatedDimension
  0
DIMENSION
  5
172D
330
A
100
AcDbEntity
  8
HIKIDASI
  6
CONTINUOUS
100
AcDbDimension
  2
*D42
 10
1258.942859348437
 20
1976.09255365892
 30
0.0
 11
1243.192859348437
 21
1932.092553658921
 31
0.0
 70
    32
  3
SUNPOU_1
100
AcDbAlignedDimension
 13
1132.051461394417
 23
1888.09255365892
 33
0.0
 14
1200.263077802245
 24
1976.09255365892
 34
0.0
 50
90.0
100
AcDbRotatedDimension
  0
LEADER
  5
174F
330
A
100
AcDbEntity
  8
HIKIDASI
  6
CONTINUOUS
100
AcDbLeader
  3
SUNPOU_1
 73
     0
 75
     1
 40
17.5
 41
166.1333333333333
 76
     3
 10
407.9530778022355
 20
744.82702534525
 30
0.0
 10
328.6687397043551
 20
766.064569658336
 30
0.0
 10
328.6687397043551
 20
748.564569658336
 30
0.0
340
1750
211
0.0000000000000001
221
1.0
231
0.0
1001
ACAD
1000
DSTYLE
1002
{
1070
     5
1000
OPEN30
1070
    77
1070
     1
1070
   147
1040
1.0
1070
   342
1005
14A3
1002
}
1000
LEANOF
1010
0.0
1020
0.0
1030
0.0
1000
LEANOF
1010
0.0
1020
0.0
1030
0.0
  0
MTEXT
  5
1750
330
A
100
AcDbEntity
  8
HIKIDASI
  6
CONTINUOUS
 62
     6
100
AcDbMText
 10
321.6687397043551
 20
741.564569658336
 30
0.0
 40
17.5
 41
0.0
 71
     9
 72
     1
  1
チェーン張り調整金具
  7
SUNPOU
 11
0.0000000000000001
 21
1.0
 31
0.0
1001
ACAD
1000
MTEXTBEGIN
1070
    73
1070
     1
1070
    44
1040
1.0
1070
    74
1070
     0
1000
MTEXTEND
1000
MTEXTBEGIN
1070
    73
1070
     1
1070
    44
1040
1.0
1070
    74
1070
     0
1000
MTEXTEND
  0
LEADER
  5
1751
330
A
100
AcDbEntity
  8
HIKIDASI
  6
CONTINUOUS
100
AcDbLeader
  3
SUNPOU_1
 73
     0
 74
     0
 75
     1
 40
17.5
 41
78.4
 76
     3
 10
442.2100681044518
 20
777.3063999584501
 30
0.0
 10
323.6200770843697
 20
794.4218567967445
 30
0.0
 10
323.6200770843697
 20
811.9218567967445
 30
0.0
340
1752
211
0.0000000000000001
221
1.0
231
0.0
1001
ACAD
1000
DSTYLE
1002
{
1070
     5
1000
OPEN30
1070
    77
1070
     1
1070
   147
1040
1.0
1070
   342
1005
14A3
1002
}
1000
LEANOF
1010
0.0
1020
0.0
1030
0.0
1000
LEANOF
1010
0.0
1020
0.0
1030
0.0
  0
MTEXT
  5
1752
330
A
100
AcDbEntity
  8
HIKIDASI
  6
CONTINUOUS
 62
     6
100
AcDbMText
 10
316.6200770843697
 20
818.9218567967445
 30
0.0
 40
17.5
 41
0.0
 71
     7
 72
     1
  1
吊元センサ
  7
SUNPOU
 11
0.0000000000000001
 21
1.0
 31
0.0
1001
ACAD
1000
MTEXTBEGIN
1070
    73
1070
     1
1070
    44
1040
1.0
1070
    74
1070
     0
1000
MTEXTEND
1000
MTEXTBEGIN
1070
    73
1070
     1
1070
    44
1040
1.0
1070
    74
1070
     0
1000
MTEXTEND
  0
LEADER
  5
1753
330
A
100
AcDbEntity
  8
HIKIDASI
  6
CONTINUOUS
100
AcDbLeader
  3
SUNPOU_1
 73
     0
 74
     0
 75
     1
 40
17.5
 41
37.33333333333332
 76
     3
 10
493.3296576281168
 20
645.6848514635862
 30
0.0
 10
644.4167773236995
 20
688.2581154081581
 30
0.0
 10
644.4167773236995
 20
705.7581154081581
 30
0.0
340
1754
211
0.0000000000000001
221
1.0
231
0.0
1001
ACAD
1000
DSTYLE
1002
{
1070
     5
1000
OPEN30
1070
    77
1070
     1
1070
   147
1040
1.0
1070
   342
1005
14A3
1002
}
1000
LEANOF
1010
0.0
1020
0.0
1030
0.0
1000
LEANOF
1010
0.0
1020
0.0
1030
0.0
  0
MTEXT
  5
1754
330
A
100
AcDbEntity
  8
HIKIDASI
  6
CONTINUOUS
 62
     6
100
AcDbMText
 10
637.4167773236995
 20
712.7581154081581
 30
0.0
 40
17.5
 41
0.0
 71
     7
 72
     1
  1
#35
  7
SUNPOU
 11
0.0000000000000001
 21
1.0
 31
0.0
1001
ACAD
1000
MTEXTBEGIN
1070
    73
1070
     1
1070
    44
1040
1.0
1070
    74
1070
     0
1000
MTEXTEND
1000
MTEXTBEGIN
1070
    73
1070
     1
1070
    44
1040
1.0
1070
    74
1070
     0
1000
MTEXTEND
  0
LEADER
  5
1755
330
A
100
AcDbEntity
  8
HIKIDASI
  6
CONTINUOUS
100
AcDbLeader
  3
SUNPOU_1
 73
     0
 74
     0
 75
     1
 40
17.5
 41
37.33333333333332
 76
     3
 10
493.3730778022304
 20
903.2746582475784
 30
0.0
 10
644.460197497813
 20
945.8479221921502
 30
0.0
 10
644.460197497813
 20
963.3479221921502
 30
0.0
340
1756
211
0.0000000000000001
221
1.0
231
0.0
1001
ACAD
1000
DSTYLE
1002
{
1070
     5
1000
OPEN30
1070
    77
1070
     1
1070
   147
1040
1.0
1070
   342
1005
14A3
1002
}
1000
LEANOF
1010
0.0
1020
0.0
1030
0.0
1000
LEANOF
1010
0.0
1020
0.0
1030
0.0
  0
MTEXT
  5
1756
330
A
100
AcDbEntity
  8
HIKIDASI
  6
CONTINUOUS
 62
     6
100
AcDbMText
 10
637.4601974978133
 20
970.3479221921504
 30
0.0
 40
17.5
 41
0.0
 71
     7
 72
     1
  1
#35
  7
SUNPOU
 11
0.0000000000000001
 21
1.0
 31
0.0
1001
ACAD
1000
MTEXTBEGIN
1070
    73
1070
     1
1070
    44
1040
1.0
1070
    74
1070
     0
1000
MTEXTEND
1000
MTEXTBEGIN
1070
    73
1070
     1
1070
    44
1040
1.0
1070
    74
1070
     0
1000
MTEXTEND
  0
LEADER
  5
1757
330
A
100
AcDbEntity
  8
HIKIDASI
  6
CONTINUOUS
100
AcDbLeader
  3
SUNPOU_1
 73
     0
 75
     1
 40
17.5
 41
57.86666666666668
 76
     3
 10
496.4827993138754
 20
457.104679107814
 30
0.0
 10
644.3102555238819
 20
432.5716548030686
 30
0.0
 10
644.3102555238819
 20
415.0716548030685
 30
0.0
340
1758
211
0.0000000000000001
221
1.0
231
0.0
1001
ACAD
1000
DSTYLE
1002
{
1070
     5
1000
OPEN30
1070
    77
1070
     1
1070
   147
1040
1.0
1070
   342
1005
14A3
1002
}
1000
LEANOF
1010
0.0
1020
0.0
1030
0.0
1000
LEANOF
1010
0.0
1020
0.0
1030
0.0
  0
MTEXT
  5
1758
330
A
100
AcDbEntity
  8
HIKIDASI
  6
CONTINUOUS
 62
     6
100
AcDbMText
 10
637.310255523882
 20
408.0716548030686
 30
0.0
 40
17.5
 41
0.0
 71
     9
 72
     1
  1
トップ軸
  7
SUNPOU
 11
0.0000000000000001
 21
1.0
 31
0.0
1001
ACAD
1000
MTEXTBEGIN
1070
    73
1070
     1
1070
    44
1040
1.0
1070
    74
1070
     0
1000
MTEXTEND
1000
MTEXTBEGIN
1070
    73
1070
     1
1070
    44
1040
1.0
1070
    74
1070
     0
1000
MTEXTEND
  0
LEADER
  5
1759
330
A
100
AcDbEntity
  8
HIKIDASI
  6
CONTINUOUS
100
AcDbLeader
  3
SUNPOU_1
 73
     0
 74
     0
 75
     1
 40
17.5
 41
79.33333333333336
 76
     3
 10
454.8556704592461
 20
1195.835723133535
 30
0.0
 10
642.0737576890296
 20
1257.543375423058
 30
0.0
 10
642.0737576890296
 20
1275.043375423059
 30
0.0
340
175A
211
0.0000000000000001
221
1.0
231
0.0
1001
ACAD
1000
DSTYLE
1002
{
1070
     5
1000
OPEN30
1070
    77
1070
     1
1070
   147
1040
1.0
1070
   342
1005
14A3
1002
}
1000
LEANOF
1010
0.0
1020
0.0
1030
0.0
1000
LEANOF
1010
0.0
1020
0.0
1030
0.0
  0
MTEXT
  5
175A
330
A
100
AcDbEntity
  8
HIKIDASI
  6
CONTINUOUS
 62
     6
100
AcDbMText
 10
635.0737576890296
 20
1282.04337542306
 30
0.0
 40
17.5
 41
0.0
 71
     7
 72
     1
  1
戸先センサ
  7
SUNPOU
 11
0.0000000000000001
 21
1.0
 31
0.0
1001
ACAD
1000
MTEXTBEGIN
1070
    73
1070
     1
1070
    44
1040
1.0
1070
    74
1070
     0
1000
MTEXTEND
1000
MTEXTBEGIN
1070
    73
1070
     1
1070
    44
1040
1.0
1070
    74
1070
     0
1000
MTEXTEND
  0
LEADER
  5
175B
330
A
100
AcDbEntity
  8
HIKIDASI
  6
CONTINUOUS
100
AcDbLeader
  3
SUNPOU_1
 73
     0
 74
     0
 75
     1
 40
17.5
 41
93.33333333333332
 76
     3
 10
502.0574576262077
 20
1311.5504781207
 30
0.0
 10
641.2334018839268
 20
1378.672267866415
 30
0.0
 10
641.2334018839268
 20
1396.172267866415
 30
0.0
340
175C
211
0.0000000000000001
221
1.0
231
0.0
1001
ACAD
1000
DSTYLE
1002
{
1070
     5
1000
OPEN30
1070
    77
1070
     1
1070
   147
1040
1.0
1070
   342
1005
14A3
1002
}
1000
LEANOF
1010
0.0
1020
0.0
1030
0.0
1000
LEANOF
1010
0.0
1020
0.0
1030
0.0
  0
MTEXT
  5
175C
330
A
100
AcDbEntity
  8
HIKIDASI
  6
CONTINUOUS
 62
     6
100
AcDbMText
 10
634.2334018839268
 20
1403.172267866415
 30
0.0
 40
17.5
 41
0.0
 71
     7
 72
     1
  1
HB-DD-2
  7
SUNPOU
 11
0.0000000000000001
 21
1.0
 31
0.0
1001
ACAD
1000
MTEXTBEGIN
1070
    73
1070
     1
1070
    44
1040
1.0
1070
    74
1070
     0
1000
MTEXTEND
1000
MTEXTBEGIN
1070
    73
1070
     1
1070
    44
1040
1.0
1070
    74
1070
     0
1000
MTEXTEND
  0
LEADER
  5
175D
330
A
100
AcDbEntity
  8
HIKIDASI
  6
CONTINUOUS
100
AcDbLeader
  3
SUNPOU_1
 73
     0
 74
     0
 75
     1
 40
17.5
 41
57.86666666666668
 76
     3
 10
496.4827993138754
 20
1895.080428210026
 30
0.0
 10
644.2358785474242
 20
1915.896283190419
 30
0.0
 10
644.2358785474242
 20
1933.396283190418
 30
0.0
340
175E
211
0.0000000000000001
221
1.0
231
0.0
1001
ACAD
1000
DSTYLE
1002
{
1070
     5
1000
OPEN30
1070
    77
1070
     1
1070
   147
1040
1.0
1070
   342
1005
14A3
1002
}
1000
LEANOF
1010
0.0
1020
0.0
1030
0.0
1000
LEANOF
1010
0.0
1020
0.0
1030
0.0
  0
MTEXT
  5
175E
330
A
100
AcDbEntity
  8
HIKIDASI
  6
CONTINUOUS
 62
     6
100
AcDbMText
 10
637.2358785474244
 20
1940.396283190418
 30
0.0
 40
17.5
 41
0.0
 71
     7
 72
     1
  1
トップ軸
  7
SUNPOU
 11
0.0000000000000001
 21
1.0
 31
0.0
1001
ACAD
1000
MTEXTBEGIN
1070
    73
1070
     1
1070
    44
1040
1.0
1070
    74
1070
     0
1000
MTEXTEND
1000
MTEXTBEGIN
1070
    73
1070
     1
1070
    44
1040
1.0
1070
    74
1070
     0
1000
MTEXTEND
  0
LEADER
  5
175F
330
A
100
AcDbEntity
  8
HIKIDASI
  6
CONTINUOUS
100
AcDbLeader
  3
SUNPOU_1
 73
     0
 74
     0
 75
     1
 40
17.5
 41
78.4
 76
     3
 10
442.135184008777
 20
1576.356886300692
 30
0.0
 10
319.6769967947976
 20
1584.566339969924
 30
0.0
 10
319.6769967947976
 20
1602.066339969924
 30
0.0
340
1760
211
0.0000000000000001
221
1.0
231
0.0
1001
ACAD
1000
DSTYLE
1002
{
1070
     5
1000
OPEN30
1070
    77
1070
     1
1070
   147
1040
1.0
1070
   342
1005
14A3
1002
}
1000
LEANOF
1010
0.0
1020
0.0
1030
0.0
1000
LEANOF
1010
0.0
1020
0.0
1030
0.0
  0
MTEXT
  5
1760
330
A
100
AcDbEntity
  8
HIKIDASI
  6
CONTINUOUS
 62
     6
100
AcDbMText
 10
312.6769967947978
 20
1609.066339969924
 30
0.0
 40
17.5
 41
0.0
 71
     7
 72
     1
  1
吊元センサ
  7
SUNPOU
 11
0.0000000000000001
 21
1.0
 31
0.0
1001
ACAD
1000
MTEXTBEGIN
1070
    73
1070
     1
1070
    44
1040
1.0
1070
    74
1070
     0
1000
MTEXTEND
1000
MTEXTBEGIN
1070
    73
1070
     1
1070
    44
1040
1.0
1070
    74
1070
     0
1000
MTEXTEND
  0
DIMENSION
  5
1785
330
A
100
AcDbEntity
  8
SUNPOU
  6
CONTINUOUS
100
AcDbDimension
  2
*D43
 10
526.8630778022453
 20
989.4111751613733
 30
0.0
 11
451.2208308108802
 21
972.913032460613
 31
0.0
 70
   160
 53
180.0
  3
SUNPOU_1
100
AcDbAlignedDimension
 13
376.8630778022454
 23
1031.09255365892
 33
0.0
 14
526.8630778022453
 24
1031.09255365892
 34
0.0
 50
180.0
100
AcDbRotatedDimension
  0
DIMENSION
  5
1792
330
A
100
AcDbEntity
  8
SUNPOU
  6
CONTINUOUS
100
AcDbDimension
  2
*D44
 10
354.863077802245
 20
947.8739710686204
 30
0.0
 11
451.2208308108802
 21
931.8082194713834
 31
0.0
 70
   160
 53
180.0
  3
SUNPOU_1
100
AcDbAlignedDimension
 13
548.8630778022451
 23
947.8739710686204
 33
0.0
 14
354.863077802245
 24
947.8739710686204
 34
0.0
 50
180.0
100
AcDbRotatedDimension
  0
MTEXT
  5
17A0
330
A
100
AcDbEntity
  8
MOJI
  6
CONTINUOUS
100
AcDbMText
 10
106.5411633987522
 20
1176.092553658919
 30
0.0
 40
30.0
 41
436.0
 71
     5
 72
     1
  1
HB-DD-2（両開）横断面図
  7
0_8
 11
0.0000000000000001
 21
1.0
 31
0.0
1001
ACAD
1000
MTEXTBEGIN
1070
    73
1070
     1
1070
    44
1040
1.0
1070
    74
1070
     0
1000
MTEXTEND
1000
MTEXTBEGIN
1070
    73
1070
     1
1070
    44
1040
1.0
1070
    74
1070
     0
1000
MTEXTEND
  0
MTEXT
  5
17A1
330
A
100
AcDbEntity
  8
MOJI
  6
CONTINUOUS
100
AcDbMText
 10
741.0411633987526
 20
1175.478800571309
 30
0.0
 40
30.0
 41
436.0
 71
     5
 72
     1
  1
HB-DD-2（両開）FB配置図
  7
0_8
 11
0.0000000000000001
 21
1.0
 31
0.0
1001
ACAD
1000
MTEXTBEGIN
1070
    73
1070
     1
1070
    44
1040
1.0
1070
    74
1070
     0
1000
MTEXTEND
1000
MTEXTBEGIN
1070
    73
1070
     1
1070
    44
1040
1.0
1070
    74
1070
     0
1000
MTEXTEND
  0
MTEXT
  5
17C2
330
A
100
AcDbEntity
  8
HIKIDASI
  6
CONTINUOUS
 62
     6
100
AcDbMText
 10
682.6660034605001
 20
1160.011440226156
 30
0.0
 40
17.5
 41
0.0
 71
     7
 72
     1
  1
点検口
  7
SUNPOU
 11
0.0000000000000001
 21
1.0
 31
0.0
1001
ACAD
1000
MTEXTBEGIN
1070
    73
1070
     1
1070
    44
1040
1.0
1070
    74
1070
     0
1000
MTEXTEND
1000
MTEXTBEGIN
1070
    73
1070
     1
1070
    44
1040
1.0
1070
    74
1070
     0
1000
MTEXTEND
  0
MTEXT
  5
17C4
330
A
100
AcDbEntity
  8
HIKIDASI
  6
CONTINUOUS
 62
     6
100
AcDbMText
 10
1357.465225396706
 20
1160.011440226156
 30
0.0
 40
17.5
 41
0.0
 71
     7
 72
     1
  1
点検口
  7
SUNPOU
 11
0.0000000000000001
 21
1.0
 31
0.0
1001
ACAD
1000
MTEXTBEGIN
1070
    73
1070
     1
1070
    44
1040
1.0
1070
    74
1070
     0
1000
MTEXTEND
1000
MTEXTBEGIN
1070
    73
1070
     1
1070
    44
1040
1.0
1070
    74
1070
     0
1000
MTEXTEND
  0
LEADER
  5
17C9
330
A
100
AcDbEntity
  8
HIKIDASI
  6
CONTINUOUS
100
AcDbLeader
  3
SUNPOU_1
 73
     0
 74
     0
 75
     1
 40
17.5
 41
51.33333333333332
 76
     3
 10
1058.120358843577
 20
505.5039553722631
 30
0.0
 10
974.0907825912499
 20
519.6920113561153
 30
0.0
 10
974.0907825912499
 20
537.1920113561153
 30
0.0
340
17CA
211
0.0000000000000001
221
1.0
231
0.0
1001
ACAD
1000
DSTYLE
1002
{
1070
     5
1000
OPEN30
1070
    77
1070
     1
1070
   147
1040
1.0
1070
   342
1005
14A3
1002
}
1000
LEANOF
1010
0.0
1020
0.0
1030
0.0
1000
LEANOF
1010
0.0
1020
0.0
1030
0.0
  0
MTEXT
  5
17CA
330
A
100
AcDbEntity
  8
HIKIDASI
  6
CONTINUOUS
 62
     6
100
AcDbMText
 10
967.09078259125
 20
544.1920113561153
 30
0.0
 40
17.5
 41
0.0
 71
     7
 72
     1
  1
4-M8
  7
SUNPOU
 11
0.0000000000000001
 21
1.0
 31
0.0
1001
ACAD
1000
MTEXTBEGIN
1070
    73
1070
     1
1070
    44
1040
1.0
1070
    74
1070
     0
1000
MTEXTEND
1000
MTEXTBEGIN
1070
    73
1070
     1
1070
    44
1040
1.0
1070
    74
1070
     0
1000
MTEXTEND
  0
LEADER
  5
17CB
330
A
100
AcDbEntity
  8
HIKIDASI
  6
CONTINUOUS
100
AcDbLeader
  3
SUNPOU_1
 73
     0
 75
     1
 40
17.5
 41
51.33333333333332
 76
     3
 10
1058.475383480366
 20
775.4317888390701
 30
0.0
 10
1037.61500270495
 20
766.8308758240726
 30
0.0
 10
1037.61500270495
 20
749.3308758240726
 30
0.0
340
17CC
211
0.0000000000000001
221
1.0
231
0.0
1001
ACAD
1000
DSTYLE
1002
{
1070
     5
1000
OPEN30
1070
    77
1070
     1
1070
   147
1040
1.0
1070
   342
1005
14A3
1002
}
1000
LEANOF
1010
0.0
1020
0.0
1030
0.0
1000
LEANOF
1010
0.0
1020
0.0
1030
0.0
  0
MTEXT
  5
17CC
330
A
100
AcDbEntity
  8
HIKIDASI
  6
CONTINUOUS
 62
     6
100
AcDbMText
 10
1030.61500270495
 20
742.3308758240726
 30
0.0
 40
17.5
 41
0.0
 71
     9
 72
     1
  1
2-M4
  7
SUNPOU
 11
0.0000000000000001
 21
1.0
 31
0.0
1001
ACAD
1000
MTEXTBEGIN
1070
    73
1070
     1
1070
    44
1040
1.0
1070
    74
1070
     0
1000
MTEXTEND
1000
MTEXTBEGIN
1070
    73
1070
     1
1070
    44
1040
1.0
1070
    74
1070
     0
1000
MTEXTEND
  0
LEADER
  5
17CD
330
A
100
AcDbEntity
  8
HIKIDASI
  6
CONTINUOUS
100
AcDbLeader
  3
SUNPOU_1
 73
     0
 75
     1
 40
17.5
 41
67.2
 76
     3
 10
1110.32239244776
 20
784.6157046937157
 30
0.0
 10
1245.935800530878
 20
769.8622542473422
 30
0.0
 10
1245.935800530878
 20
752.3622542473422
 30
0.0
340
17CE
211
0.0000000000000001
221
1.0
231
0.0
1001
ACAD
1000
DSTYLE
1002
{
1070
     5
1000
OPEN30
1070
    77
1070
     1
1070
   147
1040
1.0
1070
   342
1005
14A3
1002
}
1000
LEANOF
1010
0.0
1020
0.0
1030
0.0
1000
LEANOF
1010
0.0
1020
0.0
1030
0.0
  0
MTEXT
  5
17CE
330
A
100
AcDbEntity
  8
HIKIDASI
  6
CONTINUOUS
 62
     6
100
AcDbMText
 10
1238.935800530877
 20
745.3622542473421
 30
0.0
 40
17.5
 41
0.0
 71
     9
 72
     1
  1
切欠き穴
  7
SUNPOU
 11
0.0000000000000001
 21
1.0
 31
0.0
1001
ACAD
1000
MTEXTBEGIN
1070
    73
1070
     1
1070
    44
1040
1.0
1070
    74
1070
     0
1000
MTEXTEND
1000
MTEXTBEGIN
1070
    73
1070
     1
1070
    44
1040
1.0
1070
    74
1070
     0
1000
MTEXTEND
  0
LEADER
  5
17CF
330
A
100
AcDbEntity
  8
HIKIDASI
  6
CONTINUOUS
100
AcDbLeader
  3
SUNPOU_1
 73
     0
 74
     0
 75
     1
 40
17.5
 41
35.0
 76
     3
 10
1115.524381392315
 20
470.2868077883456
 30
0.0
 10
1243.525449833723
 20
508.5574647460543
 30
0.0
 10
1243.525449833723
 20
526.0574647460543
 30
0.0
340
17D0
211
0.0000000000000001
221
1.0
231
0.0
1001
ACAD
1000
DSTYLE
1002
{
1070
     5
1000
OPEN30
1070
    77
1070
     1
1070
   147
1040
1.0
1070
   342
1005
14A3
1002
}
1000
LEANOF
1010
0.0
1020
0.0
1030
0.0
1000
LEANOF
1010
0.0
1020
0.0
1030
0.0
  0
MTEXT
  5
17D0
330
A
100
AcDbEntity
  8
HIKIDASI
  6
CONTINUOUS
 62
     6
100
AcDbMText
 10
1236.525449833723
 20
533.0574647460544
 30
0.0
 40
17.5
 41
0.0
 71
     7
 72
     1
  1
φ30
  7
SUNPOU
 11
0.0000000000000001
 21
1.0
 31
0.0
1001
ACAD
1000
MTEXTBEGIN
1070
    73
1070
     1
1070
    44
1040
1.0
1070
    74
1070
     0
1000
MTEXTEND
1000
MTEXTBEGIN
1070
    73
1070
     1
1070
    44
1040
1.0
1070
    74
1070
     0
1000
MTEXTEND
  0
LEADER
  5
17D1
330
A
100
AcDbEntity
  8
HIKIDASI
  6
CONTINUOUS
100
AcDbLeader
  3
SUNPOU_1
 73
     0
 75
     1
 40
17.5
 41
96.13333333333333
 76
     3
 10
1111.591325455328
 20
920.1429577414323
 30
0.0
 10
1180.235341643341
 20
947.9553025182903
 30
0.0
 10
1180.235341643341
 20
930.4553025182904
 30
0.0
340
17D2
211
0.0000000000000001
221
1.0
231
0.0
1001
ACAD
1000
DSTYLE
1002
{
1070
     5
1000
OPEN30
1070
    77
1070
     1
1070
   147
1040
1.0
1070
   342
1005
14A3
1002
}
1000
LEANOF
1010
0.0
1020
0.0
1030
0.0
1000
LEANOF
1010
0.0
1020
0.0
1030
0.0
  0
MTEXT
  5
17D2
330
A
100
AcDbEntity
  8
HIKIDASI
  6
CONTINUOUS
 62
     6
100
AcDbMText
 10
1173.235341643341
 20
923.4553025182904
 30
0.0
 40
17.5
 41
0.0
 71
     9
 72
     1
  1
上部ガイド溝
  7
SUNPOU
 11
0.0000000000000001
 21
1.0
 31
0.0
1001
ACAD
1000
MTEXTBEGIN
1070
    73
1070
     1
1070
    44
1040
1.0
1070
    74
1070
     0
1000
MTEXTEND
1000
MTEXTBEGIN
1070
    73
1070
     1
1070
    44
1040
1.0
1070
    74
1070
     0
1000
MTEXTEND
  0
LEADER
  5
17D3
330
A
100
AcDbEntity
  8
HIKIDASI
  6
CONTINUOUS
100
AcDbLeader
  3
SUNPOU_1
 73
     0
 75
     1
 40
17.5
 41
98.46666666666669
 76
     3
 10
1176.407205317826
 20
1036.427320380619
 30
0.0
 10
1238.515958164901
 20
1028.063242923763
 30
0.0
 10
1238.515958164901
 20
1010.563242923764
 30
0.0
340
17D4
211
0.0000000000000001
221
1.0
231
0.0
1001
ACAD
1000
DSTYLE
1002
{
1070
     5
1000
OPEN30
1070
    77
1070
     1
1070
   147
1040
1.0
1070
   342
1005
14A3
1002
}
1000
LEANOF
1010
0.0
1020
0.0
1030
0.0
1000
LEANOF
1010
0.0
1020
0.0
1030
0.0
  0
MTEXT
  5
17D4
330
A
100
AcDbEntity
  8
HIKIDASI
  6
CONTINUOUS
 62
     6
100
AcDbMText
 10
1231.515958164901
 20
1003.563242923764
 30
0.0
 40
17.5
 41
0.0
 71
     9
 72
     1
  1
L50×6(6)
  7
SUNPOU
 11
0.0000000000000001
 21
1.0
 31
0.0
1001
ACAD
1000
MTEXTBEGIN
1070
    73
1070
     1
1070
    44
1040
1.0
1070
    74
1070
     0
1000
MTEXTEND
1000
MTEXTBEGIN
1070
    73
1070
     1
1070
    44
1040
1.0
1070
    74
1070
     0
1000
MTEXTEND
  0
LEADER
  5
17D5
330
A
100
AcDbEntity
  8
HIKIDASI
  6
CONTINUOUS
100
AcDbLeader
  3
SUNPOU_1
 73
     0
 75
     1
 40
17.5
 41
67.2
 76
     3
 10
1106.783240363371
 20
1162.363859571363
 30
0.0
 10
1238.527662949493
 20
1140.881305121977
 30
0.0
 10
1238.527662949493
 20
1123.381305121978
 30
0.0
340
17D6
211
0.0000000000000001
221
1.0
231
0.0
1001
ACAD
1000
DSTYLE
1002
{
1070
     5
1000
OPEN30
1070
    77
1070
     1
1070
   147
1040
1.0
1070
   342
1005
14A3
1002
}
1000
LEANOF
1010
0.0
1020
0.0
1030
0.0
1000
LEANOF
1010
0.0
1020
0.0
1030
0.0
  0
MTEXT
  5
17D6
330
A
100
AcDbEntity
  8
HIKIDASI
  6
CONTINUOUS
 62
     6
100
AcDbMText
 10
1231.527662949493
 20
1116.381305121977
 30
0.0
 40
17.5
 41
0.0
 71
     9
 72
     1
  1
切欠き穴
  7
SUNPOU
 11
0.0000000000000001
 21
1.0
 31
0.0
1001
ACAD
1000
MTEXTBEGIN
1070
    73
1070
     1
1070
    44
1040
1.0
1070
    74
1070
     0
1000
MTEXTEND
1000
MTEXTBEGIN
1070
    73
1070
     1
1070
    44
1040
1.0
1070
    74
1070
     0
1000
MTEXTEND
  0
LEADER
  5
17D7
330
A
100
AcDbEntity
  8
HIKIDASI
  6
CONTINUOUS
100
AcDbLeader
  3
SUNPOU_1
 73
     0
 74
     0
 75
     1
 40
17.5
 41
51.33333333333332
 76
     3
 10
1100.338132707376
 20
1133.298512524474
 30
0.0
 10
1036.782337702474
 20
1083.789887608682
 30
0.0
 10
1036.782337702474
 20
1101.289887608682
 30
0.0
340
17D8
211
0.0000000000000001
221
1.0
231
0.0
1001
ACAD
1000
DSTYLE
1002
{
1070
     5
1000
OPEN30
1070
    77
1070
     1
1070
   147
1040
1.0
1070
   342
1005
14A3
1002
}
1000
LEANOF
1010
0.0
1020
0.0
1030
0.0
1000
LEANOF
1010
0.0
1020
0.0
1030
0.0
  0
MTEXT
  5
17D8
330
A
100
AcDbEntity
  8
HIKIDASI
  6
CONTINUOUS
 62
     6
100
AcDbMText
 10
1021.032337702474
 20
1108.289887608681
 30
0.0
 40
17.5
 41
0.0
 71
     4
 72
     1
  1
2-M4
  7
SUNPOU
 11
0.0000000000000001
 21
1.0
 31
0.0
1001
ACAD
1000
MTEXTBEGIN
1070
    73
1070
     1
1070
    44
1040
1.0
1070
    74
1070
     0
1000
MTEXTEND
1000
MTEXTBEGIN
1070
    73
1070
     1
1070
    44
1040
1.0
1070
    74
1070
     0
1000
MTEXTEND
  0
LEADER
  5
17D9
330
A
100
AcDbEntity
  8
HIKIDASI
  6
CONTINUOUS
100
AcDbLeader
  3
SUNPOU_1
 73
     0
 74
     0
 75
     1
 40
17.5
 41
79.8
 76
     3
 10
1171.693014923306
 20
1292.423223354144
 30
0.0
 10
1241.545634302473
 20
1301.85690207477
 30
0.0
 10
1241.545634302473
 20
1319.35690207477
 30
0.0
340
17DA
211
0.0000000000000001
221
1.0
231
0.0
1001
ACAD
1000
DSTYLE
1002
{
1070
     5
1000
OPEN30
1070
    77
1070
     1
1070
   147
1040
1.0
1070
   342
1005
14A3
1002
}
1000
LEANOF
1010
0.0
1020
0.0
1030
0.0
1000
LEANOF
1010
0.0
1020
0.0
1030
0.0
  0
MTEXT
  5
17DA
330
A
100
AcDbEntity
  8
HIKIDASI
  6
CONTINUOUS
 62
     6
100
AcDbMText
 10
1234.545634302474
 20
1326.35690207477
 30
0.0
 40
17.5
 41
0.0
 71
     7
 72
     1
  1
FB50×6
  7
SUNPOU
 11
0.0000000000000001
 21
1.0
 31
0.0
1001
ACAD
1000
MTEXTBEGIN
1070
    73
1070
     1
1070
    44
1040
1.0
1070
    74
1070
     0
1000
MTEXTEND
1000
MTEXTBEGIN
1070
    73
1070
     1
1070
    44
1040
1.0
1070
    74
1070
     0
1000
MTEXTEND
  0
LEADER
  5
17DB
330
A
100
AcDbEntity
  8
HIKIDASI
  6
CONTINUOUS
100
AcDbLeader
  3
SUNPOU_1
 73
     0
 75
     1
 40
17.5
 41
51.33333333333332
 76
     3
 10
1165.513162091265
 20
1524.456434872568
 30
0.0
 10
1241.84895188237
 20
1512.221989503433
 30
0.0
 10
1241.84895188237
 20
1494.721989503433
 30
0.0
340
17DC
211
0.0000000000000001
221
1.0
231
0.0
1001
ACAD
1000
DSTYLE
1002
{
1070
     5
1000
OPEN30
1070
    77
1070
     1
1070
   147
1040
1.0
1070
   342
1005
14A3
1002
}
1000
LEANOF
1010
0.0
1020
0.0
1030
0.0
1000
LEANOF
1010
0.0
1020
0.0
1030
0.0
  0
MTEXT
  5
17DC
330
A
100
AcDbEntity
  8
HIKIDASI
  6
CONTINUOUS
 62
     6
100
AcDbMText
 10
1234.84895188237
 20
1487.721989503433
 30
0.0
 40
17.5
 41
0.0
 71
     9
 72
     1
  1
4-M8
  7
SUNPOU
 11
0.0000000000000001
 21
1.0
 31
0.0
1001
ACAD
1000
MTEXTBEGIN
1070
    73
1070
     1
1070
    44
1040
1.0
1070
    74
1070
     0
1000
MTEXTEND
1000
MTEXTBEGIN
1070
    73
1070
     1
1070
    44
1040
1.0
1070
    74
1070
     0
1000
MTEXTEND
  0
LEADER
  5
17DD
330
A
100
AcDbEntity
  8
HIKIDASI
  6
CONTINUOUS
100
AcDbLeader
  3
SUNPOU_1
 73
     0
 74
     0
 75
     1
 40
17.5
 41
67.2
 76
     3
 10
1104.465900681955
 20
1568.440655855242
 30
0.0
 10
1243.136114241124
 20
1575.845284983383
 30
0.0
 10
1243.136114241124
 20
1593.345284983382
 30
0.0
340
17DE
211
0.0000000000000001
221
1.0
231
0.0
1001
ACAD
1000
DSTYLE
1002
{
1070
     5
1000
OPEN30
1070
    77
1070
     1
1070
   147
1040
1.0
1070
   342
1005
14A3
1002
}
1000
LEANOF
1010
0.0
1020
0.0
1030
0.0
1000
LEANOF
1010
0.0
1020
0.0
1030
0.0
  0
MTEXT
  5
17DE
330
A
100
AcDbEntity
  8
HIKIDASI
  6
CONTINUOUS
 62
     6
100
AcDbMText
 10
1236.136114241124
 20
1600.345284983383
 30
0.0
 40
17.5
 41
0.0
 71
     7
 72
     1
  1
切欠き穴
  7
SUNPOU
 11
0.0000000000000001
 21
1.0
 31
0.0
1001
ACAD
1000
MTEXTBEGIN
1070
    73
1070
     1
1070
    44
1040
1.0
1070
    74
1070
     0
1000
MTEXTEND
1000
MTEXTBEGIN
1070
    73
1070
     1
1070
    44
1040
1.0
1070
    74
1070
     0
1000
MTEXTEND
  0
LEADER
  5
17DF
330
A
100
AcDbEntity
  8
HIKIDASI
  6
CONTINUOUS
100
AcDbLeader
  3
SUNPOU_1
 73
     0
 74
     0
 75
     1
 40
17.5
 41
51.33333333333332
 76
     3
 10
1058.475597588402
 20
1576.753929832027
 30
0.0
 10
1041.878877595941
 20
1610.973139325122
 30
0.0
 10
1041.878877595941
 20
1628.473139325122
 30
0.0
340
17E0
211
0.0000000000000001
221
1.0
231
0.0
1001
ACAD
1000
DSTYLE
1002
{
1070
     5
1000
OPEN30
1070
    77
1070
     1
1070
   147
1040
1.0
1070
   342
1005
14A3
1002
}
1000
LEANOF
1010
0.0
1020
0.0
1030
0.0
1000
LEANOF
1010
0.0
1020
0.0
1030
0.0
  0
MTEXT
  5
17E0
330
A
100
AcDbEntity
  8
HIKIDASI
  6
CONTINUOUS
 62
     6
100
AcDbMText
 10
1034.878877595942
 20
1635.473139325122
 30
0.0
 40
17.5
 41
0.0
 71
     7
 72
     1
  1
2-M4
  7
SUNPOU
 11
0.0000000000000001
 21
1.0
 31
0.0
1001
ACAD
1000
MTEXTBEGIN
1070
    73
1070
     1
1070
    44
1040
1.0
1070
    74
1070
     0
1000
MTEXTEND
1000
MTEXTBEGIN
1070
    73
1070
     1
1070
    44
1040
1.0
1070
    74
1070
     0
1000
MTEXTEND
  0
LEADER
  5
17E1
330
A
100
AcDbEntity
  8
HIKIDASI
  6
CONTINUOUS
100
AcDbLeader
  3
SUNPOU_1
 73
     0
 75
     1
 40
17.5
 41
51.33333333333332
 76
     3
 10
1058.120358843577
 20
1846.681151945577
 30
0.0
 10
974.0907825912499
 20
1832.493095961724
 30
0.0
 10
974.0907825912499
 20
1814.993095961724
 30
0.0
340
17E2
211
0.0000000000000001
221
1.0
231
0.0
1001
ACAD
1000
DSTYLE
1002
{
1070
     5
1000
OPEN30
1070
    77
1070
     1
1070
   147
1040
1.0
1070
   342
1005
14A3
1002
}
1000
LEANOF
1010
0.0
1020
0.0
1030
0.0
1000
LEANOF
1010
0.0
1020
0.0
1030
0.0
  0
MTEXT
  5
17E2
330
A
100
AcDbEntity
  8
HIKIDASI
  6
CONTINUOUS
 62
     6
100
AcDbMText
 10
967.09078259125
 20
1807.993095961724
 30
0.0
 40
17.5
 41
0.0
 71
     9
 72
     1
  1
4-M8
  7
SUNPOU
 11
0.0000000000000001
 21
1.0
 31
0.0
1001
ACAD
1000
MTEXTBEGIN
1070
    73
1070
     1
1070
    44
1040
1.0
1070
    74
1070
     0
1000
MTEXTEND
1000
MTEXTBEGIN
1070
    73
1070
     1
1070
    44
1040
1.0
1070
    74
1070
     0
1000
MTEXTEND
  0
LEADER
  5
17E3
330
A
100
AcDbEntity
  8
HIKIDASI
  6
CONTINUOUS
100
AcDbLeader
  3
SUNPOU_1
 73
     0
 75
     1
 40
17.5
 41
35.0
 76
     3
 10
1115.680443483328
 20
1882.254711109211
 30
0.0
 10
1248.525449833723
 20
1843.627642571786
 30
0.0
 10
1248.525449833723
 20
1826.127642571785
 30
0.0
340
17E4
211
0.0000000000000001
221
1.0
231
0.0
1001
ACAD
1000
DSTYLE
1002
{
1070
     5
1000
OPEN30
1070
    77
1070
     1
1070
   147
1040
1.0
1070
   342
1005
14A3
1002
}
1000
LEANOF
1010
0.0
1020
0.0
1030
0.0
1000
LEANOF
1010
0.0
1020
0.0
1030
0.0
  0
MTEXT
  5
17E4
330
A
100
AcDbEntity
  8
HIKIDASI
  6
CONTINUOUS
 62
     6
100
AcDbMText
 10
1241.525449833723
 20
1819.127642571785
 30
0.0
 40
17.5
 41
0.0
 71
     9
 72
     1
  1
φ30
  7
SUNPOU
 11
0.0000000000000001
 21
1.0
 31
0.0
1001
ACAD
1000
MTEXTBEGIN
1070
    73
1070
     1
1070
    44
1040
1.0
1070
    74
1070
     0
1000
MTEXTEND
1000
MTEXTBEGIN
1070
    73
1070
     1
1070
    44
1040
1.0
1070
    74
1070
     0
1000
MTEXTEND
  0
MTEXT
  5
17E5
330
A
100
AcDbEntity
  8
MOJI
  6
CONTINUOUS
100
AcDbMText
 10
1364.50392824557
 20
702.4409822016023
 30
0.0
 40
20.0
 41
721.5107333770333
 71
     5
 72
     1
  1
注.吊元側切欠き穴からローラを挿入してガイドローラベースの軸に固定して下さい。
  7
0_8
 11
0.0000000000000001
 21
1.0
 31
0.0
1001
ACAD
1000
MTEXTBEGIN
1070
    73
1070
     1
1070
    44
1040
1.0
1070
    74
1070
     0
1000
MTEXTEND
1000
MTEXTBEGIN
1070
    73
1070
     1
1070
    44
1040
1.0
1070
    74
1070
     0
1000
MTEXTEND
  0
LINE
  5
200E
330
A
100
AcDbEntity
  8
03
  6
CONTINUOUS
100
AcDbLine
 10
408.3530778022357
 20
835.2209669346175
 30
0.0
 11
410.8530778022356
 21
835.2209669346175
 31
0.0
  0
LINE
  5
200F
330
A
100
AcDbEntity
  8
03
  6
CONTINUOUS
100
AcDbLine
 10
418.8530778022356
 20
835.2209669346175
 30
0.0
 11
421.3530778022357
 21
835.2209669346176
 31
0.0
  0
LINE
  5
2010
330
A
100
AcDbEntity
  8
03
  6
CONTINUOUS
100
AcDbLine
 10
421.3530778022357
 20
830.2209669346176
 30
0.0
 11
420.6030778022356
 21
830.2209669346176
 31
0.0
  0
LINE
  5
2011
330
A
100
AcDbEntity
  8
03
100
AcDbLine
 10
409.1030778022356
 20
705.2209669346174
 30
0.0
 11
408.3530778022357
 21
705.2209669346174
 31
0.0
  0
LINE
  5
2012
330
A
100
AcDbEntity
  8
03
  6
CONTINUOUS
100
AcDbLine
 10
408.3530778022357
 20
700.2209669346174
 30
0.0
 11
410.8530778022356
 21
700.2209669346174
 31
0.0
  0
LINE
  5
2014
330
A
100
AcDbEntity
  8
03
  6
CONTINUOUS
100
AcDbLine
 10
418.8530778022356
 20
700.2209669346174
 30
0.0
 11
421.3530778022357
 21
700.2209669346174
 31
0.0
  0
LINE
  5
2015
330
A
100
AcDbEntity
  8
03
  6
CONTINUOUS
100
AcDbLine
 10
494.6230778022536
 20
705.2209669346174
 30
0.0
 11
495.3730778022536
 21
705.2209669346174
 31
0.0
  0
LINE
  5
2016
330
A
100
AcDbEntity
  8
03
  6
CONTINUOUS
100
AcDbLine
 10
482.3730778022536
 20
700.2209669346174
 30
0.0
 11
484.8730778022536
 21
700.2209669346174
 31
0.0
  0
LINE
  5
2017
330
A
100
AcDbEntity
  8
03
  6
CONTINUOUS
100
AcDbLine
 10
492.8730778022536
 20
700.2209669346174
 30
0.0
 11
495.3730778022536
 21
700.2209669346174
 31
0.0
  0
LINE
  5
2018
330
A
100
AcDbEntity
  8
03
  6
CONTINUOUS
100
AcDbLine
 10
494.6230778022536
 20
830.2209669346176
 30
0.0
 11
495.3730778022537
 21
830.2209669346176
 31
0.0
  0
LINE
  5
2019
330
A
100
AcDbEntity
  8
03
  6
CONTINUOUS
100
AcDbLine
 10
482.3730778022536
 20
835.2209669346175
 30
0.0
 11
484.8730778022536
 21
835.2209669346175
 31
0.0
  0
LINE
  5
201A
330
A
100
AcDbEntity
  8
03
  6
CONTINUOUS
100
AcDbLine
 10
492.8730778022536
 20
835.2209669346175
 30
0.0
 11
495.3730778022536
 21
835.2209669346175
 31
0.0
  0
LINE
  5
201B
330
A
100
AcDbEntity
  8
03
  6
CONTINUOUS
100
AcDbLine
 10
407.3630778022452
 20
1040.092553658921
 30
0.0
 11
410.2630778022451
 21
1040.09255365892
 31
0.0
  0
LINE
  5
201C
330
A
100
AcDbEntity
  8
03
  6
CONTINUOUS
100
AcDbLine
 10
423.4630778022451
 20
1040.09255365892
 30
0.0
 11
426.3630778022451
 21
1040.092553658921
 31
0.0
  0
LINE
  5
201D
330
A
100
AcDbEntity
  8
06
  6
CONTINUOUS
100
AcDbLine
 10
426.3630778022451
 20
1061.092553658919
 30
0.0
 11
426.8630778022445
 21
1061.092553658919
 31
0.0
  0
LINE
  5
201E
330
A
100
AcDbEntity
  8
03
  6
CONTINUOUS
100
AcDbLine
 10
407.3630778022452
 20
1054.09255365892
 30
0.0
 11
410.8630778022451
 21
1054.09255365892
 31
0.0
  0
LINE
  5
201F
330
A
100
AcDbEntity
  8
03
  6
CONTINUOUS
100
AcDbLine
 10
422.8630778022451
 20
1054.09255365892
 30
0.0
 11
426.3630778022451
 21
1054.09255365892
 31
0.0
  0
LINE
  5
2020
330
A
100
AcDbEntity
  8
06
100
AcDbLine
 10
496.3630778022443
 20
1061.092553658919
 30
0.0
 11
496.8630778022448
 21
1061.092553658919
 31
0.0
  0
LINE
  5
2021
330
A
100
AcDbEntity
  8
03
  6
CONTINUOUS
100
AcDbLine
 10
477.3630778022443
 20
1054.09255365892
 30
0.0
 11
480.8630778022443
 21
1054.09255365892
 31
0.0
  0
LINE
  5
2022
330
A
100
AcDbEntity
  8
03
  6
CONTINUOUS
100
AcDbLine
 10
492.8630778022443
 20
1054.09255365892
 30
0.0
 11
496.3630778022443
 21
1054.09255365892
 31
0.0
  0
LINE
  5
2023
330
A
100
AcDbEntity
  8
03
  6
CONTINUOUS
100
AcDbLine
 10
477.3630778022443
 20
1040.092553658921
 30
0.0
 11
480.263077802244
 21
1040.09255365892
 31
0.0
  0
LINE
  5
2024
330
A
100
AcDbEntity
  8
03
  6
CONTINUOUS
100
AcDbLine
 10
493.4630778022442
 20
1040.09255365892
 30
0.0
 11
496.3630778022443
 21
1040.09255365892
 31
0.0
  0
LINE
  5
2025
330
A
100
AcDbEntity
  8
03
  6
CONTINUOUS
100
AcDbLine
 10
420.6030778022505
 20
1722.960449070262
 30
0.0
 11
421.3530778022503
 21
1722.960449070263
 31
0.0
  0
LINE
  5
2026
330
A
100
AcDbEntity
  8
03
  6
CONTINUOUS
100
AcDbLine
 10
408.3530778022503
 20
1727.960449070262
 30
0.0
 11
410.8530778022505
 21
1727.960449070262
 31
0.0
  0
LINE
  5
2027
330
A
100
AcDbEntity
  8
03
  6
CONTINUOUS
100
AcDbLine
 10
418.8530778022505
 20
1727.960449070262
 30
0.0
 11
421.3530778022503
 21
1727.960449070262
 31
0.0
  0
LINE
  5
2028
330
A
100
AcDbEntity
  8
03
  6
CONTINUOUS
100
AcDbLine
 10
420.6030778022505
 20
1597.960449070262
 30
0.0
 11
421.3530778022503
 21
1597.960449070263
 31
0.0
  0
LINE
  5
2029
330
A
100
AcDbEntity
  8
03
  6
CONTINUOUS
100
AcDbLine
 10
421.3530778022503
 20
1592.960449070262
 30
0.0
 11
418.8530778022505
 21
1592.960449070262
 31
0.0
  0
LINE
  5
202A
330
A
100
AcDbEntity
  8
03
  6
CONTINUOUS
100
AcDbLine
 10
410.8530778022505
 20
1592.960449070262
 30
0.0
 11
408.3530778022503
 21
1592.960449070262
 31
0.0
  0
LINE
  5
202B
330
A
100
AcDbEntity
  8
03
  6
CONTINUOUS
100
AcDbLine
 10
494.6230778022391
 20
1597.960449070263
 30
0.0
 11
495.3730778022389
 21
1597.960449070263
 31
0.0
  0
LINE
  5
202C
330
A
100
AcDbEntity
  8
03
  6
CONTINUOUS
100
AcDbLine
 10
495.3730778022389
 20
1592.960449070263
 30
0.0
 11
492.8730778022391
 21
1592.960449070263
 31
0.0
  0
LINE
  5
202D
330
A
100
AcDbEntity
  8
03
  6
CONTINUOUS
100
AcDbLine
 10
484.8730778022392
 20
1592.960449070263
 30
0.0
 11
482.3730778022391
 21
1592.960449070263
 31
0.0
  0
LINE
  5
202E
330
A
100
AcDbEntity
  8
03
  6
CONTINUOUS
100
AcDbLine
 10
494.6230778022391
 20
1722.960449070262
 30
0.0
 11
495.3730778022391
 21
1722.960449070263
 31
0.0
  0
LINE
  5
202F
330
A
100
AcDbEntity
  8
03
  6
CONTINUOUS
100
AcDbLine
 10
495.3730778022389
 20
1727.960449070262
 30
0.0
 11
492.8730778022391
 21
1727.960449070262
 31
0.0
  0
LINE
  5
2030
330
A
100
AcDbEntity
  8
03
  6
CONTINUOUS
100
AcDbLine
 10
484.8730778022392
 20
1727.960449070262
 30
0.0
 11
482.3730778022389
 21
1727.960449070262
 31
0.0
  0
LEADER
  5
2058
330
A
100
AcDbEntity
  8
HIKIDASI
  6
CONTINUOUS
100
AcDbLeader
  3
SUNPOU_1
 76
     2
 10
622.1506778322008
 20
1178.538179715422
 30
0.0
 10
657.9289177119654
 20
1178.538179715422
 30
0.0
1001
ACAD
1000
DSTYLE
1002
{
1070
     5
1000
OPEN30
1070
   342
1005
14A3
1002
}
1000
LEANOF
1010
0.0
1020
0.0
1030
0.0
1000
LEANOF
1010
0.0
1020
0.0
1030
0.0
  0
LEADER
  5
2059
330
A
100
AcDbEntity
  8
HIKIDASI
  6
CONTINUOUS
100
AcDbLeader
  3
SUNPOU_1
 76
     2
 10
1295.237107278575
 20
1178.661452676401
 30
0.0
 10
1332.563565762397
 20
1178.661452676401
 30
0.0
1001
ACAD
1000
DSTYLE
1002
{
1070
     5
1000
OPEN30
1070
   342
1005
14A3
1002
}
1000
LEANOF
1010
0.0
1020
0.0
1030
0.0
1000
LEANOF
1010
0.0
1020
0.0
1030
0.0
  0
MTEXT
  5
20D9
330
A
100
AcDbEntity
  8
MOJI
100
AcDbMText
 10
1094.999999999999
 20
102.0000000000001
 30
0.0
 40
24.5
 41
175.0
 71
     5
 72
     1
  1
図番１１－４
  7
0_80
1001
ACAD
1000
MTEXTBEGIN
1070
    73
1070
     1
1070
    44
1040
1.0
1070
    74
1070
     0
1000
MTEXTEND
1000
MTEXTBEGIN
1070
    73
1070
     1
1070
    44
1040
1.0
1070
    74
1070
     0
1000
MTEXTEND
  0
MTEXT
  5
20DA
330
A
100
AcDbEntity
  8
MOJI
100
AcDbMText
 10
1270.0
 20
102.0000000000001
 30
0.0
 40
22.74999999999999
 41
174.9999999999998
 71
     5
 72
     1
  1
ＤＤよこ断面図\PＦＢ配置図　　
  7
0_80
1001
ACAD
1000
MTEXTBEGIN
1070
    73
1070
     1
1070
    44
1040
1.0
1070
    74
1070
     0
1000
MTEXTEND
1000
MTEXTBEGIN
1070
    73
1070
     1
1070
    44
1040
1.0
1070
    74
1070
     0
1000
MTEXTEND
  0
POLYLINE
  5
20DB
330
A
100
AcDbEntity
  8
SAISEN
100
AcDb2dPolyline
 66
     1
 10
0.0
 20
0.0
 30
0.0
 70
     1
  0
VERTEX
  5
212F
330
20DB
100
AcDbEntity
  8
SAISEN
100
AcDbVertex
100
AcDb2dVertex
 10
132.4999999999998
 20
59.99999999999992
 30
0.0
  0
VERTEX
  5
2130
330
20DB
100
AcDbEntity
  8
SAISEN
100
AcDbVertex
100
AcDb2dVertex
 10
1357.5
 20
59.99999999999992
 30
0.0
  0
VERTEX
  5
2131
330
20DB
100
AcDbEntity
  8
SAISEN
100
AcDbVertex
100
AcDb2dVertex
 10
1357.5
 20
144.0000000000005
 30
0.0
  0
VERTEX
  5
2132
330
20DB
100
AcDbEntity
  8
SAISEN
100
AcDbVertex
100
AcDb2dVertex
 10
132.4999999999998
 20
144.0000000000005
 30
0.0
  0
SEQEND
  5
2133
330
20DB
100
AcDbEntity
  8
SAISEN
  0
MTEXT
  5
20DC
330
A
100
AcDbEntity
  8
MOJI
100
AcDbMText
 10
325.0
 20
102.0000000000003
 30
0.0
 40
24.5
 41
385.0
 71
     5
 72
     1
  1
折り戸納り
  7
0_8
1001
ACAD
1000
MTEXTBEGIN
1070
    73
1070
     1
1070
    44
1040
1.0
1070
    74
1070
     0
1000
MTEXTEND
1000
MTEXTBEGIN
1070
    73
1070
     1
1070
    44
1040
1.0
1070
    74
1070
     0
1000
MTEXTEND
  0
LINE
  5
20DD
330
A
100
AcDbEntity
  8
SAISEN
100
AcDbLine
 10
517.4999999999999
 20
144.0000000000003
 30
0.0
 11
517.4999999999999
 21
59.99999999999992
 31
0.0
  0
MTEXT
  5
20DE
330
A
100
AcDbEntity
  8
MOJI
100
AcDbMText
 10
657.5000000000001
 20
102.0000000000003
 30
0.0
 40
24.5
 41
280.0
 71
     5
 72
     1
  1
ＨＢ－ＤＤ－２
  7
0_8
1001
ACAD
1000
MTEXTBEGIN
1070
    73
1070
     1
1070
    44
1040
1.0
1070
    74
1070
     0
1000
MTEXTEND
1000
MTEXTBEGIN
1070
    73
1070
     1
1070
    44
1040
1.0
1070
    74
1070
     0
1000
MTEXTEND
  0
LINE
  5
20DF
330
A
100
AcDbEntity
  8
SAISEN
100
AcDbLine
 10
797.4999999999997
 20
144.0000000000003
 30
0.0
 11
797.4999999999997
 21
59.99999999999992
 31
0.0
  0
MTEXT
  5
20E0
330
A
100
AcDbEntity
  8
MOJI
100
AcDbMText
 10
902.5000000000105
 20
102.0000000000003
 30
0.0
 40
24.5
 41
210.0
 71
     5
 72
     1
  1
両折り戸
  7
0_8
1001
ACAD
1000
MTEXTBEGIN
1070
    73
1070
     1
1070
    44
1040
1.0
1070
    74
1070
     0
1000
MTEXTEND
1000
MTEXTBEGIN
1070
    73
1070
     1
1070
    44
1040
1.0
1070
    74
1070
     0
1000
MTEXTEND
  0
LINE
  5
20E1
330
A
100
AcDbEntity
  8
SAISEN
100
AcDbLine
 10
1007.5
 20
144.0000000000003
 30
0.0
 11
1007.5
 21
59.99999999999992
 31
0.0
  0
CIRCLE
  5
20EB
330
A
100
AcDbEntity
  8
SAISEN
100
AcDbCircle
 10
1378.841733274513
 20
173.9005924428106
 30
0.0
 40
17.5
  0
TEXT
  5
20EC
330
A
100
AcDbEntity
  8
MOJI
100
AcDbText
 10
1368.170866637256
 20
158.9502962214056
 30
0.0
 40
28.0
  1
Ｓ
 41
0.8
  7
0_8
 11
1368.170866637256
 21
186.9502962214056
 31
0.0
100
AcDbText
 73
     3
  0
VIEWPORT
  5
1CCA
102
{ACAD_XDICTIONARY
360
2119
102
}
330
B
100
AcDbEntity
 67
     1
  8
0
  6
CONTINUOUS
100
AcDbViewport
 10
693.1838099081623
 20
998.1337762993629
 30
0.0
 40
3780.866866501024
 41
2199.033918029785
 68
     1
 69
     1
1001
ACAD
1000
MVIEW
1002
{
1070
    16
1010
0.0
1020
0.0
1030
0.0
1010
0.0
1020
0.0
1030
1.0
1040
0.0
1040
2199.033918029785
1040
693.1838099081623
1040
998.1337762993629
1040
50.0
1040
0.0
1040
0.0
1070
     0
1070
   100
1070
     1
1070
     1
1070
     0
1070
     0
1070
     0
1070
     0
1040
0.0
1040
0.0
1040
0.0
1040
10.0
1040
10.0
1040
10.0
1040
10.0
1070
     0
1002
{
1002
}
1002
}
  0
VIEWPORT
  5
2103
102
{ACAD_XDICTIONARY
360
211F
102
}
330
B
100
AcDbEntity
 67
     1
  8
DEFPOINTS
  6
CONTINUOUS
100
AcDbViewport
 10
693.1838132460224
 20
998.1337729615027
 30
0.0
 40
1387.580803871155
 41
1996.249487876892
 68
     2
 69
     2
1001
ACAD
1000
MVIEW
1002
{
1070
    16
1010
0.0
1020
0.0
1030
0.0
1010
0.0
1020
0.0
1030
1.0
1040
0.0
1040
1996.249487876892
1040
745.0
1040
1050.0
1040
50.0
1040
0.0
1040
0.0
1070
     0
1070
   100
1070
     1
1070
     1
1070
     0
1070
     0
1070
     0
1070
     0
1040
0.0
1040
0.0
1040
0.0
1040
1.0
1040
1.0
1040
0.0
1040
0.0
1070
     0
1002
{
1002
}
1002
}
  0
ENDSEC
  0
SECTION
  2
OBJECTS
  0
DICTIONARY
  5
19
330
0
100
AcDbDictionary
  3
ACAD_COLOR
350
20BD
  3
ACAD_GROUP
350
1A
  3
ACAD_LAYOUT
350
1125
  3
ACAD_MATERIAL
350
20BC
  3
ACAD_MLINESTYLE
350
1B
  3
ACAD_PLOTSETTINGS
350
1126
  3
ACADDIM
350
17C8
  3
ASE_INDEX_DICTIONARY
350
20C4
1001
ACAD
1000
TREAT_AS_HARD
1070
     0
1000
TREAT_AS_HARD
1070
     0
  0
DICTIONARY
  5
14BF
330
2
100
AcDbDictionary
  3
ACAD_LAYERFILTERS
350
14C0
  3
ACAD_LAYERSTATES
350
1B23
1001
ACAD
1000
TREAT_AS_HARD
1070
     1
1000
TREAT_AS_HARD
1070
     1
  0
DICTIONARY
  5
206E
330
A
100
AcDbDictionary
  3
ACAD_LAYOUTSELFREF
350
2127
1001
ACAD
1000
TREAT_AS_HARD
1070
     1
  0
DICTIONARY
  5
2070
330
B
100
AcDbDictionary
  3
ACAD_LAYOUTSELFREF
350
2128
1001
ACAD
1000
TREAT_AS_HARD
1070
     1
  0
DICTIONARY
  5
2119
330
1CCA
100
AcDbDictionary
  3
ACAD_XREC_ROUNDTRIP
350
211A
1001
ACAD
1000
TREAT_AS_HARD
1070
     1
  0
DICTIONARY
  5
211F
330
2103
100
AcDbDictionary
  3
ACAD_XREC_ROUNDTRIP
350
2120
1001
ACAD
1000
TREAT_AS_HARD
1070
     1
  0
DICTIONARY
  5
20BD
102
{ACAD_REACTORS
330
19
102
}
330
19
100
AcDbDictionary
1001
ACAD
1000
TREAT_AS_HARD
1070
     0
  0
DICTIONARY
  5
1A
102
{ACAD_REACTORS
330
19
102
}
330
19
100
AcDbDictionary
  3
DAGROUP69D
350
69D
  3
DAGROUP6A1
350
6A1
1001
ACAD
1000
TREAT_AS_HARD
1070
     0
1000
TREAT_AS_HARD
1070
     0
  0
DICTIONARY
  5
1125
102
{ACAD_REACTORS
330
19
102
}
330
19
100
AcDbDictionary
1001
ACAD
1000
TREAT_AS_HARD
1070
     0
1000
TREAT_AS_HARD
1070
     0
  0
DICTIONARY
  5
20BC
102
{ACAD_REACTORS
330
19
102
}
330
19
100
AcDbDictionary
1001
ACAD
1000
TREAT_AS_HARD
1070
     0
  0
DICTIONARY
  5
1B
102
{ACAD_REACTORS
330
19
102
}
330
19
100
AcDbDictionary
  3
STANDARD
350
1C
1001
ACAD
1000
TREAT_AS_HARD
1070
     0
1000
TREAT_AS_HARD
1070
     0
  0
DICTIONARY
  5
1126
102
{ACAD_REACTORS
330
19
102
}
330
19
100
AcDbDictionary
1001
ACAD
1000
TREAT_AS_HARD
1070
     0
1000
TREAT_AS_HARD
1070
     0
  0
XRECORD
  5
17C8
102
{ACAD_REACTORS
330
19
102
}
330
19
100
AcDbXrecord
 90
   990106
  3

 60
     0
 61
     0
 62
     3
 63
     3
 64
     1
 65
     0
 66
     0
 67
     3
 68
     1
 69
     0
 70
     0
 71
     0
 72
     0
 40
0.0
170
     2
340
17E4
  0
DICTIONARY
  5
20C4
102
{ACAD_REACTORS
330
19
102
}
330
19
100
AcDbDictionary
  3
ASEBLOCKHIERARCHYINDEXRECORD
350
20C6
1001
DCO15
1040
1508677760.592999
1001
ACAD
1000
TREAT_AS_HARD
1070
     0
  0
DICTIONARY
  5
14C0
102
{ACAD_REACTORS
330
14BF
102
}
330
14BF
100
AcDbDictionary
  3
HIHYOJI
350
14C1
1001
ACAD
1000
TREAT_AS_HARD
1070
     1
1000
TREAT_AS_HARD
1070
     0
  0
DICTIONARY
  5
1B23
102
{ACAD_REACTORS
330
14BF
102
}
330
14BF
100
AcDbDictionary
1001
ACAD
1000
TREAT_AS_HARD
1070
     0
1000
TREAT_AS_HARD
1070
     0
  0
XRECORD
  5
2127
102
{ACAD_REACTORS
330
206E
102
}
330
206E
100
AcDbXrecord
340
A
  0
XRECORD
  5
2128
102
{ACAD_REACTORS
330
2070
102
}
330
2070
100
AcDbXrecord
340
B
  0
XRECORD
  5
211A
102
{ACAD_REACTORS
330
2119
102
}
330
2119
100
AcDbXrecord
102
SHADEPLOT
 70
     0
  0
XRECORD
  5
2120
102
{ACAD_REACTORS
330
211F
102
}
330
211F
100
AcDbXrecord
102
SHADEPLOT
 70
     0
  0
GROUP
  5
69D
102
{ACAD_REACTORS
330
1A
102
}
330
1A
100
AcDbGroup
300

 70
     0
 71
     1
  0
GROUP
  5
6A1
102
{ACAD_REACTORS
330
1A
102
}
330
1A
100
AcDbGroup
300

 70
     0
 71
     1
  0
MLINESTYLE
  5
1C
102
{ACAD_REACTORS
330
1B
102
}
330
1B
100
AcDbMlineStyle
  2
STANDARD
 70
     0
  3

 62
     0
 51
90.0
 52
90.0
 71
     2
 49
0.5
 62
   256
  6
BYLAYER
 49
-0.5
 62
   256
  6
BYLAYER
  0
XRECORD
  5
20C6
102
{ACAD_REACTORS
330
20C4
102
}
330
20C4
100
AcDbXrecord
330
14D6
330
14EB
330
1EBA
330
1EBB
330
1EB1
330
1EB2
330
1EA8
330
1EA7
330
1ECB
330
1ECC
330
1E71
330
1E72
330
1EE6
330
1EE7
330
1E7A
330
1E7B
330
1EDD
330
1EDE
330
1E83
330
1E84
330
1E8C
330
1E8D
330
1ED4
330
1ED5
330
1E95
330
1E96
330
1F1F
330
1F20
330
1F3E
330
1F3F
330
1F35
330
1F36
330
1F50
330
1F51
330
1F48
330
1F47
330
1F29
330
1F2A
330
1F58
330
1F59
330
1EF8
330
1EF9
330
1F89
330
1F8A
330
1F0A
330
1F0B
330
1F01
330
1F02
330
1F9B
330
1F9C
330
1FA4
330
1FA5
330
1F92
330
1F93
330
1FB9
330
1FBA
330
1FB0
330
1FB1
330
1FC1
330
1FC2
330
1EF0
330
1EF1
330
1F62
330
1F63
330
1F6D
330
1F6E
330
1F78
330
1F79
330
1F13
330
1F14
330
2007
330
2008
330
1FD7
330
1FD8
330
2038
330
2039
330
1FE2
330
1FE3
330
1FEA
330
1FEB
330
1FF5
330
1FF6
330
2000
330
1FFF
330
1F80
330
1F81
330
1E9F
330
1EA0
330
1EC3
330
1EC4
  0
XRECORD
  5
14C1
102
{ACAD_REACTORS
330
14C0
102
}
330
14C0
100
AcDbXrecord
  1
hihyoji
  1
08,09,*_h
  1
*
  1
*
 70
     0
  1
*
  1
*
  0
ENDSEC
  0
EOF
