  0
SECTION
  2
HEADER
  9
$ACADVER
  1
AC1012
  9
$DWGCODEPAGE
  3
dos932
  9
$INSBASE
 10
0.0
 20
0.0
 30
0.0
  9
$EXTMIN
 10
0.0
 20
0.0
 30
0.0
  9
$EXTMAX
 10
420.0
 20
594.0
 30
0.0
  9
$LIMMIN
 10
0.0
 20
0.0
  9
$LIMMAX
 10
420.0
 20
594.0
  9
$ORTHOMODE
 70
     1
  9
$REGENMODE
 70
     1
  9
$FILLMODE
 70
     1
  9
$QTEXTMODE
 70
     0
  9
$MIRRTEXT
 70
     1
  9
$DRAGMODE
 70
     2
  9
$LTSCALE
 40
1.0
  9
$OSMODE
 70
    37
  9
$ATTMODE
 70
     1
  9
$TEXTSIZE
 40
6.0
  9
$TRACEWID
 40
0.05
  9
$TEXTSTYLE
  7
STANDARD
  9
$CLAYER
  8
DEFPOINTS
  9
$CELTYPE
  6
BYLAYER
  9
$CECOLOR
 62
   256
  9
$CELTSCALE
 40
1.0
  9
$DELOBJ
 70
     1
  9
$DISPSILH
 70
     0
  9
$DIMSCALE
 40
2.0
  9
$DIMASZ
 40
2.5
  9
$DIMEXO
 40
1.5
  9
$DIMDLI
 40
0.0
  9
$DIMRND
 40
0.0
  9
$DIMDLE
 40
0.0
  9
$DIMEXE
 40
1.0
  9
$DIMTP
 40
0.0
  9
$DIMTM
 40
0.0
  9
$DIMTXT
 40
2.5
  9
$DIMCEN
 40
0.0
  9
$DIMTSZ
 40
0.0
  9
$DIMTOL
 70
     0
  9
$DIMLIM
 70
     0
  9
$DIMTIH
 70
     0
  9
$DIMTOH
 70
     0
  9
$DIMSE1
 70
     0
  9
$DIMSE2
 70
     0
  9
$DIMTAD
 70
     1
  9
$DIMZIN
 70
     8
  9
$DIMBLK
  1
OPEN30
  9
$DIMASO
 70
     1
  9
$DIMSHO
 70
     1
  9
$DIMPOST
  1

  9
$DIMAPOST
  1

  9
$DIMALT
 70
     0
  9
$DIMALTD
 70
     2
  9
$DIMALTF
 40
25.4
  9
$DIMLFAC
 40
1.0
  9
$DIMTOFL
 70
     1
  9
$DIMTVP
 40
0.0
  9
$DIMTIX
 70
     0
  9
$DIMSOXD
 70
     0
  9
$DIMSAH
 70
     0
  9
$DIMBLK1
  1

  9
$DIMBLK2
  1

  9
$DIMSTYLE
  2
SUNPOU_2
  9
$DIMCLRD
 70
   256
  9
$DIMCLRE
 70
   256
  9
$DIMCLRT
 70
   256
  9
$DIMTFAC
 40
1.0
  9
$DIMGAP
 40
1.0
  9
$DIMJUST
 70
     0
  9
$DIMSD1
 70
     0
  9
$DIMSD2
 70
     0
  9
$DIMTOLJ
 70
     1
  9
$DIMTZIN
 70
     0
  9
$DIMALTZ
 70
     0
  9
$DIMALTTZ
 70
     0
  9
$DIMFIT
 70
     3
  9
$DIMUPT
 70
     0
  9
$DIMUNIT
 70
     2
  9
$DIMDEC
 70
     1
  9
$DIMTDEC
 70
     1
  9
$DIMALTU
 70
     2
  9
$DIMALTTD
 70
     2
  9
$DIMTXSTY
  7
SUNPOU
  9
$DIMAUNIT
 70
     0
  9
$LUNITS
 70
     2
  9
$LUPREC
 70
     4
  9
$SKETCHINC
 40
0.1
  9
$FILLETRAD
 40
0.0
  9
$AUNITS
 70
     0
  9
$AUPREC
 70
     0
  9
$MENU
  1
acad
  9
$ELEVATION
 40
0.0
  9
$PELEVATION
 40
0.0
  9
$THICKNESS
 40
0.0
  9
$LIMCHECK
 70
     0
  9
$BLIPMODE
 70
     0
  9
$CHAMFERA
 40
0.0
  9
$CHAMFERB
 40
0.0
  9
$CHAMFERC
 40
0.0
  9
$CHAMFERD
 40
0.0
  9
$SKPOLY
 70
     0
  9
$TDCREATE
 40
2444972.375000000
  9
$TDUPDATE
 40
2453266.405353182
  9
$TDINDWG
 40
0.5208984491
  9
$TDUSRTIMER
 40
0.5208984491
  9
$USRTIMER
 70
     1
  9
$ANGBASE
 50
0.0
  9
$ANGDIR
 70
     0
  9
$PDMODE
 70
     0
  9
$PDSIZE
 40
1.0
  9
$PLINEWID
 40
0.0
  9
$COORDS
 70
     1
  9
$SPLFRAME
 70
     0
  9
$SPLINETYPE
 70
     6
  9
$SPLINESEGS
 70
     8
  9
$ATTDIA
 70
     0
  9
$ATTREQ
 70
     1
  9
$HANDLING
 70
-16383
  9
$HANDSEED
  5
1930
  9
$SURFTAB1
 70
     6
  9
$SURFTAB2
 70
     6
  9
$SURFTYPE
 70
     6
  9
$SURFU
 70
     6
  9
$SURFV
 70
     6
  9
$UCSNAME
  2

  9
$UCSORG
 10
0.0
 20
0.0
 30
0.0
  9
$UCSXDIR
 10
1.0
 20
0.0
 30
0.0
  9
$UCSYDIR
 10
0.0
 20
1.0
 30
0.0
  9
$PUCSNAME
  2

  9
$PUCSORG
 10
0.0
 20
0.0
 30
0.0
  9
$PUCSXDIR
 10
1.0
 20
0.0
 30
0.0
  9
$PUCSYDIR
 10
0.0
 20
1.0
 30
0.0
  9
$USERI1
 70
     0
  9
$USERI2
 70
     0
  9
$USERI3
 70
     0
  9
$USERI4
 70
     0
  9
$USERI5
 70
     0
  9
$USERR1
 40
0.0
  9
$USERR2
 40
0.0
  9
$USERR3
 40
0.0
  9
$USERR4
 40
0.0
  9
$USERR5
 40
0.0
  9
$WORLDVIEW
 70
     1
  9
$SHADEDGE
 70
     3
  9
$SHADEDIF
 70
    70
  9
$TILEMODE
 70
     1
  9
$MAXACTVP
 70
    16
  9
$PINSBASE
 10
0.0
 20
0.0
 30
0.0
  9
$PLIMCHECK
 70
     0
  9
$PEXTMIN
 10
-0.1933276983398855
 20
-0.0174202791267817
 30
-0.0015258207003583
  9
$PEXTMAX
 10
396.2949895136353
 20
570.3923158424973
 30
0.0000000349246037
  9
$PLIMMIN
 10
-11.94191342824454
 20
-11.76600219398141
  9
$PLIMMAX
 10
408.0435733360149
 20
582.1408996648768
  9
$UNITMODE
 70
     0
  9
$VISRETAIN
 70
     0
  9
$PLINEGEN
 70
     1
  9
$PSLTSCALE
 70
     0
  9
$TREEDEPTH
 70
  3020
  9
$PICKSTYLE
 70
     1
  9
$CMLSTYLE
  2
STANDARD
  9
$CMLJUST
 70
     0
  9
$CMLSCALE
 40
1.0
  9
$SAVEIMAGES
 70
     1
  0
ENDSEC
  0
SECTION
  2
CLASSES
  0
CLASS
  1
LWPOLYLINE
  2
AcDbPolyline
  3
AutoCAD 2000
 90
    32768
280
     0
281
     1
  0
CLASS
  1
IMAGE
  2
AcDbRasterImage
  3
ISM
 90
    32895
280
     0
281
     1
  0
CLASS
  1
OLE2FRAME
  2
AcDbOle2Frame
  3
AutoCAD 2000
 90
    32768
280
     0
281
     1
  0
CLASS
  1
HATCH
  2
AcDbHatch
  3
AutoCAD 2000
 90
    32768
280
     0
281
     1
  0
CLASS
  1
DICTIONARYVAR
  2
AcDbDictionaryVar
  3
AutoCAD 2000
 90
    32768
280
     0
281
     0
  0
CLASS
  1
RASTERVARIABLES
  2
AcDbRasterVariables
  3
ISM
 90
    32768
280
     0
281
     0
  0
CLASS
  1
IMAGEDEF
  2
AcDbRasterImageDef
  3
ISM
 90
    32768
280
     0
281
     0
  0
CLASS
  1
IMAGEDEF_REACTOR
  2
AcDbRasterImageDefReactor
  3
ISM
 90
    32769
280
     0
281
     0
  0
CLASS
  1
IDBUFFER
  2
AcDbIdBuffer
  3
AutoCAD 2000
 90
    32768
280
     0
281
     0
  0
CLASS
  1
SPATIAL_FILTER
  2
AcDbSpatialFilter
  3
AutoCAD 2000
 90
    32768
280
     0
281
     0
  0
CLASS
  1
XRECORD
  2
AcDbXrecord
  3
AutoCAD 2000
 90
    32768
280
     0
281
     0
  0
CLASS
  1
SORTENTSTABLE
  2
AcDbSortentsTable
  3
AutoCAD 2000
 90
    32768
280
     0
281
     0
  0
CLASS
  1
LAYER_INDEX
  2
AcDbLayerIndex
  3
AutoCAD 2000
 90
    32768
280
     0
281
     0
  0
CLASS
  1
SPATIAL_INDEX
  2
AcDbSpatialIndex
  3
AutoCAD 2000
 90
    32768
280
     0
281
     0
  0
CLASS
  1
OBJECT_PTR
  2
CAseDLPNTableRecord
  3
ASE-LPNTableRecord
 90
    32769
280
     0
281
     0
  0
CLASS
  1
ACDBDICTIONARYWDFLT
  2
AcDbDictionaryWithDefault
  3
AutoCAD 2000
 90
    32768
280
     0
281
     0
  0
CLASS
  1
ACDBPLACEHOLDER
  2
AcDbPlaceHolder
  3
AutoCAD 2000
 90
    32768
280
     0
281
     0
  0
CLASS
  1
LAYOUT
  2
AcDbLayout
  3
AutoCAD 2000
 90
    32768
280
     0
281
     0
  0
CLASS
  1
LONG_TRANSACTION
  2
AcDbLongTransaction
  3
AutoCAD 2000
 90
    32768
280
     0
281
     0
  0
CLASS
  1
LWPOLYLINE
  2
AcDbPolyline
  3
AutoCAD 2000
 90
    32768
280
     0
281
     1
  0
CLASS
  1
HATCH
  2
AcDbHatch
  3
AutoCAD 2000
 90
    32768
280
     0
281
     1
  0
CLASS
  1
XRECORD
  2
AcDbXrecord
  3
AutoCAD 2000
 90
    32768
280
     0
281
     0
  0
CLASS
  1
LONG_TRANSACTION
  2
AcDbLongTransaction
  3
AutoCAD 2000
 90
    32768
280
     0
281
     0
  0
CLASS
  1
LWPOLYLINE
  2
AcDbPolyline
  3
AutoCAD 2000
 90
    32768
280
     0
281
     1
  0
CLASS
  1
HATCH
  2
AcDbHatch
  3
AutoCAD 2000
 90
    32768
280
     0
281
     1
  0
CLASS
  1
XRECORD
  2
AcDbXrecord
  3
AutoCAD 2000
 90
    32768
280
     0
281
     0
  0
ENDSEC
  0
SECTION
  2
TABLES
  0
TABLE
  2
VPORT
  5
7
330
0
100
AcDbSymbolTable
 70
     2
  0
VPORT
  5
1915
330
7
100
AcDbSymbolTableRecord
100
AcDbViewportTableRecord
  2
*ACTIVE
 70
     0
 10
0.0
 20
0.0
 11
1.0
 21
1.0
 12
229.334943009211
 22
297.000001383014
 13
0.0
 23
0.0
 14
1.0
 24
1.0
 15
0.0
 25
0.0
 16
0.0
 26
0.0
 36
1.0
 17
0.0
 27
0.0
 37
0.0
 40
601.8719796980778
 41
1.780442804428044
 42
50.0
 43
0.0
 44
0.0
 50
0.0
 51
0.0
 71
     0
 72
   100
 73
     1
 74
     1
 75
     0
 76
     0
 77
     0
 78
     0
  0
ENDTAB
  0
TABLE
  2
LTYPE
  5
4
330
0
100
AcDbSymbolTable
 70
     4
  0
LTYPE
  5
11
330
4
100
AcDbSymbolTableRecord
100
AcDbLinetypeTableRecord
  2
BYBLOCK
 70
     0
  3

 72
    65
 73
     0
 40
0.0
  0
LTYPE
  5
12
330
4
100
AcDbSymbolTableRecord
100
AcDbLinetypeTableRecord
  2
BYLAYER
 70
     0
  3

 72
    65
 73
     0
 40
0.0
  0
LTYPE
  5
13
330
4
100
AcDbSymbolTableRecord
100
AcDbLinetypeTableRecord
  2
CONTINUOUS
 70
     0
  3
Solid line
 72
    65
 73
     0
 40
0.0
  0
LTYPE
  5
21
330
4
100
AcDbSymbolTableRecord
100
AcDbLinetypeTableRecord
  2
DASHED2
 70
     0
  3
CADPAC FUSION LINETYPE
 72
    65
 73
     2
 40
13.365
 49
8.91
 74
     0
 49
-4.455
 74
     0
  0
LTYPE
  5
6B7
330
4
100
AcDbSymbolTableRecord
100
AcDbLinetypeTableRecord
  2
CENTER2
 70
     0
  3
Center (.5x) ___ _ ___ _ ___ _ ___ _ ___ _ ___
 72
    65
 73
     4
 40
28.57499999999999
 49
19.05
 74
     0
 49
-3.174999999999998
 74
     0
 49
3.174999999999998
 74
     0
 49
-3.174999999999998
 74
     0
  0
LTYPE
  5
6BC
330
4
100
AcDbSymbolTableRecord
100
AcDbLinetypeTableRecord
  2
PHANTOM2
 70
     0
  3
Phantom (.5x) ___ _ _ ___ _ _ ___ _ _ ___ _ _
 72
    65
 73
     6
 40
31.75
 49
15.875
 74
     0
 49
-3.174999999999998
 74
     0
 49
3.174999999999998
 74
     0
 49
-3.174999999999998
 74
     0
 49
3.174999999999998
 74
     0
 49
-3.174999999999998
 74
     0
  0
ENDTAB
  0
TABLE
  2
LAYER
  5
2
102
{ACAD_XDICTIONARY
360
164C
102
}
330
0
100
AcDbSymbolTable
 70
    13
  0
LAYER
  5
14
330
2
100
AcDbSymbolTableRecord
100
AcDbLayerTableRecord
  2
0
 70
     0
 62
     7
  6
CONTINUOUS
  0
LAYER
  5
6AE
330
2
100
AcDbSymbolTableRecord
100
AcDbLayerTableRecord
  2
DEFPOINTS
 70
     0
 62
     7
  6
CONTINUOUS
  0
LAYER
  5
6B0
330
2
100
AcDbSymbolTableRecord
100
AcDbLayerTableRecord
  2
02
 70
     0
 62
     2
  6
CONTINUOUS
  0
LAYER
  5
6B1
330
2
100
AcDbSymbolTableRecord
100
AcDbLayerTableRecord
  2
03
 70
     0
 62
     3
  6
CONTINUOUS
  0
LAYER
  5
6B2
330
2
100
AcDbSymbolTableRecord
100
AcDbLayerTableRecord
  2
04
 70
     0
 62
     4
  6
CONTINUOUS
  0
LAYER
  5
6B4
330
2
100
AcDbSymbolTableRecord
100
AcDbLayerTableRecord
  2
06
 70
     0
 62
     6
  6
CONTINUOUS
  0
LAYER
  5
6B6
330
2
100
AcDbSymbolTableRecord
100
AcDbLayerTableRecord
  2
CHUSIN
 70
     0
 62
     6
  6
CENTER2
  0
LAYER
  5
6B8
330
2
100
AcDbSymbolTableRecord
100
AcDbLayerTableRecord
  2
HIKIDASI
 70
     0
 62
     6
  6
CONTINUOUS
  0
LAYER
  5
6B9
330
2
100
AcDbSymbolTableRecord
100
AcDbLayerTableRecord
  2
KAKURE
 70
     0
 62
     6
  6
DASHED2
  0
LAYER
  5
6BA
330
2
100
AcDbSymbolTableRecord
100
AcDbLayerTableRecord
  2
MOJI
 70
     0
 62
     3
  6
CONTINUOUS
  0
LAYER
  5
6BB
330
2
100
AcDbSymbolTableRecord
100
AcDbLayerTableRecord
  2
SOUZOU
 70
     0
 62
     6
  6
PHANTOM2
  0
LAYER
  5
6BD
330
2
100
AcDbSymbolTableRecord
100
AcDbLayerTableRecord
  2
SUNPOU
 70
     0
 62
     6
  6
CONTINUOUS
  0
LAYER
  5
174C
330
2
100
AcDbSymbolTableRecord
100
AcDbLayerTableRecord
  2
SAISEN
 70
     0
 62
     3
  6
CONTINUOUS
  0
ENDTAB
  0
TABLE
  2
STYLE
  5
3
330
0
100
AcDbSymbolTable
 70
     4
  0
STYLE
  5
17
330
3
100
AcDbSymbolTableRecord
100
AcDbTextStyleTableRecord
  2
STANDARD
 70
     0
 40
0.0
 41
0.8
 50
0.0
 71
     0
 42
6.0
  3
txt.shx
  4
bigfont.shx
  0
STYLE
  5
6BF
330
3
100
AcDbSymbolTableRecord
100
AcDbTextStyleTableRecord
  2
SUNPOU
 70
     0
 40
0.0
 41
0.8
 50
0.0
 71
     0
 42
0.2
  3
txt.shx
  4
extfont.shx
  0
STYLE
  5
6C7
330
3
100
AcDbSymbolTableRecord
100
AcDbTextStyleTableRecord
  2
0_8
 70
     0
 40
0.0
 41
0.8
 50
0.0
 71
     0
 42
2.5
  3
txt.shx
  4
extfont.shx
  0
STYLE
  5
18B8
330
3
100
AcDbSymbolTableRecord
100
AcDbTextStyleTableRecord
  2
0_80
 70
     0
 40
0.0
 41
0.8
 50
0.0
 71
     0
 42
7.0
  3
txt.shx
  4
extfont.shx
  0
ENDTAB
  0
TABLE
  2
VIEW
  5
5
330
0
100
AcDbSymbolTable
 70
     1
  0
VIEW
  5
136
330
5
100
AcDbSymbolTableRecord
100
AcDbViewTableRecord
  2
QQQQ
 70
     0
 40
601.5127013259817
 10
-4.397066378261442
 20
-6.548141890207034
 41
416.3575166959579
 11
0.0
 21
0.0
 31
1.0
 12
100.0
 22
100.0
 32
0.0
 42
50.0
 43
0.0
 44
0.0
 50
0.0
 71
     0
  0
ENDTAB
  0
TABLE
  2
UCS
  5
6
330
0
100
AcDbSymbolTable
 70
     0
  0
ENDTAB
  0
TABLE
  2
APPID
  5
8
330
0
100
AcDbSymbolTable
 70
     3
  0
APPID
  5
16
330
8
100
AcDbSymbolTableRecord
100
AcDbRegAppTableRecord
  2
ACAD
 70
     0
  0
APPID
  5
1871
330
8
100
AcDbSymbolTableRecord
100
AcDbRegAppTableRecord
  2
CONTENTBLOCKICON
 70
     0
  0
APPID
  5
18B5
330
8
100
AcDbSymbolTableRecord
100
AcDbRegAppTableRecord
  2
DCO15
 70
     0
  0
ENDTAB
  0
TABLE
  2
DIMSTYLE
  5
9
330
0
100
AcDbSymbolTable
 70
     3
  0
DIMSTYLE
105
18
330
9
100
AcDbSymbolTableRecord
100
AcDbDimStyleTableRecord
  2
STANDARD
 70
     0
  3

  4

  5

  6

  7

 40
1.0
 41
0.18
 42
0.0625
 43
0.38
 44
0.18
 45
0.0
 46
0.0
 47
0.0
 48
0.0
140
0.18
141
0.09
142
0.0
143
25.4
144
1.0
145
0.0
146
1.0
147
0.09
 71
     0
 72
     0
 73
     1
 74
     1
 75
     0
 76
     0
 77
     0
 78
     0
170
     0
171
     2
172
     0
173
     0
174
     0
175
     0
176
     0
177
     0
178
     0
270
     2
271
     4
272
     4
273
     2
274
     2
340
17
275
     0
280
     0
281
     0
282
     0
283
     1
284
     0
285
     0
286
     0
287
     3
288
     0
  0
DIMSTYLE
105
6BE
102
{ACAD_REACTORS
330
717
330
724
330
731
330
740
330
74D
330
75A
330
770
330
77D
330
78C
330
7B1
330
7C7
330
7F7
330
806
330
813
330
822
330
82F
330
83E
330
84B
330
85A
330
867
330
876
330
885
330
892
330
8A1
330
8AE
330
8BB
330
8CA
330
8D7
330
8F3
330
900
330
90D
330
91A
330
929
330
936
330
943
330
950
330
95F
330
97E
330
A88
330
AC6
330
702
330
705
330
707
330
708
330
70A
330
70C
330
70E
330
710
330
713
330
715
330
12E6
330
17C0
330
17CF
330
1839
102
}
330
9
100
AcDbSymbolTableRecord
100
AcDbDimStyleTableRecord
  2
SUNPOU_2_8
 70
     0
  3

  4

  5
OPEN30
  6

  7

 40
2.0
 41
2.5
 42
1.5
 43
0.0
 44
1.0
 45
0.0
 46
0.0
 47
0.0
 48
0.0
140
2.5
141
0.0
142
0.0
143
25.4
144
1.0
145
0.0
146
1.0
147
1.0
 71
     0
 72
     0
 73
     0
 74
     0
 75
     0
 76
     0
 77
     1
 78
     8
170
     0
171
     2
172
     1
173
     0
174
     0
175
     0
176
   256
177
   256
178
     6
270
     2
271
     1
272
     1
273
     2
274
     2
340
6BF
275
     0
280
     0
281
     0
282
     0
283
     1
284
     0
285
     0
286
     0
287
     3
288
     0
  0
DIMSTYLE
105
18D2
330
9
100
AcDbSymbolTableRecord
100
AcDbDimStyleTableRecord
  2
SUNPOU_2
 70
     0
  3

  4

  5
OPEN30
  6

  7

 40
2.0
 41
2.5
 42
1.5
 43
0.0
 44
1.0
 45
0.0
 46
0.0
 47
0.0
 48
0.0
140
2.5
141
0.0
142
0.0
143
25.4
144
1.0
145
0.0
146
1.0
147
1.0
 71
     0
 72
     0
 73
     0
 74
     0
 75
     0
 76
     0
 77
     1
 78
     8
170
     0
171
     2
172
     1
173
     0
174
     0
175
     0
176
   256
177
   256
178
   256
270
     2
271
     1
272
     1
273
     2
274
     2
340
6BF
275
     0
280
     0
281
     0
282
     0
283
     1
284
     0
285
     0
286
     0
287
     3
288
     0
  0
ENDTAB
  0
TABLE
  2
BLOCK_RECORD
  5
1
330
0
100
AcDbSymbolTable
 70
    47
  0
BLOCK_RECORD
  5
A
102
{ACAD_XDICTIONARY
360
1868
102
}
330
1
100
AcDbSymbolTableRecord
100
AcDbBlockTableRecord
  2
*MODEL_SPACE
  0
BLOCK_RECORD
  5
B
102
{ACAD_XDICTIONARY
360
186A
102
}
330
1
100
AcDbSymbolTableRecord
100
AcDbBlockTableRecord
  2
*PAPER_SPACE
  0
BLOCK_RECORD
  5
6C0
330
1
100
AcDbSymbolTableRecord
100
AcDbBlockTableRecord
  2
_OPEN30
1001
CONTENTBLOCKICON
1071
        0
1004
2800000020000000200000000100080000000000000400000000000000000000000000000000000000000000000080000080000000808000800000008000800080800000C0C0C000C0DCC000F0CAA6000020400000206000002080000020A0000020C0000020E00000400000004020000040400000406000004080000040A0
1004
000040C0000040E00000600000006020000060400000606000006080000060A0000060C0000060E00000800000008020000080400000806000008080000080A0000080C0000080E00000A0000000A0200000A0400000A0600000A0800000A0A00000A0C00000A0E00000C0000000C0200000C0400000C0600000C0800000C0
1004
A00000C0C00000C0E00000E0000000E0200000E0400000E0600000E0800000E0A00000E0C00000E0E00040000000400020004000400040006000400080004000A0004000C0004000E00040200000402020004020400040206000402080004020A0004020C0004020E000404000004040200040404000404060004040800040
1004
40A0004040C0004040E00040600000406020004060400040606000406080004060A0004060C0004060E00040800000408020004080400040806000408080004080A0004080C0004080E00040A0000040A0200040A0400040A0600040A0800040A0A00040A0C00040A0E00040C0000040C0200040C0400040C0600040C08000
1004
40C0A00040C0C00040C0E00040E0000040E0200040E0400040E0600040E0800040E0A00040E0C00040E0E00080000000800020008000400080006000800080008000A0008000C0008000E00080200000802020008020400080206000802080008020A0008020C0008020E00080400000804020008040400080406000804080
1004
008040A0008040C0008040E00080600000806020008060400080606000806080008060A0008060C0008060E00080800000808020008080400080806000808080008080A0008080C0008080E00080A0000080A0200080A0400080A0600080A0800080A0A00080A0C00080A0E00080C0000080C0200080C0400080C0600080C0
1004
800080C0A00080C0C00080C0E00080E0000080E0200080E0400080E0600080E0800080E0A00080E0C00080E0E000C0000000C0002000C0004000C0006000C0008000C000A000C000C000C000E000C0200000C0202000C0204000C0206000C0208000C020A000C020C000C020E000C0400000C0402000C0404000C0406000C0
1004
408000C040A000C040C000C040E000C0600000C0602000C0604000C0606000C0608000C060A000C060C000C060E000C0800000C0802000C0804000C0806000C0808000C080A000C080C000C080E000C0A00000C0A02000C0A04000C0A06000C0A08000C0A0A000C0A0C000C0A0E000C0C00000C0C02000C0C04000C0C06000
1004
C0C08000C0C0A000F0FBFF00A4A0A000808080000000FF0000FF000000FFFF00FF000000FF00FF00FFFF0000FFFFFF0000000000000000000000000000000000000000000000000000000000000000000000000000000000000000000000000000000000000000000000000000000000000000000000000000000000000000
1004
00000000000000000000000000000000000000000000000000000000000000000000000000000000000000000000000000000000000000000000000000000000000000000000000000000000000000000000000000000000000000000000000000000000000000000000000000000000000000000000000000000000000000
1004
000000000000000000000000000000000000000000000000000000000000000000000000000000000000000000000000000000FFFF0000000000000000000000000000000000000000000000000000000000000000FFFFFFFF0000000000000000000000000000000000000000000000000000000000000000FFFFFFFF0000
1004
000000000000000000000000000000000000000000000000000000000000FFFFFF0000000000000000000000000000000000000000000000000000000000000000FFFFFFFF0000000000000000000000000000000000000000000000000000000000000000FFFFFF0000000000000000000000000000000000000000000000
1004
000000000000000000FFFFFFFF0000000000000000000000000000000000000000000000000000000000000000FFFFFFFF00000000FFFFFFFFFFFFFFFFFFFFFFFFFFFFFFFFFFFFFFFFFFFFFFFFFFFFFFFFFFFF00000000000000000000000000000000000000000000000000FFFFFFFF000000000000000000000000000000
1004
000000000000000000FFFFFFFF000000000000000000000000000000000000000000000000FFFFFFFF000000000000000000000000000000000000000000000000FFFFFFFF000000000000000000000000000000000000000000000000FFFFFFFF000000000000000000000000000000000000000000000000FFFFFFFF0000
1004
0000000000000000000000000000000000000000000000FFFFFF0000000000000000000000000000000000000000000000000000000000000000000000000000000000000000000000000000000000000000000000000000000000000000000000000000000000000000000000000000000000000000000000000000000000
1004
00000000000000000000000000000000000000000000000000000000000000000000000000000000000000000000000000000000000000000000000000000000000000000000000000000000000000000000000000000000000000000000000000000000000000000000000000000000000000000000000000000000000000
1004
0000000000000000000000000000000000000000000000000000000000000000000000000000000000000000000000000000000000000000
  0
BLOCK_RECORD
  5
718
330
1
100
AcDbSymbolTableRecord
100
AcDbBlockTableRecord
  2
*D1
  0
BLOCK_RECORD
  5
725
330
1
100
AcDbSymbolTableRecord
100
AcDbBlockTableRecord
  2
*D2
  0
BLOCK_RECORD
  5
732
330
1
100
AcDbSymbolTableRecord
100
AcDbBlockTableRecord
  2
*D3
  0
BLOCK_RECORD
  5
741
330
1
100
AcDbSymbolTableRecord
100
AcDbBlockTableRecord
  2
*D4
  0
BLOCK_RECORD
  5
74E
330
1
100
AcDbSymbolTableRecord
100
AcDbBlockTableRecord
  2
*D5
  0
BLOCK_RECORD
  5
75B
330
1
100
AcDbSymbolTableRecord
100
AcDbBlockTableRecord
  2
*D6
  0
BLOCK_RECORD
  5
771
330
1
100
AcDbSymbolTableRecord
100
AcDbBlockTableRecord
  2
*D7
  0
BLOCK_RECORD
  5
77E
330
1
100
AcDbSymbolTableRecord
100
AcDbBlockTableRecord
  2
*D8
  0
BLOCK_RECORD
  5
78D
330
1
100
AcDbSymbolTableRecord
100
AcDbBlockTableRecord
  2
*D9
  0
BLOCK_RECORD
  5
7B2
330
1
100
AcDbSymbolTableRecord
100
AcDbBlockTableRecord
  2
*D10
  0
BLOCK_RECORD
  5
7C8
330
1
100
AcDbSymbolTableRecord
100
AcDbBlockTableRecord
  2
*D11
  0
BLOCK_RECORD
  5
7F8
330
1
100
AcDbSymbolTableRecord
100
AcDbBlockTableRecord
  2
*D12
  0
BLOCK_RECORD
  5
807
330
1
100
AcDbSymbolTableRecord
100
AcDbBlockTableRecord
  2
*D13
  0
BLOCK_RECORD
  5
814
330
1
100
AcDbSymbolTableRecord
100
AcDbBlockTableRecord
  2
*D14
  0
BLOCK_RECORD
  5
823
330
1
100
AcDbSymbolTableRecord
100
AcDbBlockTableRecord
  2
*D15
  0
BLOCK_RECORD
  5
830
330
1
100
AcDbSymbolTableRecord
100
AcDbBlockTableRecord
  2
*D16
  0
BLOCK_RECORD
  5
83F
330
1
100
AcDbSymbolTableRecord
100
AcDbBlockTableRecord
  2
*D17
  0
BLOCK_RECORD
  5
84C
330
1
100
AcDbSymbolTableRecord
100
AcDbBlockTableRecord
  2
*D18
  0
BLOCK_RECORD
  5
85B
330
1
100
AcDbSymbolTableRecord
100
AcDbBlockTableRecord
  2
*D19
  0
BLOCK_RECORD
  5
868
330
1
100
AcDbSymbolTableRecord
100
AcDbBlockTableRecord
  2
*D20
  0
BLOCK_RECORD
  5
877
330
1
100
AcDbSymbolTableRecord
100
AcDbBlockTableRecord
  2
*D21
  0
BLOCK_RECORD
  5
886
330
1
100
AcDbSymbolTableRecord
100
AcDbBlockTableRecord
  2
*D22
  0
BLOCK_RECORD
  5
893
330
1
100
AcDbSymbolTableRecord
100
AcDbBlockTableRecord
  2
*D23
  0
BLOCK_RECORD
  5
8A2
330
1
100
AcDbSymbolTableRecord
100
AcDbBlockTableRecord
  2
*D24
  0
BLOCK_RECORD
  5
8AF
330
1
100
AcDbSymbolTableRecord
100
AcDbBlockTableRecord
  2
*D25
  0
BLOCK_RECORD
  5
8BC
330
1
100
AcDbSymbolTableRecord
100
AcDbBlockTableRecord
  2
*D26
  0
BLOCK_RECORD
  5
8CB
330
1
100
AcDbSymbolTableRecord
100
AcDbBlockTableRecord
  2
*D27
  0
BLOCK_RECORD
  5
8D8
330
1
100
AcDbSymbolTableRecord
100
AcDbBlockTableRecord
  2
*D28
  0
BLOCK_RECORD
  5
8F4
330
1
100
AcDbSymbolTableRecord
100
AcDbBlockTableRecord
  2
*D29
  0
BLOCK_RECORD
  5
901
330
1
100
AcDbSymbolTableRecord
100
AcDbBlockTableRecord
  2
*D30
  0
BLOCK_RECORD
  5
90E
330
1
100
AcDbSymbolTableRecord
100
AcDbBlockTableRecord
  2
*D31
  0
BLOCK_RECORD
  5
91B
330
1
100
AcDbSymbolTableRecord
100
AcDbBlockTableRecord
  2
*D32
  0
BLOCK_RECORD
  5
92A
330
1
100
AcDbSymbolTableRecord
100
AcDbBlockTableRecord
  2
*D33
  0
BLOCK_RECORD
  5
937
330
1
100
AcDbSymbolTableRecord
100
AcDbBlockTableRecord
  2
*D34
  0
BLOCK_RECORD
  5
944
330
1
100
AcDbSymbolTableRecord
100
AcDbBlockTableRecord
  2
*D35
  0
BLOCK_RECORD
  5
951
330
1
100
AcDbSymbolTableRecord
100
AcDbBlockTableRecord
  2
*D36
  0
BLOCK_RECORD
  5
960
330
1
100
AcDbSymbolTableRecord
100
AcDbBlockTableRecord
  2
*D37
  0
BLOCK_RECORD
  5
97F
330
1
100
AcDbSymbolTableRecord
100
AcDbBlockTableRecord
  2
*D38
  0
BLOCK_RECORD
  5
A89
330
1
100
AcDbSymbolTableRecord
100
AcDbBlockTableRecord
  2
*D39
  0
BLOCK_RECORD
  5
AC7
330
1
100
AcDbSymbolTableRecord
100
AcDbBlockTableRecord
  2
*D40
  0
BLOCK_RECORD
  5
1032
330
1
100
AcDbSymbolTableRecord
100
AcDbBlockTableRecord
  2
_DOTSMALL
  0
BLOCK_RECORD
  5
12E7
330
1
100
AcDbSymbolTableRecord
100
AcDbBlockTableRecord
  2
*D42
  0
BLOCK_RECORD
  5
1704
330
1
100
AcDbSymbolTableRecord
100
AcDbBlockTableRecord
  2
_NONE
  0
BLOCK_RECORD
  5
17C1
330
1
100
AcDbSymbolTableRecord
100
AcDbBlockTableRecord
  2
*D44
  0
BLOCK_RECORD
  5
17D0
330
1
100
AcDbSymbolTableRecord
100
AcDbBlockTableRecord
  2
*D45
  0
BLOCK_RECORD
  5
183A
330
1
100
AcDbSymbolTableRecord
100
AcDbBlockTableRecord
  2
*D46
  0
ENDTAB
  0
ENDSEC
  0
SECTION
  2
BLOCKS
  0
BLOCK
  5
D
330
A
100
AcDbEntity
  8
0
100
AcDbBlockBegin
  2
*MODEL_SPACE
 70
     0
 10
0.0
 20
0.0
 30
0.0
  3
*MODEL_SPACE
  1

  0
ENDBLK
  5
E
330
A
100
AcDbEntity
  8
0
100
AcDbBlockEnd
  0
BLOCK
  5
F
330
B
100
AcDbEntity
 67
     1
  8
0
100
AcDbBlockBegin
  2
*PAPER_SPACE
 70
     0
 10
0.0
 20
0.0
 30
0.0
  3
*PAPER_SPACE
  1

  0
ENDBLK
  5
10
330
B
100
AcDbEntity
 67
     1
  8
0
100
AcDbBlockEnd
  0
BLOCK
  5
6C4
330
6C0
100
AcDbEntity
  8
0
100
AcDbBlockBegin
  2
_OPEN30
 70
     0
 10
0.0
 20
0.0
 30
0.0
  3
_OPEN30
  1

  0
LINE
  5
6C1
330
6C0
100
AcDbEntity
  8
0
  6
BYBLOCK
 62
     0
100
AcDbLine
 10
-1.0
 20
0.26794919
 30
0.0
 11
0.0
 21
0.0
 31
0.0
  0
LINE
  5
6C2
330
6C0
100
AcDbEntity
  8
0
  6
BYBLOCK
 62
     0
100
AcDbLine
 10
0.0
 20
0.0
 30
0.0
 11
-1.0
 21
-0.26794919
 31
0.0
  0
LINE
  5
6C3
330
6C0
100
AcDbEntity
  8
0
  6
BYBLOCK
 62
     0
100
AcDbLine
 10
0.0
 20
0.0
 30
0.0
 11
-1.0
 21
0.0
 31
0.0
  0
ENDBLK
  5
6C5
330
6C0
100
AcDbEntity
  8
0
100
AcDbBlockEnd
  0
BLOCK
  5
722
330
718
100
AcDbEntity
  8
0
100
AcDbBlockBegin
  2
*D1
 70
     1
 10
0.0
 20
0.0
 30
0.0
  3
*D1
  1

  0
LINE
  5
14DC
330
718
100
AcDbEntity
  8
SUNPOU
100
AcDbLine
 10
126.2915047374587
 20
559.629551017477
 30
0.0
 11
126.2915047374587
 21
564.7258347978911
 31
0.0
  0
LINE
  5
14DD
330
718
100
AcDbEntity
  8
SUNPOU
100
AcDbLine
 10
316.2915047374588
 20
559.629551017477
 30
0.0
 11
316.2915047374588
 21
564.7258347978911
 31
0.0
  0
LINE
  5
14DE
330
718
100
AcDbEntity
  8
SUNPOU
100
AcDbLine
 10
131.2915047374586
 20
562.7258347978911
 30
0.0
 11
311.2915047374588
 21
562.7258347978911
 31
0.0
  0
INSERT
  5
14DF
330
718
100
AcDbEntity
  8
SUNPOU
100
AcDbBlockReference
  2
_OPEN30
 10
126.2915047374587
 20
562.7258347978911
 30
0.0
 41
5.0
 42
5.0
 43
5.0
 50
180.0
  0
INSERT
  5
14E0
330
718
100
AcDbEntity
  8
SUNPOU
100
AcDbBlockReference
  2
_OPEN30
 10
316.2915047374588
 20
562.7258347978911
 30
0.0
 41
5.0
 42
5.0
 43
5.0
  0
MTEXT
  5
14E1
330
718
100
AcDbEntity
  8
SUNPOU
 62
     6
100
AcDbMText
 10
221.2915047374587
 20
567.2258347978911
 30
0.0
 40
5.0
 41
0.0
 71
     5
 72
     1
  1
\A1;190
  7
SUNPOU
1001
ACAD
1000
MTEXTBEGIN
1070
    73
1070
     1
1070
    44
1040
1.0
1070
    74
1070
     0
1000
MTEXTEND
1000
MTEXTBEGIN
1070
    73
1070
     1
1070
    44
1040
1.0
1070
    74
1070
     0
1000
MTEXTEND
  0
POINT
  5
14E2
330
718
100
AcDbEntity
  8
DEFPOINTS
 62
     0
100
AcDbPoint
 10
126.2915047374587
 20
556.6295510174771
 30
0.0
  0
POINT
  5
14E3
330
718
100
AcDbEntity
  8
DEFPOINTS
 62
     0
100
AcDbPoint
 10
316.2915047374588
 20
556.6295510174771
 30
0.0
  0
POINT
  5
14E4
330
718
100
AcDbEntity
  8
DEFPOINTS
 62
     0
100
AcDbPoint
 10
316.2915047374588
 20
562.7258347978911
 30
0.0
  0
ENDBLK
  5
723
330
718
100
AcDbEntity
  8
0
100
AcDbBlockEnd
  0
BLOCK
  5
72F
330
725
100
AcDbEntity
  8
0
100
AcDbBlockBegin
  2
*D2
 70
     1
 10
0.0
 20
0.0
 30
0.0
  3
*D2
  1

  0
LINE
  5
14E5
330
725
100
AcDbEntity
  8
SUNPOU
100
AcDbLine
 10
131.2915047374586
 20
519.379551017477
 30
0.0
 11
131.2915047374586
 21
549.6782155602857
 31
0.0
  0
LINE
  5
14E6
330
725
100
AcDbEntity
  8
SUNPOU
100
AcDbLine
 10
311.2915047374588
 20
519.379551017477
 30
0.0
 11
311.2915047374588
 21
549.6782155602857
 31
0.0
  0
LINE
  5
14E7
330
725
100
AcDbEntity
  8
SUNPOU
100
AcDbLine
 10
136.2915047374587
 20
547.6782155602855
 30
0.0
 11
306.2915047374588
 21
547.6782155602855
 31
0.0
  0
INSERT
  5
14E8
330
725
100
AcDbEntity
  8
SUNPOU
100
AcDbBlockReference
  2
_OPEN30
 10
131.2915047374586
 20
547.6782155602855
 30
0.0
 41
5.0
 42
5.0
 43
5.0
 50
180.0
  0
INSERT
  5
14E9
330
725
100
AcDbEntity
  8
SUNPOU
100
AcDbBlockReference
  2
_OPEN30
 10
311.2915047374588
 20
547.6782155602855
 30
0.0
 41
5.0
 42
5.0
 43
5.0
  0
MTEXT
  5
14EA
330
725
100
AcDbEntity
  8
SUNPOU
 62
     6
100
AcDbMText
 10
221.2915047374587
 20
552.1782155602855
 30
0.0
 40
5.0
 41
0.0
 71
     5
 72
     1
  1
\A1;180
  7
SUNPOU
1001
ACAD
1000
MTEXTBEGIN
1070
    73
1070
     1
1070
    44
1040
1.0
1070
    74
1070
     0
1000
MTEXTEND
1000
MTEXTBEGIN
1070
    73
1070
     1
1070
    44
1040
1.0
1070
    74
1070
     0
1000
MTEXTEND
  0
POINT
  5
14EB
330
725
100
AcDbEntity
  8
DEFPOINTS
 62
     0
100
AcDbPoint
 10
131.2915047374586
 20
516.3795510174771
 30
0.0
  0
POINT
  5
14EC
330
725
100
AcDbEntity
  8
DEFPOINTS
 62
     0
100
AcDbPoint
 10
311.2915047374588
 20
516.3795510174771
 30
0.0
  0
POINT
  5
14ED
330
725
100
AcDbEntity
  8
DEFPOINTS
 62
     0
100
AcDbPoint
 10
311.2915047374588
 20
547.6782155602855
 30
0.0
  0
ENDBLK
  5
730
330
725
100
AcDbEntity
  8
0
100
AcDbBlockEnd
  0
BLOCK
  5
73E
330
732
100
AcDbEntity
  8
0
100
AcDbBlockBegin
  2
*D3
 70
     1
 10
0.0
 20
0.0
 30
0.0
  3
*D3
  1

  0
LINE
  5
157A
330
732
100
AcDbEntity
  8
SUNPOU
100
AcDbLine
 10
146.0415047374586
 20
535.1295510174771
 30
0.0
 11
98.08958129609074
 21
535.1295510174771
 31
0.0
  0
LINE
  5
157B
330
732
100
AcDbEntity
  8
SUNPOU
100
AcDbLine
 10
129.0415047374587
 20
517.129551017477
 30
0.0
 11
98.08958129609074
 21
517.129551017477
 31
0.0
  0
LINE
  5
157C
330
732
100
AcDbEntity
  8
SUNPOU
100
AcDbLine
 10
100.0895812960906
 20
530.129551017477
 30
0.0
 11
100.0895812960906
 21
522.129551017477
 31
0.0
  0
INSERT
  5
157D
330
732
100
AcDbEntity
  8
SUNPOU
100
AcDbBlockReference
  2
_OPEN30
 10
100.0895812960906
 20
535.1295510174771
 30
0.0
 41
5.0
 42
5.0
 43
5.0
 50
90.0
  0
INSERT
  5
157E
330
732
100
AcDbEntity
  8
SUNPOU
100
AcDbBlockReference
  2
_OPEN30
 10
100.0895812960906
 20
517.129551017477
 30
0.0
 41
5.0
 42
5.0
 43
5.0
 50
270.0
  0
MTEXT
  5
157F
330
732
100
AcDbEntity
  8
SUNPOU
 62
     6
100
AcDbMText
 10
95.58958129609065
 20
526.129551017477
 30
0.0
 40
5.0
 41
0.0
 71
     5
 72
     1
  1
\A1;18
  7
SUNPOU
 11
0.0000000000000001
 21
1.0
 31
0.0
1001
ACAD
1000
MTEXTBEGIN
1070
    73
1070
     1
1070
    44
1040
1.0
1070
    74
1070
     0
1000
MTEXTEND
1000
MTEXTBEGIN
1070
    73
1070
     1
1070
    44
1040
1.0
1070
    74
1070
     0
1000
MTEXTEND
  0
POINT
  5
1580
330
732
100
AcDbEntity
  8
DEFPOINTS
 62
     0
100
AcDbPoint
 10
149.0415047374586
 20
535.1295510174771
 30
0.0
  0
POINT
  5
1581
330
732
100
AcDbEntity
  8
DEFPOINTS
 62
     0
100
AcDbPoint
 10
132.0415047374587
 20
517.129551017477
 30
0.0
  0
POINT
  5
1582
330
732
100
AcDbEntity
  8
DEFPOINTS
 62
     0
100
AcDbPoint
 10
100.0895812960906
 20
517.129551017477
 30
0.0
  0
ENDBLK
  5
73F
330
732
100
AcDbEntity
  8
0
100
AcDbBlockEnd
  0
BLOCK
  5
74B
330
741
100
AcDbEntity
  8
0
100
AcDbBlockBegin
  2
*D4
 70
     1
 10
0.0
 20
0.0
 30
0.0
  3
*D4
  1

  0
LINE
  5
14F7
330
741
100
AcDbEntity
  8
SUNPOU
100
AcDbLine
 10
146.0415047374586
 20
535.1295510174771
 30
0.0
 11
77.4274209608197
 21
535.1295510174771
 31
0.0
  0
LINE
  5
14F8
330
741
100
AcDbEntity
  8
SUNPOU
100
AcDbLine
 10
146.0415047374586
 20
205.129551017477
 30
0.0
 11
77.42742096081963
 21
205.129551017477
 31
0.0
  0
LINE
  5
14F9
330
741
100
AcDbEntity
  8
SUNPOU
100
AcDbLine
 10
79.4274209608197
 20
530.129551017477
 30
0.0
 11
79.42742096081963
 21
210.1295510174769
 31
0.0
  0
INSERT
  5
14FA
330
741
100
AcDbEntity
  8
SUNPOU
100
AcDbBlockReference
  2
_OPEN30
 10
79.4274209608197
 20
535.1295510174771
 30
0.0
 41
5.0
 42
5.0
 43
5.0
 50
90.0
  0
INSERT
  5
14FB
330
741
100
AcDbEntity
  8
SUNPOU
100
AcDbBlockReference
  2
_OPEN30
 10
79.42742096081963
 20
205.129551017477
 30
0.0
 41
5.0
 42
5.0
 43
5.0
 50
270.0
  0
MTEXT
  5
14FC
330
741
100
AcDbEntity
  8
SUNPOU
 62
     6
100
AcDbMText
 10
74.9274209608196
 20
370.1295510174769
 30
0.0
 40
5.0
 41
0.0
 71
     5
 72
     1
  1
\A1;330
  7
SUNPOU
 11
0.0000000000000001
 21
1.0
 31
0.0
1001
ACAD
1000
MTEXTBEGIN
1070
    73
1070
     1
1070
    44
1040
1.0
1070
    74
1070
     0
1000
MTEXTEND
1000
MTEXTBEGIN
1070
    73
1070
     1
1070
    44
1040
1.0
1070
    74
1070
     0
1000
MTEXTEND
  0
POINT
  5
14FD
330
741
100
AcDbEntity
  8
DEFPOINTS
 62
     0
100
AcDbPoint
 10
149.0415047374586
 20
535.1295510174771
 30
0.0
  0
POINT
  5
14FE
330
741
100
AcDbEntity
  8
DEFPOINTS
 62
     0
100
AcDbPoint
 10
149.0415047374586
 20
205.129551017477
 30
0.0
  0
POINT
  5
14FF
330
741
100
AcDbEntity
  8
DEFPOINTS
 62
     0
100
AcDbPoint
 10
79.42742096081963
 20
205.129551017477
 30
0.0
  0
ENDBLK
  5
74C
330
741
100
AcDbEntity
  8
0
100
AcDbBlockEnd
  0
BLOCK
  5
758
330
74E
100
AcDbEntity
  8
0
100
AcDbBlockBegin
  2
*D5
 70
     1
 10
0.0
 20
0.0
 30
0.0
  3
*D5
  1

  0
LINE
  5
1500
330
74E
100
AcDbEntity
  8
SUNPOU
100
AcDbLine
 10
129.0415047374587
 20
517.129551017477
 30
0.0
 11
98.08958129609081
 21
517.129551017477
 31
0.0
  0
LINE
  5
1501
330
74E
100
AcDbEntity
  8
SUNPOU
100
AcDbLine
 10
131.3915047374587
 20
270.1295510174769
 30
0.0
 11
98.08958129609074
 21
270.1295510174769
 31
0.0
  0
LINE
  5
1502
330
74E
100
AcDbEntity
  8
SUNPOU
100
AcDbLine
 10
100.0895812960906
 20
512.129551017477
 30
0.0
 11
100.0895812960906
 21
275.129551017477
 31
0.0
  0
INSERT
  5
1503
330
74E
100
AcDbEntity
  8
SUNPOU
100
AcDbBlockReference
  2
_OPEN30
 10
100.0895812960906
 20
517.129551017477
 30
0.0
 41
5.0
 42
5.0
 43
5.0
 50
90.0
  0
INSERT
  5
1504
330
74E
100
AcDbEntity
  8
SUNPOU
100
AcDbBlockReference
  2
_OPEN30
 10
100.0895812960906
 20
270.1295510174769
 30
0.0
 41
5.0
 42
5.0
 43
5.0
 50
270.0
  0
MTEXT
  5
1505
330
74E
100
AcDbEntity
  8
SUNPOU
 62
     6
100
AcDbMText
 10
95.5895812960907
 20
393.629551017477
 30
0.0
 40
5.0
 41
0.0
 71
     5
 72
     1
  1
\A1;247
  7
SUNPOU
 11
0.0000000000000001
 21
1.0
 31
0.0
1001
ACAD
1000
MTEXTBEGIN
1070
    73
1070
     1
1070
    44
1040
1.0
1070
    74
1070
     0
1000
MTEXTEND
1000
MTEXTBEGIN
1070
    73
1070
     1
1070
    44
1040
1.0
1070
    74
1070
     0
1000
MTEXTEND
  0
POINT
  5
1506
330
74E
100
AcDbEntity
  8
DEFPOINTS
 62
     0
100
AcDbPoint
 10
132.0415047374587
 20
517.129551017477
 30
0.0
  0
POINT
  5
1507
330
74E
100
AcDbEntity
  8
DEFPOINTS
 62
     0
100
AcDbPoint
 10
134.3915047374588
 20
270.1295510174769
 30
0.0
  0
POINT
  5
1508
330
74E
100
AcDbEntity
  8
DEFPOINTS
 62
     0
100
AcDbPoint
 10
100.0895812960906
 20
270.1295510174769
 30
0.0
  0
ENDBLK
  5
759
330
74E
100
AcDbEntity
  8
0
100
AcDbBlockEnd
  0
BLOCK
  5
765
330
75B
100
AcDbEntity
  8
0
100
AcDbBlockBegin
  2
*D6
 70
     1
 10
0.0
 20
0.0
 30
0.0
  3
*D6
  1

  0
LINE
  5
1531
330
75B
100
AcDbEntity
  8
SUNPOU
100
AcDbLine
 10
131.3915047374587
 20
270.1295510174769
 30
0.0
 11
98.08958129609074
 21
270.1295510174769
 31
0.0
  0
LINE
  5
1532
330
75B
100
AcDbEntity
  8
SUNPOU
100
AcDbLine
 10
129.0415047374587
 20
205.129551017477
 30
0.0
 11
98.08958129609072
 21
205.129551017477
 31
0.0
  0
LINE
  5
1533
330
75B
100
AcDbEntity
  8
SUNPOU
100
AcDbLine
 10
100.0895812960906
 20
265.129551017477
 30
0.0
 11
100.0895812960906
 21
210.1295510174769
 31
0.0
  0
INSERT
  5
1534
330
75B
100
AcDbEntity
  8
SUNPOU
100
AcDbBlockReference
  2
_OPEN30
 10
100.0895812960906
 20
270.1295510174769
 30
0.0
 41
5.0
 42
5.0
 43
5.0
 50
90.0
  0
INSERT
  5
1535
330
75B
100
AcDbEntity
  8
SUNPOU
100
AcDbBlockReference
  2
_OPEN30
 10
100.0895812960906
 20
205.129551017477
 30
0.0
 41
5.0
 42
5.0
 43
5.0
 50
270.0
  0
MTEXT
  5
1536
330
75B
100
AcDbEntity
  8
SUNPOU
 62
     6
100
AcDbMText
 10
95.58958129609068
 20
237.6295510174769
 30
0.0
 40
5.0
 41
0.0
 71
     5
 72
     1
  1
\A1;65
  7
SUNPOU
 11
0.0000000000000001
 21
1.0
 31
0.0
1001
ACAD
1000
MTEXTBEGIN
1070
    73
1070
     1
1070
    44
1040
1.0
1070
    74
1070
     0
1000
MTEXTEND
1000
MTEXTBEGIN
1070
    73
1070
     1
1070
    44
1040
1.0
1070
    74
1070
     0
1000
MTEXTEND
  0
POINT
  5
1537
330
75B
100
AcDbEntity
  8
DEFPOINTS
 62
     0
100
AcDbPoint
 10
134.3915047374588
 20
270.1295510174769
 30
0.0
  0
POINT
  5
1538
330
75B
100
AcDbEntity
  8
DEFPOINTS
 62
     0
100
AcDbPoint
 10
132.0415047374587
 20
205.129551017477
 30
0.0
  0
POINT
  5
1539
330
75B
100
AcDbEntity
  8
DEFPOINTS
 62
     0
100
AcDbPoint
 10
100.0895812960906
 20
205.129551017477
 30
0.0
  0
ENDBLK
  5
766
330
75B
100
AcDbEntity
  8
0
100
AcDbBlockEnd
  0
BLOCK
  5
77B
330
771
100
AcDbEntity
  8
0
100
AcDbBlockBegin
  2
*D7
 70
     1
 10
0.0
 20
0.0
 30
0.0
  3
*D7
  1

  0
LINE
  5
1872
330
771
100
AcDbEntity
  8
SUNPOU
100
AcDbLine
 10
191.360231559711
 20
319.129551017477
 30
0.0
 11
199.9889597694475
 21
319.129551017477
 31
0.0
  0
LINE
  5
1873
330
771
100
AcDbEntity
  8
SUNPOU
100
AcDbLine
 10
191.360231559711
 20
279.129551017477
 30
0.0
 11
199.9889597694475
 21
279.129551017477
 31
0.0
  0
LINE
  5
1874
330
771
100
AcDbEntity
  8
SUNPOU
100
AcDbLine
 10
197.9889597694475
 20
314.129551017477
 30
0.0
 11
197.9889597694475
 21
284.129551017477
 31
0.0
  0
INSERT
  5
1875
330
771
100
AcDbEntity
  8
SUNPOU
100
AcDbBlockReference
  2
_OPEN30
 10
197.9889597694475
 20
319.129551017477
 30
0.0
 41
5.0
 42
5.0
 43
5.0
 50
90.0
  0
INSERT
  5
1876
330
771
100
AcDbEntity
  8
SUNPOU
100
AcDbBlockReference
  2
_OPEN30
 10
197.9889597694475
 20
279.129551017477
 30
0.0
 41
5.0
 42
5.0
 43
5.0
 50
270.0
  0
MTEXT
  5
1877
330
771
100
AcDbEntity
  8
SUNPOU
 62
     6
100
AcDbMText
 10
193.4889597694475
 20
299.129551017477
 30
0.0
 40
5.0
 41
0.0
 71
     5
 72
     1
  1
\A1;40
  7
SUNPOU
 11
0.0000000000000001
 21
1.0
 31
0.0
1001
ACAD
1000
MTEXTBEGIN
1070
    73
1070
     1
1070
    44
1040
1.0
1070
    74
1070
     0
1000
MTEXTEND
1000
MTEXTBEGIN
1070
    73
1070
     1
1070
    44
1040
1.0
1070
    74
1070
     0
1000
MTEXTEND
  0
POINT
  5
1878
330
771
100
AcDbEntity
  8
DEFPOINTS
 62
     0
100
AcDbPoint
 10
188.3602315597109
 20
319.129551017477
 30
0.0
  0
POINT
  5
1879
330
771
100
AcDbEntity
  8
DEFPOINTS
 62
     0
100
AcDbPoint
 10
188.3602315597109
 20
279.129551017477
 30
0.0
  0
POINT
  5
187A
330
771
100
AcDbEntity
  8
DEFPOINTS
 62
     0
100
AcDbPoint
 10
197.9889597694475
 20
279.129551017477
 30
0.0
  0
ENDBLK
  5
77C
330
771
100
AcDbEntity
  8
0
100
AcDbBlockEnd
  0
BLOCK
  5
78A
330
77E
100
AcDbEntity
  8
0
100
AcDbBlockBegin
  2
*D8
 70
     1
 10
0.0
 20
0.0
 30
0.0
  3
*D8
  1

  0
LINE
  5
187B
330
77E
100
AcDbEntity
  8
SUNPOU
100
AcDbLine
 10
191.360231559711
 20
279.129551017477
 30
0.0
 11
199.9889597694475
 21
279.129551017477
 31
0.0
  0
LINE
  5
187C
330
77E
100
AcDbEntity
  8
SUNPOU
100
AcDbLine
 10
182.8915047374588
 20
276.129551017477
 30
0.0
 11
199.9889597694475
 21
276.129551017477
 31
0.0
  0
LINE
  5
187D
330
77E
100
AcDbEntity
  8
SUNPOU
100
AcDbLine
 10
197.9889597694475
 20
279.129551017477
 30
0.0
 11
197.9889597694475
 21
289.129551017477
 31
0.0
  0
LINE
  5
187E
330
77E
100
AcDbEntity
  8
SUNPOU
100
AcDbLine
 10
197.9889597694475
 20
276.129551017477
 30
0.0
 11
197.9889597694475
 21
266.129551017477
 31
0.0
  0
MTEXT
  5
187F
330
77E
100
AcDbEntity
  8
SUNPOU
 62
     6
100
AcDbMText
 10
204.1300823971644
 20
276.8331958213179
 30
0.0
 40
5.0
 41
0.0
 71
     5
 72
     1
  1
\A1;3
  7
SUNPOU
 11
0.0000000000000001
 21
1.0
 31
0.0
1001
ACAD
1000
MTEXTBEGIN
1070
    73
1070
     1
1070
    44
1040
1.0
1070
    74
1070
     0
1000
MTEXTEND
1000
MTEXTBEGIN
1070
    73
1070
     1
1070
    44
1040
1.0
1070
    74
1070
     0
1000
MTEXTEND
  0
LINE
  5
1880
330
77E
100
AcDbEntity
  8
SUNPOU
100
AcDbLine
 10
197.9889597694475
 20
279.129551017477
 30
0.0
 11
197.9889597694475
 21
276.129551017477
 31
0.0
  0
INSERT
  5
1881
330
77E
100
AcDbEntity
  8
SUNPOU
100
AcDbBlockReference
  2
_DOTSMALL
 10
197.9889597694475
 20
276.129551017477
 30
0.0
 41
10.0
 42
10.0
 43
10.0
 50
90.0
  0
POINT
  5
1882
330
77E
100
AcDbEntity
  8
DEFPOINTS
 62
     0
100
AcDbPoint
 10
188.3602315597109
 20
279.129551017477
 30
0.0
  0
POINT
  5
1883
330
77E
100
AcDbEntity
  8
DEFPOINTS
 62
     0
100
AcDbPoint
 10
179.8915047374588
 20
276.129551017477
 30
0.0
  0
POINT
  5
1884
330
77E
100
AcDbEntity
  8
DEFPOINTS
 62
     0
100
AcDbPoint
 10
197.9889597694475
 20
276.129551017477
 30
0.0
  0
ENDBLK
  5
78B
330
77E
100
AcDbEntity
  8
0
100
AcDbBlockEnd
  0
BLOCK
  5
799
330
78D
100
AcDbEntity
  8
0
100
AcDbBlockBegin
  2
*D9
 70
     1
 10
0.0
 20
0.0
 30
0.0
  3
*D9
  1

  0
LINE
  5
1885
330
78D
100
AcDbEntity
  8
SUNPOU
100
AcDbLine
 10
182.8915047374588
 20
276.129551017477
 30
0.0
 11
199.9889597694475
 21
276.129551017477
 31
0.0
  0
LINE
  5
1886
330
78D
100
AcDbEntity
  8
SUNPOU
100
AcDbLine
 10
187.3915047374588
 20
270.1295510174769
 30
0.0
 11
199.9889597694475
 21
270.1295510174769
 31
0.0
  0
LINE
  5
1887
330
78D
100
AcDbEntity
  8
SUNPOU
100
AcDbLine
 10
197.9889597694475
 20
276.129551017477
 30
0.0
 11
197.9889597694475
 21
281.129551017477
 31
0.0
  0
LINE
  5
1888
330
78D
100
AcDbEntity
  8
SUNPOU
100
AcDbLine
 10
197.9889597694475
 20
265.129551017477
 30
0.0
 11
197.9889597694475
 21
260.129551017477
 31
0.0
  0
MTEXT
  5
1889
330
78D
100
AcDbEntity
  8
SUNPOU
 62
     6
100
AcDbMText
 10
192.85472671638
 20
273.1540645349126
 30
0.0
 40
5.0
 41
0.0
 71
     5
 72
     1
  1
\A1;6
  7
SUNPOU
 11
0.0000000000000001
 21
1.0
 31
0.0
1001
ACAD
1000
MTEXTBEGIN
1070
    73
1070
     1
1070
    44
1040
1.0
1070
    74
1070
     0
1000
MTEXTEND
1000
MTEXTBEGIN
1070
    73
1070
     1
1070
    44
1040
1.0
1070
    74
1070
     0
1000
MTEXTEND
  0
LINE
  5
188A
330
78D
100
AcDbEntity
  8
SUNPOU
100
AcDbLine
 10
197.9889597694475
 20
276.129551017477
 30
0.0
 11
197.9889597694475
 21
270.1295510174769
 31
0.0
  0
INSERT
  5
188B
330
78D
100
AcDbEntity
  8
SUNPOU
100
AcDbBlockReference
  2
_DOTSMALL
 10
197.9889597694475
 20
276.129551017477
 30
0.0
 41
5.0
 42
5.0
 43
5.0
 50
270.0
  0
INSERT
  5
188C
330
78D
100
AcDbEntity
  8
SUNPOU
100
AcDbBlockReference
  2
_OPEN30
 10
197.9889597694475
 20
270.1295510174769
 30
0.0
 41
5.0
 42
5.0
 43
5.0
 50
90.0
  0
POINT
  5
188D
330
78D
100
AcDbEntity
  8
DEFPOINTS
 62
     0
100
AcDbPoint
 10
179.8915047374588
 20
276.129551017477
 30
0.0
  0
POINT
  5
188E
330
78D
100
AcDbEntity
  8
DEFPOINTS
 62
     0
100
AcDbPoint
 10
184.3915047374586
 20
270.1295510174769
 30
0.0
  0
POINT
  5
188F
330
78D
100
AcDbEntity
  8
DEFPOINTS
 62
     0
100
AcDbPoint
 10
197.9889597694475
 20
270.1295510174769
 30
0.0
  0
ENDBLK
  5
79A
330
78D
100
AcDbEntity
  8
0
100
AcDbBlockEnd
  0
BLOCK
  5
7BC
330
7B2
100
AcDbEntity
  8
0
100
AcDbBlockBegin
  2
*D10
 70
     1
 10
0.0
 20
0.0
 30
0.0
  3
*D10
  1

  0
LINE
  5
1566
330
7B2
100
AcDbEntity
  8
SUNPOU
100
AcDbLine
 10
170.2915047374586
 20
242.3457197345244
 30
0.0
 11
170.2915047374586
 21
250.7938743918178
 31
0.0
  0
LINE
  5
1567
330
7B2
100
AcDbEntity
  8
SUNPOU
100
AcDbLine
 10
197.2915047374586
 20
223.1295510174769
 30
0.0
 11
197.2915047374586
 21
250.7938743918178
 31
0.0
  0
LINE
  5
1568
330
7B2
100
AcDbEntity
  8
SUNPOU
100
AcDbLine
 10
175.2915047374586
 20
248.7938743918178
 30
0.0
 11
192.2915047374587
 21
248.7938743918178
 31
0.0
  0
INSERT
  5
1569
330
7B2
100
AcDbEntity
  8
SUNPOU
100
AcDbBlockReference
  2
_OPEN30
 10
170.2915047374586
 20
248.7938743918178
 30
0.0
 41
5.0
 42
5.0
 43
5.0
 50
180.0
  0
INSERT
  5
156A
330
7B2
100
AcDbEntity
  8
SUNPOU
100
AcDbBlockReference
  2
_OPEN30
 10
197.2915047374586
 20
248.7938743918178
 30
0.0
 41
5.0
 42
5.0
 43
5.0
  0
MTEXT
  5
156B
330
7B2
100
AcDbEntity
  8
SUNPOU
 62
     6
100
AcDbMText
 10
183.7915047374586
 20
253.2938743918179
 30
0.0
 40
5.0
 41
0.0
 71
     5
 72
     1
  1
\A1;27
  7
SUNPOU
1001
ACAD
1000
MTEXTBEGIN
1070
    73
1070
     1
1070
    44
1040
1.0
1070
    74
1070
     0
1000
MTEXTEND
1000
MTEXTBEGIN
1070
    73
1070
     1
1070
    44
1040
1.0
1070
    74
1070
     0
1000
MTEXTEND
  0
POINT
  5
156C
330
7B2
100
AcDbEntity
  8
DEFPOINTS
 62
     0
100
AcDbPoint
 10
170.2915047374586
 20
239.3457197345244
 30
0.0
  0
POINT
  5
156D
330
7B2
100
AcDbEntity
  8
DEFPOINTS
 62
     0
100
AcDbPoint
 10
197.2915047374586
 20
220.1295510174769
 30
0.0
  0
POINT
  5
156E
330
7B2
100
AcDbEntity
  8
DEFPOINTS
 62
     0
100
AcDbPoint
 10
197.2915047374586
 20
248.7938743918178
 30
0.0
  0
ENDBLK
  5
7BD
330
7B2
100
AcDbEntity
  8
0
100
AcDbBlockEnd
  0
BLOCK
  5
7D4
330
7C8
100
AcDbEntity
  8
0
100
AcDbBlockBegin
  2
*D11
 70
     1
 10
0.0
 20
0.0
 30
0.0
  3
*D11
  1

  0
LINE
  5
1550
330
7C8
100
AcDbEntity
  8
SUNPOU
100
AcDbLine
 10
164.0415047374586
 20
214.1092758981629
 30
0.0
 11
164.0415047374586
 21
230.5206994482507
 31
0.0
  0
LINE
  5
1551
330
7C8
100
AcDbEntity
  8
SUNPOU
100
AcDbLine
 10
176.5415047374586
 20
214.1092758981629
 30
0.0
 11
176.5415047374586
 21
230.5206994482507
 31
0.0
  0
LINE
  5
1552
330
7C8
100
AcDbEntity
  8
SUNPOU
100
AcDbLine
 10
159.0415047374587
 20
228.5206994482507
 30
0.0
 11
154.0415047374587
 21
228.5206994482507
 31
0.0
  0
LINE
  5
1553
330
7C8
100
AcDbEntity
  8
SUNPOU
100
AcDbLine
 10
181.5415047374586
 20
228.5206994482507
 30
0.0
 11
186.5415047374586
 21
228.5206994482507
 31
0.0
  0
MTEXT
  5
1554
330
7C8
100
AcDbEntity
  8
SUNPOU
 62
     6
100
AcDbMText
 10
169.8467460614821
 20
235.3090640335717
 30
0.0
 40
5.0
 41
0.0
 71
     5
 72
     1
  1
\A1;φ12.5
  7
SUNPOU
1001
ACAD
1000
MTEXTBEGIN
1070
    73
1070
     1
1070
    44
1040
1.0
1070
    74
1070
     0
1000
MTEXTEND
1000
MTEXTBEGIN
1070
    73
1070
     1
1070
    44
1040
1.0
1070
    74
1070
     0
1000
MTEXTEND
  0
LINE
  5
1555
330
7C8
100
AcDbEntity
  8
SUNPOU
100
AcDbLine
 10
164.0415047374586
 20
228.5206994482507
 30
0.0
 11
176.5415047374586
 21
228.5206994482507
 31
0.0
  0
INSERT
  5
1556
330
7C8
100
AcDbEntity
  8
SUNPOU
100
AcDbBlockReference
  2
_OPEN30
 10
164.0415047374586
 20
228.5206994482507
 30
0.0
 41
5.0
 42
5.0
 43
5.0
  0
INSERT
  5
1557
330
7C8
100
AcDbEntity
  8
SUNPOU
100
AcDbBlockReference
  2
_OPEN30
 10
176.5415047374586
 20
228.5206994482507
 30
0.0
 41
5.0
 42
5.0
 43
5.0
 50
180.0
  0
POINT
  5
1558
330
7C8
100
AcDbEntity
  8
DEFPOINTS
 62
     0
100
AcDbPoint
 10
164.0415047374586
 20
211.1092758981629
 30
0.0
  0
POINT
  5
1559
330
7C8
100
AcDbEntity
  8
DEFPOINTS
 62
     0
100
AcDbPoint
 10
176.5415047374586
 20
211.1092758981629
 30
0.0
  0
POINT
  5
155A
330
7C8
100
AcDbEntity
  8
DEFPOINTS
 62
     0
100
AcDbPoint
 10
176.5415047374586
 20
228.5206994482507
 30
0.0
  0
ENDBLK
  5
7D5
330
7C8
100
AcDbEntity
  8
0
100
AcDbBlockEnd
  0
BLOCK
  5
804
330
7F8
100
AcDbEntity
  8
0
100
AcDbBlockBegin
  2
*D12
 70
     1
 10
0.0
 20
0.0
 30
0.0
  3
*D12
  1

  0
LINE
  5
1512
330
7F8
100
AcDbEntity
  8
SUNPOU
100
AcDbLine
 10
131.2915047374586
 20
202.8795510174769
 30
0.0
 11
131.2915047374586
 21
183.045327683693
 31
0.0
  0
LINE
  5
1513
330
7F8
100
AcDbEntity
  8
SUNPOU
100
AcDbLine
 10
143.2915047374587
 20
198.1295510174769
 30
0.0
 11
143.2915047374587
 21
183.045327683693
 31
0.0
  0
LINE
  5
1514
330
7F8
100
AcDbEntity
  8
SUNPOU
100
AcDbLine
 10
126.2915047374587
 20
185.045327683693
 30
0.0
 11
121.2915047374587
 21
185.045327683693
 31
0.0
  0
LINE
  5
1515
330
7F8
100
AcDbEntity
  8
SUNPOU
100
AcDbLine
 10
148.2915047374586
 20
185.045327683693
 30
0.0
 11
153.2915047374586
 21
185.045327683693
 31
0.0
  0
MTEXT
  5
1516
330
7F8
100
AcDbEntity
  8
SUNPOU
 62
     6
100
AcDbMText
 10
119.254760937984
 20
192.4609064631095
 30
0.0
 40
5.0
 41
0.0
 71
     5
 72
     1
  1
\A1;12
  7
SUNPOU
1001
ACAD
1000
MTEXTBEGIN
1070
    73
1070
     1
1070
    44
1040
1.0
1070
    74
1070
     0
1000
MTEXTEND
1000
MTEXTBEGIN
1070
    73
1070
     1
1070
    44
1040
1.0
1070
    74
1070
     0
1000
MTEXTEND
  0
LINE
  5
1517
330
7F8
100
AcDbEntity
  8
SUNPOU
100
AcDbLine
 10
131.2915047374586
 20
185.045327683693
 30
0.0
 11
143.2915047374587
 21
185.045327683693
 31
0.0
  0
INSERT
  5
1518
330
7F8
100
AcDbEntity
  8
SUNPOU
100
AcDbBlockReference
  2
_OPEN30
 10
131.2915047374586
 20
185.045327683693
 30
0.0
 41
5.0
 42
5.0
 43
5.0
  0
INSERT
  5
1519
330
7F8
100
AcDbEntity
  8
SUNPOU
100
AcDbBlockReference
  2
_OPEN30
 10
143.2915047374587
 20
185.045327683693
 30
0.0
 41
5.0
 42
5.0
 43
5.0
 50
180.0
  0
POINT
  5
151A
330
7F8
100
AcDbEntity
  8
DEFPOINTS
 62
     0
100
AcDbPoint
 10
131.2915047374586
 20
205.8795510174769
 30
0.0
  0
POINT
  5
151B
330
7F8
100
AcDbEntity
  8
DEFPOINTS
 62
     0
100
AcDbPoint
 10
143.2915047374587
 20
201.129551017477
 30
0.0
  0
POINT
  5
151C
330
7F8
100
AcDbEntity
  8
DEFPOINTS
 62
     0
100
AcDbPoint
 10
143.2915047374587
 20
185.045327683693
 30
0.0
  0
ENDBLK
  5
805
330
7F8
100
AcDbEntity
  8
0
100
AcDbBlockEnd
  0
BLOCK
  5
811
330
807
100
AcDbEntity
  8
0
100
AcDbBlockBegin
  2
*D13
 70
     1
 10
0.0
 20
0.0
 30
0.0
  3
*D13
  1

  0
LINE
  5
151D
330
807
100
AcDbEntity
  8
SUNPOU
100
AcDbLine
 10
143.2915047374587
 20
198.1295510174769
 30
0.0
 11
143.2915047374587
 21
183.045327683693
 31
0.0
  0
LINE
  5
151E
330
807
100
AcDbEntity
  8
SUNPOU
100
AcDbLine
 10
197.2915047374586
 20
198.1295510174769
 30
0.0
 11
197.2915047374586
 21
183.045327683693
 31
0.0
  0
LINE
  5
151F
330
807
100
AcDbEntity
  8
SUNPOU
100
AcDbLine
 10
148.2915047374586
 20
185.045327683693
 30
0.0
 11
192.2915047374587
 21
185.045327683693
 31
0.0
  0
INSERT
  5
1520
330
807
100
AcDbEntity
  8
SUNPOU
100
AcDbBlockReference
  2
_OPEN30
 10
143.2915047374587
 20
185.045327683693
 30
0.0
 41
5.0
 42
5.0
 43
5.0
 50
180.0
  0
INSERT
  5
1521
330
807
100
AcDbEntity
  8
SUNPOU
100
AcDbBlockReference
  2
_OPEN30
 10
197.2915047374586
 20
185.045327683693
 30
0.0
 41
5.0
 42
5.0
 43
5.0
  0
MTEXT
  5
1522
330
807
100
AcDbEntity
  8
SUNPOU
 62
     6
100
AcDbMText
 10
170.2915047374586
 20
189.545327683693
 30
0.0
 40
5.0
 41
0.0
 71
     5
 72
     1
  1
\A1;54
  7
SUNPOU
1001
ACAD
1000
MTEXTBEGIN
1070
    73
1070
     1
1070
    44
1040
1.0
1070
    74
1070
     0
1000
MTEXTEND
1000
MTEXTBEGIN
1070
    73
1070
     1
1070
    44
1040
1.0
1070
    74
1070
     0
1000
MTEXTEND
  0
POINT
  5
1523
330
807
100
AcDbEntity
  8
DEFPOINTS
 62
     0
100
AcDbPoint
 10
143.2915047374587
 20
201.129551017477
 30
0.0
  0
POINT
  5
1524
330
807
100
AcDbEntity
  8
DEFPOINTS
 62
     0
100
AcDbPoint
 10
197.2915047374586
 20
201.129551017477
 30
0.0
  0
POINT
  5
1525
330
807
100
AcDbEntity
  8
DEFPOINTS
 62
     0
100
AcDbPoint
 10
197.2915047374586
 20
185.045327683693
 30
0.0
  0
ENDBLK
  5
812
330
807
100
AcDbEntity
  8
0
100
AcDbBlockEnd
  0
BLOCK
  5
820
330
814
100
AcDbEntity
  8
0
100
AcDbBlockBegin
  2
*D14
 70
     1
 10
0.0
 20
0.0
 30
0.0
  3
*D14
  1

  0
LINE
  5
153A
330
814
100
AcDbEntity
  8
SUNPOU
100
AcDbLine
 10
197.2915047374586
 20
198.1295510174769
 30
0.0
 11
197.2915047374586
 21
183.045327683693
 31
0.0
  0
LINE
  5
153B
330
814
100
AcDbEntity
  8
SUNPOU
100
AcDbLine
 10
202.2915047374588
 20
198.1295510174769
 30
0.0
 11
202.2915047374588
 21
183.045327683693
 31
0.0
  0
LINE
  5
153C
330
814
100
AcDbEntity
  8
SUNPOU
100
AcDbLine
 10
192.2915047374587
 20
185.045327683693
 30
0.0
 11
187.2915047374586
 21
185.045327683693
 31
0.0
  0
LINE
  5
153D
330
814
100
AcDbEntity
  8
SUNPOU
100
AcDbLine
 10
207.2915047374586
 20
185.045327683693
 30
0.0
 11
212.2915047374586
 21
185.045327683693
 31
0.0
  0
MTEXT
  5
153E
330
814
100
AcDbEntity
  8
SUNPOU
 62
     6
100
AcDbMText
 10
199.8253958982001
 20
191.8049510508236
 30
0.0
 40
5.0
 41
0.0
 71
     5
 72
     1
  1
\A1;5
  7
SUNPOU
1001
ACAD
1000
MTEXTBEGIN
1070
    73
1070
     1
1070
    44
1040
1.0
1070
    74
1070
     0
1000
MTEXTEND
1000
MTEXTBEGIN
1070
    73
1070
     1
1070
    44
1040
1.0
1070
    74
1070
     0
1000
MTEXTEND
  0
LINE
  5
153F
330
814
100
AcDbEntity
  8
SUNPOU
100
AcDbLine
 10
197.2915047374586
 20
185.045327683693
 30
0.0
 11
202.2915047374588
 21
185.045327683693
 31
0.0
  0
INSERT
  5
1540
330
814
100
AcDbEntity
  8
SUNPOU
100
AcDbBlockReference
  2
_OPEN30
 10
197.2915047374586
 20
185.045327683693
 30
0.0
 41
5.0
 42
5.0
 43
5.0
  0
INSERT
  5
1541
330
814
100
AcDbEntity
  8
SUNPOU
100
AcDbBlockReference
  2
_OPEN30
 10
202.2915047374588
 20
185.045327683693
 30
0.0
 41
5.0
 42
5.0
 43
5.0
 50
180.0
  0
POINT
  5
1542
330
814
100
AcDbEntity
  8
DEFPOINTS
 62
     0
100
AcDbPoint
 10
197.2915047374586
 20
201.129551017477
 30
0.0
  0
POINT
  5
1543
330
814
100
AcDbEntity
  8
DEFPOINTS
 62
     0
100
AcDbPoint
 10
202.2915047374588
 20
201.129551017477
 30
0.0
  0
POINT
  5
1544
330
814
100
AcDbEntity
  8
DEFPOINTS
 62
     0
100
AcDbPoint
 10
202.2915047374588
 20
185.045327683693
 30
0.0
  0
ENDBLK
  5
821
330
814
100
AcDbEntity
  8
0
100
AcDbBlockEnd
  0
BLOCK
  5
82D
330
823
100
AcDbEntity
  8
0
100
AcDbBlockBegin
  2
*D15
 70
     1
 10
0.0
 20
0.0
 30
0.0
  3
*D15
  1

  0
LINE
  5
14D3
330
823
100
AcDbEntity
  8
SUNPOU
100
AcDbLine
 10
202.2915047374588
 20
198.1295510174769
 30
0.0
 11
202.2915047374588
 21
183.045327683693
 31
0.0
  0
LINE
  5
14D4
330
823
100
AcDbEntity
  8
SUNPOU
100
AcDbLine
 10
256.2915047374588
 20
198.1295510174769
 30
0.0
 11
256.2915047374588
 21
183.045327683693
 31
0.0
  0
LINE
  5
14D5
330
823
100
AcDbEntity
  8
SUNPOU
100
AcDbLine
 10
207.2915047374586
 20
185.045327683693
 30
0.0
 11
251.2915047374588
 21
185.045327683693
 31
0.0
  0
INSERT
  5
14D6
330
823
100
AcDbEntity
  8
SUNPOU
100
AcDbBlockReference
  2
_OPEN30
 10
202.2915047374588
 20
185.045327683693
 30
0.0
 41
5.0
 42
5.0
 43
5.0
 50
180.0
  0
INSERT
  5
14D7
330
823
100
AcDbEntity
  8
SUNPOU
100
AcDbBlockReference
  2
_OPEN30
 10
256.2915047374588
 20
185.045327683693
 30
0.0
 41
5.0
 42
5.0
 43
5.0
  0
MTEXT
  5
14D8
330
823
100
AcDbEntity
  8
SUNPOU
 62
     6
100
AcDbMText
 10
229.2915047374588
 20
189.545327683693
 30
0.0
 40
5.0
 41
0.0
 71
     5
 72
     1
  1
\A1;54
  7
SUNPOU
1001
ACAD
1000
MTEXTBEGIN
1070
    73
1070
     1
1070
    44
1040
1.0
1070
    74
1070
     0
1000
MTEXTEND
1000
MTEXTBEGIN
1070
    73
1070
     1
1070
    44
1040
1.0
1070
    74
1070
     0
1000
MTEXTEND
  0
POINT
  5
14D9
330
823
100
AcDbEntity
  8
DEFPOINTS
 62
     0
100
AcDbPoint
 10
202.2915047374588
 20
201.129551017477
 30
0.0
  0
POINT
  5
14DA
330
823
100
AcDbEntity
  8
DEFPOINTS
 62
     0
100
AcDbPoint
 10
256.2915047374588
 20
201.129551017477
 30
0.0
  0
POINT
  5
14DB
330
823
100
AcDbEntity
  8
DEFPOINTS
 62
     0
100
AcDbPoint
 10
256.2915047374588
 20
185.045327683693
 30
0.0
  0
ENDBLK
  5
82E
330
823
100
AcDbEntity
  8
0
100
AcDbBlockEnd
  0
BLOCK
  5
83C
330
830
100
AcDbEntity
  8
0
100
AcDbBlockBegin
  2
*D16
 70
     1
 10
0.0
 20
0.0
 30
0.0
  3
*D16
  1

  0
LINE
  5
1607
330
830
100
AcDbEntity
  8
SUNPOU
100
AcDbLine
 10
256.2915047374588
 20
198.1295510174769
 30
0.0
 11
256.2915047374588
 21
183.045327683693
 31
0.0
  0
LINE
  5
1608
330
830
100
AcDbEntity
  8
SUNPOU
100
AcDbLine
 10
261.2915047374588
 20
202.8795510174769
 30
0.0
 11
261.2915047374588
 21
183.045327683693
 31
0.0
  0
LINE
  5
1609
330
830
100
AcDbEntity
  8
SUNPOU
100
AcDbLine
 10
251.2915047374588
 20
185.045327683693
 30
0.0
 11
246.2915047374587
 21
185.045327683693
 31
0.0
  0
LINE
  5
160A
330
830
100
AcDbEntity
  8
SUNPOU
100
AcDbLine
 10
266.2915047374588
 20
185.045327683693
 30
0.0
 11
271.2915047374587
 21
185.045327683693
 31
0.0
  0
MTEXT
  5
160B
330
830
100
AcDbEntity
  8
SUNPOU
 62
     6
100
AcDbMText
 10
258.7923579404165
 20
192.2337450287307
 30
0.0
 40
5.0
 41
0.0
 71
     5
 72
     1
  1
\A1;5
  7
SUNPOU
1001
ACAD
1000
MTEXTBEGIN
1070
    73
1070
     1
1070
    44
1040
1.0
1070
    74
1070
     0
1000
MTEXTEND
1000
MTEXTBEGIN
1070
    73
1070
     1
1070
    44
1040
1.0
1070
    74
1070
     0
1000
MTEXTEND
  0
LINE
  5
160C
330
830
100
AcDbEntity
  8
SUNPOU
100
AcDbLine
 10
256.2915047374588
 20
185.045327683693
 30
0.0
 11
261.2915047374588
 21
185.045327683693
 31
0.0
  0
INSERT
  5
160D
330
830
100
AcDbEntity
  8
SUNPOU
100
AcDbBlockReference
  2
_OPEN30
 10
256.2915047374588
 20
185.045327683693
 30
0.0
 41
5.0
 42
5.0
 43
5.0
  0
INSERT
  5
160E
330
830
100
AcDbEntity
  8
SUNPOU
100
AcDbBlockReference
  2
_OPEN30
 10
261.2915047374588
 20
185.045327683693
 30
0.0
 41
5.0
 42
5.0
 43
5.0
 50
180.0
  0
POINT
  5
160F
330
830
100
AcDbEntity
  8
DEFPOINTS
 62
     0
100
AcDbPoint
 10
256.2915047374588
 20
201.129551017477
 30
0.0
  0
POINT
  5
1610
330
830
100
AcDbEntity
  8
DEFPOINTS
 62
     0
100
AcDbPoint
 10
261.2915047374588
 20
205.8795510174769
 30
0.0
  0
POINT
  5
1611
330
830
100
AcDbEntity
  8
DEFPOINTS
 62
     0
100
AcDbPoint
 10
261.2915047374588
 20
185.045327683693
 30
0.0
  0
ENDBLK
  5
83D
330
830
100
AcDbEntity
  8
0
100
AcDbBlockEnd
  0
BLOCK
  5
849
330
83F
100
AcDbEntity
  8
0
100
AcDbBlockBegin
  2
*D17
 70
     1
 10
0.0
 20
0.0
 30
0.0
  3
*D17
  1

  0
LINE
  5
15FE
330
83F
100
AcDbEntity
  8
SUNPOU
100
AcDbLine
 10
261.2915047374588
 20
202.8795510174769
 30
0.0
 11
261.2915047374588
 21
183.045327683693
 31
0.0
  0
LINE
  5
15FF
330
83F
100
AcDbEntity
  8
SUNPOU
100
AcDbLine
 10
311.2915047374588
 20
202.8795510174769
 30
0.0
 11
311.2915047374588
 21
183.045327683693
 31
0.0
  0
LINE
  5
1600
330
83F
100
AcDbEntity
  8
SUNPOU
100
AcDbLine
 10
266.2915047374588
 20
185.045327683693
 30
0.0
 11
306.2915047374588
 21
185.045327683693
 31
0.0
  0
INSERT
  5
1601
330
83F
100
AcDbEntity
  8
SUNPOU
100
AcDbBlockReference
  2
_OPEN30
 10
261.2915047374588
 20
185.045327683693
 30
0.0
 41
5.0
 42
5.0
 43
5.0
 50
180.0
  0
INSERT
  5
1602
330
83F
100
AcDbEntity
  8
SUNPOU
100
AcDbBlockReference
  2
_OPEN30
 10
311.2915047374588
 20
185.045327683693
 30
0.0
 41
5.0
 42
5.0
 43
5.0
  0
MTEXT
  5
1603
330
83F
100
AcDbEntity
  8
SUNPOU
 62
     6
100
AcDbMText
 10
286.2915047374588
 20
189.545327683693
 30
0.0
 40
5.0
 41
0.0
 71
     5
 72
     1
  1
\A1;50
  7
SUNPOU
1001
ACAD
1000
MTEXTBEGIN
1070
    73
1070
     1
1070
    44
1040
1.0
1070
    74
1070
     0
1000
MTEXTEND
1000
MTEXTBEGIN
1070
    73
1070
     1
1070
    44
1040
1.0
1070
    74
1070
     0
1000
MTEXTEND
  0
POINT
  5
1604
330
83F
100
AcDbEntity
  8
DEFPOINTS
 62
     0
100
AcDbPoint
 10
261.2915047374588
 20
205.8795510174769
 30
0.0
  0
POINT
  5
1605
330
83F
100
AcDbEntity
  8
DEFPOINTS
 62
     0
100
AcDbPoint
 10
311.2915047374588
 20
205.8795510174769
 30
0.0
  0
POINT
  5
1606
330
83F
100
AcDbEntity
  8
DEFPOINTS
 62
     0
100
AcDbPoint
 10
311.2915047374588
 20
185.045327683693
 30
0.0
  0
ENDBLK
  5
84A
330
83F
100
AcDbEntity
  8
0
100
AcDbBlockEnd
  0
BLOCK
  5
858
330
84C
100
AcDbEntity
  8
0
100
AcDbBlockBegin
  2
*D18
 70
     1
 10
0.0
 20
0.0
 30
0.0
  3
*D18
  1

  0
LINE
  5
1526
330
84C
100
AcDbEntity
  8
SUNPOU
100
AcDbLine
 10
126.2915047374587
 20
199.3386020125133
 30
0.0
 11
126.2915047374587
 21
169.6651195196105
 31
0.0
  0
LINE
  5
1527
330
84C
100
AcDbEntity
  8
SUNPOU
100
AcDbLine
 10
131.2915047374586
 20
199.3386020125132
 30
0.0
 11
131.2915047374586
 21
169.6651195196105
 31
0.0
  0
LINE
  5
1528
330
84C
100
AcDbEntity
  8
SUNPOU
100
AcDbLine
 10
121.2915047374587
 20
171.6651195196105
 30
0.0
 11
116.2915047374587
 21
171.6651195196105
 31
0.0
  0
LINE
  5
1529
330
84C
100
AcDbEntity
  8
SUNPOU
100
AcDbLine
 10
136.2915047374587
 20
171.6651195196105
 30
0.0
 11
141.2915047374587
 21
171.6651195196105
 31
0.0
  0
MTEXT
  5
152A
330
84C
100
AcDbEntity
  8
SUNPOU
 62
     6
100
AcDbMText
 10
121.6879084257038
 20
177.1577520246004
 30
0.0
 40
5.0
 41
0.0
 71
     5
 72
     1
  1
\A1;5
  7
SUNPOU
1001
ACAD
1000
MTEXTBEGIN
1070
    73
1070
     1
1070
    44
1040
1.0
1070
    74
1070
     0
1000
MTEXTEND
1000
MTEXTBEGIN
1070
    73
1070
     1
1070
    44
1040
1.0
1070
    74
1070
     0
1000
MTEXTEND
  0
LINE
  5
152B
330
84C
100
AcDbEntity
  8
SUNPOU
100
AcDbLine
 10
126.2915047374587
 20
171.6651195196105
 30
0.0
 11
131.2915047374586
 21
171.6651195196105
 31
0.0
  0
INSERT
  5
152C
330
84C
100
AcDbEntity
  8
SUNPOU
100
AcDbBlockReference
  2
_OPEN30
 10
126.2915047374587
 20
171.6651195196105
 30
0.0
 41
5.0
 42
5.0
 43
5.0
  0
INSERT
  5
152D
330
84C
100
AcDbEntity
  8
SUNPOU
100
AcDbBlockReference
  2
_OPEN30
 10
131.2915047374586
 20
171.6651195196105
 30
0.0
 41
5.0
 42
5.0
 43
5.0
 50
180.0
  0
POINT
  5
152E
330
84C
100
AcDbEntity
  8
DEFPOINTS
 62
     0
100
AcDbPoint
 10
126.2915047374587
 20
202.3386020125133
 30
0.0
  0
POINT
  5
152F
330
84C
100
AcDbEntity
  8
DEFPOINTS
 62
     0
100
AcDbPoint
 10
131.2915047374586
 20
202.3386020125133
 30
0.0
  0
POINT
  5
1530
330
84C
100
AcDbEntity
  8
DEFPOINTS
 62
     0
100
AcDbPoint
 10
131.2915047374586
 20
171.6651195196105
 30
0.0
  0
ENDBLK
  5
859
330
84C
100
AcDbEntity
  8
0
100
AcDbBlockEnd
  0
BLOCK
  5
865
330
85B
100
AcDbEntity
  8
0
100
AcDbBlockBegin
  2
*D19
 70
     1
 10
0.0
 20
0.0
 30
0.0
  3
*D19
  1

  0
LINE
  5
14EE
330
85B
100
AcDbEntity
  8
SUNPOU
100
AcDbLine
 10
131.2915047374586
 20
199.3386020125132
 30
0.0
 11
131.2915047374586
 21
169.6651195196105
 31
0.0
  0
LINE
  5
14EF
330
85B
100
AcDbEntity
  8
SUNPOU
100
AcDbLine
 10
311.2915047374588
 20
199.3386020125132
 30
0.0
 11
311.2915047374588
 21
169.6651195196105
 31
0.0
  0
LINE
  5
14F0
330
85B
100
AcDbEntity
  8
SUNPOU
100
AcDbLine
 10
136.2915047374587
 20
171.6651195196105
 30
0.0
 11
306.2915047374588
 21
171.6651195196105
 31
0.0
  0
MTEXT
  5
14F1
330
85B
100
AcDbEntity
  8
SUNPOU
 62
     6
100
AcDbMText
 10
220.3887941506584
 20
164.5973091091561
 30
0.0
 40
5.0
 41
0.0
 71
     5
 72
     1
  1
\A1;180
  7
SUNPOU
1001
ACAD
1000
MTEXTBEGIN
1070
    73
1070
     1
1070
    44
1040
1.0
1070
    74
1070
     0
1000
MTEXTEND
1000
MTEXTBEGIN
1070
    73
1070
     1
1070
    44
1040
1.0
1070
    74
1070
     0
1000
MTEXTEND
  0
INSERT
  5
14F2
330
85B
100
AcDbEntity
  8
SUNPOU
100
AcDbBlockReference
  2
_OPEN30
 10
131.2915047374586
 20
171.6651195196105
 30
0.0
 41
5.0
 42
5.0
 43
5.0
 50
180.0
  0
INSERT
  5
14F3
330
85B
100
AcDbEntity
  8
SUNPOU
100
AcDbBlockReference
  2
_OPEN30
 10
311.2915047374588
 20
171.6651195196105
 30
0.0
 41
5.0
 42
5.0
 43
5.0
  0
POINT
  5
14F4
330
85B
100
AcDbEntity
  8
DEFPOINTS
 62
     0
100
AcDbPoint
 10
131.2915047374586
 20
202.3386020125133
 30
0.0
  0
POINT
  5
14F5
330
85B
100
AcDbEntity
  8
DEFPOINTS
 62
     0
100
AcDbPoint
 10
311.2915047374588
 20
202.3386020125133
 30
0.0
  0
POINT
  5
14F6
330
85B
100
AcDbEntity
  8
DEFPOINTS
 62
     0
100
AcDbPoint
 10
311.2915047374588
 20
171.6651195196105
 30
0.0
  0
ENDBLK
  5
866
330
85B
100
AcDbEntity
  8
0
100
AcDbBlockEnd
  0
BLOCK
  5
874
330
868
100
AcDbEntity
  8
0
100
AcDbBlockBegin
  2
*D20
 70
     1
 10
0.0
 20
0.0
 30
0.0
  3
*D20
  1

  0
LINE
  5
1612
330
868
100
AcDbEntity
  8
SUNPOU
100
AcDbLine
 10
311.2915047374588
 20
199.3386020125132
 30
0.0
 11
311.2915047374588
 21
169.6651195196105
 31
0.0
  0
LINE
  5
1613
330
868
100
AcDbEntity
  8
SUNPOU
100
AcDbLine
 10
316.2915047374588
 20
198.5886020125132
 30
0.0
 11
316.2915047374588
 21
169.6651195196105
 31
0.0
  0
LINE
  5
1614
330
868
100
AcDbEntity
  8
SUNPOU
100
AcDbLine
 10
306.2915047374588
 20
171.6651195196105
 30
0.0
 11
301.2915047374588
 21
171.6651195196105
 31
0.0
  0
LINE
  5
1615
330
868
100
AcDbEntity
  8
SUNPOU
100
AcDbLine
 10
321.2915047374587
 20
171.6651195196105
 30
0.0
 11
326.2915047374588
 21
171.6651195196105
 31
0.0
  0
MTEXT
  5
1616
330
868
100
AcDbEntity
  8
SUNPOU
 62
     6
100
AcDbMText
 10
321.3594167003003
 20
178.9489598550469
 30
0.0
 40
5.0
 41
0.0
 71
     5
 72
     1
  1
\A1;5
  7
SUNPOU
1001
ACAD
1000
MTEXTBEGIN
1070
    73
1070
     1
1070
    44
1040
1.0
1070
    74
1070
     0
1000
MTEXTEND
1000
MTEXTBEGIN
1070
    73
1070
     1
1070
    44
1040
1.0
1070
    74
1070
     0
1000
MTEXTEND
  0
LINE
  5
1617
330
868
100
AcDbEntity
  8
SUNPOU
100
AcDbLine
 10
311.2915047374588
 20
171.6651195196105
 30
0.0
 11
316.2915047374588
 21
171.6651195196105
 31
0.0
  0
INSERT
  5
1618
330
868
100
AcDbEntity
  8
SUNPOU
100
AcDbBlockReference
  2
_OPEN30
 10
311.2915047374588
 20
171.6651195196105
 30
0.0
 41
5.0
 42
5.0
 43
5.0
  0
INSERT
  5
1619
330
868
100
AcDbEntity
  8
SUNPOU
100
AcDbBlockReference
  2
_OPEN30
 10
316.2915047374588
 20
171.6651195196105
 30
0.0
 41
5.0
 42
5.0
 43
5.0
 50
180.0
  0
POINT
  5
161A
330
868
100
AcDbEntity
  8
DEFPOINTS
 62
     0
100
AcDbPoint
 10
311.2915047374588
 20
202.3386020125133
 30
0.0
  0
POINT
  5
161B
330
868
100
AcDbEntity
  8
DEFPOINTS
 62
     0
100
AcDbPoint
 10
316.2915047374588
 20
201.5886020125132
 30
0.0
  0
POINT
  5
161C
330
868
100
AcDbEntity
  8
DEFPOINTS
 62
     0
100
AcDbPoint
 10
316.2915047374588
 20
171.6651195196105
 30
0.0
  0
ENDBLK
  5
875
330
868
100
AcDbEntity
  8
0
100
AcDbBlockEnd
  0
BLOCK
  5
883
330
877
100
AcDbEntity
  8
0
100
AcDbBlockBegin
  2
*D21
 70
     1
 10
0.0
 20
0.0
 30
0.0
  3
*D21
  1

  0
LINE
  5
1695
330
877
100
AcDbEntity
  8
SUNPOU
100
AcDbLine
 10
257.7915047374588
 20
98.72723650998906
 30
0.0
 11
268.4202271935157
 21
98.72723650998906
 31
0.0
  0
LINE
  5
1696
330
877
100
AcDbEntity
  8
SUNPOU
100
AcDbLine
 10
259.2915047374588
 20
95.72723650998906
 30
0.0
 11
268.4202271935157
 21
95.72723650998906
 31
0.0
  0
LINE
  5
1697
330
877
100
AcDbEntity
  8
SUNPOU
100
AcDbLine
 10
266.4202271935157
 20
103.727236509989
 30
0.0
 11
266.4202271935157
 21
108.727236509989
 31
0.0
  0
LINE
  5
1698
330
877
100
AcDbEntity
  8
SUNPOU
100
AcDbLine
 10
266.4202271935157
 20
90.72723650998906
 30
0.0
 11
266.4202271935157
 21
85.72723650998904
 31
0.0
  0
MTEXT
  5
1699
330
877
100
AcDbEntity
  8
SUNPOU
 62
     6
100
AcDbMText
 10
260.4803550213484
 20
92.05800150343748
 30
0.0
 40
5.0
 41
0.0
 71
     5
 72
     1
  1
\A1;3
  7
SUNPOU
 11
0.0000000000000001
 21
1.0
 31
0.0
1001
ACAD
1000
MTEXTBEGIN
1070
    73
1070
     1
1070
    44
1040
1.0
1070
    74
1070
     0
1000
MTEXTEND
1000
MTEXTBEGIN
1070
    73
1070
     1
1070
    44
1040
1.0
1070
    74
1070
     0
1000
MTEXTEND
  0
LINE
  5
169A
330
877
100
AcDbEntity
  8
SUNPOU
100
AcDbLine
 10
266.4202271935157
 20
98.72723650998906
 30
0.0
 11
266.4202271935157
 21
95.72723650998906
 31
0.0
  0
INSERT
  5
169B
330
877
100
AcDbEntity
  8
SUNPOU
100
AcDbBlockReference
  2
_OPEN30
 10
266.4202271935157
 20
98.72723650998906
 30
0.0
 41
5.0
 42
5.0
 43
5.0
 50
270.0
  0
INSERT
  5
169C
330
877
100
AcDbEntity
  8
SUNPOU
100
AcDbBlockReference
  2
_OPEN30
 10
266.4202271935157
 20
95.72723650998906
 30
0.0
 41
5.0
 42
5.0
 43
5.0
 50
90.0
  0
POINT
  5
169D
330
877
100
AcDbEntity
  8
DEFPOINTS
 62
     0
100
AcDbPoint
 10
254.7915047374587
 20
98.72723650998906
 30
0.0
  0
POINT
  5
169E
330
877
100
AcDbEntity
  8
DEFPOINTS
 62
     0
100
AcDbPoint
 10
256.2915047374588
 20
95.72723650998906
 30
0.0
  0
POINT
  5
169F
330
877
100
AcDbEntity
  8
DEFPOINTS
 62
     0
100
AcDbPoint
 10
266.4202271935157
 20
95.72723650998906
 30
0.0
  0
ENDBLK
  5
884
330
877
100
AcDbEntity
  8
0
100
AcDbBlockEnd
  0
BLOCK
  5
890
330
886
100
AcDbEntity
  8
0
100
AcDbBlockBegin
  2
*D22
 70
     1
 10
0.0
 20
0.0
 30
0.0
  3
*D22
  1

  0
LINE
  5
16A0
330
886
100
AcDbEntity
  8
SUNPOU
100
AcDbLine
 10
257.7915047374588
 20
98.72723650998906
 30
0.0
 11
282.7111639308014
 21
98.72723650998906
 31
0.0
  0
LINE
  5
16A1
330
886
100
AcDbEntity
  8
SUNPOU
100
AcDbLine
 10
242.2915047374587
 20
73.72723650998898
 30
0.0
 11
282.7111639308014
 21
73.72723650998898
 31
0.0
  0
LINE
  5
16A2
330
886
100
AcDbEntity
  8
SUNPOU
100
AcDbLine
 10
280.7111639308013
 20
93.72723650998905
 30
0.0
 11
280.7111639308013
 21
78.72723650998898
 31
0.0
  0
INSERT
  5
16A3
330
886
100
AcDbEntity
  8
SUNPOU
100
AcDbBlockReference
  2
_OPEN30
 10
280.7111639308013
 20
98.72723650998906
 30
0.0
 41
5.0
 42
5.0
 43
5.0
 50
90.0
  0
INSERT
  5
16A4
330
886
100
AcDbEntity
  8
SUNPOU
100
AcDbBlockReference
  2
_OPEN30
 10
280.7111639308013
 20
73.72723650998898
 30
0.0
 41
5.0
 42
5.0
 43
5.0
 50
270.0
  0
MTEXT
  5
16A5
330
886
100
AcDbEntity
  8
SUNPOU
 62
     6
100
AcDbMText
 10
276.2111639308013
 20
86.22723650998905
 30
0.0
 40
5.0
 41
0.0
 71
     5
 72
     1
  1
\A1;25
  7
SUNPOU
 11
0.0000000000000001
 21
1.0
 31
0.0
1001
ACAD
1000
MTEXTBEGIN
1070
    73
1070
     1
1070
    44
1040
1.0
1070
    74
1070
     0
1000
MTEXTEND
1000
MTEXTBEGIN
1070
    73
1070
     1
1070
    44
1040
1.0
1070
    74
1070
     0
1000
MTEXTEND
  0
POINT
  5
16A6
330
886
100
AcDbEntity
  8
DEFPOINTS
 62
     0
100
AcDbPoint
 10
254.7915047374587
 20
98.72723650998906
 30
0.0
  0
POINT
  5
16A7
330
886
100
AcDbEntity
  8
DEFPOINTS
 62
     0
100
AcDbPoint
 10
239.2915047374588
 20
73.72723650998898
 30
0.0
  0
POINT
  5
16A8
330
886
100
AcDbEntity
  8
DEFPOINTS
 62
     0
100
AcDbPoint
 10
280.7111639308013
 20
73.72723650998898
 30
0.0
  0
ENDBLK
  5
891
330
886
100
AcDbEntity
  8
0
100
AcDbBlockEnd
  0
BLOCK
  5
89F
330
893
100
AcDbEntity
  8
0
100
AcDbBlockBegin
  2
*D23
 70
     1
 10
0.0
 20
0.0
 30
0.0
  3
*D23
  1

  0
LINE
  5
156F
330
893
100
AcDbEntity
  8
SUNPOU
100
AcDbLine
 10
161.2915047374587
 20
373.8325387151923
 30
0.0
 11
161.2915047374587
 21
372.8325387151921
 31
0.0
  0
LINE
  5
1570
330
893
100
AcDbEntity
  8
SUNPOU
100
AcDbLine
 10
167.2915047374587
 20
373.8325387151923
 30
0.0
 11
167.2915047374587
 21
372.8325387151921
 31
0.0
  0
LINE
  5
1571
330
893
100
AcDbEntity
  8
SUNPOU
100
AcDbLine
 10
156.2915047374587
 20
370.8325387151923
 30
0.0
 11
151.2915047374586
 21
370.8325387151923
 31
0.0
  0
LINE
  5
1572
330
893
100
AcDbEntity
  8
SUNPOU
100
AcDbLine
 10
172.2915047374586
 20
370.8325387151923
 30
0.0
 11
177.2915047374586
 21
370.8325387151923
 31
0.0
  0
MTEXT
  5
1573
330
893
100
AcDbEntity
  8
SUNPOU
 62
     6
100
AcDbMText
 10
156.5503144051888
 20
378.1047116374291
 30
0.0
 40
5.0
 41
0.0
 71
     5
 72
     1
  1
\A1;6
  7
SUNPOU
1001
ACAD
1000
MTEXTBEGIN
1070
    73
1070
     1
1070
    44
1040
1.0
1070
    74
1070
     0
1000
MTEXTEND
1000
MTEXTBEGIN
1070
    73
1070
     1
1070
    44
1040
1.0
1070
    74
1070
     0
1000
MTEXTEND
  0
LINE
  5
1574
330
893
100
AcDbEntity
  8
SUNPOU
100
AcDbLine
 10
161.2915047374587
 20
370.8325387151923
 30
0.0
 11
167.2915047374587
 21
370.8325387151923
 31
0.0
  0
INSERT
  5
1575
330
893
100
AcDbEntity
  8
SUNPOU
100
AcDbBlockReference
  2
_OPEN30
 10
161.2915047374587
 20
370.8325387151923
 30
0.0
 41
5.0
 42
5.0
 43
5.0
  0
INSERT
  5
1576
330
893
100
AcDbEntity
  8
SUNPOU
100
AcDbBlockReference
  2
_OPEN30
 10
167.2915047374587
 20
370.8325387151923
 30
0.0
 41
5.0
 42
5.0
 43
5.0
 50
180.0
  0
POINT
  5
1577
330
893
100
AcDbEntity
  8
DEFPOINTS
 62
     0
100
AcDbPoint
 10
161.2915047374587
 20
370.8325387151923
 30
0.0
  0
POINT
  5
1578
330
893
100
AcDbEntity
  8
DEFPOINTS
 62
     0
100
AcDbPoint
 10
167.2915047374587
 20
370.8325387151923
 30
0.0
  0
POINT
  5
1579
330
893
100
AcDbEntity
  8
DEFPOINTS
 62
     0
100
AcDbPoint
 10
167.2915047374587
 20
370.8325387151923
 30
0.0
  0
ENDBLK
  5
8A0
330
893
100
AcDbEntity
  8
0
100
AcDbBlockEnd
  0
BLOCK
  5
8AC
330
8A2
100
AcDbEntity
  8
0
100
AcDbBlockBegin
  2
*D24
 70
     1
 10
0.0
 20
0.0
 30
0.0
  3
*D24
  1

  0
LINE
  5
14CA
330
8A2
100
AcDbEntity
  8
SUNPOU
100
AcDbLine
 10
167.2915047374587
 20
373.8325387151923
 30
0.0
 11
167.2915047374587
 21
372.8325387151921
 31
0.0
  0
LINE
  5
14CB
330
8A2
100
AcDbEntity
  8
SUNPOU
100
AcDbLine
 10
229.2915047374588
 20
364.129551017477
 30
0.0
 11
229.2915047374588
 21
372.8325387151921
 31
0.0
  0
LINE
  5
14CC
330
8A2
100
AcDbEntity
  8
SUNPOU
100
AcDbLine
 10
172.2915047374586
 20
370.8325387151923
 30
0.0
 11
224.2915047374588
 21
370.8325387151923
 31
0.0
  0
INSERT
  5
14CD
330
8A2
100
AcDbEntity
  8
SUNPOU
100
AcDbBlockReference
  2
_OPEN30
 10
167.2915047374587
 20
370.8325387151923
 30
0.0
 41
5.0
 42
5.0
 43
5.0
 50
180.0
  0
INSERT
  5
14CE
330
8A2
100
AcDbEntity
  8
SUNPOU
100
AcDbBlockReference
  2
_OPEN30
 10
229.2915047374588
 20
370.8325387151923
 30
0.0
 41
5.0
 42
5.0
 43
5.0
  0
MTEXT
  5
14CF
330
8A2
100
AcDbEntity
  8
SUNPOU
 62
     6
100
AcDbMText
 10
198.2915047374588
 20
375.3325387151923
 30
0.0
 40
5.0
 41
0.0
 71
     5
 72
     1
  1
\A1;62
  7
SUNPOU
1001
ACAD
1000
MTEXTBEGIN
1070
    73
1070
     1
1070
    44
1040
1.0
1070
    74
1070
     0
1000
MTEXTEND
1000
MTEXTBEGIN
1070
    73
1070
     1
1070
    44
1040
1.0
1070
    74
1070
     0
1000
MTEXTEND
  0
POINT
  5
14D0
330
8A2
100
AcDbEntity
  8
DEFPOINTS
 62
     0
100
AcDbPoint
 10
167.2915047374587
 20
370.8325387151923
 30
0.0
  0
POINT
  5
14D1
330
8A2
100
AcDbEntity
  8
DEFPOINTS
 62
     0
100
AcDbPoint
 10
229.2915047374588
 20
361.129551017477
 30
0.0
  0
POINT
  5
14D2
330
8A2
100
AcDbEntity
  8
DEFPOINTS
 62
     0
100
AcDbPoint
 10
229.2915047374588
 20
370.8325387151923
 30
0.0
  0
ENDBLK
  5
8AD
330
8A2
100
AcDbEntity
  8
0
100
AcDbBlockEnd
  0
BLOCK
  5
8B9
330
8AF
100
AcDbEntity
  8
0
100
AcDbBlockBegin
  2
*D25
 70
     1
 10
0.0
 20
0.0
 30
0.0
  3
*D25
  1

  0
LINE
  5
1631
330
8AF
100
AcDbEntity
  8
SUNPOU
100
AcDbLine
 10
229.2915047374588
 20
364.129551017477
 30
0.0
 11
229.2915047374588
 21
372.8325387151921
 31
0.0
  0
LINE
  5
1632
330
8AF
100
AcDbEntity
  8
SUNPOU
100
AcDbLine
 10
269.2915047374587
 20
368.129551017477
 30
0.0
 11
269.2915047374587
 21
372.8325387151921
 31
0.0
  0
LINE
  5
1633
330
8AF
100
AcDbEntity
  8
SUNPOU
100
AcDbLine
 10
234.2915047374588
 20
370.8325387151923
 30
0.0
 11
264.2915047374588
 21
370.8325387151923
 31
0.0
  0
MTEXT
  5
1634
330
8AF
100
AcDbEntity
  8
SUNPOU
 62
     6
100
AcDbMText
 10
243.2813233775597
 20
377.3516641027792
 30
0.0
 40
5.0
 41
0.0
 71
     5
 72
     1
  1
\A1;40
  7
SUNPOU
1001
ACAD
1000
MTEXTBEGIN
1070
    73
1070
     1
1070
    44
1040
1.0
1070
    74
1070
     0
1000
MTEXTEND
1000
MTEXTBEGIN
1070
    73
1070
     1
1070
    44
1040
1.0
1070
    74
1070
     0
1000
MTEXTEND
  0
INSERT
  5
1635
330
8AF
100
AcDbEntity
  8
SUNPOU
100
AcDbBlockReference
  2
_OPEN30
 10
229.2915047374588
 20
370.8325387151923
 30
0.0
 41
5.0
 42
5.0
 43
5.0
 50
180.0
  0
INSERT
  5
1636
330
8AF
100
AcDbEntity
  8
SUNPOU
100
AcDbBlockReference
  2
_OPEN30
 10
269.2915047374587
 20
370.8325387151923
 30
0.0
 41
5.0
 42
5.0
 43
5.0
  0
POINT
  5
1637
330
8AF
100
AcDbEntity
  8
DEFPOINTS
 62
     0
100
AcDbPoint
 10
229.2915047374588
 20
361.129551017477
 30
0.0
  0
POINT
  5
1638
330
8AF
100
AcDbEntity
  8
DEFPOINTS
 62
     0
100
AcDbPoint
 10
269.2915047374587
 20
365.129551017477
 30
0.0
  0
POINT
  5
1639
330
8AF
100
AcDbEntity
  8
DEFPOINTS
 62
     0
100
AcDbPoint
 10
269.2915047374587
 20
370.8325387151923
 30
0.0
  0
ENDBLK
  5
8BA
330
8AF
100
AcDbEntity
  8
0
100
AcDbBlockEnd
  0
BLOCK
  5
8C8
330
8BC
100
AcDbEntity
  8
0
100
AcDbBlockBegin
  2
*D26
 70
     1
 10
0.0
 20
0.0
 30
0.0
  3
*D26
  1

  0
LINE
  5
161D
330
8BC
100
AcDbEntity
  8
SUNPOU
100
AcDbLine
 10
269.2915047374587
 20
368.129551017477
 30
0.0
 11
269.2915047374587
 21
372.8325387151921
 31
0.0
  0
LINE
  5
161E
330
8BC
100
AcDbEntity
  8
SUNPOU
100
AcDbLine
 10
278.2915047374588
 20
368.129551017477
 30
0.0
 11
278.2915047374588
 21
372.8325387151921
 31
0.0
  0
LINE
  5
161F
330
8BC
100
AcDbEntity
  8
SUNPOU
100
AcDbLine
 10
264.2915047374588
 20
370.8325387151923
 30
0.0
 11
259.2915047374588
 21
370.8325387151923
 31
0.0
  0
LINE
  5
1620
330
8BC
100
AcDbEntity
  8
SUNPOU
100
AcDbLine
 10
283.2915047374588
 20
370.8325387151923
 30
0.0
 11
288.2915047374588
 21
370.8325387151923
 31
0.0
  0
MTEXT
  5
1621
330
8BC
100
AcDbEntity
  8
SUNPOU
 62
     6
100
AcDbMText
 10
274.0080616933694
 20
377.4873597855456
 30
0.0
 40
5.0
 41
0.0
 71
     5
 72
     1
  1
\A1;9
  7
SUNPOU
1001
ACAD
1000
MTEXTBEGIN
1070
    73
1070
     1
1070
    44
1040
1.0
1070
    74
1070
     0
1000
MTEXTEND
1000
MTEXTBEGIN
1070
    73
1070
     1
1070
    44
1040
1.0
1070
    74
1070
     0
1000
MTEXTEND
  0
LINE
  5
1622
330
8BC
100
AcDbEntity
  8
SUNPOU
100
AcDbLine
 10
269.2915047374587
 20
370.8325387151923
 30
0.0
 11
278.2915047374588
 21
370.8325387151923
 31
0.0
  0
INSERT
  5
1623
330
8BC
100
AcDbEntity
  8
SUNPOU
100
AcDbBlockReference
  2
_OPEN30
 10
269.2915047374587
 20
370.8325387151923
 30
0.0
 41
5.0
 42
5.0
 43
5.0
  0
INSERT
  5
1624
330
8BC
100
AcDbEntity
  8
SUNPOU
100
AcDbBlockReference
  2
_OPEN30
 10
278.2915047374588
 20
370.8325387151923
 30
0.0
 41
5.0
 42
5.0
 43
5.0
 50
180.0
  0
POINT
  5
1625
330
8BC
100
AcDbEntity
  8
DEFPOINTS
 62
     0
100
AcDbPoint
 10
269.2915047374587
 20
365.129551017477
 30
0.0
  0
POINT
  5
1626
330
8BC
100
AcDbEntity
  8
DEFPOINTS
 62
     0
100
AcDbPoint
 10
278.2915047374588
 20
365.129551017477
 30
0.0
  0
POINT
  5
1627
330
8BC
100
AcDbEntity
  8
DEFPOINTS
 62
     0
100
AcDbPoint
 10
278.2915047374588
 20
370.8325387151923
 30
0.0
  0
ENDBLK
  5
8C9
330
8BC
100
AcDbEntity
  8
0
100
AcDbBlockEnd
  0
BLOCK
  5
8D5
330
8CB
100
AcDbEntity
  8
0
100
AcDbBlockBegin
  2
*D27
 70
     1
 10
0.0
 20
0.0
 30
0.0
  3
*D27
  1

  0
LINE
  5
1595
330
8CB
100
AcDbEntity
  8
SUNPOU
100
AcDbLine
 10
238.2915047374587
 20
288.129551017477
 30
0.0
 11
293.3532016827338
 21
288.129551017477
 31
0.0
  0
LINE
  5
1596
330
8CB
100
AcDbEntity
  8
SUNPOU
100
AcDbLine
 10
237.7915047374588
 20
313.129551017477
 30
0.0
 11
293.3532016827338
 21
313.129551017477
 31
0.0
  0
LINE
  5
1597
330
8CB
100
AcDbEntity
  8
SUNPOU
100
AcDbLine
 10
291.3532016827338
 20
293.129551017477
 30
0.0
 11
291.3532016827338
 21
308.129551017477
 31
0.0
  0
INSERT
  5
1598
330
8CB
100
AcDbEntity
  8
SUNPOU
100
AcDbBlockReference
  2
_OPEN30
 10
291.3532016827338
 20
288.129551017477
 30
0.0
 41
5.0
 42
5.0
 43
5.0
 50
270.0
  0
INSERT
  5
1599
330
8CB
100
AcDbEntity
  8
SUNPOU
100
AcDbBlockReference
  2
_OPEN30
 10
291.3532016827338
 20
313.129551017477
 30
0.0
 41
5.0
 42
5.0
 43
5.0
 50
90.0
  0
MTEXT
  5
159A
330
8CB
100
AcDbEntity
  8
SUNPOU
 62
     6
100
AcDbMText
 10
286.8532016827338
 20
300.629551017477
 30
0.0
 40
5.0
 41
0.0
 71
     5
 72
     1
  1
\A1;25
  7
SUNPOU
 11
0.0000000000000001
 21
1.0
 31
0.0
1001
ACAD
1000
MTEXTBEGIN
1070
    73
1070
     1
1070
    44
1040
1.0
1070
    74
1070
     0
1000
MTEXTEND
1000
MTEXTBEGIN
1070
    73
1070
     1
1070
    44
1040
1.0
1070
    74
1070
     0
1000
MTEXTEND
  0
POINT
  5
159B
330
8CB
100
AcDbEntity
  8
DEFPOINTS
 62
     0
100
AcDbPoint
 10
235.2915047374588
 20
288.129551017477
 30
0.0
  0
POINT
  5
159C
330
8CB
100
AcDbEntity
  8
DEFPOINTS
 62
     0
100
AcDbPoint
 10
234.7915047374588
 20
313.129551017477
 30
0.0
  0
POINT
  5
159D
330
8CB
100
AcDbEntity
  8
DEFPOINTS
 62
     0
100
AcDbPoint
 10
291.3532016827338
 20
313.129551017477
 30
0.0
  0
ENDBLK
  5
8D6
330
8CB
100
AcDbEntity
  8
0
100
AcDbBlockEnd
  0
BLOCK
  5
8E4
330
8D8
100
AcDbEntity
  8
0
100
AcDbBlockBegin
  2
*D28
 70
     1
 10
0.0
 20
0.0
 30
0.0
  3
*D28
  1

  0
LINE
  5
163A
330
8D8
100
AcDbEntity
  8
SUNPOU
100
AcDbLine
 10
299.6308818233313
 20
349.129551017477
 30
0.0
 11
333.5570681150715
 21
349.129551017477
 31
0.0
  0
LINE
  5
163B
330
8D8
100
AcDbEntity
  8
SUNPOU
100
AcDbLine
 10
299.6308818233313
 20
337.129551017477
 30
0.0
 11
333.5570681150715
 21
337.129551017477
 31
0.0
  0
LINE
  5
163C
330
8D8
100
AcDbEntity
  8
SUNPOU
100
AcDbLine
 10
331.5570681150715
 20
354.129551017477
 30
0.0
 11
331.5570681150715
 21
359.129551017477
 31
0.0
  0
LINE
  5
163D
330
8D8
100
AcDbEntity
  8
SUNPOU
100
AcDbLine
 10
331.5570681150715
 20
332.129551017477
 30
0.0
 11
331.5570681150715
 21
327.129551017477
 31
0.0
  0
MTEXT
  5
163E
330
8D8
100
AcDbEntity
  8
SUNPOU
 62
     6
100
AcDbMText
 10
324.0649158544586
 20
355.8037809301668
 30
0.0
 40
5.0
 41
0.0
 71
     5
 72
     1
  1
\A1;12
  7
SUNPOU
 11
0.0000000000000001
 21
1.0
 31
0.0
1001
ACAD
1000
MTEXTBEGIN
1070
    73
1070
     1
1070
    44
1040
1.0
1070
    74
1070
     0
1000
MTEXTEND
1000
MTEXTBEGIN
1070
    73
1070
     1
1070
    44
1040
1.0
1070
    74
1070
     0
1000
MTEXTEND
  0
LINE
  5
163F
330
8D8
100
AcDbEntity
  8
SUNPOU
100
AcDbLine
 10
331.5570681150715
 20
349.129551017477
 30
0.0
 11
331.5570681150715
 21
337.129551017477
 31
0.0
  0
INSERT
  5
1640
330
8D8
100
AcDbEntity
  8
SUNPOU
100
AcDbBlockReference
  2
_OPEN30
 10
331.5570681150715
 20
349.129551017477
 30
0.0
 41
5.0
 42
5.0
 43
5.0
 50
270.0
  0
INSERT
  5
1641
330
8D8
100
AcDbEntity
  8
SUNPOU
100
AcDbBlockReference
  2
_OPEN30
 10
331.5570681150715
 20
337.129551017477
 30
0.0
 41
5.0
 42
5.0
 43
5.0
 50
90.0
  0
POINT
  5
1642
330
8D8
100
AcDbEntity
  8
DEFPOINTS
 62
     0
100
AcDbPoint
 10
296.6308818233315
 20
349.129551017477
 30
0.0
  0
POINT
  5
1643
330
8D8
100
AcDbEntity
  8
DEFPOINTS
 62
     0
100
AcDbPoint
 10
296.6308818233315
 20
337.129551017477
 30
0.0
  0
POINT
  5
1644
330
8D8
100
AcDbEntity
  8
DEFPOINTS
 62
     0
100
AcDbPoint
 10
331.5570681150715
 20
337.129551017477
 30
0.0
  0
ENDBLK
  5
8E5
330
8D8
100
AcDbEntity
  8
0
100
AcDbBlockEnd
  0
BLOCK
  5
8FE
330
8F4
100
AcDbEntity
  8
0
100
AcDbBlockBegin
  2
*D29
 70
     1
 10
0.0
 20
0.0
 30
0.0
  3
*D29
  1

  0
LINE
  5
1628
330
8F4
100
AcDbEntity
  8
SUNPOU
100
AcDbLine
 10
299.6308818233313
 20
337.129551017477
 30
0.0
 11
333.5570681150715
 21
337.129551017477
 31
0.0
  0
LINE
  5
1629
330
8F4
100
AcDbEntity
  8
SUNPOU
100
AcDbLine
 10
238.2915047374587
 20
313.1295510174771
 30
0.0
 11
333.5570681150715
 21
313.1295510174771
 31
0.0
  0
LINE
  5
162A
330
8F4
100
AcDbEntity
  8
SUNPOU
100
AcDbLine
 10
331.5570681150715
 20
332.129551017477
 30
0.0
 11
331.5570681150715
 21
318.1295510174771
 31
0.0
  0
INSERT
  5
162B
330
8F4
100
AcDbEntity
  8
SUNPOU
100
AcDbBlockReference
  2
_OPEN30
 10
331.5570681150715
 20
337.129551017477
 30
0.0
 41
5.0
 42
5.0
 43
5.0
 50
90.0
  0
INSERT
  5
162C
330
8F4
100
AcDbEntity
  8
SUNPOU
100
AcDbBlockReference
  2
_OPEN30
 10
331.5570681150715
 20
313.1295510174771
 30
0.0
 41
5.0
 42
5.0
 43
5.0
 50
270.0
  0
MTEXT
  5
162D
330
8F4
100
AcDbEntity
  8
SUNPOU
 62
     6
100
AcDbMText
 10
327.0570681150713
 20
325.1295510174772
 30
0.0
 40
5.0
 41
0.0
 71
     5
 72
     1
  1
\A1;24
  7
SUNPOU
 11
0.0000000000000001
 21
1.0
 31
0.0
1001
ACAD
1000
MTEXTBEGIN
1070
    73
1070
     1
1070
    44
1040
1.0
1070
    74
1070
     0
1000
MTEXTEND
1000
MTEXTBEGIN
1070
    73
1070
     1
1070
    44
1040
1.0
1070
    74
1070
     0
1000
MTEXTEND
  0
POINT
  5
162E
330
8F4
100
AcDbEntity
  8
DEFPOINTS
 62
     0
100
AcDbPoint
 10
296.6308818233315
 20
337.129551017477
 30
0.0
  0
POINT
  5
162F
330
8F4
100
AcDbEntity
  8
DEFPOINTS
 62
     0
100
AcDbPoint
 10
235.2915047374588
 20
313.1295510174771
 30
0.0
  0
POINT
  5
1630
330
8F4
100
AcDbEntity
  8
DEFPOINTS
 62
     0
100
AcDbPoint
 10
331.5570681150715
 20
313.1295510174771
 30
0.0
  0
ENDBLK
  5
8FF
330
8F4
100
AcDbEntity
  8
0
100
AcDbBlockEnd
  0
BLOCK
  5
90B
330
901
100
AcDbEntity
  8
0
100
AcDbBlockBegin
  2
*D30
 70
     1
 10
0.0
 20
0.0
 30
0.0
  3
*D30
  1

  0
LINE
  5
159E
330
901
100
AcDbEntity
  8
SUNPOU
100
AcDbLine
 10
238.2915047374587
 20
313.1295510174771
 30
0.0
 11
333.5570681150715
 21
313.1295510174771
 31
0.0
  0
LINE
  5
159F
330
901
100
AcDbEntity
  8
SUNPOU
100
AcDbLine
 10
281.2915047374589
 20
227.1295510174769
 30
0.0
 11
333.5570681150715
 21
227.1295510174769
 31
0.0
  0
LINE
  5
15A0
330
901
100
AcDbEntity
  8
SUNPOU
100
AcDbLine
 10
331.5570681150715
 20
308.1295510174772
 30
0.0
 11
331.5570681150715
 21
232.129551017477
 31
0.0
  0
MTEXT
  5
15A1
330
901
100
AcDbEntity
  8
SUNPOU
 62
     6
100
AcDbMText
 10
324.9440033470321
 20
274.6473407821238
 30
0.0
 40
5.0
 41
0.0
 71
     5
 72
     1
  1
\A1;86
  7
SUNPOU
 11
0.0000000000000001
 21
1.0
 31
0.0
1001
ACAD
1000
MTEXTBEGIN
1070
    73
1070
     1
1070
    44
1040
1.0
1070
    74
1070
     0
1000
MTEXTEND
1000
MTEXTBEGIN
1070
    73
1070
     1
1070
    44
1040
1.0
1070
    74
1070
     0
1000
MTEXTEND
  0
INSERT
  5
15A2
330
901
100
AcDbEntity
  8
SUNPOU
100
AcDbBlockReference
  2
_OPEN30
 10
331.5570681150715
 20
313.1295510174771
 30
0.0
 41
5.0
 42
5.0
 43
5.0
 50
90.0
  0
INSERT
  5
15A3
330
901
100
AcDbEntity
  8
SUNPOU
100
AcDbBlockReference
  2
_OPEN30
 10
331.5570681150715
 20
227.1295510174769
 30
0.0
 41
5.0
 42
5.0
 43
5.0
 50
270.0
  0
POINT
  5
15A4
330
901
100
AcDbEntity
  8
DEFPOINTS
 62
     0
100
AcDbPoint
 10
235.2915047374588
 20
313.1295510174771
 30
0.0
  0
POINT
  5
15A5
330
901
100
AcDbEntity
  8
DEFPOINTS
 62
     0
100
AcDbPoint
 10
278.2915047374589
 20
227.1295510174769
 30
0.0
  0
POINT
  5
15A6
330
901
100
AcDbEntity
  8
DEFPOINTS
 62
     0
100
AcDbPoint
 10
331.5570681150715
 20
227.1295510174769
 30
0.0
  0
ENDBLK
  5
90C
330
901
100
AcDbEntity
  8
0
100
AcDbBlockEnd
  0
BLOCK
  5
918
330
90E
100
AcDbEntity
  8
0
100
AcDbBlockBegin
  2
*D31
 70
     1
 10
0.0
 20
0.0
 30
0.0
  3
*D31
  1

  0
LINE
  5
15F5
330
90E
100
AcDbEntity
  8
SUNPOU
100
AcDbLine
 10
281.2915047374589
 20
227.1295510174769
 30
0.0
 11
333.5570681150715
 21
227.1295510174769
 31
0.0
  0
LINE
  5
15F6
330
90E
100
AcDbEntity
  8
SUNPOU
100
AcDbLine
 10
313.5415047374588
 20
205.129551017477
 30
0.0
 11
333.5570681150715
 21
205.1295510174769
 31
0.0
  0
LINE
  5
15F7
330
90E
100
AcDbEntity
  8
SUNPOU
100
AcDbLine
 10
331.5570681150715
 20
222.129551017477
 30
0.0
 11
331.5570681150715
 21
210.1295510174769
 31
0.0
  0
INSERT
  5
15F8
330
90E
100
AcDbEntity
  8
SUNPOU
100
AcDbBlockReference
  2
_OPEN30
 10
331.5570681150715
 20
227.1295510174769
 30
0.0
 41
5.0
 42
5.0
 43
5.0
 50
90.0
  0
INSERT
  5
15F9
330
90E
100
AcDbEntity
  8
SUNPOU
100
AcDbBlockReference
  2
_OPEN30
 10
331.5570681150715
 20
205.1295510174769
 30
0.0
 41
5.0
 42
5.0
 43
5.0
 50
270.0
  0
MTEXT
  5
15FA
330
90E
100
AcDbEntity
  8
SUNPOU
 62
     6
100
AcDbMText
 10
327.0570681150713
 20
216.1295510174769
 30
0.0
 40
5.0
 41
0.0
 71
     5
 72
     1
  1
\A1;22
  7
SUNPOU
 11
0.0000000000000001
 21
1.0
 31
0.0
1001
ACAD
1000
MTEXTBEGIN
1070
    73
1070
     1
1070
    44
1040
1.0
1070
    74
1070
     0
1000
MTEXTEND
1000
MTEXTBEGIN
1070
    73
1070
     1
1070
    44
1040
1.0
1070
    74
1070
     0
1000
MTEXTEND
  0
POINT
  5
15FB
330
90E
100
AcDbEntity
  8
DEFPOINTS
 62
     0
100
AcDbPoint
 10
278.2915047374589
 20
227.1295510174769
 30
0.0
  0
POINT
  5
15FC
330
90E
100
AcDbEntity
  8
DEFPOINTS
 62
     0
100
AcDbPoint
 10
310.5415047374588
 20
205.129551017477
 30
0.0
  0
POINT
  5
15FD
330
90E
100
AcDbEntity
  8
DEFPOINTS
 62
     0
100
AcDbPoint
 10
331.5570681150715
 20
205.1295510174769
 30
0.0
  0
ENDBLK
  5
919
330
90E
100
AcDbEntity
  8
0
100
AcDbBlockEnd
  0
BLOCK
  5
927
330
91B
100
AcDbEntity
  8
0
100
AcDbBlockBegin
  2
*D32
 70
     1
 10
0.0
 20
0.0
 30
0.0
  3
*D32
  1

  0
LINE
  5
15B0
330
91B
100
AcDbEntity
  8
SUNPOU
100
AcDbLine
 10
313.5415047374588
 20
205.129551017477
 30
0.0
 11
333.5570681150715
 21
205.1295510174769
 31
0.0
  0
LINE
  5
15B1
330
91B
100
AcDbEntity
  8
SUNPOU
100
AcDbLine
 10
259.2915047374588
 20
201.129551017477
 30
0.0
 11
333.5570681150715
 21
201.129551017477
 31
0.0
  0
LINE
  5
15B2
330
91B
100
AcDbEntity
  8
SUNPOU
100
AcDbLine
 10
331.5570681150715
 20
210.1295510174769
 30
0.0
 11
331.5570681150715
 21
215.1295510174769
 31
0.0
  0
LINE
  5
15B3
330
91B
100
AcDbEntity
  8
SUNPOU
100
AcDbLine
 10
331.5570681150715
 20
196.1295510174769
 30
0.0
 11
331.5570681150715
 21
191.1295510174769
 31
0.0
  0
MTEXT
  5
15B4
330
91B
100
AcDbEntity
  8
SUNPOU
 62
     6
100
AcDbMText
 10
346.5931470373813
 20
208.7064286409784
 30
0.0
 40
5.0
 41
0.0
 71
     5
 72
     1
  1
\A1;4
  7
SUNPOU
 11
0.0000000000000001
 21
1.0
 31
0.0
1001
ACAD
1000
MTEXTBEGIN
1070
    73
1070
     1
1070
    44
1040
1.0
1070
    74
1070
     0
1000
MTEXTEND
1000
MTEXTBEGIN
1070
    73
1070
     1
1070
    44
1040
1.0
1070
    74
1070
     0
1000
MTEXTEND
  0
LINE
  5
15B5
330
91B
100
AcDbEntity
  8
SUNPOU
100
AcDbLine
 10
331.5570681150715
 20
205.1295510174769
 30
0.0
 11
331.5570681150715
 21
201.129551017477
 31
0.0
  0
INSERT
  5
15B6
330
91B
100
AcDbEntity
  8
SUNPOU
100
AcDbBlockReference
  2
_OPEN30
 10
331.5570681150715
 20
205.1295510174769
 30
0.0
 41
5.0
 42
5.0
 43
5.0
 50
270.0
  0
INSERT
  5
15B7
330
91B
100
AcDbEntity
  8
SUNPOU
100
AcDbBlockReference
  2
_OPEN30
 10
331.5570681150715
 20
201.129551017477
 30
0.0
 41
5.0
 42
5.0
 43
5.0
 50
90.0
  0
POINT
  5
15B8
330
91B
100
AcDbEntity
  8
DEFPOINTS
 62
     0
100
AcDbPoint
 10
310.5415047374588
 20
205.129551017477
 30
0.0
  0
POINT
  5
15B9
330
91B
100
AcDbEntity
  8
DEFPOINTS
 62
     0
100
AcDbPoint
 10
256.2915047374588
 20
201.129551017477
 30
0.0
  0
POINT
  5
15BA
330
91B
100
AcDbEntity
  8
DEFPOINTS
 62
     0
100
AcDbPoint
 10
331.5570681150715
 20
201.129551017477
 30
0.0
  0
ENDBLK
  5
928
330
91B
100
AcDbEntity
  8
0
100
AcDbBlockEnd
  0
BLOCK
  5
934
330
92A
100
AcDbEntity
  8
0
100
AcDbBlockBegin
  2
*D33
 70
     1
 10
0.0
 20
0.0
 30
0.0
  3
*D33
  1

  0
LINE
  5
1583
330
92A
100
AcDbEntity
  8
SUNPOU
100
AcDbLine
 10
317.5265835404036
 20
535.1295510174771
 30
0.0
 11
374.449329248123
 21
535.1295510174771
 31
0.0
  0
LINE
  5
1584
330
92A
100
AcDbEntity
  8
SUNPOU
100
AcDbLine
 10
317.5265835404036
 20
205.129551017477
 30
0.0
 11
374.4493292481228
 21
205.129551017477
 31
0.0
  0
LINE
  5
1585
330
92A
100
AcDbEntity
  8
SUNPOU
100
AcDbLine
 10
372.449329248123
 20
530.129551017477
 30
0.0
 11
372.4493292481228
 21
210.1295510174769
 31
0.0
  0
INSERT
  5
1586
330
92A
100
AcDbEntity
  8
SUNPOU
100
AcDbBlockReference
  2
_OPEN30
 10
372.449329248123
 20
535.1295510174771
 30
0.0
 41
5.0
 42
5.0
 43
5.0
 50
90.0
  0
INSERT
  5
1587
330
92A
100
AcDbEntity
  8
SUNPOU
100
AcDbBlockReference
  2
_OPEN30
 10
372.4493292481228
 20
205.129551017477
 30
0.0
 41
5.0
 42
5.0
 43
5.0
 50
270.0
  0
MTEXT
  5
1588
330
92A
100
AcDbEntity
  8
SUNPOU
 62
     6
100
AcDbMText
 10
367.9493292481228
 20
370.1295510174771
 30
0.0
 40
5.0
 41
0.0
 71
     5
 72
     1
  1
\A1;330
  7
SUNPOU
 11
0.0000000000000001
 21
1.0
 31
0.0
1001
ACAD
1000
MTEXTBEGIN
1070
    73
1070
     1
1070
    44
1040
1.0
1070
    74
1070
     0
1000
MTEXTEND
1000
MTEXTBEGIN
1070
    73
1070
     1
1070
    44
1040
1.0
1070
    74
1070
     0
1000
MTEXTEND
  0
POINT
  5
1589
330
92A
100
AcDbEntity
  8
DEFPOINTS
 62
     0
100
AcDbPoint
 10
314.5265835404036
 20
535.1295510174771
 30
0.0
  0
POINT
  5
158A
330
92A
100
AcDbEntity
  8
DEFPOINTS
 62
     0
100
AcDbPoint
 10
314.5265835404036
 20
205.129551017477
 30
0.0
  0
POINT
  5
158B
330
92A
100
AcDbEntity
  8
DEFPOINTS
 62
     0
100
AcDbPoint
 10
372.4493292481228
 20
205.129551017477
 30
0.0
  0
ENDBLK
  5
935
330
92A
100
AcDbEntity
  8
0
100
AcDbBlockEnd
  0
BLOCK
  5
941
330
937
100
AcDbEntity
  8
0
100
AcDbBlockBegin
  2
*D34
 70
     1
 10
0.0
 20
0.0
 30
0.0
  3
*D34
  1

  0
LINE
  5
16DA
330
937
100
AcDbEntity
  8
SUNPOU
100
AcDbLine
 10
313.5415047374588
 20
205.129551017477
 30
0.0
 11
370.4642504451781
 21
205.129551017477
 31
0.0
  0
LINE
  5
16DB
330
937
100
AcDbEntity
  8
SUNPOU
100
AcDbLine
 10
355.5324635456512
 20
95.72723650998906
 30
0.0
 11
370.4642504451781
 21
95.72723650998906
 31
0.0
  0
LINE
  5
16DC
330
937
100
AcDbEntity
  8
SUNPOU
100
AcDbLine
 10
368.4642504451781
 20
200.1295510174769
 30
0.0
 11
368.464250445178
 21
100.727236509989
 31
0.0
  0
INSERT
  5
16DD
330
937
100
AcDbEntity
  8
SUNPOU
100
AcDbBlockReference
  2
_OPEN30
 10
368.4642504451781
 20
205.129551017477
 30
0.0
 41
5.0
 42
5.0
 43
5.0
 50
90.0
  0
INSERT
  5
16DE
330
937
100
AcDbEntity
  8
SUNPOU
100
AcDbBlockReference
  2
_OPEN30
 10
368.464250445178
 20
95.72723650998906
 30
0.0
 41
5.0
 42
5.0
 43
5.0
 50
270.0
  0
MTEXT
  5
16DF
330
937
100
AcDbEntity
  8
SUNPOU
 62
     6
100
AcDbMText
 10
363.9642504451781
 20
150.428393763733
 30
0.0
 40
5.0
 41
0.0
 71
     5
 72
     1
  1
\A1;H
  7
SUNPOU
 11
0.0000000000000001
 21
1.0
 31
0.0
1001
ACAD
1000
MTEXTBEGIN
1070
    73
1070
     1
1070
    44
1040
1.0
1070
    74
1070
     0
1000
MTEXTEND
1000
MTEXTBEGIN
1070
    73
1070
     1
1070
    44
1040
1.0
1070
    74
1070
     0
1000
MTEXTEND
  0
POINT
  5
16E0
330
937
100
AcDbEntity
  8
DEFPOINTS
 62
     0
100
AcDbPoint
 10
310.5415047374588
 20
205.129551017477
 30
0.0
  0
POINT
  5
16E1
330
937
100
AcDbEntity
  8
DEFPOINTS
 62
     0
100
AcDbPoint
 10
352.5324635456513
 20
95.72723650998906
 30
0.0
  0
POINT
  5
16E2
330
937
100
AcDbEntity
  8
DEFPOINTS
 62
     0
100
AcDbPoint
 10
368.464250445178
 20
95.72723650998906
 30
0.0
  0
ENDBLK
  5
942
330
937
100
AcDbEntity
  8
0
100
AcDbBlockEnd
  0
BLOCK
  5
94E
330
944
100
AcDbEntity
  8
0
100
AcDbBlockBegin
  2
*D35
 70
     1
 10
0.0
 20
0.0
 30
0.0
  3
*D35
  1

  0
LINE
  5
16B2
330
944
100
AcDbEntity
  8
SUNPOU
100
AcDbLine
 10
259.2915047374588
 20
201.129551017477
 30
0.0
 11
354.5324635456513
 21
201.129551017477
 31
0.0
  0
LINE
  5
16B3
330
944
100
AcDbEntity
  8
SUNPOU
100
AcDbLine
 10
259.2915047374588
 20
105.727236509989
 30
0.0
 11
354.5324635456513
 21
105.727236509989
 31
0.0
  0
LINE
  5
16B4
330
944
100
AcDbEntity
  8
SUNPOU
100
AcDbLine
 10
352.5324635456513
 20
196.1295510174769
 30
0.0
 11
352.5324635456513
 21
110.7272365099889
 31
0.0
  0
INSERT
  5
16B5
330
944
100
AcDbEntity
  8
SUNPOU
100
AcDbBlockReference
  2
_OPEN30
 10
352.5324635456513
 20
201.129551017477
 30
0.0
 41
5.0
 42
5.0
 43
5.0
 50
90.0
  0
INSERT
  5
16B6
330
944
100
AcDbEntity
  8
SUNPOU
100
AcDbBlockReference
  2
_OPEN30
 10
352.5324635456513
 20
105.727236509989
 30
0.0
 41
5.0
 42
5.0
 43
5.0
 50
270.0
  0
MTEXT
  5
16B7
330
944
100
AcDbEntity
  8
SUNPOU
 62
     6
100
AcDbMText
 10
348.0324635456513
 20
153.428393763733
 30
0.0
 40
5.0
 41
0.0
 71
     5
 72
     1
  1
\A1;DH
  7
SUNPOU
 11
0.0000000000000001
 21
1.0
 31
0.0
1001
ACAD
1000
MTEXTBEGIN
1070
    73
1070
     1
1070
    44
1040
1.0
1070
    74
1070
     0
1000
MTEXTEND
1000
MTEXTBEGIN
1070
    73
1070
     1
1070
    44
1040
1.0
1070
    74
1070
     0
1000
MTEXTEND
  0
POINT
  5
16B8
330
944
100
AcDbEntity
  8
DEFPOINTS
 62
     0
100
AcDbPoint
 10
256.2915047374588
 20
201.129551017477
 30
0.0
  0
POINT
  5
16B9
330
944
100
AcDbEntity
  8
DEFPOINTS
 62
     0
100
AcDbPoint
 10
256.2915047374588
 20
105.727236509989
 30
0.0
  0
POINT
  5
16BA
330
944
100
AcDbEntity
  8
DEFPOINTS
 62
     0
100
AcDbPoint
 10
352.5324635456513
 20
105.727236509989
 30
0.0
  0
ENDBLK
  5
94F
330
944
100
AcDbEntity
  8
0
100
AcDbBlockEnd
  0
BLOCK
  5
95D
330
951
100
AcDbEntity
  8
0
100
AcDbBlockBegin
  2
*D36
 70
     1
 10
0.0
 20
0.0
 30
0.0
  3
*D36
  1

  0
LINE
  5
16E3
330
951
100
AcDbEntity
  8
SUNPOU
100
AcDbLine
 10
259.2915047374588
 20
105.727236509989
 30
0.0
 11
354.5324635456513
 21
105.727236509989
 31
0.0
  0
LINE
  5
16E4
330
951
100
AcDbEntity
  8
SUNPOU
100
AcDbLine
 10
339.616263499935
 20
95.72723650998906
 30
0.0
 11
354.5324635456513
 21
95.727236509989
 31
0.0
  0
LINE
  5
16E5
330
951
100
AcDbEntity
  8
SUNPOU
100
AcDbLine
 10
352.5324635456513
 20
110.7272365099889
 30
0.0
 11
352.5324635456513
 21
115.7272365099889
 31
0.0
  0
LINE
  5
16E6
330
951
100
AcDbEntity
  8
SUNPOU
100
AcDbLine
 10
352.5324635456513
 20
90.727236509989
 30
0.0
 11
352.5324635456513
 21
85.727236509989
 31
0.0
  0
MTEXT
  5
16E7
330
951
100
AcDbEntity
  8
SUNPOU
 62
     6
100
AcDbMText
 10
346.3967343585451
 20
100.6679326229899
 30
0.0
 40
5.0
 41
0.0
 71
     5
 72
     1
  1
\A1;10
  7
SUNPOU
 11
0.0000000000000001
 21
1.0
 31
0.0
1001
ACAD
1000
MTEXTBEGIN
1070
    73
1070
     1
1070
    44
1040
1.0
1070
    74
1070
     0
1000
MTEXTEND
1000
MTEXTBEGIN
1070
    73
1070
     1
1070
    44
1040
1.0
1070
    74
1070
     0
1000
MTEXTEND
  0
LINE
  5
16E8
330
951
100
AcDbEntity
  8
SUNPOU
100
AcDbLine
 10
352.5324635456513
 20
105.727236509989
 30
0.0
 11
352.5324635456513
 21
95.727236509989
 31
0.0
  0
INSERT
  5
16E9
330
951
100
AcDbEntity
  8
SUNPOU
100
AcDbBlockReference
  2
_OPEN30
 10
352.5324635456513
 20
105.727236509989
 30
0.0
 41
5.0
 42
5.0
 43
5.0
 50
270.0
  0
INSERT
  5
16EA
330
951
100
AcDbEntity
  8
SUNPOU
100
AcDbBlockReference
  2
_OPEN30
 10
352.5324635456513
 20
95.727236509989
 30
0.0
 41
5.0
 42
5.0
 43
5.0
 50
90.0
  0
POINT
  5
16EB
330
951
100
AcDbEntity
  8
DEFPOINTS
 62
     0
100
AcDbPoint
 10
256.2915047374588
 20
105.727236509989
 30
0.0
  0
POINT
  5
16EC
330
951
100
AcDbEntity
  8
DEFPOINTS
 62
     0
100
AcDbPoint
 10
336.616263499935
 20
95.72723650998906
 30
0.0
  0
POINT
  5
16ED
330
951
100
AcDbEntity
  8
DEFPOINTS
 62
     0
100
AcDbPoint
 10
352.5324635456513
 20
95.727236509989
 30
0.0
  0
ENDBLK
  5
95E
330
951
100
AcDbEntity
  8
0
100
AcDbBlockEnd
  0
BLOCK
  5
96A
330
960
100
AcDbEntity
  8
0
100
AcDbBlockBegin
  2
*D37
 70
     1
 10
0.0
 20
0.0
 30
0.0
  3
*D37
  1

  0
LINE
  5
16FA
330
960
100
AcDbEntity
  8
SUNPOU
100
AcDbLine
 10
305.4790399697431
 20
139.7952389674609
 30
0.0
 11
338.616263499935
 21
139.7952389674609
 31
0.0
  0
LINE
  5
16FB
330
960
100
AcDbEntity
  8
SUNPOU
100
AcDbLine
 10
305.4790399697431
 20
95.72723650998906
 30
0.0
 11
338.616263499935
 21
95.72723650998906
 31
0.0
  0
LINE
  5
16FC
330
960
100
AcDbEntity
  8
SUNPOU
100
AcDbLine
 10
336.616263499935
 20
134.7952389674609
 30
0.0
 11
336.616263499935
 21
100.727236509989
 31
0.0
  0
INSERT
  5
16FD
330
960
100
AcDbEntity
  8
SUNPOU
100
AcDbBlockReference
  2
_OPEN30
 10
336.616263499935
 20
139.7952389674609
 30
0.0
 41
5.0
 42
5.0
 43
5.0
 50
90.0
  0
INSERT
  5
16FE
330
960
100
AcDbEntity
  8
SUNPOU
100
AcDbBlockReference
  2
_OPEN30
 10
336.616263499935
 20
95.72723650998906
 30
0.0
 41
5.0
 42
5.0
 43
5.0
 50
270.0
  0
MTEXT
  5
16FF
330
960
100
AcDbEntity
  8
SUNPOU
 62
     6
100
AcDbMText
 10
332.1162634999351
 20
117.7612377387249
 30
0.0
 40
5.0
 41
0.0
 71
     5
 72
     1
  1
\A1;600
  7
SUNPOU
 11
0.0000000000000001
 21
1.0
 31
0.0
1001
ACAD
1000
MTEXTBEGIN
1070
    73
1070
     1
1070
    44
1040
1.0
1070
    74
1070
     0
1000
MTEXTEND
1000
MTEXTBEGIN
1070
    73
1070
     1
1070
    44
1040
1.0
1070
    74
1070
     0
1000
MTEXTEND
  0
POINT
  5
1700
330
960
100
AcDbEntity
  8
DEFPOINTS
 62
     0
100
AcDbPoint
 10
302.4790399697431
 20
139.7952389674609
 30
0.0
  0
POINT
  5
1701
330
960
100
AcDbEntity
  8
DEFPOINTS
 62
     0
100
AcDbPoint
 10
302.4790399697431
 20
95.72723650998906
 30
0.0
  0
POINT
  5
1702
330
960
100
AcDbEntity
  8
DEFPOINTS
 62
     0
100
AcDbPoint
 10
336.616263499935
 20
95.72723650998906
 30
0.0
  0
ENDBLK
  5
96B
330
960
100
AcDbEntity
  8
0
100
AcDbBlockEnd
  0
BLOCK
  5
989
330
97F
100
AcDbEntity
  8
0
100
AcDbBlockBegin
  2
*D38
 70
     1
 10
0.0
 20
0.0
 30
0.0
  3
*D38
  1

  0
LINE
  5
158C
330
97F
100
AcDbEntity
  8
SUNPOU
100
AcDbLine
 10
313.5415047374588
 20
205.129551017477
 30
0.0
 11
354.5324635456513
 21
205.129551017477
 31
0.0
  0
LINE
  5
158D
330
97F
100
AcDbEntity
  8
SUNPOU
100
AcDbLine
 10
312.7915047374588
 20
443.129551017477
 30
0.0
 11
354.5324635456513
 21
443.129551017477
 31
0.0
  0
LINE
  5
158E
330
97F
100
AcDbEntity
  8
SUNPOU
100
AcDbLine
 10
352.5324635456513
 20
210.1295510174769
 30
0.0
 11
352.5324635456513
 21
438.129551017477
 31
0.0
  0
INSERT
  5
158F
330
97F
100
AcDbEntity
  8
SUNPOU
100
AcDbBlockReference
  2
_OPEN30
 10
352.5324635456513
 20
205.129551017477
 30
0.0
 41
5.0
 42
5.0
 43
5.0
 50
270.0
  0
INSERT
  5
1590
330
97F
100
AcDbEntity
  8
SUNPOU
100
AcDbBlockReference
  2
_OPEN30
 10
352.5324635456513
 20
443.129551017477
 30
0.0
 41
5.0
 42
5.0
 43
5.0
 50
90.0
  0
MTEXT
  5
1591
330
97F
100
AcDbEntity
  8
SUNPOU
 62
     6
100
AcDbMText
 10
348.0324635456511
 20
324.129551017477
 30
0.0
 40
5.0
 41
0.0
 71
     5
 72
     1
  1
\A1;238
  7
SUNPOU
 11
0.0000000000000001
 21
1.0
 31
0.0
1001
ACAD
1000
MTEXTBEGIN
1070
    73
1070
     1
1070
    44
1040
1.0
1070
    74
1070
     0
1000
MTEXTEND
1000
MTEXTBEGIN
1070
    73
1070
     1
1070
    44
1040
1.0
1070
    74
1070
     0
1000
MTEXTEND
  0
POINT
  5
1592
330
97F
100
AcDbEntity
  8
DEFPOINTS
 62
     0
100
AcDbPoint
 10
310.5415047374588
 20
205.129551017477
 30
0.0
  0
POINT
  5
1593
330
97F
100
AcDbEntity
  8
DEFPOINTS
 62
     0
100
AcDbPoint
 10
309.7915047374588
 20
443.129551017477
 30
0.0
  0
POINT
  5
1594
330
97F
100
AcDbEntity
  8
DEFPOINTS
 62
     0
100
AcDbPoint
 10
352.5324635456513
 20
443.129551017477
 30
0.0
  0
ENDBLK
  5
98A
330
97F
100
AcDbEntity
  8
0
100
AcDbBlockEnd
  0
BLOCK
  5
A90
330
A89
100
AcDbEntity
  8
0
100
AcDbBlockBegin
  2
*D39
 70
     1
 10
0.0
 20
0.0
 30
0.0
  3
*D39
  1

  0
LINE
  5
14B7
330
A89
100
AcDbEntity
  8
SUNPOU
100
AcDbLine
 10
244.3185118659455
 20
478.9059282818596
 30
0.0
 11
248.4397695288297
 21
481.7370473673308
 31
0.0
  0
LINE
  5
14B8
330
A89
100
AcDbEntity
  8
SUNPOU
100
AcDbLine
 10
211.3484505628718
 20
456.2569755980913
 30
0.0
 11
207.2271928999876
 21
453.4258565126203
 31
0.0
  0
MTEXT
  5
14B9
330
A89
100
AcDbEntity
  8
SUNPOU
 62
     6
100
AcDbMText
 10
227.8334812144086
 20
467.5814519399753
 30
0.0
 40
5.0
 41
0.0
 71
     5
 72
     1
  1
\A1;電線穴φ30\P(両端)
  7
SUNPOU
 11
0.8242515325768378
 21
0.5662238170942072
 31
0.0
1001
ACAD
1000
MTEXTBEGIN
1070
    73
1070
     1
1070
    44
1040
1.0
1070
    74
1070
     0
1000
MTEXTEND
1000
MTEXTBEGIN
1070
    73
1070
     1
1070
    44
1040
1.0
1070
    74
1070
     0
1000
MTEXTEND
  0
LINE
  5
14BA
330
A89
100
AcDbEntity
  8
SUNPOU
100
AcDbLine
 10
240.1972542030613
 20
476.0748091963886
 30
0.0
 11
215.4697082257559
 21
459.0880946835624
 31
0.0
  0
INSERT
  5
14BB
330
A89
100
AcDbEntity
  8
SUNPOU
100
AcDbBlockReference
  2
_OPEN30
 10
240.1972542030613
 20
476.0748091963886
 30
0.0
 41
5.0
 42
5.0
 43
5.0
 50
214.487318578482
  0
INSERT
  5
14BC
330
A89
100
AcDbEntity
  8
SUNPOU
100
AcDbBlockReference
  2
_OPEN30
 10
215.4697082257559
 20
459.0880946835624
 30
0.0
 41
5.0
 42
5.0
 43
5.0
 50
34.48731857848201
  0
POINT
  5
14BD
330
A89
100
AcDbEntity
  8
DEFPOINTS
 62
     0
100
AcDbPoint
 10
215.4697082257559
 20
459.0880946835624
 30
0.0
  0
POINT
  5
14BE
330
A89
100
AcDbEntity
  8
DEFPOINTS
 62
     0
100
AcDbPoint
 10
240.1972542030613
 20
476.0748091963886
 30
0.0
  0
ENDBLK
  5
A91
330
A89
100
AcDbEntity
  8
0
100
AcDbBlockEnd
  0
BLOCK
  5
AD1
330
AC7
100
AcDbEntity
  8
0
100
AcDbBlockBegin
  2
*D40
 70
     1
 10
0.0
 20
0.0
 30
0.0
  3
*D40
  1

  0
LINE
  5
16A9
330
AC7
100
AcDbEntity
  8
SUNPOU
100
AcDbLine
 10
219.2915047374587
 20
70.72723650998899
 30
0.0
 11
219.2915047374587
 21
50.75143694438236
 31
0.0
  0
LINE
  5
16AA
330
AC7
100
AcDbEntity
  8
SUNPOU
100
AcDbLine
 10
239.2915047374588
 20
70.72723650998899
 30
0.0
 11
239.2915047374588
 21
50.75143694438236
 31
0.0
  0
LINE
  5
16AB
330
AC7
100
AcDbEntity
  8
SUNPOU
100
AcDbLine
 10
224.2915047374588
 20
52.75143694438236
 30
0.0
 11
234.2915047374588
 21
52.75143694438236
 31
0.0
  0
INSERT
  5
16AC
330
AC7
100
AcDbEntity
  8
SUNPOU
100
AcDbBlockReference
  2
_OPEN30
 10
219.2915047374587
 20
52.75143694438236
 30
0.0
 41
5.0
 42
5.0
 43
5.0
 50
180.0
  0
INSERT
  5
16AD
330
AC7
100
AcDbEntity
  8
SUNPOU
100
AcDbBlockReference
  2
_OPEN30
 10
239.2915047374588
 20
52.75143694438236
 30
0.0
 41
5.0
 42
5.0
 43
5.0
  0
MTEXT
  5
16AE
330
AC7
100
AcDbEntity
  8
SUNPOU
 62
     6
100
AcDbMText
 10
229.2915047374588
 20
57.25143694438236
 30
0.0
 40
5.0
 41
0.0
 71
     5
 72
     1
  1
\A1;20
  7
SUNPOU
1001
ACAD
1000
MTEXTBEGIN
1070
    73
1070
     1
1070
    44
1040
1.0
1070
    74
1070
     0
1000
MTEXTEND
1000
MTEXTBEGIN
1070
    73
1070
     1
1070
    44
1040
1.0
1070
    74
1070
     0
1000
MTEXTEND
  0
POINT
  5
16AF
330
AC7
100
AcDbEntity
  8
DEFPOINTS
 62
     0
100
AcDbPoint
 10
219.2915047374587
 20
73.72723650998898
 30
0.0
  0
POINT
  5
16B0
330
AC7
100
AcDbEntity
  8
DEFPOINTS
 62
     0
100
AcDbPoint
 10
239.2915047374588
 20
73.72723650998898
 30
0.0
  0
POINT
  5
16B1
330
AC7
100
AcDbEntity
  8
DEFPOINTS
 62
     0
100
AcDbPoint
 10
239.2915047374588
 20
52.75143694438236
 30
0.0
  0
ENDBLK
  5
AD2
330
AC7
100
AcDbEntity
  8
0
100
AcDbBlockEnd
  0
BLOCK
  5
1034
330
1032
100
AcDbEntity
  8
0
100
AcDbBlockBegin
  2
_DOTSMALL
 70
     0
 10
0.0
 20
0.0
 30
0.0
  3
_DOTSMALL
  1

  0
POLYLINE
  5
1033
330
1032
100
AcDbEntity
  8
0
  6
BYBLOCK
 62
     0
100
AcDb2dPolyline
 66
     1
 10
0.0
 20
0.0
 30
0.0
 70
     1
 40
0.5
 41
0.5
  0
VERTEX
  5
191E
330
1033
100
AcDbEntity
  8
0
  6
BYBLOCK
 62
     0
100
AcDbVertex
100
AcDb2dVertex
 10
-0.0625
 20
0.0
 30
0.0
 42
1.0
  0
VERTEX
  5
191F
330
1033
100
AcDbEntity
  8
0
  6
BYBLOCK
 62
     0
100
AcDbVertex
100
AcDb2dVertex
 10
0.0625
 20
0.0
 30
0.0
 42
1.0
  0
SEQEND
  5
1920
330
1033
100
AcDbEntity
  8
0
  6
BYBLOCK
 62
     0
  0
ENDBLK
  5
1035
330
1032
100
AcDbEntity
  8
0
100
AcDbBlockEnd
  0
BLOCK
  5
12F0
330
12E7
100
AcDbEntity
  8
0
100
AcDbBlockBegin
  2
*D42
 70
     1
 10
0.0
 20
0.0
 30
0.0
  3
*D42
  1

  0
LINE
  5
1645
330
12E7
100
AcDbEntity
  8
SUNPOU
  6
CONTINUOUS
100
AcDbLine
 10
287.1433856304527
 20
429.0168411259132
 30
0.0
 11
295.4396238444646
 21
434.7700054853953
 31
0.0
  0
MTEXT
  5
1646
330
12E7
100
AcDbEntity
  8
SUNPOU
  6
CONTINUOUS
 62
     6
100
AcDbMText
 10
306.6604884309652
 20
442.5513006406624
 30
0.0
 40
5.0
 41
0.0
 71
     5
 72
     1
  1
\A1;  
  7
SUNPOU
 11
0.8217462383718007
 21
0.5698535949889196
 31
0.0
1001
ACAD
1000
MTEXTBEGIN
1070
    73
1070
     1
1070
    44
1040
1.0
1070
    74
1070
     0
1000
MTEXTEND
1000
MTEXTBEGIN
1070
    73
1070
     1
1070
    44
1040
1.0
1070
    74
1070
     0
1000
MTEXTEND
  0
INSERT
  5
1647
330
12E7
100
AcDbEntity
  8
SUNPOU
  6
CONTINUOUS
100
AcDbBlockReference
  2
_OPEN30
 10
283.0346544385936
 20
426.1675731509686
 30
0.0
 41
5.0
 42
5.0
 43
5.0
 50
214.7400171185281
  0
INSERT
  5
1648
330
12E7
100
AcDbEntity
  8
SUNPOU
  6
CONTINUOUS
100
AcDbBlockReference
  2
_OPEN30
 10
299.5483550363236
 20
437.6192734603399
 30
0.0
 41
5.0
 42
5.0
 43
5.0
 50
34.74001711852825
  0
POINT
  5
1649
330
12E7
100
AcDbEntity
  8
DEFPOINTS
  6
CONTINUOUS
 62
     0
100
AcDbPoint
 10
299.5483550363236
 20
437.6192734603399
 30
0.0
  0
POINT
  5
164A
330
12E7
100
AcDbEntity
  8
DEFPOINTS
  6
CONTINUOUS
 62
     0
100
AcDbPoint
 10
283.0346544385936
 20
426.1675731509686
 30
0.0
  0
ENDBLK
  5
12F1
330
12E7
100
AcDbEntity
  8
0
100
AcDbBlockEnd
  0
BLOCK
  5
1705
330
1704
100
AcDbEntity
  8
0
100
AcDbBlockBegin
  2
_NONE
 70
     0
 10
0.0
 20
0.0
 30
0.0
  3
_NONE
  1

  0
ENDBLK
  5
1706
330
1704
100
AcDbEntity
  8
0
100
AcDbBlockEnd
  0
BLOCK
  5
17CD
330
17C1
100
AcDbEntity
  8
0
100
AcDbBlockBegin
  2
*D44
 70
     1
 10
0.0
 20
0.0
 30
0.0
  3
*D44
  1

  0
LINE
  5
181C
330
17C1
100
AcDbEntity
  8
SUNPOU
100
AcDbLine
 10
179.2915047374586
 20
327.129551017477
 30
0.0
 11
189.4568062686151
 21
327.129551017477
 31
0.0
  0
LINE
  5
181D
330
17C1
100
AcDbEntity
  8
SUNPOU
100
AcDbLine
 10
179.2915047374586
 20
319.129551017477
 30
0.0
 11
189.456806268615
 21
319.129551017477
 31
0.0
  0
LINE
  5
181E
330
17C1
100
AcDbEntity
  8
SUNPOU
100
AcDbLine
 10
187.4568062686151
 20
332.129551017477
 30
0.0
 11
187.4568062686151
 21
337.129551017477
 31
0.0
  0
LINE
  5
181F
330
17C1
100
AcDbEntity
  8
SUNPOU
100
AcDbLine
 10
187.4568062686151
 20
314.129551017477
 30
0.0
 11
187.4568062686151
 21
309.129551017477
 31
0.0
  0
LINE
  5
1820
330
17C1
100
AcDbEntity
  8
SUNPOU
100
AcDbLine
 10
187.4568062686151
 20
327.129551017477
 30
0.0
 11
187.4568062686151
 21
319.129551017477
 31
0.0
  0
INSERT
  5
1821
330
17C1
100
AcDbEntity
  8
SUNPOU
100
AcDbBlockReference
  2
_OPEN30
 10
187.4568062686151
 20
327.129551017477
 30
0.0
 41
5.0
 42
5.0
 43
5.0
 50
270.0
  0
INSERT
  5
1822
330
17C1
100
AcDbEntity
  8
SUNPOU
100
AcDbBlockReference
  2
_OPEN30
 10
187.4568062686151
 20
319.129551017477
 30
0.0
 41
5.0
 42
5.0
 43
5.0
 50
90.0
  0
MTEXT
  5
1823
330
17C1
100
AcDbEntity
  8
SUNPOU
 62
     6
100
AcDbMText
 10
182.9568062686149
 20
323.129551017477
 30
0.0
 40
5.0
 41
0.0
 71
     5
 72
     1
  1
\A1;8
  7
SUNPOU
 11
0.0000000000000001
 21
1.0
 31
0.0
1001
ACAD
1000
MTEXTBEGIN
1070
    73
1070
     1
1070
    44
1040
1.0
1070
    74
1070
     0
1000
MTEXTEND
1000
MTEXTBEGIN
1070
    73
1070
     1
1070
    44
1040
1.0
1070
    74
1070
     0
1000
MTEXTEND
  0
POINT
  5
1824
330
17C1
100
AcDbEntity
  8
DEFPOINTS
 62
     0
100
AcDbPoint
 10
176.2915047374586
 20
327.129551017477
 30
0.0
  0
POINT
  5
1825
330
17C1
100
AcDbEntity
  8
DEFPOINTS
 62
     0
100
AcDbPoint
 10
176.2915047374586
 20
319.129551017477
 30
0.0
  0
POINT
  5
1826
330
17C1
100
AcDbEntity
  8
DEFPOINTS
 62
     0
100
AcDbPoint
 10
187.4568062686151
 20
319.129551017477
 30
0.0
  0
ENDBLK
  5
17CE
330
17C1
100
AcDbEntity
  8
0
100
AcDbBlockEnd
  0
BLOCK
  5
17DC
330
17D0
100
AcDbEntity
  8
0
100
AcDbBlockBegin
  2
*D45
 70
     1
 10
0.0
 20
0.0
 30
0.0
  3
*D45
  1

  0
LINE
  5
1827
330
17D0
100
AcDbEntity
  8
SUNPOU
100
AcDbLine
 10
179.2915047374586
 20
319.129551017477
 30
0.0
 11
189.456806268615
 21
319.129551017477
 31
0.0
  0
LINE
  5
1828
330
17D0
100
AcDbEntity
  8
SUNPOU
100
AcDbLine
 10
179.2915047374586
 20
307.129551017477
 30
0.0
 11
189.456806268615
 21
307.129551017477
 31
0.0
  0
LINE
  5
1829
330
17D0
100
AcDbEntity
  8
SUNPOU
100
AcDbLine
 10
187.4568062686151
 20
324.129551017477
 30
0.0
 11
187.4568062686151
 21
329.129551017477
 31
0.0
  0
LINE
  5
182A
330
17D0
100
AcDbEntity
  8
SUNPOU
100
AcDbLine
 10
187.4568062686151
 20
302.129551017477
 30
0.0
 11
187.4568062686151
 21
297.1295510174769
 31
0.0
  0
LINE
  5
182B
330
17D0
100
AcDbEntity
  8
SUNPOU
100
AcDbLine
 10
187.4568062686151
 20
319.129551017477
 30
0.0
 11
187.4568062686151
 21
307.129551017477
 31
0.0
  0
INSERT
  5
182C
330
17D0
100
AcDbEntity
  8
SUNPOU
100
AcDbBlockReference
  2
_OPEN30
 10
187.4568062686151
 20
319.129551017477
 30
0.0
 41
5.0
 42
5.0
 43
5.0
 50
270.0
  0
INSERT
  5
182D
330
17D0
100
AcDbEntity
  8
SUNPOU
100
AcDbBlockReference
  2
_OPEN30
 10
187.4568062686151
 20
307.129551017477
 30
0.0
 41
5.0
 42
5.0
 43
5.0
 50
90.0
  0
MTEXT
  5
182E
330
17D0
100
AcDbEntity
  8
SUNPOU
 62
     6
100
AcDbMText
 10
182.9568062686149
 20
313.129551017477
 30
0.0
 40
5.0
 41
0.0
 71
     5
 72
     1
  1
\A1;12
  7
SUNPOU
 11
0.0000000000000001
 21
1.0
 31
0.0
1001
ACAD
1000
MTEXTBEGIN
1070
    73
1070
     1
1070
    44
1040
1.0
1070
    74
1070
     0
1000
MTEXTEND
1000
MTEXTBEGIN
1070
    73
1070
     1
1070
    44
1040
1.0
1070
    74
1070
     0
1000
MTEXTEND
  0
POINT
  5
182F
330
17D0
100
AcDbEntity
  8
DEFPOINTS
 62
     0
100
AcDbPoint
 10
176.2915047374586
 20
319.129551017477
 30
0.0
  0
POINT
  5
1830
330
17D0
100
AcDbEntity
  8
DEFPOINTS
 62
     0
100
AcDbPoint
 10
176.2915047374586
 20
307.129551017477
 30
0.0
  0
POINT
  5
1831
330
17D0
100
AcDbEntity
  8
DEFPOINTS
 62
     0
100
AcDbPoint
 10
187.4568062686151
 20
307.129551017477
 30
0.0
  0
ENDBLK
  5
17DD
330
17D0
100
AcDbEntity
  8
0
100
AcDbBlockEnd
  0
BLOCK
  5
1844
330
183A
100
AcDbEntity
  8
0
100
AcDbBlockBegin
  2
*D46
 70
     1
 10
0.0
 20
0.0
 30
0.0
  3
*D46
  1

  0
LINE
  5
1846
330
183A
100
AcDbEntity
  8
SUNPOU
100
AcDbLine
 10
167.2915047374587
 20
504.629551017477
 30
0.0
 11
167.2915047374587
 21
506.5725516969619
 31
0.0
  0
LINE
  5
1847
330
183A
100
AcDbEntity
  8
SUNPOU
100
AcDbLine
 10
301.2915047374588
 20
493.1295508620922
 30
0.0
 11
301.2915047374588
 21
506.5725516969619
 31
0.0
  0
LINE
  5
1848
330
183A
100
AcDbEntity
  8
SUNPOU
100
AcDbLine
 10
172.2915047374586
 20
504.5725516969619
 30
0.0
 11
296.2915047374588
 21
504.5725516969619
 31
0.0
  0
INSERT
  5
1849
330
183A
100
AcDbEntity
  8
SUNPOU
100
AcDbBlockReference
  2
_OPEN30
 10
167.2915047374587
 20
504.5725516969619
 30
0.0
 41
5.0
 42
5.0
 43
5.0
 50
180.0
  0
INSERT
  5
184A
330
183A
100
AcDbEntity
  8
SUNPOU
100
AcDbBlockReference
  2
_OPEN30
 10
301.2915047374588
 20
504.5725516969619
 30
0.0
 41
5.0
 42
5.0
 43
5.0
  0
MTEXT
  5
184B
330
183A
100
AcDbEntity
  8
SUNPOU
 62
     6
100
AcDbMText
 10
234.2915047374588
 20
509.0725516969619
 30
0.0
 40
5.0
 41
0.0
 71
     5
 72
     1
  1
\A1;134
  7
SUNPOU
1001
ACAD
1000
MTEXTBEGIN
1070
    73
1070
     1
1070
    44
1040
1.0
1070
    74
1070
     0
1000
MTEXTEND
1000
MTEXTBEGIN
1070
    73
1070
     1
1070
    44
1040
1.0
1070
    74
1070
     0
1000
MTEXTEND
  0
POINT
  5
184C
330
183A
100
AcDbEntity
  8
DEFPOINTS
 62
     0
100
AcDbPoint
 10
167.2915047374587
 20
501.629551017477
 30
0.0
  0
POINT
  5
184D
330
183A
100
AcDbEntity
  8
DEFPOINTS
 62
     0
100
AcDbPoint
 10
301.2915047374588
 20
490.1295508620923
 30
0.0
  0
POINT
  5
184E
330
183A
100
AcDbEntity
  8
DEFPOINTS
 62
     0
100
AcDbPoint
 10
301.2915047374588
 20
504.5725516969619
 30
0.0
  0
ENDBLK
  5
1845
330
183A
100
AcDbEntity
  8
0
100
AcDbBlockEnd
  0
ENDSEC
  0
SECTION
  2
ENTITIES
  0
LINE
  5
26A
330
A
100
AcDbEntity
  8
03
100
AcDbLine
 10
183.0415047374587
 20
515.629551017477
 30
0.0
 11
132.7915047374586
 21
515.629551017477
 31
0.0
  0
LINE
  5
26B
330
A
100
AcDbEntity
  8
03
100
AcDbLine
 10
262.7915047374588
 20
206.6295510174769
 30
0.0
 11
309.7915047374588
 21
206.6295510174769
 31
0.0
  0
LINE
  5
26C
330
A
100
AcDbEntity
  8
03
100
AcDbLine
 10
262.7915047374588
 20
206.6295510174769
 30
0.0
 11
262.7915047374588
 21
220.1295510174769
 31
0.0
  0
LINE
  5
26D
330
A
100
AcDbEntity
  8
03
100
AcDbLine
 10
261.2915047374588
 20
220.1295510174769
 30
0.0
 11
261.2915047374588
 21
205.8795510174769
 31
0.0
  0
LINE
  5
26E
330
A
100
AcDbEntity
  8
03
100
AcDbLine
 10
262.0415047374588
 20
205.129551017477
 30
0.0
 11
310.5415047374588
 21
205.129551017477
 31
0.0
  0
LINE
  5
26F
330
A
100
AcDbEntity
  8
03
100
AcDbLine
 10
182.2915047374586
 20
517.129551017477
 30
0.0
 11
132.0415047374587
 21
517.129551017477
 31
0.0
  0
LINE
  5
270
330
A
100
AcDbEntity
  8
03
100
AcDbLine
 10
131.2915047374586
 20
516.3795510174771
 30
0.0
 11
131.2915047374586
 21
205.8795510174769
 31
0.0
  0
LINE
  5
271
330
A
100
AcDbEntity
  8
03
100
AcDbLine
 10
132.0415047374587
 20
205.129551017477
 30
0.0
 11
196.5415047374587
 21
205.129551017477
 31
0.0
  0
LINE
  5
272
330
A
100
AcDbEntity
  8
03
100
AcDbLine
 10
197.2915047374586
 20
205.8795510174769
 30
0.0
 11
197.2915047374586
 21
220.1295510174769
 31
0.0
  0
LINE
  5
273
330
A
100
AcDbEntity
  8
03
100
AcDbLine
 10
197.2915047374586
 20
220.1295510174769
 30
0.0
 11
195.7915047374586
 21
220.1295510174769
 31
0.0
  0
LINE
  5
274
330
A
100
AcDbEntity
  8
03
100
AcDbLine
 10
262.7915047374588
 20
220.1295510174769
 30
0.0
 11
261.2915047374588
 21
220.1295510174769
 31
0.0
  0
LINE
  5
275
330
A
100
AcDbEntity
  8
03
100
AcDbLine
 10
148.2915047374586
 20
517.129551017477
 30
0.0
 11
148.2915047374586
 21
534.379551017477
 31
0.0
  0
LINE
  5
276
330
A
100
AcDbEntity
  8
03
100
AcDbLine
 10
163.2915047374587
 20
517.129551017477
 30
0.0
 11
163.2915047374587
 21
534.379551017477
 31
0.0
  0
LINE
  5
277
330
A
100
AcDbEntity
  8
03
100
AcDbLine
 10
182.2915047374586
 20
517.129551017477
 30
0.0
 11
182.2915047374586
 21
534.379551017477
 31
0.0
  0
LINE
  5
278
330
A
100
AcDbEntity
  8
03
100
AcDbLine
 10
162.5415047374587
 20
535.1295510174771
 30
0.0
 11
149.0415047374586
 21
535.1295510174771
 31
0.0
  0
LINE
  5
279
330
A
100
AcDbEntity
  8
03
100
AcDbLine
 10
161.7915047374586
 20
517.129551017477
 30
0.0
 11
161.7915047374586
 21
533.629551017477
 31
0.0
  0
LINE
  5
27A
330
A
100
AcDbEntity
  8
03
100
AcDbLine
 10
161.7915047374586
 20
533.629551017477
 30
0.0
 11
149.7915047374586
 21
533.629551017477
 31
0.0
  0
LINE
  5
27B
330
A
100
AcDbEntity
  8
03
100
AcDbLine
 10
149.7915047374586
 20
533.629551017477
 30
0.0
 11
149.7915047374586
 21
517.129551017477
 31
0.0
  0
LINE
  5
27C
330
A
100
AcDbEntity
  8
03
100
AcDbLine
 10
183.7915047374586
 20
516.3795510174771
 30
0.0
 11
183.7915047374586
 21
533.629551017477
 31
0.0
  0
LINE
  5
27D
330
A
100
AcDbEntity
  8
03
100
AcDbLine
 10
310.5415047374588
 20
535.1295510174771
 30
0.0
 11
282.0415047374588
 21
535.1295510174771
 31
0.0
  0
LINE
  5
27E
330
A
100
AcDbEntity
  8
03
100
AcDbLine
 10
279.5415047374588
 20
535.1295510174771
 30
0.0
 11
183.0415047374587
 21
535.1295510174771
 31
0.0
  0
LINE
  5
27F
330
A
100
AcDbEntity
  8
03
100
AcDbLine
 10
309.7915047374588
 20
533.629551017477
 30
0.0
 11
282.7915047374588
 21
533.629551017477
 31
0.0
  0
LINE
  5
280
330
A
100
AcDbEntity
  8
03
100
AcDbLine
 10
278.7915047374588
 20
533.629551017477
 30
0.0
 11
183.7915047374586
 21
533.629551017477
 31
0.0
  0
LINE
  5
281
330
A
100
AcDbEntity
  8
03
100
AcDbLine
 10
281.2915047374588
 20
534.379551017477
 30
0.0
 11
281.2915047374588
 21
517.129551017477
 31
0.0
  0
LINE
  5
282
330
A
100
AcDbEntity
  8
03
100
AcDbLine
 10
280.2915047374588
 20
534.379551017477
 30
0.0
 11
280.2915047374588
 21
517.129551017477
 31
0.0
  0
LINE
  5
283
330
A
100
AcDbEntity
  8
03
100
AcDbLine
 10
282.7915047374588
 20
533.629551017477
 30
0.0
 11
282.7915047374588
 21
517.129551017477
 31
0.0
  0
LINE
  5
284
330
A
100
AcDbEntity
  8
03
100
AcDbLine
 10
278.7915047374588
 20
533.629551017477
 30
0.0
 11
278.7915047374588
 21
516.3295510174771
 31
0.0
  0
LINE
  5
285
330
A
100
AcDbEntity
  8
03
100
AcDbLine
 10
282.7915047374588
 20
517.129551017477
 30
0.0
 11
281.2915047374588
 21
517.129551017477
 31
0.0
  0
LINE
  5
286
330
A
100
AcDbEntity
  8
03
100
AcDbLine
 10
279.5415047374588
 20
515.629551017477
 30
0.0
 11
293.7915047374588
 21
515.629551017477
 31
0.0
  0
LINE
  5
287
330
A
100
AcDbEntity
  8
03
100
AcDbLine
 10
280.2915047374588
 20
517.129551017477
 30
0.0
 11
293.7915047374588
 21
517.129551017477
 31
0.0
  0
LINE
  5
288
330
A
100
AcDbEntity
  8
03
100
AcDbLine
 10
293.7915047374588
 20
517.129551017477
 30
0.0
 11
293.7915047374588
 21
515.629551017477
 31
0.0
  0
LINE
  5
289
330
A
100
AcDbEntity
  8
03
100
AcDbLine
 10
132.7915047374586
 20
206.6295510174769
 30
0.0
 11
132.7915047374586
 21
515.629551017477
 31
0.0
  0
LINE
  5
28A
330
A
100
AcDbEntity
  8
03
100
AcDbLine
 10
132.7915047374586
 20
206.6295510174769
 30
0.0
 11
195.7915047374586
 21
206.6295510174769
 31
0.0
  0
LINE
  5
28B
330
A
100
AcDbEntity
  8
03
100
AcDbLine
 10
195.7915047374586
 20
220.1295510174769
 30
0.0
 11
195.7915047374586
 21
206.6295510174769
 31
0.0
  0
LINE
  5
28C
330
A
100
AcDbEntity
  8
02
100
AcDbLine
 10
161.2915047374587
 20
508.0295510174768
 30
0.0
 11
161.2915047374587
 21
276.129551017477
 31
0.0
  0
LINE
  5
28D
330
A
100
AcDbEntity
  8
02
100
AcDbLine
 10
167.2915047374587
 20
508.0295510174768
 30
0.0
 11
167.2915047374587
 21
276.129551017477
 31
0.0
  0
LINE
  5
28E
330
A
100
AcDbEntity
  8
04
100
AcDbLine
 10
167.2915047374587
 20
279.1295510174768
 30
0.0
 11
167.2915047374587
 21
354.129551017477
 31
0.0
  0
LINE
  5
28F
330
A
100
AcDbEntity
  8
03
100
AcDbLine
 10
256.2915047374588
 20
201.129551017477
 30
0.0
 11
202.2915047374588
 21
201.129551017477
 31
0.0
  0
LINE
  5
290
330
A
100
AcDbEntity
  8
03
100
AcDbLine
 10
256.2915047374588
 20
105.727236509989
 30
0.0
 11
202.2915047374588
 21
105.727236509989
 31
0.0
  0
LINE
  5
291
330
A
100
AcDbEntity
  8
03
100
AcDbLine
 10
256.2915047374588
 20
201.129551017477
 30
0.0
 11
256.2915047374588
 21
158.1362950760732
 31
0.0
  0
LINE
  5
292
330
A
100
AcDbEntity
  8
03
100
AcDbLine
 10
202.2915047374588
 20
201.129551017477
 30
0.0
 11
202.2915047374588
 21
158.1362950760732
 31
0.0
  0
LINE
  5
293
330
A
100
AcDbEntity
  8
03
100
AcDbLine
 10
256.2915047374588
 20
153.1362950760732
 30
0.0
 11
256.2915047374588
 21
123.6883120831432
 31
0.0
  0
LINE
  5
294
330
A
100
AcDbEntity
  8
03
100
AcDbLine
 10
202.2915047374588
 20
153.1362950760732
 30
0.0
 11
202.2915047374588
 21
123.6883120831432
 31
0.0
  0
LINE
  5
295
330
A
100
AcDbEntity
  8
03
100
AcDbLine
 10
253.2915047374588
 20
201.129551017477
 30
0.0
 11
253.2915047374588
 21
158.1362950760732
 31
0.0
  0
LINE
  5
296
330
A
100
AcDbEntity
  8
03
100
AcDbLine
 10
205.2915047374586
 20
201.129551017477
 30
0.0
 11
205.2915047374586
 21
158.1362950760732
 31
0.0
  0
LINE
  5
297
330
A
100
AcDbEntity
  8
03
100
AcDbLine
 10
253.2915047374588
 20
153.1362950760732
 30
0.0
 11
253.2915047374588
 21
123.6883120831432
 31
0.0
  0
LINE
  5
298
330
A
100
AcDbEntity
  8
03
100
AcDbLine
 10
205.2915047374586
 20
153.1362950760732
 30
0.0
 11
205.2915047374586
 21
123.6883120831432
 31
0.0
  0
LINE
  5
299
330
A
100
AcDbEntity
  8
03
100
AcDbLine
 10
206.7915047374587
 20
201.129551017477
 30
0.0
 11
206.7915047374587
 21
158.1362950760732
 31
0.0
  0
LINE
  5
29A
330
A
100
AcDbEntity
  8
03
100
AcDbLine
 10
251.7915047374588
 20
201.129551017477
 30
0.0
 11
251.7915047374588
 21
158.1362950760732
 31
0.0
  0
LINE
  5
29B
330
A
100
AcDbEntity
  8
03
100
AcDbLine
 10
197.2915047374586
 20
201.129551017477
 30
0.0
 11
143.2915047374587
 21
201.129551017477
 31
0.0
  0
LINE
  5
29C
330
A
100
AcDbEntity
  8
03
100
AcDbLine
 10
197.2915047374586
 20
201.129551017477
 30
0.0
 11
197.2915047374586
 21
158.1362950760732
 31
0.0
  0
LINE
  5
29D
330
A
100
AcDbEntity
  8
03
100
AcDbLine
 10
143.2915047374587
 20
201.129551017477
 30
0.0
 11
143.2915047374587
 21
158.1362950760732
 31
0.0
  0
LINE
  5
29E
330
A
100
AcDbEntity
  8
03
100
AcDbLine
 10
147.7915047374587
 20
201.129551017477
 30
0.0
 11
147.7915047374587
 21
158.1362950760732
 31
0.0
  0
LINE
  5
29F
330
A
100
AcDbEntity
  8
03
100
AcDbLine
 10
192.7915047374586
 20
201.129551017477
 30
0.0
 11
192.7915047374586
 21
158.1362950760732
 31
0.0
  0
LINE
  5
2A0
330
A
100
AcDbEntity
  8
02
100
AcDbLine
 10
146.3915047374588
 20
295.1295510174769
 30
0.0
 11
140.3915047374588
 21
295.1295510174769
 31
0.0
  0
LINE
  5
2A1
330
A
100
AcDbEntity
  8
02
100
AcDbLine
 10
140.3915047374588
 20
500.1295510174769
 30
0.0
 11
140.3915047374588
 21
315.629551017477
 31
0.0
  0
LINE
  5
2A2
330
A
100
AcDbEntity
  8
02
100
AcDbLine
 10
146.3915047374588
 20
500.1295510174769
 30
0.0
 11
146.3915047374588
 21
295.1295510174769
 31
0.0
  0
LINE
  5
2A3
330
A
100
AcDbEntity
  8
02
100
AcDbLine
 10
146.3915047374588
 20
500.1295510174769
 30
0.0
 11
140.3915047374588
 21
500.1295510174769
 31
0.0
  0
LINE
  5
2A4
330
A
100
AcDbEntity
  8
03
100
AcDbLine
 10
143.2915047374588
 20
105.727236509989
 30
0.0
 11
197.2915047374586
 21
105.727236509989
 31
0.0
  0
LINE
  5
2A5
330
A
100
AcDbEntity
  8
03
100
AcDbLine
 10
197.2915047374586
 20
105.727236509989
 30
0.0
 11
197.2915047374586
 21
118.6883120831432
 31
0.0
  0
LINE
  5
2A6
330
A
100
AcDbEntity
  8
03
100
AcDbLine
 10
143.2915047374587
 20
153.1362950760732
 30
0.0
 11
143.2915047374587
 21
123.6883120831432
 31
0.0
  0
LINE
  5
2A7
330
A
100
AcDbEntity
  8
SAISEN
100
AcDbLine
 10
326.2915047374588
 20
158.1362950760732
 30
0.0
 11
113.4309358993082
 21
158.1362950760732
 31
0.0
  0
LINE
  5
2A8
330
A
100
AcDbEntity
  8
SAISEN
100
AcDbLine
 10
326.2915047374588
 20
153.1362950760732
 30
0.0
 11
113.4309358993082
 21
153.1362950760732
 31
0.0
  0
LINE
  5
2A9
330
A
100
AcDbEntity
  8
03
100
AcDbLine
 10
126.2915047374587
 20
95.72723650998906
 30
0.0
 11
126.2915047374587
 21
118.6883120831432
 31
0.0
  0
LINE
  5
2AA
330
A
100
AcDbEntity
  8
03
100
AcDbLine
 10
126.2915047374587
 20
158.90809869237
 30
0.0
 11
126.2915047374587
 21
556.6295510174771
 31
0.0
  0
LINE
  5
2AB
330
A
100
AcDbEntity
  8
03
100
AcDbLine
 10
316.2915047374588
 20
153.1362950760732
 30
0.0
 11
316.2915047374588
 21
123.6883120831432
 31
0.0
  0
LINE
  5
2AC
330
A
100
AcDbEntity
  8
03
100
AcDbLine
 10
239.2915047374588
 20
73.72723650998898
 30
0.0
 11
219.2915047374587
 21
73.72723650998898
 31
0.0
  0
LINE
  5
2AD
330
A
100
AcDbEntity
  8
03
100
AcDbLine
 10
256.2915047374588
 20
97.22723650998906
 30
0.0
 11
256.2915047374588
 21
83.72723650998898
 31
0.0
  0
LINE
  5
2AE
330
A
100
AcDbEntity
  8
03
100
AcDbLine
 10
256.2915047374588
 20
83.72723650998898
 30
0.0
 11
254.7915047374587
 21
83.72723650998898
 31
0.0
  0
LINE
  5
2AF
330
A
100
AcDbEntity
  8
03
100
AcDbLine
 10
202.2915047374588
 20
97.22723650998906
 30
0.0
 11
202.2915047374588
 21
83.72723650998898
 31
0.0
  0
LINE
  5
2B0
330
A
100
AcDbEntity
  8
03
100
AcDbLine
 10
202.2915047374588
 20
83.72723650998898
 30
0.0
 11
203.7915047374586
 21
83.72723650998898
 31
0.0
  0
LINE
  5
2B1
330
A
100
AcDbEntity
  8
03
100
AcDbLine
 10
219.2915047374587
 20
97.22723650998906
 30
0.0
 11
219.2915047374587
 21
73.72723650998898
 31
0.0
  0
LINE
  5
2B2
330
A
100
AcDbEntity
  8
03
100
AcDbLine
 10
239.2915047374588
 20
73.72723650998898
 30
0.0
 11
239.2915047374588
 21
97.22723650998906
 31
0.0
  0
LINE
  5
2B3
330
A
100
AcDbEntity
  8
03
100
AcDbLine
 10
254.7915047374587
 20
98.72723650998906
 30
0.0
 11
240.7915047374588
 21
98.72723650998906
 31
0.0
  0
LINE
  5
2B4
330
A
100
AcDbEntity
  8
03
100
AcDbLine
 10
217.7915047374588
 20
98.72723650998906
 30
0.0
 11
203.7915047374586
 21
98.72723650998906
 31
0.0
  0
LINE
  5
2B5
330
A
100
AcDbEntity
  8
03
100
AcDbLine
 10
254.7915047374587
 20
83.72723650998898
 30
0.0
 11
254.7915047374587
 21
97.22723650998906
 31
0.0
  0
LINE
  5
2B6
330
A
100
AcDbEntity
  8
03
100
AcDbLine
 10
240.7915047374588
 20
73.72723650998898
 30
0.0
 11
240.7915047374588
 21
97.22723650998906
 31
0.0
  0
LINE
  5
2B7
330
A
100
AcDbEntity
  8
03
100
AcDbLine
 10
217.7915047374588
 20
73.72723650998898
 30
0.0
 11
217.7915047374588
 21
97.22723650998906
 31
0.0
  0
LINE
  5
2B8
330
A
100
AcDbEntity
  8
03
100
AcDbLine
 10
203.7915047374586
 20
83.72723650998898
 30
0.0
 11
203.7915047374586
 21
97.22723650998906
 31
0.0
  0
LINE
  5
2B9
330
A
100
AcDbEntity
  8
03
100
AcDbLine
 10
239.2915047374588
 20
72.22723650998904
 30
0.0
 11
219.2915047374587
 21
72.22723650998904
 31
0.0
  0
LINE
  5
2BA
330
A
100
AcDbEntity
  8
03
100
AcDbLine
 10
254.7915047374587
 20
97.22723650998906
 30
0.0
 11
240.7915047374588
 21
97.22723650998906
 31
0.0
  0
LINE
  5
2BB
330
A
100
AcDbEntity
  8
03
100
AcDbLine
 10
217.7915047374588
 20
97.22723650998906
 30
0.0
 11
203.7915047374586
 21
97.22723650998906
 31
0.0
  0
ARC
  5
2BC
330
A
100
AcDbEntity
  8
03
100
AcDbCircle
 10
254.7915047374587
 20
97.22723650998906
 30
0.0
 40
1.5
100
AcDbArc
 50
0.0000000000000035
 51
90.00000000000005
  0
ARC
  5
2BD
330
A
100
AcDbEntity
  8
03
100
AcDbCircle
 10
240.7915047374588
 20
97.22723650998906
 30
0.0
 40
1.5
100
AcDbArc
 50
90.00000000000005
 51
180.0
  0
ARC
  5
2BE
330
A
100
AcDbEntity
  8
03
100
AcDbCircle
 10
217.7915047374588
 20
97.22723650998906
 30
0.0
 40
1.5
100
AcDbArc
 50
0.0000000000000035
 51
90.00000000000005
  0
ARC
  5
2BF
330
A
100
AcDbEntity
  8
03
100
AcDbCircle
 10
203.7915047374586
 20
97.22723650998906
 30
0.0
 40
1.5
100
AcDbArc
 50
90.00000000000005
 51
180.0
  0
ARC
  5
2C0
330
A
100
AcDbEntity
  8
03
100
AcDbCircle
 10
219.2915047374587
 20
73.72723650998898
 30
0.0
 40
1.5
100
AcDbArc
 50
180.0
 51
270.0
  0
ARC
  5
2C1
330
A
100
AcDbEntity
  8
03
100
AcDbCircle
 10
239.2915047374588
 20
73.72723650998898
 30
0.0
 40
1.5
100
AcDbArc
 50
270.0
 51
0.0
  0
LINE
  5
2C2
330
A
100
AcDbEntity
  8
04
100
AcDbLine
 10
242.2915047374587
 20
368.129551017477
 30
0.0
 11
242.2915047374587
 21
306.129551017477
 31
0.0
  0
LINE
  5
2C5
330
A
100
AcDbEntity
  8
04
100
AcDbLine
 10
216.2915047374586
 20
368.129551017477
 30
0.0
 11
216.2915047374586
 21
306.129551017477
 31
0.0
  0
LINE
  5
2C6
330
A
100
AcDbEntity
  8
04
100
AcDbLine
 10
242.2915047374587
 20
368.129551017477
 30
0.0
 11
236.7915047374588
 21
368.129551017477
 31
0.0
  0
LINE
  5
2C7
330
A
100
AcDbEntity
  8
04
100
AcDbLine
 10
221.7915047374588
 20
368.129551017477
 30
0.0
 11
216.2915047374586
 21
368.129551017477
 31
0.0
  0
LINE
  5
2C8
330
A
100
AcDbEntity
  8
04
100
AcDbLine
 10
242.2915047374587
 20
306.129551017477
 30
0.0
 11
236.7915047374588
 21
306.129551017477
 31
0.0
  0
LINE
  5
2C9
330
A
100
AcDbEntity
  8
04
100
AcDbLine
 10
221.7915047374588
 20
306.129551017477
 30
0.0
 11
216.2915047374586
 21
306.129551017477
 31
0.0
  0
LINE
  5
2CA
330
A
100
AcDbEntity
  8
04
100
AcDbLine
 10
235.2915047374589
 20
361.129551017477
 30
0.0
 11
223.2915047374588
 21
361.129551017477
 31
0.0
  0
LINE
  5
2CB
330
A
100
AcDbEntity
  8
04
100
AcDbLine
 10
223.2915047374588
 20
313.129551017477
 30
0.0
 11
235.2915047374589
 21
313.129551017477
 31
0.0
  0
LINE
  5
2CC
330
A
100
AcDbEntity
  8
04
100
AcDbLine
 10
235.2915047374588
 20
361.129551017477
 30
0.0
 11
236.7915047374588
 21
368.129551017477
 31
0.0
  0
LINE
  5
2CD
330
A
100
AcDbEntity
  8
04
100
AcDbLine
 10
223.2915047374588
 20
361.129551017477
 30
0.0
 11
221.7915047374588
 21
368.129551017477
 31
0.0
  0
LINE
  5
2CE
330
A
100
AcDbEntity
  8
04
100
AcDbLine
 10
235.2915047374588
 20
313.129551017477
 30
0.0
 11
236.7915047374588
 21
306.129551017477
 31
0.0
  0
LINE
  5
2CF
330
A
100
AcDbEntity
  8
04
100
AcDbLine
 10
223.2915047374588
 20
313.129551017477
 30
0.0
 11
221.7915047374588
 21
306.129551017477
 31
0.0
  0
LINE
  5
2D2
330
A
100
AcDbEntity
  8
04
100
AcDbLine
 10
269.2915047374587
 20
352.129551017477
 30
0.0
 11
242.2915047374587
 21
352.129551017477
 31
0.0
  0
LINE
  5
2D3
330
A
100
AcDbEntity
  8
04
100
AcDbLine
 10
242.2915047374587
 20
322.129551017477
 30
0.0
 11
269.2915047374587
 21
322.129551017477
 31
0.0
  0
LINE
  5
2D4
330
A
100
AcDbEntity
  8
04
100
AcDbLine
 10
269.2915047374587
 20
322.129551017477
 30
0.0
 11
269.2915047374587
 21
352.129551017477
 31
0.0
  0
LINE
  5
2D7
330
A
100
AcDbEntity
  8
04
100
AcDbLine
 10
278.2915047374588
 20
365.129551017477
 30
0.0
 11
269.2915047374587
 21
365.129551017477
 31
0.0
  0
LINE
  5
2D8
330
A
100
AcDbEntity
  8
04
100
AcDbLine
 10
269.2915047374587
 20
227.1295510174769
 30
0.0
 11
278.2915047374589
 21
227.1295510174769
 31
0.0
  0
LINE
  5
2D9
330
A
100
AcDbEntity
  8
04
100
AcDbLine
 10
278.2915047374589
 20
227.1295510174769
 30
0.0
 11
278.2915047374588
 21
365.129551017477
 31
0.0
  0
LINE
  5
2DA
330
A
100
AcDbEntity
  8
04
100
AcDbLine
 10
269.2915047374587
 20
365.129551017477
 30
0.0
 11
269.2915047374587
 21
227.1295510174769
 31
0.0
  0
LINE
  5
2DB
330
A
100
AcDbEntity
  8
04
100
AcDbLine
 10
287.2915047374588
 20
361.629551017477
 30
0.0
 11
278.2915047374588
 21
361.629551017477
 31
0.0
  0
LINE
  5
2DC
330
A
100
AcDbEntity
  8
04
100
AcDbLine
 10
278.2915047374588
 20
336.629551017477
 30
0.0
 11
287.2915047374588
 21
336.629551017477
 31
0.0
  0
LINE
  5
2DD
330
A
100
AcDbEntity
  8
04
100
AcDbLine
 10
287.2915047374588
 20
336.629551017477
 30
0.0
 11
287.2915047374588
 21
361.629551017477
 31
0.0
  0
LINE
  5
2DE
330
A
100
AcDbEntity
  8
04
100
AcDbLine
 10
278.2915047374588
 20
361.629551017477
 30
0.0
 11
278.2915047374588
 21
336.629551017477
 31
0.0
  0
LINE
  5
2DF
330
A
100
AcDbEntity
  8
04
100
AcDbLine
 10
206.2915047374587
 20
263.629551017477
 30
0.0
 11
206.2915047374587
 21
253.129551017477
 31
0.0
  0
LINE
  5
2E0
330
A
100
AcDbEntity
  8
04
100
AcDbLine
 10
252.2915047374588
 20
253.129551017477
 30
0.0
 11
252.2915047374588
 21
263.629551017477
 31
0.0
  0
LINE
  5
2E1
330
A
100
AcDbEntity
  8
04
100
AcDbLine
 10
250.7915047374587
 20
265.129551017477
 30
0.0
 11
207.7915047374586
 21
265.129551017477
 31
0.0
  0
LINE
  5
2E3
330
A
100
AcDbEntity
  8
04
100
AcDbLine
 10
206.2915047374587
 20
263.629551017477
 30
0.0
 11
207.7915047374586
 21
265.129551017477
 31
0.0
  0
LINE
  5
2E4
330
A
100
AcDbEntity
  8
04
100
AcDbLine
 10
252.2915047374588
 20
263.629551017477
 30
0.0
 11
250.7915047374587
 21
265.129551017477
 31
0.0
  0
LINE
  5
2E6
330
A
100
AcDbEntity
  8
04
100
AcDbLine
 10
269.2915047374587
 20
292.129551017477
 30
0.0
 11
267.2915047374587
 21
292.129551017477
 31
0.0
  0
LINE
  5
2E7
330
A
100
AcDbEntity
  8
04
100
AcDbLine
 10
204.2915047374587
 20
227.1295510174769
 30
0.0
 11
269.2915047374587
 21
227.1295510174769
 31
0.0
  0
LINE
  5
2E8
330
A
100
AcDbEntity
  8
04
100
AcDbLine
 10
269.2915047374587
 20
227.1295510174769
 30
0.0
 11
269.2915047374587
 21
292.129551017477
 31
0.0
  0
LINE
  5
2E9
330
A
100
AcDbEntity
  8
04
100
AcDbLine
 10
204.2915047374587
 20
229.1295510174769
 30
0.0
 11
204.2915047374587
 21
227.1295510174769
 31
0.0
  0
LINE
  5
2EA
330
A
100
AcDbEntity
  8
04
100
AcDbLine
 10
261.2915047374588
 20
286.129551017477
 30
0.0
 11
261.2915047374588
 21
241.1295510174769
 31
0.0
  0
LINE
  5
2EB
330
A
100
AcDbEntity
  8
04
100
AcDbLine
 10
255.2915047374588
 20
235.1295510174769
 30
0.0
 11
210.2915047374586
 21
235.1295510174769
 31
0.0
  0
ARC
  5
2EC
330
A
100
AcDbEntity
  8
04
100
AcDbCircle
 10
267.2915047374587
 20
286.129551017477
 30
0.0
 40
6.0
100
AcDbArc
 50
90.0
 51
180.0
  0
ARC
  5
2ED
330
A
100
AcDbEntity
  8
04
100
AcDbCircle
 10
210.2915047374586
 20
229.1295510174769
 30
0.0
 40
6.0
100
AcDbArc
 50
90.0
 51
180.0
  0
ARC
  5
2EE
330
A
100
AcDbEntity
  8
04
100
AcDbCircle
 10
255.2915047374588
 20
241.1295510174769
 30
0.0
 40
6.0
100
AcDbArc
 50
270.0
 51
0.0
  0
LINE
  5
2EF
330
A
100
AcDbEntity
  8
04
100
AcDbLine
 10
251.2915047374588
 20
227.1295510174769
 30
0.0
 11
207.2915047374586
 21
227.1295510174769
 31
0.0
  0
LINE
  5
2F0
330
A
100
AcDbEntity
  8
04
100
AcDbLine
 10
251.2915047374588
 20
221.1295510174769
 30
0.0
 11
251.2915047374588
 21
227.1295510174769
 31
0.0
  0
LINE
  5
2F1
330
A
100
AcDbEntity
  8
04
100
AcDbLine
 10
207.2915047374586
 20
227.1295510174769
 30
0.0
 11
207.2915047374586
 21
221.1295510174769
 31
0.0
  0
LINE
  5
2F2
330
A
100
AcDbEntity
  8
03
100
AcDbLine
 10
182.7915047374586
 20
95.72723650998906
 30
0.0
 11
157.7915047374586
 21
95.72723650998906
 31
0.0
  0
LINE
  5
2F9
330
A
100
AcDbEntity
  8
03
100
AcDbLine
 10
202.2915047374588
 20
95.72723650998906
 30
0.0
 11
135.2915047374588
 21
95.72723650998906
 31
0.0
  0
LINE
  5
2FB
330
A
100
AcDbEntity
  8
SOUZOU
100
AcDbLine
 10
135.2915047374588
 20
95.72723650998906
 30
0.0
 11
135.2915047374588
 21
94.22723650998905
 31
0.0
  0
LINE
  5
2FC
330
A
100
AcDbEntity
  8
03
100
AcDbLine
 10
157.7915047374586
 20
95.72723650998906
 30
0.0
 11
157.7915047374586
 21
105.727236509989
 31
0.0
  0
LINE
  5
2FD
330
A
100
AcDbEntity
  8
03
100
AcDbLine
 10
182.7915047374586
 20
105.727236509989
 30
0.0
 11
182.7915047374586
 21
95.72723650998906
 31
0.0
  0
LINE
  5
2FE
330
A
100
AcDbEntity
  8
03
100
AcDbLine
 10
194.2915047374587
 20
201.129551017477
 30
0.0
 11
194.2915047374587
 21
158.1362950760732
 31
0.0
  0
LINE
  5
2FF
330
A
100
AcDbEntity
  8
03
100
AcDbLine
 10
194.2915047374587
 20
153.1362950760732
 30
0.0
 11
194.2915047374587
 21
123.6883120831432
 31
0.0
  0
LINE
  5
300
330
A
100
AcDbEntity
  8
03
100
AcDbLine
 10
146.2915047374586
 20
201.129551017477
 30
0.0
 11
146.2915047374586
 21
158.1362950760732
 31
0.0
  0
LINE
  5
301
330
A
100
AcDbEntity
  8
03
100
AcDbLine
 10
146.2915047374586
 20
153.1362950760732
 30
0.0
 11
146.2915047374586
 21
123.6883120831432
 31
0.0
  0
ARC
  5
302
330
A
100
AcDbEntity
  8
03
100
AcDbCircle
 10
132.0415047374587
 20
516.3795510174771
 30
0.0
 40
0.7500000000000001
100
AcDbArc
 50
90.0
 51
180.0
  0
ARC
  5
303
330
A
100
AcDbEntity
  8
03
100
AcDbCircle
 10
183.0415047374587
 20
516.3795510174771
 30
0.0
 40
0.7500000000000001
100
AcDbArc
 50
270.0
 51
0.0
  0
ARC
  5
304
330
A
100
AcDbEntity
  8
03
100
AcDbCircle
 10
183.0415047374587
 20
534.379551017477
 30
0.0
 40
0.7500000000000001
100
AcDbArc
 50
90.0
 51
180.0
  0
ARC
  5
305
330
A
100
AcDbEntity
  8
03
100
AcDbCircle
 10
162.5415047374587
 20
534.379551017477
 30
0.0
 40
0.7500000000000001
100
AcDbArc
 50
0.0
 51
90.0
  0
ARC
  5
306
330
A
100
AcDbEntity
  8
03
100
AcDbCircle
 10
149.0415047374586
 20
534.379551017477
 30
0.0
 40
0.7500000000000001
100
AcDbArc
 50
90.0
 51
180.0
  0
ARC
  5
307
330
A
100
AcDbEntity
  8
03
100
AcDbCircle
 10
132.0415047374587
 20
205.8795510174769
 30
0.0
 40
0.7500000000000001
100
AcDbArc
 50
180.0
 51
270.0
  0
ARC
  5
308
330
A
100
AcDbEntity
  8
03
100
AcDbCircle
 10
196.5415047374587
 20
205.8795510174769
 30
0.0
 40
0.7500000000000001
100
AcDbArc
 50
270.0
 51
0.0
  0
ARC
  5
309
330
A
100
AcDbEntity
  8
03
100
AcDbCircle
 10
262.0415047374588
 20
205.8795510174769
 30
0.0
 40
0.7500000000000001
100
AcDbArc
 50
180.0
 51
270.0
  0
ARC
  5
30A
330
A
100
AcDbEntity
  8
03
100
AcDbCircle
 10
310.5415047374588
 20
205.8795510174769
 30
0.0
 40
0.7500000000000001
100
AcDbArc
 50
270.0
 51
0.0
  0
ARC
  5
30B
330
A
100
AcDbEntity
  8
03
100
AcDbCircle
 10
310.5415047374588
 20
534.379551017477
 30
0.0
 40
0.7500000000000001
100
AcDbArc
 50
0.0
 51
90.0
  0
ARC
  5
30C
330
A
100
AcDbEntity
  8
03
100
AcDbCircle
 10
282.0415047374588
 20
534.379551017477
 30
0.0
 40
0.7500000000000001
100
AcDbArc
 50
90.0
 51
180.0
  0
ARC
  5
30D
330
A
100
AcDbEntity
  8
03
100
AcDbCircle
 10
279.5415047374588
 20
534.379551017477
 30
0.0
 40
0.7500000000000001
100
AcDbArc
 50
0.0
 51
90.0
  0
ARC
  5
30E
330
A
100
AcDbEntity
  8
03
100
AcDbCircle
 10
279.5415047374588
 20
516.3795510174771
 30
0.0
 40
0.7500000000000001
100
AcDbArc
 50
180.0
 51
270.0
  0
LINE
  5
30F
330
A
100
AcDbEntity
  8
06
100
AcDbLine
 10
279.7915047374589
 20
488.129551017477
 30
0.0
 11
276.2915047374589
 21
477.09354968231
 31
0.0
  0
LINE
  5
310
330
A
100
AcDbEntity
  8
06
100
AcDbLine
 10
263.7915047374589
 20
488.129551017477
 30
0.0
 11
267.2915047374589
 21
477.09354968231
 31
0.0
  0
LINE
  5
312
330
A
100
AcDbEntity
  8
06
100
AcDbLine
 10
279.7915047374589
 20
398.129551017477
 30
0.0
 11
276.2915047374589
 21
409.1655523526439
 31
0.0
  0
LINE
  5
313
330
A
100
AcDbEntity
  8
06
100
AcDbLine
 10
263.7915047374589
 20
398.129551017477
 30
0.0
 11
267.2915047374589
 21
409.1655523526439
 31
0.0
  0
LINE
  5
314
330
A
100
AcDbEntity
  8
03
100
AcDbLine
 10
245.2915047374588
 20
105.727236509989
 30
0.0
 11
245.2915047374588
 21
103.727236509989
 31
0.0
  0
LINE
  5
316
330
A
100
AcDbEntity
  8
03
100
AcDbLine
 10
213.2915047374586
 20
103.727236509989
 30
0.0
 11
213.2915047374586
 21
105.727236509989
 31
0.0
  0
LINE
  5
317
330
A
100
AcDbEntity
  8
03
100
AcDbLine
 10
238.2915047374587
 20
103.727236509989
 30
0.0
 11
238.2915047374587
 21
83.72723650998905
 31
0.0
  0
LINE
  5
319
330
A
100
AcDbEntity
  8
03
100
AcDbLine
 10
220.2915047374588
 20
83.72723650998905
 30
0.0
 11
220.2915047374588
 21
103.727236509989
 31
0.0
  0
LINE
  5
31B
330
A
100
AcDbEntity
  8
03
100
AcDbLine
 10
235.2915047374588
 20
83.72723650998905
 30
0.0
 11
235.2915047374588
 21
80.72723650998904
 31
0.0
  0
LINE
  5
31C
330
A
100
AcDbEntity
  8
03
100
AcDbLine
 10
235.2915047374588
 20
80.72723650998904
 30
0.0
 11
223.2915047374588
 21
80.72723650998904
 31
0.0
  0
LINE
  5
31D
330
A
100
AcDbEntity
  8
03
100
AcDbLine
 10
223.2915047374588
 20
80.72723650998904
 30
0.0
 11
223.2915047374588
 21
83.72723650998905
 31
0.0
  0
LINE
  5
31E
330
A
100
AcDbEntity
  8
03
100
AcDbLine
 10
39.12454515925139
 20
95.72723650998906
 30
0.0
 11
217.7915047374588
 21
95.72723650998906
 31
0.0
  0
LINE
  5
31F
330
A
100
AcDbEntity
  8
03
100
AcDbLine
 10
256.2915047374588
 20
95.72723650998906
 30
0.0
 11
390.678147971202
 21
95.72723650998906
 31
0.0
  0
CIRCLE
  5
320
330
A
100
AcDbEntity
  8
03
100
AcDbCircle
 10
291.2915047374588
 20
139.4500390548072
 30
0.0
 40
6.0
  0
LINE
  5
321
330
A
100
AcDbEntity
  8
03
100
AcDbLine
 10
316.2915047374588
 20
556.6295510174771
 30
0.0
 11
316.2915047374588
 21
263.7818034338244
 31
0.0
  0
LINE
  5
322
330
A
100
AcDbEntity
  8
03
100
AcDbLine
 10
316.2915047374588
 20
242.7603082330674
 30
0.0
 11
316.2915047374588
 21
158.1362950760732
 31
0.0
  0
LINE
  5
323
330
A
100
AcDbEntity
  8
03
100
AcDbLine
 10
311.2915047374588
 20
205.8795510174769
 30
0.0
 11
311.2915047374588
 21
242.7603082330674
 31
0.0
  0
LINE
  5
324
330
A
100
AcDbEntity
  8
03
100
AcDbLine
 10
311.2915047374588
 20
263.7818034338244
 30
0.0
 11
311.2915047374588
 21
534.379551017477
 31
0.0
  0
LINE
  5
325
330
A
100
AcDbEntity
  8
03
100
AcDbLine
 10
309.7915047374588
 20
533.629551017477
 30
0.0
 11
309.7915047374588
 21
263.7818034338244
 31
0.0
  0
LINE
  5
326
330
A
100
AcDbEntity
  8
03
100
AcDbLine
 10
309.7915047374588
 20
240.0478572394213
 30
0.0
 11
309.7915047374588
 21
206.6295510174769
 31
0.0
  0
LINE
  5
327
330
A
100
AcDbEntity
  8
CHUSIN
100
AcDbLine
 10
206.9340028005419
 20
337.129551017477
 30
0.0
 11
296.6308818233315
 21
337.129551017477
 31
0.0
  0
LINE
  5
329
330
A
100
AcDbEntity
  8
SOUZOU
 48
0.5
100
AcDbLine
 10
195.2915047374587
 20
94.22723650998905
 30
0.0
 11
195.2915047374587
 21
71.22723650998904
 31
0.0
  0
LINE
  5
32A
330
A
100
AcDbEntity
  8
SOUZOU
100
AcDbLine
 10
131.512945862239
 20
44.22723650998904
 30
0.0
 11
211.0127430773262
 21
44.22723650998904
 31
0.0
  0
LINE
  5
32B
330
A
100
AcDbEntity
  8
SOUZOU
 48
0.5
100
AcDbLine
 10
147.7915047374588
 20
71.22723650998904
 30
0.0
 11
147.7915047374588
 21
44.22723650998904
 31
0.0
  0
LINE
  5
32C
330
A
100
AcDbEntity
  8
SOUZOU
 48
0.5
100
AcDbLine
 10
192.7915047374586
 20
44.22723650998904
 30
0.0
 11
192.7915047374586
 21
71.22723650998904
 31
0.0
  0
LINE
  5
32D
330
A
100
AcDbEntity
  8
SOUZOU
100
AcDbLine
 10
135.2915047374588
 20
94.22723650998905
 30
0.0
 11
202.2915047374588
 21
94.22723650998905
 31
0.0
  0
LINE
  5
330
330
A
100
AcDbEntity
  8
CHUSIN
100
AcDbLine
 10
197.2132800929001
 20
319.129551017477
 30
0.0
 11
152.2915047374586
 21
319.129551017477
 31
0.0
  0
LINE
  5
331
330
A
100
AcDbEntity
  8
SOUZOU
 48
0.5
100
AcDbLine
 10
145.2915047374588
 20
71.22723650998904
 30
0.0
 11
145.2915047374588
 21
94.22723650998905
 31
0.0
  0
LINE
  5
339
330
A
100
AcDbEntity
  8
KAKURE
100
AcDbLine
 10
176.5415047374586
 20
211.4391514972425
 30
0.0
 11
176.5415047374586
 21
181.1295510174769
 31
0.0
  0
LINE
  5
33A
330
A
100
AcDbEntity
  8
KAKURE
100
AcDbLine
 10
164.0415047374586
 20
211.2947836691362
 30
0.0
 11
164.0415047374586
 21
181.1295510174769
 31
0.0
  0
LINE
  5
33B
330
A
100
AcDbEntity
  8
KAKURE
100
AcDbLine
 10
176.2915047374586
 20
181.1295510174769
 30
0.0
 11
164.0415047374586
 21
181.1295510174769
 31
0.0
  0
LINE
  5
33C
330
A
100
AcDbEntity
  8
KAKURE
100
AcDbLine
 10
316.2915047374588
 20
95.72723650998906
 30
0.0
 11
316.2915047374588
 21
65.72723650998904
 31
0.0
  0
LINE
  5
33D
330
A
100
AcDbEntity
  8
KAKURE
100
AcDbLine
 10
316.2915047374588
 20
65.72723650998904
 30
0.0
 11
255.1692037257081
 21
65.72723650998904
 31
0.0
  0
LINE
  5
33E
330
A
100
AcDbEntity
  8
KAKURE
100
AcDbLine
 10
126.2915047374588
 20
65.72723650998908
 30
0.0
 11
126.2915047374588
 21
95.72723650998907
 31
0.0
  0
LINE
  5
33F
330
A
100
AcDbEntity
  8
KAKURE
100
AcDbLine
 10
126.2915047374588
 20
65.72723650998908
 30
0.0
 11
136.9804110326542
 21
65.72723650998908
 31
0.0
  0
LINE
  5
340
330
A
100
AcDbEntity
  8
KAKURE
100
AcDbLine
 10
161.2915047374587
 20
324.129551017477
 30
0.0
 11
167.2915047374587
 21
324.129551017477
 31
0.0
  0
LINE
  5
341
330
A
100
AcDbEntity
  8
KAKURE
100
AcDbLine
 10
167.2915047374587
 20
314.129551017477
 30
0.0
 11
161.2915047374587
 21
314.129551017477
 31
0.0
  0
LINE
  5
345
330
A
100
AcDbEntity
  8
03
100
AcDbLine
 10
135.0915047374587
 20
515.629551017477
 30
0.0
 11
277.1915047374586
 21
515.629551017477
 31
0.0
  0
LINE
  5
346
330
A
100
AcDbEntity
  8
03
100
AcDbLine
 10
134.3915047374588
 20
514.0295510174769
 30
0.0
 11
276.4915047374586
 21
514.029551017477
 31
0.0
  0
LINE
  5
347
330
A
100
AcDbEntity
  8
03
100
AcDbLine
 10
278.7915047374588
 20
516.3795510174771
 30
0.0
 11
278.7915047374588
 21
533.629551017477
 31
0.0
  0
LINE
  5
348
330
A
100
AcDbEntity
  8
03
100
AcDbLine
 10
277.1915047374586
 20
515.629551017477
 30
0.0
 11
277.1915047374586
 21
533.629551017477
 31
0.0
  0
ARC
  5
349
330
A
100
AcDbEntity
  8
03
100
AcDbCircle
 10
276.4915047374586
 20
516.3295510174771
 30
0.0
 40
2.299999999999998
100
AcDbArc
 50
270.0
 51
0.0
  0
LINE
  5
34A
330
A
100
AcDbEntity
  8
03
100
AcDbLine
 10
134.3915047374588
 20
514.0295510174769
 30
0.0
 11
134.3915047374588
 21
208.229551017477
 31
0.0
  0
ARC
  5
34B
330
A
100
AcDbEntity
  8
03
100
AcDbCircle
 10
135.0915047374587
 20
513.329551017477
 30
0.0
 40
2.299999999999998
100
AcDbArc
 50
90.0
 51
180.0
  0
LINE
  5
34C
330
A
100
AcDbEntity
  8
03
100
AcDbLine
 10
134.3915047374588
 20
208.229551017477
 30
0.0
 11
194.1915047374586
 21
208.229551017477
 31
0.0
  0
LINE
  5
34D
330
A
100
AcDbEntity
  8
03
100
AcDbLine
 10
194.1915047374586
 20
208.229551017477
 30
0.0
 11
194.1915047374586
 21
220.1295510174769
 31
0.0
  0
LINE
  5
34E
330
A
100
AcDbEntity
  8
03
100
AcDbLine
 10
195.7915047374586
 20
220.1295510174769
 30
0.0
 11
194.1915047374586
 21
220.1295510174769
 31
0.0
  0
ARC
  5
34F
330
A
100
AcDbEntity
  8
03
100
AcDbCircle
 10
135.0915047374587
 20
208.9295510174769
 30
0.0
 40
2.299999999999998
100
AcDbArc
 50
180.0
 51
270.0
  0
ARC
  5
350
330
A
100
AcDbEntity
  8
03
100
AcDbCircle
 10
193.4915047374587
 20
208.9295510174769
 30
0.0
 40
2.299999999999998
100
AcDbArc
 50
270.0
 51
0.0
  0
LINE
  5
351
330
A
100
AcDbEntity
  8
03
100
AcDbLine
 10
278.7915047374588
 20
533.629551017477
 30
0.0
 11
277.1915047374586
 21
533.629551017477
 31
0.0
  0
LINE
  5
352
330
A
100
AcDbEntity
  8
03
100
AcDbLine
 10
132.7915047374586
 20
513.329551017477
 30
0.0
 11
132.7915047374586
 21
208.9295510174769
 31
0.0
  0
LINE
  5
353
330
A
100
AcDbEntity
  8
03
100
AcDbLine
 10
193.4915047374587
 20
206.6295510174769
 30
0.0
 11
135.0915047374587
 21
206.6295510174769
 31
0.0
  0
LINE
  5
354
330
A
100
AcDbEntity
  8
03
100
AcDbLine
 10
195.7915047374586
 20
220.1295510174769
 30
0.0
 11
195.7915047374586
 21
208.9295510174769
 31
0.0
  0
LINE
  5
358
330
A
100
AcDbEntity
  8
04
100
AcDbLine
 10
249.4915047374586
 20
173.829551017477
 30
0.0
 11
209.0915047374588
 21
173.8295510174771
 31
0.0
  0
ARC
  5
359
330
A
100
AcDbEntity
  8
04
100
AcDbCircle
 10
209.0915047374588
 20
176.1295510174769
 30
0.0
 40
2.299999999999998
100
AcDbArc
 50
179.9999999999999
 51
270.0
  0
ARC
  5
35A
330
A
100
AcDbEntity
  8
04
100
AcDbCircle
 10
249.4915047374586
 20
176.1295510174769
 30
0.0
 40
2.299999999999998
100
AcDbArc
 50
270.0
 51
0.0
  0
LINE
  5
35B
330
A
100
AcDbEntity
  8
04
100
AcDbLine
 10
206.7915047374587
 20
201.129551017477
 30
0.0
 11
206.7915047374587
 21
176.1295510174769
 31
0.0
  0
LINE
  5
35C
330
A
100
AcDbEntity
  8
04
100
AcDbLine
 10
251.7915047374588
 20
201.129551017477
 30
0.0
 11
251.7915047374588
 21
176.1295510174769
 31
0.0
  0
LINE
  5
35D
330
A
100
AcDbEntity
  8
04
100
AcDbLine
 10
249.4915047374586
 20
201.129551017477
 30
0.0
 11
251.7915047374588
 21
201.129551017477
 31
0.0
  0
LINE
  5
35E
330
A
100
AcDbEntity
  8
04
100
AcDbLine
 10
206.7915047374587
 20
201.129551017477
 30
0.0
 11
209.0915047374588
 21
201.129551017477
 31
0.0
  0
LINE
  5
35F
330
A
100
AcDbEntity
  8
03
100
AcDbLine
 10
230.7915047374588
 20
72.22723650998904
 30
0.0
 11
228.4915047374586
 21
69.92723650998897
 31
0.0
  0
LINE
  5
360
330
A
100
AcDbEntity
  8
03
100
AcDbLine
 10
232.7915047374588
 20
72.22723650998904
 30
0.0
 11
230.4915047374586
 21
69.92723650998897
 31
0.0
  0
LINE
  5
361
330
A
100
AcDbEntity
  8
03
100
AcDbLine
 10
252.4915047374586
 20
84.22723650998904
 30
0.0
 11
254.7915047374587
 21
86.52723650998899
 31
0.0
  0
LINE
  5
362
330
A
100
AcDbEntity
  8
03
100
AcDbLine
 10
252.4915047374586
 20
86.22723650998898
 30
0.0
 11
254.7915047374587
 21
88.527236509989
 31
0.0
  0
LINE
  5
363
330
A
100
AcDbEntity
  8
03
100
AcDbLine
 10
203.7915047374586
 20
84.22723650998904
 30
0.0
 11
206.0915047374586
 21
86.52723650998899
 31
0.0
  0
LINE
  5
364
330
A
100
AcDbEntity
  8
03
100
AcDbLine
 10
203.7915047374586
 20
86.22723650998898
 30
0.0
 11
206.0915047374586
 21
88.527236509989
 31
0.0
  0
LINE
  5
365
330
A
100
AcDbEntity
  8
04
100
AcDbLine
 10
203.2915047374586
 20
253.129551017477
 30
0.0
 11
203.2915047374586
 21
251.129551017477
 31
0.0
  0
LINE
  5
368
330
A
100
AcDbEntity
  8
04
100
AcDbLine
 10
255.2915047374588
 20
251.129551017477
 30
0.0
 11
255.2915047374588
 21
253.129551017477
 31
0.0
  0
LINE
  5
36A
330
A
100
AcDbEntity
  8
04
100
AcDbLine
 10
203.2915047374586
 20
201.129551017477
 30
0.0
 11
255.2915047374588
 21
201.129551017477
 31
0.0
  0
LINE
  5
36B
330
A
100
AcDbEntity
  8
04
100
AcDbLine
 10
255.2915047374588
 20
201.129551017477
 30
0.0
 11
255.2915047374588
 21
205.129551017477
 31
0.0
  0
LINE
  5
36C
330
A
100
AcDbEntity
  8
04
100
AcDbLine
 10
203.2915047374586
 20
205.129551017477
 30
0.0
 11
203.2915047374586
 21
201.129551017477
 31
0.0
  0
LINE
  5
36D
330
A
100
AcDbEntity
  8
KAKURE
100
AcDbLine
 10
252.4915047374586
 20
69.92723650998903
 30
0.0
 11
206.0915047374586
 21
69.92723650998903
 31
0.0
  0
LINE
  5
36E
330
A
100
AcDbEntity
  8
KAKURE
100
AcDbLine
 10
254.7915047374587
 20
97.22723650998906
 30
0.0
 11
254.7915047374587
 21
72.22723650998904
 31
0.0
  0
LINE
  5
36F
330
A
100
AcDbEntity
  8
KAKURE
100
AcDbLine
 10
203.7915047374586
 20
97.22723650998906
 30
0.0
 11
203.7915047374586
 21
72.22723650998904
 31
0.0
  0
ARC
  5
370
330
A
100
AcDbEntity
  8
KAKURE
100
AcDbCircle
 10
252.4915047374586
 20
72.22723650998904
 30
0.0
 40
2.299999999999998
100
AcDbArc
 50
270.0
 51
0.0
  0
ARC
  5
371
330
A
100
AcDbEntity
  8
KAKURE
100
AcDbCircle
 10
206.0915047374586
 20
72.22723650998904
 30
0.0
 40
2.299999999999998
100
AcDbArc
 50
180.0
 51
270.0
  0
LINE
  5
372
330
A
100
AcDbEntity
  8
KAKURE
100
AcDbLine
 10
252.4915047374586
 20
97.22723650998906
 30
0.0
 11
252.4915047374586
 21
72.22723650998904
 31
0.0
  0
LINE
  5
373
330
A
100
AcDbEntity
  8
KAKURE
100
AcDbLine
 10
206.0915047374586
 20
97.22723650998906
 30
0.0
 11
206.0915047374586
 21
72.22723650998904
 31
0.0
  0
LINE
  5
374
330
A
100
AcDbEntity
  8
KAKURE
100
AcDbLine
 10
252.4915047374586
 20
72.22723650998904
 30
0.0
 11
206.0915047374586
 21
72.22723650998904
 31
0.0
  0
LINE
  5
377
330
A
100
AcDbEntity
  8
02
100
AcDbLine
 10
134.3915047374588
 20
270.1295510174769
 30
0.0
 11
134.3915047374588
 21
320.1295510174769
 31
0.0
  0
LINE
  5
378
330
A
100
AcDbEntity
  8
02
100
AcDbLine
 10
134.3915047374588
 20
320.1295510174769
 30
0.0
 11
135.8915047374588
 21
320.1295510174769
 31
0.0
  0
LINE
  5
379
330
A
100
AcDbEntity
  8
02
100
AcDbLine
 10
140.3915047374588
 20
282.6295510174769
 30
0.0
 11
140.3915047374588
 21
315.629551017477
 31
0.0
  0
ARC
  5
37A
330
A
100
AcDbEntity
  8
02
100
AcDbCircle
 10
135.8915047374588
 20
315.629551017477
 30
0.0
 40
4.5
100
AcDbArc
 50
0.0
 51
90.0
  0
ARC
  5
37B
330
A
100
AcDbEntity
  8
02
100
AcDbCircle
 10
146.8915047374586
 20
282.6295510174769
 30
0.0
 40
6.5
100
AcDbArc
 50
179.9999999999999
 51
270.0
  0
LINE
  5
37C
330
A
100
AcDbEntity
  8
02
100
AcDbLine
 10
134.3915047374588
 20
304.2816834510587
 30
0.0
 11
140.3915047374588
 21
298.2816834510586
 31
0.0
  0
LINE
  5
37D
330
A
100
AcDbEntity
  8
02
100
AcDbLine
 10
134.3915047374588
 20
306.2816834510587
 30
0.0
 11
140.3915047374588
 21
300.2816834510587
 31
0.0
  0
LINE
  5
37F
330
A
100
AcDbEntity
  8
02
100
AcDbLine
 10
184.3915047374586
 20
270.1295510174769
 30
0.0
 11
134.3915047374588
 21
270.1295510174769
 31
0.0
  0
LINE
  5
380
330
A
100
AcDbEntity
  8
02
100
AcDbLine
 10
179.8915047374588
 20
276.129551017477
 30
0.0
 11
146.8915047374586
 21
276.129551017477
 31
0.0
  0
ARC
  5
381
330
A
100
AcDbEntity
  8
02
100
AcDbCircle
 10
179.8915047374588
 20
271.629551017477
 30
0.0
 40
4.5
100
AcDbArc
 50
0.0
 51
90.0
  0
LINE
  5
382
330
A
100
AcDbEntity
  8
02
100
AcDbLine
 10
162.5436371710405
 20
276.129551017477
 30
0.0
 11
168.5436371710405
 21
270.1295510174769
 31
0.0
  0
LINE
  5
383
330
A
100
AcDbEntity
  8
02
100
AcDbLine
 10
164.5436371710404
 20
276.129551017477
 30
0.0
 11
170.5436371710405
 21
270.1295510174769
 31
0.0
  0
LINE
  5
3A0
330
A
100
AcDbEntity
  8
CHUSIN
100
AcDbLine
 10
229.2915047374588
 20
88.08395912867011
 30
0.0
 11
229.2915047374588
 21
184.1668001585017
 31
0.0
  0
LINE
  5
3A3
330
A
100
AcDbEntity
  8
CHUSIN
100
AcDbLine
 10
296.6308818233315
 20
349.129551017477
 30
0.0
 11
263.0971556770289
 21
349.129551017477
 31
0.0
  0
LINE
  5
3A4
330
A
100
AcDbEntity
  8
CHUSIN
100
AcDbLine
 10
170.2915047374586
 20
100.9307076607026
 30
0.0
 11
170.2915047374586
 21
182.6947348407788
 31
0.0
  0
LINE
  5
3A5
330
A
100
AcDbEntity
  8
CHUSIN
100
AcDbLine
 10
291.2915047374588
 20
151.6332408807829
 30
0.0
 11
291.2915047374588
 21
124.4500390548074
 31
0.0
  0
LINE
  5
3A6
330
A
100
AcDbEntity
  8
CHUSIN
100
AcDbLine
 10
302.4790399697431
 20
139.4500390548072
 30
0.0
 11
277.0577032983235
 21
139.4500390548072
 31
0.0
  0
CIRCLE
  5
400
330
A
100
AcDbEntity
  8
KAKURE
100
AcDbCircle
 10
227.8334812144088
 20
467.5814519399756
 30
0.0
 40
15.0
  0
LINE
  5
404
330
A
100
AcDbEntity
  8
04
100
AcDbLine
 10
210.2915047374586
 20
201.129551017477
 30
0.0
 11
248.2915047374588
 21
201.129551017477
 31
0.0
  0
ARC
  5
408
330
A
100
AcDbEntity
  8
04
100
AcDbCircle
 10
205.2915047374586
 20
249.129551017477
 30
0.0
 40
2.0
100
AcDbArc
 50
90.0
 51
180.0
  0
LINE
  5
40A
330
A
100
AcDbEntity
  8
04
100
AcDbLine
 10
213.2915047374587
 20
235.1295510174769
 30
0.0
 11
245.2915047374588
 21
235.1295510174769
 31
0.0
  0
ARC
  5
40B
330
A
100
AcDbEntity
  8
04
100
AcDbCircle
 10
253.2915047374588
 20
249.129551017477
 30
0.0
 40
2.0
100
AcDbArc
 50
0.0
 51
90.0
  0
ARC
  5
40C
330
A
100
AcDbEntity
  8
04
100
AcDbCircle
 10
253.2915047374588
 20
237.1295510174769
 30
0.0
 40
2.0
100
AcDbArc
 50
270.0
 51
0.0
  0
LINE
  5
40D
330
A
100
AcDbEntity
  8
04
100
AcDbLine
 10
255.2915047374588
 20
237.1295510174769
 30
0.0
 11
255.2915047374588
 21
249.129551017477
 31
0.0
  0
LINE
  5
40E
330
A
100
AcDbEntity
  8
04
100
AcDbLine
 10
205.2915047374586
 20
235.1295510174769
 30
0.0
 11
253.2915047374588
 21
235.1295510174769
 31
0.0
  0
ARC
  5
40F
330
A
100
AcDbEntity
  8
04
100
AcDbCircle
 10
205.2915047374586
 20
237.1295510174769
 30
0.0
 40
2.0
100
AcDbArc
 50
180.0
 51
270.0
  0
LINE
  5
410
330
A
100
AcDbEntity
  8
04
100
AcDbLine
 10
203.2915047374586
 20
249.129551017477
 30
0.0
 11
203.2915047374586
 21
237.1295510174769
 31
0.0
  0
ARC
  5
412
330
A
100
AcDbEntity
  8
04
100
AcDbCircle
 10
253.2915047374588
 20
219.1295510174769
 30
0.0
 40
2.0
100
AcDbArc
 50
0.0
 51
90.0
  0
ARC
  5
413
330
A
100
AcDbEntity
  8
04
100
AcDbCircle
 10
253.2915047374588
 20
207.129551017477
 30
0.0
 40
2.0
100
AcDbArc
 50
270.0
 51
0.0
  0
LINE
  5
414
330
A
100
AcDbEntity
  8
04
100
AcDbLine
 10
255.2915047374588
 20
207.129551017477
 30
0.0
 11
255.2915047374588
 21
219.1295510174769
 31
0.0
  0
ARC
  5
416
330
A
100
AcDbEntity
  8
04
100
AcDbCircle
 10
205.2915047374586
 20
219.1295510174769
 30
0.0
 40
2.0
100
AcDbArc
 50
90.0
 51
180.0
  0
ARC
  5
417
330
A
100
AcDbEntity
  8
04
100
AcDbCircle
 10
205.2915047374586
 20
207.129551017477
 30
0.0
 40
2.0
100
AcDbArc
 50
180.0
 51
270.0
  0
LINE
  5
418
330
A
100
AcDbEntity
  8
04
100
AcDbLine
 10
203.2915047374586
 20
219.1295510174769
 30
0.0
 11
203.2915047374586
 21
207.129551017477
 31
0.0
  0
LINE
  5
43A
330
A
100
AcDbEntity
  8
06
100
AcDbLine
 10
301.2915047374588
 20
396.1295508620914
 30
0.0
 11
301.2915047374588
 21
490.1295510174771
 31
0.0
  0
LINE
  5
43B
330
A
100
AcDbEntity
  8
06
100
AcDbLine
 10
167.2915047374587
 20
501.629551017477
 30
0.0
 11
167.2915047374587
 21
384.6295510174769
 31
0.0
  0
LINE
  5
43E
330
A
100
AcDbEntity
  8
06
100
AcDbLine
 10
207.2915047374586
 20
384.6295510174769
 30
0.0
 11
207.2915047374586
 21
501.629551017477
 31
0.0
  0
LINE
  5
43F
330
A
100
AcDbEntity
  8
06
100
AcDbLine
 10
167.2915047374587
 20
384.6295510174769
 30
0.0
 11
170.2915047374586
 21
384.6295510174769
 31
0.0
  0
LINE
  5
440
330
A
100
AcDbEntity
  8
06
100
AcDbLine
 10
201.2915047374586
 20
384.6295510174769
 30
0.0
 11
207.2915047374586
 21
384.6295510174769
 31
0.0
  0
LINE
  5
441
330
A
100
AcDbEntity
  8
06
100
AcDbLine
 10
207.2915047374586
 20
501.629551017477
 30
0.0
 11
201.2915047374586
 21
501.629551017477
 31
0.0
  0
LINE
  5
442
330
A
100
AcDbEntity
  8
06
100
AcDbLine
 10
170.2915047374586
 20
501.629551017477
 30
0.0
 11
167.2915047374587
 21
501.629551017477
 31
0.0
  0
LINE
  5
443
330
A
100
AcDbEntity
  8
CHUSIN
100
AcDbLine
 10
312.1747012551086
 20
443.129551017477
 30
0.0
 11
155.2915047374586
 21
443.129551017477
 31
0.0
  0
LINE
  5
44D
330
A
100
AcDbEntity
  8
06
100
AcDbLine
 10
183.2915047374586
 20
502.1295510174771
 30
0.0
 11
180.2915047374586
 21
502.1295510174771
 31
0.0
  0
LINE
  5
44E
330
A
100
AcDbEntity
  8
06
100
AcDbLine
 10
183.2915047374586
 20
501.129551017477
 30
0.0
 11
196.2915047374586
 21
501.129551017477
 31
0.0
  0
LINE
  5
44F
330
A
100
AcDbEntity
  8
06
100
AcDbLine
 10
180.2915047374586
 20
501.129551017477
 30
0.0
 11
170.2915047374586
 21
501.129551017477
 31
0.0
  0
LINE
  5
450
330
A
100
AcDbEntity
  8
06
100
AcDbLine
 10
196.2915047374586
 20
502.1295510174771
 30
0.0
 11
201.2915047374586
 21
502.1295510174771
 31
0.0
  0
LINE
  5
453
330
A
100
AcDbEntity
  8
06
100
AcDbLine
 10
207.2915047374586
 20
494.3695510174769
 30
0.0
 11
208.8915047374586
 21
494.3695510174769
 31
0.0
  0
LINE
  5
455
330
A
100
AcDbEntity
  8
06
100
AcDbLine
 10
208.8915047374586
 20
481.8695510174769
 30
0.0
 11
207.2915047374586
 21
481.8695510174769
 31
0.0
  0
LINE
  5
456
330
A
100
AcDbEntity
  8
06
100
AcDbLine
 10
208.8915047374586
 20
482.0295510174766
 30
0.0
 11
210.3915047374588
 21
482.0295510174766
 31
0.0
  0
LINE
  5
458
330
A
100
AcDbEntity
  8
06
100
AcDbLine
 10
210.3915047374588
 20
494.2295510174765
 30
0.0
 11
208.8915047374586
 21
494.2295510174765
 31
0.0
  0
LINE
  5
459
330
A
100
AcDbEntity
  8
06
100
AcDbLine
 10
210.3915047374588
 20
482.3495510174764
 30
0.0
 11
214.8915047374587
 21
482.3495510174764
 31
0.0
  0
LINE
  5
45A
330
A
100
AcDbEntity
  8
06
100
AcDbLine
 10
210.3915047374588
 20
493.9095510174768
 30
0.0
 11
214.8915047374587
 21
493.9095510174768
 31
0.0
  0
LINE
  5
45B
330
A
100
AcDbEntity
  8
06
100
AcDbLine
 10
214.8915047374587
 20
482.3495510174764
 30
0.0
 11
215.3915047374588
 21
483.2295510174765
 31
0.0
  0
LINE
  5
45C
330
A
100
AcDbEntity
  8
06
100
AcDbLine
 10
214.8915047374587
 20
493.9095510174768
 30
0.0
 11
215.3915047374588
 21
493.0295510174766
 31
0.0
  0
LINE
  5
45D
330
A
100
AcDbEntity
  8
06
100
AcDbLine
 10
215.3915047374588
 20
493.0295510174766
 30
0.0
 11
215.3915047374588
 21
483.2295510174765
 31
0.0
  0
LINE
  5
460
330
A
100
AcDbEntity
  8
06
100
AcDbLine
 10
218.2915047374588
 20
485.9295510174763
 30
0.0
 11
218.2915047374588
 21
490.3295510174769
 31
0.0
  0
LINE
  5
461
330
A
100
AcDbEntity
  8
06
100
AcDbLine
 10
217.4915047374586
 20
491.1295510174769
 30
0.0
 11
215.3915047374588
 21
491.1295510174769
 31
0.0
  0
LINE
  5
462
330
A
100
AcDbEntity
  8
06
100
AcDbLine
 10
215.3915047374588
 20
485.1295510174771
 30
0.0
 11
217.4915047374586
 21
485.1295510174771
 31
0.0
  0
LINE
  5
463
330
A
100
AcDbEntity
  8
06
100
AcDbLine
 10
217.4915047374586
 20
491.1295510174769
 30
0.0
 11
218.2915047374588
 21
490.3295510174769
 31
0.0
  0
LINE
  5
464
330
A
100
AcDbEntity
  8
06
100
AcDbLine
 10
218.2915047374588
 20
485.9295510174763
 30
0.0
 11
217.4915047374586
 21
485.1295510174771
 31
0.0
  0
LINE
  5
469
330
A
100
AcDbEntity
  8
06
100
AcDbLine
 10
175.2915047374586
 20
385.1295510174761
 30
0.0
 11
170.2915047374586
 21
385.129551017477
 31
0.0
  0
LINE
  5
46D
330
A
100
AcDbEntity
  8
06
100
AcDbLine
 10
196.2915047374586
 20
384.129551017477
 30
0.0
 11
201.2915047374586
 21
384.129551017477
 31
0.0
  0
LINE
  5
46E
330
A
100
AcDbEntity
  8
06
100
AcDbLine
 10
180.2915047374586
 20
384.129551017477
 30
0.0
 11
183.2915047374586
 21
384.129551017477
 31
0.0
  0
LINE
  5
46F
330
A
100
AcDbEntity
  8
06
100
AcDbLine
 10
183.2915047374586
 20
385.129551017477
 30
0.0
 11
196.2915047374586
 21
385.129551017477
 31
0.0
  0
LINE
  5
475
330
A
100
AcDbEntity
  8
06
100
AcDbLine
 10
180.2915047374586
 20
385.129551017477
 30
0.0
 11
170.1915047374586
 21
385.129551017477
 31
0.0
  0
LINE
  5
476
330
A
100
AcDbEntity
  8
06
100
AcDbLine
 10
207.2915047374586
 20
404.3695510174767
 30
0.0
 11
208.8915047374586
 21
404.3695510174767
 31
0.0
  0
LINE
  5
478
330
A
100
AcDbEntity
  8
06
100
AcDbLine
 10
208.8915047374586
 20
391.8695510174768
 30
0.0
 11
207.2915047374586
 21
391.8695510174768
 31
0.0
  0
LINE
  5
479
330
A
100
AcDbEntity
  8
06
100
AcDbLine
 10
208.8915047374586
 20
392.0295510174766
 30
0.0
 11
210.3915047374588
 21
392.0295510174766
 31
0.0
  0
LINE
  5
47B
330
A
100
AcDbEntity
  8
06
100
AcDbLine
 10
210.3915047374588
 20
404.2295510174765
 30
0.0
 11
208.8915047374586
 21
404.2295510174765
 31
0.0
  0
LINE
  5
47C
330
A
100
AcDbEntity
  8
06
100
AcDbLine
 10
210.3915047374588
 20
392.3495510174763
 30
0.0
 11
214.8915047374587
 21
392.3495510174763
 31
0.0
  0
LINE
  5
47D
330
A
100
AcDbEntity
  8
06
100
AcDbLine
 10
210.3915047374588
 20
403.9095510174766
 30
0.0
 11
214.8915047374587
 21
403.9095510174766
 31
0.0
  0
LINE
  5
47E
330
A
100
AcDbEntity
  8
06
100
AcDbLine
 10
214.8915047374587
 20
392.3495510174763
 30
0.0
 11
215.3915047374588
 21
393.2295510174765
 31
0.0
  0
LINE
  5
47F
330
A
100
AcDbEntity
  8
06
100
AcDbLine
 10
214.8915047374587
 20
403.9095510174766
 30
0.0
 11
215.3915047374588
 21
403.0295510174766
 31
0.0
  0
LINE
  5
480
330
A
100
AcDbEntity
  8
06
100
AcDbLine
 10
215.3915047374588
 20
403.0295510174766
 30
0.0
 11
215.3915047374588
 21
393.2295510174765
 31
0.0
  0
LINE
  5
483
330
A
100
AcDbEntity
  8
06
100
AcDbLine
 10
218.2915047374588
 20
395.9295510174763
 30
0.0
 11
218.2915047374588
 21
400.3295510174768
 31
0.0
  0
LINE
  5
484
330
A
100
AcDbEntity
  8
06
100
AcDbLine
 10
217.4915047374586
 20
401.129551017477
 30
0.0
 11
215.3915047374588
 21
401.129551017477
 31
0.0
  0
LINE
  5
485
330
A
100
AcDbEntity
  8
06
100
AcDbLine
 10
215.3915047374588
 20
395.129551017477
 30
0.0
 11
217.4915047374586
 21
395.129551017477
 31
0.0
  0
LINE
  5
486
330
A
100
AcDbEntity
  8
06
100
AcDbLine
 10
217.4915047374586
 20
401.129551017477
 30
0.0
 11
218.2915047374588
 21
400.3295510174768
 31
0.0
  0
LINE
  5
487
330
A
100
AcDbEntity
  8
06
100
AcDbLine
 10
218.2915047374588
 20
395.9295510174763
 30
0.0
 11
217.4915047374586
 21
395.129551017477
 31
0.0
  0
ARC
  5
48C
330
A
100
AcDbEntity
  8
06
100
AcDbCircle
 10
298.2915047374588
 20
396.1295510174761
 30
0.0
 40
3.000000000000003
100
AcDbArc
 50
270.0000002056802
 51
359.9999970323689
  0
ARC
  5
48D
330
A
100
AcDbEntity
  8
06
100
AcDbCircle
 10
298.2915047374588
 20
490.1295510174771
 30
0.0
 40
3.0
100
AcDbArc
 50
359.9999970323707
 51
90.0
  0
LINE
  5
48E
330
A
100
AcDbEntity
  8
06
100
AcDbLine
 10
215.3346865556404
 20
393.1295510174761
 30
0.0
 11
298.2915047482281
 21
393.1295510174761
 31
0.0
  0
LINE
  5
48F
330
A
100
AcDbEntity
  8
06
100
AcDbLine
 10
298.2915047374588
 20
493.129551017477
 30
0.0
 11
215.3346865556402
 21
493.129551017477
 31
0.0
  0
LINE
  5
494
330
A
100
AcDbEntity
  8
06
100
AcDbLine
 10
279.7915047374589
 20
398.129551017477
 30
0.0
 11
263.7915047374589
 21
398.129551017477
 31
0.0
  0
LINE
  5
495
330
A
100
AcDbEntity
  8
CHUSIN
100
AcDbLine
 10
271.7915047374589
 20
389.1042704983476
 30
0.0
 11
271.7915047374589
 21
497.0653357950896
 31
0.0
  0
LINE
  5
498
330
A
100
AcDbEntity
  8
06
100
AcDbLine
 10
276.2915047374589
 20
477.09354968231
 30
0.0
 11
267.2915047374589
 21
477.09354968231
 31
0.0
  0
LINE
  5
499
330
A
100
AcDbEntity
  8
06
100
AcDbLine
 10
280.0915047374589
 20
488.129551017477
 30
0.0
 11
263.7915047374589
 21
488.129551017477
 31
0.0
  0
LINE
  5
49A
330
A
100
AcDbEntity
  8
06
100
AcDbLine
 10
276.2915047374589
 20
409.1655523526439
 30
0.0
 11
267.2915047374589
 21
409.1655523526439
 31
0.0
  0
LINE
  5
49B
330
A
100
AcDbEntity
  8
06
100
AcDbLine
 10
280.0915047374589
 20
398.129551017477
 30
0.0
 11
263.7915047374589
 21
398.129551017477
 31
0.0
  0
LINE
  5
588
330
A
100
AcDbEntity
  8
SOUZOU
100
AcDbLine
 10
287.2915047374586
 20
380.6295510174773
 30
0.0
 11
278.3108857719811
 21
380.6295510174773
 31
0.0
  0
LINE
  5
589
330
A
100
AcDbEntity
  8
SOUZOU
100
AcDbLine
 10
250.2915047374587
 20
377.6295510174771
 30
0.0
 11
270.4365016520246
 21
377.6295510174771
 31
0.0
  0
LINE
  5
58A
330
A
100
AcDbEntity
  8
SOUZOU
100
AcDbLine
 10
250.2915047374587
 20
380.6295510174773
 30
0.0
 11
250.2915047374587
 21
377.6295510174771
 31
0.0
  0
LINE
  5
58B
330
A
100
AcDbEntity
  8
SOUZOU
100
AcDbLine
 10
287.2915047374586
 20
377.6295510174771
 30
0.0
 11
287.2915047374586
 21
315.6295510174773
 31
0.0
  0
LINE
  5
58C
330
A
100
AcDbEntity
  8
SOUZOU
100
AcDbLine
 10
287.2915047374586
 20
315.6295510174773
 30
0.0
 11
290.2915047374587
 21
315.6295510174773
 31
0.0
  0
LINE
  5
58D
330
A
100
AcDbEntity
  8
SOUZOU
100
AcDbLine
 10
290.2915047374587
 20
315.6295510174773
 30
0.0
 11
290.2915047374587
 21
377.6295510174771
 31
0.0
  0
ARC
  5
58E
330
A
100
AcDbEntity
  8
SOUZOU
100
AcDbCircle
 10
287.2915047374586
 20
377.6295510174771
 30
0.0
 40
3.0
100
AcDbArc
 50
0.0000000000000114
 51
90.00000000000005
  0
LINE
  5
58F
330
A
100
AcDbEntity
  8
SOUZOU
100
AcDbLine
 10
250.2915047374588
 20
467.09354968231
 30
0.0
 11
250.2915047374588
 21
470.0935496823101
 31
0.0
  0
LINE
  5
590
330
A
100
AcDbEntity
  8
SOUZOU
100
AcDbLine
 10
290.2915047374587
 20
467.7935496823098
 30
0.0
 11
290.2915047374587
 21
320.09354968231
 31
0.0
  0
LINE
  5
591
330
A
100
AcDbEntity
  8
SOUZOU
100
AcDbLine
 10
290.2915047374587
 20
320.09354968231
 30
0.0
 11
287.2915047374586
 21
320.09354968231
 31
0.0
  0
LINE
  5
592
330
A
100
AcDbEntity
  8
SOUZOU
100
AcDbLine
 10
250.2915047374588
 20
470.0935496823101
 30
0.0
 11
287.9915047374586
 21
470.0935496823101
 31
0.0
  0
LINE
  5
593
330
A
100
AcDbEntity
  8
SOUZOU
100
AcDbLine
 10
250.2915047374588
 20
467.09354968231
 30
0.0
 11
287.2915047374588
 21
467.09354968231
 31
0.0
  0
LINE
  5
594
330
A
100
AcDbEntity
  8
SOUZOU
100
AcDbLine
 10
287.2915047374588
 20
467.09354968231
 30
0.0
 11
287.2915047374588
 21
320.09354968231
 31
0.0
  0
ARC
  5
595
330
A
100
AcDbEntity
  8
SOUZOU
100
AcDbCircle
 10
287.9915047374586
 20
467.7935496823098
 30
0.0
 40
2.299999999999998
100
AcDbArc
 50
0.0
 51
89.99999999999998
  0
LINE
  5
59C
330
A
100
AcDbEntity
  8
KAKURE
100
AcDbLine
 10
176.2915047374586
 20
307.129551017477
 30
0.0
 11
167.2915047374587
 21
307.129551017477
 31
0.0
  0
LINE
  5
59D
330
A
100
AcDbEntity
  8
KAKURE
100
AcDbLine
 10
176.2915047374586
 20
327.129551017477
 30
0.0
 11
167.2915047374587
 21
327.129551017477
 31
0.0
  0
LINE
  5
59E
330
A
100
AcDbEntity
  8
04
100
AcDbLine
 10
223.2915047374588
 20
288.129551017477
 30
0.0
 11
235.1939356666745
 21
312.92628212001
 31
0.0
  0
LINE
  5
59F
330
A
100
AcDbEntity
  8
04
100
AcDbLine
 10
223.3890738082429
 20
312.92628212001
 30
0.0
 11
235.2915047374588
 21
288.129551017477
 31
0.0
  0
LINE
  5
5A0
330
A
100
AcDbEntity
  8
04
100
AcDbLine
 10
223.2915047374588
 20
288.129551017477
 30
0.0
 11
223.2915047374588
 21
312.629551017477
 31
0.0
  0
LINE
  5
5A1
330
A
100
AcDbEntity
  8
04
100
AcDbLine
 10
235.2915047374588
 20
288.129551017477
 30
0.0
 11
235.2915047374588
 21
312.629551017477
 31
0.0
  0
LINE
  5
5A2
330
A
100
AcDbEntity
  8
04
100
AcDbLine
 10
234.7915047374588
 20
313.129551017477
 30
0.0
 11
223.7915047374588
 21
313.129551017477
 31
0.0
  0
ARC
  5
5A3
330
A
100
AcDbEntity
  8
04
100
AcDbCircle
 10
234.7915047374588
 20
312.629551017477
 30
0.0
 40
0.5
100
AcDbArc
 50
0.0
 51
90.0
  0
ARC
  5
5A4
330
A
100
AcDbEntity
  8
04
100
AcDbCircle
 10
223.7915047374588
 20
312.629551017477
 30
0.0
 40
0.5
100
AcDbArc
 50
90.0
 51
180.0
  0
LINE
  5
5A5
330
A
100
AcDbEntity
  8
04
100
AcDbLine
 10
242.2915047374587
 20
282.129551017477
 30
0.0
 11
242.2915047374587
 21
279.129551017477
 31
0.0
  0
ARC
  5
5A6
330
A
100
AcDbEntity
  8
04
100
AcDbCircle
 10
236.2915047374588
 20
282.129551017477
 30
0.0
 40
6.0
100
AcDbArc
 50
0.0
 51
89.99999999999998
  0
LINE
  5
5A7
330
A
100
AcDbEntity
  8
04
100
AcDbLine
 10
210.5159507581916
 20
288.129551017477
 30
0.0
 11
201.5159507581916
 21
279.129551017477
 31
0.0
  0
LINE
  5
5A8
330
A
100
AcDbEntity
  8
04
100
AcDbLine
 10
210.5159507581916
 20
288.129551017477
 30
0.0
 11
201.5159507581916
 21
279.129551017477
 31
0.0
  0
LINE
  5
5A9
330
A
100
AcDbEntity
  8
04
100
AcDbLine
 10
212.5159507581916
 20
288.129551017477
 30
0.0
 11
203.5159507581916
 21
279.129551017477
 31
0.0
  0
LINE
  5
5AA
330
A
100
AcDbEntity
  8
04
100
AcDbLine
 10
236.2915047374588
 20
288.129551017477
 30
0.0
 11
184.7915047374586
 21
288.129551017477
 31
0.0
  0
LINE
  5
5AB
330
A
100
AcDbEntity
  8
04
100
AcDbLine
 10
242.2915047374587
 20
279.129551017477
 30
0.0
 11
167.2915047374587
 21
279.129551017477
 31
0.0
  0
ARC
  5
5AC
330
A
100
AcDbEntity
  8
04
100
AcDbCircle
 10
184.7915047374586
 20
296.629551017477
 30
0.0
 40
8.5
100
AcDbArc
 50
179.9999999999999
 51
270.0
  0
LINE
  5
5AD
330
A
100
AcDbEntity
  8
04
100
AcDbLine
 10
176.2965557697969
 20
296.3365629002749
 30
0.0
 11
167.2915047374587
 21
287.3315118679368
 31
0.0
  0
LINE
  5
5AE
330
A
100
AcDbEntity
  8
04
100
AcDbLine
 10
176.2965557697969
 20
296.3365629002749
 30
0.0
 11
167.2915047374587
 21
287.3315118679368
 31
0.0
  0
LINE
  5
5AF
330
A
100
AcDbEntity
  8
04
100
AcDbLine
 10
176.2965557697969
 20
294.3365629002748
 30
0.0
 11
167.2915047374587
 21
285.3315118679367
 31
0.0
  0
ARC
  5
5B0
330
A
100
AcDbEntity
  8
04
100
AcDbCircle
 10
170.2915047374586
 20
348.1295510174768
 30
0.0
 40
6.0
100
AcDbArc
 50
0.0
 51
89.99999999999998
  0
LINE
  5
5B1
330
A
100
AcDbEntity
  8
04
100
AcDbLine
 10
176.2915047374586
 20
296.629551017477
 30
0.0
 11
176.2915047374586
 21
348.1295510174768
 31
0.0
  0
LINE
  5
5B2
330
A
100
AcDbEntity
  8
04
100
AcDbLine
 10
167.2915047374587
 20
354.129551017477
 30
0.0
 11
170.2915047374586
 21
354.129551017477
 31
0.0
  0
LINE
  5
5B3
330
A
100
AcDbEntity
  8
04
100
AcDbLine
 10
176.2915047374586
 20
308.629551017477
 30
0.0
 11
176.2915047374586
 21
329.629551017477
 31
0.0
  0
LINE
  5
5B4
330
A
100
AcDbEntity
  8
04
100
AcDbLine
 10
176.2915047374586
 20
338.7579187391296
 30
0.0
 11
167.2915047374587
 21
329.7579187391296
 31
0.0
  0
LINE
  5
5B5
330
A
100
AcDbEntity
  8
04
100
AcDbLine
 10
176.2915047374586
 20
338.7579187391296
 30
0.0
 11
167.2915047374587
 21
329.7579187391296
 31
0.0
  0
LINE
  5
5B6
330
A
100
AcDbEntity
  8
04
100
AcDbLine
 10
176.2915047374586
 20
336.7579187391296
 30
0.0
 11
167.2915047374587
 21
327.7579187391296
 31
0.0
  0
LINE
  5
5B7
330
A
100
AcDbEntity
  8
02
100
AcDbLine
 10
179.8915047374588
 20
508.0295510174768
 30
0.0
 11
146.8915047374586
 21
508.0295510174768
 31
0.0
  0
ARC
  5
5B8
330
A
100
AcDbEntity
  8
02
100
AcDbCircle
 10
179.8915047374588
 20
512.5295510174769
 30
0.0
 40
4.5
100
AcDbArc
 50
270.0
 51
0.0
  0
LINE
  5
5B9
330
A
100
AcDbEntity
  8
02
100
AcDbLine
 10
184.3915047374586
 20
512.5295510174769
 30
0.0
 11
184.3915047374586
 21
514.0295510174769
 31
0.0
  0
LINE
  5
5BA
330
A
100
AcDbEntity
  8
02
100
AcDbLine
 10
184.3915047374586
 20
514.0295510174769
 30
0.0
 11
134.3915047374588
 21
514.0295510174769
 31
0.0
  0
LINE
  5
5BC
330
A
100
AcDbEntity
  8
02
100
AcDbLine
 10
162.5436371710405
 20
508.0295510174768
 30
0.0
 11
168.5436371710405
 21
514.0295510174769
 31
0.0
  0
LINE
  5
5BD
330
A
100
AcDbEntity
  8
02
100
AcDbLine
 10
164.5436371710404
 20
508.0295510174768
 30
0.0
 11
170.5436371710405
 21
514.0295510174769
 31
0.0
  0
LINE
  5
5C1
330
A
100
AcDbEntity
  8
02
100
AcDbLine
 10
134.3915047374588
 20
514.0295510174769
 30
0.0
 11
134.3915047374588
 21
464.0295510174769
 31
0.0
  0
LINE
  5
5C2
330
A
100
AcDbEntity
  8
02
100
AcDbLine
 10
140.3915047374588
 20
501.5295510174769
 30
0.0
 11
140.3915047374588
 21
468.5295510174769
 31
0.0
  0
LINE
  5
5C3
330
A
100
AcDbEntity
  8
02
100
AcDbLine
 10
134.3915047374588
 20
464.0295510174769
 30
0.0
 11
135.8915047374588
 21
464.0295510174769
 31
0.0
  0
ARC
  5
5C4
330
A
100
AcDbEntity
  8
02
100
AcDbCircle
 10
135.8915047374588
 20
468.5295510174769
 30
0.0
 40
4.5
100
AcDbArc
 50
270.0
 51
0.0
  0
LINE
  5
5C5
330
A
100
AcDbEntity
  8
02
100
AcDbLine
 10
134.3915047374588
 20
479.8774185838952
 30
0.0
 11
140.3915047374588
 21
485.8774185838951
 31
0.0
  0
LINE
  5
5C6
330
A
100
AcDbEntity
  8
02
100
AcDbLine
 10
134.3915047374588
 20
477.8774185838951
 30
0.0
 11
140.3915047374588
 21
483.8774185838952
 31
0.0
  0
ARC
  5
5C7
330
A
100
AcDbEntity
  8
02
100
AcDbCircle
 10
146.8915047374586
 20
501.5295510174769
 30
0.0
 40
6.5
100
AcDbArc
 50
89.99999999999998
 51
180.0
  0
POLYLINE
  5
6A9
330
A
100
AcDbEntity
  8
DEFPOINTS
100
AcDb2dPolyline
 66
     1
 10
0.0
 20
0.0
 30
0.0
 70
     1
  0
VERTEX
  5
1918
330
6A9
100
AcDbEntity
  8
DEFPOINTS
100
AcDbVertex
100
AcDb2dVertex
 10
0.0
 20
0.0
 30
0.0
  0
VERTEX
  5
1919
330
6A9
100
AcDbEntity
  8
DEFPOINTS
100
AcDbVertex
100
AcDb2dVertex
 10
420.0
 20
0.0
 30
0.0
  0
VERTEX
  5
191A
330
6A9
100
AcDbEntity
  8
DEFPOINTS
100
AcDbVertex
100
AcDb2dVertex
 10
420.0
 20
594.0
 30
0.0
  0
VERTEX
  5
191B
330
6A9
100
AcDbEntity
  8
DEFPOINTS
100
AcDbVertex
100
AcDb2dVertex
 10
0.0
 20
594.0
 30
0.0
  0
SEQEND
  5
191C
330
6A9
100
AcDbEntity
  8
DEFPOINTS
  0
LEADER
  5
702
330
A
100
AcDbEntity
  8
HIKIDASI
100
AcDbLeader
  3
SUNPOU_2_8
 73
     0
 75
     1
 40
5.0
 41
34.93333333333333
 76
     3
 10
137.0902082918864
 20
500.1510448029319
 30
0.0
 10
61.73285303181224
 20
464.3859717619322
 30
0.0
 10
56.73285303181224
 20
464.3859717619322
 30
0.0
340
703
213
0.0
223
-1.356100991657853
233
0.0
1001
ACAD
1000
DSTYLE
1002
{
1070
     5
1000
OPEN30
1070
    77
1070
     1
1070
   147
1040
1.0
1070
   342
1005
6C0
1002
}
1000
LEANOF
1010
0.0
1020
-1.356100991657853
1030
0.0
1000
LEANOF
1010
0.0
1020
-1.356100991657853
1030
0.0
  0
MTEXT
  5
703
330
A
100
AcDbEntity
  8
HIKIDASI
100
AcDbMText
 10
54.73285303181224
 20
470.24207275359
 30
0.0
 40
5.0
 41
0.0
 71
     6
 72
     1
  1
L-50×50×6
  7
SUNPOU
1001
ACAD
1000
MTEXTBEGIN
1070
    73
1070
     1
1070
    44
1040
1.0
1070
    74
1070
     0
1000
MTEXTEND
1000
MTEXTBEGIN
1070
    73
1070
     1
1070
    44
1040
1.0
1070
    74
1070
     0
1000
MTEXTEND
  0
LEADER
  5
705
330
A
100
AcDbEntity
  8
HIKIDASI
100
AcDbLeader
  3
SUNPOU_2_8
 73
     0
 40
5.0
 41
26.8
 76
     2
 10
142.4938840804356
 20
424.2268487224549
 30
0.0
 10
57.19749436430173
 20
441.351641150253
 30
0.0
340
706
213
0.0
223
-0.1544550609306157
233
0.0
1001
ACAD
1000
DSTYLE
1002
{
1070
     5
1000
OPEN30
1070
    77
1070
     1
1070
   147
1040
1.0
1070
   342
1005
6C0
1002
}
1000
LEANOF
1010
0.0
1020
-0.1544550609306157
1030
0.0
1000
LEANOF
1010
0.0
1020
-0.1544550609306157
1030
0.0
  0
MTEXT
  5
706
330
A
100
AcDbEntity
  8
HIKIDASI
100
AcDbMText
 10
55.19749436430174
 20
446.0060962111835
 30
0.0
 40
5.0
 41
0.0
 71
     6
 72
     1
  1
FB-50×6
  7
SUNPOU
1001
ACAD
1000
MTEXTBEGIN
1070
    73
1070
     1
1070
    44
1040
1.0
1070
    74
1070
     0
1000
MTEXTEND
1000
MTEXTBEGIN
1070
    73
1070
     1
1070
    44
1040
1.0
1070
    74
1070
     0
1000
MTEXTEND
  0
LEADER
  5
707
330
A
100
AcDbEntity
  8
HIKIDASI
100
AcDbLeader
  3
SUNPOU_2_8
 76
     2
 10
161.9093227717969
 20
405.4181424901988
 30
0.0
 10
57.19749436430173
 20
441.351641150253
 30
0.0
1001
ACAD
1000
DSTYLE
1002
{
1070
     5
1000
OPEN30
1070
    77
1070
     1
1070
   147
1040
1.0
1070
   342
1005
6C0
1002
}
1000
LEANOF
1010
0.0
1020
0.0
1030
0.0
1000
LEANOF
1010
0.0
1020
0.0
1030
0.0
  0
LEADER
  5
708
330
A
100
AcDbEntity
  8
HIKIDASI
100
AcDbLeader
  3
SUNPOU_2_8
 73
     0
 75
     1
 40
13.33333333333333
 41
28.0
 76
     3
 10
161.2915047374587
 20
319.129551017477
 30
0.0
 10
60.77122629619392
 20
355.7793361786516
 30
0.0
 10
55.77122629619392
 20
355.7793361786516
 30
0.0
340
709
213
0.1875126032403642
223
9.450857261235171
233
0.0
1001
ACAD
1000
DSTYLE
1002
{
1070
     5
1000
OPEN30
1070
    77
1070
     1
1070
   147
1040
1.0
1070
   342
1005
6C0
1002
}
1000
LEANOF
1010
0.1875126032403642
1020
9.450857261235171
1030
0.0
1000
LEANOF
1010
0.1875126032403642
1020
9.450857261235171
1030
0.0
  0
MTEXT
  5
709
330
A
100
AcDbEntity
  8
HIKIDASI
100
AcDbMText
 10
53.58371369295355
 20
354.9951455840831
 30
0.0
 40
5.0
 41
0.0
 71
     6
 72
     1
  1
M10タップ\P(サッシ工事)
  7
SUNPOU
1001
ACAD
1000
MTEXTBEGIN
1070
    73
1070
     1
1070
    44
1040
1.0
1070
    74
1070
     0
1000
MTEXTEND
1000
MTEXTBEGIN
1070
    73
1070
     1
1070
    44
1040
1.0
1070
    74
1070
     0
1000
MTEXTEND
  0
LEADER
  5
70A
330
A
100
AcDbEntity
  8
HIKIDASI
100
AcDbLeader
  3
SUNPOU_2_8
 73
     0
 75
     1
 40
13.33333333333333
 41
36.26666666666666
 76
     3
 10
171.7940302536279
 20
291.8340373841059
 30
0.0
 10
59.73522150963994
 20
329.4247855495679
 30
0.0
 10
54.73522150963994
 20
329.4247855495679
 30
0.0
340
70B
213
0.4202713671640055
223
9.730641244028275
233
0.0
1001
ACAD
1000
DSTYLE
1002
{
1070
     5
1000
OPEN30
1070
    77
1070
     1
1070
   147
1040
1.0
1070
   342
1005
6C0
1002
}
1000
LEANOF
1010
0.4202713671640055
1020
9.730641244028275
1030
0.0
1000
LEANOF
1010
0.4202713671640055
1020
9.730641244028275
1030
0.0
  0
MTEXT
  5
70B
330
A
100
AcDbEntity
  8
HIKIDASI
100
AcDbMText
 10
52.31495014247593
 20
328.3608109722063
 30
0.0
 40
5.0
 41
0.0
 71
     6
 72
     1
  1
L-75×75×9\P(サッシ工事)
  7
SUNPOU
1001
ACAD
1000
MTEXTBEGIN
1070
    73
1070
     1
1070
    44
1040
1.0
1070
    74
1070
     0
1000
MTEXTEND
1000
MTEXTBEGIN
1070
    73
1070
     1
1070
    44
1040
1.0
1070
    74
1070
     0
1000
MTEXTEND
  0
LEADER
  5
70C
330
A
100
AcDbEntity
  8
HIKIDASI
100
AcDbLeader
  3
SUNPOU_2_8
 73
     0
 75
     1
 40
5.0
 41
34.93333333333333
 76
     3
 10
137.0948574480171
 20
275.2918750844936
 30
0.0
 10
62.75573050199947
 20
296.5969527751017
 30
0.0
 10
57.75573050199947
 20
296.5969527751017
 30
0.0
340
70D
213
0.480335153923008
223
0.2160133190955094
233
0.0
1001
ACAD
1000
DSTYLE
1002
{
1070
     5
1000
OPEN30
1070
    77
1070
     1
1070
   147
1040
1.0
1070
   342
1005
6C0
1002
}
1000
LEANOF
1010
0.480335153923008
1020
0.2160133190955094
1030
0.0
1000
LEANOF
1010
0.480335153923008
1020
0.2160133190955094
1030
0.0
  0
MTEXT
  5
70D
330
A
100
AcDbEntity
  8
HIKIDASI
100
AcDbMText
 10
55.27539534807647
 20
300.8809394560062
 30
0.0
 40
5.0
 41
0.0
 71
     6
 72
     1
  1
L-50×50×6
  7
SUNPOU
1001
ACAD
1000
MTEXTBEGIN
1070
    73
1070
     1
1070
    44
1040
1.0
1070
    74
1070
     0
1000
MTEXTEND
1000
MTEXTBEGIN
1070
    73
1070
     1
1070
    44
1040
1.0
1070
    74
1070
     0
1000
MTEXTEND
  0
LEADER
  5
70E
330
A
100
AcDbEntity
  8
HIKIDASI
100
AcDbLeader
  3
SUNPOU_2_8
 73
     0
 75
     1
 40
13.33333333333333
 41
30.39999999999999
 76
     3
 10
164.0415047374586
 20
197.3550795581535
 30
0.0
 10
59.16100197770374
 20
234.8383383787295
 30
0.0
 10
54.16100197770374
 20
234.8383383787295
 30
0.0
340
70F
213
0.580206987439766
223
9.957647519838758
233
0.0
1001
ACAD
1000
DSTYLE
1002
{
1070
     5
1000
OPEN30
1070
    77
1070
     1
1070
   147
1040
1.0
1070
   342
1005
6C0
1002
}
1000
LEANOF
1010
0.580206987439766
1020
9.957647519838758
1030
0.0
1000
LEANOF
1010
0.580206987439766
1020
9.957647519838758
1030
0.0
  0
MTEXT
  5
70F
330
A
100
AcDbEntity
  8
HIKIDASI
100
AcDbMText
 10
51.58079499026397
 20
233.5473575255575
 30
0.0
 40
5.0
 41
0.0
 71
     6
 72
     1
  1
トップセンター\P(サッシ工事)
  7
SUNPOU
1001
ACAD
1000
MTEXTBEGIN
1070
    73
1070
     1
1070
    44
1040
1.0
1070
    74
1070
     0
1000
MTEXTEND
1000
MTEXTBEGIN
1070
    73
1070
     1
1070
    44
1040
1.0
1070
    74
1070
     0
1000
MTEXTEND
  0
LEADER
  5
710
330
A
100
AcDbEntity
  8
HIKIDASI
100
AcDbLeader
  3
SUNPOU_2_8
 73
     0
 74
     0
 75
     1
 40
13.33333333333333
 41
42.4
 76
     3
 10
235.2915047374588
 20
300.379551017477
 30
0.0
 10
275.1140341232164
 20
253.8107419247764
 30
0.0
 10
280.1140341232164
 20
253.8107419247764
 30
0.0
340
711
213
1.262284549973458
223
8.484199917420284
233
0.0
1001
ACAD
1000
DSTYLE
1002
{
1070
     5
1000
OPEN30
1070
    77
1070
     1
1070
   147
1040
1.0
1070
   342
1005
6C0
1002
}
1000
LEANOF
1010
1.262284549973458
1020
8.484199917420284
1030
0.0
1000
LEANOF
1010
1.262284549973458
1020
8.484199917420284
1030
0.0
  0
MTEXT
  5
711
330
A
100
AcDbEntity
  8
HIKIDASI
100
AcDbMText
 10
280.851749573243
 20
247.3265420073561
 30
0.0
 40
5.0
 41
0.0
 71
     7
 72
     1
  1
FB-25×12\P磨き鋼(サッシ工事)
  7
SUNPOU
1001
ACAD
1000
MTEXTBEGIN
1070
    73
1070
     1
1070
    44
1040
1.0
1070
    74
1070
     0
1000
MTEXTEND
1000
MTEXTBEGIN
1070
    73
1070
     1
1070
    44
1040
1.0
1070
    74
1070
     0
1000
MTEXTEND
  0
LEADER
  5
713
330
A
100
AcDbEntity
  8
HIKIDASI
100
AcDbLeader
  3
SUNPOU_2_8
 73
     0
 74
     0
 75
     1
 40
5.0
 41
33.73333333333333
 76
     3
 10
173.7609041144036
 20
327.129551017477
 30
0.0
 10
171.0105524500042
 20
358.8462217379763
 30
0.0
 10
176.0105524500042
 20
358.8462217379763
 30
0.0
340
714
213
6.991435923122309
223
0.8636197698188539
233
0.0
1001
ACAD
1000
DSTYLE
1002
{
1070
     5
1000
OPEN30
1070
    77
1070
     1
1070
   147
1040
1.0
1070
   342
1005
6C0
1002
}
1000
LEANOF
1010
6.991435923122309
1020
0.8636197698188539
1030
0.0
1000
LEANOF
1010
6.991435923122309
1020
0.8636197698188539
1030
0.0
  0
MTEXT
  5
714
330
A
100
AcDbEntity
  8
HIKIDASI
100
AcDbMText
 10
171.0191165268819
 20
362.4826019681575
 30
0.0
 40
5.0
 41
0.0
 71
     4
 72
     1
  1
φ11×L20長穴
  7
SUNPOU
1001
ACAD
1000
MTEXTBEGIN
1070
    73
1070
     1
1070
    44
1040
1.0
1070
    74
1070
     0
1000
MTEXTEND
1000
MTEXTBEGIN
1070
    73
1070
     1
1070
    44
1040
1.0
1070
    74
1070
     0
1000
MTEXTEND
  0
LEADER
  5
715
330
A
100
AcDbEntity
  8
HIKIDASI
100
AcDbLeader
  3
SUNPOU_2_8
 73
     0
 74
     0
 75
     1
 40
13.33333333333333
 41
53.86666666666668
 76
     3
 10
291.2915047374588
 20
133.9668640111471
 30
0.0
 10
312.4190373568927
 20
73.75453884973921
 30
0.0
 10
317.4190373568927
 20
73.75453884973921
 30
0.0
340
716
213
-1.467380007682834
223
8.722371672311282
233
0.0
1001
ACAD
1000
DSTYLE
1002
{
1070
     5
1000
OPEN30
1070
    77
1070
     1
1070
   147
1040
1.0
1070
   342
1005
6C0
1002
}
1000
LEANOF
1010
-1.467380007682834
1020
8.722371672311282
1030
0.0
1000
LEANOF
1010
-1.467380007682834
1020
8.722371672311282
1030
0.0
  0
MTEXT
  5
716
330
A
100
AcDbEntity
  8
HIKIDASI
100
AcDbMText
 10
320.8864173645756
 20
67.03216717742794
 30
0.0
 40
5.0
 41
0.0
 71
     7
 72
     1
  1
補助光電スイッチ\P取付穴φ12(サッシ工事)
  7
SUNPOU
1001
ACAD
1000
MTEXTBEGIN
1070
    73
1070
     1
1070
    44
1040
1.0
1070
    74
1070
     0
1000
MTEXTEND
1000
MTEXTBEGIN
1070
    73
1070
     1
1070
    44
1040
1.0
1070
    74
1070
     0
1000
MTEXTEND
  0
DIMENSION
  5
717
330
A
100
AcDbEntity
  8
SUNPOU
100
AcDbDimension
  2
*D1
 10
316.2915047374588
 20
562.7258347978911
 30
0.0
 11
221.2915047374587
 21
567.2258347978911
 31
0.0
 70
    32
  3
SUNPOU_2_8
100
AcDbAlignedDimension
 13
126.2915047374587
 23
556.6295510174771
 33
0.0
 14
316.2915047374588
 24
556.6295510174771
 34
0.0
100
AcDbRotatedDimension
  0
DIMENSION
  5
724
330
A
100
AcDbEntity
  8
SUNPOU
100
AcDbDimension
  2
*D2
 10
311.2915047374588
 20
547.6782155602855
 30
0.0
 11
221.2915047374587
 21
552.1782155602855
 31
0.0
 70
    32
  3
SUNPOU_2_8
100
AcDbAlignedDimension
 13
131.2915047374586
 23
516.3795510174771
 33
0.0
 14
311.2915047374588
 24
516.3795510174771
 34
0.0
100
AcDbRotatedDimension
  0
DIMENSION
  5
731
330
A
100
AcDbEntity
  8
SUNPOU
100
AcDbDimension
  2
*D3
 10
100.0895812960906
 20
517.129551017477
 30
0.0
 11
95.58958129609065
 21
526.129551017477
 31
0.0
 70
    32
  3
SUNPOU_2_8
100
AcDbAlignedDimension
 13
149.0415047374586
 23
535.1295510174771
 33
0.0
 14
132.0415047374587
 24
517.129551017477
 34
0.0
 50
90.0
100
AcDbRotatedDimension
  0
DIMENSION
  5
740
330
A
100
AcDbEntity
  8
SUNPOU
100
AcDbDimension
  2
*D4
 10
79.42742096081963
 20
205.129551017477
 30
0.0
 11
74.9274209608196
 21
370.1295510174769
 31
0.0
 70
    32
  3
SUNPOU_2_8
100
AcDbAlignedDimension
 13
149.0415047374586
 23
535.1295510174771
 33
0.0
 14
149.0415047374586
 24
205.129551017477
 34
0.0
 50
90.0
100
AcDbRotatedDimension
  0
DIMENSION
  5
74D
330
A
100
AcDbEntity
  8
SUNPOU
100
AcDbDimension
  2
*D5
 10
100.0895812960906
 20
270.1295510174769
 30
0.0
 11
95.5895812960907
 21
393.629551017477
 31
0.0
 70
    32
  3
SUNPOU_2_8
100
AcDbAlignedDimension
 13
132.0415047374587
 23
517.129551017477
 33
0.0
 14
134.3915047374588
 24
270.1295510174769
 34
0.0
 50
90.0
100
AcDbRotatedDimension
  0
DIMENSION
  5
75A
330
A
100
AcDbEntity
  8
SUNPOU
100
AcDbDimension
  2
*D6
 10
100.0895812960906
 20
205.129551017477
 30
0.0
 11
95.58958129609068
 21
237.6295510174769
 31
0.0
 70
    32
  3
SUNPOU_2_8
100
AcDbAlignedDimension
 13
134.3915047374588
 23
270.1295510174769
 33
0.0
 14
132.0415047374587
 24
205.129551017477
 34
0.0
 50
90.0
100
AcDbRotatedDimension
  0
DIMENSION
  5
770
330
A
100
AcDbEntity
  8
SUNPOU
100
AcDbDimension
  2
*D7
 10
197.9889597694475
 20
279.129551017477
 30
0.0
 11
193.4889597694475
 21
299.129551017477
 31
0.0
 70
    32
  3
SUNPOU_2_8
100
AcDbAlignedDimension
 13
188.3602315597109
 23
319.129551017477
 33
0.0
 14
188.3602315597109
 24
279.129551017477
 34
0.0
 50
90.0
100
AcDbRotatedDimension
1001
ACAD
1000
DSTYLE
1002
{
1070
     7
1000
OPEN30
1070
     5
1000

1070
   173
1070
     1
1070
     6
1000
OPEN30
1002
}
  0
DIMENSION
  5
77D
330
A
100
AcDbEntity
  8
SUNPOU
100
AcDbDimension
  2
*D8
 10
197.9889597694475
 20
276.129551017477
 30
0.0
 11
204.1300823971644
 21
276.8331958213179
 31
0.0
 70
   160
  3
SUNPOU_2_8
100
AcDbAlignedDimension
 13
188.3602315597109
 23
279.129551017477
 33
0.0
 14
179.8915047374588
 24
276.129551017477
 34
0.0
 50
90.0
100
AcDbRotatedDimension
1001
ACAD
1000
DSTYLE
1002
{
1070
    41
1040
5.0
1070
     7
1000
DOTSMALL
1070
     5
1000

1070
   173
1070
     1
1070
     6
1000
NONE
1002
}
  0
DIMENSION
  5
78C
330
A
100
AcDbEntity
  8
SUNPOU
100
AcDbDimension
  2
*D9
 10
197.9889597694475
 20
270.1295510174769
 30
0.0
 11
192.85472671638
 21
273.1540645349126
 31
0.0
 70
   160
  3
SUNPOU_2_8
100
AcDbAlignedDimension
 13
179.8915047374588
 23
276.129551017477
 33
0.0
 14
184.3915047374586
 24
270.1295510174769
 34
0.0
 50
90.0
100
AcDbRotatedDimension
1001
ACAD
1000
DSTYLE
1002
{
1070
     6
1000
DOTSMALL
1070
     5
1000

1070
   173
1070
     1
1070
     7
1000
OPEN30
1002
}
  0
DIMENSION
  5
7B1
330
A
100
AcDbEntity
  8
SUNPOU
100
AcDbDimension
  2
*D10
 10
197.2915047374586
 20
248.7938743918178
 30
0.0
 11
183.7915047374586
 21
253.2938743918179
 31
0.0
 70
    32
  3
SUNPOU_2_8
100
AcDbAlignedDimension
 13
170.2915047374586
 23
239.3457197345244
 33
0.0
 14
197.2915047374586
 24
220.1295510174769
 34
0.0
100
AcDbRotatedDimension
  0
DIMENSION
  5
7C7
330
A
100
AcDbEntity
  8
SUNPOU
100
AcDbDimension
  2
*D11
 10
176.5415047374586
 20
228.5206994482507
 30
0.0
 11
169.8467460614821
 21
235.3090640335717
 31
0.0
 70
   160
  1
φ12.5
  3
SUNPOU_2_8
100
AcDbAlignedDimension
 13
164.0415047374586
 23
211.1092758981629
 33
0.0
 14
176.5415047374586
 24
211.1092758981629
 34
0.0
100
AcDbRotatedDimension
  0
DIMENSION
  5
7F7
330
A
100
AcDbEntity
  8
SUNPOU
100
AcDbDimension
  2
*D12
 10
143.2915047374587
 20
185.045327683693
 30
0.0
 11
119.254760937984
 21
192.4609064631095
 31
0.0
 70
   160
  3
SUNPOU_2_8
100
AcDbAlignedDimension
 13
131.2915047374586
 23
205.8795510174769
 33
0.0
 14
143.2915047374587
 24
201.129551017477
 34
0.0
100
AcDbRotatedDimension
  0
DIMENSION
  5
806
330
A
100
AcDbEntity
  8
SUNPOU
100
AcDbDimension
  2
*D13
 10
197.2915047374586
 20
185.045327683693
 30
0.0
 11
170.2915047374586
 21
189.545327683693
 31
0.0
 70
    32
  3
SUNPOU_2_8
100
AcDbAlignedDimension
 13
143.2915047374587
 23
201.129551017477
 33
0.0
 14
197.2915047374586
 24
201.129551017477
 34
0.0
100
AcDbRotatedDimension
  0
DIMENSION
  5
813
330
A
100
AcDbEntity
  8
SUNPOU
100
AcDbDimension
  2
*D14
 10
202.2915047374588
 20
185.045327683693
 30
0.0
 11
199.8253958982001
 21
191.8049510508236
 31
0.0
 70
   160
  3
SUNPOU_2_8
100
AcDbAlignedDimension
 13
197.2915047374586
 23
201.129551017477
 33
0.0
 14
202.2915047374588
 24
201.129551017477
 34
0.0
100
AcDbRotatedDimension
  0
DIMENSION
  5
822
330
A
100
AcDbEntity
  8
SUNPOU
100
AcDbDimension
  2
*D15
 10
256.2915047374588
 20
185.045327683693
 30
0.0
 11
229.2915047374588
 21
189.545327683693
 31
0.0
 70
    32
  3
SUNPOU_2_8
100
AcDbAlignedDimension
 13
202.2915047374588
 23
201.129551017477
 33
0.0
 14
256.2915047374588
 24
201.129551017477
 34
0.0
100
AcDbRotatedDimension
  0
DIMENSION
  5
82F
330
A
100
AcDbEntity
  8
SUNPOU
100
AcDbDimension
  2
*D16
 10
261.2915047374588
 20
185.045327683693
 30
0.0
 11
258.7923579404165
 21
192.2337450287307
 31
0.0
 70
   160
  3
SUNPOU_2_8
100
AcDbAlignedDimension
 13
256.2915047374588
 23
201.129551017477
 33
0.0
 14
261.2915047374588
 24
205.8795510174769
 34
0.0
100
AcDbRotatedDimension
  0
DIMENSION
  5
83E
330
A
100
AcDbEntity
  8
SUNPOU
100
AcDbDimension
  2
*D17
 10
311.2915047374588
 20
185.045327683693
 30
0.0
 11
286.2915047374588
 21
189.545327683693
 31
0.0
 70
    32
  3
SUNPOU_2_8
100
AcDbAlignedDimension
 13
261.2915047374588
 23
205.8795510174769
 33
0.0
 14
311.2915047374588
 24
205.8795510174769
 34
0.0
100
AcDbRotatedDimension
  0
DIMENSION
  5
84B
330
A
100
AcDbEntity
  8
SUNPOU
100
AcDbDimension
  2
*D18
 10
131.2915047374586
 20
171.6651195196105
 30
0.0
 11
121.6879084257038
 21
177.1577520246004
 31
0.0
 70
   160
  3
SUNPOU_2_8
100
AcDbAlignedDimension
 13
126.2915047374587
 23
202.3386020125133
 33
0.0
 14
131.2915047374586
 24
202.3386020125133
 34
0.0
100
AcDbRotatedDimension
  0
DIMENSION
  5
85A
330
A
100
AcDbEntity
  8
SUNPOU
100
AcDbDimension
  2
*D19
 10
311.2915047374588
 20
171.6651195196105
 30
0.0
 11
220.3887941506584
 21
164.5973091091561
 31
0.0
 70
   160
  3
SUNPOU_2_8
100
AcDbAlignedDimension
 13
131.2915047374586
 23
202.3386020125133
 33
0.0
 14
311.2915047374588
 24
202.3386020125133
 34
0.0
100
AcDbRotatedDimension
  0
DIMENSION
  5
867
330
A
100
AcDbEntity
  8
SUNPOU
100
AcDbDimension
  2
*D20
 10
316.2915047374588
 20
171.6651195196105
 30
0.0
 11
321.3594167003003
 21
178.9489598550469
 31
0.0
 70
   160
  3
SUNPOU_2_8
100
AcDbAlignedDimension
 13
311.2915047374588
 23
202.3386020125133
 33
0.0
 14
316.2915047374588
 24
201.5886020125132
 34
0.0
100
AcDbRotatedDimension
  0
DIMENSION
  5
876
330
A
100
AcDbEntity
  8
SUNPOU
100
AcDbDimension
  2
*D21
 10
266.4202271935157
 20
95.72723650998906
 30
0.0
 11
260.4803550213484
 21
92.05800150343748
 31
0.0
 70
   160
  3
SUNPOU_2_8
100
AcDbAlignedDimension
 13
254.7915047374587
 23
98.72723650998906
 33
0.0
 14
256.2915047374588
 24
95.72723650998906
 34
0.0
 50
90.0
100
AcDbRotatedDimension
  0
DIMENSION
  5
885
330
A
100
AcDbEntity
  8
SUNPOU
100
AcDbDimension
  2
*D22
 10
280.7111639308013
 20
73.72723650998898
 30
0.0
 11
276.2111639308013
 21
86.22723650998905
 31
0.0
 70
    32
  3
SUNPOU_2_8
100
AcDbAlignedDimension
 13
254.7915047374587
 23
98.72723650998906
 33
0.0
 14
239.2915047374588
 24
73.72723650998898
 34
0.0
 50
90.0
100
AcDbRotatedDimension
  0
DIMENSION
  5
892
330
A
100
AcDbEntity
  8
SUNPOU
100
AcDbDimension
  2
*D23
 10
167.2915047374587
 20
370.8325387151923
 30
0.0
 11
156.5503144051888
 21
378.1047116374291
 31
0.0
 70
   160
  3
SUNPOU_2_8
100
AcDbAlignedDimension
 13
161.2915047374587
 23
370.8325387151923
 33
0.0
 14
167.2915047374587
 24
370.8325387151923
 34
0.0
100
AcDbRotatedDimension
  0
DIMENSION
  5
8A1
330
A
100
AcDbEntity
  8
SUNPOU
100
AcDbDimension
  2
*D24
 10
229.2915047374588
 20
370.8325387151923
 30
0.0
 11
198.2915047374588
 21
375.3325387151923
 31
0.0
 70
    32
  3
SUNPOU_2_8
100
AcDbAlignedDimension
 13
167.2915047374587
 23
370.8325387151923
 33
0.0
 14
229.2915047374588
 24
361.129551017477
 34
0.0
100
AcDbRotatedDimension
  0
DIMENSION
  5
8AE
330
A
100
AcDbEntity
  8
SUNPOU
100
AcDbDimension
  2
*D25
 10
269.2915047374587
 20
370.8325387151923
 30
0.0
 11
243.2813233775597
 21
377.3516641027792
 31
0.0
 70
   160
  3
SUNPOU_2_8
100
AcDbAlignedDimension
 13
229.2915047374588
 23
361.129551017477
 33
0.0
 14
269.2915047374587
 24
365.129551017477
 34
0.0
100
AcDbRotatedDimension
  0
DIMENSION
  5
8BB
330
A
100
AcDbEntity
  8
SUNPOU
100
AcDbDimension
  2
*D26
 10
278.2915047374588
 20
370.8325387151923
 30
0.0
 11
274.0080616933694
 21
377.4873597855456
 31
0.0
 70
   160
  3
SUNPOU_2_8
100
AcDbAlignedDimension
 13
269.2915047374587
 23
365.129551017477
 33
0.0
 14
278.2915047374588
 24
365.129551017477
 34
0.0
100
AcDbRotatedDimension
  0
DIMENSION
  5
8CA
330
A
100
AcDbEntity
  8
SUNPOU
100
AcDbDimension
  2
*D27
 10
291.3532016827338
 20
313.129551017477
 30
0.0
 11
286.8532016827338
 21
300.629551017477
 31
0.0
 70
    32
  3
SUNPOU_2_8
100
AcDbAlignedDimension
 13
235.2915047374588
 23
288.129551017477
 33
0.0
 14
234.7915047374588
 24
313.129551017477
 34
0.0
 50
90.0
100
AcDbRotatedDimension
  0
DIMENSION
  5
8D7
330
A
100
AcDbEntity
  8
SUNPOU
100
AcDbDimension
  2
*D28
 10
331.5570681150715
 20
337.129551017477
 30
0.0
 11
324.0649158544586
 21
355.8037809301668
 31
0.0
 70
   160
  3
SUNPOU_2_8
100
AcDbAlignedDimension
 13
296.6308818233315
 23
349.129551017477
 33
0.0
 14
296.6308818233315
 24
337.129551017477
 34
0.0
 50
90.0
100
AcDbRotatedDimension
  0
DIMENSION
  5
8F3
330
A
100
AcDbEntity
  8
SUNPOU
100
AcDbDimension
  2
*D29
 10
331.5570681150715
 20
313.1295510174771
 30
0.0
 11
327.0570681150713
 21
325.1295510174772
 31
0.0
 70
    32
  3
SUNPOU_2_8
100
AcDbAlignedDimension
 13
296.6308818233315
 23
337.129551017477
 33
0.0
 14
235.2915047374588
 24
313.1295510174771
 34
0.0
 50
90.0
100
AcDbRotatedDimension
  0
DIMENSION
  5
900
330
A
100
AcDbEntity
  8
SUNPOU
100
AcDbDimension
  2
*D30
 10
331.5570681150715
 20
227.1295510174769
 30
0.0
 11
324.9440033470321
 21
274.6473407821238
 31
0.0
 70
   160
  3
SUNPOU_2_8
100
AcDbAlignedDimension
 13
235.2915047374588
 23
313.1295510174771
 33
0.0
 14
278.2915047374589
 24
227.1295510174769
 34
0.0
 50
90.0
100
AcDbRotatedDimension
  0
DIMENSION
  5
90D
330
A
100
AcDbEntity
  8
SUNPOU
100
AcDbDimension
  2
*D31
 10
331.5570681150715
 20
205.1295510174769
 30
0.0
 11
327.0570681150713
 21
216.1295510174769
 31
0.0
 70
    32
  3
SUNPOU_2_8
100
AcDbAlignedDimension
 13
278.2915047374589
 23
227.1295510174769
 33
0.0
 14
310.5415047374588
 24
205.129551017477
 34
0.0
 50
90.0
100
AcDbRotatedDimension
  0
DIMENSION
  5
91A
330
A
100
AcDbEntity
  8
SUNPOU
100
AcDbDimension
  2
*D32
 10
331.5570681150715
 20
201.129551017477
 30
0.0
 11
346.5931470373813
 21
208.7064286409784
 31
0.0
 70
   160
  3
SUNPOU_2_8
100
AcDbAlignedDimension
 13
310.5415047374588
 23
205.129551017477
 33
0.0
 14
256.2915047374588
 24
201.129551017477
 34
0.0
 50
90.0
100
AcDbRotatedDimension
  0
DIMENSION
  5
929
330
A
100
AcDbEntity
  8
SUNPOU
100
AcDbDimension
  2
*D33
 10
372.4493292481228
 20
205.129551017477
 30
0.0
 11
367.9493292481228
 21
370.1295510174771
 31
0.0
 70
    32
  3
SUNPOU_2_8
100
AcDbAlignedDimension
 13
314.5265835404036
 23
535.1295510174771
 33
0.0
 14
314.5265835404036
 24
205.129551017477
 34
0.0
 50
90.0
100
AcDbRotatedDimension
  0
DIMENSION
  5
936
330
A
100
AcDbEntity
  8
SUNPOU
100
AcDbDimension
  2
*D34
 10
368.464250445178
 20
95.72723650998906
 30
0.0
 11
363.9642504451781
 21
150.428393763733
 31
0.0
 70
    32
  1
H
  3
SUNPOU_2_8
100
AcDbAlignedDimension
 13
310.5415047374588
 23
205.129551017477
 33
0.0
 14
352.5324635456513
 24
95.72723650998906
 34
0.0
 50
90.0
100
AcDbRotatedDimension
  0
DIMENSION
  5
943
330
A
100
AcDbEntity
  8
SUNPOU
100
AcDbDimension
  2
*D35
 10
352.5324635456513
 20
105.727236509989
 30
0.0
 11
348.0324635456513
 21
153.428393763733
 31
0.0
 70
    32
  1
DH
  3
SUNPOU_2_8
100
AcDbAlignedDimension
 13
256.2915047374588
 23
201.129551017477
 33
0.0
 14
256.2915047374588
 24
105.727236509989
 34
0.0
 50
90.0
100
AcDbRotatedDimension
  0
DIMENSION
  5
950
330
A
100
AcDbEntity
  8
SUNPOU
100
AcDbDimension
  2
*D36
 10
352.5324635456513
 20
95.727236509989
 30
0.0
 11
346.3967343585451
 21
100.6679326229899
 31
0.0
 70
   160
  3
SUNPOU_2_8
100
AcDbAlignedDimension
 13
256.2915047374588
 23
105.727236509989
 33
0.0
 14
336.616263499935
 24
95.72723650998906
 34
0.0
 50
90.0
100
AcDbRotatedDimension
  0
DIMENSION
  5
95F
330
A
100
AcDbEntity
  8
SUNPOU
100
AcDbDimension
  2
*D37
 10
336.616263499935
 20
95.72723650998906
 30
0.0
 11
332.1162634999351
 21
117.7612377387249
 31
0.0
 70
    32
  1
600
  3
SUNPOU_2_8
100
AcDbAlignedDimension
 13
302.4790399697431
 23
139.7952389674609
 33
0.0
 14
302.4790399697431
 24
95.72723650998906
 34
0.0
 50
90.0
100
AcDbRotatedDimension
  0
DIMENSION
  5
97E
330
A
100
AcDbEntity
  8
SUNPOU
100
AcDbDimension
  2
*D38
 10
352.5324635456513
 20
443.129551017477
 30
0.0
 11
348.0324635456511
 21
324.129551017477
 31
0.0
 70
    32
  3
SUNPOU_2_8
100
AcDbAlignedDimension
 13
310.5415047374588
 23
205.129551017477
 33
0.0
 14
309.7915047374588
 24
443.129551017477
 34
0.0
 50
90.0
100
AcDbRotatedDimension
  0
DIMENSION
  5
A88
330
A
100
AcDbEntity
  8
SUNPOU
100
AcDbDimension
  2
*D39
 10
240.1972542030613
 20
476.0748091963886
 30
0.0
 11
227.8334812144086
 21
467.5814519399753
 31
0.0
 70
   163
  1
電線穴φ30\P(両端)
  3
SUNPOU_2_8
100
AcDbDiametricDimension
 15
215.4697082257559
 25
459.0880946835624
 35
0.0
 40
0.0
1001
ACAD
1000
DSTYLE
1002
{
1070
   140
1040
2.5
1070
   288
1070
     1
1002
}
  0
DIMENSION
  5
AC6
330
A
100
AcDbEntity
  8
SUNPOU
100
AcDbDimension
  2
*D40
 10
239.2915047374588
 20
52.75143694438236
 30
0.0
 11
229.2915047374588
 21
57.25143694438236
 31
0.0
 70
    32
  3
SUNPOU_2_8
100
AcDbAlignedDimension
 13
219.2915047374587
 23
73.72723650998898
 33
0.0
 14
239.2915047374588
 24
73.72723650998898
 34
0.0
100
AcDbRotatedDimension
  0
LINE
  5
B33
330
A
100
AcDbEntity
  8
02
100
AcDbLine
 10
184.3915047374586
 20
271.629551017477
 30
0.0
 11
184.3915047374586
 21
270.1295510174769
 31
0.0
  0
LINE
  5
1074
330
A
100
AcDbEntity
  8
CHUSIN
100
AcDbLine
 10
170.2915047374586
 20
197.1178117745448
 30
0.0
 11
170.2915047374586
 21
223.8703966574822
 31
0.0
  0
LINE
  5
10CA
330
A
100
AcDbEntity
  8
SOUZOU
100
AcDbLine
 10
270.4365016520246
 20
380.6295510174773
 30
0.0
 11
250.2915047374587
 21
380.6295510174773
 31
0.0
  0
LINE
  5
10CB
330
A
100
AcDbEntity
  8
SOUZOU
100
AcDbLine
 10
278.3108857719811
 20
377.6295510174771
 30
0.0
 11
287.2915047374586
 21
377.6295510174771
 31
0.0
  0
LINE
  5
1286
330
A
100
AcDbEntity
  8
CHUSIN
100
AcDbLine
 10
229.2915047374588
 20
335.6358058690439
 30
0.0
 11
229.2915047374588
 21
382.4934147460154
 31
0.0
  0
LINE
  5
1287
330
A
100
AcDbEntity
  8
CHUSIN
100
AcDbLine
 10
229.2915047374588
 20
194.0306927986005
 30
0.0
 11
229.2915047374588
 21
325.4181414069688
 31
0.0
  0
POLYLINE
  5
12AB
330
A
100
AcDbEntity
  8
SAISEN
100
AcDb2dPolyline
 66
     1
 10
0.0
 20
0.0
 30
0.0
 70
     1
  0
VERTEX
  5
1921
330
12AB
100
AcDbEntity
  8
SAISEN
100
AcDbVertex
100
AcDb2dVertex
 10
83.5330709098107
 20
143.7392459200368
 30
0.0
  0
VERTEX
  5
1922
330
12AB
100
AcDbEntity
  8
SAISEN
100
AcDbVertex
100
AcDb2dVertex
 10
93.53307090981068
 20
143.7392459200368
 30
0.0
  0
VERTEX
  5
1923
330
12AB
100
AcDbEntity
  8
SAISEN
100
AcDbVertex
100
AcDb2dVertex
 10
93.53307090981068
 20
173.7392459200368
 30
0.0
  0
VERTEX
  5
1924
330
12AB
100
AcDbEntity
  8
SAISEN
100
AcDbVertex
100
AcDb2dVertex
 10
83.5330709098107
 20
173.7392459200368
 30
0.0
  0
SEQEND
  5
1925
330
12AB
100
AcDbEntity
  8
SAISEN
  0
MTEXT
  5
12AD
330
A
100
AcDbEntity
  8
MOJI
100
AcDbMText
 10
384.1565099483167
 20
158.7392459200368
 30
0.0
 40
6.0
 41
5.135799999999998
 71
     5
 72
     1
  1
内　部
  7
0_8
1001
ACAD
1000
MTEXTBEGIN
1070
    73
1070
     1
1070
    44
1040
1.0
1070
    74
1070
     0
1000
MTEXTEND
1000
MTEXTBEGIN
1070
    73
1070
     1
1070
    44
1040
1.0
1070
    74
1070
     0
1000
MTEXTEND
  0
POLYLINE
  5
12AE
330
A
100
AcDbEntity
  8
SAISEN
100
AcDb2dPolyline
 66
     1
 10
0.0
 20
0.0
 30
0.0
 70
     1
  0
VERTEX
  5
1926
330
12AE
100
AcDbEntity
  8
SAISEN
100
AcDbVertex
100
AcDb2dVertex
 10
379.1565099483168
 20
143.7392459200368
 30
0.0
  0
VERTEX
  5
1927
330
12AE
100
AcDbEntity
  8
SAISEN
100
AcDbVertex
100
AcDb2dVertex
 10
389.1565099483167
 20
143.7392459200368
 30
0.0
  0
VERTEX
  5
1928
330
12AE
100
AcDbEntity
  8
SAISEN
100
AcDbVertex
100
AcDb2dVertex
 10
389.1565099483167
 20
173.7392459200368
 30
0.0
  0
VERTEX
  5
1929
330
12AE
100
AcDbEntity
  8
SAISEN
100
AcDbVertex
100
AcDb2dVertex
 10
379.1565099483168
 20
173.7392459200368
 30
0.0
  0
SEQEND
  5
192A
330
12AE
100
AcDbEntity
  8
SAISEN
  0
CIRCLE
  5
12B1
330
A
100
AcDbEntity
  8
KAKURE
100
AcDbCircle
 10
291.2915047374588
 20
431.8934233056545
 30
0.0
 40
10.04793196890658
  0
DIMENSION
  5
12E6
330
A
100
AcDbEntity
  8
SUNPOU
  6
CONTINUOUS
100
AcDbDimension
  2
*D42
 10
283.0346544385936
 20
426.1675731509686
 30
0.0
 11
306.6604884309652
 21
442.5513006406624
 31
0.0
 70
   163
  1
  
  3
SUNPOU_2_8
100
AcDbDiametricDimension
 15
299.5483550363236
 25
437.6192734603399
 35
0.0
 40
0.0
1001
ACAD
1000
DSTYLE
1002
{
1070
   288
1070
     1
1002
}
  0
LEADER
  5
1314
330
A
100
AcDbEntity
  8
HIKIDASI
  6
CONTINUOUS
100
AcDbLeader
  3
SUNPOU_2_8
 73
     0
 74
     0
 75
     1
 40
13.33333333333333
 41
41.86666666666665
 76
     3
 10
299.5483550363236
 20
437.6192734603399
 30
0.0
 10
318.9132460906721
 20
453.073856860441
 30
0.0
 10
323.9132460906722
 20
453.073856860441
 30
0.0
340
1315
213
0.0
223
8.229887542396566
233
0.0
1001
ACAD
1000
DSTYLE
1002
{
1070
     5
1000
OPEN30
1070
    77
1070
     1
1070
   147
1040
1.0
1070
   342
1005
6C0
1002
}
1000
LEANOF
1010
0.0
1020
8.229887542396566
1030
0.0
1000
LEANOF
1010
0.0
1020
8.229887542396566
1030
0.0
  0
MTEXT
  5
1315
330
A
100
AcDbEntity
  8
HIKIDASI
  6
CONTINUOUS
 62
     6
100
AcDbMText
 10
325.9132460906722
 20
446.8439693180442
 30
0.0
 40
5.0
 41
0.0
 71
     7
 72
     1
  1
補助光電スイッチ用\P通線穴φ20
  7
SUNPOU
1001
ACAD
1000
MTEXTBEGIN
1070
    73
1070
     1
1070
    44
1040
1.0
1070
    74
1070
     0
1000
MTEXTEND
1000
MTEXTBEGIN
1070
    73
1070
     1
1070
    44
1040
1.0
1070
    74
1070
     0
1000
MTEXTEND
  0
LINE
  5
1656
330
A
100
AcDbEntity
  8
06
  6
CONTINUOUS
100
AcDbLine
 10
208.8915047374586
 20
481.8695510174769
 30
0.0
 11
208.8915047374586
 21
482.0295510174766
 31
0.0
  0
LINE
  5
1657
330
A
100
AcDbEntity
  8
06
  6
CONTINUOUS
100
AcDbLine
 10
210.3915047374588
 20
482.0295510174766
 30
0.0
 11
210.3915047374588
 21
482.3495510174764
 31
0.0
  0
LINE
  5
1658
330
A
100
AcDbEntity
  8
06
  6
CONTINUOUS
100
AcDbLine
 10
208.8915047374586
 20
494.3695510174769
 30
0.0
 11
208.8915047374586
 21
494.2295510174765
 31
0.0
  0
LINE
  5
1659
330
A
100
AcDbEntity
  8
06
  6
CONTINUOUS
100
AcDbLine
 10
210.3915047374588
 20
494.2295510174765
 30
0.0
 11
210.3915047374588
 21
493.9095510174768
 31
0.0
  0
LINE
  5
1660
330
A
100
AcDbEntity
  8
06
  6
CONTINUOUS
100
AcDbLine
 10
170.2915047374586
 20
384.6295510174769
 30
0.0
 11
170.2915047374588
 21
385.1295510174771
 31
0.0
  0
LINE
  5
1661
330
A
100
AcDbEntity
  8
06
  6
CONTINUOUS
100
AcDbLine
 10
180.2915047374586
 20
384.129551017477
 30
0.0
 11
180.2915047374586
 21
385.129551017477
 31
0.0
  0
LINE
  5
1662
330
A
100
AcDbEntity
  8
06
  6
CONTINUOUS
100
AcDbLine
 10
183.2915047374586
 20
384.129551017477
 30
0.0
 11
183.2915047374586
 21
385.129551017477
 31
0.0
  0
LINE
  5
1663
330
A
100
AcDbEntity
  8
06
  6
CONTINUOUS
100
AcDbLine
 10
196.2915047374586
 20
384.129551017477
 30
0.0
 11
196.2915047374586
 21
385.129551017477
 31
0.0
  0
LINE
  5
1664
330
A
100
AcDbEntity
  8
06
  6
CONTINUOUS
100
AcDbLine
 10
201.2915047374586
 20
384.129551017477
 30
0.0
 11
201.2915047374586
 21
384.6295510174769
 31
0.0
  0
LINE
  5
1665
330
A
100
AcDbEntity
  8
06
  6
CONTINUOUS
100
AcDbLine
 10
170.2915047374586
 20
501.629551017477
 30
0.0
 11
170.2915047374586
 21
501.129551017477
 31
0.0
  0
LINE
  5
1666
330
A
100
AcDbEntity
  8
06
  6
CONTINUOUS
100
AcDbLine
 10
180.2915047374586
 20
502.1295510174771
 30
0.0
 11
180.2915047374586
 21
501.129551017477
 31
0.0
  0
LINE
  5
1667
330
A
100
AcDbEntity
  8
06
  6
CONTINUOUS
100
AcDbLine
 10
183.2915047374586
 20
502.1295510174771
 30
0.0
 11
183.2915047374586
 21
501.129551017477
 31
0.0
  0
LINE
  5
1668
330
A
100
AcDbEntity
  8
06
  6
CONTINUOUS
100
AcDbLine
 10
196.2915047374586
 20
502.1295510174771
 30
0.0
 11
196.2915047374588
 21
501.129551017477
 31
0.0
  0
LINE
  5
1669
330
A
100
AcDbEntity
  8
06
  6
CONTINUOUS
100
AcDbLine
 10
201.2915047374586
 20
502.1295510174771
 30
0.0
 11
201.2915047374586
 21
501.629551017477
 31
0.0
  0
LINE
  5
166A
330
A
100
AcDbEntity
  8
06
  6
CONTINUOUS
100
AcDbLine
 10
208.8915047374586
 20
404.3695510174767
 30
0.0
 11
208.8915047374586
 21
404.2295510174765
 31
0.0
  0
LINE
  5
166B
330
A
100
AcDbEntity
  8
06
  6
CONTINUOUS
100
AcDbLine
 10
210.3915047374588
 20
404.2295510174765
 30
0.0
 11
210.3915047374588
 21
403.9095510174766
 31
0.0
  0
LINE
  5
166C
330
A
100
AcDbEntity
  8
06
  6
CONTINUOUS
100
AcDbLine
 10
210.3915047374588
 20
392.0295510174766
 30
0.0
 11
210.3915047374588
 21
392.3495510174763
 31
0.0
  0
LINE
  5
166D
330
A
100
AcDbEntity
  8
06
  6
CONTINUOUS
100
AcDbLine
 10
208.8915047374586
 20
391.8695510174768
 30
0.0
 11
208.8915047374586
 21
392.0295510174766
 31
0.0
  0
LINE
  5
1685
330
A
100
AcDbEntity
  8
04
  6
CONTINUOUS
100
AcDbLine
 10
203.2915047374586
 20
253.129551017477
 30
0.0
 11
206.2915047374587
 21
253.129551017477
 31
0.0
  0
LINE
  5
1686
330
A
100
AcDbEntity
  8
04
  6
CONTINUOUS
100
AcDbLine
 10
255.2915047374588
 20
253.129551017477
 30
0.0
 11
252.2915047374588
 21
253.129551017477
 31
0.0
  0
LINE
  5
1687
330
A
100
AcDbEntity
  8
04
  6
CONTINUOUS
100
AcDbLine
 10
255.2915047374588
 20
251.129551017477
 30
0.0
 11
253.2915047374588
 21
251.129551017477
 31
0.0
  0
LINE
  5
1688
330
A
100
AcDbEntity
  8
04
  6
CONTINUOUS
100
AcDbLine
 10
203.2915047374586
 20
251.129551017477
 30
0.0
 11
205.2915047374586
 21
251.129551017477
 31
0.0
  0
LINE
  5
1689
330
A
100
AcDbEntity
  8
04
  6
CONTINUOUS
100
AcDbLine
 10
205.2915047374586
 20
221.1295510174769
 30
0.0
 11
207.2915047374586
 21
221.1295510174769
 31
0.0
  0
LINE
  5
168A
330
A
100
AcDbEntity
  8
04
  6
CONTINUOUS
100
AcDbLine
 10
253.2915047374588
 20
221.1295510174769
 30
0.0
 11
251.2915047374588
 21
221.1295510174769
 31
0.0
  0
LINE
  5
168B
330
A
100
AcDbEntity
  8
04
  6
CONTINUOUS
100
AcDbLine
 10
203.2915047374586
 20
205.129551017477
 30
0.0
 11
205.2915047374586
 21
205.129551017477
 31
0.0
  0
LINE
  5
168C
330
A
100
AcDbEntity
  8
04
  6
CONTINUOUS
100
AcDbLine
 10
255.2915047374588
 20
205.129551017477
 30
0.0
 11
253.2915047374588
 21
205.129551017477
 31
0.0
  0
LINE
  5
168E
330
A
100
AcDbEntity
  8
03
  6
CONTINUOUS
100
AcDbLine
 10
223.2915047374588
 20
83.72723650998905
 30
0.0
 11
220.2915047374588
 21
83.72723650998905
 31
0.0
  0
LINE
  5
168F
330
A
100
AcDbEntity
  8
03
  6
CONTINUOUS
100
AcDbLine
 10
235.2915047374588
 20
83.72723650998905
 30
0.0
 11
238.2915047374587
 21
83.72723650998905
 31
0.0
  0
LINE
  5
1690
330
A
100
AcDbEntity
  8
03
  6
CONTINUOUS
100
AcDbLine
 10
213.2915047374586
 20
103.727236509989
 30
0.0
 11
220.2915047374588
 21
103.727236509989
 31
0.0
  0
LINE
  5
1692
330
A
100
AcDbEntity
  8
03
  6
CONTINUOUS
100
AcDbLine
 10
245.2915047374588
 20
103.727236509989
 30
0.0
 11
238.2915047374587
 21
103.727236509989
 31
0.0
  0
LINE
  5
1693
330
A
100
AcDbEntity
  8
SOUZOU
 48
0.5
100
AcDbLine
 10
145.2915047374588
 20
71.22723650998904
 30
0.0
 11
147.7915047374588
 21
71.22723650998904
 31
0.0
  0
LINE
  5
1694
330
A
100
AcDbEntity
  8
SOUZOU
 48
0.5
100
AcDbLine
 10
195.2915047374587
 20
71.22723650998904
 30
0.0
 11
192.7915047374586
 21
71.22723650998904
 31
0.0
  0
LINE
  5
16EE
330
A
100
AcDbEntity
  8
SAISEN
100
AcDbLine
 10
326.2915047374588
 20
123.6883120831432
 30
0.0
 11
113.4309358993082
 21
123.6883120831432
 31
0.0
  0
LINE
  5
16EF
330
A
100
AcDbEntity
  8
SAISEN
100
AcDbLine
 10
326.2915047374588
 20
118.6883120831432
 30
0.0
 11
113.4309358993082
 21
118.6883120831432
 31
0.0
  0
LINE
  5
16F0
330
A
100
AcDbEntity
  8
03
100
AcDbLine
 10
143.2915047374587
 20
118.6883120831432
 30
0.0
 11
143.2915047374587
 21
105.727236509989
 31
0.0
  0
LINE
  5
16F1
330
A
100
AcDbEntity
  8
03
100
AcDbLine
 10
146.2915047374586
 20
118.6883120831432
 30
0.0
 11
146.2915047374586
 21
105.727236509989
 31
0.0
  0
LINE
  5
16F2
330
A
100
AcDbEntity
  8
03
100
AcDbLine
 10
194.2915047374587
 20
118.6883120831432
 30
0.0
 11
194.2915047374587
 21
105.727236509989
 31
0.0
  0
LINE
  5
16F3
330
A
100
AcDbEntity
  8
03
100
AcDbLine
 10
197.2915047374586
 20
123.6883120831432
 30
0.0
 11
197.2915047374586
 21
153.1362950760732
 31
0.0
  0
LINE
  5
16F4
330
A
100
AcDbEntity
  8
03
100
AcDbLine
 10
205.2915047374586
 20
118.6883120831432
 30
0.0
 11
205.2915047374586
 21
105.727236509989
 31
0.0
  0
LINE
  5
16F5
330
A
100
AcDbEntity
  8
03
100
AcDbLine
 10
202.2915047374588
 20
118.6883120831432
 30
0.0
 11
202.2915047374588
 21
105.727236509989
 31
0.0
  0
LINE
  5
16F6
330
A
100
AcDbEntity
  8
03
100
AcDbLine
 10
316.2915047374588
 20
118.6883120831432
 30
0.0
 11
316.2915047374588
 21
95.72723650998906
 31
0.0
  0
LINE
  5
16F7
330
A
100
AcDbEntity
  8
03
100
AcDbLine
 10
256.2915047374588
 20
118.6883120831432
 30
0.0
 11
256.2915047374588
 21
105.727236509989
 31
0.0
  0
LINE
  5
16F8
330
A
100
AcDbEntity
  8
03
100
AcDbLine
 10
253.2915047374588
 20
118.6883120831432
 30
0.0
 11
253.2915047374588
 21
105.727236509989
 31
0.0
  0
LINE
  5
16F9
330
A
100
AcDbEntity
  8
03
100
AcDbLine
 10
126.2915047374587
 20
123.6883120831432
 30
0.0
 11
126.2915047374587
 21
153.1362950760732
 31
0.0
  0
MTEXT
  5
1745
330
A
100
AcDbEntity
  8
MOJI
100
AcDbMText
 10
88.53307090981068
 20
158.7392459200368
 30
0.0
 40
6.0
 41
5.135799999999998
 71
     5
 72
     1
  1
外　部
  7
0_8
1001
ACAD
1000
MTEXTBEGIN
1070
    73
1070
     1
1070
    44
1040
1.0
1070
    74
1070
     0
1000
MTEXTEND
1000
MTEXTBEGIN
1070
    73
1070
     1
1070
    44
1040
1.0
1070
    74
1070
     0
1000
MTEXTEND
  0
MTEXT
  5
174D
330
A
100
AcDbEntity
  8
MOJI
100
AcDbMText
 10
171.8995285368611
 20
80.82758627329667
 30
0.0
 40
5.0
 41
0.0
 71
     5
 72
     1
  1
ピポットヒンジ\P(S-2A)サッシ工事
  7
0_8
1001
ACAD
1000
MTEXTBEGIN
1070
    73
1070
     1
1070
    44
1040
1.0
1070
    74
1070
     0
1000
MTEXTEND
1000
MTEXTBEGIN
1070
    73
1070
     1
1070
    44
1040
1.0
1070
    74
1070
     0
1000
MTEXTEND
  0
MTEXT
  5
174E
330
A
100
AcDbEntity
  8
MOJI
100
AcDbMText
 10
386.8935996066743
 20
98.84250780707317
 30
0.0
 40
5.0
 41
0.0
 71
     8
 72
     1
  1
F.L
  7
0_8
1001
ACAD
1000
MTEXTBEGIN
1070
    73
1070
     1
1070
    44
1040
1.0
1070
    74
1070
     0
1000
MTEXTEND
1000
MTEXTBEGIN
1070
    73
1070
     1
1070
    44
1040
1.0
1070
    74
1070
     0
1000
MTEXTEND
  0
DIMENSION
  5
17C0
330
A
100
AcDbEntity
  8
SUNPOU
100
AcDbDimension
  2
*D44
 10
187.4568062686151
 20
319.129551017477
 30
0.0
 11
182.9568062686149
 21
323.129551017477
 31
0.0
 70
    32
  3
SUNPOU_2_8
100
AcDbAlignedDimension
 13
176.2915047374586
 23
327.129551017477
 33
0.0
 14
176.2915047374586
 24
319.129551017477
 34
0.0
 50
90.0
100
AcDbRotatedDimension
  0
DIMENSION
  5
17CF
330
A
100
AcDbEntity
  8
SUNPOU
100
AcDbDimension
  2
*D45
 10
187.4568062686151
 20
307.129551017477
 30
0.0
 11
182.9568062686149
 21
313.129551017477
 31
0.0
 70
    32
  3
SUNPOU_2_8
100
AcDbAlignedDimension
 13
176.2915047374586
 23
319.129551017477
 33
0.0
 14
176.2915047374586
 24
307.129551017477
 34
0.0
 50
90.0
100
AcDbRotatedDimension
  0
DIMENSION
  5
1839
330
A
100
AcDbEntity
  8
SUNPOU
100
AcDbDimension
  2
*D46
 10
301.2915047374588
 20
504.5725516969619
 30
0.0
 11
234.2915047374588
 21
509.0725516969619
 31
0.0
 70
    32
  3
SUNPOU_2_8
100
AcDbAlignedDimension
 13
167.2915047374587
 23
501.629551017477
 33
0.0
 14
301.2915047374588
 24
490.1295508620923
 34
0.0
100
AcDbRotatedDimension
  0
MTEXT
  5
18C8
330
A
100
AcDbEntity
  8
MOJI
100
AcDbMText
 10
309.9999999999966
 20
29.00000000000023
 30
0.0
 40
7.0
 41
50.0
 71
     5
 72
     1
  1
図番１４－２
  7
0_80
1001
ACAD
1000
MTEXTBEGIN
1070
    73
1070
     1
1070
    44
1040
1.0
1070
    74
1070
     0
1000
MTEXTEND
1000
MTEXTBEGIN
1070
    73
1070
     1
1070
    44
1040
1.0
1070
    74
1070
     0
1000
MTEXTEND
  0
MTEXT
  5
18C9
330
A
100
AcDbEntity
  8
MOJI
100
AcDbMText
 10
359.9999999999968
 20
28.5
 30
0.0
 40
7.0
 41
49.99999999999994
 71
     5
 72
     1
  1
たて断面図　
  7
0_80
1001
ACAD
1000
MTEXTBEGIN
1070
    73
1070
     1
1070
    44
1040
1.0
1070
    74
1070
     0
1000
MTEXTEND
1000
MTEXTBEGIN
1070
    73
1070
     1
1070
    44
1040
1.0
1070
    74
1070
     0
1000
MTEXTEND
  0
POLYLINE
  5
18CA
330
A
100
AcDbEntity
  8
SAISEN
100
AcDb2dPolyline
 66
     1
 10
0.0
 20
0.0
 30
0.0
 70
     1
  0
VERTEX
  5
192B
330
18CA
100
AcDbEntity
  8
SAISEN
100
AcDbVertex
100
AcDb2dVertex
 10
34.99999999999693
 20
17.0
 30
0.0
  0
VERTEX
  5
192C
330
18CA
100
AcDbEntity
  8
SAISEN
100
AcDbVertex
100
AcDb2dVertex
 10
384.9999999999969
 20
17.0
 30
0.0
  0
VERTEX
  5
192D
330
18CA
100
AcDbEntity
  8
SAISEN
100
AcDbVertex
100
AcDb2dVertex
 10
384.9999999999969
 20
41.00000000000022
 30
0.0
  0
VERTEX
  5
192E
330
18CA
100
AcDbEntity
  8
SAISEN
100
AcDbVertex
100
AcDb2dVertex
 10
34.99999999999693
 20
41.00000000000022
 30
0.0
  0
SEQEND
  5
192F
330
18CA
100
AcDbEntity
  8
SAISEN
  0
MTEXT
  5
18CB
330
A
100
AcDbEntity
  8
MOJI
100
AcDbMText
 10
184.9999999999969
 20
29.0
 30
0.0
 40
7.0
 41
80.0
 71
     5
 72
     1
  1
ＴＦ－１２００Ｓ\PＴＦ－１２００Ｄ
  7
0_8
1001
ACAD
1000
MTEXTBEGIN
1070
    73
1070
     1
1070
    44
1040
1.0
1070
    74
1070
     0
1000
MTEXTEND
1000
MTEXTBEGIN
1070
    73
1070
     1
1070
    44
1040
1.0
1070
    74
1070
     0
1000
MTEXTEND
  0
MTEXT
  5
18CC
330
A
100
AcDbEntity
  8
MOJI
100
AcDbMText
 10
89.99999999999692
 20
29.0
 30
0.0
 40
7.0
 41
110.0
 71
     5
 72
     1
  1
フルオープナー(ステンレス框ドア)
  7
0_8
1001
ACAD
1000
MTEXTBEGIN
1070
    73
1070
     1
1070
    44
1040
1.0
1070
    74
1070
     0
1000
MTEXTEND
1000
MTEXTBEGIN
1070
    73
1070
     1
1070
    44
1040
1.0
1070
    74
1070
     0
1000
MTEXTEND
  0
LINE
  5
18CD
330
A
100
AcDbEntity
  8
SAISEN
100
AcDbLine
 10
144.9999999999969
 20
41.00000000000022
 30
0.0
 11
144.9999999999969
 21
17.0
 31
0.0
  0
LINE
  5
18CE
330
A
100
AcDbEntity
  8
SAISEN
100
AcDbLine
 10
224.9999999999969
 20
41.00000000000022
 30
0.0
 11
224.9999999999969
 21
17.0
 31
0.0
  0
MTEXT
  5
18CF
330
A
100
AcDbEntity
  8
MOJI
100
AcDbMText
 10
254.9999999999997
 20
29.0
 30
0.0
 40
7.0
 41
60.0
 71
     5
 72
     1
  1
片引き又は両引き
  7
0_8
1001
ACAD
1000
MTEXTBEGIN
1070
    73
1070
     1
1070
    44
1040
1.0
1070
    74
1070
     0
1000
MTEXTEND
1000
MTEXTBEGIN
1070
    73
1070
     1
1070
    44
1040
1.0
1070
    74
1070
     0
1000
MTEXTEND
  0
LINE
  5
18D0
330
A
100
AcDbEntity
  8
SAISEN
100
AcDbLine
 10
284.9999999999969
 20
41.00000000000022
 30
0.0
 11
284.9999999999969
 21
17.0
 31
0.0
  0
CIRCLE
  5
18DA
330
A
100
AcDbEntity
  8
SAISEN
100
AcDbCircle
 10
391.0976380784291
 20
49.54302641223165
 30
0.0
 40
5.0
  0
TEXT
  5
18DB
330
A
100
AcDbEntity
  8
MOJI
100
AcDbText
 10
388.0488190392129
 20
45.27151320611595
 30
0.0
 40
8.0
  1
Ｓ
 41
0.8
  7
0_8
 11
388.0488190392129
 21
53.27151320611595
 31
0.0
100
AcDbText
 73
     3
  0
VIEWPORT
  5
6D7
102
{ACAD_XDICTIONARY
360
1908
102
}
330
B
100
AcDbEntity
 67
     1
  8
0
100
AcDbViewport
 10
198.0508299538852
 20
285.1874487354477
 30
0.0
 40
1080.347564134148
 41
628.3535021666721
 68
     1
 69
     1
1001
ACAD
1000
MVIEW
1002
{
1070
    16
1010
0.0
1020
0.0
1030
0.0
1010
0.0
1020
0.0
1030
1.0
1040
0.0
1040
628.3535021666721
1040
198.0508299538852
1040
285.1874487354477
1040
50.0
1040
0.0
1040
0.0
1070
     0
1070
   100
1070
     1
1070
     1
1070
     0
1070
     0
1070
     0
1070
     0
1040
0.0
1040
0.0
1040
0.0
1040
10.0
1040
10.0
1040
10.0
1040
10.0
1070
     0
1002
{
1002
}
1002
}
  0
VIEWPORT
  5
18F2
102
{ACAD_XDICTIONARY
360
190E
102
}
330
B
100
AcDbEntity
 67
     1
  8
DEFPOINTS
100
AcDbViewport
 10
198.0508309076477
 20
285.1874477816852
 30
0.0
 40
396.4883172119752
 41
570.409736121624
 68
     2
 69
     2
1001
ACAD
1000
MVIEW
1002
{
1070
    16
1010
0.0
1020
0.0
1030
0.0
1010
0.0
1020
0.0
1030
1.0
1040
0.0
1040
570.409736121624
1040
210.0
1040
297.0
1040
50.0
1040
0.0
1040
0.0
1070
     0
1070
   100
1070
     1
1070
     1
1070
     0
1070
     0
1070
     0
1070
     0
1040
0.0
1040
0.0
1040
0.0
1040
1.0
1040
1.0
1040
0.0
1040
0.0
1070
     0
1002
{
1002
}
1002
}
  0
ENDSEC
  0
SECTION
  2
OBJECTS
  0
DICTIONARY
  5
19
330
0
100
AcDbDictionary
  3
ACAD_COLOR
350
18AC
  3
ACAD_GROUP
350
1A
  3
ACAD_LAYOUT
350
4EA
  3
ACAD_MATERIAL
350
18AB
  3
ACAD_MLINESTYLE
350
1B
  3
ACAD_PLOTSETTINGS
350
4EB
  3
ACADDIM
350
6FE
  3
ASE_INDEX_DICTIONARY
350
18B4
1001
ACAD
1000
TREAT_AS_HARD
1070
     0
1000
TREAT_AS_HARD
1070
     0
  0
DICTIONARY
  5
164C
330
2
100
AcDbDictionary
  3
ACAD_LAYERFILTERS
350
164D
  3
ACAD_LAYERSTATES
350
176F
1001
ACAD
1000
TREAT_AS_HARD
1070
     1
1000
TREAT_AS_HARD
1070
     1
  0
DICTIONARY
  5
1868
330
A
100
AcDbDictionary
  3
ACAD_LAYOUTSELFREF
350
1916
1001
ACAD
1000
TREAT_AS_HARD
1070
     1
  0
DICTIONARY
  5
186A
330
B
100
AcDbDictionary
  3
ACAD_LAYOUTSELFREF
350
1917
1001
ACAD
1000
TREAT_AS_HARD
1070
     1
  0
DICTIONARY
  5
1908
330
6D7
100
AcDbDictionary
  3
ACAD_XREC_ROUNDTRIP
350
1909
1001
ACAD
1000
TREAT_AS_HARD
1070
     1
  0
DICTIONARY
  5
190E
330
18F2
100
AcDbDictionary
  3
ACAD_XREC_ROUNDTRIP
350
190F
1001
ACAD
1000
TREAT_AS_HARD
1070
     1
  0
DICTIONARY
  5
18AC
102
{ACAD_REACTORS
330
19
102
}
330
19
100
AcDbDictionary
1001
ACAD
1000
TREAT_AS_HARD
1070
     0
  0
DICTIONARY
  5
1A
102
{ACAD_REACTORS
330
19
102
}
330
19
100
AcDbDictionary
  3
DAGROUP3AA
350
3AA
  3
DAGROUP3AE
350
3AE
  3
DAGROUP3B2
350
3B2
  3
DAGROUP3B6
350
3B6
  3
DAGROUP3BA
350
3BA
  3
DAGROUP3BE
350
3BE
  3
DAGROUP3C2
350
3C2
  3
DAGROUP3C6
350
3C6
  3
DAGROUP3CA
350
3CA
  3
DAGROUP3CE
350
3CE
  3
DAGROUP3D2
350
3D2
  3
DAGROUP3D6
350
3D6
  3
DAGROUP3DA
350
3DA
  3
DAGROUP3DE
350
3DE
  3
DAGROUP3E2
350
3E2
  3
DAGROUP3E6
350
3E6
  3
DAGROUP3E9
350
3E9
  3
DAGROUP3EC
350
3EC
  3
DAGROUP3EF
350
3EF
  3
DAGROUP3F2
350
3F2
  3
DAGROUP3F5
350
3F5
  3
DAGROUP3F8
350
3F8
  3
DAGROUP3FC
350
3FC
  3
DAGROUP3FF
350
3FF
1001
ACAD
1000
TREAT_AS_HARD
1070
     0
1000
TREAT_AS_HARD
1070
     0
  0
DICTIONARY
  5
4EA
102
{ACAD_REACTORS
330
19
102
}
330
19
100
AcDbDictionary
1001
ACAD
1000
TREAT_AS_HARD
1070
     0
1000
TREAT_AS_HARD
1070
     0
  0
DICTIONARY
  5
18AB
102
{ACAD_REACTORS
330
19
102
}
330
19
100
AcDbDictionary
1001
ACAD
1000
TREAT_AS_HARD
1070
     0
  0
DICTIONARY
  5
1B
102
{ACAD_REACTORS
330
19
102
}
330
19
100
AcDbDictionary
  3
STANDARD
350
1C
1001
ACAD
1000
TREAT_AS_HARD
1070
     0
1000
TREAT_AS_HARD
1070
     0
  0
DICTIONARY
  5
4EB
102
{ACAD_REACTORS
330
19
102
}
330
19
100
AcDbDictionary
1001
ACAD
1000
TREAT_AS_HARD
1070
     0
1000
TREAT_AS_HARD
1070
     0
  0
XRECORD
  5
6FE
102
{ACAD_REACTORS
330
19
102
}
330
19
100
AcDbXrecord
 90
   990106
  3

 60
     0
 61
     0
 62
     4
 63
     4
 64
     1
 65
     0
 66
     0
 67
     3
 68
     0
 69
     1
 70
     0
 71
     0
 72
     0
 40
0.0
170
     2
340
1315
  0
DICTIONARY
  5
18B4
102
{ACAD_REACTORS
330
19
102
}
330
19
100
AcDbDictionary
  3
ASEBLOCKHIERARCHYINDEXRECORD
350
18B6
1001
DCO15
1040
1508735822.687
1001
ACAD
1000
TREAT_AS_HARD
1070
     0
  0
DICTIONARY
  5
164D
102
{ACAD_REACTORS
330
164C
102
}
330
164C
100
AcDbDictionary
  3
HIHYOJI
350
164E
1001
ACAD
1000
TREAT_AS_HARD
1070
     1
1000
TREAT_AS_HARD
1070
     0
  0
DICTIONARY
  5
176F
102
{ACAD_REACTORS
330
164C
102
}
330
164C
100
AcDbDictionary
1001
ACAD
1000
TREAT_AS_HARD
1070
     0
1000
TREAT_AS_HARD
1070
     0
  0
XRECORD
  5
1916
102
{ACAD_REACTORS
330
1868
102
}
330
1868
100
AcDbXrecord
340
A
  0
XRECORD
  5
1917
102
{ACAD_REACTORS
330
186A
102
}
330
186A
100
AcDbXrecord
340
B
  0
XRECORD
  5
1909
102
{ACAD_REACTORS
330
1908
102
}
330
1908
100
AcDbXrecord
102
SHADEPLOT
 70
     0
  0
XRECORD
  5
190F
102
{ACAD_REACTORS
330
190E
102
}
330
190E
100
AcDbXrecord
102
SHADEPLOT
 70
     0
  0
GROUP
  5
3AA
102
{ACAD_REACTORS
330
1A
102
}
330
1A
100
AcDbGroup
300

 70
     0
 71
     1
  0
GROUP
  5
3AE
102
{ACAD_REACTORS
330
1A
102
}
330
1A
100
AcDbGroup
300

 70
     0
 71
     1
  0
GROUP
  5
3B2
102
{ACAD_REACTORS
330
1A
102
}
330
1A
100
AcDbGroup
300

 70
     0
 71
     1
  0
GROUP
  5
3B6
102
{ACAD_REACTORS
330
1A
102
}
330
1A
100
AcDbGroup
300

 70
     0
 71
     1
  0
GROUP
  5
3BA
102
{ACAD_REACTORS
330
1A
102
}
330
1A
100
AcDbGroup
300

 70
     0
 71
     1
  0
GROUP
  5
3BE
102
{ACAD_REACTORS
330
1A
102
}
330
1A
100
AcDbGroup
300

 70
     0
 71
     1
  0
GROUP
  5
3C2
102
{ACAD_REACTORS
330
1A
102
}
330
1A
100
AcDbGroup
300

 70
     0
 71
     1
  0
GROUP
  5
3C6
102
{ACAD_REACTORS
330
1A
102
}
330
1A
100
AcDbGroup
300

 70
     0
 71
     1
  0
GROUP
  5
3CA
102
{ACAD_REACTORS
330
1A
102
}
330
1A
100
AcDbGroup
300

 70
     0
 71
     1
  0
GROUP
  5
3CE
102
{ACAD_REACTORS
330
1A
102
}
330
1A
100
AcDbGroup
300

 70
     0
 71
     1
  0
GROUP
  5
3D2
102
{ACAD_REACTORS
330
1A
102
}
330
1A
100
AcDbGroup
300

 70
     0
 71
     1
  0
GROUP
  5
3D6
102
{ACAD_REACTORS
330
1A
102
}
330
1A
100
AcDbGroup
300

 70
     0
 71
     1
  0
GROUP
  5
3DA
102
{ACAD_REACTORS
330
1A
102
}
330
1A
100
AcDbGroup
300

 70
     0
 71
     1
  0
GROUP
  5
3DE
102
{ACAD_REACTORS
330
1A
102
}
330
1A
100
AcDbGroup
300

 70
     0
 71
     1
  0
GROUP
  5
3E2
102
{ACAD_REACTORS
330
1A
102
}
330
1A
100
AcDbGroup
300

 70
     0
 71
     1
  0
GROUP
  5
3E6
102
{ACAD_REACTORS
330
1A
102
}
330
1A
100
AcDbGroup
300

 70
     0
 71
     1
  0
GROUP
  5
3E9
102
{ACAD_REACTORS
330
1A
102
}
330
1A
100
AcDbGroup
300

 70
     0
 71
     1
  0
GROUP
  5
3EC
102
{ACAD_REACTORS
330
1A
102
}
330
1A
100
AcDbGroup
300

 70
     0
 71
     1
  0
GROUP
  5
3EF
102
{ACAD_REACTORS
330
1A
102
}
330
1A
100
AcDbGroup
300

 70
     0
 71
     1
  0
GROUP
  5
3F2
102
{ACAD_REACTORS
330
1A
102
}
330
1A
100
AcDbGroup
300

 70
     0
 71
     1
  0
GROUP
  5
3F5
102
{ACAD_REACTORS
330
1A
102
}
330
1A
100
AcDbGroup
300

 70
     0
 71
     1
  0
GROUP
  5
3F8
102
{ACAD_REACTORS
330
1A
102
}
330
1A
100
AcDbGroup
300

 70
     0
 71
     1
  0
GROUP
  5
3FC
102
{ACAD_REACTORS
330
1A
102
}
330
1A
100
AcDbGroup
300

 70
     0
 71
     1
  0
GROUP
  5
3FF
102
{ACAD_REACTORS
330
1A
102
}
330
1A
100
AcDbGroup
300

 70
     0
 71
     1
  0
MLINESTYLE
  5
1C
102
{ACAD_REACTORS
330
1B
102
}
330
1B
100
AcDbMlineStyle
  2
STANDARD
 70
     0
  3

 62
     0
 51
90.00000000000019
 52
90.00000000000019
 71
     2
 49
0.5
 62
   256
  6
BYLAYER
 49
-0.5
 62
   256
  6
BYLAYER
  0
XRECORD
  5
18B6
102
{ACAD_REACTORS
330
18B4
102
}
330
18B4
100
AcDbXrecord
330
14DF
330
14E0
330
14E8
330
14E9
330
157D
330
157E
330
14FA
330
14FB
330
1503
330
1504
330
1534
330
1535
330
1875
330
1876
330
1881
330
188B
330
188C
330
1569
330
156A
330
1556
330
1557
330
1518
330
1519
330
1520
330
1521
330
1540
330
1541
330
14D6
330
14D7
330
160D
330
160E
330
1601
330
1602
330
152C
330
152D
330
14F2
330
14F3
330
1618
330
1619
330
169B
330
169C
330
16A3
330
16A4
330
1575
330
1576
330
14CD
330
14CE
330
1635
330
1636
330
1623
330
1624
330
1598
330
1599
330
1640
330
1641
330
162B
330
162C
330
15A2
330
15A3
330
15F8
330
15F9
330
15B6
330
15B7
330
1586
330
1587
330
16DD
330
16DE
330
16B5
330
16B6
330
16E9
330
16EA
330
16FD
330
16FE
330
1590
330
158F
330
14BB
330
14BC
330
16AC
330
16AD
330
1647
330
1648
330
1821
330
1822
330
182C
330
182D
330
1849
330
184A
  0
XRECORD
  5
164E
102
{ACAD_REACTORS
330
164D
102
}
330
164D
100
AcDbXrecord
  1
hihyoji
  1
08,09,*_h
  1
*
  1
*
 70
     0
  1
*
  1
*
  0
ENDSEC
  0
EOF
