  0
SECTION
  2
HEADER
  9
$ACADVER
  1
AC1012
  9
$DWGCODEPAGE
  3
dos932
  9
$INSBASE
 10
0.0
 20
0.0
 30
0.0
  9
$EXTMIN
 10
0.0
 20
0.0
 30
0.0
  9
$EXTMAX
 10
420.0
 20
594.0
 30
0.0
  9
$LIMMIN
 10
0.0
 20
0.0
  9
$LIMMAX
 10
420.0
 20
594.0
  9
$ORTHOMODE
 70
     1
  9
$REGENMODE
 70
     1
  9
$FILLMODE
 70
     1
  9
$QTEXTMODE
 70
     0
  9
$MIRRTEXT
 70
     1
  9
$DRAGMODE
 70
     2
  9
$LTSCALE
 40
0.3
  9
$OSMODE
 70
    37
  9
$ATTMODE
 70
     1
  9
$TEXTSIZE
 40
4.0
  9
$TRACEWID
 40
0.05
  9
$TEXTSTYLE
  7
STANDARD
  9
$CLAYER
  8
DEFPOINTS
  9
$CELTYPE
  6
BYLAYER
  9
$CECOLOR
 62
   256
  9
$CELTSCALE
 40
1.0
  9
$DELOBJ
 70
     1
  9
$DISPSILH
 70
     0
  9
$DIMSCALE
 40
2.0
  9
$DIMASZ
 40
2.5
  9
$DIMEXO
 40
1.5
  9
$DIMDLI
 40
0.0
  9
$DIMRND
 40
0.0
  9
$DIMDLE
 40
0.0
  9
$DIMEXE
 40
1.0
  9
$DIMTP
 40
0.0
  9
$DIMTM
 40
0.0
  9
$DIMTXT
 40
2.5
  9
$DIMCEN
 40
0.0
  9
$DIMTSZ
 40
0.0
  9
$DIMTOL
 70
     0
  9
$DIMLIM
 70
     0
  9
$DIMTIH
 70
     0
  9
$DIMTOH
 70
     0
  9
$DIMSE1
 70
     0
  9
$DIMSE2
 70
     0
  9
$DIMTAD
 70
     1
  9
$DIMZIN
 70
     8
  9
$DIMBLK
  1
OPEN30
  9
$DIMASO
 70
     1
  9
$DIMSHO
 70
     1
  9
$DIMPOST
  1

  9
$DIMAPOST
  1

  9
$DIMALT
 70
     0
  9
$DIMALTD
 70
     2
  9
$DIMALTF
 40
25.4
  9
$DIMLFAC
 40
1.0
  9
$DIMTOFL
 70
     1
  9
$DIMTVP
 40
0.0
  9
$DIMTIX
 70
     1
  9
$DIMSOXD
 70
     0
  9
$DIMSAH
 70
     0
  9
$DIMBLK1
  1

  9
$DIMBLK2
  1

  9
$DIMSTYLE
  2
SUNPOU_2
  9
$DIMCLRD
 70
   256
  9
$DIMCLRE
 70
   256
  9
$DIMCLRT
 70
   256
  9
$DIMTFAC
 40
1.0
  9
$DIMGAP
 40
1.0
  9
$DIMJUST
 70
     0
  9
$DIMSD1
 70
     0
  9
$DIMSD2
 70
     0
  9
$DIMTOLJ
 70
     1
  9
$DIMTZIN
 70
     0
  9
$DIMALTZ
 70
     0
  9
$DIMALTTZ
 70
     0
  9
$DIMFIT
 70
     3
  9
$DIMUPT
 70
     0
  9
$DIMUNIT
 70
     2
  9
$DIMDEC
 70
     1
  9
$DIMTDEC
 70
     1
  9
$DIMALTU
 70
     2
  9
$DIMALTTD
 70
     2
  9
$DIMTXSTY
  7
SUNPOU
  9
$DIMAUNIT
 70
     0
  9
$LUNITS
 70
     2
  9
$LUPREC
 70
     4
  9
$SKETCHINC
 40
0.1
  9
$FILLETRAD
 40
0.0
  9
$AUNITS
 70
     0
  9
$AUPREC
 70
     0
  9
$MENU
  1
acad
  9
$ELEVATION
 40
0.0
  9
$PELEVATION
 40
0.0
  9
$THICKNESS
 40
0.0
  9
$LIMCHECK
 70
     0
  9
$BLIPMODE
 70
     0
  9
$CHAMFERA
 40
0.0
  9
$CHAMFERB
 40
0.0
  9
$CHAMFERC
 40
0.0
  9
$CHAMFERD
 40
0.0
  9
$SKPOLY
 70
     0
  9
$TDCREATE
 40
2444972.375000000
  9
$TDUPDATE
 40
2453266.404394710
  9
$TDINDWG
 40
0.1423868056
  9
$TDUSRTIMER
 40
0.1423868056
  9
$USRTIMER
 70
     1
  9
$ANGBASE
 50
0.0
  9
$ANGDIR
 70
     0
  9
$PDMODE
 70
     0
  9
$PDSIZE
 40
1.0
  9
$PLINEWID
 40
0.0
  9
$COORDS
 70
     1
  9
$SPLFRAME
 70
     0
  9
$SPLINETYPE
 70
     6
  9
$SPLINESEGS
 70
     8
  9
$ATTDIA
 70
     0
  9
$ATTREQ
 70
     1
  9
$HANDLING
 70
-16383
  9
$HANDSEED
  5
D93
  9
$SURFTAB1
 70
     6
  9
$SURFTAB2
 70
     6
  9
$SURFTYPE
 70
     6
  9
$SURFU
 70
     6
  9
$SURFV
 70
     6
  9
$UCSNAME
  2

  9
$UCSORG
 10
0.0
 20
0.0
 30
0.0
  9
$UCSXDIR
 10
1.0
 20
0.0
 30
0.0
  9
$UCSYDIR
 10
0.0
 20
1.0
 30
0.0
  9
$PUCSNAME
  2

  9
$PUCSORG
 10
0.0
 20
0.0
 30
0.0
  9
$PUCSXDIR
 10
1.0
 20
0.0
 30
0.0
  9
$PUCSYDIR
 10
0.0
 20
1.0
 30
0.0
  9
$USERI1
 70
     0
  9
$USERI2
 70
     0
  9
$USERI3
 70
     0
  9
$USERI4
 70
     0
  9
$USERI5
 70
     0
  9
$USERR1
 40
0.0
  9
$USERR2
 40
0.0
  9
$USERR3
 40
0.0
  9
$USERR4
 40
0.0
  9
$USERR5
 40
0.0
  9
$WORLDVIEW
 70
     1
  9
$SHADEDGE
 70
     3
  9
$SHADEDIF
 70
    70
  9
$TILEMODE
 70
     1
  9
$MAXACTVP
 70
    16
  9
$PINSBASE
 10
0.0
 20
0.0
 30
0.0
  9
$PLIMCHECK
 70
     0
  9
$PEXTMIN
 10
-0.5306568413575406
 20
-0.1409903501446479
 30
-0.0015258207003583
  9
$PEXTMAX
 10
395.988798519558
 20
570.2687457714794
 30
0.0000000349246037
  9
$PLIMMIN
 10
-12.26702289231023
 20
-11.88957226499928
  9
$PLIMMAX
 10
407.7184638719493
 20
582.017329593859
  9
$UNITMODE
 70
     0
  9
$VISRETAIN
 70
     0
  9
$PLINEGEN
 70
     1
  9
$PSLTSCALE
 70
     0
  9
$TREEDEPTH
 70
  3020
  9
$PICKSTYLE
 70
     1
  9
$CMLSTYLE
  2
STANDARD
  9
$CMLJUST
 70
     0
  9
$CMLSCALE
 40
1.0
  9
$SAVEIMAGES
 70
     1
  0
ENDSEC
  0
SECTION
  2
CLASSES
  0
CLASS
  1
LWPOLYLINE
  2
AcDbPolyline
  3
AutoCAD 2000
 90
    32768
280
     0
281
     1
  0
CLASS
  1
IMAGE
  2
AcDbRasterImage
  3
ISM
 90
    32895
280
     0
281
     1
  0
CLASS
  1
OLE2FRAME
  2
AcDbOle2Frame
  3
AutoCAD 2000
 90
    32768
280
     0
281
     1
  0
CLASS
  1
HATCH
  2
AcDbHatch
  3
AutoCAD 2000
 90
    32768
280
     0
281
     1
  0
CLASS
  1
DICTIONARYVAR
  2
AcDbDictionaryVar
  3
AutoCAD 2000
 90
    32768
280
     0
281
     0
  0
CLASS
  1
RASTERVARIABLES
  2
AcDbRasterVariables
  3
ISM
 90
    32768
280
     0
281
     0
  0
CLASS
  1
IMAGEDEF
  2
AcDbRasterImageDef
  3
ISM
 90
    32768
280
     0
281
     0
  0
CLASS
  1
IMAGEDEF_REACTOR
  2
AcDbRasterImageDefReactor
  3
ISM
 90
    32769
280
     0
281
     0
  0
CLASS
  1
IDBUFFER
  2
AcDbIdBuffer
  3
AutoCAD 2000
 90
    32768
280
     0
281
     0
  0
CLASS
  1
SPATIAL_FILTER
  2
AcDbSpatialFilter
  3
AutoCAD 2000
 90
    32768
280
     0
281
     0
  0
CLASS
  1
XRECORD
  2
AcDbXrecord
  3
AutoCAD 2000
 90
    32768
280
     0
281
     0
  0
CLASS
  1
SORTENTSTABLE
  2
AcDbSortentsTable
  3
AutoCAD 2000
 90
    32768
280
     0
281
     0
  0
CLASS
  1
LAYER_INDEX
  2
AcDbLayerIndex
  3
AutoCAD 2000
 90
    32768
280
     0
281
     0
  0
CLASS
  1
SPATIAL_INDEX
  2
AcDbSpatialIndex
  3
AutoCAD 2000
 90
    32768
280
     0
281
     0
  0
CLASS
  1
OBJECT_PTR
  2
CAseDLPNTableRecord
  3
ASE-LPNTableRecord
 90
    32769
280
     0
281
     0
  0
CLASS
  1
ACDBDICTIONARYWDFLT
  2
AcDbDictionaryWithDefault
  3
AutoCAD 2000
 90
    32768
280
     0
281
     0
  0
CLASS
  1
ACDBPLACEHOLDER
  2
AcDbPlaceHolder
  3
AutoCAD 2000
 90
    32768
280
     0
281
     0
  0
CLASS
  1
LAYOUT
  2
AcDbLayout
  3
AutoCAD 2000
 90
    32768
280
     0
281
     0
  0
CLASS
  1
LONG_TRANSACTION
  2
AcDbLongTransaction
  3
AutoCAD 2000
 90
    32768
280
     0
281
     0
  0
CLASS
  1
LWPOLYLINE
  2
AcDbPolyline
  3
AutoCAD 2000
 90
    32768
280
     0
281
     1
  0
CLASS
  1
HATCH
  2
AcDbHatch
  3
AutoCAD 2000
 90
    32768
280
     0
281
     1
  0
CLASS
  1
XRECORD
  2
AcDbXrecord
  3
AutoCAD 2000
 90
    32768
280
     0
281
     0
  0
CLASS
  1
LONG_TRANSACTION
  2
AcDbLongTransaction
  3
AutoCAD 2000
 90
    32768
280
     0
281
     0
  0
CLASS
  1
LWPOLYLINE
  2
AcDbPolyline
  3
AutoCAD 2000
 90
    32768
280
     0
281
     1
  0
CLASS
  1
HATCH
  2
AcDbHatch
  3
AutoCAD 2000
 90
    32768
280
     0
281
     1
  0
CLASS
  1
XRECORD
  2
AcDbXrecord
  3
AutoCAD 2000
 90
    32768
280
     0
281
     0
  0
ENDSEC
  0
SECTION
  2
TABLES
  0
TABLE
  2
VPORT
  5
7
330
0
100
AcDbSymbolTable
 70
     2
  0
VPORT
  5
D85
330
7
100
AcDbSymbolTableRecord
100
AcDbViewportTableRecord
  2
*ACTIVE
 70
     0
 10
0.0
 20
0.0
 11
1.0
 21
1.0
 12
228.3554431038396
 22
297.0000145226389
 13
0.0
 23
0.0
 14
1.0
 24
1.0
 15
0.0
 25
0.0
 16
0.0
 26
0.0
 36
1.0
 17
0.0
 27
0.0
 37
0.0
 40
601.256760650954
 41
1.780442804428044
 42
50.0
 43
0.0
 44
0.0
 50
0.0
 51
0.0
 71
     0
 72
   100
 73
     1
 74
     1
 75
     0
 76
     0
 77
     0
 78
     0
  0
ENDTAB
  0
TABLE
  2
LTYPE
  5
4
330
0
100
AcDbSymbolTable
 70
     4
  0
LTYPE
  5
11
330
4
100
AcDbSymbolTableRecord
100
AcDbLinetypeTableRecord
  2
BYBLOCK
 70
     0
  3

 72
    65
 73
     0
 40
0.0
  0
LTYPE
  5
12
330
4
100
AcDbSymbolTableRecord
100
AcDbLinetypeTableRecord
  2
BYLAYER
 70
     0
  3

 72
    65
 73
     0
 40
0.0
  0
LTYPE
  5
13
330
4
100
AcDbSymbolTableRecord
100
AcDbLinetypeTableRecord
  2
CONTINUOUS
 70
     0
  3
Solid line
 72
    65
 73
     0
 40
0.0
  0
LTYPE
  5
56B
330
4
100
AcDbSymbolTableRecord
100
AcDbLinetypeTableRecord
  2
CENTER2
 70
     0
  3
Center (.5x) ___ _ ___ _ ___ _ ___ _ ___ _ ___
 72
    65
 73
     4
 40
28.57499999999999
 49
19.05
 74
     0
 49
-3.174999999999998
 74
     0
 49
3.174999999999998
 74
     0
 49
-3.174999999999998
 74
     0
  0
LTYPE
  5
56C
330
4
100
AcDbSymbolTableRecord
100
AcDbLinetypeTableRecord
  2
DASHED2
 70
     0
  3
Dashed (.5x) _ _ _ _ _ _ _ _ _ _ _ _ _ _ _ _ _
 72
    65
 73
     2
 40
9.524999999999996
 49
6.349999999999998
 74
     0
 49
-3.174999999999998
 74
     0
  0
LTYPE
  5
56D
330
4
100
AcDbSymbolTableRecord
100
AcDbLinetypeTableRecord
  2
PHANTOM2
 70
     0
  3
Phantom (.5x) ___ _ _ ___ _ _ ___ _ _ ___ _ _
 72
    65
 73
     6
 40
31.75
 49
15.875
 74
     0
 49
-3.174999999999998
 74
     0
 49
3.174999999999998
 74
     0
 49
-3.174999999999998
 74
     0
 49
3.174999999999998
 74
     0
 49
-3.174999999999998
 74
     0
  0
ENDTAB
  0
TABLE
  2
LAYER
  5
2
102
{ACAD_XDICTIONARY
360
D2F
102
}
330
0
100
AcDbSymbolTable
 70
    13
  0
LAYER
  5
14
330
2
100
AcDbSymbolTableRecord
100
AcDbLayerTableRecord
  2
0
 70
     0
 62
     7
  6
CONTINUOUS
  0
LAYER
  5
56E
330
2
100
AcDbSymbolTableRecord
100
AcDbLayerTableRecord
  2
DEFPOINTS
 70
     0
 62
     7
  6
CONTINUOUS
  0
LAYER
  5
56F
330
2
100
AcDbSymbolTableRecord
100
AcDbLayerTableRecord
  2
04
 70
     0
 62
     4
  6
CONTINUOUS
  0
LAYER
  5
572
330
2
100
AcDbSymbolTableRecord
100
AcDbLayerTableRecord
  2
CHUSIN
 70
     0
 62
     6
  6
CENTER2
  0
LAYER
  5
573
330
2
100
AcDbSymbolTableRecord
100
AcDbLayerTableRecord
  2
HIKIDASI
 70
     0
 62
     6
  6
CONTINUOUS
  0
LAYER
  5
574
330
2
100
AcDbSymbolTableRecord
100
AcDbLayerTableRecord
  2
KAKURE
 70
     0
 62
     6
  6
DASHED2
  0
LAYER
  5
575
330
2
100
AcDbSymbolTableRecord
100
AcDbLayerTableRecord
  2
MOJI
 70
     0
 62
     3
  6
CONTINUOUS
  0
LAYER
  5
576
330
2
100
AcDbSymbolTableRecord
100
AcDbLayerTableRecord
  2
SOUZOU
 70
     0
 62
     6
  6
PHANTOM2
  0
LAYER
  5
577
330
2
100
AcDbSymbolTableRecord
100
AcDbLayerTableRecord
  2
SUNPOU
 70
     0
 62
     6
  6
CONTINUOUS
  0
LAYER
  5
578
330
2
100
AcDbSymbolTableRecord
100
AcDbLayerTableRecord
  2
SAISEN
 70
     0
 62
     3
  6
CONTINUOUS
  0
LAYER
  5
B49
330
2
100
AcDbSymbolTableRecord
100
AcDbLayerTableRecord
  2
02
 70
     0
 62
     2
  6
CONTINUOUS
  0
LAYER
  5
B4A
330
2
100
AcDbSymbolTableRecord
100
AcDbLayerTableRecord
  2
03
 70
     0
 62
     3
  6
CONTINUOUS
  0
LAYER
  5
B4B
330
2
100
AcDbSymbolTableRecord
100
AcDbLayerTableRecord
  2
06
 70
     0
 62
     6
  6
CONTINUOUS
  0
ENDTAB
  0
TABLE
  2
STYLE
  5
3
330
0
100
AcDbSymbolTable
 70
     4
  0
STYLE
  5
17
330
3
100
AcDbSymbolTableRecord
100
AcDbTextStyleTableRecord
  2
STANDARD
 70
     0
 40
0.0
 41
0.8
 50
0.0
 71
     0
 42
4.0
  3
txt.shx
  4
bigfont.shx
  0
STYLE
  5
583
330
3
100
AcDbSymbolTableRecord
100
AcDbTextStyleTableRecord
  2
SUNPOU
 70
     0
 40
0.0
 41
0.8
 50
0.0
 71
     0
 42
3.5
  3
txt.shx
  4
extfont.shx
  0
STYLE
  5
58A
330
3
100
AcDbSymbolTableRecord
100
AcDbTextStyleTableRecord
  2
0_8
 70
     0
 40
0.0
 41
0.8
 50
0.0
 71
     0
 42
6.0
  3
txt.shx
  4
extfont.shx
  0
STYLE
  5
D2D
330
3
100
AcDbSymbolTableRecord
100
AcDbTextStyleTableRecord
  2
0_80
 70
     0
 40
0.0
 41
0.8
 50
0.0
 71
     0
 42
5.0
  3
txt.shx
  4
extfont.shx
  0
ENDTAB
  0
TABLE
  2
VIEW
  5
5
330
0
100
AcDbSymbolTable
 70
     1
  0
VIEW
  5
135
330
5
100
AcDbSymbolTableRecord
100
AcDbViewTableRecord
  2
QQQQ
 70
     0
 40
579.6350471698117
 10
-1.000000000000155
 20
3.278301886792688
 41
386.7499999999997
 11
0.0
 21
0.0
 31
1.0
 12
100.0
 22
100.0
 32
0.0
 42
50.0
 43
0.0
 44
0.0
 50
0.0
 71
     0
  0
ENDTAB
  0
TABLE
  2
UCS
  5
6
330
0
100
AcDbSymbolTable
 70
     0
  0
ENDTAB
  0
TABLE
  2
APPID
  5
8
330
0
100
AcDbSymbolTable
 70
     3
  0
APPID
  5
16
330
8
100
AcDbSymbolTableRecord
100
AcDbRegAppTableRecord
  2
ACAD
 70
     0
  0
APPID
  5
D13
330
8
100
AcDbSymbolTableRecord
100
AcDbRegAppTableRecord
  2
CONTENTBLOCKICON
 70
     0
  0
APPID
  5
D4A
330
8
100
AcDbSymbolTableRecord
100
AcDbRegAppTableRecord
  2
DCO15
 70
     0
  0
ENDTAB
  0
TABLE
  2
DIMSTYLE
  5
9
330
0
100
AcDbSymbolTable
 70
     2
  0
DIMSTYLE
105
18
330
9
100
AcDbSymbolTableRecord
100
AcDbDimStyleTableRecord
  2
STANDARD
 70
     0
  3

  4

  5

  6

  7

 40
1.0
 41
0.18
 42
0.0625
 43
0.38
 44
0.18
 45
0.0
 46
0.0
 47
0.0
 48
0.0
140
0.18
141
0.09
142
0.0
143
25.4
144
1.0
145
0.0
146
1.0
147
0.09
 71
     0
 72
     0
 73
     1
 74
     1
 75
     0
 76
     0
 77
     0
 78
     0
170
     0
171
     2
172
     0
173
     0
174
     0
175
     0
176
     0
177
     0
178
     0
270
     2
271
     4
272
     4
273
     2
274
     2
340
17
275
     0
280
     0
281
     0
282
     0
283
     1
284
     0
285
     0
286
     0
287
     3
288
     0
  0
DIMSTYLE
105
584
102
{ACAD_REACTORS
330
597
330
5A4
330
5B1
330
5C0
330
5CD
330
5DC
330
5E9
330
5F8
330
605
330
614
330
699
330
6B8
330
6C5
330
6D2
330
6DF
330
6EC
330
6F9
330
70F
330
AA9
330
AB6
102
}
330
9
100
AcDbSymbolTableRecord
100
AcDbDimStyleTableRecord
  2
SUNPOU_2
 70
     0
  3

  4

  5
OPEN30
  6

  7

 40
2.0
 41
2.5
 42
1.5
 43
0.0
 44
1.0
 45
0.0
 46
0.0
 47
0.0
 48
0.0
140
2.5
141
0.0
142
0.0
143
25.4
144
1.0
145
0.0
146
1.0
147
1.0
 71
     0
 72
     0
 73
     0
 74
     0
 75
     0
 76
     0
 77
     1
 78
     8
170
     0
171
     2
172
     1
173
     0
174
     1
175
     0
176
   256
177
   256
178
   256
270
     2
271
     1
272
     1
273
     2
274
     2
340
583
275
     0
280
     0
281
     0
282
     0
283
     1
284
     0
285
     0
286
     0
287
     3
288
     0
  0
ENDTAB
  0
TABLE
  2
BLOCK_RECORD
  5
1
330
0
100
AcDbSymbolTable
 70
    21
  0
BLOCK_RECORD
  5
A
102
{ACAD_XDICTIONARY
360
D0F
102
}
330
1
100
AcDbSymbolTableRecord
100
AcDbBlockTableRecord
  2
*MODEL_SPACE
  0
BLOCK_RECORD
  5
B
102
{ACAD_XDICTIONARY
360
D11
102
}
330
1
100
AcDbSymbolTableRecord
100
AcDbBlockTableRecord
  2
*PAPER_SPACE
  0
BLOCK_RECORD
  5
57D
330
1
100
AcDbSymbolTableRecord
100
AcDbBlockTableRecord
  2
_OPEN30
1001
CONTENTBLOCKICON
1071
        0
1004
2800000020000000200000000100080000000000000400000000000000000000000000000000000000000000000080000080000000808000800000008000800080800000C0C0C000C0DCC000F0CAA6000020400000206000002080000020A0000020C0000020E00000400000004020000040400000406000004080000040A0
1004
000040C0000040E00000600000006020000060400000606000006080000060A0000060C0000060E00000800000008020000080400000806000008080000080A0000080C0000080E00000A0000000A0200000A0400000A0600000A0800000A0A00000A0C00000A0E00000C0000000C0200000C0400000C0600000C0800000C0
1004
A00000C0C00000C0E00000E0000000E0200000E0400000E0600000E0800000E0A00000E0C00000E0E00040000000400020004000400040006000400080004000A0004000C0004000E00040200000402020004020400040206000402080004020A0004020C0004020E000404000004040200040404000404060004040800040
1004
40A0004040C0004040E00040600000406020004060400040606000406080004060A0004060C0004060E00040800000408020004080400040806000408080004080A0004080C0004080E00040A0000040A0200040A0400040A0600040A0800040A0A00040A0C00040A0E00040C0000040C0200040C0400040C0600040C08000
1004
40C0A00040C0C00040C0E00040E0000040E0200040E0400040E0600040E0800040E0A00040E0C00040E0E00080000000800020008000400080006000800080008000A0008000C0008000E00080200000802020008020400080206000802080008020A0008020C0008020E00080400000804020008040400080406000804080
1004
008040A0008040C0008040E00080600000806020008060400080606000806080008060A0008060C0008060E00080800000808020008080400080806000808080008080A0008080C0008080E00080A0000080A0200080A0400080A0600080A0800080A0A00080A0C00080A0E00080C0000080C0200080C0400080C0600080C0
1004
800080C0A00080C0C00080C0E00080E0000080E0200080E0400080E0600080E0800080E0A00080E0C00080E0E000C0000000C0002000C0004000C0006000C0008000C000A000C000C000C000E000C0200000C0202000C0204000C0206000C0208000C020A000C020C000C020E000C0400000C0402000C0404000C0406000C0
1004
408000C040A000C040C000C040E000C0600000C0602000C0604000C0606000C0608000C060A000C060C000C060E000C0800000C0802000C0804000C0806000C0808000C080A000C080C000C080E000C0A00000C0A02000C0A04000C0A06000C0A08000C0A0A000C0A0C000C0A0E000C0C00000C0C02000C0C04000C0C06000
1004
C0C08000C0C0A000F0FBFF00A4A0A000808080000000FF0000FF000000FFFF00FF000000FF00FF00FFFF0000FFFFFF0000000000000000000000000000000000000000000000000000000000000000000000000000000000000000000000000000000000000000000000000000000000000000000000000000000000000000
1004
00000000000000000000000000000000000000000000000000000000000000000000000000000000000000000000000000000000000000000000000000000000000000000000000000000000000000000000000000000000000000000000000000000000000000000000000000000000000000000000000000000000000000
1004
000000000000000000000000000000000000000000000000000000000000000000000000000000000000000000000000000000FFFF0000000000000000000000000000000000000000000000000000000000000000FFFFFFFF0000000000000000000000000000000000000000000000000000000000000000FFFFFFFF0000
1004
000000000000000000000000000000000000000000000000000000000000FFFFFF0000000000000000000000000000000000000000000000000000000000000000FFFFFFFF0000000000000000000000000000000000000000000000000000000000000000FFFFFF0000000000000000000000000000000000000000000000
1004
000000000000000000FFFFFFFF0000000000000000000000000000000000000000000000000000000000000000FFFFFFFF00000000FFFFFFFFFFFFFFFFFFFFFFFFFFFFFFFFFFFFFFFFFFFFFFFFFFFFFFFFFFFF00000000000000000000000000000000000000000000000000FFFFFFFF000000000000000000000000000000
1004
000000000000000000FFFFFFFF000000000000000000000000000000000000000000000000FFFFFFFF000000000000000000000000000000000000000000000000FFFFFFFF000000000000000000000000000000000000000000000000FFFFFFFF000000000000000000000000000000000000000000000000FFFFFFFF0000
1004
0000000000000000000000000000000000000000000000FFFFFF0000000000000000000000000000000000000000000000000000000000000000000000000000000000000000000000000000000000000000000000000000000000000000000000000000000000000000000000000000000000000000000000000000000000
1004
00000000000000000000000000000000000000000000000000000000000000000000000000000000000000000000000000000000000000000000000000000000000000000000000000000000000000000000000000000000000000000000000000000000000000000000000000000000000000000000000000000000000000
1004
0000000000000000000000000000000000000000000000000000000000000000000000000000000000000000000000000000000000000000
  0
BLOCK_RECORD
  5
598
330
1
100
AcDbSymbolTableRecord
100
AcDbBlockTableRecord
  2
*D1
  0
BLOCK_RECORD
  5
5A5
330
1
100
AcDbSymbolTableRecord
100
AcDbBlockTableRecord
  2
*D2
  0
BLOCK_RECORD
  5
5B2
330
1
100
AcDbSymbolTableRecord
100
AcDbBlockTableRecord
  2
*D3
  0
BLOCK_RECORD
  5
5C1
330
1
100
AcDbSymbolTableRecord
100
AcDbBlockTableRecord
  2
*D4
  0
BLOCK_RECORD
  5
5CE
330
1
100
AcDbSymbolTableRecord
100
AcDbBlockTableRecord
  2
*D5
  0
BLOCK_RECORD
  5
5DD
330
1
100
AcDbSymbolTableRecord
100
AcDbBlockTableRecord
  2
*D6
  0
BLOCK_RECORD
  5
5EA
330
1
100
AcDbSymbolTableRecord
100
AcDbBlockTableRecord
  2
*D7
  0
BLOCK_RECORD
  5
5F9
330
1
100
AcDbSymbolTableRecord
100
AcDbBlockTableRecord
  2
*D8
  0
BLOCK_RECORD
  5
606
330
1
100
AcDbSymbolTableRecord
100
AcDbBlockTableRecord
  2
*D9
  0
BLOCK_RECORD
  5
615
330
1
100
AcDbSymbolTableRecord
100
AcDbBlockTableRecord
  2
*D10
  0
BLOCK_RECORD
  5
69A
330
1
100
AcDbSymbolTableRecord
100
AcDbBlockTableRecord
  2
*D11
  0
BLOCK_RECORD
  5
6B9
330
1
100
AcDbSymbolTableRecord
100
AcDbBlockTableRecord
  2
*D12
  0
BLOCK_RECORD
  5
6C6
330
1
100
AcDbSymbolTableRecord
100
AcDbBlockTableRecord
  2
*D13
  0
BLOCK_RECORD
  5
6D3
330
1
100
AcDbSymbolTableRecord
100
AcDbBlockTableRecord
  2
*D14
  0
BLOCK_RECORD
  5
6E0
330
1
100
AcDbSymbolTableRecord
100
AcDbBlockTableRecord
  2
*D15
  0
BLOCK_RECORD
  5
6ED
330
1
100
AcDbSymbolTableRecord
100
AcDbBlockTableRecord
  2
*D16
  0
BLOCK_RECORD
  5
6FA
330
1
100
AcDbSymbolTableRecord
100
AcDbBlockTableRecord
  2
*D17
  0
BLOCK_RECORD
  5
710
330
1
100
AcDbSymbolTableRecord
100
AcDbBlockTableRecord
  2
*D18
  0
BLOCK_RECORD
  5
AAA
330
1
100
AcDbSymbolTableRecord
100
AcDbBlockTableRecord
  2
*D19
  0
BLOCK_RECORD
  5
AB7
330
1
100
AcDbSymbolTableRecord
100
AcDbBlockTableRecord
  2
*D20
  0
ENDTAB
  0
ENDSEC
  0
SECTION
  2
BLOCKS
  0
BLOCK
  5
D
330
A
100
AcDbEntity
  8
0
100
AcDbBlockBegin
  2
*MODEL_SPACE
 70
     0
 10
0.0
 20
0.0
 30
0.0
  3
*MODEL_SPACE
  1

  0
ENDBLK
  5
E
330
A
100
AcDbEntity
  8
0
100
AcDbBlockEnd
  0
BLOCK
  5
F
330
B
100
AcDbEntity
 67
     1
  8
0
100
AcDbBlockBegin
  2
*PAPER_SPACE
 70
     0
 10
0.0
 20
0.0
 30
0.0
  3
*PAPER_SPACE
  1

  0
ENDBLK
  5
10
330
B
100
AcDbEntity
 67
     1
  8
0
100
AcDbBlockEnd
  0
BLOCK
  5
581
330
57D
100
AcDbEntity
  8
0
100
AcDbBlockBegin
  2
_OPEN30
 70
     0
 10
0.0
 20
0.0
 30
0.0
  3
_OPEN30
  1

  0
LINE
  5
57E
330
57D
100
AcDbEntity
  8
0
  6
BYBLOCK
 62
     0
100
AcDbLine
 10
-1.0
 20
0.26794919
 30
0.0
 11
0.0
 21
0.0
 31
0.0
  0
LINE
  5
57F
330
57D
100
AcDbEntity
  8
0
  6
BYBLOCK
 62
     0
100
AcDbLine
 10
0.0
 20
0.0
 30
0.0
 11
-1.0
 21
-0.26794919
 31
0.0
  0
LINE
  5
580
330
57D
100
AcDbEntity
  8
0
  6
BYBLOCK
 62
     0
100
AcDbLine
 10
0.0
 20
0.0
 30
0.0
 11
-1.0
 21
0.0
 31
0.0
  0
ENDBLK
  5
582
330
57D
100
AcDbEntity
  8
0
100
AcDbBlockEnd
  0
BLOCK
  5
5A2
330
598
100
AcDbEntity
  8
0
100
AcDbBlockBegin
  2
*D1
 70
     1
 10
0.0
 20
0.0
 30
0.0
  3
*D1
  1

  0
LINE
  5
80B
330
598
100
AcDbEntity
  8
SUNPOU
100
AcDbLine
 10
152.7819948969315
 20
529.2466591662619
 30
0.0
 11
152.7819948969315
 21
528.2466591662617
 31
0.0
  0
LINE
  5
80C
330
598
100
AcDbEntity
  8
SUNPOU
100
AcDbLine
 10
255.2819948969315
 20
477.0566037735851
 30
0.0
 11
255.2819948969315
 21
528.2466591662617
 31
0.0
  0
LINE
  5
80D
330
598
100
AcDbEntity
  8
SUNPOU
100
AcDbLine
 10
157.7819948969315
 20
526.2466591662619
 30
0.0
 11
250.2819948969315
 21
526.2466591662619
 31
0.0
  0
INSERT
  5
80E
330
598
100
AcDbEntity
  8
SUNPOU
100
AcDbBlockReference
  2
_OPEN30
 10
152.7819948969315
 20
526.2466591662619
 30
0.0
 41
5.0
 42
5.0
 43
5.0
 50
180.0
  0
INSERT
  5
80F
330
598
100
AcDbEntity
  8
SUNPOU
100
AcDbBlockReference
  2
_OPEN30
 10
255.2819948969315
 20
526.2466591662619
 30
0.0
 41
5.0
 42
5.0
 43
5.0
  0
MTEXT
  5
810
330
598
100
AcDbEntity
  8
SUNPOU
100
AcDbMText
 10
204.0319948969314
 20
530.7466591662619
 30
0.0
 40
5.0
 41
0.0
 71
     5
 72
     1
  1
\A1;102.5
  7
SUNPOU
1001
ACAD
1000
MTEXTBEGIN
1070
    73
1070
     1
1070
    44
1040
1.0
1070
    74
1070
     0
1000
MTEXTEND
1000
MTEXTBEGIN
1070
    73
1070
     1
1070
    44
1040
1.0
1070
    74
1070
     0
1000
MTEXTEND
  0
POINT
  5
811
330
598
100
AcDbEntity
  8
DEFPOINTS
 62
     0
100
AcDbPoint
 10
152.7819948969315
 20
526.2466591662619
 30
0.0
  0
POINT
  5
812
330
598
100
AcDbEntity
  8
DEFPOINTS
 62
     0
100
AcDbPoint
 10
255.2819948969315
 20
474.0566037735852
 30
0.0
  0
POINT
  5
813
330
598
100
AcDbEntity
  8
DEFPOINTS
 62
     0
100
AcDbPoint
 10
255.2819948969315
 20
526.2466591662619
 30
0.0
  0
ENDBLK
  5
5A3
330
598
100
AcDbEntity
  8
0
100
AcDbBlockEnd
  0
BLOCK
  5
5AF
330
5A5
100
AcDbEntity
  8
0
100
AcDbBlockBegin
  2
*D2
 70
     1
 10
0.0
 20
0.0
 30
0.0
  3
*D2
  1

  0
LINE
  5
CD0
330
5A5
100
AcDbEntity
  8
SUNPOU
100
AcDbLine
 10
130.781994896931
 20
142.3066037735851
 30
0.0
 11
130.781994896931
 21
122.5566037735852
 31
0.0
  0
LINE
  5
CD1
330
5A5
100
AcDbEntity
  8
SUNPOU
100
AcDbLine
 10
189.781994896931
 20
142.3066037735851
 30
0.0
 11
189.781994896931
 21
122.5566037735852
 31
0.0
  0
LINE
  5
CD2
330
5A5
100
AcDbEntity
  8
SUNPOU
100
AcDbLine
 10
135.781994896931
 20
124.5566037735852
 30
0.0
 11
184.781994896931
 21
124.5566037735852
 31
0.0
  0
INSERT
  5
CD3
330
5A5
100
AcDbEntity
  8
SUNPOU
100
AcDbBlockReference
  2
_OPEN30
 10
130.781994896931
 20
124.5566037735852
 30
0.0
 41
5.0
 42
5.0
 43
5.0
 50
180.0
  0
INSERT
  5
CD4
330
5A5
100
AcDbEntity
  8
SUNPOU
100
AcDbBlockReference
  2
_OPEN30
 10
189.781994896931
 20
124.5566037735852
 30
0.0
 41
5.0
 42
5.0
 43
5.0
  0
MTEXT
  5
CD5
330
5A5
100
AcDbEntity
  8
SUNPOU
100
AcDbMText
 10
160.281994896931
 20
129.0566037735852
 30
0.0
 40
5.0
 41
0.0
 71
     5
 72
     1
  1
\A1;59
  7
SUNPOU
1001
ACAD
1000
MTEXTBEGIN
1070
    73
1070
     1
1070
    44
1040
1.0
1070
    74
1070
     0
1000
MTEXTEND
1000
MTEXTBEGIN
1070
    73
1070
     1
1070
    44
1040
1.0
1070
    74
1070
     0
1000
MTEXTEND
  0
POINT
  5
CD6
330
5A5
100
AcDbEntity
  8
DEFPOINTS
 62
     0
100
AcDbPoint
 10
130.781994896931
 20
145.3066037735851
 30
0.0
  0
POINT
  5
CD7
330
5A5
100
AcDbEntity
  8
DEFPOINTS
 62
     0
100
AcDbPoint
 10
189.781994896931
 20
145.3066037735851
 30
0.0
  0
POINT
  5
CD8
330
5A5
100
AcDbEntity
  8
DEFPOINTS
 62
     0
100
AcDbPoint
 10
189.781994896931
 20
124.5566037735852
 30
0.0
  0
ENDBLK
  5
5B0
330
5A5
100
AcDbEntity
  8
0
100
AcDbBlockEnd
  0
BLOCK
  5
5BE
330
5B2
100
AcDbEntity
  8
0
100
AcDbBlockBegin
  2
*D3
 70
     1
 10
0.0
 20
0.0
 30
0.0
  3
*D3
  1

  0
LINE
  5
CC5
330
5B2
100
AcDbEntity
  8
SUNPOU
100
AcDbLine
 10
189.781994896931
 20
142.3066037735851
 30
0.0
 11
189.781994896931
 21
122.5566037735852
 31
0.0
  0
LINE
  5
CC6
330
5B2
100
AcDbEntity
  8
SUNPOU
100
AcDbLine
 10
194.781994896931
 20
151.5566037735851
 30
0.0
 11
194.781994896931
 21
122.5566037735852
 31
0.0
  0
LINE
  5
CC7
330
5B2
100
AcDbEntity
  8
SUNPOU
100
AcDbLine
 10
184.781994896931
 20
124.5566037735852
 30
0.0
 11
179.781994896931
 21
124.5566037735852
 31
0.0
  0
LINE
  5
CC8
330
5B2
100
AcDbEntity
  8
SUNPOU
100
AcDbLine
 10
199.781994896931
 20
124.5566037735852
 30
0.0
 11
204.781994896931
 21
124.5566037735852
 31
0.0
  0
LINE
  5
CC9
330
5B2
100
AcDbEntity
  8
SUNPOU
100
AcDbLine
 10
189.781994896931
 20
124.5566037735852
 30
0.0
 11
194.781994896931
 21
124.5566037735852
 31
0.0
  0
INSERT
  5
CCA
330
5B2
100
AcDbEntity
  8
SUNPOU
100
AcDbBlockReference
  2
_OPEN30
 10
189.781994896931
 20
124.5566037735852
 30
0.0
 41
5.0
 42
5.0
 43
5.0
  0
INSERT
  5
CCB
330
5B2
100
AcDbEntity
  8
SUNPOU
100
AcDbBlockReference
  2
_OPEN30
 10
194.781994896931
 20
124.5566037735852
 30
0.0
 41
5.0
 42
5.0
 43
5.0
 50
180.0
  0
MTEXT
  5
CCC
330
5B2
100
AcDbEntity
  8
SUNPOU
100
AcDbMText
 10
192.281994896931
 20
129.0566037735852
 30
0.0
 40
5.0
 41
0.0
 71
     5
 72
     1
  1
\A1;5
  7
SUNPOU
1001
ACAD
1000
MTEXTBEGIN
1070
    73
1070
     1
1070
    44
1040
1.0
1070
    74
1070
     0
1000
MTEXTEND
1000
MTEXTBEGIN
1070
    73
1070
     1
1070
    44
1040
1.0
1070
    74
1070
     0
1000
MTEXTEND
  0
POINT
  5
CCD
330
5B2
100
AcDbEntity
  8
DEFPOINTS
 62
     0
100
AcDbPoint
 10
189.781994896931
 20
145.3066037735851
 30
0.0
  0
POINT
  5
CCE
330
5B2
100
AcDbEntity
  8
DEFPOINTS
 62
     0
100
AcDbPoint
 10
194.781994896931
 20
154.5566037735851
 30
0.0
  0
POINT
  5
CCF
330
5B2
100
AcDbEntity
  8
DEFPOINTS
 62
     0
100
AcDbPoint
 10
194.781994896931
 20
124.5566037735852
 30
0.0
  0
ENDBLK
  5
5BF
330
5B2
100
AcDbEntity
  8
0
100
AcDbBlockEnd
  0
BLOCK
  5
5CB
330
5C1
100
AcDbEntity
  8
0
100
AcDbBlockBegin
  2
*D4
 70
     1
 10
0.0
 20
0.0
 30
0.0
  3
*D4
  1

  0
LINE
  5
7EE
330
5C1
100
AcDbEntity
  8
SUNPOU
100
AcDbLine
 10
194.781994896931
 20
151.5566037735851
 30
0.0
 11
194.781994896931
 21
122.5566037735852
 31
0.0
  0
LINE
  5
7EF
330
5C1
100
AcDbEntity
  8
SUNPOU
100
AcDbLine
 10
234.7819948969311
 20
151.5566037735851
 30
0.0
 11
234.7819948969311
 21
122.5566037735852
 31
0.0
  0
LINE
  5
7F0
330
5C1
100
AcDbEntity
  8
SUNPOU
100
AcDbLine
 10
199.781994896931
 20
124.5566037735852
 30
0.0
 11
229.7819948969312
 21
124.5566037735852
 31
0.0
  0
INSERT
  5
7F1
330
5C1
100
AcDbEntity
  8
SUNPOU
100
AcDbBlockReference
  2
_OPEN30
 10
194.781994896931
 20
124.5566037735852
 30
0.0
 41
5.0
 42
5.0
 43
5.0
 50
180.0
  0
INSERT
  5
7F2
330
5C1
100
AcDbEntity
  8
SUNPOU
100
AcDbBlockReference
  2
_OPEN30
 10
234.7819948969311
 20
124.5566037735852
 30
0.0
 41
5.0
 42
5.0
 43
5.0
  0
MTEXT
  5
7F3
330
5C1
100
AcDbEntity
  8
SUNPOU
100
AcDbMText
 10
214.781994896931
 20
129.0566037735852
 30
0.0
 40
5.0
 41
0.0
 71
     5
 72
     1
  1
\A1;40
  7
SUNPOU
1001
ACAD
1000
MTEXTBEGIN
1070
    73
1070
     1
1070
    44
1040
1.0
1070
    74
1070
     0
1000
MTEXTEND
1000
MTEXTBEGIN
1070
    73
1070
     1
1070
    44
1040
1.0
1070
    74
1070
     0
1000
MTEXTEND
  0
POINT
  5
7F4
330
5C1
100
AcDbEntity
  8
DEFPOINTS
 62
     0
100
AcDbPoint
 10
194.781994896931
 20
154.5566037735851
 30
0.0
  0
POINT
  5
7F5
330
5C1
100
AcDbEntity
  8
DEFPOINTS
 62
     0
100
AcDbPoint
 10
234.7819948969311
 20
154.556603773585
 30
0.0
  0
POINT
  5
7F6
330
5C1
100
AcDbEntity
  8
DEFPOINTS
 62
     0
100
AcDbPoint
 10
234.7819948969311
 20
124.5566037735852
 30
0.0
  0
ENDBLK
  5
5CC
330
5C1
100
AcDbEntity
  8
0
100
AcDbBlockEnd
  0
BLOCK
  5
5DA
330
5CE
100
AcDbEntity
  8
0
100
AcDbBlockBegin
  2
*D5
 70
     1
 10
0.0
 20
0.0
 30
0.0
  3
*D5
  1

  0
LINE
  5
7E3
330
5CE
100
AcDbEntity
  8
SUNPOU
100
AcDbLine
 10
234.7819948969311
 20
151.5566037735851
 30
0.0
 11
234.7819948969311
 21
122.5566037735852
 31
0.0
  0
LINE
  5
7E4
330
5CE
100
AcDbEntity
  8
SUNPOU
100
AcDbLine
 10
239.7819948969309
 20
142.3066037735851
 30
0.0
 11
239.7819948969309
 21
122.5566037735852
 31
0.0
  0
LINE
  5
7E5
330
5CE
100
AcDbEntity
  8
SUNPOU
100
AcDbLine
 10
229.7819948969312
 20
124.5566037735852
 30
0.0
 11
224.781994896931
 21
124.5566037735852
 31
0.0
  0
LINE
  5
7E6
330
5CE
100
AcDbEntity
  8
SUNPOU
100
AcDbLine
 10
244.781994896931
 20
124.5566037735852
 30
0.0
 11
249.781994896931
 21
124.5566037735852
 31
0.0
  0
LINE
  5
7E7
330
5CE
100
AcDbEntity
  8
SUNPOU
100
AcDbLine
 10
234.7819948969311
 20
124.5566037735852
 30
0.0
 11
239.7819948969309
 21
124.5566037735852
 31
0.0
  0
INSERT
  5
7E8
330
5CE
100
AcDbEntity
  8
SUNPOU
100
AcDbBlockReference
  2
_OPEN30
 10
234.7819948969311
 20
124.5566037735852
 30
0.0
 41
5.0
 42
5.0
 43
5.0
  0
INSERT
  5
7E9
330
5CE
100
AcDbEntity
  8
SUNPOU
100
AcDbBlockReference
  2
_OPEN30
 10
239.7819948969309
 20
124.5566037735852
 30
0.0
 41
5.0
 42
5.0
 43
5.0
 50
180.0
  0
MTEXT
  5
7EA
330
5CE
100
AcDbEntity
  8
SUNPOU
100
AcDbMText
 10
237.281994896931
 20
129.0566037735852
 30
0.0
 40
5.0
 41
0.0
 71
     5
 72
     1
  1
\A1;5
  7
SUNPOU
1001
ACAD
1000
MTEXTBEGIN
1070
    73
1070
     1
1070
    44
1040
1.0
1070
    74
1070
     0
1000
MTEXTEND
1000
MTEXTBEGIN
1070
    73
1070
     1
1070
    44
1040
1.0
1070
    74
1070
     0
1000
MTEXTEND
  0
POINT
  5
7EB
330
5CE
100
AcDbEntity
  8
DEFPOINTS
 62
     0
100
AcDbPoint
 10
234.7819948969311
 20
154.556603773585
 30
0.0
  0
POINT
  5
7EC
330
5CE
100
AcDbEntity
  8
DEFPOINTS
 62
     0
100
AcDbPoint
 10
239.7819948969309
 20
145.3066037735851
 30
0.0
  0
POINT
  5
7ED
330
5CE
100
AcDbEntity
  8
DEFPOINTS
 62
     0
100
AcDbPoint
 10
239.7819948969309
 20
124.5566037735852
 30
0.0
  0
ENDBLK
  5
5DB
330
5CE
100
AcDbEntity
  8
0
100
AcDbBlockEnd
  0
BLOCK
  5
5E7
330
5DD
100
AcDbEntity
  8
0
100
AcDbBlockBegin
  2
*D6
 70
     1
 10
0.0
 20
0.0
 30
0.0
  3
*D6
  1

  0
LINE
  5
7DA
330
5DD
100
AcDbEntity
  8
SUNPOU
100
AcDbLine
 10
239.7819948969309
 20
142.3066037735851
 30
0.0
 11
239.7819948969309
 21
122.5566037735852
 31
0.0
  0
LINE
  5
7DB
330
5DD
100
AcDbEntity
  8
SUNPOU
100
AcDbLine
 10
304.7819948969311
 20
142.3066037735851
 30
0.0
 11
304.7819948969311
 21
122.5566037735852
 31
0.0
  0
LINE
  5
7DC
330
5DD
100
AcDbEntity
  8
SUNPOU
100
AcDbLine
 10
244.781994896931
 20
124.5566037735852
 30
0.0
 11
299.7819948969311
 21
124.5566037735852
 31
0.0
  0
INSERT
  5
7DD
330
5DD
100
AcDbEntity
  8
SUNPOU
100
AcDbBlockReference
  2
_OPEN30
 10
239.7819948969309
 20
124.5566037735852
 30
0.0
 41
5.0
 42
5.0
 43
5.0
 50
180.0
  0
INSERT
  5
7DE
330
5DD
100
AcDbEntity
  8
SUNPOU
100
AcDbBlockReference
  2
_OPEN30
 10
304.7819948969311
 20
124.5566037735852
 30
0.0
 41
5.0
 42
5.0
 43
5.0
  0
MTEXT
  5
7DF
330
5DD
100
AcDbEntity
  8
SUNPOU
100
AcDbMText
 10
272.281994896931
 20
129.0566037735852
 30
0.0
 40
5.0
 41
0.0
 71
     5
 72
     1
  1
\A1;65
  7
SUNPOU
1001
ACAD
1000
MTEXTBEGIN
1070
    73
1070
     1
1070
    44
1040
1.0
1070
    74
1070
     0
1000
MTEXTEND
1000
MTEXTBEGIN
1070
    73
1070
     1
1070
    44
1040
1.0
1070
    74
1070
     0
1000
MTEXTEND
  0
POINT
  5
7E0
330
5DD
100
AcDbEntity
  8
DEFPOINTS
 62
     0
100
AcDbPoint
 10
239.7819948969309
 20
145.3066037735851
 30
0.0
  0
POINT
  5
7E1
330
5DD
100
AcDbEntity
  8
DEFPOINTS
 62
     0
100
AcDbPoint
 10
304.7819948969311
 20
145.3066037735851
 30
0.0
  0
POINT
  5
7E2
330
5DD
100
AcDbEntity
  8
DEFPOINTS
 62
     0
100
AcDbPoint
 10
304.7819948969311
 20
124.5566037735852
 30
0.0
  0
ENDBLK
  5
5E8
330
5DD
100
AcDbEntity
  8
0
100
AcDbBlockEnd
  0
BLOCK
  5
5F6
330
5EA
100
AcDbEntity
  8
0
100
AcDbBlockBegin
  2
*D7
 70
     1
 10
0.0
 20
0.0
 30
0.0
  3
*D7
  1

  0
LINE
  5
7CF
330
5EA
100
AcDbEntity
  8
SUNPOU
100
AcDbLine
 10
127.781994896931
 20
105.7566037735852
 30
0.0
 11
127.781994896931
 21
106.7566037735852
 31
0.0
  0
LINE
  5
7D0
330
5EA
100
AcDbEntity
  8
SUNPOU
100
AcDbLine
 10
130.781994896931
 20
142.3066037735851
 30
0.0
 11
130.781994896931
 21
106.7566037735852
 31
0.0
  0
LINE
  5
7D1
330
5EA
100
AcDbEntity
  8
SUNPOU
100
AcDbLine
 10
122.781994896931
 20
108.7566037735852
 30
0.0
 11
117.7819948969311
 21
108.7566037735852
 31
0.0
  0
LINE
  5
7D2
330
5EA
100
AcDbEntity
  8
SUNPOU
100
AcDbLine
 10
135.781994896931
 20
108.7566037735852
 30
0.0
 11
140.781994896931
 21
108.7566037735852
 31
0.0
  0
MTEXT
  5
7D3
330
5EA
100
AcDbEntity
  8
SUNPOU
100
AcDbMText
 10
120.2500633233714
 20
113.2566037735852
 30
0.0
 40
5.0
 41
0.0
 71
     5
 72
     1
  1
\A1;3
  7
SUNPOU
1001
ACAD
1000
MTEXTBEGIN
1070
    73
1070
     1
1070
    44
1040
1.0
1070
    74
1070
     0
1000
MTEXTEND
1000
MTEXTBEGIN
1070
    73
1070
     1
1070
    44
1040
1.0
1070
    74
1070
     0
1000
MTEXTEND
  0
LINE
  5
7D4
330
5EA
100
AcDbEntity
  8
SUNPOU
100
AcDbLine
 10
127.781994896931
 20
108.7566037735852
 30
0.0
 11
130.781994896931
 21
108.7566037735852
 31
0.0
  0
INSERT
  5
7D5
330
5EA
100
AcDbEntity
  8
SUNPOU
100
AcDbBlockReference
  2
_OPEN30
 10
127.781994896931
 20
108.7566037735852
 30
0.0
 41
5.0
 42
5.0
 43
5.0
  0
INSERT
  5
7D6
330
5EA
100
AcDbEntity
  8
SUNPOU
100
AcDbBlockReference
  2
_OPEN30
 10
130.781994896931
 20
108.7566037735852
 30
0.0
 41
5.0
 42
5.0
 43
5.0
 50
180.0
  0
POINT
  5
7D7
330
5EA
100
AcDbEntity
  8
DEFPOINTS
 62
     0
100
AcDbPoint
 10
127.781994896931
 20
108.7566037735852
 30
0.0
  0
POINT
  5
7D8
330
5EA
100
AcDbEntity
  8
DEFPOINTS
 62
     0
100
AcDbPoint
 10
130.781994896931
 20
145.3066037735851
 30
0.0
  0
POINT
  5
7D9
330
5EA
100
AcDbEntity
  8
DEFPOINTS
 62
     0
100
AcDbPoint
 10
130.781994896931
 20
108.7566037735852
 30
0.0
  0
ENDBLK
  5
5F7
330
5EA
100
AcDbEntity
  8
0
100
AcDbBlockEnd
  0
BLOCK
  5
603
330
5F9
100
AcDbEntity
  8
0
100
AcDbBlockBegin
  2
*D8
 70
     1
 10
0.0
 20
0.0
 30
0.0
  3
*D8
  1

  0
LINE
  5
7C6
330
5F9
100
AcDbEntity
  8
SUNPOU
100
AcDbLine
 10
130.781994896931
 20
142.3066037735851
 30
0.0
 11
130.781994896931
 21
106.7566037735852
 31
0.0
  0
LINE
  5
7C7
330
5F9
100
AcDbEntity
  8
SUNPOU
100
AcDbLine
 10
304.7819948969311
 20
142.3066037735851
 30
0.0
 11
304.7819948969311
 21
106.7566037735852
 31
0.0
  0
LINE
  5
7C8
330
5F9
100
AcDbEntity
  8
SUNPOU
100
AcDbLine
 10
135.781994896931
 20
108.7566037735852
 30
0.0
 11
299.7819948969311
 21
108.7566037735852
 31
0.0
  0
INSERT
  5
7C9
330
5F9
100
AcDbEntity
  8
SUNPOU
100
AcDbBlockReference
  2
_OPEN30
 10
130.781994896931
 20
108.7566037735852
 30
0.0
 41
5.0
 42
5.0
 43
5.0
 50
180.0
  0
INSERT
  5
7CA
330
5F9
100
AcDbEntity
  8
SUNPOU
100
AcDbBlockReference
  2
_OPEN30
 10
304.7819948969311
 20
108.7566037735852
 30
0.0
 41
5.0
 42
5.0
 43
5.0
  0
MTEXT
  5
7CB
330
5F9
100
AcDbEntity
  8
SUNPOU
100
AcDbMText
 10
217.7819948969311
 20
113.2566037735852
 30
0.0
 40
5.0
 41
0.0
 71
     5
 72
     1
  1
\A1;174
  7
SUNPOU
1001
ACAD
1000
MTEXTBEGIN
1070
    73
1070
     1
1070
    44
1040
1.0
1070
    74
1070
     0
1000
MTEXTEND
1000
MTEXTBEGIN
1070
    73
1070
     1
1070
    44
1040
1.0
1070
    74
1070
     0
1000
MTEXTEND
  0
POINT
  5
7CC
330
5F9
100
AcDbEntity
  8
DEFPOINTS
 62
     0
100
AcDbPoint
 10
130.781994896931
 20
145.3066037735851
 30
0.0
  0
POINT
  5
7CD
330
5F9
100
AcDbEntity
  8
DEFPOINTS
 62
     0
100
AcDbPoint
 10
304.7819948969311
 20
145.3066037735851
 30
0.0
  0
POINT
  5
7CE
330
5F9
100
AcDbEntity
  8
DEFPOINTS
 62
     0
100
AcDbPoint
 10
304.7819948969311
 20
108.7566037735852
 30
0.0
  0
ENDBLK
  5
604
330
5F9
100
AcDbEntity
  8
0
100
AcDbBlockEnd
  0
BLOCK
  5
612
330
606
100
AcDbEntity
  8
0
100
AcDbBlockBegin
  2
*D9
 70
     1
 10
0.0
 20
0.0
 30
0.0
  3
*D9
  1

  0
LINE
  5
7BB
330
606
100
AcDbEntity
  8
SUNPOU
100
AcDbLine
 10
304.7819948969311
 20
142.3066037735851
 30
0.0
 11
304.7819948969311
 21
106.7566037735852
 31
0.0
  0
LINE
  5
7BC
330
606
100
AcDbEntity
  8
SUNPOU
100
AcDbLine
 10
307.781994896931
 20
111.756603773585
 30
0.0
 11
307.781994896931
 21
110.7566037735852
 31
0.0
  0
LINE
  5
7BD
330
606
100
AcDbEntity
  8
SUNPOU
100
AcDbLine
 10
299.7819948969311
 20
108.7566037735852
 30
0.0
 11
294.7819948969311
 21
108.7566037735852
 31
0.0
  0
LINE
  5
7BE
330
606
100
AcDbEntity
  8
SUNPOU
100
AcDbLine
 10
312.7819948969311
 20
108.7566037735852
 30
0.0
 11
317.7819948969311
 21
108.7566037735852
 31
0.0
  0
MTEXT
  5
7BF
330
606
100
AcDbEntity
  8
SUNPOU
100
AcDbMText
 10
315.6005134070718
 20
113.2566037735852
 30
0.0
 40
5.0
 41
0.0
 71
     5
 72
     1
  1
\A1;3
  7
SUNPOU
1001
ACAD
1000
MTEXTBEGIN
1070
    73
1070
     1
1070
    44
1040
1.0
1070
    74
1070
     0
1000
MTEXTEND
1000
MTEXTBEGIN
1070
    73
1070
     1
1070
    44
1040
1.0
1070
    74
1070
     0
1000
MTEXTEND
  0
LINE
  5
7C0
330
606
100
AcDbEntity
  8
SUNPOU
100
AcDbLine
 10
304.7819948969311
 20
108.7566037735852
 30
0.0
 11
307.781994896931
 21
108.7566037735852
 31
0.0
  0
INSERT
  5
7C1
330
606
100
AcDbEntity
  8
SUNPOU
100
AcDbBlockReference
  2
_OPEN30
 10
304.7819948969311
 20
108.7566037735852
 30
0.0
 41
5.0
 42
5.0
 43
5.0
  0
INSERT
  5
7C2
330
606
100
AcDbEntity
  8
SUNPOU
100
AcDbBlockReference
  2
_OPEN30
 10
307.781994896931
 20
108.7566037735852
 30
0.0
 41
5.0
 42
5.0
 43
5.0
 50
180.0
  0
POINT
  5
7C3
330
606
100
AcDbEntity
  8
DEFPOINTS
 62
     0
100
AcDbPoint
 10
304.7819948969311
 20
145.3066037735851
 30
0.0
  0
POINT
  5
7C4
330
606
100
AcDbEntity
  8
DEFPOINTS
 62
     0
100
AcDbPoint
 10
307.781994896931
 20
108.756603773585
 30
0.0
  0
POINT
  5
7C5
330
606
100
AcDbEntity
  8
DEFPOINTS
 62
     0
100
AcDbPoint
 10
307.781994896931
 20
108.7566037735852
 30
0.0
  0
ENDBLK
  5
613
330
606
100
AcDbEntity
  8
0
100
AcDbBlockEnd
  0
BLOCK
  5
61F
330
615
100
AcDbEntity
  8
0
100
AcDbBlockBegin
  2
*D10
 70
     1
 10
0.0
 20
0.0
 30
0.0
  3
*D10
  1

  0
LINE
  5
7B2
330
615
100
AcDbEntity
  8
SUNPOU
100
AcDbLine
 10
127.781994896931
 20
89.95660377358531
 30
0.0
 11
127.781994896931
 21
90.95660377358512
 31
0.0
  0
LINE
  5
7B3
330
615
100
AcDbEntity
  8
SUNPOU
100
AcDbLine
 10
307.781994896931
 20
95.95660377358512
 30
0.0
 11
307.781994896931
 21
94.95660377358513
 31
0.0
  0
LINE
  5
7B4
330
615
100
AcDbEntity
  8
SUNPOU
100
AcDbLine
 10
132.781994896931
 20
92.95660377358514
 30
0.0
 11
302.7819948969311
 21
92.95660377358514
 31
0.0
  0
INSERT
  5
7B5
330
615
100
AcDbEntity
  8
SUNPOU
100
AcDbBlockReference
  2
_OPEN30
 10
127.781994896931
 20
92.95660377358514
 30
0.0
 41
5.0
 42
5.0
 43
5.0
 50
180.0
  0
INSERT
  5
7B6
330
615
100
AcDbEntity
  8
SUNPOU
100
AcDbBlockReference
  2
_OPEN30
 10
307.781994896931
 20
92.95660377358514
 30
0.0
 41
5.0
 42
5.0
 43
5.0
  0
MTEXT
  5
7B7
330
615
100
AcDbEntity
  8
SUNPOU
100
AcDbMText
 10
217.7819948969311
 20
97.45660377358513
 30
0.0
 40
5.0
 41
0.0
 71
     5
 72
     1
  1
\A1;180
  7
SUNPOU
1001
ACAD
1000
MTEXTBEGIN
1070
    73
1070
     1
1070
    44
1040
1.0
1070
    74
1070
     0
1000
MTEXTEND
1000
MTEXTBEGIN
1070
    73
1070
     1
1070
    44
1040
1.0
1070
    74
1070
     0
1000
MTEXTEND
  0
POINT
  5
7B8
330
615
100
AcDbEntity
  8
DEFPOINTS
 62
     0
100
AcDbPoint
 10
127.781994896931
 20
92.9566037735853
 30
0.0
  0
POINT
  5
7B9
330
615
100
AcDbEntity
  8
DEFPOINTS
 62
     0
100
AcDbPoint
 10
307.781994896931
 20
92.95660377358514
 30
0.0
  0
POINT
  5
7BA
330
615
100
AcDbEntity
  8
DEFPOINTS
 62
     0
100
AcDbPoint
 10
307.781994896931
 20
92.95660377358514
 30
0.0
  0
ENDBLK
  5
620
330
615
100
AcDbEntity
  8
0
100
AcDbBlockEnd
  0
BLOCK
  5
6A4
330
69A
100
AcDbEntity
  8
0
100
AcDbBlockBegin
  2
*D11
 70
     1
 10
0.0
 20
0.0
 30
0.0
  3
*D11
  1

  0
LINE
  5
7A9
330
69A
100
AcDbEntity
  8
SUNPOU
100
AcDbLine
 10
163.7819948969313
 20
403.0566037735852
 30
0.0
 11
184.7819948969315
 21
403.0566037735852
 31
0.0
  0
LINE
  5
7AA
330
69A
100
AcDbEntity
  8
SUNPOU
100
AcDbLine
 10
163.7819948969313
 20
516.0566037735851
 30
0.0
 11
184.7819948969315
 21
516.0566037735851
 31
0.0
  0
LINE
  5
7AB
330
69A
100
AcDbEntity
  8
SUNPOU
100
AcDbLine
 10
182.7819948969315
 20
408.0566037735851
 30
0.0
 11
182.7819948969315
 21
511.0566037735852
 31
0.0
  0
MTEXT
  5
7AC
330
69A
100
AcDbEntity
  8
SUNPOU
100
AcDbMText
 10
178.2819948969314
 20
466.7750507260136
 30
0.0
 40
5.0
 41
0.0
 71
     5
 72
     1
  1
\A1;113
  7
SUNPOU
 11
0.0000000000000001
 21
1.0
 31
0.0
1001
ACAD
1000
MTEXTBEGIN
1070
    73
1070
     1
1070
    44
1040
1.0
1070
    74
1070
     0
1000
MTEXTEND
1000
MTEXTBEGIN
1070
    73
1070
     1
1070
    44
1040
1.0
1070
    74
1070
     0
1000
MTEXTEND
  0
INSERT
  5
7AD
330
69A
100
AcDbEntity
  8
SUNPOU
100
AcDbBlockReference
  2
_OPEN30
 10
182.7819948969315
 20
403.0566037735852
 30
0.0
 41
5.0
 42
5.0
 43
5.0
 50
270.0
  0
INSERT
  5
7AE
330
69A
100
AcDbEntity
  8
SUNPOU
100
AcDbBlockReference
  2
_OPEN30
 10
182.7819948969315
 20
516.0566037735851
 30
0.0
 41
5.0
 42
5.0
 43
5.0
 50
90.0
  0
POINT
  5
7AF
330
69A
100
AcDbEntity
  8
DEFPOINTS
 62
     0
100
AcDbPoint
 10
160.7819948969313
 20
403.0566037735852
 30
0.0
  0
POINT
  5
7B0
330
69A
100
AcDbEntity
  8
DEFPOINTS
 62
     0
100
AcDbPoint
 10
160.7819948969313
 20
516.0566037735851
 30
0.0
  0
POINT
  5
7B1
330
69A
100
AcDbEntity
  8
DEFPOINTS
 62
     0
100
AcDbPoint
 10
182.7819948969315
 20
516.0566037735851
 30
0.0
  0
ENDBLK
  5
6A5
330
69A
100
AcDbEntity
  8
0
100
AcDbBlockEnd
  0
BLOCK
  5
6C3
330
6B9
100
AcDbEntity
  8
0
100
AcDbBlockBegin
  2
*D12
 70
     1
 10
0.0
 20
0.0
 30
0.0
  3
*D12
  1

  0
LINE
  5
7A0
330
6B9
100
AcDbEntity
  8
SUNPOU
100
AcDbLine
 10
307.0319948969311
 20
144.5566037735851
 30
0.0
 11
329.7819948969311
 21
144.5566037735849
 31
0.0
  0
LINE
  5
7A1
330
6B9
100
AcDbEntity
  8
SUNPOU
100
AcDbLine
 10
234.281994896931
 20
183.556603773585
 30
0.0
 11
329.7819948969311
 21
183.556603773585
 31
0.0
  0
LINE
  5
7A2
330
6B9
100
AcDbEntity
  8
SUNPOU
100
AcDbLine
 10
327.7819948969311
 20
149.5566037735849
 30
0.0
 11
327.7819948969311
 21
178.556603773585
 31
0.0
  0
INSERT
  5
7A3
330
6B9
100
AcDbEntity
  8
SUNPOU
100
AcDbBlockReference
  2
_OPEN30
 10
327.7819948969311
 20
144.5566037735849
 30
0.0
 41
5.0
 42
5.0
 43
5.0
 50
270.0
  0
INSERT
  5
7A4
330
6B9
100
AcDbEntity
  8
SUNPOU
100
AcDbBlockReference
  2
_OPEN30
 10
327.7819948969311
 20
183.556603773585
 30
0.0
 41
5.0
 42
5.0
 43
5.0
 50
90.0
  0
MTEXT
  5
7A5
330
6B9
100
AcDbEntity
  8
SUNPOU
100
AcDbMText
 10
323.2819948969311
 20
164.0566037735851
 30
0.0
 40
5.0
 41
0.0
 71
     5
 72
     1
  1
\A1;39
  7
SUNPOU
 11
0.0000000000000001
 21
1.0
 31
0.0
1001
ACAD
1000
MTEXTBEGIN
1070
    73
1070
     1
1070
    44
1040
1.0
1070
    74
1070
     0
1000
MTEXTEND
1000
MTEXTBEGIN
1070
    73
1070
     1
1070
    44
1040
1.0
1070
    74
1070
     0
1000
MTEXTEND
  0
POINT
  5
7A6
330
6B9
100
AcDbEntity
  8
DEFPOINTS
 62
     0
100
AcDbPoint
 10
304.0319948969311
 20
144.5566037735851
 30
0.0
  0
POINT
  5
7A7
330
6B9
100
AcDbEntity
  8
DEFPOINTS
 62
     0
100
AcDbPoint
 10
231.281994896931
 20
183.556603773585
 30
0.0
  0
POINT
  5
7A8
330
6B9
100
AcDbEntity
  8
DEFPOINTS
 62
     0
100
AcDbPoint
 10
327.7819948969311
 20
183.556603773585
 30
0.0
  0
ENDBLK
  5
6C4
330
6B9
100
AcDbEntity
  8
0
100
AcDbBlockEnd
  0
BLOCK
  5
6D0
330
6C6
100
AcDbEntity
  8
0
100
AcDbBlockBegin
  2
*D13
 70
     1
 10
0.0
 20
0.0
 30
0.0
  3
*D13
  1

  0
LINE
  5
797
330
6C6
100
AcDbEntity
  8
SUNPOU
100
AcDbLine
 10
307.0319948969311
 20
144.5566037735851
 30
0.0
 11
344.7819948969311
 21
144.5566037735849
 31
0.0
  0
LINE
  5
798
330
6C6
100
AcDbEntity
  8
SUNPOU
100
AcDbLine
 10
201.7194067560839
 20
229.556603773585
 30
0.0
 11
344.7819948969311
 21
229.556603773585
 31
0.0
  0
LINE
  5
799
330
6C6
100
AcDbEntity
  8
SUNPOU
100
AcDbLine
 10
342.7819948969311
 20
149.5566037735849
 30
0.0
 11
342.7819948969311
 21
224.5566037735851
 31
0.0
  0
INSERT
  5
79A
330
6C6
100
AcDbEntity
  8
SUNPOU
100
AcDbBlockReference
  2
_OPEN30
 10
342.7819948969311
 20
144.5566037735849
 30
0.0
 41
5.0
 42
5.0
 43
5.0
 50
270.0
  0
INSERT
  5
79B
330
6C6
100
AcDbEntity
  8
SUNPOU
100
AcDbBlockReference
  2
_OPEN30
 10
342.7819948969311
 20
229.556603773585
 30
0.0
 41
5.0
 42
5.0
 43
5.0
 50
90.0
  0
MTEXT
  5
79C
330
6C6
100
AcDbEntity
  8
SUNPOU
100
AcDbMText
 10
338.2819948969311
 20
187.0566037735851
 30
0.0
 40
5.0
 41
0.0
 71
     5
 72
     1
  1
\A1;85
  7
SUNPOU
 11
0.0000000000000001
 21
1.0
 31
0.0
1001
ACAD
1000
MTEXTBEGIN
1070
    73
1070
     1
1070
    44
1040
1.0
1070
    74
1070
     0
1000
MTEXTEND
1000
MTEXTBEGIN
1070
    73
1070
     1
1070
    44
1040
1.0
1070
    74
1070
     0
1000
MTEXTEND
  0
POINT
  5
79D
330
6C6
100
AcDbEntity
  8
DEFPOINTS
 62
     0
100
AcDbPoint
 10
304.0319948969311
 20
144.5566037735851
 30
0.0
  0
POINT
  5
79E
330
6C6
100
AcDbEntity
  8
DEFPOINTS
 62
     0
100
AcDbPoint
 10
198.7194067560839
 20
229.556603773585
 30
0.0
  0
POINT
  5
79F
330
6C6
100
AcDbEntity
  8
DEFPOINTS
 62
     0
100
AcDbPoint
 10
342.7819948969311
 20
229.556603773585
 30
0.0
  0
ENDBLK
  5
6D1
330
6C6
100
AcDbEntity
  8
0
100
AcDbBlockEnd
  0
BLOCK
  5
6DD
330
6D3
100
AcDbEntity
  8
0
100
AcDbBlockBegin
  2
*D14
 70
     1
 10
0.0
 20
0.0
 30
0.0
  3
*D14
  1

  0
LINE
  5
78E
330
6D3
100
AcDbEntity
  8
SUNPOU
100
AcDbLine
 10
201.7194067560839
 20
229.556603773585
 30
0.0
 11
344.7819948969311
 21
229.556603773585
 31
0.0
  0
LINE
  5
78F
330
6D3
100
AcDbEntity
  8
SUNPOU
100
AcDbLine
 10
293.5126893766364
 20
354.5566037735848
 30
0.0
 11
344.7819948969311
 21
354.5566037735848
 31
0.0
  0
LINE
  5
790
330
6D3
100
AcDbEntity
  8
SUNPOU
100
AcDbLine
 10
342.7819948969311
 20
234.5566037735851
 30
0.0
 11
342.7819948969311
 21
349.5566037735848
 31
0.0
  0
INSERT
  5
791
330
6D3
100
AcDbEntity
  8
SUNPOU
100
AcDbBlockReference
  2
_OPEN30
 10
342.7819948969311
 20
229.556603773585
 30
0.0
 41
5.0
 42
5.0
 43
5.0
 50
270.0
  0
INSERT
  5
792
330
6D3
100
AcDbEntity
  8
SUNPOU
100
AcDbBlockReference
  2
_OPEN30
 10
342.7819948969311
 20
354.5566037735848
 30
0.0
 41
5.0
 42
5.0
 43
5.0
 50
90.0
  0
MTEXT
  5
793
330
6D3
100
AcDbEntity
  8
SUNPOU
100
AcDbMText
 10
338.2819948969311
 20
292.056603773585
 30
0.0
 40
5.0
 41
0.0
 71
     5
 72
     1
  1
\A1;125
  7
SUNPOU
 11
0.0000000000000001
 21
1.0
 31
0.0
1001
ACAD
1000
MTEXTBEGIN
1070
    73
1070
     1
1070
    44
1040
1.0
1070
    74
1070
     0
1000
MTEXTEND
1000
MTEXTBEGIN
1070
    73
1070
     1
1070
    44
1040
1.0
1070
    74
1070
     0
1000
MTEXTEND
  0
POINT
  5
794
330
6D3
100
AcDbEntity
  8
DEFPOINTS
 62
     0
100
AcDbPoint
 10
198.7194067560839
 20
229.556603773585
 30
0.0
  0
POINT
  5
795
330
6D3
100
AcDbEntity
  8
DEFPOINTS
 62
     0
100
AcDbPoint
 10
290.5126893766364
 20
354.5566037735848
 30
0.0
  0
POINT
  5
796
330
6D3
100
AcDbEntity
  8
DEFPOINTS
 62
     0
100
AcDbPoint
 10
342.7819948969311
 20
354.5566037735848
 30
0.0
  0
ENDBLK
  5
6DE
330
6D3
100
AcDbEntity
  8
0
100
AcDbBlockEnd
  0
BLOCK
  5
6EA
330
6E0
100
AcDbEntity
  8
0
100
AcDbBlockBegin
  2
*D15
 70
     1
 10
0.0
 20
0.0
 30
0.0
  3
*D15
  1

  0
LINE
  5
785
330
6E0
100
AcDbEntity
  8
SUNPOU
100
AcDbLine
 10
307.0803503704467
 20
144.5581642314834
 30
0.0
 11
359.7819948969314
 21
144.5581642314834
 31
0.0
  0
LINE
  5
786
330
6E0
100
AcDbEntity
  8
SUNPOU
100
AcDbLine
 10
262.7823826992059
 20
459.5566037735851
 30
0.0
 11
359.7819948969314
 21
459.5566037735851
 31
0.0
  0
LINE
  5
787
330
6E0
100
AcDbEntity
  8
SUNPOU
100
AcDbLine
 10
357.7819948969314
 20
149.5581642314834
 30
0.0
 11
357.7819948969314
 21
454.5566037735851
 31
0.0
  0
INSERT
  5
788
330
6E0
100
AcDbEntity
  8
SUNPOU
100
AcDbBlockReference
  2
_OPEN30
 10
357.7819948969314
 20
144.5581642314834
 30
0.0
 41
5.0
 42
5.0
 43
5.0
 50
270.0
  0
INSERT
  5
789
330
6E0
100
AcDbEntity
  8
SUNPOU
100
AcDbBlockReference
  2
_OPEN30
 10
357.7819948969314
 20
459.5566037735851
 30
0.0
 41
5.0
 42
5.0
 43
5.0
 50
90.0
  0
MTEXT
  5
78A
330
6E0
100
AcDbEntity
  8
SUNPOU
100
AcDbMText
 10
353.2819948969312
 20
302.0573840025343
 30
0.0
 40
5.0
 41
0.0
 71
     5
 72
     1
  1
\A1;315
  7
SUNPOU
 11
0.0000000000000001
 21
1.0
 31
0.0
1001
ACAD
1000
MTEXTBEGIN
1070
    73
1070
     1
1070
    44
1040
1.0
1070
    74
1070
     0
1000
MTEXTEND
1000
MTEXTBEGIN
1070
    73
1070
     1
1070
    44
1040
1.0
1070
    74
1070
     0
1000
MTEXTEND
  0
POINT
  5
78B
330
6E0
100
AcDbEntity
  8
DEFPOINTS
 62
     0
100
AcDbPoint
 10
304.0803503704466
 20
144.5581642314834
 30
0.0
  0
POINT
  5
78C
330
6E0
100
AcDbEntity
  8
DEFPOINTS
 62
     0
100
AcDbPoint
 10
259.7823826992061
 20
459.5566037735851
 30
0.0
  0
POINT
  5
78D
330
6E0
100
AcDbEntity
  8
DEFPOINTS
 62
     0
100
AcDbPoint
 10
357.7819948969314
 20
459.5566037735851
 30
0.0
  0
ENDBLK
  5
6EB
330
6E0
100
AcDbEntity
  8
0
100
AcDbBlockEnd
  0
BLOCK
  5
6F7
330
6ED
100
AcDbEntity
  8
0
100
AcDbBlockBegin
  2
*D16
 70
     1
 10
0.0
 20
0.0
 30
0.0
  3
*D16
  1

  0
LINE
  5
77C
330
6ED
100
AcDbEntity
  8
SUNPOU
100
AcDbLine
 10
142.6856776164781
 20
302.0566037735848
 30
0.0
 11
90.78199489693144
 21
302.056603773585
 31
0.0
  0
LINE
  5
77D
330
6ED
100
AcDbEntity
  8
SUNPOU
100
AcDbLine
 10
142.6856776164781
 20
407.0566037735849
 30
0.0
 11
90.78199489693146
 21
407.0566037735849
 31
0.0
  0
LINE
  5
77E
330
6ED
100
AcDbEntity
  8
SUNPOU
100
AcDbLine
 10
92.78199489693143
 20
307.0566037735848
 30
0.0
 11
92.78199489693143
 21
402.0566037735849
 31
0.0
  0
INSERT
  5
77F
330
6ED
100
AcDbEntity
  8
SUNPOU
100
AcDbBlockReference
  2
_OPEN30
 10
92.78199489693143
 20
302.056603773585
 30
0.0
 41
5.0
 42
5.0
 43
5.0
 50
270.0
  0
INSERT
  5
780
330
6ED
100
AcDbEntity
  8
SUNPOU
100
AcDbBlockReference
  2
_OPEN30
 10
92.78199489693143
 20
407.0566037735849
 30
0.0
 41
5.0
 42
5.0
 43
5.0
 50
90.0
  0
MTEXT
  5
781
330
6ED
100
AcDbEntity
  8
SUNPOU
100
AcDbMText
 10
88.28199489693139
 20
354.5566037735849
 30
0.0
 40
5.0
 41
0.0
 71
     5
 72
     1
  1
\A1;105
  7
SUNPOU
 11
0.0000000000000001
 21
1.0
 31
0.0
1001
ACAD
1000
MTEXTBEGIN
1070
    73
1070
     1
1070
    44
1040
1.0
1070
    74
1070
     0
1000
MTEXTEND
1000
MTEXTBEGIN
1070
    73
1070
     1
1070
    44
1040
1.0
1070
    74
1070
     0
1000
MTEXTEND
  0
POINT
  5
782
330
6ED
100
AcDbEntity
  8
DEFPOINTS
 62
     0
100
AcDbPoint
 10
145.6856776164781
 20
302.0566037735848
 30
0.0
  0
POINT
  5
783
330
6ED
100
AcDbEntity
  8
DEFPOINTS
 62
     0
100
AcDbPoint
 10
145.6856776164781
 20
407.0566037735849
 30
0.0
  0
POINT
  5
784
330
6ED
100
AcDbEntity
  8
DEFPOINTS
 62
     0
100
AcDbPoint
 10
92.78199489693143
 20
407.0566037735849
 30
0.0
  0
ENDBLK
  5
6F8
330
6ED
100
AcDbEntity
  8
0
100
AcDbBlockEnd
  0
BLOCK
  5
704
330
6FA
100
AcDbEntity
  8
0
100
AcDbBlockBegin
  2
*D17
 70
     1
 10
0.0
 20
0.0
 30
0.0
  3
*D17
  1

  0
LINE
  5
773
330
6FA
100
AcDbEntity
  8
SUNPOU
100
AcDbLine
 10
142.6856776164781
 20
329.5566037735848
 30
0.0
 11
105.7819948969313
 21
329.5566037735848
 31
0.0
  0
LINE
  5
774
330
6FA
100
AcDbEntity
  8
SUNPOU
100
AcDbLine
 10
141.8856776164783
 20
379.5566037735849
 30
0.0
 11
105.7819948969313
 21
379.5566037735849
 31
0.0
  0
LINE
  5
775
330
6FA
100
AcDbEntity
  8
SUNPOU
100
AcDbLine
 10
107.7819948969313
 20
334.5566037735848
 30
0.0
 11
107.7819948969313
 21
374.5566037735849
 31
0.0
  0
INSERT
  5
776
330
6FA
100
AcDbEntity
  8
SUNPOU
100
AcDbBlockReference
  2
_OPEN30
 10
107.7819948969313
 20
329.5566037735848
 30
0.0
 41
5.0
 42
5.0
 43
5.0
 50
270.0
  0
INSERT
  5
777
330
6FA
100
AcDbEntity
  8
SUNPOU
100
AcDbBlockReference
  2
_OPEN30
 10
107.7819948969313
 20
379.5566037735849
 30
0.0
 41
5.0
 42
5.0
 43
5.0
 50
90.0
  0
MTEXT
  5
778
330
6FA
100
AcDbEntity
  8
SUNPOU
100
AcDbMText
 10
103.2819948969313
 20
354.5566037735849
 30
0.0
 40
5.0
 41
0.0
 71
     5
 72
     1
  1
\A1;50
  7
SUNPOU
 11
0.0000000000000001
 21
1.0
 31
0.0
1001
ACAD
1000
MTEXTBEGIN
1070
    73
1070
     1
1070
    44
1040
1.0
1070
    74
1070
     0
1000
MTEXTEND
1000
MTEXTBEGIN
1070
    73
1070
     1
1070
    44
1040
1.0
1070
    74
1070
     0
1000
MTEXTEND
  0
POINT
  5
779
330
6FA
100
AcDbEntity
  8
DEFPOINTS
 62
     0
100
AcDbPoint
 10
145.6856776164781
 20
329.5566037735848
 30
0.0
  0
POINT
  5
77A
330
6FA
100
AcDbEntity
  8
DEFPOINTS
 62
     0
100
AcDbPoint
 10
144.8856776164783
 20
379.5566037735849
 30
0.0
  0
POINT
  5
77B
330
6FA
100
AcDbEntity
  8
DEFPOINTS
 62
     0
100
AcDbPoint
 10
107.7819948969313
 20
379.5566037735849
 30
0.0
  0
ENDBLK
  5
705
330
6FA
100
AcDbEntity
  8
0
100
AcDbBlockEnd
  0
BLOCK
  5
71A
330
710
100
AcDbEntity
  8
0
100
AcDbBlockBegin
  2
*D18
 70
     1
 10
0.0
 20
0.0
 30
0.0
  3
*D18
  1

  0
LINE
  5
76A
330
710
100
AcDbEntity
  8
SUNPOU
100
AcDbLine
 10
128.531994896931
 20
144.5566037735851
 30
0.0
 11
75.78199489693147
 21
144.5566037735851
 31
0.0
  0
LINE
  5
76B
330
710
100
AcDbEntity
  8
SUNPOU
100
AcDbLine
 10
128.5319948969315
 20
554.5566037735851
 30
0.0
 11
75.78199489693159
 21
554.5566037735851
 31
0.0
  0
LINE
  5
76C
330
710
100
AcDbEntity
  8
SUNPOU
100
AcDbLine
 10
77.78199489693148
 20
149.5566037735851
 30
0.0
 11
77.78199489693159
 21
549.5566037735851
 31
0.0
  0
INSERT
  5
76D
330
710
100
AcDbEntity
  8
SUNPOU
100
AcDbBlockReference
  2
_OPEN30
 10
77.78199489693148
 20
144.5566037735851
 30
0.0
 41
5.0
 42
5.0
 43
5.0
 50
270.0
  0
INSERT
  5
76E
330
710
100
AcDbEntity
  8
SUNPOU
100
AcDbBlockReference
  2
_OPEN30
 10
77.78199489693159
 20
554.5566037735851
 30
0.0
 41
5.0
 42
5.0
 43
5.0
 50
90.0
  0
MTEXT
  5
76F
330
710
100
AcDbEntity
  8
SUNPOU
100
AcDbMText
 10
73.28199489693147
 20
349.5566037735851
 30
0.0
 40
5.0
 41
0.0
 71
     5
 72
     1
  1
\A1;410
  7
SUNPOU
 11
0.0000000000000001
 21
1.0
 31
0.0
1001
ACAD
1000
MTEXTBEGIN
1070
    73
1070
     1
1070
    44
1040
1.0
1070
    74
1070
     0
1000
MTEXTEND
1000
MTEXTBEGIN
1070
    73
1070
     1
1070
    44
1040
1.0
1070
    74
1070
     0
1000
MTEXTEND
  0
POINT
  5
770
330
710
100
AcDbEntity
  8
DEFPOINTS
 62
     0
100
AcDbPoint
 10
131.531994896931
 20
144.5566037735851
 30
0.0
  0
POINT
  5
771
330
710
100
AcDbEntity
  8
DEFPOINTS
 62
     0
100
AcDbPoint
 10
131.5319948969315
 20
554.5566037735851
 30
0.0
  0
POINT
  5
772
330
710
100
AcDbEntity
  8
DEFPOINTS
 62
     0
100
AcDbPoint
 10
77.78199489693159
 20
554.5566037735851
 30
0.0
  0
ENDBLK
  5
71B
330
710
100
AcDbEntity
  8
0
100
AcDbBlockEnd
  0
BLOCK
  5
AB4
330
AAA
100
AcDbEntity
  8
0
100
AcDbBlockBegin
  2
*D19
 70
     1
 10
0.0
 20
0.0
 30
0.0
  3
*D19
  1

  0
LINE
  5
AAB
330
AAA
100
AcDbEntity
  8
SUNPOU
100
AcDbLine
 10
152.7819948969312
 20
277.5566037735852
 30
0.0
 11
152.7819948969312
 21
283.0948014995832
 31
0.0
  0
LINE
  5
AAC
330
AAA
100
AcDbEntity
  8
SUNPOU
100
AcDbLine
 10
187.7819948969311
 20
275.5566037735852
 30
0.0
 11
187.7819948969311
 21
283.0948014995832
 31
0.0
  0
LINE
  5
AAD
330
AAA
100
AcDbEntity
  8
SUNPOU
100
AcDbLine
 10
157.7819948969311
 20
281.0948014995833
 30
0.0
 11
182.7819948969311
 21
281.0948014995833
 31
0.0
  0
INSERT
  5
AAE
330
AAA
100
AcDbEntity
  8
SUNPOU
100
AcDbBlockReference
  2
_OPEN30
 10
152.7819948969312
 20
281.0948014995833
 30
0.0
 41
5.0
 42
5.0
 43
5.0
 50
180.0
  0
INSERT
  5
AAF
330
AAA
100
AcDbEntity
  8
SUNPOU
100
AcDbBlockReference
  2
_OPEN30
 10
187.7819948969311
 20
281.0948014995833
 30
0.0
 41
5.0
 42
5.0
 43
5.0
  0
MTEXT
  5
AB0
330
AAA
100
AcDbEntity
  8
SUNPOU
100
AcDbMText
 10
170.2819948969311
 20
285.5948014995833
 30
0.0
 40
5.0
 41
0.0
 71
     5
 72
     1
  1
\A1;35
  7
SUNPOU
1001
ACAD
1000
MTEXTBEGIN
1070
    73
1070
     1
1070
    44
1040
1.0
1070
    74
1070
     0
1000
MTEXTEND
1000
MTEXTBEGIN
1070
    73
1070
     1
1070
    44
1040
1.0
1070
    74
1070
     0
1000
MTEXTEND
  0
POINT
  5
AB1
330
AAA
100
AcDbEntity
  8
DEFPOINTS
 62
     0
100
AcDbPoint
 10
152.7819948969312
 20
274.5566037735851
 30
0.0
  0
POINT
  5
AB2
330
AAA
100
AcDbEntity
  8
DEFPOINTS
 62
     0
100
AcDbPoint
 10
187.7819948969311
 20
272.5566037735851
 30
0.0
  0
POINT
  5
AB3
330
AAA
100
AcDbEntity
  8
DEFPOINTS
 62
     0
100
AcDbPoint
 10
187.7819948969311
 20
281.0948014995833
 30
0.0
  0
ENDBLK
  5
AB5
330
AAA
100
AcDbEntity
  8
0
100
AcDbBlockEnd
  0
BLOCK
  5
AC1
330
AB7
100
AcDbEntity
  8
0
100
AcDbBlockBegin
  2
*D20
 70
     1
 10
0.0
 20
0.0
 30
0.0
  3
*D20
  1

  0
LINE
  5
AB8
330
AB7
100
AcDbEntity
  8
SUNPOU
100
AcDbLine
 10
187.7819948969311
 20
275.5566037735852
 30
0.0
 11
187.7819948969311
 21
283.0948014995832
 31
0.0
  0
LINE
  5
AB9
330
AB7
100
AcDbEntity
  8
SUNPOU
100
AcDbLine
 10
214.7819948969313
 20
284.0948014995833
 30
0.0
 11
214.7819948969313
 21
283.0948014995832
 31
0.0
  0
LINE
  5
ABA
330
AB7
100
AcDbEntity
  8
SUNPOU
100
AcDbLine
 10
192.7819948969311
 20
281.0948014995833
 30
0.0
 11
209.7819948969313
 21
281.0948014995833
 31
0.0
  0
INSERT
  5
ABB
330
AB7
100
AcDbEntity
  8
SUNPOU
100
AcDbBlockReference
  2
_OPEN30
 10
187.7819948969311
 20
281.0948014995833
 30
0.0
 41
5.0
 42
5.0
 43
5.0
 50
180.0
  0
INSERT
  5
ABC
330
AB7
100
AcDbEntity
  8
SUNPOU
100
AcDbBlockReference
  2
_OPEN30
 10
214.7819948969313
 20
281.0948014995833
 30
0.0
 41
5.0
 42
5.0
 43
5.0
  0
MTEXT
  5
ABD
330
AB7
100
AcDbEntity
  8
SUNPOU
100
AcDbMText
 10
201.2819948969313
 20
285.5948014995833
 30
0.0
 40
5.0
 41
0.0
 71
     5
 72
     1
  1
\A1;27
  7
SUNPOU
1001
ACAD
1000
MTEXTBEGIN
1070
    73
1070
     1
1070
    44
1040
1.0
1070
    74
1070
     0
1000
MTEXTEND
1000
MTEXTBEGIN
1070
    73
1070
     1
1070
    44
1040
1.0
1070
    74
1070
     0
1000
MTEXTEND
  0
POINT
  5
ABE
330
AB7
100
AcDbEntity
  8
DEFPOINTS
 62
     0
100
AcDbPoint
 10
187.7819948969311
 20
272.5566037735851
 30
0.0
  0
POINT
  5
ABF
330
AB7
100
AcDbEntity
  8
DEFPOINTS
 62
     0
100
AcDbPoint
 10
214.7819948969313
 20
281.0948014995833
 30
0.0
  0
POINT
  5
AC0
330
AB7
100
AcDbEntity
  8
DEFPOINTS
 62
     0
100
AcDbPoint
 10
214.7819948969313
 20
281.0948014995833
 30
0.0
  0
ENDBLK
  5
AC2
330
AB7
100
AcDbEntity
  8
0
100
AcDbBlockEnd
  0
ENDSEC
  0
SECTION
  2
ENTITIES
  0
LINE
  5
2C1
330
A
100
AcDbEntity
  8
CHUSIN
100
AcDbLine
 10
157.9114195031999
 20
379.5566037735849
 30
0.0
 11
145.6856776164783
 21
379.5566037735849
 31
0.0
  0
LINE
  5
2C2
330
A
100
AcDbEntity
  8
CHUSIN
100
AcDbLine
 10
157.9114195031999
 20
329.5566037735848
 30
0.0
 11
145.6856776164781
 21
329.5566037735848
 31
0.0
  0
LINE
  5
2C3
330
A
100
AcDbEntity
  8
CHUSIN
100
AcDbLine
 10
145.6856776164783
 20
354.5566037735849
 30
0.0
 11
290.5126893766364
 21
354.5566037735848
 31
0.0
  0
LINE
  5
2C4
330
A
100
AcDbEntity
  8
CHUSIN
100
AcDbLine
 10
154.2848016956214
 20
309.5566037735848
 30
0.0
 11
207.7606732449265
 21
309.5566037735848
 31
0.0
  0
LINE
  5
2C5
330
A
100
AcDbEntity
  8
CHUSIN
100
AcDbLine
 10
154.2848016956215
 20
399.5566037735855
 30
0.0
 11
207.7606732449268
 21
399.5566037735855
 31
0.0
  0
LINE
  5
2C6
330
A
100
AcDbEntity
  8
CHUSIN
100
AcDbLine
 10
214.7819948969313
 20
287.2083529174781
 30
0.0
 11
214.781994896931
 21
140.1283233276157
 31
0.0
  0
LINE
  5
2C7
330
A
100
AcDbEntity
  8
CHUSIN
100
AcDbLine
 10
198.7194067560839
 20
229.556603773585
 30
0.0
 11
157.9472447414264
 21
229.556603773585
 31
0.0
  0
LINE
  5
2C8
330
A
100
AcDbEntity
  8
CHUSIN
100
AcDbLine
 10
259.7823826992061
 20
459.5566037735851
 30
0.0
 11
138.32581214315
 21
459.5566037735852
 31
0.0
  0
LINE
  5
2C9
330
A
100
AcDbEntity
  8
CHUSIN
100
AcDbLine
 10
187.7819948969315
 20
493.5926997810268
 30
0.0
 11
187.7819948969314
 21
424.8299085983068
 31
0.0
  0
LINE
  5
2CA
330
A
100
AcDbEntity
  8
CHUSIN
100
AcDbLine
 10
225.2819948969315
 20
474.0566037735852
 30
0.0
 11
225.2819948969314
 21
425.0566037735851
 31
0.0
  0
LINE
  5
2CB
330
A
100
AcDbEntity
  8
CHUSIN
100
AcDbLine
 10
255.2819948969315
 20
445.0566037735852
 30
0.0
 11
255.2819948969314
 21
425.0566037735851
 31
0.0
  0
LINE
  5
2CC
330
A
100
AcDbEntity
  8
CHUSIN
100
AcDbLine
 10
255.2819948969314
 20
425.0566037735851
 30
0.0
 11
225.2819948969314
 21
425.0566037735851
 31
0.0
  0
LINE
  5
2CD
330
A
100
AcDbEntity
  8
CHUSIN
100
AcDbLine
 10
214.2819948969314
 20
484.9973508831866
 30
0.0
 11
214.2819948969314
 21
471.2447926466427
 31
0.0
  0
LINE
  5
2CE
330
A
100
AcDbEntity
  8
CHUSIN
100
AcDbLine
 10
234.2819948969315
 20
484.9973508831866
 30
0.0
 11
234.2819948969315
 21
471.2447926466427
 31
0.0
  0
LINE
  5
2CF
330
A
100
AcDbEntity
  8
CHUSIN
100
AcDbLine
 10
237.7819948969315
 20
448.8968855122586
 30
0.0
 11
237.7819948969314
 21
431.7061877165786
 31
0.0
  0
LINE
  5
2D0
330
A
100
AcDbEntity
  8
CHUSIN
100
AcDbLine
 10
221.7819948969314
 20
424.8299085983068
 30
0.0
 11
221.7819948969314
 21
412.7964201413306
 31
0.0
  0
LINE
  5
2D1
330
A
100
AcDbEntity
  8
CHUSIN
100
AcDbLine
 10
210.2819948969314
 20
424.8299085983068
 30
0.0
 11
210.2819948969314
 21
412.7964201413306
 31
0.0
  0
LINE
  5
2D2
330
A
100
AcDbEntity
  8
CHUSIN
100
AcDbLine
 10
169.9028893763165
 20
497.0566037735852
 30
0.0
 11
152.6505308857505
 21
497.0566037735852
 31
0.0
  0
LINE
  5
2D3
330
A
100
AcDbEntity
  8
CHUSIN
100
AcDbLine
 10
169.9028893763165
 20
424.0566037735852
 30
0.0
 11
152.6505308857504
 21
424.0566037735852
 31
0.0
  0
LINE
  5
2D4
330
A
100
AcDbEntity
  8
CHUSIN
100
AcDbLine
 10
245.2819948969314
 20
464.8855054947516
 30
0.0
 11
245.2819948969314
 21
453.9183844759285
 31
0.0
  0
LINE
  5
2D5
330
A
100
AcDbEntity
  8
CHUSIN
100
AcDbLine
 10
157.9114195031999
 20
407.0566037735849
 30
0.0
 11
145.6856776164783
 21
407.0566037735849
 31
0.0
  0
LINE
  5
2D6
330
A
100
AcDbEntity
  8
CHUSIN
100
AcDbLine
 10
157.9114195031998
 20
302.0566037735848
 30
0.0
 11
145.6856776164781
 21
302.0566037735848
 31
0.0
  0
LINE
  5
2D7
330
A
100
AcDbEntity
  8
KAKURE
100
AcDbLine
 10
193.7819948969312
 20
233.556603773585
 30
0.0
 11
174.9819948969311
 21
233.556603773585
 31
0.0
  0
LINE
  5
2D8
330
A
100
AcDbEntity
  8
KAKURE
100
AcDbLine
 10
193.7819948969312
 20
225.556603773585
 30
0.0
 11
174.9819948969311
 21
225.556603773585
 31
0.0
  0
LINE
  5
2D9
330
A
100
AcDbEntity
  8
KAKURE
100
AcDbLine
 10
174.9819948969311
 20
233.556603773585
 30
0.0
 11
173.7819948969312
 21
232.356603773585
 31
0.0
  0
LINE
  5
2DA
330
A
100
AcDbEntity
  8
KAKURE
100
AcDbLine
 10
174.9819948969311
 20
225.556603773585
 30
0.0
 11
173.7819948969312
 21
226.7566037735852
 31
0.0
  0
LINE
  5
2DB
330
A
100
AcDbEntity
  8
KAKURE
100
AcDbLine
 10
173.7819948969312
 20
226.7566037735852
 30
0.0
 11
173.7819948969312
 21
232.356603773585
 31
0.0
  0
LINE
  5
2DF
330
A
100
AcDbEntity
  8
SOUZOU
100
AcDbLine
 10
249.2819948969315
 20
474.0566037735852
 30
0.0
 11
249.2819948969314
 21
417.856603773585
 31
0.0
  0
LINE
  5
2E0
330
A
100
AcDbEntity
  8
SOUZOU
100
AcDbLine
 10
246.0819948969314
 20
474.0566037735852
 30
0.0
 11
246.0819948969314
 21
419.0566037735851
 31
0.0
  0
LINE
  5
2E1
330
A
100
AcDbEntity
  8
SOUZOU
100
AcDbLine
 10
246.0819948969314
 20
419.0566037735851
 30
0.0
 11
230.0819948969314
 21
419.0566037735852
 31
0.0
  0
LINE
  5
2E2
330
A
100
AcDbEntity
  8
SOUZOU
100
AcDbLine
 10
247.2819948969314
 20
415.8566037735851
 30
0.0
 11
231.2819948969314
 21
415.8566037735851
 31
0.0
  0
ARC
  5
2E3
330
A
100
AcDbEntity
  8
SOUZOU
100
AcDbCircle
 10
247.2819948969314
 20
417.856603773585
 30
0.0
 40
2.0
100
AcDbArc
 50
269.9999999999999
 51
359.9999999999998
  0
LINE
  5
2E4
330
A
100
AcDbEntity
  8
SOUZOU
100
AcDbLine
 10
231.2819948969314
 20
381.4560219653131
 30
0.0
 11
231.2819948969314
 21
415.8566037735851
 31
0.0
  0
LINE
  5
2E5
330
A
100
AcDbEntity
  8
SOUZOU
100
AcDbLine
 10
228.0819948969313
 20
381.4560219653131
 30
0.0
 11
228.0819948969314
 21
417.0566037735851
 31
0.0
  0
ARC
  5
2E6
330
A
100
AcDbEntity
  8
SOUZOU
100
AcDbCircle
 10
230.0819948969314
 20
417.0566037735851
 30
0.0
 40
2.0
100
AcDbArc
 50
89.99999999999991
 51
179.9999999999998
  0
LINE
  5
376
330
A
100
AcDbEntity
  8
CHUSIN
100
AcDbLine
 10
247.7819948969315
 20
315.0746037735848
 30
0.0
 11
269.7819948969314
 21
315.0746037735848
 31
0.0
  0
LINE
  5
377
330
A
100
AcDbEntity
  8
CHUSIN
100
AcDbLine
 10
258.7819948969316
 20
423.7327044025157
 30
0.0
 11
258.7819948969313
 21
282.3584905660378
 31
0.0
  0
LINE
  5
37D
330
A
100
AcDbEntity
  8
04
100
AcDbLine
 10
230.0819948969313
 20
381.4560219653131
 30
0.0
 11
273.0819948969314
 21
381.4560219653128
 31
0.0
  0
LINE
  5
383
330
A
100
AcDbEntity
  8
06
100
AcDbLine
 10
254.2819948969313
 20
388.4560219653132
 30
0.0
 11
263.2819948969312
 21
388.4560219653132
 31
0.0
  0
LINE
  5
384
330
A
100
AcDbEntity
  8
06
100
AcDbLine
 10
254.2819948969313
 20
388.4560219653132
 30
0.0
 11
250.4819948969316
 21
399.4920233004801
 31
0.0
  0
LINE
  5
385
330
A
100
AcDbEntity
  8
06
100
AcDbLine
 10
263.2819948969312
 20
388.4560219653132
 30
0.0
 11
267.081994896931
 21
399.4920233004801
 31
0.0
  0
LINE
  5
388
330
A
100
AcDbEntity
  8
06
100
AcDbLine
 10
250.481994896931
 20
399.4920233004801
 30
0.0
 11
267.0819948969313
 21
399.4920233004801
 31
0.0
  0
LINE
  5
3A2
330
A
100
AcDbEntity
  8
03
100
AcDbLine
 10
127.7819948969316
 20
554.5566037735851
 30
0.0
 11
127.781994896931
 21
78.57720069831505
 31
0.0
  0
LINE
  5
3A3
330
A
100
AcDbEntity
  8
03
100
AcDbLine
 10
130.7819948969315
 20
553.8066037735851
 30
0.0
 11
130.781994896931
 21
145.3066037735851
 31
0.0
  0
LINE
  5
3A4
330
A
100
AcDbEntity
  8
03
100
AcDbLine
 10
132.2819948969315
 20
553.0566037735851
 30
0.0
 11
132.281994896931
 21
146.0566037735851
 31
0.0
  0
LINE
  5
3A5
330
A
100
AcDbEntity
  8
03
100
AcDbLine
 10
133.8819948969315
 20
551.4566037735852
 30
0.0
 11
133.8819948969312
 21
166.1566037735851
 31
0.0
  0
LINE
  5
3A6
330
A
100
AcDbEntity
  8
03
100
AcDbLine
 10
304.0319948969311
 20
144.5566037735851
 30
0.0
 11
240.531994896931
 21
144.5566037735851
 31
0.0
  0
LINE
  5
3A7
330
A
100
AcDbEntity
  8
03
100
AcDbLine
 10
189.031994896931
 20
144.5566037735851
 30
0.0
 11
131.531994896931
 21
144.5566037735851
 31
0.0
  0
ARC
  5
3A8
330
A
100
AcDbEntity
  8
03
100
AcDbCircle
 10
131.531994896931
 20
145.3066037735851
 30
0.0
 40
0.75
100
AcDbArc
 50
179.9999999999998
 51
269.9999999999999
  0
LINE
  5
3A9
330
A
100
AcDbEntity
  8
03
100
AcDbLine
 10
303.2819948969311
 20
146.0566037735849
 30
0.0
 11
241.281994896931
 21
146.056603773585
 31
0.0
  0
LINE
  5
3AA
330
A
100
AcDbEntity
  8
03
100
AcDbLine
 10
188.181994896931
 20
146.056603773585
 30
0.0
 11
132.281994896931
 21
146.0566037735851
 31
0.0
  0
LINE
  5
3AB
330
A
100
AcDbEntity
  8
03
100
AcDbLine
 10
176.6819948969311
 20
164.556603773585
 30
0.0
 11
133.2819948969312
 21
164.5566037735851
 31
0.0
  0
ARC
  5
3AC
330
A
100
AcDbEntity
  8
03
100
AcDbCircle
 10
133.2819948969312
 20
165.5566037735851
 30
0.0
 40
1.0
100
AcDbArc
 50
179.9999999999998
 51
269.9999999999999
  0
ARC
  5
3AE
330
A
100
AcDbEntity
  8
03
100
AcDbCircle
 10
189.031994896931
 20
145.3066037735851
 30
0.0
 40
0.75
100
AcDbArc
 50
269.9999999999999
 51
0.0
  0
LINE
  5
3AF
330
A
100
AcDbEntity
  8
03
100
AcDbLine
 10
178.2819948969311
 20
165.156603773585
 30
0.0
 11
178.2819948969311
 21
146.056603773585
 31
0.0
  0
LINE
  5
3B0
330
A
100
AcDbEntity
  8
03
100
AcDbLine
 10
177.2819948969311
 20
166.156603773585
 30
0.0
 11
133.8819948969312
 21
166.1566037735851
 31
0.0
  0
ARC
  5
3B1
330
A
100
AcDbEntity
  8
03
100
AcDbCircle
 10
177.2819948969311
 20
165.156603773585
 30
0.0
 40
1.0
100
AcDbArc
 50
359.9999999999998
 51
89.99999999999992
  0
LINE
  5
3B2
330
A
100
AcDbEntity
  8
03
100
AcDbLine
 10
176.6819948969311
 20
164.556603773585
 30
0.0
 11
176.6819948969311
 21
146.056603773585
 31
0.0
  0
ARC
  5
3B5
330
A
100
AcDbEntity
  8
03
100
AcDbCircle
 10
240.531994896931
 20
145.3066037735851
 30
0.0
 40
0.75
100
AcDbArc
 50
179.9999999999998
 51
269.9999999999999
  0
LINE
  5
3B6
330
A
100
AcDbEntity
  8
06
100
AcDbLine
 10
194.781994896931
 20
164.556603773585
 30
0.0
 11
194.781994896931
 21
82.76862731932254
 31
0.0
  0
LINE
  5
3B7
330
A
100
AcDbEntity
  8
06
100
AcDbLine
 10
234.7819948969311
 20
164.556603773585
 30
0.0
 11
234.7819948969311
 21
82.76862731932247
 31
0.0
  0
LINE
  5
3BB
330
A
100
AcDbEntity
  8
03
100
AcDbLine
 10
307.7819948969314
 20
554.5566037735849
 30
0.0
 11
307.781994896931
 21
78.57720069831485
 31
0.0
  0
LINE
  5
3BC
330
A
100
AcDbEntity
  8
03
100
AcDbLine
 10
304.7819948969315
 20
553.8066037735849
 30
0.0
 11
304.7819948969315
 21
530.3066037735849
 31
0.0
  0
LINE
  5
3BD
330
A
100
AcDbEntity
  8
03
100
AcDbLine
 10
304.7819948969315
 20
523.8066037735849
 30
0.0
 11
304.7819948969311
 21
145.3066037735851
 31
0.0
  0
ARC
  5
3BE
330
A
100
AcDbEntity
  8
03
100
AcDbCircle
 10
304.0319948969311
 20
145.3066037735851
 30
0.0
 40
0.75
100
AcDbArc
 50
269.9999999999999
 51
359.9999999999998
  0
LINE
  5
3BF
330
A
100
AcDbEntity
  8
03
100
AcDbLine
 10
303.2819948969315
 20
553.0566037735849
 30
0.0
 11
303.2819948969315
 21
531.0566037735849
 31
0.0
  0
LINE
  5
3C0
330
A
100
AcDbEntity
  8
03
100
AcDbLine
 10
303.2819948969315
 20
523.0566037735849
 30
0.0
 11
303.2819948969311
 21
146.0566037735849
 31
0.0
  0
LINE
  5
3C1
330
A
100
AcDbEntity
  8
03
100
AcDbLine
 10
304.0319948969315
 20
554.5566037735849
 30
0.0
 11
274.7819948969314
 21
554.5566037735849
 31
0.0
  0
ARC
  5
3C2
330
A
100
AcDbEntity
  8
03
100
AcDbCircle
 10
304.0319948969315
 20
553.8066037735849
 30
0.0
 40
0.75
100
AcDbArc
 50
359.9999999999998
 51
89.99999999999992
  0
LINE
  5
3C3
330
A
100
AcDbEntity
  8
03
100
AcDbLine
 10
160.7819948969314
 20
554.5566037735851
 30
0.0
 11
131.5319948969315
 21
554.5566037735851
 31
0.0
  0
ARC
  5
3C4
330
A
100
AcDbEntity
  8
03
100
AcDbCircle
 10
131.5319948969315
 20
553.8066037735851
 30
0.0
 40
0.75
100
AcDbArc
 50
89.99999999999991
 51
179.9999999999998
  0
LINE
  5
3C5
330
A
100
AcDbEntity
  8
03
100
AcDbLine
 10
303.2819948969315
 20
553.0566037735849
 30
0.0
 11
274.7819948969314
 21
553.0566037735849
 31
0.0
  0
LINE
  5
3C6
330
A
100
AcDbEntity
  8
03
100
AcDbLine
 10
274.7819948969314
 20
553.0566037735849
 30
0.0
 11
132.2819948969315
 21
553.0566037735851
 31
0.0
  0
ARC
  5
3C7
330
A
100
AcDbEntity
  8
03
100
AcDbCircle
 10
133.2819948969315
 20
552.0566037735853
 30
0.0
 40
1.0
100
AcDbArc
 50
89.99999999999991
 51
179.9999999999998
  0
LINE
  5
3C8
330
A
100
AcDbEntity
  8
03
100
AcDbLine
 10
274.7819948969314
 20
554.5566037735849
 30
0.0
 11
274.7819948969314
 21
553.0566037735849
 31
0.0
  0
LINE
  5
3C9
330
A
100
AcDbEntity
  8
03
100
AcDbLine
 10
160.7819948969314
 20
554.5566037735851
 30
0.0
 11
160.7819948969314
 21
553.0566037735851
 31
0.0
  0
LINE
  5
3CA
330
A
100
AcDbEntity
  8
03
100
AcDbLine
 10
288.1819948969314
 20
551.4566037735851
 30
0.0
 11
133.8819948969315
 21
551.4566037735852
 31
0.0
  0
LINE
  5
3CB
330
A
100
AcDbEntity
  8
03
100
AcDbLine
 10
304.0319948969315
 20
529.5566037735849
 30
0.0
 11
291.2819948969318
 21
529.5566037735851
 31
0.0
  0
ARC
  5
3CC
330
A
100
AcDbEntity
  8
03
100
AcDbCircle
 10
304.0319948969315
 20
530.3066037735849
 30
0.0
 40
0.75
100
AcDbArc
 50
269.9999999999999
 51
359.9999999999998
  0
LINE
  5
3CD
330
A
100
AcDbEntity
  8
03
100
AcDbLine
 10
304.0319948969315
 20
524.5566037735849
 30
0.0
 11
292.7819948969315
 21
524.5566037735849
 31
0.0
  0
ARC
  5
3CE
330
A
100
AcDbEntity
  8
03
100
AcDbCircle
 10
304.0319948969315
 20
523.8066037735849
 30
0.0
 40
0.75
100
AcDbArc
 50
359.9999999999998
 51
89.99999999999992
  0
LINE
  5
3CF
330
A
100
AcDbEntity
  8
03
100
AcDbLine
 10
303.2819948969315
 20
531.0566037735849
 30
0.0
 11
290.5319948969315
 21
531.0566037735849
 31
0.0
  0
LINE
  5
3D0
330
A
100
AcDbEntity
  8
03
100
AcDbLine
 10
303.2819948969315
 20
523.0566037735849
 30
0.0
 11
292.7819948969315
 21
523.0566037735849
 31
0.0
  0
LINE
  5
3D1
330
A
100
AcDbEntity
  8
03
100
AcDbLine
 10
289.7819948969315
 20
516.0566037735849
 30
0.0
 11
289.7819948969317
 21
552.0566037735849
 31
0.0
  0
ARC
  5
3D2
330
A
100
AcDbEntity
  8
03
100
AcDbCircle
 10
288.7819948969316
 20
552.0566037735849
 30
0.0
 40
1.0
100
AcDbArc
 50
359.9999999999998
 51
89.99999999999992
  0
ARC
  5
3D3
330
A
100
AcDbEntity
  8
03
100
AcDbCircle
 10
290.5319948969315
 20
530.3066037735849
 30
0.0
 40
0.75
100
AcDbArc
 50
89.99999999999991
 51
179.9999999999998
  0
LINE
  5
3D4
330
A
100
AcDbEntity
  8
03
100
AcDbLine
 10
291.2819948969314
 20
516.0566037735849
 30
0.0
 11
291.2819948969314
 21
529.5566037735849
 31
0.0
  0
LINE
  5
3D5
330
A
100
AcDbEntity
  8
03
100
AcDbLine
 10
292.7819948969315
 20
524.5566037735849
 30
0.0
 11
292.7819948969315
 21
523.0566037735849
 31
0.0
  0
LINE
  5
3D6
330
A
100
AcDbEntity
  8
03
100
AcDbLine
 10
291.2819948969314
 20
516.0566037735849
 30
0.0
 11
289.7819948969315
 21
516.0566037735849
 31
0.0
  0
LINE
  5
3D7
330
A
100
AcDbEntity
  8
03
100
AcDbLine
 10
288.1819948969314
 20
516.0566037735849
 30
0.0
 11
288.1819948969316
 21
551.4566037735851
 31
0.0
  0
LINE
  5
3D8
330
A
100
AcDbEntity
  8
03
100
AcDbLine
 10
289.7819948969315
 20
516.0566037735849
 30
0.0
 11
288.1819948969314
 21
516.0566037735849
 31
0.0
  0
ARC
  5
3DA
330
A
100
AcDbEntity
  8
SOUZOU
100
AcDbCircle
 10
300.2819948969311
 20
174.156603773585
 30
0.0
 40
3.0
100
AcDbArc
 50
269.9999999999999
 51
359.9999999999998
  0
LINE
  5
3E2
330
A
100
AcDbEntity
  8
02
100
AcDbLine
 10
179.8819948969315
 20
545.4566037735851
 30
0.0
 11
147.8819948969315
 21
545.4566037735852
 31
0.0
  0
LINE
  5
3E3
330
A
100
AcDbEntity
  8
02
100
AcDbLine
 10
139.8819948969314
 20
537.4566037735852
 30
0.0
 11
139.8819948969314
 21
505.4566037735849
 31
0.0
  0
ARC
  5
3E4
330
A
100
AcDbEntity
  8
02
100
AcDbCircle
 10
147.8819948969315
 20
537.4566037735852
 30
0.0
 40
8.0
100
AcDbArc
 50
89.99999999999991
 51
179.9999999999998
  0
LINE
  5
3E5
330
A
100
AcDbEntity
  8
02
100
AcDbLine
 10
183.8819948969315
 20
549.4566037735851
 30
0.0
 11
183.8819948969316
 21
551.4566037735851
 31
0.0
  0
ARC
  5
3E6
330
A
100
AcDbEntity
  8
02
100
AcDbCircle
 10
179.8819948969315
 20
549.4566037735851
 30
0.0
 40
4.0
100
AcDbArc
 50
269.9999999999999
 51
359.9999999999996
  0
LINE
  5
3E7
330
A
100
AcDbEntity
  8
02
100
AcDbLine
 10
135.8819948969315
 20
501.4566037735849
 30
0.0
 11
133.8819948969315
 21
501.4566037735852
 31
0.0
  0
ARC
  5
3E8
330
A
100
AcDbEntity
  8
02
100
AcDbCircle
 10
135.8819948969315
 20
505.4566037735849
 30
0.0
 40
4.0
100
AcDbArc
 50
269.9999999999999
 51
359.9999999999998
  0
LINE
  5
3E9
330
A
100
AcDbEntity
  8
02
100
AcDbLine
 10
152.7819948969315
 20
545.4566037735851
 30
0.0
 11
152.781994896931
 21
171.1566037735851
 31
0.0
  0
LINE
  5
3EA
330
A
100
AcDbEntity
  8
02
100
AcDbLine
 10
146.7819948969315
 20
545.4566037735852
 30
0.0
 11
146.781994896931
 21
171.1566037735851
 31
0.0
  0
LINE
  5
3EB
330
A
100
AcDbEntity
  8
02
100
AcDbLine
 10
187.7819948969311
 20
272.5566037735851
 30
0.0
 11
187.781994896931
 21
173.156603773585
 31
0.0
  0
ARC
  5
3EC
330
A
100
AcDbEntity
  8
02
100
AcDbCircle
 10
185.781994896931
 20
173.156603773585
 30
0.0
 40
2.0
100
AcDbArc
 50
269.9999999999999
 51
359.9999999999998
  0
LINE
  5
3ED
330
A
100
AcDbEntity
  8
02
100
AcDbLine
 10
181.7819948969312
 20
268.5566037735852
 30
0.0
 11
181.7819948969312
 21
177.156603773585
 31
0.0
  0
LINE
  5
3EE
330
A
100
AcDbEntity
  8
02
100
AcDbLine
 10
181.781994896931
 20
177.156603773585
 30
0.0
 11
152.7819948969312
 21
177.156603773585
 31
0.0
  0
LINE
  5
3EF
330
A
100
AcDbEntity
  8
02
100
AcDbLine
 10
185.7819948969313
 20
274.5566037735851
 30
0.0
 11
152.7819948969312
 21
274.5566037735851
 31
0.0
  0
ARC
  5
3F0
330
A
100
AcDbEntity
  8
02
100
AcDbCircle
 10
185.7819948969311
 20
272.5566037735851
 30
0.0
 40
2.0
100
AcDbArc
 50
359.9999999999998
 51
89.99999999999992
  0
LINE
  5
3F1
330
A
100
AcDbEntity
  8
02
100
AcDbLine
 10
181.7819948969312
 20
268.5566037735852
 30
0.0
 11
152.7819948969312
 21
268.5566037735852
 31
0.0
  0
LINE
  5
3F2
330
A
100
AcDbEntity
  8
02
100
AcDbLine
 10
210.7819948969312
 20
219.556603773585
 30
0.0
 11
218.7819948969312
 21
219.556603773585
 31
0.0
  0
ARC
  5
3F3
330
A
100
AcDbEntity
  8
02
100
AcDbCircle
 10
210.7819948969312
 20
218.5566037735851
 30
0.0
 40
1.0
100
AcDbArc
 50
89.99999989715993
 51
179.9999997943199
  0
ARC
  5
3F4
330
A
100
AcDbEntity
  8
02
100
AcDbCircle
 10
218.7819948969312
 20
218.5566037735851
 30
0.0
 40
1.0
100
AcDbArc
 50
359.9999999999998
 51
89.99999989715993
  0
LINE
  5
3F5
330
A
100
AcDbEntity
  8
02
100
AcDbLine
 10
219.7819948969311
 20
218.5566037735851
 30
0.0
 11
219.7819948969311
 21
215.5566037735851
 31
0.0
  0
ARC
  5
3F6
330
A
100
AcDbEntity
  8
02
100
AcDbCircle
 10
218.7819948969312
 20
215.5566037735851
 30
0.0
 40
1.0
100
AcDbArc
 50
269.99999969148
 51
359.9999995886399
  0
LINE
  5
3F7
330
A
100
AcDbEntity
  8
02
100
AcDbLine
 10
218.7819948969312
 20
214.556603773585
 30
0.0
 11
216.7819948969312
 21
214.556603773585
 31
0.0
  0
ARC
  5
3F8
330
A
100
AcDbEntity
  8
02
100
AcDbCircle
 10
216.7819948969312
 20
213.5566037735851
 30
0.0
 40
1.0
100
AcDbArc
 50
89.99999989715993
 51
179.9999997943199
  0
LINE
  5
3F9
330
A
100
AcDbEntity
  8
02
100
AcDbLine
 10
215.7819948969311
 20
213.5566037735851
 30
0.0
 11
215.7819948969311
 21
210.556603773585
 31
0.0
  0
ARC
  5
3FA
330
A
100
AcDbEntity
  8
02
100
AcDbCircle
 10
216.7819948969312
 20
210.556603773585
 30
0.0
 40
1.0
100
AcDbArc
 50
179.9999997943199
 51
269.99999969148
  0
LINE
  5
3FB
330
A
100
AcDbEntity
  8
02
100
AcDbLine
 10
216.7819948969312
 20
209.5566037735851
 30
0.0
 11
218.7819948969312
 21
209.5566037735851
 31
0.0
  0
ARC
  5
3FC
330
A
100
AcDbEntity
  8
02
100
AcDbCircle
 10
218.7819948969312
 20
208.556603773585
 30
0.0
 40
1.0
100
AcDbArc
 50
359.9999999999998
 51
89.99999989715993
  0
LINE
  5
3FD
330
A
100
AcDbEntity
  8
02
100
AcDbLine
 10
219.7819948969311
 20
208.556603773585
 30
0.0
 11
219.7819948969311
 21
206.556603773585
 31
0.0
  0
ARC
  5
3FE
330
A
100
AcDbEntity
  8
02
100
AcDbCircle
 10
218.7819948969312
 20
206.556603773585
 30
0.0
 40
1.0
100
AcDbArc
 50
269.99999969148
 51
359.9999995886399
  0
LINE
  5
3FF
330
A
100
AcDbEntity
  8
02
100
AcDbLine
 10
218.7819948969312
 20
205.5566037735851
 30
0.0
 11
188.7819948969312
 21
205.5566037735851
 31
0.0
  0
ARC
  5
400
330
A
100
AcDbEntity
  8
02
100
AcDbCircle
 10
188.7819948969312
 20
206.556603773585
 30
0.0
 40
1.0
100
AcDbArc
 50
179.9999997943199
 51
269.99999969148
  0
ARC
  5
401
330
A
100
AcDbEntity
  8
02
100
AcDbCircle
 10
188.7819948969312
 20
238.5566037735851
 30
0.0
 40
1.0
100
AcDbArc
 50
89.99999989715993
 51
179.9999997943199
  0
LINE
  5
402
330
A
100
AcDbEntity
  8
02
100
AcDbLine
 10
188.7819948969312
 20
239.556603773585
 30
0.0
 11
192.7819948969311
 21
239.556603773585
 31
0.0
  0
ARC
  5
403
330
A
100
AcDbEntity
  8
02
100
AcDbCircle
 10
192.7819948969311
 20
238.5566037735851
 30
0.0
 40
1.0
100
AcDbArc
 50
359.9999999999998
 51
89.99999989715993
  0
LINE
  5
404
330
A
100
AcDbEntity
  8
02
100
AcDbLine
 10
193.7819948969312
 20
238.5566037735851
 30
0.0
 11
193.7819948969312
 21
217.5566037735851
 31
0.0
  0
ARC
  5
405
330
A
100
AcDbEntity
  8
02
100
AcDbCircle
 10
199.7819948969311
 20
217.5566037735851
 30
0.0
 40
6.0
100
AcDbArc
 50
179.9999997943199
 51
269.99999969148
  0
LINE
  5
406
330
A
100
AcDbEntity
  8
02
100
AcDbLine
 10
199.7819948969311
 20
211.5566037735851
 30
0.0
 11
206.7819948969312
 21
211.5566037735851
 31
0.0
  0
ARC
  5
407
330
A
100
AcDbEntity
  8
02
100
AcDbCircle
 10
206.7819948969312
 20
214.556603773585
 30
0.0
 40
3.0
100
AcDbArc
 50
269.99999969148
 51
359.9999995886399
  0
LINE
  5
408
330
A
100
AcDbEntity
  8
02
100
AcDbLine
 10
209.7819948969311
 20
214.556603773585
 30
0.0
 11
209.7819948969311
 21
218.5566037735851
 31
0.0
  0
LINE
  5
41A
330
A
100
AcDbEntity
  8
04
100
AcDbLine
 10
273.0819948969312
 20
288.8746037735848
 30
0.0
 11
231.2819948969313
 21
288.874603773585
 31
0.0
  0
LINE
  5
41B
330
A
100
AcDbEntity
  8
04
100
AcDbLine
 10
273.0819948969312
 20
292.0746037735848
 30
0.0
 11
230.0819948969313
 21
292.074603773585
 31
0.0
  0
LINE
  5
41C
330
A
100
AcDbEntity
  8
04
100
AcDbLine
 10
273.0819948969312
 20
292.0746037735848
 30
0.0
 11
273.0819948969312
 21
288.8746037735848
 31
0.0
  0
LINE
  5
41D
330
A
100
AcDbEntity
  8
04
100
AcDbLine
 10
231.2819948969314
 20
378.256021965313
 30
0.0
 11
273.0819948969314
 21
378.256021965313
 31
0.0
  0
LINE
  5
41E
330
A
100
AcDbEntity
  8
04
100
AcDbLine
 10
273.0819948969314
 20
381.4560219653128
 30
0.0
 11
273.0819948969314
 21
378.256021965313
 31
0.0
  0
LINE
  5
420
330
A
100
AcDbEntity
  8
04
100
AcDbLine
 10
231.2819948969315
 20
378.256021965313
 30
0.0
 11
231.2819948969313
 21
292.074603773585
 31
0.0
  0
LINE
  5
422
330
A
100
AcDbEntity
  8
04
100
AcDbLine
 10
228.0819948969313
 20
379.456021965313
 30
0.0
 11
228.0819948969313
 21
276.056603773585
 31
0.0
  0
ARC
  5
423
330
A
100
AcDbEntity
  8
04
100
AcDbCircle
 10
230.0819948969313
 20
379.456021965313
 30
0.0
 40
2.0
100
AcDbArc
 50
89.99999999999991
 51
179.9999999999998
  0
ARC
  5
424
330
A
100
AcDbEntity
  8
04
100
AcDbCircle
 10
230.0819948969313
 20
290.074603773585
 30
0.0
 40
2.0
100
AcDbArc
 50
89.99999999999991
 51
179.9999999999998
  0
LINE
  5
43D
330
A
100
AcDbEntity
  8
SOUZOU
100
AcDbLine
 10
298.7819948969311
 20
201.156603773585
 30
0.0
 11
298.7819948969311
 21
175.656603773585
 31
0.0
  0
LINE
  5
43E
330
A
100
AcDbEntity
  8
SOUZOU
100
AcDbLine
 10
298.7819948969311
 20
201.156603773585
 30
0.0
 11
303.2819948969311
 21
201.156603773585
 31
0.0
  0
LINE
  5
43F
330
A
100
AcDbEntity
  8
02
100
AcDbLine
 10
185.781994896931
 20
171.1566037735851
 30
0.0
 11
152.781994896931
 21
171.1566037735851
 31
0.0
  0
LINE
  5
440
330
A
100
AcDbEntity
  8
06
100
AcDbLine
 10
227.2819948969312
 20
183.556603773585
 30
0.0
 11
227.281994896931
 21
166.156603773585
 31
0.0
  0
LINE
  5
441
330
A
100
AcDbEntity
  8
06
100
AcDbLine
 10
202.2819948969312
 20
183.556603773585
 30
0.0
 11
202.281994896931
 21
166.1566037735851
 31
0.0
  0
LINE
  5
442
330
A
100
AcDbEntity
  8
06
100
AcDbLine
 10
227.281994896931
 20
164.556603773585
 30
0.0
 11
202.281994896931
 21
164.5566037735851
 31
0.0
  0
LINE
  5
443
330
A
100
AcDbEntity
  8
06
100
AcDbLine
 10
227.2819948969312
 20
174.5566037735851
 30
0.0
 11
202.2819948969312
 21
174.5566037735852
 31
0.0
  0
LINE
  5
444
330
A
100
AcDbEntity
  8
06
100
AcDbLine
 10
227.2819948969312
 20
179.556603773585
 30
0.0
 11
202.2819948969312
 21
179.5566037735852
 31
0.0
  0
LINE
  5
445
330
A
100
AcDbEntity
  8
06
100
AcDbLine
 10
227.2819948969312
 20
180.556603773585
 30
0.0
 11
202.2819948969312
 21
180.5566037735852
 31
0.0
  0
LINE
  5
446
330
A
100
AcDbEntity
  8
06
100
AcDbLine
 10
227.2819948969312
 20
181.556603773585
 30
0.0
 11
202.2819948969312
 21
181.5566037735852
 31
0.0
  0
LINE
  5
447
330
A
100
AcDbEntity
  8
06
100
AcDbLine
 10
227.2819948969312
 20
182.556603773585
 30
0.0
 11
202.2819948969312
 21
182.5566037735852
 31
0.0
  0
LINE
  5
44B
330
A
100
AcDbEntity
  8
SOUZOU
100
AcDbLine
 10
300.2819948969311
 20
171.156603773585
 30
0.0
 11
227.281994896931
 21
171.1566037735851
 31
0.0
  0
LINE
  5
44C
330
A
100
AcDbEntity
  8
SOUZOU
100
AcDbLine
 10
298.7819948969311
 20
175.6566037735848
 30
0.0
 11
227.2819948969312
 21
175.6566037735851
 31
0.0
  0
LINE
  5
44D
330
A
100
AcDbEntity
  8
KAKURE
100
AcDbLine
 10
157.7819948969315
 20
463.5566037735852
 30
0.0
 11
142.5819948969314
 21
463.5566037735852
 31
0.0
  0
LINE
  5
44E
330
A
100
AcDbEntity
  8
KAKURE
100
AcDbLine
 10
157.7819948969315
 20
455.5566037735852
 30
0.0
 11
142.5819948969314
 21
455.5566037735852
 31
0.0
  0
LINE
  5
44F
330
A
100
AcDbEntity
  8
KAKURE
100
AcDbLine
 10
142.5819948969314
 20
463.5566037735852
 30
0.0
 11
141.3819948969315
 21
462.3566037735852
 31
0.0
  0
LINE
  5
450
330
A
100
AcDbEntity
  8
KAKURE
100
AcDbLine
 10
142.5819948969314
 20
455.5566037735852
 30
0.0
 11
141.3819948969315
 21
456.7566037735852
 31
0.0
  0
LINE
  5
451
330
A
100
AcDbEntity
  8
KAKURE
100
AcDbLine
 10
141.3819948969315
 20
456.7566037735852
 30
0.0
 11
141.3819948969315
 21
462.3566037735852
 31
0.0
  0
LINE
  5
455
330
A
100
AcDbEntity
  8
KAKURE
100
AcDbLine
 10
152.7819948969316
 20
382.0566037735849
 30
0.0
 11
146.7819948969314
 21
382.0566037735849
 31
0.0
  0
LINE
  5
456
330
A
100
AcDbEntity
  8
KAKURE
100
AcDbLine
 10
152.7819948969315
 20
377.0566037735849
 30
0.0
 11
146.7819948969314
 21
377.0566037735849
 31
0.0
  0
LINE
  5
457
330
A
100
AcDbEntity
  8
KAKURE
100
AcDbLine
 10
152.7819948969315
 20
377.5566037735849
 30
0.0
 11
146.7819948969314
 21
377.5566037735849
 31
0.0
  0
LINE
  5
458
330
A
100
AcDbEntity
  8
KAKURE
100
AcDbLine
 10
152.7819948969316
 20
381.5566037735849
 30
0.0
 11
146.7819948969314
 21
381.556603773585
 31
0.0
  0
LINE
  5
459
330
A
100
AcDbEntity
  8
KAKURE
100
AcDbLine
 10
152.7819948969315
 20
332.0566037735848
 30
0.0
 11
146.7819948969313
 21
332.0566037735848
 31
0.0
  0
LINE
  5
45A
330
A
100
AcDbEntity
  8
KAKURE
100
AcDbLine
 10
152.7819948969315
 20
327.0566037735848
 30
0.0
 11
146.7819948969313
 21
327.0566037735848
 31
0.0
  0
LINE
  5
45B
330
A
100
AcDbEntity
  8
KAKURE
100
AcDbLine
 10
152.7819948969315
 20
327.5566037735848
 30
0.0
 11
146.7819948969313
 21
327.5566037735848
 31
0.0
  0
LINE
  5
45C
330
A
100
AcDbEntity
  8
KAKURE
100
AcDbLine
 10
152.7819948969315
 20
331.5566037735848
 30
0.0
 11
146.7819948969313
 21
331.556603773585
 31
0.0
  0
LINE
  5
45D
330
A
100
AcDbEntity
  8
KAKURE
100
AcDbLine
 10
152.7819948969316
 20
409.5566037735848
 30
0.0
 11
146.7819948969314
 21
409.5566037735848
 31
0.0
  0
LINE
  5
45E
330
A
100
AcDbEntity
  8
KAKURE
100
AcDbLine
 10
152.7819948969316
 20
404.5566037735849
 30
0.0
 11
146.7819948969314
 21
404.5566037735849
 31
0.0
  0
LINE
  5
45F
330
A
100
AcDbEntity
  8
KAKURE
100
AcDbLine
 10
152.7819948969316
 20
405.0566037735849
 30
0.0
 11
146.7819948969314
 21
405.0566037735849
 31
0.0
  0
LINE
  5
460
330
A
100
AcDbEntity
  8
KAKURE
100
AcDbLine
 10
152.7819948969316
 20
409.0566037735849
 30
0.0
 11
146.7819948969314
 21
409.0566037735849
 31
0.0
  0
LINE
  5
461
330
A
100
AcDbEntity
  8
KAKURE
100
AcDbLine
 10
152.7819948969315
 20
304.5566037735848
 30
0.0
 11
146.7819948969313
 21
304.5566037735848
 31
0.0
  0
LINE
  5
462
330
A
100
AcDbEntity
  8
KAKURE
100
AcDbLine
 10
152.7819948969315
 20
299.5566037735848
 30
0.0
 11
146.7819948969313
 21
299.5566037735848
 31
0.0
  0
LINE
  5
463
330
A
100
AcDbEntity
  8
KAKURE
100
AcDbLine
 10
152.7819948969315
 20
300.0566037735848
 30
0.0
 11
146.7819948969313
 21
300.0566037735848
 31
0.0
  0
LINE
  5
464
330
A
100
AcDbEntity
  8
KAKURE
100
AcDbLine
 10
152.7819948969315
 20
304.0566037735848
 30
0.0
 11
146.7819948969313
 21
304.056603773585
 31
0.0
  0
LINE
  5
4CF
330
A
100
AcDbEntity
  8
CHUSIN
100
AcDbLine
 10
201.7819948969311
 20
196.056603773585
 30
0.0
 11
235.2819948969311
 21
196.056603773585
 31
0.0
  0
LINE
  5
4D0
330
A
100
AcDbEntity
  8
CHUSIN
100
AcDbLine
 10
200.2819948969312
 20
244.556603773585
 30
0.0
 11
240.7819948969311
 21
244.556603773585
 31
0.0
  0
LINE
  5
4D1
330
A
100
AcDbEntity
  8
CHUSIN
100
AcDbLine
 10
225.5061302848119
 20
217.5566037735851
 30
0.0
 11
245.8819948969312
 21
217.5566037735851
 31
0.0
  0
LINE
  5
4D2
330
A
100
AcDbEntity
  8
CHUSIN
100
AcDbLine
 10
225.5061302848119
 20
204.5566037735849
 30
0.0
 11
245.8819948969312
 21
204.5566037735849
 31
0.0
  0
TEXT
  5
4D3
330
A
100
AcDbEntity
  8
MOJI
100
AcDbText
 10
117.581994896931
 20
-126.0148074168737
 30
0.0
 40
4.0
  1
　
 50
-90.00000000000005
 41
0.8
 11
119.581994896931
 21
-126.0148074168737
 31
0.0
100
AcDbText
 73
     2
  0
TEXT
  5
4D4
330
A
100
AcDbEntity
  8
MOJI
100
AcDbText
 10
161.3869544238728
 20
330.7830840580311
 30
0.0
 40
5.0
  1
SOV-200KDC
 50
359.9999999999997
 41
0.8
  7
0_8
 11
161.3869544238728
 21
333.2830840580311
 31
0.0
100
AcDbText
 73
     2
  0
POLYLINE
  5
593
330
A
100
AcDbEntity
  8
DEFPOINTS
100
AcDb2dPolyline
 66
     1
 10
0.0
 20
0.0
 30
0.0
 70
     1
  0
VERTEX
  5
D89
330
593
100
AcDbEntity
  8
DEFPOINTS
100
AcDbVertex
100
AcDb2dVertex
 10
0.0
 20
0.0
 30
0.0
  0
VERTEX
  5
D8A
330
593
100
AcDbEntity
  8
DEFPOINTS
100
AcDbVertex
100
AcDb2dVertex
 10
420.0
 20
0.0
 30
0.0
  0
VERTEX
  5
D8B
330
593
100
AcDbEntity
  8
DEFPOINTS
100
AcDbVertex
100
AcDb2dVertex
 10
420.0
 20
594.0
 30
0.0
  0
VERTEX
  5
D8C
330
593
100
AcDbEntity
  8
DEFPOINTS
100
AcDbVertex
100
AcDb2dVertex
 10
0.0
 20
594.0
 30
0.0
  0
SEQEND
  5
D8D
330
593
100
AcDbEntity
  8
DEFPOINTS
  0
DIMENSION
  5
597
330
A
100
AcDbEntity
  8
SUNPOU
100
AcDbDimension
  2
*D1
 10
255.2819948969315
 20
526.2466591662619
 30
0.0
 11
204.0319948969314
 21
530.7466591662619
 31
0.0
 70
    32
  3
SUNPOU_2
100
AcDbAlignedDimension
 13
152.7819948969315
 23
526.2466591662619
 33
0.0
 14
255.2819948969315
 24
474.0566037735852
 34
0.0
100
AcDbRotatedDimension
  0
DIMENSION
  5
5A4
330
A
100
AcDbEntity
  8
SUNPOU
100
AcDbDimension
  2
*D2
 10
189.781994896931
 20
124.5566037735852
 30
0.0
 11
160.281994896931
 21
129.0566037735852
 31
0.0
 70
    32
  3
SUNPOU_2
100
AcDbAlignedDimension
 13
130.781994896931
 23
145.3066037735851
 33
0.0
 14
189.781994896931
 24
145.3066037735851
 34
0.0
100
AcDbRotatedDimension
  0
DIMENSION
  5
5B1
330
A
100
AcDbEntity
  8
SUNPOU
100
AcDbDimension
  2
*D3
 10
194.781994896931
 20
124.5566037735852
 30
0.0
 11
192.281994896931
 21
129.0566037735852
 31
0.0
 70
    32
  3
SUNPOU_2
100
AcDbAlignedDimension
 13
189.781994896931
 23
145.3066037735851
 33
0.0
 14
194.781994896931
 24
154.5566037735851
 34
0.0
100
AcDbRotatedDimension
  0
DIMENSION
  5
5C0
330
A
100
AcDbEntity
  8
SUNPOU
100
AcDbDimension
  2
*D4
 10
234.7819948969311
 20
124.5566037735852
 30
0.0
 11
214.781994896931
 21
129.0566037735852
 31
0.0
 70
    32
  3
SUNPOU_2
100
AcDbAlignedDimension
 13
194.781994896931
 23
154.5566037735851
 33
0.0
 14
234.7819948969311
 24
154.556603773585
 34
0.0
100
AcDbRotatedDimension
  0
DIMENSION
  5
5CD
330
A
100
AcDbEntity
  8
SUNPOU
100
AcDbDimension
  2
*D5
 10
239.7819948969309
 20
124.5566037735852
 30
0.0
 11
237.281994896931
 21
129.0566037735852
 31
0.0
 70
    32
  3
SUNPOU_2
100
AcDbAlignedDimension
 13
234.7819948969311
 23
154.556603773585
 33
0.0
 14
239.7819948969309
 24
145.3066037735851
 34
0.0
100
AcDbRotatedDimension
  0
DIMENSION
  5
5DC
330
A
100
AcDbEntity
  8
SUNPOU
100
AcDbDimension
  2
*D6
 10
304.7819948969311
 20
124.5566037735852
 30
0.0
 11
272.281994896931
 21
129.0566037735852
 31
0.0
 70
    32
  3
SUNPOU_2
100
AcDbAlignedDimension
 13
239.7819948969309
 23
145.3066037735851
 33
0.0
 14
304.7819948969311
 24
145.3066037735851
 34
0.0
100
AcDbRotatedDimension
  0
DIMENSION
  5
5E9
330
A
100
AcDbEntity
  8
SUNPOU
100
AcDbDimension
  2
*D7
 10
130.781994896931
 20
108.7566037735852
 30
0.0
 11
120.2500633233714
 21
113.2566037735852
 31
0.0
 70
   160
  3
SUNPOU_2
100
AcDbAlignedDimension
 13
127.781994896931
 23
108.7566037735852
 33
0.0
 14
130.781994896931
 24
145.3066037735851
 34
0.0
100
AcDbRotatedDimension
  0
DIMENSION
  5
5F8
330
A
100
AcDbEntity
  8
SUNPOU
100
AcDbDimension
  2
*D8
 10
304.7819948969311
 20
108.7566037735852
 30
0.0
 11
217.7819948969311
 21
113.2566037735852
 31
0.0
 70
    32
  3
SUNPOU_2
100
AcDbAlignedDimension
 13
130.781994896931
 23
145.3066037735851
 33
0.0
 14
304.7819948969311
 24
145.3066037735851
 34
0.0
100
AcDbRotatedDimension
  0
DIMENSION
  5
605
330
A
100
AcDbEntity
  8
SUNPOU
100
AcDbDimension
  2
*D9
 10
307.781994896931
 20
108.7566037735852
 30
0.0
 11
315.6005134070718
 21
113.2566037735852
 31
0.0
 70
   160
  3
SUNPOU_2
100
AcDbAlignedDimension
 13
304.7819948969311
 23
145.3066037735851
 33
0.0
 14
307.781994896931
 24
108.756603773585
 34
0.0
100
AcDbRotatedDimension
  0
DIMENSION
  5
614
330
A
100
AcDbEntity
  8
SUNPOU
100
AcDbDimension
  2
*D10
 10
307.781994896931
 20
92.95660377358514
 30
0.0
 11
217.7819948969311
 21
97.45660377358513
 31
0.0
 70
    32
  3
SUNPOU_2
100
AcDbAlignedDimension
 13
127.781994896931
 23
92.9566037735853
 33
0.0
 14
307.781994896931
 24
92.95660377358514
 34
0.0
100
AcDbRotatedDimension
  0
DIMENSION
  5
699
330
A
100
AcDbEntity
  8
SUNPOU
100
AcDbDimension
  2
*D11
 10
182.7819948969315
 20
516.0566037735851
 30
0.0
 11
178.2819948969314
 21
466.7750507260136
 31
0.0
 70
   160
  3
SUNPOU_2
100
AcDbAlignedDimension
 13
160.7819948969313
 23
403.0566037735852
 33
0.0
 14
160.7819948969313
 24
516.0566037735851
 34
0.0
 50
90.0
100
AcDbRotatedDimension
  0
DIMENSION
  5
6B8
330
A
100
AcDbEntity
  8
SUNPOU
100
AcDbDimension
  2
*D12
 10
327.7819948969311
 20
183.556603773585
 30
0.0
 11
323.2819948969311
 21
164.0566037735851
 31
0.0
 70
    32
  3
SUNPOU_2
100
AcDbAlignedDimension
 13
304.0319948969311
 23
144.5566037735851
 33
0.0
 14
231.281994896931
 24
183.556603773585
 34
0.0
 50
90.0
100
AcDbRotatedDimension
  0
DIMENSION
  5
6C5
330
A
100
AcDbEntity
  8
SUNPOU
100
AcDbDimension
  2
*D13
 10
342.7819948969311
 20
229.556603773585
 30
0.0
 11
338.2819948969311
 21
187.0566037735851
 31
0.0
 70
    32
  3
SUNPOU_2
100
AcDbAlignedDimension
 13
304.0319948969311
 23
144.5566037735851
 33
0.0
 14
198.7194067560839
 24
229.556603773585
 34
0.0
 50
90.0
100
AcDbRotatedDimension
  0
DIMENSION
  5
6D2
330
A
100
AcDbEntity
  8
SUNPOU
100
AcDbDimension
  2
*D14
 10
342.7819948969311
 20
354.5566037735848
 30
0.0
 11
338.2819948969311
 21
292.056603773585
 31
0.0
 70
    32
  3
SUNPOU_2
100
AcDbAlignedDimension
 13
198.7194067560839
 23
229.556603773585
 33
0.0
 14
290.5126893766364
 24
354.5566037735848
 34
0.0
 50
90.0
100
AcDbRotatedDimension
  0
DIMENSION
  5
6DF
330
A
100
AcDbEntity
  8
SUNPOU
100
AcDbDimension
  2
*D15
 10
357.7819948969314
 20
459.5566037735851
 30
0.0
 11
353.2819948969312
 21
302.0573840025343
 31
0.0
 70
    32
  3
SUNPOU_2
100
AcDbAlignedDimension
 13
304.0803503704466
 23
144.5581642314834
 33
0.0
 14
259.7823826992061
 24
459.5566037735851
 34
0.0
 50
90.0
100
AcDbRotatedDimension
  0
DIMENSION
  5
6EC
330
A
100
AcDbEntity
  8
SUNPOU
100
AcDbDimension
  2
*D16
 10
92.78199489693143
 20
407.0566037735849
 30
0.0
 11
88.28199489693139
 21
354.5566037735849
 31
0.0
 70
    32
  3
SUNPOU_2
100
AcDbAlignedDimension
 13
145.6856776164781
 23
302.0566037735848
 33
0.0
 14
145.6856776164781
 24
407.0566037735849
 34
0.0
 50
90.0
100
AcDbRotatedDimension
  0
DIMENSION
  5
6F9
330
A
100
AcDbEntity
  8
SUNPOU
100
AcDbDimension
  2
*D17
 10
107.7819948969313
 20
379.5566037735849
 30
0.0
 11
103.2819948969313
 21
354.5566037735849
 31
0.0
 70
    32
  3
SUNPOU_2
100
AcDbAlignedDimension
 13
145.6856776164781
 23
329.5566037735848
 33
0.0
 14
144.8856776164783
 24
379.5566037735849
 34
0.0
 50
90.0
100
AcDbRotatedDimension
  0
DIMENSION
  5
70F
330
A
100
AcDbEntity
  8
SUNPOU
100
AcDbDimension
  2
*D18
 10
77.78199489693159
 20
554.5566037735851
 30
0.0
 11
73.28199489693147
 21
349.5566037735851
 31
0.0
 70
    32
  3
SUNPOU_2
100
AcDbAlignedDimension
 13
131.531994896931
 23
144.5566037735851
 33
0.0
 14
131.5319948969315
 24
554.5566037735851
 34
0.0
 50
90.0
100
AcDbRotatedDimension
  0
LEADER
  5
71E
330
A
100
AcDbEntity
  8
HIKIDASI
100
AcDbLeader
  3
SUNPOU_2
 73
     0
 74
     0
 75
     1
 40
5.0
 41
19.19999999999999
 76
     3
 10
249.2819948969314
 20
434.2116945910066
 30
0.0
 10
315.0903159320323
 20
403.5110918723484
 30
0.0
 10
320.0903159320323
 20
403.5110918723484
 30
0.0
340
71F
1001
ACAD
1000
DSTYLE
1002
{
1070
     5
1000
OPEN30
1070
    77
1070
     1
1070
   147
1040
1.0
1070
   342
1005
57D
1002
}
1000
LEANOF
1010
0.0
1020
0.0
1030
0.0
1000
LEANOF
1010
0.0
1020
0.0
1030
0.0
  0
MTEXT
  5
71F
330
A
100
AcDbEntity
  8
HIKIDASI
100
AcDbMText
 10
322.0903159320323
 20
405.5110918723483
 30
0.0
 40
5.0
 41
0.0
 71
     7
 72
     1
  1
駆動金具
  7
SUNPOU
1001
ACAD
1000
MTEXTBEGIN
1070
    73
1070
     1
1070
    44
1040
1.0
1070
    74
1070
     0
1000
MTEXTEND
1000
MTEXTBEGIN
1070
    73
1070
     1
1070
    44
1040
1.0
1070
    74
1070
     0
1000
MTEXTEND
  0
LEADER
  5
721
330
A
100
AcDbEntity
  8
HIKIDASI
100
AcDbLeader
  3
SUNPOU_2
 73
     0
 74
     0
 75
     1
 40
13.33333333333333
 41
30.13333333333333
 76
     3
 10
234.2819948969315
 20
466.3298361646411
 30
0.0
 10
315.0644206408333
 20
513.2277513039805
 30
0.0
 10
320.0644206408333
 20
513.2277513039805
 30
0.0
340
722
213
0.0
223
8.659119358986059
233
0.0
1001
ACAD
1000
DSTYLE
1002
{
1070
     5
1000
OPEN30
1070
    77
1070
     1
1070
   147
1040
1.0
1070
   342
1005
57D
1002
}
1000
LEANOF
1010
0.0
1020
8.659119358986059
1030
0.0
1000
LEANOF
1010
0.0
1020
8.659119358986059
1030
0.0
  0
MTEXT
  5
722
330
A
100
AcDbEntity
  8
HIKIDASI
100
AcDbMText
 10
322.0644206408333
 20
506.5686319449944
 30
0.0
 40
5.0
 41
0.0
 71
     7
 72
     1
  1
自動閉鎖装置\P（{\Ftxt.shx|c0;FPS}－{\Ftxt.shx|c0;I}型）
  7
SUNPOU
1001
ACAD
1000
MTEXTBEGIN
1070
    73
1070
     1
1070
    44
1040
1.0
1070
    74
1070
     0
1000
MTEXTEND
1000
MTEXTBEGIN
1070
    73
1070
     1
1070
    44
1040
1.0
1070
    74
1070
     0
1000
MTEXTEND
  0
LEADER
  5
72A
330
A
100
AcDbEntity
  8
HIKIDASI
100
AcDbLeader
  3
SUNPOU_2
 73
     0
 74
     0
 75
     1
 40
5.0
 41
31.73333333333333
 76
     3
 10
190.0121486845453
 20
470.1880783875556
 30
0.0
 10
205.7216682421966
 20
498.2476687290823
 30
0.0
 10
210.7216682421967
 20
498.2476687290823
 30
0.0
340
72B
1001
ACAD
1000
DSTYLE
1002
{
1070
     5
1000
OPEN30
1070
    77
1070
     1
1070
   147
1040
1.0
1070
   342
1005
57D
1002
}
1000
LEANOF
1010
0.0
1020
0.0
1030
0.0
1000
LEANOF
1010
0.0
1020
0.0
1030
0.0
  0
MTEXT
  5
72B
330
A
100
AcDbEntity
  8
HIKIDASI
100
AcDbMText
 10
212.7216682421967
 20
500.2476687290823
 30
0.0
 40
5.0
 41
0.0
 71
     7
 72
     1
  1
コンストンバネ
  7
SUNPOU
1001
ACAD
1000
MTEXTBEGIN
1070
    73
1070
     1
1070
    44
1040
1.0
1070
    74
1070
     0
1000
MTEXTEND
1000
MTEXTBEGIN
1070
    73
1070
     1
1070
    44
1040
1.0
1070
    74
1070
     0
1000
MTEXTEND
  0
LEADER
  5
733
330
A
100
AcDbEntity
  8
HIKIDASI
100
AcDbLeader
  3
SUNPOU_2
 73
     0
 75
     1
 40
13.33333333333333
 41
28.0
 76
     3
 10
181.7819948969312
 20
229.556603773585
 30
0.0
 10
120.7081063072361
 20
194.8330660444191
 30
0.0
 10
115.7081063072362
 20
194.8330660444191
 30
0.0
340
734
213
0.0
223
8.82822587357964
233
0.0
1001
ACAD
1000
DSTYLE
1002
{
1070
     5
1000
OPEN30
1070
    77
1070
     1
1070
   147
1040
1.0
1070
   342
1005
57D
1002
}
1000
LEANOF
1010
0.0
1020
8.82822587357964
1030
0.0
1000
LEANOF
1010
0.0
1020
8.82822587357964
1030
0.0
  0
MTEXT
  5
734
330
A
100
AcDbEntity
  8
HIKIDASI
100
AcDbMText
 10
113.7081063072362
 20
188.0048401708394
 30
0.0
 40
5.0
 41
0.0
 71
     9
 72
     1
  1
M8タップ\P(サッシ工事)
  7
SUNPOU
1001
ACAD
1000
MTEXTBEGIN
1070
    73
1070
     1
1070
    44
1040
1.0
1070
    74
1070
     0
1000
MTEXTEND
1000
MTEXTBEGIN
1070
    73
1070
     1
1070
    44
1040
1.0
1070
    74
1070
     0
1000
MTEXTEND
  0
LEADER
  5
73B
330
A
100
AcDbEntity
  8
HIKIDASI
100
AcDbLeader
  3
SUNPOU_2
 73
     0
 75
     1
 40
5.0
 41
21.06666666666666
 76
     3
 10
146.7819948969315
 20
459.5566037735852
 30
0.0
 10
118.3630805732361
 20
487.9431133927835
 30
0.0
 10
113.363080573236
 20
487.9431133927835
 30
0.0
340
73C
1001
ACAD
1000
DSTYLE
1002
{
1070
     5
1000
OPEN30
1070
    77
1070
     1
1070
   147
1040
1.0
1070
   342
1005
57D
1002
}
1000
LEANOF
1010
0.0
1020
0.0
1030
0.0
1000
LEANOF
1010
0.0
1020
0.0
1030
0.0
  0
MTEXT
  5
73C
330
A
100
AcDbEntity
  8
HIKIDASI
100
AcDbMText
 10
111.3630805732361
 20
489.9431133927833
 30
0.0
 40
5.0
 41
0.0
 71
     9
 72
     1
  1
M8タップ
  7
SUNPOU
1001
ACAD
1000
MTEXTBEGIN
1070
    73
1070
     1
1070
    44
1040
1.0
1070
    74
1070
     0
1000
MTEXTEND
1000
MTEXTBEGIN
1070
    73
1070
     1
1070
    44
1040
1.0
1070
    74
1070
     0
1000
MTEXTEND
  0
LEADER
  5
741
330
A
100
AcDbEntity
  8
HIKIDASI
100
AcDbLeader
  3
SUNPOU_2
 73
     0
 75
     1
 40
13.33333333333333
 41
34.66666666666668
 76
     3
 10
146.7819948969313
 20
329.5566037735848
 30
0.0
 10
66.22632004661378
 20
249.1410259157638
 30
0.0
 10
61.22632004661378
 20
249.1410259157638
 30
0.0
340
742
213
0.0
223
8.673806809671305
233
0.0
1001
ACAD
1000
DSTYLE
1002
{
1070
     5
1000
OPEN30
1070
    77
1070
     1
1070
   147
1040
1.0
1070
   342
1005
57D
1002
}
1000
LEANOF
1010
0.0
1020
8.673806809671305
1030
0.0
1000
LEANOF
1010
0.0
1020
8.673806809671305
1030
0.0
  0
MTEXT
  5
742
330
A
100
AcDbEntity
  8
HIKIDASI
100
AcDbMText
 10
59.22632004661378
 20
242.4672191060925
 30
0.0
 40
5.0
 41
0.0
 71
     9
 72
     1
  1
M5タップ\P（モータ取付用）
  7
SUNPOU
1001
ACAD
1000
MTEXTBEGIN
1070
    73
1070
     1
1070
    44
1040
1.0
1070
    74
1070
     0
1000
MTEXTEND
1000
MTEXTBEGIN
1070
    73
1070
     1
1070
    44
1040
1.0
1070
    74
1070
     0
1000
MTEXTEND
  0
LEADER
  5
749
330
A
100
AcDbEntity
  8
HIKIDASI
100
AcDbLeader
  3
SUNPOU_2
 73
     0
 75
     1
 40
13.33333333333333
 41
34.66666666666667
 76
     3
 10
146.7819948969313
 20
302.0566037735848
 30
0.0
 10
66.22632004661375
 20
221.6410259157638
 30
0.0
 10
61.22632004661375
 20
221.6410259157638
 30
0.0
340
74A
213
0.0
223
8.673806809671305
233
0.0
1001
ACAD
1000
DSTYLE
1002
{
1070
     5
1000
OPEN30
1070
    77
1070
     1
1070
   147
1040
1.0
1070
   342
1005
57D
1002
}
1000
LEANOF
1010
0.0
1020
8.673806809671305
1030
0.0
1000
LEANOF
1010
0.0
1020
8.673806809671305
1030
0.0
  0
MTEXT
  5
74A
330
A
100
AcDbEntity
  8
HIKIDASI
100
AcDbMText
 10
59.22632004661375
 20
214.9672191060925
 30
0.0
 40
5.0
 41
0.0
 71
     9
 72
     1
  1
M5タップ\P（プーリ取付用）
  7
SUNPOU
1001
ACAD
1000
MTEXTBEGIN
1070
    73
1070
     1
1070
    44
1040
1.0
1070
    74
1070
     0
1000
MTEXTEND
1000
MTEXTBEGIN
1070
    73
1070
     1
1070
    44
1040
1.0
1070
    74
1070
     0
1000
MTEXTEND
  0
LINE
  5
93E
330
A
100
AcDbEntity
  8
04
100
AcDbLine
 10
204.7819948969312
 20
274.5566037735851
 30
0.0
 11
208.4422489347756
 21
274.5566037735851
 31
0.0
  0
LINE
  5
93F
330
A
100
AcDbEntity
  8
04
100
AcDbLine
 10
208.4422489347756
 20
274.5566037735851
 30
0.0
 11
209.7819948969311
 21
269.556603773585
 31
0.0
  0
LINE
  5
940
330
A
100
AcDbEntity
  8
04
100
AcDbLine
 10
209.7819948969311
 20
269.556603773585
 30
0.0
 11
219.7819948969313
 21
269.556603773585
 31
0.0
  0
LINE
  5
941
330
A
100
AcDbEntity
  8
04
100
AcDbLine
 10
219.7819948969313
 20
269.556603773585
 30
0.0
 11
221.1217408590869
 21
274.5566037735851
 31
0.0
  0
LINE
  5
942
330
A
100
AcDbEntity
  8
04
100
AcDbLine
 10
221.1217408590869
 20
274.5566037735851
 30
0.0
 11
224.7819948969313
 21
274.5566037735851
 31
0.0
  0
LINE
  5
943
330
A
100
AcDbEntity
  8
04
100
AcDbLine
 10
224.7819948969313
 20
274.5566037735851
 30
0.0
 11
224.7819948969311
 21
214.556603773585
 31
0.0
  0
LINE
  5
944
330
A
100
AcDbEntity
  8
04
100
AcDbLine
 10
224.7819948969311
 20
214.556603773585
 30
0.0
 11
221.1217408590868
 21
214.556603773585
 31
0.0
  0
LINE
  5
945
330
A
100
AcDbEntity
  8
04
100
AcDbLine
 10
221.1217408590868
 20
214.556603773585
 30
0.0
 11
219.7819948969311
 21
219.556603773585
 31
0.0
  0
LINE
  5
946
330
A
100
AcDbEntity
  8
04
100
AcDbLine
 10
219.7819948969311
 20
219.556603773585
 30
0.0
 11
209.7819948969311
 21
219.556603773585
 31
0.0
  0
LINE
  5
947
330
A
100
AcDbEntity
  8
04
100
AcDbLine
 10
209.7819948969311
 20
219.556603773585
 30
0.0
 11
208.4422489347756
 21
214.5566037735852
 31
0.0
  0
LINE
  5
948
330
A
100
AcDbEntity
  8
04
100
AcDbLine
 10
208.4422489347756
 20
214.5566037735852
 30
0.0
 11
204.7819948969312
 21
214.556603773585
 31
0.0
  0
LINE
  5
949
330
A
100
AcDbEntity
  8
04
100
AcDbLine
 10
204.7819948969312
 20
214.556603773585
 30
0.0
 11
204.781994896932
 21
274.5566037735851
 31
0.0
  0
LINE
  5
94A
330
A
100
AcDbEntity
  8
04
100
AcDbLine
 10
231.2819948969313
 20
275.556603773585
 30
0.0
 11
235.7819948969313
 21
275.556603773585
 31
0.0
  0
LINE
  5
94B
330
A
100
AcDbEntity
  8
04
100
AcDbLine
 10
235.7819948969313
 20
275.556603773585
 30
0.0
 11
235.7819948969313
 21
194.5566037735851
 31
0.0
  0
LINE
  5
94C
330
A
100
AcDbEntity
  8
04
100
AcDbLine
 10
235.7819948969313
 20
194.5566037735851
 30
0.0
 11
231.2819948969312
 21
194.5566037735851
 31
0.0
  0
LINE
  5
94D
330
A
100
AcDbEntity
  8
04
100
AcDbLine
 10
231.2819948969312
 20
183.556603773585
 30
0.0
 11
231.2819948969313
 21
276.0566037735851
 31
0.0
  0
LINE
  5
94E
330
A
100
AcDbEntity
  8
04
100
AcDbLine
 10
231.2819948969312
 20
225.5566037735849
 30
0.0
 11
226.7819948969311
 21
225.5566037735849
 31
0.0
  0
LINE
  5
94F
330
A
100
AcDbEntity
  8
04
100
AcDbLine
 10
226.7819948969311
 20
225.5566037735849
 30
0.0
 11
226.7819948969311
 21
188.0566037735851
 31
0.0
  0
LINE
  5
951
330
A
100
AcDbEntity
  8
04
100
AcDbLine
 10
231.281994896931
 20
183.556603773585
 30
0.0
 11
202.2819948969312
 21
183.556603773585
 31
0.0
  0
LINE
  5
952
330
A
100
AcDbEntity
  8
04
100
AcDbLine
 10
203.2819948969311
 20
183.556603773585
 30
0.0
 11
203.2819948969311
 21
188.0566037735851
 31
0.0
  0
LINE
  5
953
330
A
100
AcDbEntity
  8
04
100
AcDbLine
 10
224.7819948969313
 20
255.526258888188
 30
0.0
 11
231.2819948969312
 21
255.526258888188
 31
0.0
  0
LINE
  5
954
330
A
100
AcDbEntity
  8
04
100
AcDbLine
 10
224.7819948969311
 20
233.5869486589821
 30
0.0
 11
231.2819948969312
 21
233.5869486589821
 31
0.0
  0
LINE
  5
955
330
A
100
AcDbEntity
  8
04
100
AcDbLine
 10
231.2819948969313
 20
257.056603773585
 30
0.0
 11
226.2819948969311
 21
257.056603773585
 31
0.0
  0
LINE
  5
956
330
A
100
AcDbEntity
  8
04
100
AcDbLine
 10
226.2819948969311
 20
257.056603773585
 30
0.0
 11
226.2819948969313
 21
276.0566037735851
 31
0.0
  0
LINE
  5
957
330
A
100
AcDbEntity
  8
04
100
AcDbLine
 10
226.2819948969313
 20
276.0566037735851
 30
0.0
 11
231.2819948969313
 21
276.0566037735851
 31
0.0
  0
LINE
  5
958
330
A
100
AcDbEntity
  8
04
100
AcDbLine
 10
197.3819948969311
 20
237.066603773585
 30
0.0
 11
202.1819948969313
 21
237.066603773585
 31
0.0
  0
LINE
  5
959
330
A
100
AcDbEntity
  8
04
100
AcDbLine
 10
202.1819948969313
 20
237.066603773585
 30
0.0
 11
202.8819948969311
 21
235.8566037735851
 31
0.0
  0
LINE
  5
95A
330
A
100
AcDbEntity
  8
04
100
AcDbLine
 10
202.8819948969311
 20
235.8566037735851
 30
0.0
 11
202.8819948969311
 21
223.256603773585
 31
0.0
  0
LINE
  5
95B
330
A
100
AcDbEntity
  8
04
100
AcDbLine
 10
202.8819948969311
 20
223.256603773585
 30
0.0
 11
202.1819948969311
 21
222.046603773585
 31
0.0
  0
LINE
  5
95C
330
A
100
AcDbEntity
  8
04
100
AcDbLine
 10
202.1819948969311
 20
222.046603773585
 30
0.0
 11
197.3819948969311
 21
222.046603773585
 31
0.0
  0
LINE
  5
95D
330
A
100
AcDbEntity
  8
04
100
AcDbLine
 10
197.3819948969311
 20
222.046603773585
 30
0.0
 11
197.3819948969311
 21
221.856603773585
 31
0.0
  0
LINE
  5
95E
330
A
100
AcDbEntity
  8
04
100
AcDbLine
 10
197.3819948969311
 20
221.856603773585
 30
0.0
 11
195.3819948969312
 21
221.856603773585
 31
0.0
  0
LINE
  5
95F
330
A
100
AcDbEntity
  8
04
100
AcDbLine
 10
195.3819948969312
 20
221.856603773585
 30
0.0
 11
195.3819948969312
 21
221.056603773585
 31
0.0
  0
LINE
  5
960
330
A
100
AcDbEntity
  8
04
100
AcDbLine
 10
195.3819948969312
 20
221.056603773585
 30
0.0
 11
193.7819948969312
 21
221.056603773585
 31
0.0
  0
LINE
  5
961
330
A
100
AcDbEntity
  8
04
100
AcDbLine
 10
193.7819948969312
 20
221.056603773585
 30
0.0
 11
193.7819948969312
 21
238.056603773585
 31
0.0
  0
LINE
  5
962
330
A
100
AcDbEntity
  8
04
100
AcDbLine
 10
193.7819948969312
 20
238.056603773585
 30
0.0
 11
195.3819948969312
 21
238.056603773585
 31
0.0
  0
LINE
  5
963
330
A
100
AcDbEntity
  8
04
100
AcDbLine
 10
195.3819948969312
 20
238.056603773585
 30
0.0
 11
195.3819948969312
 21
237.256603773585
 31
0.0
  0
LINE
  5
964
330
A
100
AcDbEntity
  8
04
100
AcDbLine
 10
195.3819948969312
 20
237.256603773585
 30
0.0
 11
197.3819948969311
 21
237.256603773585
 31
0.0
  0
LINE
  5
965
330
A
100
AcDbEntity
  8
04
100
AcDbLine
 10
197.3819948969311
 20
237.256603773585
 30
0.0
 11
197.3819948969311
 21
237.066603773585
 31
0.0
  0
LINE
  5
966
330
A
100
AcDbEntity
  8
04
100
AcDbLine
 10
235.7819948969313
 20
272.806603773585
 30
0.0
 11
237.3819948969313
 21
272.806603773585
 31
0.0
  0
LINE
  5
967
330
A
100
AcDbEntity
  8
04
100
AcDbLine
 10
237.3819948969313
 20
272.806603773585
 30
0.0
 11
237.3819948969313
 21
272.656603773585
 31
0.0
  0
LINE
  5
968
330
A
100
AcDbEntity
  8
04
100
AcDbLine
 10
237.3819948969313
 20
272.656603773585
 30
0.0
 11
238.8819948969311
 21
272.656603773585
 31
0.0
  0
LINE
  5
969
330
A
100
AcDbEntity
  8
04
100
AcDbLine
 10
238.8819948969311
 20
272.656603773585
 30
0.0
 11
238.8819948969313
 21
272.330103773585
 31
0.0
  0
LINE
  5
96A
330
A
100
AcDbEntity
  8
04
100
AcDbLine
 10
238.8819948969313
 20
272.330103773585
 30
0.0
 11
242.3776796719312
 21
272.330103773585
 31
0.0
  0
LINE
  5
96B
330
A
100
AcDbEntity
  8
04
100
AcDbLine
 10
242.3776796719312
 20
272.330103773585
 30
0.0
 11
242.8819948969313
 21
271.456603773585
 31
0.0
  0
LINE
  5
96C
330
A
100
AcDbEntity
  8
04
100
AcDbLine
 10
242.8819948969313
 20
271.456603773585
 30
0.0
 11
242.8819948969313
 21
261.656603773585
 31
0.0
  0
LINE
  5
96D
330
A
100
AcDbEntity
  8
04
100
AcDbLine
 10
242.8819948969313
 20
261.656603773585
 30
0.0
 11
242.3775580188781
 21
260.7829225785756
 31
0.0
  0
LINE
  5
96E
330
A
100
AcDbEntity
  8
04
100
AcDbLine
 10
242.3775580188781
 20
260.7829225785756
 30
0.0
 11
238.8819948969313
 21
260.783103773585
 31
0.0
  0
LINE
  5
96F
330
A
100
AcDbEntity
  8
04
100
AcDbLine
 10
238.8819948969313
 20
260.783103773585
 30
0.0
 11
238.8819948969313
 21
260.456603773585
 31
0.0
  0
LINE
  5
970
330
A
100
AcDbEntity
  8
04
100
AcDbLine
 10
238.8819948969313
 20
260.456603773585
 30
0.0
 11
237.3819948969313
 21
260.456603773585
 31
0.0
  0
LINE
  5
971
330
A
100
AcDbEntity
  8
04
100
AcDbLine
 10
237.3819948969313
 20
260.456603773585
 30
0.0
 11
237.3819948969313
 21
260.306603773585
 31
0.0
  0
LINE
  5
972
330
A
100
AcDbEntity
  8
04
100
AcDbLine
 10
237.3819948969313
 20
260.306603773585
 30
0.0
 11
235.7819948969313
 21
260.306603773585
 31
0.0
  0
LINE
  5
973
330
A
100
AcDbEntity
  8
04
100
AcDbLine
 10
235.7819948969312
 20
223.8066037735851
 30
0.0
 11
237.3819948969312
 21
223.8066037735851
 31
0.0
  0
LINE
  5
974
330
A
100
AcDbEntity
  8
04
100
AcDbLine
 10
237.3819948969312
 20
223.8066037735851
 30
0.0
 11
237.3819948969312
 21
223.6566037735851
 31
0.0
  0
LINE
  5
975
330
A
100
AcDbEntity
  8
04
100
AcDbLine
 10
237.3819948969312
 20
223.6566037735851
 30
0.0
 11
238.8819948969311
 21
223.6566037735851
 31
0.0
  0
LINE
  5
976
330
A
100
AcDbEntity
  8
04
100
AcDbLine
 10
238.8819948969311
 20
223.6566037735851
 30
0.0
 11
238.8819948969311
 21
223.330103773585
 31
0.0
  0
LINE
  5
977
330
A
100
AcDbEntity
  8
04
100
AcDbLine
 10
238.8819948969311
 20
223.330103773585
 30
0.0
 11
242.3775516975871
 21
223.3302942044061
 31
0.0
  0
LINE
  5
978
330
A
100
AcDbEntity
  8
04
100
AcDbLine
 10
242.3775516975871
 20
223.3302942044061
 30
0.0
 11
242.8819948969311
 21
222.456603773585
 31
0.0
  0
LINE
  5
979
330
A
100
AcDbEntity
  8
04
100
AcDbLine
 10
242.8819948969311
 20
222.456603773585
 30
0.0
 11
242.8819948969311
 21
212.656603773585
 31
0.0
  0
LINE
  5
97A
330
A
100
AcDbEntity
  8
04
100
AcDbLine
 10
242.8819948969311
 20
212.656603773585
 30
0.0
 11
242.3776796719312
 21
211.783103773585
 31
0.0
  0
LINE
  5
97B
330
A
100
AcDbEntity
  8
04
100
AcDbLine
 10
242.3776796719312
 20
211.783103773585
 30
0.0
 11
238.8819948969311
 21
211.783103773585
 31
0.0
  0
LINE
  5
97C
330
A
100
AcDbEntity
  8
04
100
AcDbLine
 10
238.8819948969311
 20
211.783103773585
 30
0.0
 11
238.881994896931
 21
211.456603773585
 31
0.0
  0
LINE
  5
97D
330
A
100
AcDbEntity
  8
04
100
AcDbLine
 10
238.881994896931
 20
211.456603773585
 30
0.0
 11
237.3819948969312
 21
211.456603773585
 31
0.0
  0
LINE
  5
97E
330
A
100
AcDbEntity
  8
04
100
AcDbLine
 10
237.3819948969312
 20
211.456603773585
 30
0.0
 11
237.3819948969312
 21
211.306603773585
 31
0.0
  0
LINE
  5
97F
330
A
100
AcDbEntity
  8
04
100
AcDbLine
 10
237.3819948969312
 20
211.306603773585
 30
0.0
 11
235.7819948969313
 21
211.306603773585
 31
0.0
  0
LINE
  5
981
330
A
100
AcDbEntity
  8
04
100
AcDbLine
 10
235.7819948969313
 20
210.8066037735849
 30
0.0
 11
237.3819948969312
 21
210.8066037735849
 31
0.0
  0
LINE
  5
982
330
A
100
AcDbEntity
  8
04
100
AcDbLine
 10
237.3819948969312
 20
210.8066037735849
 30
0.0
 11
237.3819948969312
 21
210.656603773585
 31
0.0
  0
LINE
  5
983
330
A
100
AcDbEntity
  8
04
100
AcDbLine
 10
237.3819948969312
 20
210.656603773585
 30
0.0
 11
238.881994896931
 21
210.656603773585
 31
0.0
  0
LINE
  5
984
330
A
100
AcDbEntity
  8
04
100
AcDbLine
 10
238.881994896931
 20
210.656603773585
 30
0.0
 11
238.8819948969311
 21
210.330103773585
 31
0.0
  0
LINE
  5
985
330
A
100
AcDbEntity
  8
04
100
AcDbLine
 10
238.8819948969311
 20
210.330103773585
 30
0.0
 11
242.3776796719312
 21
210.330103773585
 31
0.0
  0
LINE
  5
986
330
A
100
AcDbEntity
  8
04
100
AcDbLine
 10
242.3776796719312
 20
210.330103773585
 30
0.0
 11
242.8819948969311
 21
209.456603773585
 31
0.0
  0
LINE
  5
987
330
A
100
AcDbEntity
  8
04
100
AcDbLine
 10
242.8819948969311
 20
209.456603773585
 30
0.0
 11
242.8819948969311
 21
199.6566037735851
 31
0.0
  0
LINE
  5
988
330
A
100
AcDbEntity
  8
04
100
AcDbLine
 10
242.8819948969311
 20
199.6566037735851
 30
0.0
 11
242.3776796719312
 21
198.783103773585
 31
0.0
  0
LINE
  5
989
330
A
100
AcDbEntity
  8
04
100
AcDbLine
 10
242.3776796719312
 20
198.783103773585
 30
0.0
 11
238.8819948969311
 21
198.783103773585
 31
0.0
  0
LINE
  5
98A
330
A
100
AcDbEntity
  8
04
100
AcDbLine
 10
238.8819948969311
 20
198.783103773585
 30
0.0
 11
238.8819948969311
 21
198.456603773585
 31
0.0
  0
LINE
  5
98B
330
A
100
AcDbEntity
  8
04
100
AcDbLine
 10
238.8819948969311
 20
198.456603773585
 30
0.0
 11
237.381994896931
 21
198.456603773585
 31
0.0
  0
LINE
  5
98C
330
A
100
AcDbEntity
  8
04
100
AcDbLine
 10
237.381994896931
 20
198.456603773585
 30
0.0
 11
237.381994896931
 21
198.3066037735851
 31
0.0
  0
LINE
  5
98D
330
A
100
AcDbEntity
  8
04
100
AcDbLine
 10
237.381994896931
 20
198.3066037735851
 30
0.0
 11
235.7819948969313
 21
198.3066037735851
 31
0.0
  0
LINE
  5
98E
330
A
100
AcDbEntity
  8
04
100
AcDbLine
 10
226.7819948969311
 20
203.5566037735851
 30
0.0
 11
218.7819948969312
 21
203.5566037735851
 31
0.0
  0
LINE
  5
98F
330
A
100
AcDbEntity
  8
04
100
AcDbLine
 10
218.7819948969312
 20
203.5566037735851
 30
0.0
 11
218.7819948969312
 21
205.056603773585
 31
0.0
  0
LINE
  5
990
330
A
100
AcDbEntity
  8
04
100
AcDbLine
 10
218.7819948969312
 20
205.056603773585
 30
0.0
 11
208.2819948969311
 21
205.056603773585
 31
0.0
  0
LINE
  5
991
330
A
100
AcDbEntity
  8
04
100
AcDbLine
 10
208.2819948969311
 20
205.056603773585
 30
0.0
 11
208.2819948969311
 21
203.0451658652731
 31
0.0
  0
LINE
  5
992
330
A
100
AcDbEntity
  8
04
100
AcDbLine
 10
208.2819948969311
 20
203.0451658652731
 30
0.0
 11
207.2819948969311
 21
203.0451658652731
 31
0.0
  0
LINE
  5
993
330
A
100
AcDbEntity
  8
04
100
AcDbLine
 10
207.2819948969311
 20
203.0451658652731
 30
0.0
 11
207.2819948969311
 21
201.0566037735851
 31
0.0
  0
LINE
  5
994
330
A
100
AcDbEntity
  8
04
100
AcDbLine
 10
207.2819948969311
 20
201.0566037735851
 30
0.0
 11
205.7819948969311
 21
201.0566037735851
 31
0.0
  0
LINE
  5
995
330
A
100
AcDbEntity
  8
04
100
AcDbLine
 10
205.7819948969311
 20
201.0566037735851
 30
0.0
 11
205.7819948969311
 21
191.0566037735851
 31
0.0
  0
LINE
  5
996
330
A
100
AcDbEntity
  8
04
100
AcDbLine
 10
205.7819948969311
 20
191.0566037735851
 30
0.0
 11
207.2819948969311
 21
191.0566037735851
 31
0.0
  0
LINE
  5
997
330
A
100
AcDbEntity
  8
04
100
AcDbLine
 10
207.2819948969311
 20
191.0566037735851
 30
0.0
 11
207.2819948969311
 21
190.306603773585
 31
0.0
  0
LINE
  5
998
330
A
100
AcDbEntity
  8
04
100
AcDbLine
 10
207.2819948969311
 20
190.306603773585
 30
0.0
 11
208.2819948969311
 21
190.306603773585
 31
0.0
  0
LINE
  5
999
330
A
100
AcDbEntity
  8
04
100
AcDbLine
 10
208.2819948969311
 20
190.306603773585
 30
0.0
 11
208.2819948969311
 21
188.0566037735851
 31
0.0
  0
LINE
  5
99A
330
A
100
AcDbEntity
  8
04
100
AcDbLine
 10
226.7819948969311
 20
188.0566037735851
 30
0.0
 11
203.2819948969311
 21
188.0566037735851
 31
0.0
  0
LINE
  5
99B
330
A
100
AcDbEntity
  8
04
100
AcDbLine
 10
235.7819948969312
 20
253.0566037735851
 30
0.0
 11
236.7819948969311
 21
253.0566037735851
 31
0.0
  0
LINE
  5
99C
330
A
100
AcDbEntity
  8
04
100
AcDbLine
 10
236.7819948969311
 20
253.0566037735851
 30
0.0
 11
236.7819948969311
 21
236.0566037735849
 31
0.0
  0
LINE
  5
99D
330
A
100
AcDbEntity
  8
04
100
AcDbLine
 10
236.7819948969311
 20
236.0566037735849
 30
0.0
 11
235.7819948969312
 21
236.0566037735849
 31
0.0
  0
LINE
  5
9A8
330
A
100
AcDbEntity
  8
06
100
AcDbLine
 10
152.7819948969314
 20
413.0566037735851
 30
0.0
 11
155.781994896932
 21
413.0566037735851
 31
0.0
  0
LINE
  5
9A9
330
A
100
AcDbEntity
  8
06
100
AcDbLine
 10
155.781994896932
 20
413.0566037735851
 30
0.0
 11
155.7819948969315
 21
296.0566037735852
 31
0.0
  0
LINE
  5
9AA
330
A
100
AcDbEntity
  8
06
100
AcDbLine
 10
155.7819948969315
 20
411.5566037735836
 30
0.0
 11
157.7819948969315
 21
411.5566037735836
 31
0.0
  0
LINE
  5
9AB
330
A
100
AcDbEntity
  8
06
100
AcDbLine
 10
166.7819948969319
 20
411.5566037735836
 30
0.0
 11
166.7819948969319
 21
413.3066037735853
 31
0.0
  0
LINE
  5
9AC
330
A
100
AcDbEntity
  8
06
100
AcDbLine
 10
166.7819948969319
 20
413.3066037735853
 30
0.0
 11
169.781994896932
 21
413.3066037735853
 31
0.0
  0
LINE
  5
9AD
330
A
100
AcDbEntity
  8
06
100
AcDbLine
 10
169.781994896932
 20
413.3066037735853
 30
0.0
 11
169.781994896932
 21
411.5566037735836
 31
0.0
  0
LINE
  5
9AE
330
A
100
AcDbEntity
  8
06
100
AcDbLine
 10
169.781994896932
 20
411.5566037735836
 30
0.0
 11
182.7819948969316
 21
411.5566037735859
 31
0.0
  0
LINE
  5
9AF
330
A
100
AcDbEntity
  8
06
100
AcDbLine
 10
182.7819948969316
 20
411.5566037735859
 30
0.0
 11
182.7819948969316
 21
413.3066037735853
 31
0.0
  0
LINE
  5
9B0
330
A
100
AcDbEntity
  8
06
100
AcDbLine
 10
182.7819948969316
 20
413.3066037735853
 30
0.0
 11
185.7819948969321
 21
413.3066037735853
 31
0.0
  0
LINE
  5
9B1
330
A
100
AcDbEntity
  8
06
100
AcDbLine
 10
185.7819948969321
 20
413.3066037735853
 30
0.0
 11
185.7819948969319
 21
340.3242924528302
 31
0.0
  0
LINE
  5
9B2
330
A
100
AcDbEntity
  8
06
100
AcDbLine
 10
185.7819948969314
 20
413.0566037735851
 30
0.0
 11
285.7819948969313
 21
413.0566037735849
 31
0.0
  0
LINE
  5
9B3
330
A
100
AcDbEntity
  8
06
100
AcDbLine
 10
285.7819948969313
 20
413.0566037735849
 30
0.0
 11
285.7819948969313
 21
296.0566037735848
 31
0.0
  0
LINE
  5
9B5
330
A
100
AcDbEntity
  8
06
100
AcDbLine
 10
152.7819948969313
 20
296.0566037735852
 30
0.0
 11
155.7819948969314
 21
296.0566037735852
 31
0.0
  0
LINE
  5
9B6
330
A
100
AcDbEntity
  8
06
100
AcDbLine
 10
155.7819948969321
 20
297.5566037735822
 30
0.0
 11
166.7819948969319
 21
297.5566037735822
 31
0.0
  0
LINE
  5
9B7
330
A
100
AcDbEntity
  8
06
100
AcDbLine
 10
166.7819948969319
 20
297.5566037735822
 30
0.0
 11
166.7819948969319
 21
295.8066037735848
 31
0.0
  0
LINE
  5
9B8
330
A
100
AcDbEntity
  8
06
100
AcDbLine
 10
166.7819948969319
 20
295.8066037735848
 30
0.0
 11
169.7819948969319
 21
295.8066037735848
 31
0.0
  0
LINE
  5
9B9
330
A
100
AcDbEntity
  8
06
100
AcDbLine
 10
169.7819948969319
 20
295.8066037735848
 30
0.0
 11
169.7819948969319
 21
297.5566037735855
 31
0.0
  0
LINE
  5
9BA
330
A
100
AcDbEntity
  8
06
100
AcDbLine
 10
169.7819948969319
 20
297.5566037735855
 30
0.0
 11
182.7819948969316
 21
297.5566037735855
 31
0.0
  0
LINE
  5
9BC
330
A
100
AcDbEntity
  8
06
100
AcDbLine
 10
182.7819948969317
 20
295.8066037735848
 30
0.0
 11
185.7819948969319
 21
295.8066037735848
 31
0.0
  0
LINE
  5
9BE
330
A
100
AcDbEntity
  8
06
100
AcDbLine
 10
185.7819948969319
 20
296.0566037735852
 30
0.0
 11
228.0819948969313
 21
296.0566037735851
 31
0.0
  0
LINE
  5
9BF
330
A
100
AcDbEntity
  8
06
100
AcDbLine
 10
231.2819948969313
 20
296.0566037735851
 30
0.0
 11
285.7819948969313
 21
296.0566037735851
 31
0.0
  0
LINE
  5
9C0
330
A
100
AcDbEntity
  8
06
100
AcDbLine
 10
155.7819948969316
 20
321.5566037735825
 30
0.0
 11
166.7819948969319
 21
321.5566037735825
 31
0.0
  0
LINE
  5
9C1
330
A
100
AcDbEntity
  8
06
100
AcDbLine
 10
166.7819948969319
 20
321.5566037735825
 30
0.0
 11
166.7819948969319
 21
323.3066037735848
 31
0.0
  0
LINE
  5
9C2
330
A
100
AcDbEntity
  8
06
100
AcDbLine
 10
166.7819948969319
 20
323.3066037735848
 30
0.0
 11
169.7819948969319
 21
323.3066037735848
 31
0.0
  0
LINE
  5
9C3
330
A
100
AcDbEntity
  8
06
100
AcDbLine
 10
169.7819948969319
 20
323.3066037735848
 30
0.0
 11
169.7819948969319
 21
321.5566037735825
 31
0.0
  0
LINE
  5
9C4
330
A
100
AcDbEntity
  8
06
100
AcDbLine
 10
169.7819948969319
 20
321.5566037735825
 30
0.0
 11
182.7819948969316
 21
321.5566037735853
 31
0.0
  0
LINE
  5
9C5
330
A
100
AcDbEntity
  8
06
100
AcDbLine
 10
182.7819948969316
 20
321.5566037735853
 30
0.0
 11
182.7819948969316
 21
323.3066037735848
 31
0.0
  0
LINE
  5
9C6
330
A
100
AcDbEntity
  8
06
100
AcDbLine
 10
182.7819948969316
 20
323.3066037735848
 30
0.0
 11
185.7819948969319
 21
323.3066037735848
 31
0.0
  0
LINE
  5
9C7
330
A
100
AcDbEntity
  8
06
100
AcDbLine
 10
155.7819948969322
 20
387.5566037735826
 30
0.0
 11
166.7819948969316
 21
387.5566037735861
 31
0.0
  0
LINE
  5
9C8
330
A
100
AcDbEntity
  8
06
100
AcDbLine
 10
166.7819948969316
 20
387.5566037735861
 30
0.0
 11
166.7819948969316
 21
385.8066037735854
 31
0.0
  0
LINE
  5
9C9
330
A
100
AcDbEntity
  8
06
100
AcDbLine
 10
166.7819948969316
 20
385.8066037735854
 30
0.0
 11
169.781994896932
 21
385.8066037735854
 31
0.0
  0
LINE
  5
9CA
330
A
100
AcDbEntity
  8
06
100
AcDbLine
 10
169.781994896932
 20
385.8066037735854
 30
0.0
 11
169.781994896932
 21
387.5566037735861
 31
0.0
  0
LINE
  5
9CB
330
A
100
AcDbEntity
  8
06
100
AcDbLine
 10
169.781994896932
 20
387.5566037735861
 30
0.0
 11
182.7819948969321
 21
387.5566037735861
 31
0.0
  0
LINE
  5
9CC
330
A
100
AcDbEntity
  8
06
100
AcDbLine
 10
182.7819948969321
 20
387.5566037735861
 30
0.0
 11
182.7819948969321
 21
385.8066037735854
 31
0.0
  0
LINE
  5
9CD
330
A
100
AcDbEntity
  8
06
100
AcDbLine
 10
182.7819948969321
 20
385.8066037735854
 30
0.0
 11
185.7819948969321
 21
385.8066037735854
 31
0.0
  0
LINE
  5
9CE
330
A
100
AcDbEntity
  8
06
100
AcDbLine
 10
182.7819948969316
 20
297.5566037735855
 30
0.0
 11
182.7819948969316
 21
295.8066037735848
 31
0.0
  0
LINE
  5
9CF
330
A
100
AcDbEntity
  8
06
100
AcDbLine
 10
190.7819948969315
 20
413.0566037735851
 30
0.0
 11
190.7819948969314
 21
340.3242924528302
 31
0.0
  0
LINE
  5
9DC
330
A
100
AcDbEntity
  8
06
100
AcDbLine
 10
270.1427545655284
 20
368.4134388772339
 30
0.0
 11
275.4212354589999
 21
368.4134385402155
 31
0.0
  0
LINE
  5
9DD
330
A
100
AcDbEntity
  8
06
100
AcDbLine
 10
275.4212354589999
 20
368.4134385402155
 30
0.0
 11
276.7819948969314
 21
366.0566037735847
 31
0.0
  0
LINE
  5
9DE
330
A
100
AcDbEntity
  8
06
100
AcDbLine
 10
276.7819948969314
 20
366.0566037735847
 30
0.0
 11
276.7819948969314
 21
343.056603773585
 31
0.0
  0
LINE
  5
9DF
330
A
100
AcDbEntity
  8
06
100
AcDbLine
 10
276.7819948969314
 20
343.056603773585
 30
0.0
 11
275.4215273569314
 21
340.7002037735848
 31
0.0
  0
LINE
  5
9E0
330
A
100
AcDbEntity
  8
06
100
AcDbLine
 10
275.4215273569314
 20
340.7002037735848
 30
0.0
 11
270.142754334863
 21
340.6997690069546
 31
0.0
  0
LINE
  5
9E1
330
A
100
AcDbEntity
  8
06
100
AcDbLine
 10
270.142754334863
 20
340.6997690069546
 30
0.0
 11
268.7819948969315
 21
343.056603773585
 31
0.0
  0
LINE
  5
9E2
330
A
100
AcDbEntity
  8
06
100
AcDbLine
 10
268.7819948969315
 20
343.056603773585
 30
0.0
 11
268.7819948969316
 21
366.0566037735847
 31
0.0
  0
LINE
  5
9E3
330
A
100
AcDbEntity
  8
06
100
AcDbLine
 10
268.7819948969316
 20
366.0566037735847
 30
0.0
 11
270.1427545655284
 21
368.4134388772339
 31
0.0
  0
LINE
  5
9E4
330
A
100
AcDbEntity
  8
06
100
AcDbLine
 10
190.7819948969315
 20
405.8066037735853
 30
0.0
 11
192.3819948969311
 21
405.8066037735853
 31
0.0
  0
LINE
  5
9E5
330
A
100
AcDbEntity
  8
06
100
AcDbLine
 10
192.3819948969311
 20
405.8066037735853
 30
0.0
 11
192.3819948969311
 21
405.3301037735858
 31
0.0
  0
LINE
  5
9E6
330
A
100
AcDbEntity
  8
06
100
AcDbLine
 10
192.3819948969311
 20
405.3301037735858
 30
0.0
 11
196.8776796719313
 21
405.3301037735856
 31
0.0
  0
LINE
  5
9E7
330
A
100
AcDbEntity
  8
06
100
AcDbLine
 10
196.8776796719313
 20
405.3301037735856
 30
0.0
 11
197.3819948969311
 21
404.4566037735854
 31
0.0
  0
LINE
  5
9E8
330
A
100
AcDbEntity
  8
06
100
AcDbLine
 10
197.3819948969311
 20
404.4566037735854
 30
0.0
 11
197.3819948969311
 21
402.5566037735854
 31
0.0
  0
LINE
  5
9E9
330
A
100
AcDbEntity
  8
06
100
AcDbLine
 10
197.3819948969311
 20
402.5566037735854
 30
0.0
 11
203.7819948969322
 21
402.5566037735854
 31
0.0
  0
LINE
  5
9EA
330
A
100
AcDbEntity
  8
06
100
AcDbLine
 10
203.7819948969322
 20
402.5566037735854
 30
0.0
 11
203.7819948969322
 21
396.5566037735854
 31
0.0
  0
LINE
  5
9EB
330
A
100
AcDbEntity
  8
06
100
AcDbLine
 10
203.7819948969322
 20
396.5566037735854
 30
0.0
 11
197.3819948969311
 21
396.5566037735854
 31
0.0
  0
LINE
  5
9EC
330
A
100
AcDbEntity
  8
06
100
AcDbLine
 10
197.3819948969311
 20
396.5566037735854
 30
0.0
 11
197.3819948969311
 21
394.6566037735856
 31
0.0
  0
LINE
  5
9ED
330
A
100
AcDbEntity
  8
06
100
AcDbLine
 10
197.3819948969311
 20
394.6566037735856
 30
0.0
 11
196.8779026290618
 21
393.7834899468438
 31
0.0
  0
LINE
  5
9EE
330
A
100
AcDbEntity
  8
06
100
AcDbLine
 10
196.8779026290618
 20
393.7834899468438
 30
0.0
 11
192.3819948969311
 21
393.7834899468438
 31
0.0
  0
LINE
  5
9EF
330
A
100
AcDbEntity
  8
06
100
AcDbLine
 10
192.3819948969311
 20
393.7834899468438
 30
0.0
 11
192.3819948969311
 21
393.3066037735855
 31
0.0
  0
LINE
  5
9F0
330
A
100
AcDbEntity
  8
06
100
AcDbLine
 10
192.3819948969311
 20
393.3066037735855
 30
0.0
 11
190.7819948969315
 21
393.3066037735855
 31
0.0
  0
LINE
  5
9F1
330
A
100
AcDbEntity
  8
06
100
AcDbLine
 10
190.7819948969314
 20
315.8066037735848
 30
0.0
 11
192.381994896931
 21
315.8066037735848
 31
0.0
  0
LINE
  5
9F2
330
A
100
AcDbEntity
  8
06
100
AcDbLine
 10
192.381994896931
 20
315.8066037735848
 30
0.0
 11
192.381994896931
 21
315.3301037735851
 31
0.0
  0
LINE
  5
9F3
330
A
100
AcDbEntity
  8
06
100
AcDbLine
 10
192.381994896931
 20
315.3301037735851
 30
0.0
 11
196.8779026284241
 21
315.3297176014313
 31
0.0
  0
LINE
  5
9F4
330
A
100
AcDbEntity
  8
06
100
AcDbLine
 10
196.8779026284241
 20
315.3297176014313
 30
0.0
 11
197.381994896931
 21
314.456603773585
 31
0.0
  0
LINE
  5
9F5
330
A
100
AcDbEntity
  8
06
100
AcDbLine
 10
197.381994896931
 20
314.456603773585
 30
0.0
 11
197.381994896931
 21
312.556603773585
 31
0.0
  0
LINE
  5
9F6
330
A
100
AcDbEntity
  8
06
100
AcDbLine
 10
197.381994896931
 20
312.556603773585
 30
0.0
 11
203.7819948969318
 21
312.556603773585
 31
0.0
  0
LINE
  5
9F7
330
A
100
AcDbEntity
  8
06
100
AcDbLine
 10
203.7819948969318
 20
312.556603773585
 30
0.0
 11
203.7819948969318
 21
306.5566037735846
 31
0.0
  0
LINE
  5
9F8
330
A
100
AcDbEntity
  8
06
100
AcDbLine
 10
203.7819948969318
 20
306.5566037735846
 30
0.0
 11
197.381994896931
 21
306.5566037735846
 31
0.0
  0
LINE
  5
9F9
330
A
100
AcDbEntity
  8
06
100
AcDbLine
 10
197.381994896931
 20
306.5566037735846
 30
0.0
 11
197.381994896931
 21
304.6566037735851
 31
0.0
  0
LINE
  5
9FA
330
A
100
AcDbEntity
  8
06
100
AcDbLine
 10
197.381994896931
 20
304.6566037735851
 30
0.0
 11
196.8779026284246
 21
303.7834899457397
 31
0.0
  0
LINE
  5
9FB
330
A
100
AcDbEntity
  8
06
100
AcDbLine
 10
196.8779026284246
 20
303.7834899457397
 30
0.0
 11
192.381994896931
 21
303.7834899457397
 31
0.0
  0
LINE
  5
9FC
330
A
100
AcDbEntity
  8
06
100
AcDbLine
 10
192.381994896931
 20
303.7834899457397
 30
0.0
 11
192.381994896931
 21
303.3066037735848
 31
0.0
  0
LINE
  5
9FD
330
A
100
AcDbEntity
  8
06
100
AcDbLine
 10
192.381994896931
 20
303.3066037735848
 30
0.0
 11
190.7819948969314
 21
303.3066037735848
 31
0.0
  0
LINE
  5
A1E
330
A
100
AcDbEntity
  8
06
100
AcDbLine
 10
254.2559569527999
 20
320.5746037735845
 30
0.0
 11
263.3080328410628
 21
320.5746037735845
 31
0.0
  0
LINE
  5
A1F
330
A
100
AcDbEntity
  8
06
100
AcDbLine
 10
263.3080328410628
 20
320.5746037735845
 30
0.0
 11
266.7819948969316
 21
309.5746037735846
 31
0.0
  0
LINE
  5
A20
330
A
100
AcDbEntity
  8
06
100
AcDbLine
 10
266.7819948969316
 20
309.5746037735846
 30
0.0
 11
250.7819948969314
 21
309.5566037735848
 31
0.0
  0
LINE
  5
A21
330
A
100
AcDbEntity
  8
06
100
AcDbLine
 10
250.7819948969314
 20
309.5566037735848
 30
0.0
 11
254.2559569527999
 21
320.5746037735845
 31
0.0
  0
LINE
  5
A2A
330
A
100
AcDbEntity
  8
06
100
AcDbLine
 10
190.7819948969315
 20
326.2917024013721
 30
0.0
 11
190.7819948969314
 21
296.056603773585
 31
0.0
  0
LINE
  5
A2B
330
A
100
AcDbEntity
  8
06
100
AcDbLine
 10
185.7819948969319
 20
326.2917024013721
 30
0.0
 11
185.7819948969319
 21
295.8066037735848
 31
0.0
  0
DIMENSION
  5
AA9
330
A
100
AcDbEntity
  8
SUNPOU
100
AcDbDimension
  2
*D19
 10
187.7819948969311
 20
281.0948014995833
 30
0.0
 11
170.2819948969311
 21
285.5948014995833
 31
0.0
 70
    32
  3
SUNPOU_2
100
AcDbAlignedDimension
 13
152.7819948969312
 23
274.5566037735851
 33
0.0
 14
187.7819948969311
 24
272.5566037735851
 34
0.0
100
AcDbRotatedDimension
  0
DIMENSION
  5
AB6
330
A
100
AcDbEntity
  8
SUNPOU
100
AcDbDimension
  2
*D20
 10
214.7819948969313
 20
281.0948014995833
 30
0.0
 11
201.2819948969313
 21
285.5948014995833
 31
0.0
 70
    32
  3
SUNPOU_2
100
AcDbAlignedDimension
 13
187.7819948969311
 23
272.5566037735851
 33
0.0
 14
214.7819948969313
 24
281.0948014995833
 34
0.0
100
AcDbRotatedDimension
  0
CIRCLE
  5
B00
330
A
100
AcDbEntity
  8
SAISEN
100
AcDbCircle
 10
391.0976380784321
 20
52.54302641223159
 30
0.0
 40
5.0
  0
TEXT
  5
B01
330
A
100
AcDbEntity
  8
MOJI
100
AcDbText
 10
388.0488190392161
 20
48.27151320611588
 30
0.0
 40
8.0
  1
Ｓ
 41
0.8
  7
0_8
 11
388.0488190392161
 21
56.27151320611588
 31
0.0
100
AcDbText
 73
     3
  0
LINE
  5
B48
330
A
100
AcDbEntity
  8
04
100
AcDbLine
 10
231.2819948969313
 20
288.874603773585
 30
0.0
 11
231.2819948969313
 21
276.056603773585
 31
0.0
  0
LINE
  5
B4C
330
A
100
AcDbEntity
  8
02
100
AcDbLine
 10
133.8819948969315
 20
551.4566037735852
 30
0.0
 11
183.8819948969316
 21
551.4566037735838
 31
0.0
  0
LINE
  5
B4D
330
A
100
AcDbEntity
  8
02
100
AcDbLine
 10
133.8819948969315
 20
551.4566037735852
 30
0.0
 11
133.8819948969272
 21
501.4566037735852
 31
0.0
  0
LINE
  5
B52
330
A
100
AcDbEntity
  8
02
100
AcDbLine
 10
152.7819948969312
 20
177.156603773585
 30
0.0
 11
152.7819948969312
 21
171.1566037735851
 31
0.0
  0
LINE
  5
B53
330
A
100
AcDbEntity
  8
02
100
AcDbLine
 10
152.7819948969312
 20
274.5566037735851
 30
0.0
 11
152.7819948969312
 21
268.5566037735852
 31
0.0
  0
LINE
  5
B54
330
A
100
AcDbEntity
  8
02
100
AcDbLine
 10
187.781994896931
 20
238.5566037735851
 30
0.0
 11
187.7819948969311
 21
206.5566037771748
 31
0.0
  0
LINE
  5
B55
330
A
100
AcDbEntity
  8
06
100
AcDbLine
 10
202.2819948969312
 20
183.556603773585
 30
0.0
 11
227.2819948969312
 21
183.556603773585
 31
0.0
  0
LINE
  5
B56
330
A
100
AcDbEntity
  8
SOUZOU
100
AcDbLine
 10
303.2819948969311
 20
201.156603773585
 30
0.0
 11
303.2819948969311
 21
174.156603773585
 31
0.0
  0
LINE
  5
B6A
330
A
100
AcDbEntity
  8
04
100
AcDbLine
 10
192.7819948969316
 20
428.9566037735851
 30
0.0
 11
191.7819948969316
 21
427.9566037735851
 31
0.0
  0
LINE
  5
B6B
330
A
100
AcDbEntity
  8
04
100
AcDbLine
 10
162.2819948969315
 20
486.0566037735852
 30
0.0
 11
202.6322989667896
 21
486.0566037735852
 31
0.0
  0
LINE
  5
B6C
330
A
100
AcDbEntity
  8
04
100
AcDbLine
 10
163.8819948969315
 20
487.6566037735852
 30
0.0
 11
202.6322989667896
 21
487.6566037735852
 31
0.0
  0
LINE
  5
B6D
330
A
100
AcDbEntity
  8
04
100
AcDbLine
 10
202.6322989667895
 20
431.4566037735851
 30
0.0
 11
163.8819948969313
 21
431.4566037735851
 31
0.0
  0
LINE
  5
B6E
330
A
100
AcDbEntity
  8
04
100
AcDbLine
 10
202.6322989667895
 20
433.0566037735851
 30
0.0
 11
162.2819948969314
 21
433.0566037735851
 31
0.0
  0
LINE
  5
B6F
330
A
100
AcDbEntity
  8
04
100
AcDbLine
 10
191.7819948969314
 20
491.1566037735852
 30
0.0
 11
192.7819948969317
 21
490.1566037735848
 31
0.0
  0
LINE
  5
B70
330
A
100
AcDbEntity
  8
04
100
AcDbLine
 10
192.7819948969316
 20
418.9566037735851
 30
0.0
 11
186.2819948969316
 21
418.9566037735851
 31
0.0
  0
LINE
  5
B71
330
A
100
AcDbEntity
  8
CHUSIN
100
AcDbLine
 10
259.7823826992061
 20
459.5566037735852
 30
0.0
 11
138.32581214315
 21
459.5566037735852
 31
0.0
  0
LINE
  5
B72
330
A
100
AcDbEntity
  8
04
100
AcDbLine
 10
162.2819948969315
 20
503.0566037735852
 30
0.0
 11
162.2819948969314
 21
416.0566037735851
 31
0.0
  0
LINE
  5
B73
330
A
100
AcDbEntity
  8
04
100
AcDbLine
 10
160.7819948969314
 20
516.0566037735851
 30
0.0
 11
160.7819948969313
 21
403.0566037735852
 31
0.0
  0
LINE
  5
B74
330
A
100
AcDbEntity
  8
04
100
AcDbLine
 10
157.7819948969315
 20
516.0566037735851
 30
0.0
 11
157.7819948969313
 21
403.0566037735852
 31
0.0
  0
LINE
  5
B75
330
A
100
AcDbEntity
  8
04
100
AcDbLine
 10
165.2819948969315
 20
435.5566037735853
 30
0.0
 11
172.7819948969315
 21
437.5566037735851
 31
0.0
  0
LINE
  5
B76
330
A
100
AcDbEntity
  8
CHUSIN
100
AcDbLine
 10
187.7819948969315
 20
493.5926997810268
 30
0.0
 11
187.7819948969315
 21
424.8299085983068
 31
0.0
  0
LINE
  5
B77
330
A
100
AcDbEntity
  8
04
100
AcDbLine
 10
160.7819948969313
 20
403.0566037735852
 30
0.0
 11
157.7819948969313
 21
403.0566037735852
 31
0.0
  0
LINE
  5
B78
330
A
100
AcDbEntity
  8
CHUSIN
100
AcDbLine
 10
169.9028893763165
 20
424.0566037735852
 30
0.0
 11
152.6505308857505
 21
424.0566037735852
 31
0.0
  0
LINE
  5
B79
330
A
100
AcDbEntity
  8
04
100
AcDbLine
 10
155.3819948969313
 20
421.0566037735851
 30
0.0
 11
155.3819948969313
 21
427.0566037735853
 31
0.0
  0
LINE
  5
B7A
330
A
100
AcDbEntity
  8
04
100
AcDbLine
 10
157.7819948969313
 20
421.0566037735851
 30
0.0
 11
155.3819948969313
 21
421.0566037735851
 31
0.0
  0
LINE
  5
B7B
330
A
100
AcDbEntity
  8
04
100
AcDbLine
 10
155.3819948969313
 20
427.0566037735853
 30
0.0
 11
157.7819948969313
 21
427.0566037735853
 31
0.0
  0
LINE
  5
B7C
330
A
100
AcDbEntity
  8
04
100
AcDbLine
 10
181.7819948969314
 20
434.5566037735854
 30
0.0
 11
165.2819948969315
 21
434.5566037735852
 31
0.0
  0
ARC
  5
B7D
330
A
100
AcDbEntity
  8
04
100
AcDbCircle
 10
166.6039867711554
 20
427.0066037735849
 30
0.0
 40
2.300000000000207
100
AcDbArc
 50
14.60399026982559
 51
89.99999999999673
  0
ARC
  5
B7E
330
A
100
AcDbEntity
  8
04
100
AcDbCircle
 10
166.6039867711556
 20
421.1066037735852
 30
0.0
 40
2.299999999999998
100
AcDbArc
 50
270.0
 51
345.3960097301778
  0
LINE
  5
B7F
330
A
100
AcDbEntity
  8
04
100
AcDbLine
 10
163.8819948969315
 20
431.4566037735851
 30
0.0
 11
163.8819948969315
 21
416.0566037735851
 31
0.0
  0
LINE
  5
B80
330
A
100
AcDbEntity
  8
04
100
AcDbLine
 10
163.8819948969315
 20
416.0566037735851
 30
0.0
 11
160.7819948969313
 21
416.0566037735851
 31
0.0
  0
LINE
  5
B81
330
A
100
AcDbEntity
  8
04
100
AcDbLine
 10
165.3819948969315
 20
417.9566037735852
 30
0.0
 11
165.3819948969315
 21
418.8066037735851
 31
0.0
  0
LINE
  5
B82
330
A
100
AcDbEntity
  8
04
100
AcDbLine
 10
165.3819948969315
 20
418.8066037735851
 30
0.0
 11
166.6039867711556
 21
418.8066037735851
 31
0.0
  0
LINE
  5
B83
330
A
100
AcDbEntity
  8
04
100
AcDbLine
 10
165.3819948969315
 20
417.9566037735852
 30
0.0
 11
163.8819948969315
 21
417.9566037735852
 31
0.0
  0
LINE
  5
B84
330
A
100
AcDbEntity
  8
04
100
AcDbLine
 10
165.3819948969315
 20
429.3066037735853
 30
0.0
 11
165.3819948969315
 21
430.1566037735851
 31
0.0
  0
LINE
  5
B85
330
A
100
AcDbEntity
  8
04
100
AcDbLine
 10
166.6039867711556
 20
429.3066037735853
 30
0.0
 11
165.3819948969315
 21
429.3066037735853
 31
0.0
  0
LINE
  5
B86
330
A
100
AcDbEntity
  8
04
100
AcDbLine
 10
165.3819948969315
 20
430.1566037735851
 30
0.0
 11
163.8819948969315
 21
430.1566037735851
 31
0.0
  0
LINE
  5
B87
330
A
100
AcDbEntity
  8
04
100
AcDbLine
 10
165.2819948969315
 20
435.5566037735853
 30
0.0
 11
165.2819948969315
 21
434.5566037735852
 31
0.0
  0
ARC
  5
B88
330
A
100
AcDbEntity
  8
04
100
AcDbCircle
 10
155.2819948969314
 20
424.0566037735852
 30
0.0
 40
14.0
100
AcDbArc
 50
345.3960097301778
 51
14.60399026982202
  0
LINE
  5
B89
330
A
100
AcDbEntity
  8
04
100
AcDbLine
 10
191.7819948969316
 20
427.9566037735851
 30
0.0
 11
183.7819948969316
 21
427.9566037735851
 31
0.0
  0
LINE
  5
B8A
330
A
100
AcDbEntity
  8
04
100
AcDbLine
 10
183.7819948969316
 20
427.9566037735851
 30
0.0
 11
182.7819948969316
 21
428.9566037735851
 31
0.0
  0
LINE
  5
B8B
330
A
100
AcDbEntity
  8
04
100
AcDbLine
 10
182.7819948969314
 20
430.4566037735852
 30
0.0
 11
182.7819948969314
 21
428.9566037735851
 31
0.0
  0
LINE
  5
B8C
330
A
100
AcDbEntity
  8
04
100
AcDbLine
 10
182.7819948969314
 20
430.4566037735852
 30
0.0
 11
181.7819948969313
 21
430.4566037735852
 31
0.0
  0
LINE
  5
B8D
330
A
100
AcDbEntity
  8
04
100
AcDbLine
 10
181.7819948969313
 20
430.4566037735852
 30
0.0
 11
181.7819948969313
 21
431.4566037735851
 31
0.0
  0
LINE
  5
B8E
330
A
100
AcDbEntity
  8
04
100
AcDbLine
 10
181.7819948969314
 20
434.5566037735852
 30
0.0
 11
181.7819948969313
 21
433.0566037735851
 31
0.0
  0
LINE
  5
B8F
330
A
100
AcDbEntity
  8
04
100
AcDbLine
 10
186.2819948969316
 20
418.9566037735851
 30
0.0
 11
186.2819948969316
 21
427.9566037735851
 31
0.0
  0
LINE
  5
B90
330
A
100
AcDbEntity
  8
04
100
AcDbLine
 10
157.7819948969315
 20
516.0566037735851
 30
0.0
 11
160.7819948969314
 21
516.0566037735851
 31
0.0
  0
LINE
  5
B91
330
A
100
AcDbEntity
  8
CHUSIN
100
AcDbLine
 10
169.9028893763165
 20
497.0566037735852
 30
0.0
 11
152.6505308857505
 21
497.0566037735852
 31
0.0
  0
LINE
  5
B92
330
A
100
AcDbEntity
  8
04
100
AcDbLine
 10
142.5819948969314
 20
455.5566037735852
 30
0.0
 11
157.7819948969315
 21
455.5566037735852
 31
0.0
  0
LINE
  5
B93
330
A
100
AcDbEntity
  8
04
100
AcDbLine
 10
157.7819948969315
 20
463.5566037735852
 30
0.0
 11
142.5819948969314
 21
463.5566037735852
 31
0.0
  0
LINE
  5
B94
330
A
100
AcDbEntity
  8
04
100
AcDbLine
 10
141.3819948969315
 20
462.3566037735852
 30
0.0
 11
141.3819948969315
 21
456.7566037735852
 31
0.0
  0
LINE
  5
B95
330
A
100
AcDbEntity
  8
04
100
AcDbLine
 10
141.3819948969315
 20
456.7566037735852
 30
0.0
 11
142.5819948969314
 21
455.5566037735852
 31
0.0
  0
LINE
  5
B96
330
A
100
AcDbEntity
  8
04
100
AcDbLine
 10
142.5819948969314
 20
463.5566037735852
 30
0.0
 11
141.3819948969315
 21
462.3566037735852
 31
0.0
  0
LINE
  5
B97
330
A
100
AcDbEntity
  8
04
100
AcDbLine
 10
155.3819948969313
 20
500.0566037735851
 30
0.0
 11
155.3819948969313
 21
494.0566037735852
 31
0.0
  0
LINE
  5
B98
330
A
100
AcDbEntity
  8
04
100
AcDbLine
 10
155.3819948969313
 20
494.0566037735852
 30
0.0
 11
157.7819948969315
 21
494.0566037735852
 31
0.0
  0
LINE
  5
B99
330
A
100
AcDbEntity
  8
04
100
AcDbLine
 10
157.7819948969315
 20
500.0566037735851
 30
0.0
 11
155.3819948969313
 21
500.0566037735851
 31
0.0
  0
LINE
  5
B9A
330
A
100
AcDbEntity
  8
04
100
AcDbLine
 10
165.2819948969315
 20
484.5566037735852
 30
0.0
 11
165.2819948969315
 21
483.5566037735851
 31
0.0
  0
LINE
  5
B9B
330
A
100
AcDbEntity
  8
04
100
AcDbLine
 10
167.7819948969315
 20
481.5566037735852
 30
0.0
 11
167.7819948969315
 21
437.5566037735851
 31
0.0
  0
LINE
  5
B9C
330
A
100
AcDbEntity
  8
04
100
AcDbLine
 10
166.8819948969314
 20
465.8566037735852
 30
0.0
 11
166.8819948969314
 21
453.2566037735851
 31
0.0
  0
LINE
  5
B9D
330
A
100
AcDbEntity
  8
04
100
AcDbLine
 10
172.7819948969315
 20
437.5566037735851
 30
0.0
 11
167.7819948969315
 21
437.5566037735851
 31
0.0
  0
LINE
  5
B9E
330
A
100
AcDbEntity
  8
04
100
AcDbLine
 10
166.1859706044315
 20
452.0510537735852
 30
0.0
 11
162.2819948969315
 21
452.0510537735852
 31
0.0
  0
LINE
  5
B9F
330
A
100
AcDbEntity
  8
04
100
AcDbLine
 10
166.8819948969314
 20
453.2566037735851
 30
0.0
 11
166.1859706044315
 21
452.0510537735852
 31
0.0
  0
LINE
  5
BA0
330
A
100
AcDbEntity
  8
04
100
AcDbLine
 10
172.7819948969315
 20
481.5566037735852
 30
0.0
 11
167.7819948969315
 21
481.5566037735852
 31
0.0
  0
LINE
  5
BA1
330
A
100
AcDbEntity
  8
04
100
AcDbLine
 10
165.2819948969315
 20
483.5566037735851
 30
0.0
 11
172.7819948969315
 21
481.5566037735852
 31
0.0
  0
LINE
  5
BA2
330
A
100
AcDbEntity
  8
04
100
AcDbLine
 10
162.2819948969315
 20
467.0621537735851
 30
0.0
 11
166.1859706044315
 21
467.0621537735851
 31
0.0
  0
LINE
  5
BA3
330
A
100
AcDbEntity
  8
04
100
AcDbLine
 10
166.1859706044315
 20
467.0621537735851
 30
0.0
 11
166.8819948969314
 21
465.8566037735852
 31
0.0
  0
LINE
  5
BA4
330
A
100
AcDbEntity
  8
04
100
AcDbLine
 10
181.7819948969315
 20
484.5566037735852
 30
0.0
 11
165.2819948969315
 21
484.5566037735852
 31
0.0
  0
ARC
  5
BA5
330
A
100
AcDbEntity
  8
04
100
AcDbCircle
 10
166.6039867711556
 20
500.0066037735853
 30
0.0
 40
2.299999999999998
100
AcDbArc
 50
14.60399026982202
 51
90.0
  0
ARC
  5
BA6
330
A
100
AcDbEntity
  8
04
100
AcDbCircle
 10
166.6039867711556
 20
494.1066037735851
 30
0.0
 40
2.299999999999998
100
AcDbArc
 50
270.0
 51
345.3960097301778
  0
LINE
  5
BA7
330
A
100
AcDbEntity
  8
04
100
AcDbLine
 10
163.8819948969315
 20
503.1566037735852
 30
0.0
 11
163.8819948969315
 21
487.6566037735852
 31
0.0
  0
LINE
  5
BA8
330
A
100
AcDbEntity
  8
04
100
AcDbLine
 10
165.3819948969315
 20
491.8066037735852
 30
0.0
 11
166.6039867711556
 21
491.8066037735852
 31
0.0
  0
LINE
  5
BA9
330
A
100
AcDbEntity
  8
04
100
AcDbLine
 10
165.3819948969315
 20
490.9566037735851
 30
0.0
 11
165.3819948969315
 21
491.8066037735852
 31
0.0
  0
LINE
  5
BAA
330
A
100
AcDbEntity
  8
04
100
AcDbLine
 10
163.8819948969315
 20
490.9566037735851
 30
0.0
 11
165.3819948969315
 21
490.9566037735851
 31
0.0
  0
LINE
  5
BAB
330
A
100
AcDbEntity
  8
04
100
AcDbLine
 10
160.7819948969314
 20
503.0566037735852
 30
0.0
 11
163.8819948969315
 21
503.0566037735851
 31
0.0
  0
LINE
  5
BAC
330
A
100
AcDbEntity
  8
04
100
AcDbLine
 10
165.3819948969315
 20
502.3066037735851
 30
0.0
 11
166.6039867711556
 21
502.3066037735851
 31
0.0
  0
LINE
  5
BAD
330
A
100
AcDbEntity
  8
04
100
AcDbLine
 10
165.3819948969315
 20
503.1566037735852
 30
0.0
 11
165.3819948969315
 21
502.3066037735851
 31
0.0
  0
LINE
  5
BAE
330
A
100
AcDbEntity
  8
04
100
AcDbLine
 10
163.8819948969315
 20
503.1566037735852
 30
0.0
 11
165.3819948969315
 21
503.1566037735852
 31
0.0
  0
ARC
  5
BAF
330
A
100
AcDbEntity
  8
04
100
AcDbCircle
 10
155.2819948969315
 20
497.0566037735849
 30
0.0
 40
14.0
100
AcDbArc
 50
345.3960097301778
 51
14.60399026982202
  0
LINE
  5
BB0
330
A
100
AcDbEntity
  8
04
100
AcDbLine
 10
183.7819948969318
 20
491.1566037735851
 30
0.0
 11
191.7819948969314
 21
491.1566037735852
 31
0.0
  0
LINE
  5
BB1
330
A
100
AcDbEntity
  8
04
100
AcDbLine
 10
181.7819948969316
 20
486.0566037735852
 30
0.0
 11
181.7819948969315
 21
484.5566037735852
 31
0.0
  0
LINE
  5
BB2
330
A
100
AcDbEntity
  8
04
100
AcDbLine
 10
182.7819948969314
 20
490.1566037735846
 30
0.0
 11
183.7819948969318
 21
491.1566037735851
 31
0.0
  0
LINE
  5
BB3
330
A
100
AcDbEntity
  8
04
100
AcDbLine
 10
182.7819948969315
 20
488.6566037735852
 30
0.0
 11
182.7819948969314
 21
490.1566037735846
 31
0.0
  0
LINE
  5
BB4
330
A
100
AcDbEntity
  8
04
100
AcDbLine
 10
181.7819948969319
 20
488.6566037735852
 30
0.0
 11
182.7819948969315
 21
488.6566037735852
 31
0.0
  0
LINE
  5
BB5
330
A
100
AcDbEntity
  8
04
100
AcDbLine
 10
181.7819948969319
 20
487.6566037735853
 30
0.0
 11
181.7819948969319
 21
488.6566037735852
 31
0.0
  0
LINE
  5
BB6
330
A
100
AcDbEntity
  8
04
100
AcDbLine
 10
229.7819948969315
 20
439.4566037735851
 30
0.0
 11
229.7819948969314
 21
421.4566037735852
 31
0.0
  0
LINE
  5
BB7
330
A
100
AcDbEntity
  8
04
100
AcDbLine
 10
233.1819948969314
 20
437.1566037735852
 30
0.0
 11
233.1819948969314
 21
438.4566037735852
 31
0.0
  0
LINE
  5
BB8
330
A
100
AcDbEntity
  8
04
100
AcDbLine
 10
242.3819948969315
 20
438.4566037735852
 30
0.0
 11
242.3819948969315
 21
437.1566037735852
 31
0.0
  0
LINE
  5
BB9
330
A
100
AcDbEntity
  8
04
100
AcDbLine
 10
210.2819948969314
 20
435.5566037735852
 30
0.0
 11
202.7819948969315
 21
437.5566037735851
 31
0.0
  0
LINE
  5
BBA
330
A
100
AcDbEntity
  8
CHUSIN
100
AcDbLine
 10
237.7819948969315
 20
448.8968855122586
 30
0.0
 11
237.7819948969315
 21
431.7061877165788
 31
0.0
  0
LINE
  5
BBB
330
A
100
AcDbEntity
  8
CHUSIN
100
AcDbLine
 10
255.2819948969315
 20
445.0566037735852
 30
0.0
 11
255.2819948969314
 21
425.0566037735851
 31
0.0
  0
LINE
  5
BBC
330
A
100
AcDbEntity
  8
CHUSIN
100
AcDbLine
 10
225.2819948969315
 20
474.0566037735852
 30
0.0
 11
225.2819948969314
 21
425.0566037735851
 31
0.0
  0
ARC
  5
BBD
330
A
100
AcDbEntity
  8
04
100
AcDbCircle
 10
223.7819948969315
 20
418.8281876261847
 30
0.0
 40
1.5
100
AcDbArc
 50
285.4660099534193
 51
0.0
  0
LINE
  5
BBE
330
A
100
AcDbEntity
  8
04
100
AcDbLine
 10
225.5819948969314
 20
419.6566037735851
 30
0.0
 11
225.2819948969314
 21
419.6566037735851
 31
0.0
  0
LINE
  5
BBF
330
A
100
AcDbEntity
  8
CHUSIN
100
AcDbLine
 10
255.2819948969314
 20
425.0566037735851
 30
0.0
 11
225.2819948969314
 21
425.0566037735851
 31
0.0
  0
ARC
  5
BC0
330
A
100
AcDbEntity
  8
04
100
AcDbCircle
 10
210.2819948969314
 20
426.0566037735851
 30
0.0
 40
9.0
100
AcDbArc
 50
254.533990046579
 51
285.4660099534193
  0
LINE
  5
BC1
330
A
100
AcDbEntity
  8
04
100
AcDbLine
 10
210.2819948969314
 20
434.5566037735852
 30
0.0
 11
193.7819948969314
 21
434.5566037735859
 31
0.0
  0
LINE
  5
BC2
330
A
100
AcDbEntity
  8
04
100
AcDbLine
 10
194.7819948969316
 20
424.9566037735851
 30
0.0
 11
200.7819948969316
 21
424.9566037735851
 31
0.0
  0
LINE
  5
BC3
330
A
100
AcDbEntity
  8
04
100
AcDbLine
 10
194.7819948969316
 20
427.4566037735851
 30
0.0
 11
194.7819948969316
 21
424.9566037735851
 31
0.0
  0
LINE
  5
BC4
330
A
100
AcDbEntity
  8
04
100
AcDbLine
 10
192.7819948969316
 20
430.4566037735852
 30
0.0
 11
192.7819948969316
 21
418.9566037735851
 31
0.0
  0
LINE
  5
BC5
330
A
100
AcDbEntity
  8
04
100
AcDbLine
 10
192.7819948969316
 20
427.4566037735851
 30
0.0
 11
194.7819948969316
 21
427.4566037735851
 31
0.0
  0
LINE
  5
BC6
330
A
100
AcDbEntity
  8
04
100
AcDbLine
 10
193.7819948969315
 20
430.4566037735852
 30
0.0
 11
192.7819948969316
 21
430.4566037735852
 31
0.0
  0
LINE
  5
BC7
330
A
100
AcDbEntity
  8
04
100
AcDbLine
 10
193.7819948969315
 20
430.4566037735852
 30
0.0
 11
193.7819948969315
 21
431.4566037735851
 31
0.0
  0
LINE
  5
BC8
330
A
100
AcDbEntity
  8
04
100
AcDbLine
 10
193.7819948969314
 20
434.5566037735852
 30
0.0
 11
193.7819948969315
 21
433.0566037735851
 31
0.0
  0
LINE
  5
BC9
330
A
100
AcDbEntity
  8
04
100
AcDbLine
 10
200.7819948969316
 20
421.4566037735852
 30
0.0
 11
205.7819948969314
 21
421.4566037735852
 31
0.0
  0
LINE
  5
BCA
330
A
100
AcDbEntity
  8
04
100
AcDbLine
 10
200.7819948969316
 20
424.9566037735851
 30
0.0
 11
200.7819948969316
 21
421.4566037735852
 31
0.0
  0
ARC
  5
BCB
330
A
100
AcDbEntity
  8
04
100
AcDbCircle
 10
208.2819948969314
 20
418.8281876261847
 30
0.0
 40
1.5
100
AcDbArc
 50
180.0
 51
254.533990046579
  0
LINE
  5
BCC
330
A
100
AcDbEntity
  8
04
100
AcDbLine
 10
206.7819948969314
 20
419.6566037735851
 30
0.0
 11
206.7819948969314
 21
418.8281876261847
 31
0.0
  0
LINE
  5
BCD
330
A
100
AcDbEntity
  8
04
100
AcDbLine
 10
206.4819948969314
 20
419.6566037735851
 30
0.0
 11
206.7819948969314
 21
419.6566037735851
 31
0.0
  0
LINE
  5
BCE
330
A
100
AcDbEntity
  8
04
100
AcDbLine
 10
206.4819948969314
 20
420.6566037735852
 30
0.0
 11
206.4819948969314
 21
419.6566037735851
 31
0.0
  0
LINE
  5
BCF
330
A
100
AcDbEntity
  8
04
100
AcDbLine
 10
205.7819948969314
 20
420.6566037735852
 30
0.0
 11
206.4819948969314
 21
420.6566037735852
 31
0.0
  0
LINE
  5
BD0
330
A
100
AcDbEntity
  8
04
100
AcDbLine
 10
205.7819948969314
 20
421.4566037735852
 30
0.0
 11
205.7819948969314
 21
420.6566037735852
 31
0.0
  0
LINE
  5
BD1
330
A
100
AcDbEntity
  8
04
100
AcDbLine
 10
202.6322989667895
 20
433.0566037735851
 30
0.0
 11
202.6322989667895
 21
431.4566037735851
 31
0.0
  0
LINE
  5
BD2
330
A
100
AcDbEntity
  8
CHUSIN
100
AcDbLine
 10
210.2819948969314
 20
424.8299085983068
 30
0.0
 11
210.2819948969314
 21
412.7964201413307
 31
0.0
  0
LINE
  5
BD3
330
A
100
AcDbEntity
  8
CHUSIN
100
AcDbLine
 10
221.7819948969314
 20
424.8299085983068
 30
0.0
 11
221.7819948969314
 21
412.7964201413307
 31
0.0
  0
LINE
  5
BD4
330
A
100
AcDbEntity
  8
04
100
AcDbLine
 10
217.2819948969314
 20
421.4566037735852
 30
0.0
 11
214.7819948969314
 21
421.4566037735852
 31
0.0
  0
ARC
  5
BD5
330
A
100
AcDbEntity
  8
04
100
AcDbCircle
 10
212.2819948969314
 20
418.8281876261847
 30
0.0
 40
1.5
100
AcDbArc
 50
285.4660099534193
 51
0.0
  0
LINE
  5
BD6
330
A
100
AcDbEntity
  8
04
100
AcDbLine
 10
213.7819948969315
 20
419.6566037735851
 30
0.0
 11
213.7819948969315
 21
418.8281876261847
 31
0.0
  0
LINE
  5
BD7
330
A
100
AcDbEntity
  8
04
100
AcDbLine
 10
214.0819948969315
 20
419.6566037735851
 30
0.0
 11
213.7819948969315
 21
419.6566037735851
 31
0.0
  0
LINE
  5
BD8
330
A
100
AcDbEntity
  8
04
100
AcDbLine
 10
214.0819948969315
 20
420.6566037735852
 30
0.0
 11
214.0819948969315
 21
419.6566037735851
 31
0.0
  0
LINE
  5
BD9
330
A
100
AcDbEntity
  8
04
100
AcDbLine
 10
214.7819948969314
 20
420.6566037735852
 30
0.0
 11
214.0819948969315
 21
420.6566037735852
 31
0.0
  0
LINE
  5
BDA
330
A
100
AcDbEntity
  8
04
100
AcDbLine
 10
214.7819948969314
 20
421.4566037735852
 30
0.0
 11
214.7819948969314
 21
420.6566037735852
 31
0.0
  0
LINE
  5
BDB
330
A
100
AcDbEntity
  8
04
100
AcDbLine
 10
210.2819948969314
 20
435.5566037735852
 30
0.0
 11
210.2819948969314
 21
434.5566037735852
 31
0.0
  0
ARC
  5
BDC
330
A
100
AcDbEntity
  8
04
100
AcDbCircle
 10
221.7819948969314
 20
426.0566037735851
 30
0.0
 40
9.0
100
AcDbArc
 50
254.533990046579
 51
285.4660099534193
  0
ARC
  5
BDD
330
A
100
AcDbEntity
  8
04
100
AcDbCircle
 10
219.7819948969315
 20
418.8281876261847
 30
0.0
 40
1.5
100
AcDbArc
 50
180.0
 51
254.533990046579
  0
LINE
  5
BDE
330
A
100
AcDbEntity
  8
04
100
AcDbLine
 10
218.2819948969314
 20
419.6566037735851
 30
0.0
 11
218.2819948969314
 21
418.8281876261847
 31
0.0
  0
LINE
  5
BDF
330
A
100
AcDbEntity
  8
04
100
AcDbLine
 10
217.9819948969313
 20
419.6566037735851
 30
0.0
 11
218.2819948969314
 21
419.6566037735851
 31
0.0
  0
LINE
  5
BE0
330
A
100
AcDbEntity
  8
04
100
AcDbLine
 10
217.9819948969313
 20
420.6566037735852
 30
0.0
 11
217.9819948969313
 21
419.6566037735851
 31
0.0
  0
LINE
  5
BE1
330
A
100
AcDbEntity
  8
04
100
AcDbLine
 10
217.2819948969314
 20
420.6566037735852
 30
0.0
 11
217.9819948969313
 21
420.6566037735852
 31
0.0
  0
LINE
  5
BE2
330
A
100
AcDbEntity
  8
04
100
AcDbLine
 10
217.2819948969314
 20
421.4566037735852
 30
0.0
 11
217.2819948969314
 21
420.6566037735852
 31
0.0
  0
LINE
  5
BE3
330
A
100
AcDbEntity
  8
04
100
AcDbLine
 10
225.2819948969314
 20
419.6566037735851
 30
0.0
 11
225.2819948969315
 21
418.8281876261847
 31
0.0
  0
ARC
  5
BE4
330
A
100
AcDbEntity
  8
04
100
AcDbCircle
 10
240.3819948969314
 20
436.0969931256136
 30
0.0
 40
1.9
100
AcDbArc
 50
284.9173694723538
 51
0.0
  0
ARC
  5
BE5
330
A
100
AcDbEntity
  8
04
100
AcDbCircle
 10
235.1819948969315
 20
436.0969931256136
 30
0.0
 40
1.9
100
AcDbArc
 50
180.0
 51
255.082630527646
  0
LINE
  5
BE6
330
A
100
AcDbEntity
  8
04
100
AcDbLine
 10
229.7819948969314
 20
421.4566037735852
 30
0.0
 11
226.2819948969315
 21
421.4566037735852
 31
0.0
  0
LINE
  5
BE7
330
A
100
AcDbEntity
  8
04
100
AcDbLine
 10
225.5819948969314
 20
420.6566037735852
 30
0.0
 11
225.5819948969314
 21
419.6566037735851
 31
0.0
  0
LINE
  5
BE8
330
A
100
AcDbEntity
  8
04
100
AcDbLine
 10
226.2819948969315
 20
420.6566037735852
 30
0.0
 11
225.5819948969314
 21
420.6566037735852
 31
0.0
  0
LINE
  5
BE9
330
A
100
AcDbEntity
  8
04
100
AcDbLine
 10
226.2819948969315
 20
421.4566037735852
 30
0.0
 11
226.2819948969315
 21
420.6566037735852
 31
0.0
  0
LINE
  5
BEA
330
A
100
AcDbEntity
  8
04
100
AcDbLine
 10
233.2819948969314
 20
437.1566037735852
 30
0.0
 11
233.2819948969314
 21
436.0969931256136
 31
0.0
  0
LINE
  5
BEB
330
A
100
AcDbEntity
  8
04
100
AcDbLine
 10
233.2819948969314
 20
437.1566037735852
 30
0.0
 11
233.1819948969314
 21
437.1566037735852
 31
0.0
  0
ARC
  5
BEC
330
A
100
AcDbEntity
  8
04
100
AcDbCircle
 10
237.7819948969314
 20
445.8566037735852
 30
0.0
 40
12.0
100
AcDbArc
 50
255.082630527646
 51
284.9173694723538
  0
LINE
  5
BED
330
A
100
AcDbEntity
  8
04
100
AcDbLine
 10
242.2819948969314
 20
436.0969931256136
 30
0.0
 11
242.2819948969314
 21
437.1566037735852
 31
0.0
  0
LINE
  5
BEE
330
A
100
AcDbEntity
  8
04
100
AcDbLine
 10
242.3819948969315
 20
437.1566037735852
 30
0.0
 11
242.2819948969314
 21
437.1566037735852
 31
0.0
  0
LINE
  5
BEF
330
A
100
AcDbEntity
  8
04
100
AcDbLine
 10
242.2819948969314
 20
437.1566037735852
 30
0.0
 11
242.2819948969314
 21
437.1566037735852
 31
0.0
  0
LINE
  5
BF0
330
A
100
AcDbEntity
  8
04
100
AcDbLine
 10
219.2819948969315
 20
477.6566037735851
 30
0.0
 11
229.2819948969315
 21
477.6566037735851
 31
0.0
  0
LINE
  5
BF1
330
A
100
AcDbEntity
  8
04
100
AcDbLine
 10
210.2819948969314
 20
484.5566037735851
 30
0.0
 11
210.2819948969314
 21
483.5566037735851
 31
0.0
  0
LINE
  5
BF2
330
A
100
AcDbEntity
  8
CHUSIN
100
AcDbLine
 10
214.2819948969314
 20
484.9973508831868
 30
0.0
 11
214.2819948969314
 21
471.2447926466428
 31
0.0
  0
LINE
  5
BF3
330
A
100
AcDbEntity
  8
04
100
AcDbLine
 10
207.7819948969314
 20
477.6566037735851
 30
0.0
 11
209.2819948969315
 21
477.6566037735851
 31
0.0
  0
LINE
  5
BF4
330
A
100
AcDbEntity
  8
04
100
AcDbLine
 10
210.2819948969314
 20
483.5566037735851
 30
0.0
 11
202.7819948969315
 21
481.5566037735851
 31
0.0
  0
LINE
  5
BF5
330
A
100
AcDbEntity
  8
04
100
AcDbLine
 10
207.7819948969314
 20
437.5566037735851
 30
0.0
 11
207.7819948969316
 21
481.5566037735851
 31
0.0
  0
LINE
  5
BF6
330
A
100
AcDbEntity
  8
04
100
AcDbLine
 10
207.7819948969314
 20
437.5566037735851
 30
0.0
 11
202.7819948969315
 21
437.5566037735851
 31
0.0
  0
LINE
  5
BF7
330
A
100
AcDbEntity
  8
04
100
AcDbLine
 10
202.7819948969315
 20
481.5566037735851
 30
0.0
 11
207.7819948969314
 21
481.5566037735851
 31
0.0
  0
ARC
  5
BF8
330
A
100
AcDbEntity
  8
04
100
AcDbCircle
 10
214.2819948969314
 20
471.2566037735852
 30
0.0
 40
12.0
100
AcDbArc
 50
75.08263052764601
 51
104.9173694723539
  0
ARC
  5
BF9
330
A
100
AcDbEntity
  8
04
100
AcDbCircle
 10
211.6819948969314
 20
481.0162144215567
 30
0.0
 40
1.9
100
AcDbArc
 50
104.9173694723539
 51
180.0
  0
LINE
  5
BFA
330
A
100
AcDbEntity
  8
04
100
AcDbLine
 10
209.7819948969315
 20
479.9566037735852
 30
0.0
 11
209.7819948969315
 21
481.0162144215567
 31
0.0
  0
LINE
  5
BFB
330
A
100
AcDbEntity
  8
04
100
AcDbLine
 10
209.6819948969314
 20
479.9566037735852
 30
0.0
 11
209.7819948969315
 21
479.9566037735852
 31
0.0
  0
LINE
  5
BFC
330
A
100
AcDbEntity
  8
04
100
AcDbLine
 10
209.6819948969314
 20
478.6566037735851
 30
0.0
 11
209.6819948969314
 21
479.9566037735852
 31
0.0
  0
LINE
  5
BFD
330
A
100
AcDbEntity
  8
04
100
AcDbLine
 10
209.2819948969315
 20
478.6566037735851
 30
0.0
 11
209.6819948969314
 21
478.6566037735851
 31
0.0
  0
LINE
  5
BFE
330
A
100
AcDbEntity
  8
04
100
AcDbLine
 10
209.2819948969315
 20
477.6566037735851
 30
0.0
 11
209.2819948969315
 21
478.6566037735851
 31
0.0
  0
ARC
  5
BFF
330
A
100
AcDbEntity
  8
04
100
AcDbCircle
 10
216.8819948969315
 20
481.0162144215566
 30
0.0
 40
1.9
100
AcDbArc
 50
0.0
 51
75.08263052764601
  0
LINE
  5
C00
330
A
100
AcDbEntity
  8
04
100
AcDbLine
 10
219.2819948969315
 20
478.6566037735851
 30
0.0
 11
219.2819948969315
 21
477.6566037735851
 31
0.0
  0
LINE
  5
C01
330
A
100
AcDbEntity
  8
04
100
AcDbLine
 10
218.8819948969315
 20
478.6566037735851
 30
0.0
 11
219.2819948969315
 21
478.6566037735851
 31
0.0
  0
LINE
  5
C02
330
A
100
AcDbEntity
  8
04
100
AcDbLine
 10
218.8819948969315
 20
479.9566037735852
 30
0.0
 11
218.8819948969315
 21
478.6566037735851
 31
0.0
  0
LINE
  5
C03
330
A
100
AcDbEntity
  8
04
100
AcDbLine
 10
218.7819948969315
 20
479.9566037735852
 30
0.0
 11
218.8819948969315
 21
479.9566037735852
 31
0.0
  0
LINE
  5
C04
330
A
100
AcDbEntity
  8
04
100
AcDbLine
 10
218.7819948969315
 20
481.0162144215566
 30
0.0
 11
218.7819948969315
 21
479.9566037735852
 31
0.0
  0
LINE
  5
C05
330
A
100
AcDbEntity
  8
04
100
AcDbLine
 10
193.7819948969314
 20
484.5566037735851
 30
0.0
 11
210.2819948969314
 21
484.5566037735851
 31
0.0
  0
LINE
  5
C06
330
A
100
AcDbEntity
  8
04
100
AcDbLine
 10
193.7819948969314
 20
486.0566037735852
 30
0.0
 11
193.7819948969314
 21
484.5566037735851
 31
0.0
  0
LINE
  5
C07
330
A
100
AcDbEntity
  8
04
100
AcDbLine
 10
193.781994896932
 20
488.6566037735851
 30
0.0
 11
193.781994896932
 21
487.6566037735852
 31
0.0
  0
LINE
  5
C08
330
A
100
AcDbEntity
  8
04
100
AcDbLine
 10
192.7819948969317
 20
488.6566037735851
 30
0.0
 11
193.781994896932
 21
488.6566037735851
 31
0.0
  0
LINE
  5
C09
330
A
100
AcDbEntity
  8
04
100
AcDbLine
 10
192.7819948969317
 20
490.1566037735848
 30
0.0
 11
192.7819948969317
 21
488.6566037735851
 31
0.0
  0
LINE
  5
C0A
330
A
100
AcDbEntity
  8
04
100
AcDbLine
 10
202.6322989667896
 20
487.6566037735852
 30
0.0
 11
202.6322989667896
 21
486.0566037735852
 31
0.0
  0
LINE
  5
C0B
330
A
100
AcDbEntity
  8
CHUSIN
100
AcDbLine
 10
234.2819948969315
 20
484.9973508831868
 30
0.0
 11
234.2819948969315
 21
471.2447926466428
 31
0.0
  0
LINE
  5
C0C
330
A
100
AcDbEntity
  8
04
100
AcDbLine
 10
239.2819948969314
 20
477.6566037735851
 30
0.0
 11
243.7819948969315
 21
477.6566037735851
 31
0.0
  0
LINE
  5
C0D
330
A
100
AcDbEntity
  8
04
100
AcDbLine
 10
232.7819948969314
 20
439.4566037735851
 30
0.0
 11
229.7819948969315
 21
439.4566037735851
 31
0.0
  0
LINE
  5
C0E
330
A
100
AcDbEntity
  8
04
100
AcDbLine
 10
232.7819948969314
 20
438.4566037735852
 30
0.0
 11
232.7819948969314
 21
439.4566037735851
 31
0.0
  0
LINE
  5
C0F
330
A
100
AcDbEntity
  8
04
100
AcDbLine
 10
233.1819948969314
 20
438.4566037735852
 30
0.0
 11
232.7819948969314
 21
438.4566037735852
 31
0.0
  0
ARC
  5
C10
330
A
100
AcDbEntity
  8
04
100
AcDbCircle
 10
234.2819948969315
 20
471.2566037735852
 30
0.0
 40
12.0
100
AcDbArc
 50
75.08263052764601
 51
104.9173694723539
  0
LINE
  5
C11
330
A
100
AcDbEntity
  8
04
100
AcDbLine
 10
229.2819948969315
 20
478.6566037735851
 30
0.0
 11
229.6819948969314
 21
478.6566037735851
 31
0.0
  0
LINE
  5
C12
330
A
100
AcDbEntity
  8
04
100
AcDbLine
 10
229.2819948969315
 20
477.6566037735851
 30
0.0
 11
229.2819948969315
 21
478.6566037735851
 31
0.0
  0
ARC
  5
C13
330
A
100
AcDbEntity
  8
04
100
AcDbCircle
 10
231.6819948969314
 20
481.0162144215566
 30
0.0
 40
1.9
100
AcDbArc
 50
104.9173694723539
 51
180.0
  0
LINE
  5
C14
330
A
100
AcDbEntity
  8
04
100
AcDbLine
 10
229.7819948969315
 20
479.9566037735852
 30
0.0
 11
229.7819948969315
 21
481.0162144215566
 31
0.0
  0
LINE
  5
C15
330
A
100
AcDbEntity
  8
04
100
AcDbLine
 10
229.6819948969314
 20
479.9566037735852
 30
0.0
 11
229.7819948969315
 21
479.9566037735852
 31
0.0
  0
LINE
  5
C16
330
A
100
AcDbEntity
  8
04
100
AcDbLine
 10
229.6819948969314
 20
478.6566037735851
 30
0.0
 11
229.6819948969314
 21
479.9566037735852
 31
0.0
  0
ARC
  5
C17
330
A
100
AcDbEntity
  8
04
100
AcDbCircle
 10
236.8819948969314
 20
481.0162144215566
 30
0.0
 40
1.9
100
AcDbArc
 50
0.0
 51
75.08263052764601
  0
LINE
  5
C18
330
A
100
AcDbEntity
  8
04
100
AcDbLine
 10
239.2819948969314
 20
478.6566037735851
 30
0.0
 11
239.2819948969314
 21
477.6566037735851
 31
0.0
  0
LINE
  5
C19
330
A
100
AcDbEntity
  8
04
100
AcDbLine
 10
238.8819948969314
 20
478.6566037735851
 30
0.0
 11
239.2819948969314
 21
478.6566037735851
 31
0.0
  0
LINE
  5
C1A
330
A
100
AcDbEntity
  8
04
100
AcDbLine
 10
238.8819948969314
 20
479.9566037735852
 30
0.0
 11
238.8819948969314
 21
478.6566037735851
 31
0.0
  0
LINE
  5
C1B
330
A
100
AcDbEntity
  8
04
100
AcDbLine
 10
238.7819948969315
 20
479.9566037735852
 30
0.0
 11
238.8819948969314
 21
479.9566037735852
 31
0.0
  0
LINE
  5
C1C
330
A
100
AcDbEntity
  8
04
100
AcDbLine
 10
238.7819948969315
 20
481.0162144215566
 30
0.0
 11
238.7819948969315
 21
479.9566037735852
 31
0.0
  0
LINE
  5
C1D
330
A
100
AcDbEntity
  8
04
100
AcDbLine
 10
255.2819948969314
 20
474.0566037735852
 30
0.0
 11
255.2819948969315
 21
445.0566037735852
 31
0.0
  0
LINE
  5
C1E
330
A
100
AcDbEntity
  8
04
100
AcDbLine
 10
255.2819948969315
 20
445.0566037735852
 30
0.0
 11
243.7819948969315
 21
445.0566037735852
 31
0.0
  0
LINE
  5
C1F
330
A
100
AcDbEntity
  8
04
100
AcDbLine
 10
242.7819948969314
 20
438.4566037735852
 30
0.0
 11
242.3819948969315
 21
438.4566037735852
 31
0.0
  0
LINE
  5
C20
330
A
100
AcDbEntity
  8
04
100
AcDbLine
 10
242.7819948969314
 20
439.4566037735851
 30
0.0
 11
242.7819948969314
 21
438.4566037735852
 31
0.0
  0
LINE
  5
C21
330
A
100
AcDbEntity
  8
04
100
AcDbLine
 10
243.7819948969314
 20
439.4566037735851
 30
0.0
 11
242.7819948969314
 21
439.4566037735851
 31
0.0
  0
LINE
  5
C22
330
A
100
AcDbEntity
  8
04
100
AcDbLine
 10
243.7819948969315
 20
445.0566037735852
 30
0.0
 11
243.7819948969314
 21
439.4566037735851
 31
0.0
  0
LINE
  5
C23
330
A
100
AcDbEntity
  8
04
100
AcDbLine
 10
243.7819948969315
 20
474.0566037735852
 30
0.0
 11
255.2819948969314
 21
474.0566037735852
 31
0.0
  0
LINE
  5
C24
330
A
100
AcDbEntity
  8
04
100
AcDbLine
 10
243.7819948969315
 20
477.6566037735851
 30
0.0
 11
243.7819948969315
 21
474.0566037735852
 31
0.0
  0
LINE
  5
C25
330
A
100
AcDbEntity
  8
06
100
AcDbLine
 10
160.7819948969314
 20
411.5566037735836
 30
0.0
 11
166.7819948969319
 21
411.5566037735836
 31
0.0
  0
LINE
  5
C91
330
A
100
AcDbEntity
  8
03
100
AcDbLine
 10
244.781994896931
 20
155.5566037735849
 30
0.0
 11
244.781994896931
 21
164.556603773585
 31
0.0
  0
LINE
  5
C92
330
A
100
AcDbEntity
  8
03
100
AcDbLine
 10
246.381994896931
 20
155.5566037735849
 30
0.0
 11
246.381994896931
 21
164.556603773585
 31
0.0
  0
LINE
  5
C93
330
A
100
AcDbEntity
  8
03
100
AcDbLine
 10
244.781994896931
 20
155.5566037735849
 30
0.0
 11
246.381994896931
 21
155.5566037735849
 31
0.0
  0
ARC
  5
C94
330
A
100
AcDbEntity
  8
03
100
AcDbCircle
 10
244.781994896931
 20
164.556603773585
 30
0.0
 40
1.6
100
AcDbArc
 50
0.0
 51
90.0
  0
LINE
  5
C95
330
A
100
AcDbEntity
  8
03
100
AcDbLine
 10
184.681994896931
 20
166.156603773585
 30
0.0
 11
244.781994896931
 21
166.156603773585
 31
0.0
  0
LINE
  5
C96
330
A
100
AcDbEntity
  8
03
100
AcDbLine
 10
184.681994896931
 20
164.556603773585
 30
0.0
 11
244.781994896931
 21
164.556603773585
 31
0.0
  0
LINE
  5
C97
330
A
100
AcDbEntity
  8
03
100
AcDbLine
 10
184.681994896931
 20
155.5566037735849
 30
0.0
 11
183.081994896931
 21
155.5566037735849
 31
0.0
  0
LINE
  5
C98
330
A
100
AcDbEntity
  8
03
100
AcDbLine
 10
183.081994896931
 20
155.5566037735849
 30
0.0
 11
183.081994896931
 21
164.556603773585
 31
0.0
  0
LINE
  5
C99
330
A
100
AcDbEntity
  8
03
100
AcDbLine
 10
184.681994896931
 20
155.5566037735849
 30
0.0
 11
184.681994896931
 21
164.556603773585
 31
0.0
  0
ARC
  5
C9A
330
A
100
AcDbEntity
  8
03
100
AcDbCircle
 10
184.681994896931
 20
164.556603773585
 30
0.0
 40
1.6
100
AcDbArc
 50
90.0
 51
180.0
  0
LINE
  5
C9B
330
A
100
AcDbEntity
  8
06
100
AcDbLine
 10
234.7819948969311
 20
164.556603773585
 30
0.0
 11
194.781994896931
 21
164.5566037735851
 31
0.0
  0
LINE
  5
C9C
330
A
100
AcDbEntity
  8
03
100
AcDbLine
 10
241.281994896931
 20
154.5566037735849
 30
0.0
 11
239.781994896931
 21
154.556603773585
 31
0.0
  0
LINE
  5
C9D
330
A
100
AcDbEntity
  8
03
100
AcDbLine
 10
189.781994896931
 20
159.5566037735851
 30
0.0
 11
188.181994896931
 21
159.556603773585
 31
0.0
  0
LINE
  5
C9E
330
A
100
AcDbEntity
  8
03
100
AcDbLine
 10
241.281994896931
 20
154.5566037735849
 30
0.0
 11
241.281994896931
 21
146.056603773585
 31
0.0
  0
LINE
  5
C9F
330
A
100
AcDbEntity
  8
03
100
AcDbLine
 10
239.781994896931
 20
154.556603773585
 30
0.0
 11
239.781994896931
 21
145.3066037735851
 31
0.0
  0
LINE
  5
CA0
330
A
100
AcDbEntity
  8
03
100
AcDbLine
 10
188.181994896931
 20
159.556603773585
 30
0.0
 11
188.181994896931
 21
146.0566037735845
 31
0.0
  0
LINE
  5
CA1
330
A
100
AcDbEntity
  8
03
100
AcDbLine
 10
189.781994896931
 20
159.5566037735851
 30
0.0
 11
189.781994896931
 21
145.3066037735851
 31
0.0
  0
ARC
  5
CA2
330
A
100
AcDbEntity
  8
03
100
AcDbCircle
 10
134.5819948969311
 20
162.2566037735851
 30
0.0
 40
2.299999999999998
100
AcDbArc
 50
90.0
 51
180.0
  0
ARC
  5
CA3
330
A
100
AcDbEntity
  8
03
100
AcDbCircle
 10
174.3819948969312
 20
162.2566037735847
 30
0.0
 40
2.299999999999998
100
AcDbArc
 50
359.9999999999983
 51
89.99999999999836
  0
LINE
  5
CA4
330
A
100
AcDbEntity
  8
03
100
AcDbLine
 10
174.3819948969312
 20
162.2566037735845
 30
0.0
 11
174.3819948969312
 21
146.0566037735845
 31
0.0
  0
LINE
  5
CA5
330
A
100
AcDbEntity
  8
03
100
AcDbLine
 10
174.3819948969312
 20
162.2566037735845
 30
0.0
 11
134.5819948969311
 21
162.2566037735851
 31
0.0
  0
LINE
  5
CA6
330
A
100
AcDbEntity
  8
03
100
AcDbLine
 10
134.5819948969311
 20
162.2566037735851
 30
0.0
 11
134.5819948969311
 21
146.0566037735851
 31
0.0
  0
ARC
  5
CE6
330
A
100
AcDbEntity
  8
02
100
AcDbCircle
 10
143.931994896931
 20
176.1566037735851
 30
0.0
 40
5.0
100
AcDbArc
 50
180.0
 51
270.0
  0
ARC
  5
CE7
330
A
100
AcDbEntity
  8
02
100
AcDbCircle
 10
133.9319948969311
 20
201.1566037735851
 30
0.0
 40
5.0
100
AcDbArc
 50
0.0
 51
90.0
  0
LINE
  5
CE8
330
A
100
AcDbEntity
  8
02
100
AcDbLine
 10
138.9319948969311
 20
176.1566037735851
 30
0.0
 11
138.9319948969311
 21
201.1566037735851
 31
0.0
  0
LINE
  5
CE9
330
A
100
AcDbEntity
  8
02
100
AcDbLine
 10
133.9319948969311
 20
166.1566037735851
 30
0.0
 11
133.9319948969311
 21
206.1566037735852
 31
0.0
  0
LINE
  5
CEA
330
A
100
AcDbEntity
  8
02
100
AcDbLine
 10
133.9319948969311
 20
206.1566037735852
 30
0.0
 11
133.9319948969311
 21
206.1566037735852
 31
0.0
  0
LINE
  5
CEB
330
A
100
AcDbEntity
  8
02
100
AcDbLine
 10
168.9319948969312
 20
171.1566037735851
 30
0.0
 11
143.931994896931
 21
171.1566037735851
 31
0.0
  0
ARC
  5
CEC
330
A
100
AcDbEntity
  8
02
100
AcDbCircle
 10
168.9319948969312
 20
166.156603773585
 30
0.0
 40
5.0
100
AcDbArc
 50
0.0
 51
90.0
  0
LINE
  5
CED
330
A
100
AcDbEntity
  8
02
100
AcDbLine
 10
173.9319948969312
 20
166.1566037735851
 30
0.0
 11
173.9319948969312
 21
166.156603773585
 31
0.0
  0
LINE
  5
CEE
330
A
100
AcDbEntity
  8
02
100
AcDbLine
 10
173.6097024368064
 20
166.156603773585
 30
0.0
 11
133.9319948969311
 21
166.1566037735851
 31
0.0
  0
LINE
  5
CFB
330
A
100
AcDbEntity
  8
SOUZOU
100
AcDbLine
 10
202.2819948969312
 20
175.6566037735851
 30
0.0
 11
152.7819948969312
 21
175.6566037735852
 31
0.0
  0
LINE
  5
CFC
330
A
100
AcDbEntity
  8
SOUZOU
100
AcDbLine
 10
202.281994896931
 20
171.1566037735851
 30
0.0
 11
185.781994896931
 21
171.1566037735851
 31
0.0
  0
MTEXT
  5
D3F
330
A
100
AcDbEntity
  8
MOJI
100
AcDbMText
 10
359.9999999999998
 20
31.5
 30
0.0
 40
7.0
 41
49.99999999999994
 71
     5
 72
     1
  1
たて断面図　
  7
0_80
1001
ACAD
1000
MTEXTBEGIN
1070
    73
1070
     1
1070
    44
1040
1.0
1070
    74
1070
     0
1000
MTEXTEND
1000
MTEXTBEGIN
1070
    73
1070
     1
1070
    44
1040
1.0
1070
    74
1070
     0
1000
MTEXTEND
  0
MTEXT
  5
D40
330
A
100
AcDbEntity
  8
MOJI
100
AcDbMText
 10
309.9999999999997
 20
31.5
 30
0.0
 40
7.0
 41
50.0
 71
     5
 72
     1
  1
図番１７－２
  7
0_80
1001
ACAD
1000
MTEXTBEGIN
1070
    73
1070
     1
1070
    44
1040
1.0
1070
    74
1070
     0
1000
MTEXTEND
1000
MTEXTBEGIN
1070
    73
1070
     1
1070
    44
1040
1.0
1070
    74
1070
     0
1000
MTEXTEND
  0
POLYLINE
  5
D41
330
A
100
AcDbEntity
  8
SAISEN
100
AcDb2dPolyline
 66
     1
 10
0.0
 20
0.0
 30
0.0
 70
     1
  0
VERTEX
  5
D8E
330
D41
100
AcDbEntity
  8
SAISEN
100
AcDbVertex
100
AcDb2dVertex
 10
35.0
 20
20.0
 30
0.0
  0
VERTEX
  5
D8F
330
D41
100
AcDbEntity
  8
SAISEN
100
AcDbVertex
100
AcDb2dVertex
 10
385.0
 20
20.0
 30
0.0
  0
VERTEX
  5
D90
330
D41
100
AcDbEntity
  8
SAISEN
100
AcDbVertex
100
AcDb2dVertex
 10
385.0
 20
44.00000000000022
 30
0.0
  0
VERTEX
  5
D91
330
D41
100
AcDbEntity
  8
SAISEN
100
AcDbVertex
100
AcDb2dVertex
 10
35.0
 20
44.00000000000022
 30
0.0
  0
SEQEND
  5
D92
330
D41
100
AcDbEntity
  8
SAISEN
  0
MTEXT
  5
D42
330
A
100
AcDbEntity
  8
MOJI
100
AcDbMText
 10
185.0
 20
32.0
 30
0.0
 40
7.0
 41
80.0
 71
     5
 72
     1
  1
自動閉鎖装置\Pバラ付納り
  7
0_8
1001
ACAD
1000
MTEXTBEGIN
1070
    73
1070
     1
1070
    44
1040
1.0
1070
    74
1070
     0
1000
MTEXTEND
1000
MTEXTBEGIN
1070
    73
1070
     1
1070
    44
1040
1.0
1070
    74
1070
     0
1000
MTEXTEND
  0
LINE
  5
D43
330
A
100
AcDbEntity
  8
SAISEN
100
AcDbLine
 10
145.0
 20
44.00000000000022
 30
0.0
 11
145.0
 21
20.0
 31
0.0
  0
LINE
  5
D44
330
A
100
AcDbEntity
  8
SAISEN
100
AcDbLine
 10
225.0
 20
44.00000000000022
 30
0.0
 11
225.0
 21
20.0
 31
0.0
  0
LINE
  5
D45
330
A
100
AcDbEntity
  8
SAISEN
100
AcDbLine
 10
285.0
 20
44.00000000000022
 30
0.0
 11
285.0
 21
20.0
 31
0.0
  0
MTEXT
  5
D46
330
A
100
AcDbEntity
  8
MOJI
100
AcDbMText
 10
90.0
 20
32.0
 30
0.0
 40
7.0
 41
110.0
 71
     5
 72
     1
  1
テラオカＦＰＳ－Ｉ型
  7
0_8
1001
ACAD
1000
MTEXTBEGIN
1070
    73
1070
     1
1070
    44
1040
1.0
1070
    74
1070
     0
1000
MTEXTEND
1000
MTEXTBEGIN
1070
    73
1070
     1
1070
    44
1040
1.0
1070
    74
1070
     0
1000
MTEXTEND
  0
MTEXT
  5
D47
330
A
100
AcDbEntity
  8
MOJI
100
AcDbMText
 10
255.0
 20
32.0
 30
0.0
 40
7.0
 41
60.0
 71
     5
 72
     1
  1
片引き又は両引き
  7
0_8
1001
ACAD
1000
MTEXTBEGIN
1070
    73
1070
     1
1070
    44
1040
1.0
1070
    74
1070
     0
1000
MTEXTEND
1000
MTEXTBEGIN
1070
    73
1070
     1
1070
    44
1040
1.0
1070
    74
1070
     0
1000
MTEXTEND
  0
VIEWPORT
  5
820
102
{ACAD_XDICTIONARY
360
D78
102
}
330
B
100
AcDbEntity
 67
     1
  8
0
100
AcDbViewport
 10
197.7257204898195
 20
285.0638786644298
 30
0.0
 40
1080.347564134148
 41
628.3535021666721
 68
     1
 69
     1
1001
ACAD
1000
MVIEW
1002
{
1070
    16
1010
0.0
1020
0.0
1030
0.0
1010
0.0
1020
0.0
1030
1.0
1040
0.0
1040
628.3535021666721
1040
197.7257204898195
1040
285.0638786644298
1040
50.0
1040
0.0
1040
0.0
1070
     0
1070
   100
1070
     1
1070
     1
1070
     0
1070
     0
1070
     0
1070
     0
1040
0.0
1040
0.0
1040
0.0
1040
10.0
1040
10.0
1040
10.0
1040
10.0
1070
     0
1002
{
1002
}
1002
}
  0
VIEWPORT
  5
D62
102
{ACAD_XDICTIONARY
360
D7E
102
}
330
B
100
AcDbEntity
 67
     1
  8
DEFPOINTS
100
AcDbViewport
 10
197.725721443582
 20
285.0638777106673
 30
0.0
 40
396.4883172119752
 41
570.409736121624
 68
     2
 69
     2
1001
ACAD
1000
MVIEW
1002
{
1070
    16
1010
0.0
1020
0.0
1030
0.0
1010
0.0
1020
0.0
1030
1.0
1040
0.0
1040
570.409736121624
1040
210.0
1040
297.0
1040
50.0
1040
0.0
1040
0.0
1070
     0
1070
   100
1070
     1
1070
     1
1070
     0
1070
     0
1070
     0
1070
     0
1040
0.0
1040
0.0
1040
0.0
1040
1.0
1040
1.0
1040
0.0
1040
0.0
1070
     0
1002
{
1002
}
1002
}
  0
ENDSEC
  0
SECTION
  2
OBJECTS
  0
DICTIONARY
  5
19
330
0
100
AcDbDictionary
  3
ACAD_COLOR
350
74F
  3
ACAD_GROUP
350
1A
  3
ACAD_LAYOUT
350
4F5
  3
ACAD_MATERIAL
350
74E
  3
ACAD_MLINESTYLE
350
1B
  3
ACAD_PLOTSETTINGS
350
4F6
  3
ACADDIM
350
748
  3
ASE_INDEX_DICTIONARY
350
D49
1001
ACAD
1000
TREAT_AS_HARD
1070
     0
1000
TREAT_AS_HARD
1070
     0
  0
DICTIONARY
  5
D2F
330
2
100
AcDbDictionary
  3
ACAD_LAYERSTATES
350
D30
1001
ACAD
1000
TREAT_AS_HARD
1070
     1
  0
DICTIONARY
  5
D0F
330
A
100
AcDbDictionary
  3
ACAD_LAYOUTSELFREF
350
D86
1001
ACAD
1000
TREAT_AS_HARD
1070
     1
  0
DICTIONARY
  5
D11
330
B
100
AcDbDictionary
  3
ACAD_LAYOUTSELFREF
350
D87
1001
ACAD
1000
TREAT_AS_HARD
1070
     1
  0
DICTIONARY
  5
D78
330
820
100
AcDbDictionary
  3
ACAD_XREC_ROUNDTRIP
350
D79
1001
ACAD
1000
TREAT_AS_HARD
1070
     1
  0
DICTIONARY
  5
D7E
330
D62
100
AcDbDictionary
  3
ACAD_XREC_ROUNDTRIP
350
D7F
1001
ACAD
1000
TREAT_AS_HARD
1070
     1
  0
DICTIONARY
  5
74F
102
{ACAD_REACTORS
330
19
102
}
330
19
100
AcDbDictionary
1001
ACAD
1000
TREAT_AS_HARD
1070
     0
1000
TREAT_AS_HARD
1070
     0
  0
DICTIONARY
  5
1A
102
{ACAD_REACTORS
330
19
102
}
330
19
100
AcDbDictionary
  3
DAGROUP2EA
350
2EA
  3
DAGROUP2EE
350
2EE
  3
DAGROUP2F2
350
2F2
  3
DAGROUP2F6
350
2F6
  3
DAGROUP2FA
350
2FA
  3
DAGROUP2FE
350
2FE
  3
DAGROUP302
350
302
  3
DAGROUP306
350
306
  3
DAGROUP30A
350
30A
  3
DAGROUP30E
350
30E
  3
DAGROUP312
350
312
  3
DAGROUP316
350
316
  3
DAGROUP31A
350
31A
  3
DAGROUP31E
350
31E
  3
DAGROUP322
350
322
  3
DAGROUP326
350
326
  3
DAGROUP32A
350
32A
  3
DAGROUP32E
350
32E
  3
DAGROUP332
350
332
  3
DAGROUP336
350
336
  3
DAGROUP33A
350
33A
  3
DAGROUP33E
350
33E
  3
DAGROUP342
350
342
  3
DAGROUP346
350
346
  3
DAGROUP34A
350
34A
1001
ACAD
1000
TREAT_AS_HARD
1070
     0
1000
TREAT_AS_HARD
1070
     0
  0
DICTIONARY
  5
4F5
102
{ACAD_REACTORS
330
19
102
}
330
19
100
AcDbDictionary
1001
ACAD
1000
TREAT_AS_HARD
1070
     0
1000
TREAT_AS_HARD
1070
     0
  0
DICTIONARY
  5
74E
102
{ACAD_REACTORS
330
19
102
}
330
19
100
AcDbDictionary
1001
ACAD
1000
TREAT_AS_HARD
1070
     0
1000
TREAT_AS_HARD
1070
     0
  0
DICTIONARY
  5
1B
102
{ACAD_REACTORS
330
19
102
}
330
19
100
AcDbDictionary
  3
STANDARD
350
1C
1001
ACAD
1000
TREAT_AS_HARD
1070
     0
1000
TREAT_AS_HARD
1070
     0
  0
DICTIONARY
  5
4F6
102
{ACAD_REACTORS
330
19
102
}
330
19
100
AcDbDictionary
1001
ACAD
1000
TREAT_AS_HARD
1070
     0
1000
TREAT_AS_HARD
1070
     0
  0
XRECORD
  5
748
102
{ACAD_REACTORS
330
19
102
}
330
19
100
AcDbXrecord
 90
   990106
  3

 60
     0
 61
     0
 62
     4
 63
     4
 64
     1
 65
     0
 66
     0
 67
     3
 68
     1
 69
     0
 70
     0
 71
     0
 72
     0
 40
0.0
170
     2
340
742
  0
DICTIONARY
  5
D49
102
{ACAD_REACTORS
330
19
102
}
330
19
100
AcDbDictionary
  3
ASEBLOCKHIERARCHYINDEXRECORD
350
D4B
1001
DCO15
1040
1508737092.311999
1001
ACAD
1000
TREAT_AS_HARD
1070
     0
  0
DICTIONARY
  5
D30
102
{ACAD_REACTORS
330
D2F
102
}
330
D2F
100
AcDbDictionary
1001
ACAD
1000
TREAT_AS_HARD
1070
     0
  0
XRECORD
  5
D86
102
{ACAD_REACTORS
330
D0F
102
}
330
D0F
100
AcDbXrecord
340
A
  0
XRECORD
  5
D87
102
{ACAD_REACTORS
330
D11
102
}
330
D11
100
AcDbXrecord
340
B
  0
XRECORD
  5
D79
102
{ACAD_REACTORS
330
D78
102
}
330
D78
100
AcDbXrecord
102
SHADEPLOT
 70
     0
  0
XRECORD
  5
D7F
102
{ACAD_REACTORS
330
D7E
102
}
330
D7E
100
AcDbXrecord
102
SHADEPLOT
 70
     0
  0
GROUP
  5
2EA
102
{ACAD_REACTORS
330
1A
102
}
330
1A
100
AcDbGroup
300

 70
     0
 71
     1
  0
GROUP
  5
2EE
102
{ACAD_REACTORS
330
1A
102
}
330
1A
100
AcDbGroup
300

 70
     0
 71
     1
  0
GROUP
  5
2F2
102
{ACAD_REACTORS
330
1A
102
}
330
1A
100
AcDbGroup
300

 70
     0
 71
     1
  0
GROUP
  5
2F6
102
{ACAD_REACTORS
330
1A
102
}
330
1A
100
AcDbGroup
300

 70
     0
 71
     1
  0
GROUP
  5
2FA
102
{ACAD_REACTORS
330
1A
102
}
330
1A
100
AcDbGroup
300

 70
     0
 71
     1
  0
GROUP
  5
2FE
102
{ACAD_REACTORS
330
1A
102
}
330
1A
100
AcDbGroup
300

 70
     0
 71
     1
  0
GROUP
  5
302
102
{ACAD_REACTORS
330
1A
102
}
330
1A
100
AcDbGroup
300

 70
     0
 71
     1
  0
GROUP
  5
306
102
{ACAD_REACTORS
330
1A
102
}
330
1A
100
AcDbGroup
300

 70
     0
 71
     1
  0
GROUP
  5
30A
102
{ACAD_REACTORS
330
1A
102
}
330
1A
100
AcDbGroup
300

 70
     0
 71
     1
  0
GROUP
  5
30E
102
{ACAD_REACTORS
330
1A
102
}
330
1A
100
AcDbGroup
300

 70
     0
 71
     1
  0
GROUP
  5
312
102
{ACAD_REACTORS
330
1A
102
}
330
1A
100
AcDbGroup
300

 70
     0
 71
     1
  0
GROUP
  5
316
102
{ACAD_REACTORS
330
1A
102
}
330
1A
100
AcDbGroup
300

 70
     0
 71
     1
  0
GROUP
  5
31A
102
{ACAD_REACTORS
330
1A
102
}
330
1A
100
AcDbGroup
300

 70
     0
 71
     1
  0
GROUP
  5
31E
102
{ACAD_REACTORS
330
1A
102
}
330
1A
100
AcDbGroup
300

 70
     0
 71
     1
  0
GROUP
  5
322
102
{ACAD_REACTORS
330
1A
102
}
330
1A
100
AcDbGroup
300

 70
     0
 71
     1
  0
GROUP
  5
326
102
{ACAD_REACTORS
330
1A
102
}
330
1A
100
AcDbGroup
300

 70
     0
 71
     1
  0
GROUP
  5
32A
102
{ACAD_REACTORS
330
1A
102
}
330
1A
100
AcDbGroup
300

 70
     0
 71
     1
  0
GROUP
  5
32E
102
{ACAD_REACTORS
330
1A
102
}
330
1A
100
AcDbGroup
300

 70
     0
 71
     1
  0
GROUP
  5
332
102
{ACAD_REACTORS
330
1A
102
}
330
1A
100
AcDbGroup
300

 70
     0
 71
     1
  0
GROUP
  5
336
102
{ACAD_REACTORS
330
1A
102
}
330
1A
100
AcDbGroup
300

 70
     0
 71
     1
  0
GROUP
  5
33A
102
{ACAD_REACTORS
330
1A
102
}
330
1A
100
AcDbGroup
300

 70
     0
 71
     1
  0
GROUP
  5
33E
102
{ACAD_REACTORS
330
1A
102
}
330
1A
100
AcDbGroup
300

 70
     0
 71
     1
  0
GROUP
  5
342
102
{ACAD_REACTORS
330
1A
102
}
330
1A
100
AcDbGroup
300

 70
     0
 71
     1
  0
GROUP
  5
346
102
{ACAD_REACTORS
330
1A
102
}
330
1A
100
AcDbGroup
300

 70
     0
 71
     1
  0
GROUP
  5
34A
102
{ACAD_REACTORS
330
1A
102
}
330
1A
100
AcDbGroup
300

 70
     0
 71
     1
  0
MLINESTYLE
  5
1C
102
{ACAD_REACTORS
330
1B
102
}
330
1B
100
AcDbMlineStyle
  2
STANDARD
 70
     0
  3

 62
     0
 51
90.00000000000019
 52
90.00000000000019
 71
     2
 49
0.5
 62
   256
  6
BYLAYER
 49
-0.5
 62
   256
  6
BYLAYER
  0
XRECORD
  5
D4B
102
{ACAD_REACTORS
330
D49
102
}
330
D49
100
AcDbXrecord
330
80E
330
80F
330
CD3
330
CD4
330
CCA
330
CCB
330
7F1
330
7F2
330
7E8
330
7E9
330
7DD
330
7DE
330
7D5
330
7D6
330
7C9
330
7CA
330
7C1
330
7C2
330
7B5
330
7B6
330
7AD
330
7AE
330
7A3
330
7A4
330
79A
330
79B
330
791
330
792
330
788
330
789
330
780
330
77F
330
776
330
777
330
76D
330
76E
330
AAE
330
AAF
330
ABB
330
ABC
  0
ENDSEC
  0
EOF
