  0
SECTION
  2
HEADER
  9
$ACADVER
  1
AC1012
  9
$DWGCODEPAGE
  3
dos932
  9
$INSBASE
 10
0.0
 20
0.0
 30
0.0
  9
$EXTMIN
 10
0.0
 20
-0.000000000003638
 30
0.0
  9
$EXTMAX
 10
5940.000000000003
 20
8410.0
 30
0.0
  9
$LIMMIN
 10
0.0
 20
0.0
  9
$LIMMAX
 10
5940.000000000003
 20
8409.999999999996
  9
$ORTHOMODE
 70
     0
  9
$REGENMODE
 70
     1
  9
$FILLMODE
 70
     1
  9
$QTEXTMODE
 70
     0
  9
$MIRRTEXT
 70
     0
  9
$DRAGMODE
 70
     2
  9
$LTSCALE
 40
1.0
  9
$OSMODE
 70
    37
  9
$ATTMODE
 70
     1
  9
$TEXTSIZE
 40
2.5
  9
$TRACEWID
 40
0.05
  9
$TEXTSTYLE
  7
0_8
  9
$CLAYER
  8
DEFPOINTS
  9
$CELTYPE
  6
BYLAYER
  9
$CECOLOR
 62
   256
  9
$CELTSCALE
 40
1.0
  9
$DELOBJ
 70
     1
  9
$DISPSILH
 70
     0
  9
$DIMSCALE
 40
2.0
  9
$DIMASZ
 40
2.5
  9
$DIMEXO
 40
1.5
  9
$DIMDLI
 40
0.0
  9
$DIMRND
 40
0.0
  9
$DIMDLE
 40
0.0
  9
$DIMEXE
 40
1.0
  9
$DIMTP
 40
0.0
  9
$DIMTM
 40
0.0
  9
$DIMTXT
 40
2.5
  9
$DIMCEN
 40
0.0
  9
$DIMTSZ
 40
0.0
  9
$DIMTOL
 70
     0
  9
$DIMLIM
 70
     0
  9
$DIMTIH
 70
     0
  9
$DIMTOH
 70
     0
  9
$DIMSE1
 70
     0
  9
$DIMSE2
 70
     0
  9
$DIMTAD
 70
     1
  9
$DIMZIN
 70
     8
  9
$DIMBLK
  1
OPEN30
  9
$DIMASO
 70
     1
  9
$DIMSHO
 70
     1
  9
$DIMPOST
  1

  9
$DIMAPOST
  1

  9
$DIMALT
 70
     0
  9
$DIMALTD
 70
     2
  9
$DIMALTF
 40
25.4
  9
$DIMLFAC
 40
1.0
  9
$DIMTOFL
 70
     1
  9
$DIMTVP
 40
0.0
  9
$DIMTIX
 70
     0
  9
$DIMSOXD
 70
     0
  9
$DIMSAH
 70
     0
  9
$DIMBLK1
  1

  9
$DIMBLK2
  1

  9
$DIMSTYLE
  2
SUNPOU_2
  9
$DIMCLRD
 70
   256
  9
$DIMCLRE
 70
   256
  9
$DIMCLRT
 70
   256
  9
$DIMTFAC
 40
1.0
  9
$DIMGAP
 40
1.0
  9
$DIMJUST
 70
     0
  9
$DIMSD1
 70
     0
  9
$DIMSD2
 70
     0
  9
$DIMTOLJ
 70
     1
  9
$DIMTZIN
 70
     0
  9
$DIMALTZ
 70
     0
  9
$DIMALTTZ
 70
     0
  9
$DIMFIT
 70
     3
  9
$DIMUPT
 70
     0
  9
$DIMUNIT
 70
     2
  9
$DIMDEC
 70
     1
  9
$DIMTDEC
 70
     1
  9
$DIMALTU
 70
     2
  9
$DIMALTTD
 70
     2
  9
$DIMTXSTY
  7
SUNPOU
  9
$DIMAUNIT
 70
     0
  9
$LUNITS
 70
     2
  9
$LUPREC
 70
     4
  9
$SKETCHINC
 40
0.1
  9
$FILLETRAD
 40
0.0
  9
$AUNITS
 70
     0
  9
$AUPREC
 70
     0
  9
$MENU
  1
.
  9
$ELEVATION
 40
0.0
  9
$PELEVATION
 40
0.0
  9
$THICKNESS
 40
0.0
  9
$LIMCHECK
 70
     0
  9
$BLIPMODE
 70
     0
  9
$CHAMFERA
 40
0.0
  9
$CHAMFERB
 40
0.0
  9
$CHAMFERC
 40
0.0
  9
$CHAMFERD
 40
0.0
  9
$SKPOLY
 70
     0
  9
$TDCREATE
 40
2452998.417140474
  9
$TDUPDATE
 40
2453266.459450046
  9
$TDINDWG
 40
0.9992216435
  9
$TDUSRTIMER
 40
0.9992216435
  9
$USRTIMER
 70
     1
  9
$ANGBASE
 50
0.0
  9
$ANGDIR
 70
     0
  9
$PDMODE
 70
     0
  9
$PDSIZE
 40
0.0
  9
$PLINEWID
 40
0.0
  9
$COORDS
 70
     1
  9
$SPLFRAME
 70
     0
  9
$SPLINETYPE
 70
     6
  9
$SPLINESEGS
 70
     8
  9
$ATTDIA
 70
     0
  9
$ATTREQ
 70
     1
  9
$HANDLING
 70
-16383
  9
$HANDSEED
  5
3995
  9
$SURFTAB1
 70
     6
  9
$SURFTAB2
 70
     6
  9
$SURFTYPE
 70
     6
  9
$SURFU
 70
     6
  9
$SURFV
 70
     6
  9
$UCSNAME
  2

  9
$UCSORG
 10
0.0
 20
0.0
 30
0.0
  9
$UCSXDIR
 10
1.0
 20
0.0
 30
0.0
  9
$UCSYDIR
 10
0.0
 20
1.0
 30
0.0
  9
$PUCSNAME
  2

  9
$PUCSORG
 10
0.0
 20
0.0
 30
0.0
  9
$PUCSXDIR
 10
1.0
 20
0.0
 30
0.0
  9
$PUCSYDIR
 10
0.0
 20
1.0
 30
0.0
  9
$USERI1
 70
     0
  9
$USERI2
 70
     0
  9
$USERI3
 70
     0
  9
$USERI4
 70
     0
  9
$USERI5
 70
     0
  9
$USERR1
 40
0.0
  9
$USERR2
 40
0.0
  9
$USERR3
 40
0.0
  9
$USERR4
 40
0.0
  9
$USERR5
 40
0.0
  9
$WORLDVIEW
 70
     1
  9
$SHADEDGE
 70
     3
  9
$SHADEDIF
 70
    70
  9
$TILEMODE
 70
     1
  9
$MAXACTVP
 70
    64
  9
$PINSBASE
 10
0.0
 20
0.0
 30
0.0
  9
$PLIMCHECK
 70
     0
  9
$PEXTMIN
 10
-3.802693849764182
 20
-0.301427903057629
 30
-0.0015258207003583
  9
$PEXTMAX
 10
5945.217518886606
 20
8555.924862393441
 30
0.0000000349246037
  9
$PLIMMIN
 10
-179.1999046089902
 20
-176.5318094829179
  9
$PLIMMAX
 10
6120.641482791728
 20
8732.155272586444
  9
$UNITMODE
 70
     0
  9
$VISRETAIN
 70
     1
  9
$PLINEGEN
 70
     0
  9
$PSLTSCALE
 70
     1
  9
$TREEDEPTH
 70
  3020
  9
$PICKSTYLE
 70
     1
  9
$CMLSTYLE
  2
STANDARD
  9
$CMLJUST
 70
     0
  9
$CMLSCALE
 40
1.0
  9
$SAVEIMAGES
 70
     1
  0
ENDSEC
  0
SECTION
  2
CLASSES
  0
CLASS
  1
ACDBDICTIONARYWDFLT
  2
AcDbDictionaryWithDefault
  3
AutoCAD 2000
 90
    32768
280
     0
281
     0
  0
CLASS
  1
ACDBPLACEHOLDER
  2
AcDbPlaceHolder
  3
AutoCAD 2000
 90
    32768
280
     0
281
     0
  0
CLASS
  1
LAYOUT
  2
AcDbLayout
  3
AutoCAD 2000
 90
    32768
280
     0
281
     0
  0
CLASS
  1
DICTIONARYVAR
  2
AcDbDictionaryVar
  3
AutoCAD 2000
 90
    32768
280
     0
281
     0
  0
CLASS
  1
LONG_TRANSACTION
  2
AcDbLongTransaction
  3
AutoCAD 2000
 90
    32768
280
     0
281
     0
  0
CLASS
  1
LWPOLYLINE
  2
AcDbPolyline
  3
AutoCAD 2000
 90
    32768
280
     0
281
     1
  0
CLASS
  1
HATCH
  2
AcDbHatch
  3
AutoCAD 2000
 90
    32768
280
     0
281
     1
  0
CLASS
  1
XRECORD
  2
AcDbXrecord
  3
AutoCAD 2000
 90
    32768
280
     0
281
     0
  0
CLASS
  1
LONG_TRANSACTION
  2
AcDbLongTransaction
  3
AutoCAD 2000
 90
    32768
280
     0
281
     0
  0
CLASS
  1
LWPOLYLINE
  2
AcDbPolyline
  3
AutoCAD 2000
 90
    32768
280
     0
281
     1
  0
CLASS
  1
HATCH
  2
AcDbHatch
  3
AutoCAD 2000
 90
    32768
280
     0
281
     1
  0
CLASS
  1
XRECORD
  2
AcDbXrecord
  3
AutoCAD 2000
 90
    32768
280
     0
281
     0
  0
ENDSEC
  0
SECTION
  2
TABLES
  0
TABLE
  2
VPORT
  5
8
330
0
100
AcDbSymbolTable
 70
     2
  0
VPORT
  5
3968
330
8
100
AcDbSymbolTableRecord
100
AcDbViewportTableRecord
  2
*ACTIVE
 70
     0
 10
0.0
 20
0.0
 11
1.0
 21
1.0
 12
3229.852203705488
 22
4205.000019581055
 13
0.0
 23
0.0
 14
1.0
 24
1.0
 15
0.0
 25
0.0
 16
0.0
 26
0.0
 36
1.0
 17
0.0
 27
0.0
 37
0.0
 40
8505.069550490974
 41
1.780442804428044
 42
50.0
 43
0.0
 44
0.0
 50
0.0
 51
0.0
 71
     0
 72
   100
 73
     1
 74
     1
 75
     0
 76
     0
 77
     0
 78
     0
  0
ENDTAB
  0
TABLE
  2
LTYPE
  5
5
330
0
100
AcDbSymbolTable
 70
     3
  0
LTYPE
  5
13
330
5
100
AcDbSymbolTableRecord
100
AcDbLinetypeTableRecord
  2
BYBLOCK
 70
     0
  3

 72
    65
 73
     0
 40
0.0
  0
LTYPE
  5
14
330
5
100
AcDbSymbolTableRecord
100
AcDbLinetypeTableRecord
  2
BYLAYER
 70
     0
  3

 72
    65
 73
     0
 40
0.0
  0
LTYPE
  5
15
330
5
100
AcDbSymbolTableRecord
100
AcDbLinetypeTableRecord
  2
CONTINUOUS
 70
     0
  3
CONTINUOUS
 72
    65
 73
     0
 40
0.0
  0
LTYPE
  5
B9A
330
5
100
AcDbSymbolTableRecord
100
AcDbLinetypeTableRecord
  2
CENTER2
 70
     0
  3
Center (.5x) ___ _ ___ _ ___ _ ___ _ ___ _ ___
 72
    65
 73
     4
 40
28.57499999999999
 49
19.05
 74
     0
 49
-3.174999999999998
 74
     0
 49
3.174999999999998
 74
     0
 49
-3.174999999999998
 74
     0
  0
LTYPE
  5
2A62
330
5
100
AcDbSymbolTableRecord
100
AcDbLinetypeTableRecord
  2
DASHEDX2
 70
     0
  3
Dashed (2x) ____  ____  ____  ____  ____  ___
 72
    65
 73
     2
 40
1.5
 49
1.0
 74
     0
 49
-0.5
 74
     0
  0
ENDTAB
  0
TABLE
  2
LAYER
  5
2
102
{ACAD_XDICTIONARY
360
1C2A
102
}
330
0
100
AcDbSymbolTable
 70
    11
  0
LAYER
  5
10
330
2
100
AcDbSymbolTableRecord
100
AcDbLayerTableRecord
  2
0
 70
     0
 62
     7
  6
CONTINUOUS
  0
LAYER
  5
B9C
330
2
100
AcDbSymbolTableRecord
100
AcDbLayerTableRecord
  2
DEFPOINTS
 70
     0
 62
     7
  6
CONTINUOUS
  0
LAYER
  5
B9E
330
2
100
AcDbSymbolTableRecord
100
AcDbLayerTableRecord
  2
02
 70
     0
 62
     2
  6
CONTINUOUS
  0
LAYER
  5
B9F
330
2
100
AcDbSymbolTableRecord
100
AcDbLayerTableRecord
  2
03
 70
     0
 62
     3
  6
CONTINUOUS
  0
LAYER
  5
BA2
330
2
100
AcDbSymbolTableRecord
100
AcDbLayerTableRecord
  2
06
 70
     0
 62
     6
  6
CONTINUOUS
  0
LAYER
  5
BA8
330
2
100
AcDbSymbolTableRecord
100
AcDbLayerTableRecord
  2
CHUSIN
 70
     0
 62
     6
  6
CENTER2
  0
LAYER
  5
BA9
330
2
100
AcDbSymbolTableRecord
100
AcDbLayerTableRecord
  2
HIKIDASI
 70
     0
 62
     6
  6
CONTINUOUS
  0
LAYER
  5
BAA
330
2
100
AcDbSymbolTableRecord
100
AcDbLayerTableRecord
  2
KAKURE
 70
     0
 62
     6
  6
DASHEDX2
  0
LAYER
  5
BAB
330
2
100
AcDbSymbolTableRecord
100
AcDbLayerTableRecord
  2
MOJI
 70
     0
 62
     3
  6
CONTINUOUS
  0
LAYER
  5
BAD
330
2
100
AcDbSymbolTableRecord
100
AcDbLayerTableRecord
  2
SUNPOU
 70
     0
 62
     6
  6
CONTINUOUS
  0
LAYER
  5
1C2D
330
2
100
AcDbSymbolTableRecord
100
AcDbLayerTableRecord
  2
SAISEN
 70
     0
 62
     3
  6
CONTINUOUS
  0
ENDTAB
  0
TABLE
  2
STYLE
  5
3
330
0
100
AcDbSymbolTable
 70
     4
  0
STYLE
  5
11
330
3
100
AcDbSymbolTableRecord
100
AcDbTextStyleTableRecord
  2
STANDARD
 70
     0
 40
0.0
 41
1.0
 50
0.0
 71
     0
 42
0.0
  3
TXT
  4
BIGFONT
  0
STYLE
  5
BB2
330
3
100
AcDbSymbolTableRecord
100
AcDbTextStyleTableRecord
  2
SUNPOU
 70
     0
 40
0.0
 41
0.8
 50
0.0
 71
     0
 42
0.2
  3
txt.shx
  4
extfont.shx
  0
STYLE
  5
BBB
330
3
100
AcDbSymbolTableRecord
100
AcDbTextStyleTableRecord
  2
0_8
 70
     0
 40
0.0
 41
0.8
 50
0.0
 71
     0
 42
2.5
  3
txt.shx
  4
extfont.shx
  0
STYLE
  5
38D0
330
3
100
AcDbSymbolTableRecord
100
AcDbTextStyleTableRecord
  2
0_80
 70
     0
 40
0.0
 41
0.8
 50
0.0
 71
     0
 42
16.8
  3
txt.shx
  4
extfont.shx
  0
ENDTAB
  0
TABLE
  2
VIEW
  5
6
330
0
100
AcDbSymbolTable
 70
     0
  0
ENDTAB
  0
TABLE
  2
UCS
  5
7
330
0
100
AcDbSymbolTable
 70
     0
  0
ENDTAB
  0
TABLE
  2
APPID
  5
9
330
0
100
AcDbSymbolTable
 70
     3
  0
APPID
  5
12
330
9
100
AcDbSymbolTableRecord
100
AcDbRegAppTableRecord
  2
ACAD
 70
     0
  0
APPID
  5
378D
330
9
100
AcDbSymbolTableRecord
100
AcDbRegAppTableRecord
  2
CONTENTBLOCKICON
 70
     0
  0
APPID
  5
38CC
330
9
100
AcDbSymbolTableRecord
100
AcDbRegAppTableRecord
  2
DCO15
 70
     0
  0
ENDTAB
  0
TABLE
  2
DIMSTYLE
  5
A
330
0
100
AcDbSymbolTable
 70
     3
  0
DIMSTYLE
105
B8E
330
A
100
AcDbSymbolTableRecord
100
AcDbDimStyleTableRecord
  2
STANDARD
 70
     0
  3

  4

  5

  6

  7

 40
1.0
 41
0.18
 42
0.0625
 43
0.38
 44
0.18
 45
0.0
 46
0.0
 47
0.0
 48
0.0
140
0.18
141
0.09
142
0.0
143
25.4
144
1.0
145
0.0
146
1.0
147
0.09
 71
     0
 72
     0
 73
     1
 74
     1
 75
     0
 76
     0
 77
     0
 78
     0
170
     0
171
     2
172
     0
173
     0
174
     0
175
     0
176
     0
177
     0
178
     0
270
     2
271
     4
272
     4
273
     2
274
     2
340
11
275
     0
280
     0
281
     0
282
     0
283
     1
284
     0
285
     0
286
     0
287
     3
288
     0
  0
DIMSTYLE
105
BB1
102
{ACAD_REACTORS
330
BEE
330
BFD
330
C0A
330
C19
330
C28
330
C89
330
CA8
330
CB7
330
CF4
330
EDC
330
EEB
330
F26
330
F35
330
12E7
330
12F4
330
1324
330
133E
330
134D
330
13AD
330
13BC
330
13CB
330
13D8
330
13E7
330
13F6
330
1403
330
1412
330
1421
330
142F
330
143E
330
144B
330
1467
330
1474
330
1497
330
14C7
330
14D4
330
14F0
330
14FF
330
150E
330
153C
330
154B
330
155A
330
1569
330
1578
330
1585
330
1594
330
15A3
330
15DE
330
15EB
330
1B4A
330
1B4B
330
350B
330
351A
330
3529
330
35F4
330
365E
330
365F
330
365C
330
365B
330
365A
330
365D
330
373F
102
}
330
A
100
AcDbSymbolTableRecord
100
AcDbDimStyleTableRecord
  2
SUNPOU_30
 70
     0
  3

  4

  5
OPEN30
  6

  7

 40
30.0
 41
2.5
 42
1.5
 43
0.0
 44
1.0
 45
0.0
 46
0.0
 47
0.0
 48
0.0
140
2.5
141
0.0
142
0.0
143
25.4
144
1.0
145
0.0
146
1.0
147
1.0
 71
     0
 72
     0
 73
     0
 74
     0
 75
     0
 76
     0
 77
     1
 78
     8
170
     0
171
     2
172
     1
173
     0
174
     0
175
     0
176
   256
177
   256
178
     6
270
     2
271
     1
272
     1
273
     2
274
     2
340
BB2
275
     0
280
     0
281
     0
282
     0
283
     1
284
     0
285
     0
286
     0
287
     3
288
     0
  0
DIMSTYLE
105
38EA
330
A
100
AcDbSymbolTableRecord
100
AcDbDimStyleTableRecord
  2
SUNPOU_2
 70
     0
  3

  4

  5
OPEN30
  6

  7

 40
2.0
 41
2.5
 42
1.5
 43
0.0
 44
1.0
 45
0.0
 46
0.0
 47
0.0
 48
0.0
140
2.5
141
0.0
142
0.0
143
25.4
144
1.0
145
0.0
146
1.0
147
1.0
 71
     0
 72
     0
 73
     0
 74
     0
 75
     0
 76
     0
 77
     1
 78
     8
170
     0
171
     2
172
     1
173
     0
174
     0
175
     0
176
   256
177
   256
178
   256
270
     2
271
     1
272
     1
273
     2
274
     2
340
BB2
275
     0
280
     0
281
     0
282
     0
283
     1
284
     0
285
     0
286
     0
287
     3
288
     0
  0
ENDTAB
  0
TABLE
  2
BLOCK_RECORD
  5
1
330
0
100
AcDbSymbolTable
 70
    64
  0
BLOCK_RECORD
  5
1E
102
{ACAD_XDICTIONARY
360
378B
102
}
330
1
100
AcDbSymbolTableRecord
100
AcDbBlockTableRecord
  2
*MODEL_SPACE
  0
BLOCK_RECORD
  5
1A
102
{ACAD_XDICTIONARY
360
3789
102
}
330
1
100
AcDbSymbolTableRecord
100
AcDbBlockTableRecord
  2
*PAPER_SPACE
  0
BLOCK_RECORD
  5
BB3
330
1
100
AcDbSymbolTableRecord
100
AcDbBlockTableRecord
  2
_OPEN30
1001
CONTENTBLOCKICON
1071
        0
1004
2800000020000000200000000100080000000000000400000000000000000000000000000000000000000000000080000080000000808000800000008000800080800000C0C0C000C0DCC000F0CAA6000020400000206000002080000020A0000020C0000020E00000400000004020000040400000406000004080000040A0
1004
000040C0000040E00000600000006020000060400000606000006080000060A0000060C0000060E00000800000008020000080400000806000008080000080A0000080C0000080E00000A0000000A0200000A0400000A0600000A0800000A0A00000A0C00000A0E00000C0000000C0200000C0400000C0600000C0800000C0
1004
A00000C0C00000C0E00000E0000000E0200000E0400000E0600000E0800000E0A00000E0C00000E0E00040000000400020004000400040006000400080004000A0004000C0004000E00040200000402020004020400040206000402080004020A0004020C0004020E000404000004040200040404000404060004040800040
1004
40A0004040C0004040E00040600000406020004060400040606000406080004060A0004060C0004060E00040800000408020004080400040806000408080004080A0004080C0004080E00040A0000040A0200040A0400040A0600040A0800040A0A00040A0C00040A0E00040C0000040C0200040C0400040C0600040C08000
1004
40C0A00040C0C00040C0E00040E0000040E0200040E0400040E0600040E0800040E0A00040E0C00040E0E00080000000800020008000400080006000800080008000A0008000C0008000E00080200000802020008020400080206000802080008020A0008020C0008020E00080400000804020008040400080406000804080
1004
008040A0008040C0008040E00080600000806020008060400080606000806080008060A0008060C0008060E00080800000808020008080400080806000808080008080A0008080C0008080E00080A0000080A0200080A0400080A0600080A0800080A0A00080A0C00080A0E00080C0000080C0200080C0400080C0600080C0
1004
800080C0A00080C0C00080C0E00080E0000080E0200080E0400080E0600080E0800080E0A00080E0C00080E0E000C0000000C0002000C0004000C0006000C0008000C000A000C000C000C000E000C0200000C0202000C0204000C0206000C0208000C020A000C020C000C020E000C0400000C0402000C0404000C0406000C0
1004
408000C040A000C040C000C040E000C0600000C0602000C0604000C0606000C0608000C060A000C060C000C060E000C0800000C0802000C0804000C0806000C0808000C080A000C080C000C080E000C0A00000C0A02000C0A04000C0A06000C0A08000C0A0A000C0A0C000C0A0E000C0C00000C0C02000C0C04000C0C06000
1004
C0C08000C0C0A000F0FBFF00A4A0A000808080000000FF0000FF000000FFFF00FF000000FF00FF00FFFF0000FFFFFF0000000000000000000000000000000000000000000000000000000000000000000000000000000000000000000000000000000000000000000000000000000000000000000000000000000000000000
1004
00000000000000000000000000000000000000000000000000000000000000000000000000000000000000000000000000000000000000000000000000000000000000000000000000000000000000000000000000000000000000000000000000000000000000000000000000000000000000000000000000000000000000
1004
000000000000000000000000000000000000000000000000000000000000000000000000000000000000000000000000000000FFFF0000000000000000000000000000000000000000000000000000000000000000FFFFFFFF0000000000000000000000000000000000000000000000000000000000000000FFFFFFFF0000
1004
000000000000000000000000000000000000000000000000000000000000FFFFFF0000000000000000000000000000000000000000000000000000000000000000FFFFFFFF0000000000000000000000000000000000000000000000000000000000000000FFFFFF0000000000000000000000000000000000000000000000
1004
000000000000000000FFFFFFFF0000000000000000000000000000000000000000000000000000000000000000FFFFFFFF00000000FFFFFFFFFFFFFFFFFFFFFFFFFFFFFFFFFFFFFFFFFFFFFFFFFFFFFFFFFFFF00000000000000000000000000000000000000000000000000FFFFFFFF000000000000000000000000000000
1004
000000000000000000FFFFFFFF000000000000000000000000000000000000000000000000FFFFFFFF000000000000000000000000000000000000000000000000FFFFFFFF000000000000000000000000000000000000000000000000FFFFFFFF000000000000000000000000000000000000000000000000FFFFFFFF0000
1004
0000000000000000000000000000000000000000000000FFFFFF0000000000000000000000000000000000000000000000000000000000000000000000000000000000000000000000000000000000000000000000000000000000000000000000000000000000000000000000000000000000000000000000000000000000
1004
00000000000000000000000000000000000000000000000000000000000000000000000000000000000000000000000000000000000000000000000000000000000000000000000000000000000000000000000000000000000000000000000000000000000000000000000000000000000000000000000000000000000000
1004
0000000000000000000000000000000000000000000000000000000000000000000000000000000000000000000000000000000000000000
  0
BLOCK_RECORD
  5
BEF
330
1
100
AcDbSymbolTableRecord
100
AcDbBlockTableRecord
  2
*D1
  0
BLOCK_RECORD
  5
BFE
330
1
100
AcDbSymbolTableRecord
100
AcDbBlockTableRecord
  2
*D2
  0
BLOCK_RECORD
  5
C0B
330
1
100
AcDbSymbolTableRecord
100
AcDbBlockTableRecord
  2
*D3
  0
BLOCK_RECORD
  5
C1A
330
1
100
AcDbSymbolTableRecord
100
AcDbBlockTableRecord
  2
*D4
  0
BLOCK_RECORD
  5
C29
330
1
100
AcDbSymbolTableRecord
100
AcDbBlockTableRecord
  2
*D5
  0
BLOCK_RECORD
  5
C8A
330
1
100
AcDbSymbolTableRecord
100
AcDbBlockTableRecord
  2
*D6
  0
BLOCK_RECORD
  5
CA9
330
1
100
AcDbSymbolTableRecord
100
AcDbBlockTableRecord
  2
*D7
  0
BLOCK_RECORD
  5
CB8
330
1
100
AcDbSymbolTableRecord
100
AcDbBlockTableRecord
  2
*D8
  0
BLOCK_RECORD
  5
CF5
330
1
100
AcDbSymbolTableRecord
100
AcDbBlockTableRecord
  2
*D9
  0
BLOCK_RECORD
  5
EDD
330
1
100
AcDbSymbolTableRecord
100
AcDbBlockTableRecord
  2
*D10
  0
BLOCK_RECORD
  5
EEC
330
1
100
AcDbSymbolTableRecord
100
AcDbBlockTableRecord
  2
*D11
  0
BLOCK_RECORD
  5
F27
330
1
100
AcDbSymbolTableRecord
100
AcDbBlockTableRecord
  2
*D12
  0
BLOCK_RECORD
  5
F36
330
1
100
AcDbSymbolTableRecord
100
AcDbBlockTableRecord
  2
*D13
  0
BLOCK_RECORD
  5
12E8
330
1
100
AcDbSymbolTableRecord
100
AcDbBlockTableRecord
  2
*D14
  0
BLOCK_RECORD
  5
12F5
330
1
100
AcDbSymbolTableRecord
100
AcDbBlockTableRecord
  2
*D15
  0
BLOCK_RECORD
  5
1325
330
1
100
AcDbSymbolTableRecord
100
AcDbBlockTableRecord
  2
*D16
  0
BLOCK_RECORD
  5
133F
330
1
100
AcDbSymbolTableRecord
100
AcDbBlockTableRecord
  2
*D17
  0
BLOCK_RECORD
  5
134E
330
1
100
AcDbSymbolTableRecord
100
AcDbBlockTableRecord
  2
*D18
  0
BLOCK_RECORD
  5
13AE
330
1
100
AcDbSymbolTableRecord
100
AcDbBlockTableRecord
  2
*D19
  0
BLOCK_RECORD
  5
13BD
330
1
100
AcDbSymbolTableRecord
100
AcDbBlockTableRecord
  2
*D20
  0
BLOCK_RECORD
  5
13CC
330
1
100
AcDbSymbolTableRecord
100
AcDbBlockTableRecord
  2
*D21
  0
BLOCK_RECORD
  5
13D9
330
1
100
AcDbSymbolTableRecord
100
AcDbBlockTableRecord
  2
*D22
  0
BLOCK_RECORD
  5
13E8
330
1
100
AcDbSymbolTableRecord
100
AcDbBlockTableRecord
  2
*D23
  0
BLOCK_RECORD
  5
13F7
330
1
100
AcDbSymbolTableRecord
100
AcDbBlockTableRecord
  2
*D24
  0
BLOCK_RECORD
  5
1404
330
1
100
AcDbSymbolTableRecord
100
AcDbBlockTableRecord
  2
*D25
  0
BLOCK_RECORD
  5
1413
330
1
100
AcDbSymbolTableRecord
100
AcDbBlockTableRecord
  2
*D26
  0
BLOCK_RECORD
  5
1422
330
1
100
AcDbSymbolTableRecord
100
AcDbBlockTableRecord
  2
*D27
  0
BLOCK_RECORD
  5
1430
330
1
100
AcDbSymbolTableRecord
100
AcDbBlockTableRecord
  2
*D28
  0
BLOCK_RECORD
  5
143F
330
1
100
AcDbSymbolTableRecord
100
AcDbBlockTableRecord
  2
*D29
  0
BLOCK_RECORD
  5
144C
330
1
100
AcDbSymbolTableRecord
100
AcDbBlockTableRecord
  2
*D30
  0
BLOCK_RECORD
  5
1468
330
1
100
AcDbSymbolTableRecord
100
AcDbBlockTableRecord
  2
*D31
  0
BLOCK_RECORD
  5
1475
330
1
100
AcDbSymbolTableRecord
100
AcDbBlockTableRecord
  2
*D32
  0
BLOCK_RECORD
  5
1498
330
1
100
AcDbSymbolTableRecord
100
AcDbBlockTableRecord
  2
*D33
  0
BLOCK_RECORD
  5
14C8
330
1
100
AcDbSymbolTableRecord
100
AcDbBlockTableRecord
  2
*D34
  0
BLOCK_RECORD
  5
14D5
330
1
100
AcDbSymbolTableRecord
100
AcDbBlockTableRecord
  2
*D35
  0
BLOCK_RECORD
  5
14F1
330
1
100
AcDbSymbolTableRecord
100
AcDbBlockTableRecord
  2
*D36
  0
BLOCK_RECORD
  5
1500
330
1
100
AcDbSymbolTableRecord
100
AcDbBlockTableRecord
  2
*D37
  0
BLOCK_RECORD
  5
150F
330
1
100
AcDbSymbolTableRecord
100
AcDbBlockTableRecord
  2
*D38
  0
BLOCK_RECORD
  5
153D
330
1
100
AcDbSymbolTableRecord
100
AcDbBlockTableRecord
  2
*D39
  0
BLOCK_RECORD
  5
154C
330
1
100
AcDbSymbolTableRecord
100
AcDbBlockTableRecord
  2
*D40
  0
BLOCK_RECORD
  5
155B
330
1
100
AcDbSymbolTableRecord
100
AcDbBlockTableRecord
  2
*D41
  0
BLOCK_RECORD
  5
156A
330
1
100
AcDbSymbolTableRecord
100
AcDbBlockTableRecord
  2
*D42
  0
BLOCK_RECORD
  5
1579
330
1
100
AcDbSymbolTableRecord
100
AcDbBlockTableRecord
  2
*D43
  0
BLOCK_RECORD
  5
1586
330
1
100
AcDbSymbolTableRecord
100
AcDbBlockTableRecord
  2
*D44
  0
BLOCK_RECORD
  5
1595
330
1
100
AcDbSymbolTableRecord
100
AcDbBlockTableRecord
  2
*D45
  0
BLOCK_RECORD
  5
15A4
330
1
100
AcDbSymbolTableRecord
100
AcDbBlockTableRecord
  2
*D46
  0
BLOCK_RECORD
  5
15DF
330
1
100
AcDbSymbolTableRecord
100
AcDbBlockTableRecord
  2
*D47
  0
BLOCK_RECORD
  5
15EC
330
1
100
AcDbSymbolTableRecord
100
AcDbBlockTableRecord
  2
*D48
  0
BLOCK_RECORD
  5
19EB
330
1
100
AcDbSymbolTableRecord
100
AcDbBlockTableRecord
  2
_DOTSMALL
  0
BLOCK_RECORD
  5
1A47
330
1
100
AcDbSymbolTableRecord
100
AcDbBlockTableRecord
  2
_NONE
  0
BLOCK_RECORD
  5
1B4C
330
1
100
AcDbSymbolTableRecord
100
AcDbBlockTableRecord
  2
*D51
  0
BLOCK_RECORD
  5
1B58
330
1
100
AcDbSymbolTableRecord
100
AcDbBlockTableRecord
  2
*D52
  0
BLOCK_RECORD
  5
350C
330
1
100
AcDbSymbolTableRecord
100
AcDbBlockTableRecord
  2
*D53
  0
BLOCK_RECORD
  5
351B
330
1
100
AcDbSymbolTableRecord
100
AcDbBlockTableRecord
  2
*D54
  0
BLOCK_RECORD
  5
352A
330
1
100
AcDbSymbolTableRecord
100
AcDbBlockTableRecord
  2
*D55
  0
BLOCK_RECORD
  5
35F5
330
1
100
AcDbSymbolTableRecord
100
AcDbBlockTableRecord
  2
*D56
  0
BLOCK_RECORD
  5
3682
330
1
100
AcDbSymbolTableRecord
100
AcDbBlockTableRecord
  2
*D57
  0
BLOCK_RECORD
  5
3690
330
1
100
AcDbSymbolTableRecord
100
AcDbBlockTableRecord
  2
*D58
  0
BLOCK_RECORD
  5
369E
330
1
100
AcDbSymbolTableRecord
100
AcDbBlockTableRecord
  2
*D59
  0
BLOCK_RECORD
  5
36AC
330
1
100
AcDbSymbolTableRecord
100
AcDbBlockTableRecord
  2
*D60
  0
BLOCK_RECORD
  5
36BD
330
1
100
AcDbSymbolTableRecord
100
AcDbBlockTableRecord
  2
*D61
  0
BLOCK_RECORD
  5
36CB
330
1
100
AcDbSymbolTableRecord
100
AcDbBlockTableRecord
  2
*D62
  0
BLOCK_RECORD
  5
3740
330
1
100
AcDbSymbolTableRecord
100
AcDbBlockTableRecord
  2
*D63
  0
ENDTAB
  0
ENDSEC
  0
SECTION
  2
BLOCKS
  0
BLOCK
  5
1F
330
1E
100
AcDbEntity
  8
0
100
AcDbBlockBegin
  2
*MODEL_SPACE
 70
     0
 10
0.0
 20
0.0
 30
0.0
  3
*MODEL_SPACE
  1

  0
ENDBLK
  5
20
330
1E
100
AcDbEntity
  8
0
100
AcDbBlockEnd
  0
BLOCK
  5
1B
330
1A
100
AcDbEntity
 67
     1
  8
0
100
AcDbBlockBegin
  2
*PAPER_SPACE
 70
     0
 10
0.0
 20
0.0
 30
0.0
  3
*PAPER_SPACE
  1

  0
ENDBLK
  5
1C
330
1A
100
AcDbEntity
 67
     1
  8
0
100
AcDbBlockEnd
  0
BLOCK
  5
BB7
330
BB3
100
AcDbEntity
  8
0
100
AcDbBlockBegin
  2
_OPEN30
 70
     0
 10
0.0
 20
0.0
 30
0.0
  3
_OPEN30
  1

  0
LINE
  5
BB4
330
BB3
100
AcDbEntity
  8
0
  6
BYBLOCK
 62
     0
100
AcDbLine
 10
-1.0
 20
0.26794919
 30
0.0
 11
0.0
 21
0.0
 31
0.0
  0
LINE
  5
BB5
330
BB3
100
AcDbEntity
  8
0
  6
BYBLOCK
 62
     0
100
AcDbLine
 10
0.0
 20
0.0
 30
0.0
 11
-1.0
 21
-0.26794919
 31
0.0
  0
LINE
  5
BB6
330
BB3
100
AcDbEntity
  8
0
  6
BYBLOCK
 62
     0
100
AcDbLine
 10
0.0
 20
0.0
 30
0.0
 11
-1.0
 21
0.0
 31
0.0
  0
ENDBLK
  5
BB8
330
BB3
100
AcDbEntity
  8
0
100
AcDbBlockEnd
  0
BLOCK
  5
BFB
330
BEF
100
AcDbEntity
  8
0
100
AcDbBlockBegin
  2
*D1
 70
     1
 10
0.0
 20
0.0
 30
0.0
  3
*D1
  1

  0
LINE
  5
378E
330
BEF
100
AcDbEntity
  8
SUNPOU
100
AcDbLine
 10
4970.90446860087
 20
3780.679963639162
 30
0.0
 11
4970.90446860087
 21
3779.425262003213
 31
0.0
  0
LINE
  5
378F
330
BEF
100
AcDbEntity
  8
SUNPOU
100
AcDbLine
 10
4950.904316012969
 20
3780.679963639162
 30
0.0
 11
4950.904316012969
 21
3779.425262003213
 31
0.0
  0
LINE
  5
3790
330
BEF
100
AcDbEntity
  8
SUNPOU
100
AcDbLine
 10
5045.904468600871
 20
3809.425262003212
 30
0.0
 11
5120.904468600871
 21
3809.425262003212
 31
0.0
  0
LINE
  5
3791
330
BEF
100
AcDbEntity
  8
SUNPOU
100
AcDbLine
 10
4950.904316012969
 20
3809.425262003212
 30
0.0
 11
4875.904316012968
 21
3809.425262003212
 31
0.0
  0
MTEXT
  5
3792
330
BEF
100
AcDbEntity
  8
SUNPOU
 62
     6
100
AcDbMText
 10
5041.821729116662
 20
3871.608152569501
 30
0.0
 40
75.0
 41
0.0
 71
     5
 72
     1
  1
\A1;20
  7
SUNPOU
1001
ACAD
1000
MTEXTBEGIN
1070
    73
1070
     1
1070
    44
1040
1.0
1070
    74
1070
     0
1000
MTEXTEND
1000
MTEXTBEGIN
1070
    73
1070
     1
1070
    44
1040
1.0
1070
    74
1070
     0
1000
MTEXTEND
  0
LINE
  5
3793
330
BEF
100
AcDbEntity
  8
SUNPOU
100
AcDbLine
 10
4970.90446860087
 20
3809.425262003212
 30
0.0
 11
4950.904316012969
 21
3809.425262003212
 31
0.0
  0
INSERT
  5
3794
330
BEF
100
AcDbEntity
  8
SUNPOU
100
AcDbBlockReference
  2
_OPEN30
 10
4970.90446860087
 20
3809.425262003212
 30
0.0
 41
75.0
 42
75.0
 43
75.0
 50
180.0
  0
INSERT
  5
3795
330
BEF
100
AcDbEntity
  8
SUNPOU
100
AcDbBlockReference
  2
_DOTSMALL
 10
4950.904316012969
 20
3809.425262003212
 30
0.0
 41
75.0
 42
75.0
 43
75.0
  0
POINT
  5
3796
330
BEF
100
AcDbEntity
  8
DEFPOINTS
 62
     0
100
AcDbPoint
 10
4970.90446860087
 20
3825.679963639162
 30
0.0
  0
POINT
  5
3797
330
BEF
100
AcDbEntity
  8
DEFPOINTS
 62
     0
100
AcDbPoint
 10
4950.904316012969
 20
3825.679963639162
 30
0.0
  0
POINT
  5
3798
330
BEF
100
AcDbEntity
  8
DEFPOINTS
 62
     0
100
AcDbPoint
 10
4950.904316012969
 20
3809.425262003212
 30
0.0
  0
ENDBLK
  5
BFC
330
BEF
100
AcDbEntity
  8
0
100
AcDbBlockEnd
  0
BLOCK
  5
C08
330
BFE
100
AcDbEntity
  8
0
100
AcDbBlockBegin
  2
*D2
 70
     1
 10
0.0
 20
0.0
 30
0.0
  3
*D2
  1

  0
LINE
  5
3799
330
BFE
100
AcDbEntity
  8
SUNPOU
100
AcDbLine
 10
4950.904316012969
 20
3780.679963639162
 30
0.0
 11
4950.904316012969
 21
3779.425262003213
 31
0.0
  0
LINE
  5
379A
330
BFE
100
AcDbEntity
  8
SUNPOU
100
AcDbLine
 10
4740.904468600871
 20
3854.425262003213
 30
0.0
 11
4740.904468600871
 21
3839.425262003213
 31
0.0
  0
LINE
  5
379B
330
BFE
100
AcDbEntity
  8
SUNPOU
100
AcDbLine
 10
4950.904316012969
 20
3809.425262003212
 30
0.0
 11
5025.904316012969
 21
3809.425262003212
 31
0.0
  0
LINE
  5
379C
330
BFE
100
AcDbEntity
  8
SUNPOU
100
AcDbLine
 10
4665.904468600871
 20
3809.425262003212
 30
0.0
 11
4590.904468600871
 21
3809.425262003212
 31
0.0
  0
MTEXT
  5
379D
330
BFE
100
AcDbEntity
  8
SUNPOU
 62
     6
100
AcDbMText
 10
4841.053945013715
 20
3869.100511158221
 30
0.0
 40
75.0
 41
0.0
 71
     5
 72
     1
  1
\A1;210
  7
SUNPOU
1001
ACAD
1000
MTEXTBEGIN
1070
    73
1070
     1
1070
    44
1040
1.0
1070
    74
1070
     0
1000
MTEXTEND
1000
MTEXTBEGIN
1070
    73
1070
     1
1070
    44
1040
1.0
1070
    74
1070
     0
1000
MTEXTEND
  0
LINE
  5
379E
330
BFE
100
AcDbEntity
  8
SUNPOU
100
AcDbLine
 10
4950.904316012969
 20
3809.425262003212
 30
0.0
 11
4740.904468600871
 21
3809.425262003212
 31
0.0
  0
INSERT
  5
379F
330
BFE
100
AcDbEntity
  8
SUNPOU
100
AcDbBlockReference
  2
_OPEN30
 10
4740.904468600871
 20
3809.425262003212
 30
0.0
 41
75.0
 42
75.0
 43
75.0
  0
POINT
  5
37A0
330
BFE
100
AcDbEntity
  8
DEFPOINTS
 62
     0
100
AcDbPoint
 10
4950.904316012969
 20
3825.679963639162
 30
0.0
  0
POINT
  5
37A1
330
BFE
100
AcDbEntity
  8
DEFPOINTS
 62
     0
100
AcDbPoint
 10
4740.904468600871
 20
3809.425262003212
 30
0.0
  0
POINT
  5
37A2
330
BFE
100
AcDbEntity
  8
DEFPOINTS
 62
     0
100
AcDbPoint
 10
4740.904468600871
 20
3809.425262003212
 30
0.0
  0
ENDBLK
  5
C09
330
BFE
100
AcDbEntity
  8
0
100
AcDbBlockEnd
  0
BLOCK
  5
C17
330
C0B
100
AcDbEntity
  8
0
100
AcDbBlockBegin
  2
*D3
 70
     1
 10
0.0
 20
0.0
 30
0.0
  3
*D3
  1

  0
LINE
  5
37A3
330
C0B
100
AcDbEntity
  8
SUNPOU
100
AcDbLine
 10
4950.904316012971
 20
4208.95864225022
 30
0.0
 11
4950.904316012971
 21
3990.668323225687
 31
0.0
  0
LINE
  5
37A4
330
C0B
100
AcDbEntity
  8
SUNPOU
100
AcDbLine
 10
4850.904316012972
 20
4204.808556801003
 30
0.0
 11
4850.904316012972
 21
3990.668323225687
 31
0.0
  0
LINE
  5
37A5
330
C0B
100
AcDbEntity
  8
SUNPOU
100
AcDbLine
 10
5025.904316012971
 20
4020.668323225687
 30
0.0
 11
5100.904316012972
 21
4020.668323225687
 31
0.0
  0
LINE
  5
37A6
330
C0B
100
AcDbEntity
  8
SUNPOU
100
AcDbLine
 10
4850.904316012972
 20
4020.668323225687
 30
0.0
 11
4775.904316012971
 21
4020.668323225687
 31
0.0
  0
MTEXT
  5
37A7
330
C0B
100
AcDbEntity
  8
SUNPOU
 62
     6
100
AcDbMText
 10
5050.406295588647
 20
4091.393958107643
 30
0.0
 40
75.0
 41
0.0
 71
     5
 72
     1
  1
\A1;100
  7
SUNPOU
1001
ACAD
1000
MTEXTBEGIN
1070
    73
1070
     1
1070
    44
1040
1.0
1070
    74
1070
     0
1000
MTEXTEND
1000
MTEXTBEGIN
1070
    73
1070
     1
1070
    44
1040
1.0
1070
    74
1070
     0
1000
MTEXTEND
  0
LINE
  5
37A8
330
C0B
100
AcDbEntity
  8
SUNPOU
100
AcDbLine
 10
4950.904316012971
 20
4020.668323225687
 30
0.0
 11
4850.904316012972
 21
4020.668323225687
 31
0.0
  0
INSERT
  5
37A9
330
C0B
100
AcDbEntity
  8
SUNPOU
100
AcDbBlockReference
  2
_OPEN30
 10
4950.904316012971
 20
4020.668323225687
 30
0.0
 41
75.0
 42
75.0
 43
75.0
 50
180.0
  0
POINT
  5
37AA
330
C0B
100
AcDbEntity
  8
DEFPOINTS
 62
     0
100
AcDbPoint
 10
4950.904316012971
 20
4253.95864225022
 30
0.0
  0
POINT
  5
37AB
330
C0B
100
AcDbEntity
  8
DEFPOINTS
 62
     0
100
AcDbPoint
 10
4850.904316012972
 20
4249.808556801002
 30
0.0
  0
POINT
  5
37AC
330
C0B
100
AcDbEntity
  8
DEFPOINTS
 62
     0
100
AcDbPoint
 10
4850.904316012972
 20
4020.668323225687
 30
0.0
  0
ENDBLK
  5
C18
330
C0B
100
AcDbEntity
  8
0
100
AcDbBlockEnd
  0
BLOCK
  5
C26
330
C1A
100
AcDbEntity
  8
0
100
AcDbBlockBegin
  2
*D4
 70
     1
 10
0.0
 20
0.0
 30
0.0
  3
*D4
  1

  0
LINE
  5
2F73
330
C1A
100
AcDbEntity
  8
SUNPOU
100
AcDbLine
 10
4850.904316012972
 20
4204.808556801003
 30
0.0
 11
4850.904316012972
 21
3990.668323225687
 31
0.0
  0
LINE
  5
2F74
330
C1A
100
AcDbEntity
  8
SUNPOU
100
AcDbLine
 10
4840.904316012971
 20
4204.808556801003
 30
0.0
 11
4840.904316012971
 21
3990.668323225687
 31
0.0
  0
LINE
  5
2F75
330
C1A
100
AcDbEntity
  8
SUNPOU
100
AcDbLine
 10
4925.904316012971
 20
4020.668323225687
 30
0.0
 11
5000.904316012971
 21
4020.668323225687
 31
0.0
  0
LINE
  5
2F76
330
C1A
100
AcDbEntity
  8
SUNPOU
100
AcDbLine
 10
4765.904316012971
 20
4020.668323225687
 30
0.0
 11
4690.904316012971
 21
4020.668323225687
 31
0.0
  0
MTEXT
  5
2F77
330
C1A
100
AcDbEntity
  8
SUNPOU
 62
     6
100
AcDbMText
 10
4901.588939196955
 20
4084.918086941462
 30
0.0
 40
75.0
 41
0.0
 71
     5
 72
     1
  1
\A1;10
  7
SUNPOU
1001
ACAD
1000
MTEXTBEGIN
1070
    73
1070
     1
1070
    44
1040
1.0
1070
    74
1070
     0
1000
MTEXTEND
1000
MTEXTBEGIN
1070
    73
1070
     1
1070
    44
1040
1.0
1070
    74
1070
     0
1000
MTEXTEND
  0
LINE
  5
2F78
330
C1A
100
AcDbEntity
  8
SUNPOU
100
AcDbLine
 10
4850.904316012972
 20
4020.668323225687
 30
0.0
 11
4840.904316012971
 21
4020.668323225687
 31
0.0
  0
INSERT
  5
2F79
330
C1A
100
AcDbEntity
  8
SUNPOU
100
AcDbBlockReference
  2
_OPEN30
 10
4850.904316012972
 20
4020.668323225687
 30
0.0
 41
75.0
 42
75.0
 43
75.0
 50
180.0
  0
INSERT
  5
2F7A
330
C1A
100
AcDbEntity
  8
SUNPOU
100
AcDbBlockReference
  2
_OPEN30
 10
4840.904316012971
 20
4020.668323225687
 30
0.0
 41
75.0
 42
75.0
 43
75.0
  0
POINT
  5
2F7B
330
C1A
100
AcDbEntity
  8
DEFPOINTS
 62
     0
100
AcDbPoint
 10
4850.904316012972
 20
4249.808556801002
 30
0.0
  0
POINT
  5
2F7C
330
C1A
100
AcDbEntity
  8
DEFPOINTS
 62
     0
100
AcDbPoint
 10
4840.904316012971
 20
4249.808556801002
 30
0.0
  0
POINT
  5
2F7D
330
C1A
100
AcDbEntity
  8
DEFPOINTS
 62
     0
100
AcDbPoint
 10
4840.904316012971
 20
4020.668323225687
 30
0.0
  0
ENDBLK
  5
C27
330
C1A
100
AcDbEntity
  8
0
100
AcDbBlockEnd
  0
BLOCK
  5
C35
330
C29
100
AcDbEntity
  8
0
100
AcDbBlockBegin
  2
*D5
 70
     1
 10
0.0
 20
0.0
 30
0.0
  3
*D5
  1

  0
LINE
  5
37AD
330
C29
100
AcDbEntity
  8
SUNPOU
100
AcDbLine
 10
4840.904316012971
 20
4204.808556801003
 30
0.0
 11
4840.904316012971
 21
3990.668323225687
 31
0.0
  0
LINE
  5
37AE
330
C29
100
AcDbEntity
  8
SUNPOU
100
AcDbLine
 10
4740.904468600871
 20
4204.808556801003
 30
0.0
 11
4740.904468600871
 21
3990.668323225687
 31
0.0
  0
LINE
  5
37AF
330
C29
100
AcDbEntity
  8
SUNPOU
100
AcDbLine
 10
4840.904316012971
 20
4020.668323225687
 30
0.0
 11
4915.904316012971
 21
4020.668323225687
 31
0.0
  0
LINE
  5
37B0
330
C29
100
AcDbEntity
  8
SUNPOU
100
AcDbLine
 10
4665.904468600871
 20
4020.668323225687
 30
0.0
 11
4590.904468600871
 21
4020.668323225687
 31
0.0
  0
MTEXT
  5
37B1
330
C29
100
AcDbEntity
  8
SUNPOU
 62
     6
100
AcDbMText
 10
4638.601549824111
 20
4088.227618254259
 30
0.0
 40
75.0
 41
0.0
 71
     5
 72
     1
  1
\A1;100
  7
SUNPOU
1001
ACAD
1000
MTEXTBEGIN
1070
    73
1070
     1
1070
    44
1040
1.0
1070
    74
1070
     0
1000
MTEXTEND
1000
MTEXTBEGIN
1070
    73
1070
     1
1070
    44
1040
1.0
1070
    74
1070
     0
1000
MTEXTEND
  0
LINE
  5
37B2
330
C29
100
AcDbEntity
  8
SUNPOU
100
AcDbLine
 10
4840.904316012971
 20
4020.668323225687
 30
0.0
 11
4740.904468600871
 21
4020.668323225687
 31
0.0
  0
INSERT
  5
37B3
330
C29
100
AcDbEntity
  8
SUNPOU
100
AcDbBlockReference
  2
_OPEN30
 10
4740.904468600871
 20
4020.668323225687
 30
0.0
 41
75.0
 42
75.0
 43
75.0
  0
POINT
  5
37B4
330
C29
100
AcDbEntity
  8
DEFPOINTS
 62
     0
100
AcDbPoint
 10
4840.904316012971
 20
4249.808556801002
 30
0.0
  0
POINT
  5
37B5
330
C29
100
AcDbEntity
  8
DEFPOINTS
 62
     0
100
AcDbPoint
 10
4740.904468600871
 20
4249.808556801002
 30
0.0
  0
POINT
  5
37B6
330
C29
100
AcDbEntity
  8
DEFPOINTS
 62
     0
100
AcDbPoint
 10
4740.904468600871
 20
4020.668323225687
 30
0.0
  0
ENDBLK
  5
C36
330
C29
100
AcDbEntity
  8
0
100
AcDbBlockEnd
  0
BLOCK
  5
C94
330
C8A
100
AcDbEntity
  8
0
100
AcDbBlockBegin
  2
*D6
 70
     1
 10
0.0
 20
0.0
 30
0.0
  3
*D6
  1

  0
LINE
  5
2F88
330
C8A
100
AcDbEntity
  8
SUNPOU
100
AcDbLine
 10
5146.103912264514
 20
4349.221149682271
 30
0.0
 11
5303.706909090685
 21
4349.221149682271
 31
0.0
  0
LINE
  5
2F89
330
C8A
100
AcDbEntity
  8
SUNPOU
100
AcDbLine
 10
5146.103912264514
 20
4699.221149682271
 30
0.0
 11
5303.706909090685
 21
4699.221149682271
 31
0.0
  0
LINE
  5
2F8A
330
C8A
100
AcDbEntity
  8
SUNPOU
100
AcDbLine
 10
5273.706909090684
 20
4424.221149682271
 30
0.0
 11
5273.706909090684
 21
4624.221149682271
 31
0.0
  0
INSERT
  5
2F8B
330
C8A
100
AcDbEntity
  8
SUNPOU
100
AcDbBlockReference
  2
_OPEN30
 10
5273.706909090684
 20
4349.221149682271
 30
0.0
 41
75.0
 42
75.0
 43
75.0
 50
270.0
  0
INSERT
  5
2F8C
330
C8A
100
AcDbEntity
  8
SUNPOU
100
AcDbBlockReference
  2
_OPEN30
 10
5273.706909090684
 20
4699.221149682271
 30
0.0
 41
75.0
 42
75.0
 43
75.0
 50
90.0
  0
MTEXT
  5
2F8D
330
C8A
100
AcDbEntity
  8
SUNPOU
 62
     6
100
AcDbMText
 10
5206.206909090685
 20
4524.221149682271
 30
0.0
 40
75.0
 41
0.0
 71
     5
 72
     1
  1
\A1;350
  7
SUNPOU
 11
0.0000000000000001
 21
1.0
 31
0.0
1001
ACAD
1000
MTEXTBEGIN
1070
    73
1070
     1
1070
    44
1040
1.0
1070
    74
1070
     0
1000
MTEXTEND
1000
MTEXTBEGIN
1070
    73
1070
     1
1070
    44
1040
1.0
1070
    74
1070
     0
1000
MTEXTEND
  0
POINT
  5
2F8E
330
C8A
100
AcDbEntity
  8
DEFPOINTS
 62
     0
100
AcDbPoint
 10
5101.103912264514
 20
4349.221149682271
 30
0.0
  0
POINT
  5
2F8F
330
C8A
100
AcDbEntity
  8
DEFPOINTS
 62
     0
100
AcDbPoint
 10
5101.103912264514
 20
4699.221149682271
 30
0.0
  0
POINT
  5
2F90
330
C8A
100
AcDbEntity
  8
DEFPOINTS
 62
     0
100
AcDbPoint
 10
5273.706909090684
 20
4699.221149682271
 30
0.0
  0
ENDBLK
  5
C95
330
C8A
100
AcDbEntity
  8
0
100
AcDbBlockEnd
  0
BLOCK
  5
CB5
330
CA9
100
AcDbEntity
  8
0
100
AcDbBlockBegin
  2
*D7
 70
     1
 10
0.0
 20
0.0
 30
0.0
  3
*D7
  1

  0
LINE
  5
2F91
330
CA9
100
AcDbEntity
  8
SUNPOU
100
AcDbLine
 10
4563.269779993026
 20
4424.221149682271
 30
0.0
 11
4561.148149533197
 21
4424.221149682271
 31
0.0
  0
LINE
  5
2F92
330
CA9
100
AcDbEntity
  8
SUNPOU
100
AcDbLine
 10
4563.269779993026
 20
4524.221149682271
 30
0.0
 11
4561.148149533197
 21
4524.221149682271
 31
0.0
  0
LINE
  5
2F93
330
CA9
100
AcDbEntity
  8
SUNPOU
100
AcDbLine
 10
4591.148149533197
 20
4349.221149682271
 30
0.0
 11
4591.148149533197
 21
4274.221149682271
 31
0.0
  0
LINE
  5
2F94
330
CA9
100
AcDbEntity
  8
SUNPOU
100
AcDbLine
 10
4591.148149533197
 20
4599.221149682271
 30
0.0
 11
4591.148149533197
 21
4674.221149682271
 31
0.0
  0
MTEXT
  5
2F95
330
CA9
100
AcDbEntity
  8
SUNPOU
 62
     6
100
AcDbMText
 10
4514.508503396046
 20
4276.483788599791
 30
0.0
 40
75.0
 41
0.0
 71
     5
 72
     1
  1
\A1;100
  7
SUNPOU
 11
0.0000000000000001
 21
1.0
 31
0.0
1001
ACAD
1000
MTEXTBEGIN
1070
    73
1070
     1
1070
    44
1040
1.0
1070
    74
1070
     0
1000
MTEXTEND
1000
MTEXTBEGIN
1070
    73
1070
     1
1070
    44
1040
1.0
1070
    74
1070
     0
1000
MTEXTEND
  0
LINE
  5
2F96
330
CA9
100
AcDbEntity
  8
SUNPOU
100
AcDbLine
 10
4591.148149533197
 20
4424.221149682271
 30
0.0
 11
4591.148149533197
 21
4524.221149682271
 31
0.0
  0
INSERT
  5
2F97
330
CA9
100
AcDbEntity
  8
SUNPOU
100
AcDbBlockReference
  2
_OPEN30
 10
4591.148149533197
 20
4424.221149682271
 30
0.0
 41
75.0
 42
75.0
 43
75.0
 50
90.0
  0
INSERT
  5
2F98
330
CA9
100
AcDbEntity
  8
SUNPOU
100
AcDbBlockReference
  2
_OPEN30
 10
4591.148149533197
 20
4524.221149682271
 30
0.0
 41
75.0
 42
75.0
 43
75.0
 50
270.0
  0
POINT
  5
2F99
330
CA9
100
AcDbEntity
  8
DEFPOINTS
 62
     0
100
AcDbPoint
 10
4608.269779993026
 20
4424.221149682271
 30
0.0
  0
POINT
  5
2F9A
330
CA9
100
AcDbEntity
  8
DEFPOINTS
 62
     0
100
AcDbPoint
 10
4608.269779993026
 20
4524.221149682271
 30
0.0
  0
POINT
  5
2F9B
330
CA9
100
AcDbEntity
  8
DEFPOINTS
 62
     0
100
AcDbPoint
 10
4591.148149533197
 20
4524.221149682271
 30
0.0
  0
ENDBLK
  5
CB6
330
CA9
100
AcDbEntity
  8
0
100
AcDbBlockEnd
  0
BLOCK
  5
CC4
330
CB8
100
AcDbEntity
  8
0
100
AcDbBlockBegin
  2
*D8
 70
     1
 10
0.0
 20
0.0
 30
0.0
  3
*D8
  1

  0
LINE
  5
2F9C
330
CB8
100
AcDbEntity
  8
SUNPOU
100
AcDbLine
 10
4563.269779993026
 20
4524.221149682271
 30
0.0
 11
4561.148149533197
 21
4524.221149682271
 31
0.0
  0
LINE
  5
2F9D
330
CB8
100
AcDbEntity
  8
SUNPOU
100
AcDbLine
 10
4611.373379992752
 20
4624.220844506481
 30
0.0
 11
4561.148149533197
 21
4624.220844506481
 31
0.0
  0
LINE
  5
2F9E
330
CB8
100
AcDbEntity
  8
SUNPOU
100
AcDbLine
 10
4591.148149533197
 20
4449.221149682271
 30
0.0
 11
4591.148149533197
 21
4374.221149682271
 31
0.0
  0
LINE
  5
2F9F
330
CB8
100
AcDbEntity
  8
SUNPOU
100
AcDbLine
 10
4591.148149533197
 20
4699.220844506482
 30
0.0
 11
4591.148149533197
 21
4774.220844506483
 31
0.0
  0
MTEXT
  5
2FA0
330
CB8
100
AcDbEntity
  8
SUNPOU
 62
     6
100
AcDbMText
 10
4519.400405748496
 20
4767.775681218012
 30
0.0
 40
75.0
 41
0.0
 71
     5
 72
     1
  1
\A1;100
  7
SUNPOU
 11
0.0000000000000001
 21
1.0
 31
0.0
1001
ACAD
1000
MTEXTBEGIN
1070
    73
1070
     1
1070
    44
1040
1.0
1070
    74
1070
     0
1000
MTEXTEND
1000
MTEXTBEGIN
1070
    73
1070
     1
1070
    44
1040
1.0
1070
    74
1070
     0
1000
MTEXTEND
  0
LINE
  5
2FA1
330
CB8
100
AcDbEntity
  8
SUNPOU
100
AcDbLine
 10
4591.148149533197
 20
4524.221149682271
 30
0.0
 11
4591.148149533197
 21
4624.220844506481
 31
0.0
  0
INSERT
  5
2FA2
330
CB8
100
AcDbEntity
  8
SUNPOU
100
AcDbBlockReference
  2
_OPEN30
 10
4591.148149533197
 20
4524.221149682271
 30
0.0
 41
75.0
 42
75.0
 43
75.0
 50
90.0
  0
INSERT
  5
2FA3
330
CB8
100
AcDbEntity
  8
SUNPOU
100
AcDbBlockReference
  2
_OPEN30
 10
4591.148149533197
 20
4624.220844506481
 30
0.0
 41
75.0
 42
75.0
 43
75.0
 50
270.0
  0
POINT
  5
2FA4
330
CB8
100
AcDbEntity
  8
DEFPOINTS
 62
     0
100
AcDbPoint
 10
4608.269779993026
 20
4524.221149682271
 30
0.0
  0
POINT
  5
2FA5
330
CB8
100
AcDbEntity
  8
DEFPOINTS
 62
     0
100
AcDbPoint
 10
4656.373379992753
 20
4624.220844506481
 30
0.0
  0
POINT
  5
2FA6
330
CB8
100
AcDbEntity
  8
DEFPOINTS
 62
     0
100
AcDbPoint
 10
4591.148149533197
 20
4624.220844506481
 30
0.0
  0
ENDBLK
  5
CC5
330
CB8
100
AcDbEntity
  8
0
100
AcDbBlockEnd
  0
BLOCK
  5
D01
330
CF5
100
AcDbEntity
  8
0
100
AcDbBlockBegin
  2
*D9
 70
     1
 10
0.0
 20
0.0
 30
0.0
  3
*D9
  1

  0
LINE
  5
2FA7
330
CF5
100
AcDbEntity
  8
SUNPOU
100
AcDbLine
 10
5072.90439230692
 20
4823.916043099478
 30
0.0
 11
5072.90439230692
 21
4923.240475643066
 31
0.0
  0
LINE
  5
2FA8
330
CF5
100
AcDbEntity
  8
SUNPOU
100
AcDbLine
 10
4967.904438083291
 20
4823.916043099478
 30
0.0
 11
4967.904438083291
 21
4923.240475643066
 31
0.0
  0
LINE
  5
2FA9
330
CF5
100
AcDbEntity
  8
SUNPOU
100
AcDbLine
 10
5147.90439230692
 20
4893.240475643066
 30
0.0
 11
5222.90439230692
 21
4893.240475643066
 31
0.0
  0
LINE
  5
2FAA
330
CF5
100
AcDbEntity
  8
SUNPOU
100
AcDbLine
 10
4892.904438083292
 20
4893.240475643066
 30
0.0
 11
4817.904438083291
 21
4893.240475643066
 31
0.0
  0
MTEXT
  5
2FAB
330
CF5
100
AcDbEntity
  8
SUNPOU
 62
     6
100
AcDbMText
 10
5039.725667627492
 20
4962.120245063255
 30
0.0
 40
75.0
 41
0.0
 71
     5
 72
     1
  1
\A1;105
  7
SUNPOU
1001
ACAD
1000
MTEXTBEGIN
1070
    73
1070
     1
1070
    44
1040
1.0
1070
    74
1070
     0
1000
MTEXTEND
1000
MTEXTBEGIN
1070
    73
1070
     1
1070
    44
1040
1.0
1070
    74
1070
     0
1000
MTEXTEND
  0
LINE
  5
2FAC
330
CF5
100
AcDbEntity
  8
SUNPOU
100
AcDbLine
 10
5072.90439230692
 20
4893.240475643066
 30
0.0
 11
4967.904438083291
 21
4893.240475643066
 31
0.0
  0
INSERT
  5
2FAD
330
CF5
100
AcDbEntity
  8
SUNPOU
100
AcDbBlockReference
  2
_OPEN30
 10
5072.90439230692
 20
4893.240475643066
 30
0.0
 41
75.0
 42
75.0
 43
75.0
 50
180.0
  0
INSERT
  5
2FAE
330
CF5
100
AcDbEntity
  8
SUNPOU
100
AcDbBlockReference
  2
_OPEN30
 10
4967.904438083291
 20
4893.240475643066
 30
0.0
 41
75.0
 42
75.0
 43
75.0
  0
POINT
  5
2FAF
330
CF5
100
AcDbEntity
  8
DEFPOINTS
 62
     0
100
AcDbPoint
 10
5072.90439230692
 20
4778.916043099478
 30
0.0
  0
POINT
  5
2FB0
330
CF5
100
AcDbEntity
  8
DEFPOINTS
 62
     0
100
AcDbPoint
 10
4967.904438083291
 20
4778.916043099478
 30
0.0
  0
POINT
  5
2FB1
330
CF5
100
AcDbEntity
  8
DEFPOINTS
 62
     0
100
AcDbPoint
 10
4967.904438083291
 20
4893.240475643066
 30
0.0
  0
ENDBLK
  5
D02
330
CF5
100
AcDbEntity
  8
0
100
AcDbBlockEnd
  0
BLOCK
  5
EE9
330
EDD
100
AcDbEntity
  8
0
100
AcDbBlockBegin
  2
*D10
 70
     1
 10
0.0
 20
0.0
 30
0.0
  3
*D10
  1

  0
LINE
  5
37B7
330
EDD
100
AcDbEntity
  8
SUNPOU
100
AcDbLine
 10
4715.904468600869
 20
2854.22114968227
 30
0.0
 11
4511.993666148957
 21
2854.22114968227
 31
0.0
  0
LINE
  5
37B8
330
EDD
100
AcDbEntity
  8
SUNPOU
100
AcDbLine
 10
4715.904468600869
 20
2889.221149682271
 30
0.0
 11
4511.993666148957
 21
2889.221149682271
 31
0.0
  0
LINE
  5
37B9
330
EDD
100
AcDbEntity
  8
SUNPOU
100
AcDbLine
 10
4541.993666148957
 20
2779.221149682269
 30
0.0
 11
4541.993666148957
 21
2704.22114968227
 31
0.0
  0
LINE
  5
37BA
330
EDD
100
AcDbEntity
  8
SUNPOU
100
AcDbLine
 10
4541.993666148957
 20
2889.221149682271
 30
0.0
 11
4541.993666148957
 21
2964.221149682271
 31
0.0
  0
MTEXT
  5
37BB
330
EDD
100
AcDbEntity
  8
SUNPOU
 62
     6
100
AcDbMText
 10
4448.243666148957
 20
2781.45797291442
 30
0.0
 40
75.0
 41
0.0
 71
     5
 72
     1
  1
\A1;35
  7
SUNPOU
 11
0.0000000000000001
 21
1.0
 31
0.0
1001
ACAD
1000
MTEXTBEGIN
1070
    73
1070
     1
1070
    44
1040
1.0
1070
    74
1070
     0
1000
MTEXTEND
1000
MTEXTBEGIN
1070
    73
1070
     1
1070
    44
1040
1.0
1070
    74
1070
     0
1000
MTEXTEND
  0
LINE
  5
37BC
330
EDD
100
AcDbEntity
  8
SUNPOU
100
AcDbLine
 10
4541.993666148957
 20
2854.22114968227
 30
0.0
 11
4541.993666148957
 21
2889.221149682271
 31
0.0
  0
INSERT
  5
37BD
330
EDD
100
AcDbEntity
  8
SUNPOU
100
AcDbBlockReference
  2
_OPEN30
 10
4541.993666148957
 20
2854.22114968227
 30
0.0
 41
75.0
 42
75.0
 43
75.0
 50
90.0
  0
INSERT
  5
37BE
330
EDD
100
AcDbEntity
  8
SUNPOU
100
AcDbBlockReference
  2
_DOTSMALL
 10
4541.993666148957
 20
2889.221149682271
 30
0.0
 41
75.0
 42
75.0
 43
75.0
 50
270.0
  0
POINT
  5
37BF
330
EDD
100
AcDbEntity
  8
DEFPOINTS
 62
     0
100
AcDbPoint
 10
4760.904468600869
 20
2854.22114968227
 30
0.0
  0
POINT
  5
37C0
330
EDD
100
AcDbEntity
  8
DEFPOINTS
 62
     0
100
AcDbPoint
 10
4760.904468600869
 20
2889.221149682271
 30
0.0
  0
POINT
  5
37C1
330
EDD
100
AcDbEntity
  8
DEFPOINTS
 62
     0
100
AcDbPoint
 10
4541.993666148957
 20
2889.221149682271
 30
0.0
  0
ENDBLK
  5
EEA
330
EDD
100
AcDbEntity
  8
0
100
AcDbBlockEnd
  0
BLOCK
  5
EF8
330
EEC
100
AcDbEntity
  8
0
100
AcDbBlockBegin
  2
*D11
 70
     1
 10
0.0
 20
0.0
 30
0.0
  3
*D11
  1

  0
LINE
  5
37C2
330
EEC
100
AcDbEntity
  8
SUNPOU
100
AcDbLine
 10
4715.904468600869
 20
2889.221149682271
 30
0.0
 11
4511.993666148957
 21
2889.221149682271
 31
0.0
  0
LINE
  5
37C3
330
EEC
100
AcDbEntity
  8
SUNPOU
100
AcDbLine
 10
4745.904316012967
 20
2924.221149682271
 30
0.0
 11
4511.993666148957
 21
2924.221149682271
 31
0.0
  0
LINE
  5
37C4
330
EEC
100
AcDbEntity
  8
SUNPOU
100
AcDbLine
 10
4541.993666148957
 20
2889.221149682271
 30
0.0
 11
4541.993666148957
 21
2814.221149682271
 31
0.0
  0
LINE
  5
37C5
330
EEC
100
AcDbEntity
  8
SUNPOU
100
AcDbLine
 10
4541.993666148957
 20
2999.221149682271
 30
0.0
 11
4541.993666148957
 21
3074.221149682271
 31
0.0
  0
MTEXT
  5
37C6
330
EEC
100
AcDbEntity
  8
SUNPOU
 62
     6
100
AcDbMText
 10
4448.243666148957
 20
3049.032315541126
 30
0.0
 40
75.0
 41
0.0
 71
     5
 72
     1
  1
\A1;35
  7
SUNPOU
 11
0.0000000000000001
 21
1.0
 31
0.0
1001
ACAD
1000
MTEXTBEGIN
1070
    73
1070
     1
1070
    44
1040
1.0
1070
    74
1070
     0
1000
MTEXTEND
1000
MTEXTBEGIN
1070
    73
1070
     1
1070
    44
1040
1.0
1070
    74
1070
     0
1000
MTEXTEND
  0
LINE
  5
37C7
330
EEC
100
AcDbEntity
  8
SUNPOU
100
AcDbLine
 10
4541.993666148957
 20
2889.221149682271
 30
0.0
 11
4541.993666148957
 21
2924.221149682271
 31
0.0
  0
INSERT
  5
37C8
330
EEC
100
AcDbEntity
  8
SUNPOU
100
AcDbBlockReference
  2
_DOTSMALL
 10
4541.993666148957
 20
2889.221149682271
 30
0.0
 41
75.0
 42
75.0
 43
75.0
 50
90.0
  0
INSERT
  5
37C9
330
EEC
100
AcDbEntity
  8
SUNPOU
100
AcDbBlockReference
  2
_OPEN30
 10
4541.993666148957
 20
2924.221149682271
 30
0.0
 41
75.0
 42
75.0
 43
75.0
 50
270.0
  0
POINT
  5
37CA
330
EEC
100
AcDbEntity
  8
DEFPOINTS
 62
     0
100
AcDbPoint
 10
4760.904468600869
 20
2889.221149682271
 30
0.0
  0
POINT
  5
37CB
330
EEC
100
AcDbEntity
  8
DEFPOINTS
 62
     0
100
AcDbPoint
 10
4790.904316012968
 20
2924.221149682271
 30
0.0
  0
POINT
  5
37CC
330
EEC
100
AcDbEntity
  8
DEFPOINTS
 62
     0
100
AcDbPoint
 10
4541.993666148957
 20
2924.221149682271
 30
0.0
  0
ENDBLK
  5
EF9
330
EEC
100
AcDbEntity
  8
0
100
AcDbBlockEnd
  0
BLOCK
  5
F33
330
F27
100
AcDbEntity
  8
0
100
AcDbBlockBegin
  2
*D12
 70
     1
 10
0.0
 20
0.0
 30
0.0
  3
*D12
  1

  0
LINE
  5
3622
330
F27
100
AcDbEntity
  8
SUNPOU
100
AcDbLine
 10
4770.904468600869
 20
2815.971149682271
 30
0.0
 11
4770.904468600869
 21
2610.686776840379
 31
0.0
  0
LINE
  5
3623
330
F27
100
AcDbEntity
  8
SUNPOU
100
AcDbLine
 10
4788.904468600869
 20
2815.221149682271
 30
0.0
 11
4788.904468600869
 21
2610.686776840379
 31
0.0
  0
LINE
  5
3624
330
F27
100
AcDbEntity
  8
SUNPOU
100
AcDbLine
 10
4695.904468600869
 20
2640.686776840379
 30
0.0
 11
4620.904468600869
 21
2640.686776840379
 31
0.0
  0
LINE
  5
3625
330
F27
100
AcDbEntity
  8
SUNPOU
100
AcDbLine
 10
4863.904468600869
 20
2640.686776840379
 30
0.0
 11
4938.90446860087
 21
2640.686776840379
 31
0.0
  0
MTEXT
  5
3626
330
F27
100
AcDbEntity
  8
SUNPOU
 62
     6
100
AcDbMText
 10
4847.73566994351
 20
2708.552339834794
 30
0.0
 40
75.0
 41
0.0
 71
     5
 72
     1
  1
\A1;18
  7
SUNPOU
1001
ACAD
1000
MTEXTBEGIN
1070
    73
1070
     1
1070
    44
1040
1.0
1070
    74
1070
     0
1000
MTEXTEND
1000
MTEXTBEGIN
1070
    73
1070
     1
1070
    44
1040
1.0
1070
    74
1070
     0
1000
MTEXTEND
  0
LINE
  5
3627
330
F27
100
AcDbEntity
  8
SUNPOU
100
AcDbLine
 10
4770.904468600869
 20
2640.686776840379
 30
0.0
 11
4788.904468600869
 21
2640.686776840379
 31
0.0
  0
INSERT
  5
3628
330
F27
100
AcDbEntity
  8
SUNPOU
100
AcDbBlockReference
  2
_OPEN30
 10
4770.904468600869
 20
2640.686776840379
 30
0.0
 41
75.0
 42
75.0
 43
75.0
  0
INSERT
  5
3629
330
F27
100
AcDbEntity
  8
SUNPOU
100
AcDbBlockReference
  2
_OPEN30
 10
4788.904468600869
 20
2640.686776840379
 30
0.0
 41
75.0
 42
75.0
 43
75.0
 50
180.0
  0
POINT
  5
362A
330
F27
100
AcDbEntity
  8
DEFPOINTS
 62
     0
100
AcDbPoint
 10
4770.904468600869
 20
2860.971149682271
 30
0.0
  0
POINT
  5
362B
330
F27
100
AcDbEntity
  8
DEFPOINTS
 62
     0
100
AcDbPoint
 10
4788.904468600869
 20
2860.221149682271
 30
0.0
  0
POINT
  5
362C
330
F27
100
AcDbEntity
  8
DEFPOINTS
 62
     0
100
AcDbPoint
 10
4788.904468600869
 20
2640.686776840379
 30
0.0
  0
ENDBLK
  5
F34
330
F27
100
AcDbEntity
  8
0
100
AcDbBlockEnd
  0
BLOCK
  5
F40
330
F36
100
AcDbEntity
  8
0
100
AcDbBlockBegin
  2
*D13
 70
     1
 10
0.0
 20
0.0
 30
0.0
  3
*D13
  1

  0
LINE
  5
3619
330
F36
100
AcDbEntity
  8
SUNPOU
100
AcDbLine
 10
4770.904468600869
 20
2815.971149682271
 30
0.0
 11
4770.904468600869
 21
2391.352440057791
 31
0.0
  0
LINE
  5
361A
330
F36
100
AcDbEntity
  8
SUNPOU
100
AcDbLine
 10
4970.90446860087
 20
2819.221149682271
 30
0.0
 11
4970.90446860087
 21
2391.352440057791
 31
0.0
  0
LINE
  5
361B
330
F36
100
AcDbEntity
  8
SUNPOU
100
AcDbLine
 10
4845.90446860087
 20
2421.352440057791
 30
0.0
 11
4895.904468600869
 21
2421.352440057791
 31
0.0
  0
MTEXT
  5
361C
330
F36
100
AcDbEntity
  8
SUNPOU
 62
     6
100
AcDbMText
 10
4870.904468600869
 20
2233.852440057791
 30
0.0
 40
75.0
 41
0.0
 71
     5
 72
     1
  1
\A1;200
  7
SUNPOU
1001
ACAD
1000
MTEXTBEGIN
1070
    73
1070
     1
1070
    44
1040
1.0
1070
    74
1070
     0
1000
MTEXTEND
1000
MTEXTBEGIN
1070
    73
1070
     1
1070
    44
1040
1.0
1070
    74
1070
     0
1000
MTEXTEND
  0
INSERT
  5
361D
330
F36
100
AcDbEntity
  8
SUNPOU
100
AcDbBlockReference
  2
_OPEN30
 10
4770.904468600869
 20
2421.352440057791
 30
0.0
 41
75.0
 42
75.0
 43
75.0
 50
180.0
  0
INSERT
  5
361E
330
F36
100
AcDbEntity
  8
SUNPOU
100
AcDbBlockReference
  2
_OPEN30
 10
4970.90446860087
 20
2421.352440057791
 30
0.0
 41
75.0
 42
75.0
 43
75.0
  0
POINT
  5
361F
330
F36
100
AcDbEntity
  8
DEFPOINTS
 62
     0
100
AcDbPoint
 10
4770.904468600869
 20
2860.971149682271
 30
0.0
  0
POINT
  5
3620
330
F36
100
AcDbEntity
  8
DEFPOINTS
 62
     0
100
AcDbPoint
 10
4970.90446860087
 20
2864.221149682271
 30
0.0
  0
POINT
  5
3621
330
F36
100
AcDbEntity
  8
DEFPOINTS
 62
     0
100
AcDbPoint
 10
4970.90446860087
 20
2421.352440057791
 30
0.0
  0
ENDBLK
  5
F41
330
F36
100
AcDbEntity
  8
0
100
AcDbBlockEnd
  0
BLOCK
  5
12F2
330
12E8
100
AcDbEntity
  8
0
100
AcDbBlockBegin
  2
*D14
 70
     1
 10
0.0
 20
0.0
 30
0.0
  3
*D14
  1

  0
LINE
  5
2FDE
330
12E8
100
AcDbEntity
  8
SUNPOU
100
AcDbLine
 10
2270.904468600869
 20
2779.221149682275
 30
0.0
 11
2270.904468600869
 21
2391.352440057791
 31
0.0
  0
LINE
  5
2FDF
330
12E8
100
AcDbEntity
  8
SUNPOU
100
AcDbLine
 10
1710.904468600869
 20
2779.221149682275
 30
0.0
 11
1710.904468600869
 21
2391.352440057791
 31
0.0
  0
LINE
  5
2FE0
330
12E8
100
AcDbEntity
  8
SUNPOU
100
AcDbLine
 10
2195.904468600869
 20
2421.352440057791
 30
0.0
 11
1785.904468600869
 21
2421.352440057791
 31
0.0
  0
INSERT
  5
2FE1
330
12E8
100
AcDbEntity
  8
SUNPOU
100
AcDbBlockReference
  2
_OPEN30
 10
2270.904468600869
 20
2421.352440057791
 30
0.0
 41
75.0
 42
75.0
 43
75.0
  0
INSERT
  5
2FE2
330
12E8
100
AcDbEntity
  8
SUNPOU
100
AcDbBlockReference
  2
_OPEN30
 10
1710.904468600869
 20
2421.352440057791
 30
0.0
 41
75.0
 42
75.0
 43
75.0
 50
180.0
  0
MTEXT
  5
2FE3
330
12E8
100
AcDbEntity
  8
SUNPOU
 62
     6
100
AcDbMText
 10
1990.904468600869
 20
2488.852440057792
 30
0.0
 40
75.0
 41
0.0
 71
     5
 72
     1
  1
\A1;560
  7
SUNPOU
1001
ACAD
1000
MTEXTBEGIN
1070
    73
1070
     1
1070
    44
1040
1.0
1070
    74
1070
     0
1000
MTEXTEND
1000
MTEXTBEGIN
1070
    73
1070
     1
1070
    44
1040
1.0
1070
    74
1070
     0
1000
MTEXTEND
  0
POINT
  5
2FE4
330
12E8
100
AcDbEntity
  8
DEFPOINTS
 62
     0
100
AcDbPoint
 10
2270.904468600869
 20
2824.221149682275
 30
0.0
  0
POINT
  5
2FE5
330
12E8
100
AcDbEntity
  8
DEFPOINTS
 62
     0
100
AcDbPoint
 10
1710.904468600869
 20
2824.221149682275
 30
0.0
  0
POINT
  5
2FE6
330
12E8
100
AcDbEntity
  8
DEFPOINTS
 62
     0
100
AcDbPoint
 10
1710.904468600869
 20
2421.352440057791
 30
0.0
  0
ENDBLK
  5
12F3
330
12E8
100
AcDbEntity
  8
0
100
AcDbBlockEnd
  0
BLOCK
  5
1301
330
12F5
100
AcDbEntity
  8
0
100
AcDbBlockBegin
  2
*D15
 70
     1
 10
0.0
 20
0.0
 30
0.0
  3
*D15
  1

  0
LINE
  5
2FE7
330
12F5
100
AcDbEntity
  8
SUNPOU
100
AcDbLine
 10
1710.904468600869
 20
2779.221149682275
 30
0.0
 11
1710.904468600869
 21
2391.352440057791
 31
0.0
  0
LINE
  5
2FE8
330
12F5
100
AcDbEntity
  8
SUNPOU
100
AcDbLine
 10
1690.904468600869
 20
2466.352440057791
 30
0.0
 11
1690.904468600869
 21
2451.352440057791
 31
0.0
  0
LINE
  5
2FE9
330
12F5
100
AcDbEntity
  8
SUNPOU
100
AcDbLine
 10
1785.904468600869
 20
2421.352440057791
 30
0.0
 11
1860.904468600869
 21
2421.352440057791
 31
0.0
  0
LINE
  5
2FEA
330
12F5
100
AcDbEntity
  8
SUNPOU
100
AcDbLine
 10
1615.904468600869
 20
2421.352440057791
 30
0.0
 11
1540.904468600869
 21
2421.352440057791
 31
0.0
  0
MTEXT
  5
2FEB
330
12F5
100
AcDbEntity
  8
SUNPOU
 62
     6
100
AcDbMText
 10
1758.167865881026
 20
2358.605880545233
 30
0.0
 40
75.0
 41
0.0
 71
     5
 72
     1
  1
\A1;20
  7
SUNPOU
1001
ACAD
1000
MTEXTBEGIN
1070
    73
1070
     1
1070
    44
1040
1.0
1070
    74
1070
     0
1000
MTEXTEND
1000
MTEXTBEGIN
1070
    73
1070
     1
1070
    44
1040
1.0
1070
    74
1070
     0
1000
MTEXTEND
  0
LINE
  5
2FEC
330
12F5
100
AcDbEntity
  8
SUNPOU
100
AcDbLine
 10
1710.904468600869
 20
2421.352440057791
 30
0.0
 11
1690.904468600869
 21
2421.352440057791
 31
0.0
  0
INSERT
  5
2FED
330
12F5
100
AcDbEntity
  8
SUNPOU
100
AcDbBlockReference
  2
_OPEN30
 10
1710.904468600869
 20
2421.352440057791
 30
0.0
 41
75.0
 42
75.0
 43
75.0
 50
180.0
  0
INSERT
  5
2FEE
330
12F5
100
AcDbEntity
  8
SUNPOU
100
AcDbBlockReference
  2
_OPEN30
 10
1690.904468600869
 20
2421.352440057791
 30
0.0
 41
75.0
 42
75.0
 43
75.0
  0
POINT
  5
2FEF
330
12F5
100
AcDbEntity
  8
DEFPOINTS
 62
     0
100
AcDbPoint
 10
1710.904468600869
 20
2824.221149682275
 30
0.0
  0
POINT
  5
2FF0
330
12F5
100
AcDbEntity
  8
DEFPOINTS
 62
     0
100
AcDbPoint
 10
1690.904468600869
 20
2421.352440057791
 30
0.0
  0
POINT
  5
2FF1
330
12F5
100
AcDbEntity
  8
DEFPOINTS
 62
     0
100
AcDbPoint
 10
1690.904468600869
 20
2421.352440057791
 30
0.0
  0
ENDBLK
  5
1302
330
12F5
100
AcDbEntity
  8
0
100
AcDbBlockEnd
  0
BLOCK
  5
1331
330
1325
100
AcDbEntity
  8
0
100
AcDbBlockBegin
  2
*D16
 70
     1
 10
0.0
 20
0.0
 30
0.0
  3
*D16
  1

  0
LINE
  5
2FF2
330
1325
100
AcDbEntity
  8
SUNPOU
100
AcDbLine
 10
2213.90446860087
 20
2824.221149682275
 30
0.0
 11
2030.889951795076
 21
2824.221149682275
 31
0.0
  0
LINE
  5
2FF3
330
1325
100
AcDbEntity
  8
SUNPOU
100
AcDbLine
 10
2213.90446860087
 20
2829.221149682275
 30
0.0
 11
2030.889951795076
 21
2829.221149682275
 31
0.0
  0
LINE
  5
2FF4
330
1325
100
AcDbEntity
  8
SUNPOU
100
AcDbLine
 10
2060.889951795075
 20
2749.221149682274
 30
0.0
 11
2060.889951795075
 21
2674.221149682273
 31
0.0
  0
LINE
  5
2FF5
330
1325
100
AcDbEntity
  8
SUNPOU
100
AcDbLine
 10
2060.889951795075
 20
2904.221149682275
 30
0.0
 11
2060.889951795075
 21
2979.221149682274
 31
0.0
  0
MTEXT
  5
2FF6
330
1325
100
AcDbEntity
  8
SUNPOU
 62
     6
100
AcDbMText
 10
1967.139951795075
 20
2730.476468828601
 30
0.0
 40
75.0
 41
0.0
 71
     5
 72
     1
  1
\A1;5
  7
SUNPOU
 11
0.0000000000000001
 21
1.0
 31
0.0
1001
ACAD
1000
MTEXTBEGIN
1070
    73
1070
     1
1070
    44
1040
1.0
1070
    74
1070
     0
1000
MTEXTEND
1000
MTEXTBEGIN
1070
    73
1070
     1
1070
    44
1040
1.0
1070
    74
1070
     0
1000
MTEXTEND
  0
LINE
  5
2FF7
330
1325
100
AcDbEntity
  8
SUNPOU
100
AcDbLine
 10
2060.889951795075
 20
2824.221149682275
 30
0.0
 11
2060.889951795075
 21
2829.221149682275
 31
0.0
  0
INSERT
  5
2FF8
330
1325
100
AcDbEntity
  8
SUNPOU
100
AcDbBlockReference
  2
_OPEN30
 10
2060.889951795075
 20
2824.221149682275
 30
0.0
 41
75.0
 42
75.0
 43
75.0
 50
90.0
  0
INSERT
  5
2FF9
330
1325
100
AcDbEntity
  8
SUNPOU
100
AcDbBlockReference
  2
_OPEN30
 10
2060.889951795075
 20
2829.221149682275
 30
0.0
 41
75.0
 42
75.0
 43
75.0
 50
270.0
  0
POINT
  5
2FFA
330
1325
100
AcDbEntity
  8
DEFPOINTS
 62
     0
100
AcDbPoint
 10
2258.904468600871
 20
2824.221149682275
 30
0.0
  0
POINT
  5
2FFB
330
1325
100
AcDbEntity
  8
DEFPOINTS
 62
     0
100
AcDbPoint
 10
2258.904468600871
 20
2829.221149682275
 30
0.0
  0
POINT
  5
2FFC
330
1325
100
AcDbEntity
  8
DEFPOINTS
 62
     0
100
AcDbPoint
 10
2060.889951795075
 20
2829.221149682275
 30
0.0
  0
ENDBLK
  5
1332
330
1325
100
AcDbEntity
  8
0
100
AcDbBlockEnd
  0
BLOCK
  5
134B
330
133F
100
AcDbEntity
  8
0
100
AcDbBlockBegin
  2
*D17
 70
     1
 10
0.0
 20
0.0
 30
0.0
  3
*D17
  1

  0
LINE
  5
2FFD
330
133F
100
AcDbEntity
  8
SUNPOU
100
AcDbLine
 10
2993.974314782601
 20
4345.071064233056
 30
0.0
 11
3008.974314782598
 21
4345.071064233056
 31
0.0
  0
LINE
  5
2FFE
330
133F
100
AcDbEntity
  8
SUNPOU
100
AcDbLine
 10
2993.974314782599
 20
4455.071064233051
 30
0.0
 11
3008.974314782598
 21
4455.071064233051
 31
0.0
  0
LINE
  5
2FFF
330
133F
100
AcDbEntity
  8
SUNPOU
100
AcDbLine
 10
3038.974314782599
 20
4270.071064233056
 30
0.0
 11
3038.974314782599
 21
4195.071064233056
 31
0.0
  0
LINE
  5
3000
330
133F
100
AcDbEntity
  8
SUNPOU
100
AcDbLine
 10
3038.974314782599
 20
4530.071064233051
 30
0.0
 11
3038.974314782599
 21
4605.071064233051
 31
0.0
  0
MTEXT
  5
3001
330
133F
100
AcDbEntity
  8
SUNPOU
 62
     6
100
AcDbMText
 10
2926.474314782598
 20
4400.071064233055
 30
0.0
 40
75.0
 41
0.0
 71
     5
 72
     1
  1
\A1;110
  7
SUNPOU
 11
0.0000000000000001
 21
1.0
 31
0.0
1001
ACAD
1000
MTEXTBEGIN
1070
    73
1070
     1
1070
    44
1040
1.0
1070
    74
1070
     0
1000
MTEXTEND
1000
MTEXTBEGIN
1070
    73
1070
     1
1070
    44
1040
1.0
1070
    74
1070
     0
1000
MTEXTEND
  0
LINE
  5
3002
330
133F
100
AcDbEntity
  8
SUNPOU
100
AcDbLine
 10
3038.974314782599
 20
4345.071064233056
 30
0.0
 11
3038.974314782599
 21
4455.071064233051
 31
0.0
  0
INSERT
  5
3003
330
133F
100
AcDbEntity
  8
SUNPOU
100
AcDbBlockReference
  2
_OPEN30
 10
3038.974314782599
 20
4345.071064233056
 30
0.0
 41
75.0
 42
75.0
 43
75.0
 50
90.0
  0
INSERT
  5
3004
330
133F
100
AcDbEntity
  8
SUNPOU
100
AcDbBlockReference
  2
_OPEN30
 10
3038.974314782599
 20
4455.071064233051
 30
0.0
 41
75.0
 42
75.0
 43
75.0
 50
270.0
  0
POINT
  5
3005
330
133F
100
AcDbEntity
  8
DEFPOINTS
 62
     0
100
AcDbPoint
 10
3038.9743147826
 20
4345.071064233056
 30
0.0
  0
POINT
  5
3006
330
133F
100
AcDbEntity
  8
DEFPOINTS
 62
     0
100
AcDbPoint
 10
3038.974314782599
 20
4455.071064233051
 30
0.0
  0
POINT
  5
3007
330
133F
100
AcDbEntity
  8
DEFPOINTS
 62
     0
100
AcDbPoint
 10
3038.974314782599
 20
4455.071064233051
 30
0.0
  0
ENDBLK
  5
134C
330
133F
100
AcDbEntity
  8
0
100
AcDbBlockEnd
  0
BLOCK
  5
135A
330
134E
100
AcDbEntity
  8
0
100
AcDbBlockBegin
  2
*D18
 70
     1
 10
0.0
 20
0.0
 30
0.0
  3
*D18
  1

  0
LINE
  5
3008
330
134E
100
AcDbEntity
  8
SUNPOU
100
AcDbLine
 10
2993.974314782601
 20
4593.371235131486
 30
0.0
 11
3008.974314782598
 21
4593.371235131486
 31
0.0
  0
LINE
  5
3009
330
134E
100
AcDbEntity
  8
SUNPOU
100
AcDbLine
 10
2993.974314782599
 20
4703.371235131482
 30
0.0
 11
3008.974314782598
 21
4703.371235131482
 31
0.0
  0
LINE
  5
300A
330
134E
100
AcDbEntity
  8
SUNPOU
100
AcDbLine
 10
3038.974314782599
 20
4518.371235131485
 30
0.0
 11
3038.974314782599
 21
4443.371235131485
 31
0.0
  0
LINE
  5
300B
330
134E
100
AcDbEntity
  8
SUNPOU
100
AcDbLine
 10
3038.974314782599
 20
4778.371235131483
 30
0.0
 11
3038.974314782599
 21
4853.371235131483
 31
0.0
  0
MTEXT
  5
300C
330
134E
100
AcDbEntity
  8
SUNPOU
 62
     6
100
AcDbMText
 10
2926.474314782598
 20
4648.371235131485
 30
0.0
 40
75.0
 41
0.0
 71
     5
 72
     1
  1
\A1;110
  7
SUNPOU
 11
0.0000000000000001
 21
1.0
 31
0.0
1001
ACAD
1000
MTEXTBEGIN
1070
    73
1070
     1
1070
    44
1040
1.0
1070
    74
1070
     0
1000
MTEXTEND
1000
MTEXTBEGIN
1070
    73
1070
     1
1070
    44
1040
1.0
1070
    74
1070
     0
1000
MTEXTEND
  0
LINE
  5
300D
330
134E
100
AcDbEntity
  8
SUNPOU
100
AcDbLine
 10
3038.974314782599
 20
4593.371235131486
 30
0.0
 11
3038.974314782599
 21
4703.371235131482
 31
0.0
  0
INSERT
  5
300E
330
134E
100
AcDbEntity
  8
SUNPOU
100
AcDbBlockReference
  2
_OPEN30
 10
3038.974314782599
 20
4593.371235131486
 30
0.0
 41
75.0
 42
75.0
 43
75.0
 50
90.0
  0
INSERT
  5
300F
330
134E
100
AcDbEntity
  8
SUNPOU
100
AcDbBlockReference
  2
_OPEN30
 10
3038.974314782599
 20
4703.371235131482
 30
0.0
 41
75.0
 42
75.0
 43
75.0
 50
270.0
  0
POINT
  5
3010
330
134E
100
AcDbEntity
  8
DEFPOINTS
 62
     0
100
AcDbPoint
 10
3038.9743147826
 20
4593.371235131486
 30
0.0
  0
POINT
  5
3011
330
134E
100
AcDbEntity
  8
DEFPOINTS
 62
     0
100
AcDbPoint
 10
3038.974314782599
 20
4703.371235131482
 30
0.0
  0
POINT
  5
3012
330
134E
100
AcDbEntity
  8
DEFPOINTS
 62
     0
100
AcDbPoint
 10
3038.974314782599
 20
4703.371235131482
 30
0.0
  0
ENDBLK
  5
135B
330
134E
100
AcDbEntity
  8
0
100
AcDbBlockEnd
  0
BLOCK
  5
13BA
330
13AE
100
AcDbEntity
  8
0
100
AcDbBlockBegin
  2
*D19
 70
     1
 10
0.0
 20
0.0
 30
0.0
  3
*D19
  1

  0
LINE
  5
37CD
330
13AE
100
AcDbEntity
  8
SUNPOU
100
AcDbLine
 10
3083.974314782599
 20
2824.221149682269
 30
0.0
 11
3405.569967888185
 21
2824.221149682269
 31
0.0
  0
LINE
  5
37CE
330
13AE
100
AcDbEntity
  8
SUNPOU
100
AcDbLine
 10
3330.569967888186
 20
2924.221149682271
 30
0.0
 11
3345.569967888186
 21
2924.221149682271
 31
0.0
  0
LINE
  5
37CF
330
13AE
100
AcDbEntity
  8
SUNPOU
100
AcDbLine
 10
3375.569967888186
 20
2749.22114968227
 30
0.0
 11
3375.569967888186
 21
2674.221149682269
 31
0.0
  0
LINE
  5
37D0
330
13AE
100
AcDbEntity
  8
SUNPOU
100
AcDbLine
 10
3375.569967888186
 20
2924.221149682271
 30
0.0
 11
3375.569967888186
 21
2999.221149682271
 31
0.0
  0
MTEXT
  5
37D1
330
13AE
100
AcDbEntity
  8
SUNPOU
 62
     6
100
AcDbMText
 10
3295.84818512791
 20
2754.480700929965
 30
0.0
 40
75.0
 41
0.0
 71
     5
 72
     1
  1
\A1;100
  7
SUNPOU
 11
0.0000000000000001
 21
1.0
 31
0.0
1001
ACAD
1000
MTEXTBEGIN
1070
    73
1070
     1
1070
    44
1040
1.0
1070
    74
1070
     0
1000
MTEXTEND
1000
MTEXTBEGIN
1070
    73
1070
     1
1070
    44
1040
1.0
1070
    74
1070
     0
1000
MTEXTEND
  0
LINE
  5
37D2
330
13AE
100
AcDbEntity
  8
SUNPOU
100
AcDbLine
 10
3375.569967888186
 20
2824.221149682269
 30
0.0
 11
3375.569967888186
 21
2924.221149682271
 31
0.0
  0
INSERT
  5
37D3
330
13AE
100
AcDbEntity
  8
SUNPOU
100
AcDbBlockReference
  2
_OPEN30
 10
3375.569967888186
 20
2824.221149682269
 30
0.0
 41
75.0
 42
75.0
 43
75.0
 50
90.0
  0
INSERT
  5
37D4
330
13AE
100
AcDbEntity
  8
SUNPOU
100
AcDbBlockReference
  2
_DOTSMALL
 10
3375.569967888186
 20
2924.221149682271
 30
0.0
 41
75.0
 42
75.0
 43
75.0
 50
270.0
  0
POINT
  5
37D5
330
13AE
100
AcDbEntity
  8
DEFPOINTS
 62
     0
100
AcDbPoint
 10
3038.974314782599
 20
2824.221149682271
 30
0.0
  0
POINT
  5
37D6
330
13AE
100
AcDbEntity
  8
DEFPOINTS
 62
     0
100
AcDbPoint
 10
3375.569967888186
 20
2924.221149682271
 30
0.0
  0
POINT
  5
37D7
330
13AE
100
AcDbEntity
  8
DEFPOINTS
 62
     0
100
AcDbPoint
 10
3375.569967888186
 20
2924.221149682271
 30
0.0
  0
ENDBLK
  5
13BB
330
13AE
100
AcDbEntity
  8
0
100
AcDbBlockEnd
  0
BLOCK
  5
13C9
330
13BD
100
AcDbEntity
  8
0
100
AcDbBlockBegin
  2
*D20
 70
     1
 10
0.0
 20
0.0
 30
0.0
  3
*D20
  1

  0
LINE
  5
37D8
330
13BD
100
AcDbEntity
  8
SUNPOU
100
AcDbLine
 10
3330.569967888186
 20
2924.221149682271
 30
0.0
 11
3345.569967888186
 21
2924.221149682271
 31
0.0
  0
LINE
  5
37D9
330
13BD
100
AcDbEntity
  8
SUNPOU
100
AcDbLine
 10
3330.569967888186
 20
2954.221149682271
 30
0.0
 11
3345.569967888186
 21
2954.221149682271
 31
0.0
  0
LINE
  5
37DA
330
13BD
100
AcDbEntity
  8
SUNPOU
100
AcDbLine
 10
3375.569967888186
 20
2924.221149682271
 30
0.0
 11
3375.569967888186
 21
2849.221149682271
 31
0.0
  0
LINE
  5
37DB
330
13BD
100
AcDbEntity
  8
SUNPOU
100
AcDbLine
 10
3375.569967888186
 20
3029.221149682271
 30
0.0
 11
3375.569967888186
 21
3104.221149682271
 31
0.0
  0
MTEXT
  5
37DC
330
13BD
100
AcDbEntity
  8
SUNPOU
 62
     6
100
AcDbMText
 10
3300.580649716273
 20
2996.767967754113
 30
0.0
 40
75.0
 41
0.0
 71
     5
 72
     1
  1
\A1;30
  7
SUNPOU
 11
0.0000000000000001
 21
1.0
 31
0.0
1001
ACAD
1000
MTEXTBEGIN
1070
    73
1070
     1
1070
    44
1040
1.0
1070
    74
1070
     0
1000
MTEXTEND
1000
MTEXTBEGIN
1070
    73
1070
     1
1070
    44
1040
1.0
1070
    74
1070
     0
1000
MTEXTEND
  0
LINE
  5
37DD
330
13BD
100
AcDbEntity
  8
SUNPOU
100
AcDbLine
 10
3375.569967888186
 20
2924.221149682271
 30
0.0
 11
3375.569967888186
 21
2954.221149682271
 31
0.0
  0
INSERT
  5
37DE
330
13BD
100
AcDbEntity
  8
SUNPOU
100
AcDbBlockReference
  2
_DOTSMALL
 10
3375.569967888186
 20
2924.221149682271
 30
0.0
 41
75.0
 42
75.0
 43
75.0
 50
90.0
  0
INSERT
  5
37DF
330
13BD
100
AcDbEntity
  8
SUNPOU
100
AcDbBlockReference
  2
_OPEN30
 10
3375.569967888186
 20
2954.221149682271
 30
0.0
 41
75.0
 42
75.0
 43
75.0
 50
270.0
  0
POINT
  5
37E0
330
13BD
100
AcDbEntity
  8
DEFPOINTS
 62
     0
100
AcDbPoint
 10
3375.569967888186
 20
2924.221149682271
 30
0.0
  0
POINT
  5
37E1
330
13BD
100
AcDbEntity
  8
DEFPOINTS
 62
     0
100
AcDbPoint
 10
3375.569967888186
 20
2954.221149682271
 30
0.0
  0
POINT
  5
37E2
330
13BD
100
AcDbEntity
  8
DEFPOINTS
 62
     0
100
AcDbPoint
 10
3375.569967888186
 20
2954.221149682271
 30
0.0
  0
ENDBLK
  5
13CA
330
13BD
100
AcDbEntity
  8
0
100
AcDbBlockEnd
  0
BLOCK
  5
13D6
330
13CC
100
AcDbEntity
  8
0
100
AcDbBlockBegin
  2
*D21
 70
     1
 10
0.0
 20
0.0
 30
0.0
  3
*D21
  1

  0
LINE
  5
3349
330
13CC
100
AcDbEntity
  8
SUNPOU
100
AcDbLine
 10
3420.569967888186
 20
2954.221149682271
 30
0.0
 11
3405.569967888188
 21
2954.221149682271
 31
0.0
  0
LINE
  5
334A
330
13CC
100
AcDbEntity
  8
SUNPOU
100
AcDbLine
 10
3330.569967888187
 20
4455.071064233051
 30
0.0
 11
3345.569967888188
 21
4455.071064233051
 31
0.0
  0
LINE
  5
334B
330
13CC
100
AcDbEntity
  8
SUNPOU
100
AcDbLine
 10
3375.569967888188
 20
3029.221149682271
 30
0.0
 11
3375.569967888188
 21
4380.071064233051
 31
0.0
  0
INSERT
  5
334C
330
13CC
100
AcDbEntity
  8
SUNPOU
100
AcDbBlockReference
  2
_OPEN30
 10
3375.569967888188
 20
2954.221149682271
 30
0.0
 41
75.0
 42
75.0
 43
75.0
 50
270.0
  0
INSERT
  5
334D
330
13CC
100
AcDbEntity
  8
SUNPOU
100
AcDbBlockReference
  2
_OPEN30
 10
3375.569967888188
 20
4455.071064233051
 30
0.0
 41
75.0
 42
75.0
 43
75.0
 50
90.0
  0
MTEXT
  5
334E
330
13CC
100
AcDbEntity
  8
SUNPOU
 62
     6
100
AcDbMText
 10
3301.819967888187
 20
3704.646106957663
 30
0.0
 40
75.0
 41
0.0
 71
     5
 72
     1
  1
\A1;1,500.85
  7
SUNPOU
 11
0.0000000000000001
 21
1.0
 31
0.0
1001
ACAD
1000
MTEXTBEGIN
1070
    73
1070
     1
1070
    44
1040
1.0
1070
    74
1070
     0
1000
MTEXTEND
1000
MTEXTBEGIN
1070
    73
1070
     1
1070
    44
1040
1.0
1070
    74
1070
     0
1000
MTEXTEND
  0
POINT
  5
334F
330
13CC
100
AcDbEntity
  8
DEFPOINTS
 62
     0
100
AcDbPoint
 10
3375.569967888186
 20
2954.221149682271
 30
0.0
  0
POINT
  5
3350
330
13CC
100
AcDbEntity
  8
DEFPOINTS
 62
     0
100
AcDbPoint
 10
3375.569967888188
 20
4455.071064233051
 30
0.0
  0
POINT
  5
3351
330
13CC
100
AcDbEntity
  8
DEFPOINTS
 62
     0
100
AcDbPoint
 10
3375.569967888188
 20
4455.071064233051
 30
0.0
  0
ENDBLK
  5
13D7
330
13CC
100
AcDbEntity
  8
0
100
AcDbBlockEnd
  0
BLOCK
  5
13E5
330
13D9
100
AcDbEntity
  8
0
100
AcDbBlockBegin
  2
*D22
 70
     1
 10
0.0
 20
0.0
 30
0.0
  3
*D22
  1

  0
LINE
  5
37E3
330
13D9
100
AcDbEntity
  8
SUNPOU
100
AcDbLine
 10
3330.569967888187
 20
4455.071064233051
 30
0.0
 11
3345.569967888188
 21
4455.071064233051
 31
0.0
  0
LINE
  5
37E4
330
13D9
100
AcDbEntity
  8
SUNPOU
100
AcDbLine
 10
3330.569967888187
 20
4524.221149682275
 30
0.0
 11
3345.569967888188
 21
4524.221149682275
 31
0.0
  0
LINE
  5
37E5
330
13D9
100
AcDbEntity
  8
SUNPOU
100
AcDbLine
 10
3375.569967888188
 20
4380.071064233051
 30
0.0
 11
3375.569967888188
 21
4305.071064233051
 31
0.0
  0
LINE
  5
37E6
330
13D9
100
AcDbEntity
  8
SUNPOU
100
AcDbLine
 10
3375.569967888188
 20
4524.221149682275
 30
0.0
 11
3375.569967888188
 21
4599.221149682274
 31
0.0
  0
MTEXT
  5
37E7
330
13D9
100
AcDbEntity
  8
SUNPOU
 62
     6
100
AcDbMText
 10
3281.819967888188
 20
4323.139424026371
 30
0.0
 40
75.0
 41
0.0
 71
     5
 72
     1
  1
\A1;69.15
  7
SUNPOU
 11
0.0000000000000001
 21
1.0
 31
0.0
1001
ACAD
1000
MTEXTBEGIN
1070
    73
1070
     1
1070
    44
1040
1.0
1070
    74
1070
     0
1000
MTEXTEND
1000
MTEXTBEGIN
1070
    73
1070
     1
1070
    44
1040
1.0
1070
    74
1070
     0
1000
MTEXTEND
  0
LINE
  5
37E8
330
13D9
100
AcDbEntity
  8
SUNPOU
100
AcDbLine
 10
3375.569967888188
 20
4455.071064233051
 30
0.0
 11
3375.569967888188
 21
4524.221149682275
 31
0.0
  0
INSERT
  5
37E9
330
13D9
100
AcDbEntity
  8
SUNPOU
100
AcDbBlockReference
  2
_OPEN30
 10
3375.569967888188
 20
4455.071064233051
 30
0.0
 41
75.0
 42
75.0
 43
75.0
 50
90.0
  0
INSERT
  5
37EA
330
13D9
100
AcDbEntity
  8
SUNPOU
100
AcDbBlockReference
  2
_DOTSMALL
 10
3375.569967888188
 20
4524.221149682275
 30
0.0
 41
75.0
 42
75.0
 43
75.0
 50
270.0
  0
POINT
  5
37EB
330
13D9
100
AcDbEntity
  8
DEFPOINTS
 62
     0
100
AcDbPoint
 10
3375.569967888188
 20
4455.071064233051
 30
0.0
  0
POINT
  5
37EC
330
13D9
100
AcDbEntity
  8
DEFPOINTS
 62
     0
100
AcDbPoint
 10
3375.569967888188
 20
4524.221149682275
 30
0.0
  0
POINT
  5
37ED
330
13D9
100
AcDbEntity
  8
DEFPOINTS
 62
     0
100
AcDbPoint
 10
3375.569967888188
 20
4524.221149682275
 30
0.0
  0
ENDBLK
  5
13E6
330
13D9
100
AcDbEntity
  8
0
100
AcDbBlockEnd
  0
BLOCK
  5
13F4
330
13E8
100
AcDbEntity
  8
0
100
AcDbBlockBegin
  2
*D23
 70
     1
 10
0.0
 20
0.0
 30
0.0
  3
*D23
  1

  0
LINE
  5
37EE
330
13E8
100
AcDbEntity
  8
SUNPOU
100
AcDbLine
 10
3330.569967888187
 20
4524.221149682275
 30
0.0
 11
3345.569967888188
 21
4524.221149682275
 31
0.0
  0
LINE
  5
37EF
330
13E8
100
AcDbEntity
  8
SUNPOU
100
AcDbLine
 10
3330.569967888187
 20
4593.371235131481
 30
0.0
 11
3345.569967888188
 21
4593.371235131481
 31
0.0
  0
LINE
  5
37F0
330
13E8
100
AcDbEntity
  8
SUNPOU
100
AcDbLine
 10
3375.569967888188
 20
4524.221149682275
 30
0.0
 11
3375.569967888188
 21
4449.221149682275
 31
0.0
  0
LINE
  5
37F1
330
13E8
100
AcDbEntity
  8
SUNPOU
100
AcDbLine
 10
3375.569967888188
 20
4668.371235131481
 30
0.0
 11
3375.569967888188
 21
4743.371235131482
 31
0.0
  0
MTEXT
  5
37F2
330
13E8
100
AcDbEntity
  8
SUNPOU
 62
     6
100
AcDbMText
 10
3281.819967888188
 20
4710.642041330044
 30
0.0
 40
75.0
 41
0.0
 71
     5
 72
     1
  1
\A1;69.15
  7
SUNPOU
 11
0.0000000000000001
 21
1.0
 31
0.0
1001
ACAD
1000
MTEXTBEGIN
1070
    73
1070
     1
1070
    44
1040
1.0
1070
    74
1070
     0
1000
MTEXTEND
1000
MTEXTBEGIN
1070
    73
1070
     1
1070
    44
1040
1.0
1070
    74
1070
     0
1000
MTEXTEND
  0
LINE
  5
37F3
330
13E8
100
AcDbEntity
  8
SUNPOU
100
AcDbLine
 10
3375.569967888188
 20
4524.221149682275
 30
0.0
 11
3375.569967888188
 21
4593.371235131481
 31
0.0
  0
INSERT
  5
37F4
330
13E8
100
AcDbEntity
  8
SUNPOU
100
AcDbBlockReference
  2
_DOTSMALL
 10
3375.569967888188
 20
4524.221149682275
 30
0.0
 41
75.0
 42
75.0
 43
75.0
 50
90.0
  0
INSERT
  5
37F5
330
13E8
100
AcDbEntity
  8
SUNPOU
100
AcDbBlockReference
  2
_OPEN30
 10
3375.569967888188
 20
4593.371235131481
 30
0.0
 41
75.0
 42
75.0
 43
75.0
 50
270.0
  0
POINT
  5
37F6
330
13E8
100
AcDbEntity
  8
DEFPOINTS
 62
     0
100
AcDbPoint
 10
3375.569967888188
 20
4524.221149682275
 30
0.0
  0
POINT
  5
37F7
330
13E8
100
AcDbEntity
  8
DEFPOINTS
 62
     0
100
AcDbPoint
 10
3375.569967888188
 20
4593.371235131481
 30
0.0
  0
POINT
  5
37F8
330
13E8
100
AcDbEntity
  8
DEFPOINTS
 62
     0
100
AcDbPoint
 10
3375.569967888188
 20
4593.371235131481
 30
0.0
  0
ENDBLK
  5
13F5
330
13E8
100
AcDbEntity
  8
0
100
AcDbBlockEnd
  0
BLOCK
  5
1401
330
13F7
100
AcDbEntity
  8
0
100
AcDbBlockBegin
  2
*D24
 70
     1
 10
0.0
 20
0.0
 30
0.0
  3
*D24
  1

  0
LINE
  5
3340
330
13F7
100
AcDbEntity
  8
SUNPOU
100
AcDbLine
 10
3330.569967888187
 20
4593.371235131481
 30
0.0
 11
3345.569967888188
 21
4593.371235131481
 31
0.0
  0
LINE
  5
3341
330
13F7
100
AcDbEntity
  8
SUNPOU
100
AcDbLine
 10
3330.569967888187
 20
6094.221149682276
 30
0.0
 11
3345.569967888188
 21
6094.221149682276
 31
0.0
  0
LINE
  5
3342
330
13F7
100
AcDbEntity
  8
SUNPOU
100
AcDbLine
 10
3375.569967888188
 20
4668.371235131481
 30
0.0
 11
3375.569967888188
 21
6019.221149682276
 31
0.0
  0
INSERT
  5
3343
330
13F7
100
AcDbEntity
  8
SUNPOU
100
AcDbBlockReference
  2
_OPEN30
 10
3375.569967888188
 20
4593.371235131481
 30
0.0
 41
75.0
 42
75.0
 43
75.0
 50
270.0
  0
INSERT
  5
3344
330
13F7
100
AcDbEntity
  8
SUNPOU
100
AcDbBlockReference
  2
_OPEN30
 10
3375.569967888188
 20
6094.221149682276
 30
0.0
 41
75.0
 42
75.0
 43
75.0
 50
90.0
  0
MTEXT
  5
3345
330
13F7
100
AcDbEntity
  8
SUNPOU
 62
     6
100
AcDbMText
 10
3301.819967888187
 20
5343.796192406879
 30
0.0
 40
75.0
 41
0.0
 71
     5
 72
     1
  1
\A1;1,500.85
  7
SUNPOU
 11
0.0000000000000001
 21
1.0
 31
0.0
1001
ACAD
1000
MTEXTBEGIN
1070
    73
1070
     1
1070
    44
1040
1.0
1070
    74
1070
     0
1000
MTEXTEND
1000
MTEXTBEGIN
1070
    73
1070
     1
1070
    44
1040
1.0
1070
    74
1070
     0
1000
MTEXTEND
  0
POINT
  5
3346
330
13F7
100
AcDbEntity
  8
DEFPOINTS
 62
     0
100
AcDbPoint
 10
3375.569967888188
 20
4593.371235131481
 30
0.0
  0
POINT
  5
3347
330
13F7
100
AcDbEntity
  8
DEFPOINTS
 62
     0
100
AcDbPoint
 10
3375.569967888188
 20
6094.221149682276
 30
0.0
  0
POINT
  5
3348
330
13F7
100
AcDbEntity
  8
DEFPOINTS
 62
     0
100
AcDbPoint
 10
3375.569967888188
 20
6094.221149682276
 30
0.0
  0
ENDBLK
  5
1402
330
13F7
100
AcDbEntity
  8
0
100
AcDbBlockEnd
  0
BLOCK
  5
1410
330
1404
100
AcDbEntity
  8
0
100
AcDbBlockBegin
  2
*D25
 70
     1
 10
0.0
 20
0.0
 30
0.0
  3
*D25
  1

  0
LINE
  5
37F9
330
1404
100
AcDbEntity
  8
SUNPOU
100
AcDbLine
 10
3330.569967888187
 20
6094.221149682276
 30
0.0
 11
3345.569967888188
 21
6094.221149682276
 31
0.0
  0
LINE
  5
37FA
330
1404
100
AcDbEntity
  8
SUNPOU
100
AcDbLine
 10
3330.569967888187
 20
6124.221149682274
 30
0.0
 11
3345.569967888188
 21
6124.221149682274
 31
0.0
  0
LINE
  5
37FB
330
1404
100
AcDbEntity
  8
SUNPOU
100
AcDbLine
 10
3375.569967888188
 20
6019.221149682276
 30
0.0
 11
3375.569967888188
 21
5944.221149682276
 31
0.0
  0
LINE
  5
37FC
330
1404
100
AcDbEntity
  8
SUNPOU
100
AcDbLine
 10
3375.569967888188
 20
6124.221149682274
 30
0.0
 11
3375.569967888188
 21
6199.221149682275
 31
0.0
  0
MTEXT
  5
37FD
330
1404
100
AcDbEntity
  8
SUNPOU
 62
     6
100
AcDbMText
 10
3281.819967888188
 20
6038.297374391143
 30
0.0
 40
75.0
 41
0.0
 71
     5
 72
     1
  1
\A1;30
  7
SUNPOU
 11
0.0000000000000001
 21
1.0
 31
0.0
1001
ACAD
1000
MTEXTBEGIN
1070
    73
1070
     1
1070
    44
1040
1.0
1070
    74
1070
     0
1000
MTEXTEND
1000
MTEXTBEGIN
1070
    73
1070
     1
1070
    44
1040
1.0
1070
    74
1070
     0
1000
MTEXTEND
  0
LINE
  5
37FE
330
1404
100
AcDbEntity
  8
SUNPOU
100
AcDbLine
 10
3375.569967888188
 20
6094.221149682276
 30
0.0
 11
3375.569967888188
 21
6124.221149682274
 31
0.0
  0
INSERT
  5
37FF
330
1404
100
AcDbEntity
  8
SUNPOU
100
AcDbBlockReference
  2
_OPEN30
 10
3375.569967888188
 20
6094.221149682276
 30
0.0
 41
75.0
 42
75.0
 43
75.0
 50
90.0
  0
INSERT
  5
3800
330
1404
100
AcDbEntity
  8
SUNPOU
100
AcDbBlockReference
  2
_DOTSMALL
 10
3375.569967888188
 20
6124.221149682274
 30
0.0
 41
75.0
 42
75.0
 43
75.0
 50
270.0
  0
POINT
  5
3801
330
1404
100
AcDbEntity
  8
DEFPOINTS
 62
     0
100
AcDbPoint
 10
3375.569967888188
 20
6094.221149682276
 30
0.0
  0
POINT
  5
3802
330
1404
100
AcDbEntity
  8
DEFPOINTS
 62
     0
100
AcDbPoint
 10
3375.569967888188
 20
6124.221149682274
 30
0.0
  0
POINT
  5
3803
330
1404
100
AcDbEntity
  8
DEFPOINTS
 62
     0
100
AcDbPoint
 10
3375.569967888188
 20
6124.221149682274
 30
0.0
  0
ENDBLK
  5
1411
330
1404
100
AcDbEntity
  8
0
100
AcDbBlockEnd
  0
BLOCK
  5
141F
330
1413
100
AcDbEntity
  8
0
100
AcDbBlockBegin
  2
*D26
 70
     1
 10
0.0
 20
0.0
 30
0.0
  3
*D26
  1

  0
LINE
  5
3804
330
1413
100
AcDbEntity
  8
SUNPOU
100
AcDbLine
 10
3330.569967888187
 20
6124.221149682274
 30
0.0
 11
3345.569967888188
 21
6124.221149682274
 31
0.0
  0
LINE
  5
3805
330
1413
100
AcDbEntity
  8
SUNPOU
100
AcDbLine
 10
3083.9743147826
 20
6224.221149682275
 30
0.0
 11
3405.569967888188
 21
6224.221149682275
 31
0.0
  0
LINE
  5
3806
330
1413
100
AcDbEntity
  8
SUNPOU
100
AcDbLine
 10
3375.569967888188
 20
6124.221149682274
 30
0.0
 11
3375.569967888188
 21
6049.221149682274
 31
0.0
  0
LINE
  5
3807
330
1413
100
AcDbEntity
  8
SUNPOU
100
AcDbLine
 10
3375.569967888188
 20
6299.221149682274
 30
0.0
 11
3375.569967888188
 21
6374.221149682274
 31
0.0
  0
MTEXT
  5
3808
330
1413
100
AcDbEntity
  8
SUNPOU
 62
     6
100
AcDbMText
 10
3281.535346107246
 20
6303.49206045334
 30
0.0
 40
75.0
 41
0.0
 71
     5
 72
     1
  1
\A1;100
  7
SUNPOU
 11
0.0000000000000001
 21
1.0
 31
0.0
1001
ACAD
1000
MTEXTBEGIN
1070
    73
1070
     1
1070
    44
1040
1.0
1070
    74
1070
     0
1000
MTEXTEND
1000
MTEXTBEGIN
1070
    73
1070
     1
1070
    44
1040
1.0
1070
    74
1070
     0
1000
MTEXTEND
  0
LINE
  5
3809
330
1413
100
AcDbEntity
  8
SUNPOU
100
AcDbLine
 10
3375.569967888188
 20
6124.221149682274
 30
0.0
 11
3375.569967888188
 21
6224.221149682275
 31
0.0
  0
INSERT
  5
380A
330
1413
100
AcDbEntity
  8
SUNPOU
100
AcDbBlockReference
  2
_DOTSMALL
 10
3375.569967888188
 20
6124.221149682274
 30
0.0
 41
75.0
 42
75.0
 43
75.0
 50
90.0
  0
INSERT
  5
380B
330
1413
100
AcDbEntity
  8
SUNPOU
100
AcDbBlockReference
  2
_OPEN30
 10
3375.569967888188
 20
6224.221149682275
 30
0.0
 41
75.0
 42
75.0
 43
75.0
 50
270.0
  0
POINT
  5
380C
330
1413
100
AcDbEntity
  8
DEFPOINTS
 62
     0
100
AcDbPoint
 10
3375.569967888188
 20
6124.221149682274
 30
0.0
  0
POINT
  5
380D
330
1413
100
AcDbEntity
  8
DEFPOINTS
 62
     0
100
AcDbPoint
 10
3038.9743147826
 20
6224.221149682275
 30
0.0
  0
POINT
  5
380E
330
1413
100
AcDbEntity
  8
DEFPOINTS
 62
     0
100
AcDbPoint
 10
3375.569967888188
 20
6224.221149682275
 30
0.0
  0
ENDBLK
  5
1420
330
1413
100
AcDbEntity
  8
0
100
AcDbBlockEnd
  0
BLOCK
  5
142C
330
1422
100
AcDbEntity
  8
0
100
AcDbBlockBegin
  2
*D27
 70
     1
 10
0.0
 20
0.0
 30
0.0
  3
*D27
  1

  0
LINE
  5
3772
330
1422
100
AcDbEntity
  8
SUNPOU
100
AcDbLine
 10
3519.994735484461
 20
6159.221149682245
 30
0.0
 11
3534.994735484458
 21
6159.221149682245
 31
0.0
  0
LINE
  5
3773
330
1422
100
AcDbEntity
  8
SUNPOU
100
AcDbLine
 10
3609.994735484456
 20
2889.221149682271
 30
0.0
 11
3594.994735484457
 21
2889.221149682271
 31
0.0
  0
LINE
  5
3774
330
1422
100
AcDbEntity
  8
SUNPOU
100
AcDbLine
 10
3564.994735484457
 20
6084.221149682246
 30
0.0
 11
3564.994735484457
 21
2964.221149682273
 31
0.0
  0
MTEXT
  5
3775
330
1422
100
AcDbEntity
  8
SUNPOU
 62
     6
100
AcDbMText
 10
3483.566721228292
 20
4208.264344285253
 30
0.0
 40
75.0
 41
0.0
 71
     5
 72
     1
  1
\A1;3,270
  7
SUNPOU
 11
0.0000000000000001
 21
1.0
 31
0.0
1001
ACAD
1000
MTEXTBEGIN
1070
    73
1070
     1
1070
    44
1040
1.0
1070
    74
1070
     0
1000
MTEXTEND
1000
MTEXTBEGIN
1070
    73
1070
     1
1070
    44
1040
1.0
1070
    74
1070
     0
1000
MTEXTEND
  0
INSERT
  5
3776
330
1422
100
AcDbEntity
  8
SUNPOU
100
AcDbBlockReference
  2
_OPEN30
 10
3564.994735484457
 20
6159.221149682245
 30
0.0
 41
75.0
 42
75.0
 43
75.0
 50
90.0
  0
INSERT
  5
3777
330
1422
100
AcDbEntity
  8
SUNPOU
100
AcDbBlockReference
  2
_OPEN30
 10
3564.994735484457
 20
2889.221149682271
 30
0.0
 41
75.0
 42
75.0
 43
75.0
 50
270.0
  0
POINT
  5
3778
330
1422
100
AcDbEntity
  8
DEFPOINTS
 62
     0
100
AcDbPoint
 10
3564.994735484461
 20
6159.221149682245
 30
0.0
  0
POINT
  5
3779
330
1422
100
AcDbEntity
  8
DEFPOINTS
 62
     0
100
AcDbPoint
 10
3564.994735484457
 20
2889.221149682271
 30
0.0
  0
POINT
  5
377A
330
1422
100
AcDbEntity
  8
DEFPOINTS
 62
     0
100
AcDbPoint
 10
3564.994735484457
 20
2889.221149682271
 30
0.0
  0
ENDBLK
  5
142D
330
1422
100
AcDbEntity
  8
0
100
AcDbBlockEnd
  0
BLOCK
  5
143C
330
1430
100
AcDbEntity
  8
0
100
AcDbBlockBegin
  2
*D28
 70
     1
 10
0.0
 20
0.0
 30
0.0
  3
*D28
  1

  0
LINE
  5
3071
330
1430
100
AcDbEntity
  8
SUNPOU
100
AcDbLine
 10
4970.90446860087
 20
6792.023200649771
 30
0.0
 11
4970.90446860087
 21
6777.023200649772
 31
0.0
  0
LINE
  5
3072
330
1430
100
AcDbEntity
  8
SUNPOU
100
AcDbLine
 10
4950.904316012971
 20
6229.221149682276
 30
0.0
 11
4950.904316012971
 21
6777.023200649772
 31
0.0
  0
LINE
  5
3073
330
1430
100
AcDbEntity
  8
SUNPOU
100
AcDbLine
 10
5045.904468600871
 20
6747.023200649772
 30
0.0
 11
5120.904468600871
 21
6747.023200649772
 31
0.0
  0
LINE
  5
3074
330
1430
100
AcDbEntity
  8
SUNPOU
100
AcDbLine
 10
4875.904316012971
 20
6747.023200649772
 30
0.0
 11
4800.904316012971
 21
6747.023200649772
 31
0.0
  0
MTEXT
  5
3075
330
1430
100
AcDbEntity
  8
SUNPOU
 62
     6
100
AcDbMText
 10
4878.461115095845
 20
6669.24860838088
 30
0.0
 40
75.0
 41
0.0
 71
     5
 72
     1
  1
\A1;20
  7
SUNPOU
1001
ACAD
1000
MTEXTBEGIN
1070
    73
1070
     1
1070
    44
1040
1.0
1070
    74
1070
     0
1000
MTEXTEND
1000
MTEXTBEGIN
1070
    73
1070
     1
1070
    44
1040
1.0
1070
    74
1070
     0
1000
MTEXTEND
  0
LINE
  5
3076
330
1430
100
AcDbEntity
  8
SUNPOU
100
AcDbLine
 10
4970.90446860087
 20
6747.023200649772
 30
0.0
 11
4950.904316012971
 21
6747.023200649772
 31
0.0
  0
INSERT
  5
3077
330
1430
100
AcDbEntity
  8
SUNPOU
100
AcDbBlockReference
  2
_OPEN30
 10
4970.90446860087
 20
6747.023200649772
 30
0.0
 41
75.0
 42
75.0
 43
75.0
 50
180.0
  0
INSERT
  5
3078
330
1430
100
AcDbEntity
  8
SUNPOU
100
AcDbBlockReference
  2
_OPEN30
 10
4950.904316012971
 20
6747.023200649772
 30
0.0
 41
75.0
 42
75.0
 43
75.0
  0
POINT
  5
3079
330
1430
100
AcDbEntity
  8
DEFPOINTS
 62
     0
100
AcDbPoint
 10
4970.90446860087
 20
6747.023200649772
 30
0.0
  0
POINT
  5
307A
330
1430
100
AcDbEntity
  8
DEFPOINTS
 62
     0
100
AcDbPoint
 10
4950.904316012971
 20
6184.221149682276
 30
0.0
  0
POINT
  5
307B
330
1430
100
AcDbEntity
  8
DEFPOINTS
 62
     0
100
AcDbPoint
 10
4950.904316012971
 20
6747.023200649772
 30
0.0
  0
ENDBLK
  5
143D
330
1430
100
AcDbEntity
  8
0
100
AcDbBlockEnd
  0
BLOCK
  5
1449
330
143F
100
AcDbEntity
  8
0
100
AcDbBlockBegin
  2
*D29
 70
     1
 10
0.0
 20
0.0
 30
0.0
  3
*D29
  1

  0
LINE
  5
307C
330
143F
100
AcDbEntity
  8
SUNPOU
100
AcDbLine
 10
4950.904316012971
 20
6229.221149682276
 30
0.0
 11
4950.904316012971
 21
6777.023200649775
 31
0.0
  0
LINE
  5
307D
330
143F
100
AcDbEntity
  8
SUNPOU
100
AcDbLine
 10
2274.904316012971
 20
6269.221149682276
 30
0.0
 11
2274.904316012971
 21
6777.023200649775
 31
0.0
  0
LINE
  5
307E
330
143F
100
AcDbEntity
  8
SUNPOU
100
AcDbLine
 10
4875.904316012971
 20
6747.023200649775
 30
0.0
 11
2349.90431601297
 21
6747.023200649775
 31
0.0
  0
INSERT
  5
307F
330
143F
100
AcDbEntity
  8
SUNPOU
100
AcDbBlockReference
  2
_OPEN30
 10
4950.904316012971
 20
6747.023200649775
 30
0.0
 41
75.0
 42
75.0
 43
75.0
  0
INSERT
  5
3080
330
143F
100
AcDbEntity
  8
SUNPOU
100
AcDbBlockReference
  2
_OPEN30
 10
2274.904316012971
 20
6747.023200649775
 30
0.0
 41
75.0
 42
75.0
 43
75.0
 50
180.0
  0
MTEXT
  5
3081
330
143F
100
AcDbEntity
  8
SUNPOU
 62
     6
100
AcDbMText
 10
3612.904316012971
 20
6820.773200649774
 30
0.0
 40
75.0
 41
0.0
 71
     5
 72
     1
  1
\A1;DH=2,676
  7
SUNPOU
1001
ACAD
1000
MTEXTBEGIN
1070
    73
1070
     1
1070
    44
1040
1.0
1070
    74
1070
     0
1000
MTEXTEND
1000
MTEXTBEGIN
1070
    73
1070
     1
1070
    44
1040
1.0
1070
    74
1070
     0
1000
MTEXTEND
  0
POINT
  5
3082
330
143F
100
AcDbEntity
  8
DEFPOINTS
 62
     0
100
AcDbPoint
 10
4950.904316012971
 20
6184.221149682276
 30
0.0
  0
POINT
  5
3083
330
143F
100
AcDbEntity
  8
DEFPOINTS
 62
     0
100
AcDbPoint
 10
2274.904316012971
 20
6224.221149682275
 30
0.0
  0
POINT
  5
3084
330
143F
100
AcDbEntity
  8
DEFPOINTS
 62
     0
100
AcDbPoint
 10
2274.904316012971
 20
6747.023200649775
 30
0.0
  0
ENDBLK
  5
144A
330
143F
100
AcDbEntity
  8
0
100
AcDbBlockEnd
  0
BLOCK
  5
1458
330
144C
100
AcDbEntity
  8
0
100
AcDbBlockBegin
  2
*D30
 70
     1
 10
0.0
 20
0.0
 30
0.0
  3
*D30
  1

  0
LINE
  5
3085
330
144C
100
AcDbEntity
  8
SUNPOU
100
AcDbLine
 10
2274.904316012971
 20
6269.221149682276
 30
0.0
 11
2274.904316012971
 21
6777.023200649775
 31
0.0
  0
LINE
  5
3086
330
144C
100
AcDbEntity
  8
SUNPOU
100
AcDbLine
 10
2270.904316012971
 20
6269.221149682276
 30
0.0
 11
2270.904316012971
 21
6777.023200649775
 31
0.0
  0
LINE
  5
3087
330
144C
100
AcDbEntity
  8
SUNPOU
100
AcDbLine
 10
2349.90431601297
 20
6747.023200649775
 30
0.0
 11
2424.904316012971
 21
6747.023200649775
 31
0.0
  0
LINE
  5
3088
330
144C
100
AcDbEntity
  8
SUNPOU
100
AcDbLine
 10
2195.90431601297
 20
6747.023200649775
 30
0.0
 11
2120.904316012971
 21
6747.023200649775
 31
0.0
  0
MTEXT
  5
3089
330
144C
100
AcDbEntity
  8
SUNPOU
 62
     6
100
AcDbMText
 10
2205.857679811632
 20
6820.920035141496
 30
0.0
 40
75.0
 41
0.0
 71
     5
 72
     1
  1
\A1;4
  7
SUNPOU
1001
ACAD
1000
MTEXTBEGIN
1070
    73
1070
     1
1070
    44
1040
1.0
1070
    74
1070
     0
1000
MTEXTEND
1000
MTEXTBEGIN
1070
    73
1070
     1
1070
    44
1040
1.0
1070
    74
1070
     0
1000
MTEXTEND
  0
LINE
  5
308A
330
144C
100
AcDbEntity
  8
SUNPOU
100
AcDbLine
 10
2274.904316012971
 20
6747.023200649775
 30
0.0
 11
2270.904316012971
 21
6747.023200649775
 31
0.0
  0
INSERT
  5
308B
330
144C
100
AcDbEntity
  8
SUNPOU
100
AcDbBlockReference
  2
_OPEN30
 10
2274.904316012971
 20
6747.023200649775
 30
0.0
 41
75.0
 42
75.0
 43
75.0
 50
180.0
  0
INSERT
  5
308C
330
144C
100
AcDbEntity
  8
SUNPOU
100
AcDbBlockReference
  2
_OPEN30
 10
2270.904316012971
 20
6747.023200649775
 30
0.0
 41
75.0
 42
75.0
 43
75.0
  0
POINT
  5
308D
330
144C
100
AcDbEntity
  8
DEFPOINTS
 62
     0
100
AcDbPoint
 10
2274.904316012971
 20
6224.221149682275
 30
0.0
  0
POINT
  5
308E
330
144C
100
AcDbEntity
  8
DEFPOINTS
 62
     0
100
AcDbPoint
 10
2270.904316012971
 20
6224.221149682275
 30
0.0
  0
POINT
  5
308F
330
144C
100
AcDbEntity
  8
DEFPOINTS
 62
     0
100
AcDbPoint
 10
2270.904316012971
 20
6747.023200649775
 30
0.0
  0
ENDBLK
  5
1459
330
144C
100
AcDbEntity
  8
0
100
AcDbBlockEnd
  0
BLOCK
  5
1472
330
1468
100
AcDbEntity
  8
0
100
AcDbBlockBegin
  2
*D31
 70
     1
 10
0.0
 20
0.0
 30
0.0
  3
*D31
  1

  0
LINE
  5
3090
330
1468
100
AcDbEntity
  8
SUNPOU
100
AcDbLine
 10
4970.90446860087
 20
7039.456083095018
 30
0.0
 11
4970.90446860087
 21
7024.456083095022
 31
0.0
  0
LINE
  5
3091
330
1468
100
AcDbEntity
  8
SUNPOU
100
AcDbLine
 10
2270.904316012971
 20
6269.221149682276
 30
0.0
 11
2270.904316012971
 21
7024.456083095022
 31
0.0
  0
LINE
  5
3092
330
1468
100
AcDbEntity
  8
SUNPOU
100
AcDbLine
 10
4895.904468600871
 20
6994.456083095021
 30
0.0
 11
2345.90431601297
 21
6994.456083095021
 31
0.0
  0
INSERT
  5
3093
330
1468
100
AcDbEntity
  8
SUNPOU
100
AcDbBlockReference
  2
_OPEN30
 10
4970.90446860087
 20
6994.456083095021
 30
0.0
 41
75.0
 42
75.0
 43
75.0
  0
INSERT
  5
3094
330
1468
100
AcDbEntity
  8
SUNPOU
100
AcDbBlockReference
  2
_OPEN30
 10
2270.904316012971
 20
6994.456083095021
 30
0.0
 41
75.0
 42
75.0
 43
75.0
 50
180.0
  0
MTEXT
  5
3095
330
1468
100
AcDbEntity
  8
SUNPOU
 62
     6
100
AcDbMText
 10
3620.904392306921
 20
7068.206083095022
 30
0.0
 40
75.0
 41
0.0
 71
     5
 72
     1
  1
\A1;H=2,700
  7
SUNPOU
1001
ACAD
1000
MTEXTBEGIN
1070
    73
1070
     1
1070
    44
1040
1.0
1070
    74
1070
     0
1000
MTEXTEND
1000
MTEXTBEGIN
1070
    73
1070
     1
1070
    44
1040
1.0
1070
    74
1070
     0
1000
MTEXTEND
  0
POINT
  5
3096
330
1468
100
AcDbEntity
  8
DEFPOINTS
 62
     0
100
AcDbPoint
 10
4970.90446860087
 20
6994.456083095018
 30
0.0
  0
POINT
  5
3097
330
1468
100
AcDbEntity
  8
DEFPOINTS
 62
     0
100
AcDbPoint
 10
2270.904316012971
 20
6224.221149682275
 30
0.0
  0
POINT
  5
3098
330
1468
100
AcDbEntity
  8
DEFPOINTS
 62
     0
100
AcDbPoint
 10
2270.904316012971
 20
6994.456083095021
 30
0.0
  0
ENDBLK
  5
1473
330
1468
100
AcDbEntity
  8
0
100
AcDbBlockEnd
  0
BLOCK
  5
147F
330
1475
100
AcDbEntity
  8
0
100
AcDbBlockBegin
  2
*D32
 70
     1
 10
0.0
 20
0.0
 30
0.0
  3
*D32
  1

  0
LINE
  5
3099
330
1475
100
AcDbEntity
  8
SUNPOU
100
AcDbLine
 10
2270.904316012971
 20
6269.221149682276
 30
0.0
 11
2270.904316012971
 21
7024.456083095022
 31
0.0
  0
LINE
  5
309A
330
1475
100
AcDbEntity
  8
SUNPOU
100
AcDbLine
 10
1690.904468600853
 20
6262.274738549457
 30
0.0
 11
1690.904468600853
 21
7024.456083095022
 31
0.0
  0
LINE
  5
309B
330
1475
100
AcDbEntity
  8
SUNPOU
100
AcDbLine
 10
2195.90431601297
 20
6994.456083095021
 30
0.0
 11
1765.904468600854
 21
6994.456083095021
 31
0.0
  0
INSERT
  5
309C
330
1475
100
AcDbEntity
  8
SUNPOU
100
AcDbBlockReference
  2
_OPEN30
 10
2270.904316012971
 20
6994.456083095021
 30
0.0
 41
75.0
 42
75.0
 43
75.0
  0
INSERT
  5
309D
330
1475
100
AcDbEntity
  8
SUNPOU
100
AcDbBlockReference
  2
_OPEN30
 10
1690.904468600853
 20
6994.456083095021
 30
0.0
 41
75.0
 42
75.0
 43
75.0
 50
180.0
  0
MTEXT
  5
309E
330
1475
100
AcDbEntity
  8
SUNPOU
 62
     6
100
AcDbMText
 10
1980.904392306912
 20
7061.956083095022
 30
0.0
 40
75.0
 41
0.0
 71
     5
 72
     1
  1
\A1;580
  7
SUNPOU
1001
ACAD
1000
MTEXTBEGIN
1070
    73
1070
     1
1070
    44
1040
1.0
1070
    74
1070
     0
1000
MTEXTEND
1000
MTEXTBEGIN
1070
    73
1070
     1
1070
    44
1040
1.0
1070
    74
1070
     0
1000
MTEXTEND
  0
POINT
  5
309F
330
1475
100
AcDbEntity
  8
DEFPOINTS
 62
     0
100
AcDbPoint
 10
2270.904316012971
 20
6224.221149682275
 30
0.0
  0
POINT
  5
30A0
330
1475
100
AcDbEntity
  8
DEFPOINTS
 62
     0
100
AcDbPoint
 10
1690.904468600853
 20
6217.274738549459
 30
0.0
  0
POINT
  5
30A1
330
1475
100
AcDbEntity
  8
DEFPOINTS
 62
     0
100
AcDbPoint
 10
1690.904468600853
 20
6994.456083095021
 30
0.0
  0
ENDBLK
  5
1480
330
1475
100
AcDbEntity
  8
0
100
AcDbBlockEnd
  0
BLOCK
  5
14A4
330
1498
100
AcDbEntity
  8
0
100
AcDbBlockBegin
  2
*D33
 70
     1
 10
0.0
 20
0.0
 30
0.0
  3
*D33
  1

  0
LINE
  5
3734
330
1498
100
AcDbEntity
  8
SUNPOU
100
AcDbLine
 10
2270.904468600869
 20
2779.221149682275
 30
0.0
 11
2270.904468600869
 21
2391.352440057791
 31
0.0
  0
LINE
  5
3735
330
1498
100
AcDbEntity
  8
SUNPOU
100
AcDbLine
 10
2364.90446860087
 20
2620.905513260241
 30
0.0
 11
2364.90446860087
 21
2391.352440057791
 31
0.0
  0
LINE
  5
3736
330
1498
100
AcDbEntity
  8
SUNPOU
100
AcDbLine
 10
2195.904468600869
 20
2421.352440057791
 30
0.0
 11
2120.904468600869
 21
2421.352440057791
 31
0.0
  0
LINE
  5
3737
330
1498
100
AcDbEntity
  8
SUNPOU
100
AcDbLine
 10
2439.90446860087
 20
2421.352440057791
 30
0.0
 11
2514.90446860087
 21
2421.352440057791
 31
0.0
  0
MTEXT
  5
3738
330
1498
100
AcDbEntity
  8
SUNPOU
 62
     6
100
AcDbMText
 10
2312.738612754669
 20
2346.887431229871
 30
0.0
 40
75.0
 41
0.0
 71
     5
 72
     1
  1
\A1;94
  7
SUNPOU
1001
ACAD
1000
MTEXTBEGIN
1070
    73
1070
     1
1070
    44
1040
1.0
1070
    74
1070
     0
1000
MTEXTEND
1000
MTEXTBEGIN
1070
    73
1070
     1
1070
    44
1040
1.0
1070
    74
1070
     0
1000
MTEXTEND
  0
LINE
  5
3739
330
1498
100
AcDbEntity
  8
SUNPOU
100
AcDbLine
 10
2270.904468600869
 20
2421.352440057791
 30
0.0
 11
2364.90446860087
 21
2421.352440057791
 31
0.0
  0
INSERT
  5
373A
330
1498
100
AcDbEntity
  8
SUNPOU
100
AcDbBlockReference
  2
_OPEN30
 10
2270.904468600869
 20
2421.352440057791
 30
0.0
 41
75.0
 42
75.0
 43
75.0
  0
INSERT
  5
373B
330
1498
100
AcDbEntity
  8
SUNPOU
100
AcDbBlockReference
  2
_OPEN30
 10
2364.90446860087
 20
2421.352440057791
 30
0.0
 41
75.0
 42
75.0
 43
75.0
 50
180.0
  0
POINT
  5
373C
330
1498
100
AcDbEntity
  8
DEFPOINTS
 62
     0
100
AcDbPoint
 10
2270.904468600869
 20
2824.221149682275
 30
0.0
  0
POINT
  5
373D
330
1498
100
AcDbEntity
  8
DEFPOINTS
 62
     0
100
AcDbPoint
 10
2364.90446860087
 20
2665.90551326024
 30
0.0
  0
POINT
  5
373E
330
1498
100
AcDbEntity
  8
DEFPOINTS
 62
     0
100
AcDbPoint
 10
2364.90446860087
 20
2421.352440057791
 30
0.0
  0
ENDBLK
  5
14A5
330
1498
100
AcDbEntity
  8
0
100
AcDbBlockEnd
  0
BLOCK
  5
14D2
330
14C8
100
AcDbEntity
  8
0
100
AcDbBlockBegin
  2
*D34
 70
     1
 10
0.0
 20
0.0
 30
0.0
  3
*D34
  1

  0
LINE
  5
331D
330
14C8
100
AcDbEntity
  8
SUNPOU
100
AcDbLine
 10
1728.655012243454
 20
4343.221210717422
 30
0.0
 11
1739.215794916361
 21
4343.221210717422
 31
0.0
  0
LINE
  5
331E
330
14C8
100
AcDbEntity
  8
SUNPOU
100
AcDbLine
 10
1728.655012243454
 20
4524.221149682275
 30
0.0
 11
1739.215794916361
 21
4524.221149682275
 31
0.0
  0
LINE
  5
331F
330
14C8
100
AcDbEntity
  8
SUNPOU
100
AcDbLine
 10
1769.215794916361
 20
4268.221210717423
 30
0.0
 11
1769.215794916361
 21
4193.221210717424
 31
0.0
  0
LINE
  5
3320
330
14C8
100
AcDbEntity
  8
SUNPOU
100
AcDbLine
 10
1769.215794916361
 20
4599.221149682274
 30
0.0
 11
1769.215794916361
 21
4674.221149682273
 31
0.0
  0
MTEXT
  5
3321
330
14C8
100
AcDbEntity
  8
SUNPOU
 62
     6
100
AcDbMText
 10
1685.462795316905
 20
4410.217062805517
 30
0.0
 40
75.0
 41
0.0
 71
     5
 72
     1
  1
\A1;181
  7
SUNPOU
 11
0.0000000000000001
 21
1.0
 31
0.0
1001
ACAD
1000
MTEXTBEGIN
1070
    73
1070
     1
1070
    44
1040
1.0
1070
    74
1070
     0
1000
MTEXTEND
1000
MTEXTBEGIN
1070
    73
1070
     1
1070
    44
1040
1.0
1070
    74
1070
     0
1000
MTEXTEND
  0
LINE
  5
3322
330
14C8
100
AcDbEntity
  8
SUNPOU
100
AcDbLine
 10
1769.215794916361
 20
4343.221210717422
 30
0.0
 11
1769.215794916361
 21
4524.221149682275
 31
0.0
  0
INSERT
  5
3323
330
14C8
100
AcDbEntity
  8
SUNPOU
100
AcDbBlockReference
  2
_OPEN30
 10
1769.215794916361
 20
4343.221210717422
 30
0.0
 41
75.0
 42
75.0
 43
75.0
 50
90.0
  0
INSERT
  5
3324
330
14C8
100
AcDbEntity
  8
SUNPOU
100
AcDbBlockReference
  2
_OPEN30
 10
1769.215794916361
 20
4524.221149682275
 30
0.0
 41
75.0
 42
75.0
 43
75.0
 50
270.0
  0
POINT
  5
3325
330
14C8
100
AcDbEntity
  8
DEFPOINTS
 62
     0
100
AcDbPoint
 10
1773.655012243454
 20
4343.221210717422
 30
0.0
  0
POINT
  5
3326
330
14C8
100
AcDbEntity
  8
DEFPOINTS
 62
     0
100
AcDbPoint
 10
1773.655012243454
 20
4524.221149682275
 30
0.0
  0
POINT
  5
3327
330
14C8
100
AcDbEntity
  8
DEFPOINTS
 62
     0
100
AcDbPoint
 10
1769.215794916361
 20
4524.221149682275
 30
0.0
  0
ENDBLK
  5
14D3
330
14C8
100
AcDbEntity
  8
0
100
AcDbBlockEnd
  0
BLOCK
  5
14DF
330
14D5
100
AcDbEntity
  8
0
100
AcDbBlockBegin
  2
*D35
 70
     1
 10
0.0
 20
0.0
 30
0.0
  3
*D35
  1

  0
LINE
  5
3331
330
14D5
100
AcDbEntity
  8
SUNPOU
100
AcDbLine
 10
1728.655012243454
 20
4524.221149682275
 30
0.0
 11
1739.215794916361
 21
4524.221149682275
 31
0.0
  0
LINE
  5
3332
330
14D5
100
AcDbEntity
  8
SUNPOU
100
AcDbLine
 10
1751.13226034914
 20
4945.220783471333
 30
0.0
 11
1739.215794916361
 21
4945.220783471333
 31
0.0
  0
LINE
  5
3333
330
14D5
100
AcDbEntity
  8
SUNPOU
100
AcDbLine
 10
1769.21579491636
 20
4599.221149682274
 30
0.0
 11
1769.215794916361
 21
4870.220783471332
 31
0.0
  0
MTEXT
  5
3334
330
14D5
100
AcDbEntity
  8
SUNPOU
 62
     6
100
AcDbMText
 10
1686.627714810298
 20
4734.22099709438
 30
0.0
 40
75.0
 41
0.0
 71
     5
 72
     1
  1
\A1;421
  7
SUNPOU
 11
0.0000000000000001
 21
1.0
 31
0.0
1001
ACAD
1000
MTEXTBEGIN
1070
    73
1070
     1
1070
    44
1040
1.0
1070
    74
1070
     0
1000
MTEXTEND
1000
MTEXTBEGIN
1070
    73
1070
     1
1070
    44
1040
1.0
1070
    74
1070
     0
1000
MTEXTEND
  0
INSERT
  5
3335
330
14D5
100
AcDbEntity
  8
SUNPOU
100
AcDbBlockReference
  2
_OPEN30
 10
1769.21579491636
 20
4524.221149682275
 30
0.0
 41
75.0
 42
75.0
 43
75.0
 50
270.0
  0
INSERT
  5
3336
330
14D5
100
AcDbEntity
  8
SUNPOU
100
AcDbBlockReference
  2
_OPEN30
 10
1769.215794916361
 20
4945.220783471333
 30
0.0
 41
75.0
 42
75.0
 43
75.0
 50
90.0
  0
POINT
  5
3337
330
14D5
100
AcDbEntity
  8
DEFPOINTS
 62
     0
100
AcDbPoint
 10
1773.655012243454
 20
4524.221149682275
 30
0.0
  0
POINT
  5
3338
330
14D5
100
AcDbEntity
  8
DEFPOINTS
 62
     0
100
AcDbPoint
 10
1796.132260349139
 20
4945.220783471333
 30
0.0
  0
POINT
  5
3339
330
14D5
100
AcDbEntity
  8
DEFPOINTS
 62
     0
100
AcDbPoint
 10
1769.215794916361
 20
4945.220783471333
 30
0.0
  0
ENDBLK
  5
14E0
330
14D5
100
AcDbEntity
  8
0
100
AcDbBlockEnd
  0
BLOCK
  5
14FD
330
14F1
100
AcDbEntity
  8
0
100
AcDbBlockBegin
  2
*D36
 70
     1
 10
0.0
 20
0.0
 30
0.0
  3
*D36
  1

  0
LINE
  5
380F
330
14F1
100
AcDbEntity
  8
SUNPOU
100
AcDbLine
 10
2135.904316012969
 20
3784.949480579927
 30
0.0
 11
2135.904316012969
 21
3819.917304715655
 31
0.0
  0
LINE
  5
3810
330
14F1
100
AcDbEntity
  8
SUNPOU
100
AcDbLine
 10
2005.904316012955
 20
3784.949480579927
 30
0.0
 11
2005.904316012955
 21
3819.917304715655
 31
0.0
  0
LINE
  5
3811
330
14F1
100
AcDbEntity
  8
SUNPOU
100
AcDbLine
 10
2210.904316012969
 20
3789.917304715654
 30
0.0
 11
2285.904316012969
 21
3789.917304715654
 31
0.0
  0
LINE
  5
3812
330
14F1
100
AcDbEntity
  8
SUNPOU
100
AcDbLine
 10
2005.904316012955
 20
3789.917304715654
 30
0.0
 11
1930.904316012955
 21
3789.917304715654
 31
0.0
  0
MTEXT
  5
3813
330
14F1
100
AcDbEntity
  8
SUNPOU
 62
     6
100
AcDbMText
 10
2070.904316012962
 20
3715.469268045071
 30
0.0
 40
75.0
 41
0.0
 71
     5
 72
     1
  1
\A1;130
  7
SUNPOU
1001
ACAD
1000
MTEXTBEGIN
1070
    73
1070
     1
1070
    44
1040
1.0
1070
    74
1070
     0
1000
MTEXTEND
1000
MTEXTBEGIN
1070
    73
1070
     1
1070
    44
1040
1.0
1070
    74
1070
     0
1000
MTEXTEND
  0
LINE
  5
3814
330
14F1
100
AcDbEntity
  8
SUNPOU
100
AcDbLine
 10
2135.904316012969
 20
3789.917304715654
 30
0.0
 11
2005.904316012955
 21
3789.917304715654
 31
0.0
  0
INSERT
  5
3815
330
14F1
100
AcDbEntity
  8
SUNPOU
100
AcDbBlockReference
  2
_OPEN30
 10
2135.904316012969
 20
3789.917304715654
 30
0.0
 41
75.0
 42
75.0
 43
75.0
 50
180.0
  0
INSERT
  5
3816
330
14F1
100
AcDbEntity
  8
SUNPOU
100
AcDbBlockReference
  2
_DOTSMALL
 10
2005.904316012955
 20
3789.917304715654
 30
0.0
 41
75.0
 42
75.0
 43
75.0
  0
POINT
  5
3817
330
14F1
100
AcDbEntity
  8
DEFPOINTS
 62
     0
100
AcDbPoint
 10
2135.904316012969
 20
3739.949480579925
 30
0.0
  0
POINT
  5
3818
330
14F1
100
AcDbEntity
  8
DEFPOINTS
 62
     0
100
AcDbPoint
 10
2005.904316012955
 20
3739.949480579925
 30
0.0
  0
POINT
  5
3819
330
14F1
100
AcDbEntity
  8
DEFPOINTS
 62
     0
100
AcDbPoint
 10
2005.904316012955
 20
3789.917304715654
 30
0.0
  0
ENDBLK
  5
14FE
330
14F1
100
AcDbEntity
  8
0
100
AcDbBlockEnd
  0
BLOCK
  5
150C
330
1500
100
AcDbEntity
  8
0
100
AcDbBlockBegin
  2
*D37
 70
     1
 10
0.0
 20
0.0
 30
0.0
  3
*D37
  1

  0
LINE
  5
381A
330
1500
100
AcDbEntity
  8
SUNPOU
100
AcDbLine
 10
2005.904316012955
 20
3784.949480579927
 30
0.0
 11
2005.904316012955
 21
3819.917304715655
 31
0.0
  0
LINE
  5
381B
330
1500
100
AcDbEntity
  8
SUNPOU
100
AcDbLine
 10
1905.904316012967
 20
3834.917304715654
 30
0.0
 11
1905.904316012967
 21
3819.917304715655
 31
0.0
  0
LINE
  5
381C
330
1500
100
AcDbEntity
  8
SUNPOU
100
AcDbLine
 10
2005.904316012955
 20
3789.917304715654
 30
0.0
 11
2080.904316012955
 21
3789.917304715654
 31
0.0
  0
LINE
  5
381D
330
1500
100
AcDbEntity
  8
SUNPOU
100
AcDbLine
 10
1830.904316012967
 20
3789.917304715654
 30
0.0
 11
1755.904316012967
 21
3789.917304715654
 31
0.0
  0
MTEXT
  5
381E
330
1500
100
AcDbEntity
  8
SUNPOU
 62
     6
100
AcDbMText
 10
1988.047485652438
 20
3871.834229322455
 30
0.0
 40
75.0
 41
0.0
 71
     5
 72
     1
  1
\A1;100
  7
SUNPOU
1001
ACAD
1000
MTEXTBEGIN
1070
    73
1070
     1
1070
    44
1040
1.0
1070
    74
1070
     0
1000
MTEXTEND
1000
MTEXTBEGIN
1070
    73
1070
     1
1070
    44
1040
1.0
1070
    74
1070
     0
1000
MTEXTEND
  0
LINE
  5
381F
330
1500
100
AcDbEntity
  8
SUNPOU
100
AcDbLine
 10
2005.904316012955
 20
3789.917304715654
 30
0.0
 11
1905.904316012967
 21
3789.917304715654
 31
0.0
  0
INSERT
  5
3820
330
1500
100
AcDbEntity
  8
SUNPOU
100
AcDbBlockReference
  2
_DOTSMALL
 10
2005.904316012955
 20
3789.917304715654
 30
0.0
 41
75.0
 42
75.0
 43
75.0
 50
180.0
  0
INSERT
  5
3821
330
1500
100
AcDbEntity
  8
SUNPOU
100
AcDbBlockReference
  2
_OPEN30
 10
1905.904316012967
 20
3789.917304715654
 30
0.0
 41
75.0
 42
75.0
 43
75.0
  0
POINT
  5
3822
330
1500
100
AcDbEntity
  8
DEFPOINTS
 62
     0
100
AcDbPoint
 10
2005.904316012955
 20
3739.949480579925
 30
0.0
  0
POINT
  5
3823
330
1500
100
AcDbEntity
  8
DEFPOINTS
 62
     0
100
AcDbPoint
 10
1905.904316012967
 20
3789.917304715654
 30
0.0
  0
POINT
  5
3824
330
1500
100
AcDbEntity
  8
DEFPOINTS
 62
     0
100
AcDbPoint
 10
1905.904316012967
 20
3789.917304715654
 30
0.0
  0
ENDBLK
  5
150D
330
1500
100
AcDbEntity
  8
0
100
AcDbBlockEnd
  0
BLOCK
  5
1519
330
150F
100
AcDbEntity
  8
0
100
AcDbBlockBegin
  2
*D38
 70
     1
 10
0.0
 20
0.0
 30
0.0
  3
*D38
  1

  0
LINE
  5
3178
330
150F
100
AcDbEntity
  8
SUNPOU
100
AcDbLine
 10
1905.904316012967
 20
3834.917304715654
 30
0.0
 11
1905.904316012967
 21
3819.917304715655
 31
0.0
  0
LINE
  5
3179
330
150F
100
AcDbEntity
  8
SUNPOU
100
AcDbLine
 10
1632.904089063302
 20
3744.917312442197
 30
0.0
 11
1632.904089063302
 21
3759.917304715655
 31
0.0
  0
LINE
  5
317A
330
150F
100
AcDbEntity
  8
SUNPOU
100
AcDbLine
 10
1830.904316012967
 20
3789.917304715654
 30
0.0
 11
1707.904089063302
 21
3789.917304715654
 31
0.0
  0
MTEXT
  5
317B
330
150F
100
AcDbEntity
  8
SUNPOU
 62
     6
100
AcDbMText
 10
1756.181479353389
 20
3871.834229322455
 30
0.0
 40
75.0
 41
0.0
 71
     5
 72
     1
  1
\A1;273
  7
SUNPOU
1001
ACAD
1000
MTEXTBEGIN
1070
    73
1070
     1
1070
    44
1040
1.0
1070
    74
1070
     0
1000
MTEXTEND
1000
MTEXTBEGIN
1070
    73
1070
     1
1070
    44
1040
1.0
1070
    74
1070
     0
1000
MTEXTEND
  0
INSERT
  5
317C
330
150F
100
AcDbEntity
  8
SUNPOU
100
AcDbBlockReference
  2
_OPEN30
 10
1905.904316012967
 20
3789.917304715654
 30
0.0
 41
75.0
 42
75.0
 43
75.0
  0
INSERT
  5
317D
330
150F
100
AcDbEntity
  8
SUNPOU
100
AcDbBlockReference
  2
_OPEN30
 10
1632.904089063302
 20
3789.917304715654
 30
0.0
 41
75.0
 42
75.0
 43
75.0
 50
180.0
  0
POINT
  5
317E
330
150F
100
AcDbEntity
  8
DEFPOINTS
 62
     0
100
AcDbPoint
 10
1905.904316012967
 20
3789.917304715654
 30
0.0
  0
POINT
  5
317F
330
150F
100
AcDbEntity
  8
DEFPOINTS
 62
     0
100
AcDbPoint
 10
1632.904089063302
 20
3789.917312442197
 30
0.0
  0
POINT
  5
3180
330
150F
100
AcDbEntity
  8
DEFPOINTS
 62
     0
100
AcDbPoint
 10
1632.904089063302
 20
3789.917304715654
 30
0.0
  0
ENDBLK
  5
151A
330
150F
100
AcDbEntity
  8
0
100
AcDbBlockEnd
  0
BLOCK
  5
1549
330
153D
100
AcDbEntity
  8
0
100
AcDbBlockBegin
  2
*D39
 70
     1
 10
0.0
 20
0.0
 30
0.0
  3
*D39
  1

  0
LINE
  5
3825
330
153D
100
AcDbEntity
  8
SUNPOU
100
AcDbLine
 10
2374.904316012969
 20
4064.439640734301
 30
0.0
 11
2374.904316012969
 21
4049.439640734301
 31
0.0
  0
LINE
  5
3826
330
153D
100
AcDbEntity
  8
SUNPOU
100
AcDbLine
 10
2274.904316012969
 20
4064.439640734301
 30
0.0
 11
2274.904316012969
 21
4049.439640734301
 31
0.0
  0
LINE
  5
3827
330
153D
100
AcDbEntity
  8
SUNPOU
100
AcDbLine
 10
2449.904316012969
 20
4019.439640734301
 30
0.0
 11
2524.904316012969
 21
4019.439640734301
 31
0.0
  0
LINE
  5
3828
330
153D
100
AcDbEntity
  8
SUNPOU
100
AcDbLine
 10
2274.904316012969
 20
4019.439640734301
 30
0.0
 11
2199.904316012969
 21
4019.439640734301
 31
0.0
  0
MTEXT
  5
3829
330
153D
100
AcDbEntity
  8
SUNPOU
 62
     6
100
AcDbMText
 10
2447.096791657918
 20
3960.329128670851
 30
0.0
 40
75.0
 41
0.0
 71
     5
 72
     1
  1
\A1;100
  7
SUNPOU
1001
ACAD
1000
MTEXTBEGIN
1070
    73
1070
     1
1070
    44
1040
1.0
1070
    74
1070
     0
1000
MTEXTEND
1000
MTEXTBEGIN
1070
    73
1070
     1
1070
    44
1040
1.0
1070
    74
1070
     0
1000
MTEXTEND
  0
LINE
  5
382A
330
153D
100
AcDbEntity
  8
SUNPOU
100
AcDbLine
 10
2374.904316012969
 20
4019.439640734301
 30
0.0
 11
2274.904316012969
 21
4019.439640734301
 31
0.0
  0
INSERT
  5
382B
330
153D
100
AcDbEntity
  8
SUNPOU
100
AcDbBlockReference
  2
_OPEN30
 10
2374.904316012969
 20
4019.439640734301
 30
0.0
 41
75.0
 42
75.0
 43
75.0
 50
180.0
  0
INSERT
  5
382C
330
153D
100
AcDbEntity
  8
SUNPOU
100
AcDbBlockReference
  2
_DOTSMALL
 10
2274.904316012969
 20
4019.439640734301
 30
0.0
 41
75.0
 42
75.0
 43
75.0
  0
POINT
  5
382D
330
153D
100
AcDbEntity
  8
DEFPOINTS
 62
     0
100
AcDbPoint
 10
2374.904316012969
 20
4019.439640734301
 30
0.0
  0
POINT
  5
382E
330
153D
100
AcDbEntity
  8
DEFPOINTS
 62
     0
100
AcDbPoint
 10
2274.904316012969
 20
4019.439640734301
 30
0.0
  0
POINT
  5
382F
330
153D
100
AcDbEntity
  8
DEFPOINTS
 62
     0
100
AcDbPoint
 10
2274.904316012969
 20
4019.439640734301
 30
0.0
  0
ENDBLK
  5
154A
330
153D
100
AcDbEntity
  8
0
100
AcDbBlockEnd
  0
BLOCK
  5
1558
330
154C
100
AcDbEntity
  8
0
100
AcDbBlockBegin
  2
*D40
 70
     1
 10
0.0
 20
0.0
 30
0.0
  3
*D40
  1

  0
LINE
  5
3830
330
154C
100
AcDbEntity
  8
SUNPOU
100
AcDbLine
 10
2274.904316012969
 20
4064.439640734301
 30
0.0
 11
2274.904316012969
 21
4049.439640734301
 31
0.0
  0
LINE
  5
3831
330
154C
100
AcDbEntity
  8
SUNPOU
100
AcDbLine
 10
2270.904316012969
 20
4064.439640734301
 30
0.0
 11
2270.904316012969
 21
4049.439640734301
 31
0.0
  0
LINE
  5
3832
330
154C
100
AcDbEntity
  8
SUNPOU
100
AcDbLine
 10
2274.904316012969
 20
4019.439640734301
 30
0.0
 11
2349.904316012969
 21
4019.439640734301
 31
0.0
  0
LINE
  5
3833
330
154C
100
AcDbEntity
  8
SUNPOU
100
AcDbLine
 10
2270.904316012969
 20
4019.439640734301
 30
0.0
 11
2195.904316012969
 21
4019.439640734301
 31
0.0
  0
MTEXT
  5
3834
330
154C
100
AcDbEntity
  8
SUNPOU
 62
     6
100
AcDbMText
 10
2311.182247741608
 20
4083.132079114268
 30
0.0
 40
75.0
 41
0.0
 71
     5
 72
     1
  1
\A1;4
  7
SUNPOU
1001
ACAD
1000
MTEXTBEGIN
1070
    73
1070
     1
1070
    44
1040
1.0
1070
    74
1070
     0
1000
MTEXTEND
1000
MTEXTBEGIN
1070
    73
1070
     1
1070
    44
1040
1.0
1070
    74
1070
     0
1000
MTEXTEND
  0
LINE
  5
3835
330
154C
100
AcDbEntity
  8
SUNPOU
100
AcDbLine
 10
2274.904316012969
 20
4019.439640734301
 30
0.0
 11
2270.904316012969
 21
4019.439640734301
 31
0.0
  0
INSERT
  5
3836
330
154C
100
AcDbEntity
  8
SUNPOU
100
AcDbBlockReference
  2
_DOTSMALL
 10
2274.904316012969
 20
4019.439640734301
 30
0.0
 41
75.0
 42
75.0
 43
75.0
 50
180.0
  0
INSERT
  5
3837
330
154C
100
AcDbEntity
  8
SUNPOU
100
AcDbBlockReference
  2
_DOTSMALL
 10
2270.904316012969
 20
4019.439640734301
 30
0.0
 41
75.0
 42
75.0
 43
75.0
  0
POINT
  5
3838
330
154C
100
AcDbEntity
  8
DEFPOINTS
 62
     0
100
AcDbPoint
 10
2274.904316012969
 20
4019.439640734301
 30
0.0
  0
POINT
  5
3839
330
154C
100
AcDbEntity
  8
DEFPOINTS
 62
     0
100
AcDbPoint
 10
2270.904316012969
 20
4019.439640734301
 30
0.0
  0
POINT
  5
383A
330
154C
100
AcDbEntity
  8
DEFPOINTS
 62
     0
100
AcDbPoint
 10
2270.904316012969
 20
4019.439640734301
 30
0.0
  0
ENDBLK
  5
1559
330
154C
100
AcDbEntity
  8
0
100
AcDbBlockEnd
  0
BLOCK
  5
1567
330
155B
100
AcDbEntity
  8
0
100
AcDbBlockBegin
  2
*D41
 70
     1
 10
0.0
 20
0.0
 30
0.0
  3
*D41
  1

  0
LINE
  5
383B
330
155B
100
AcDbEntity
  8
SUNPOU
100
AcDbLine
 10
2270.904316012969
 20
4064.439640734301
 30
0.0
 11
2270.904316012969
 21
4049.439640734301
 31
0.0
  0
LINE
  5
383C
330
155B
100
AcDbEntity
  8
SUNPOU
100
AcDbLine
 10
2160.904316012969
 20
4064.439640734301
 30
0.0
 11
2160.904316012969
 21
4049.439640734301
 31
0.0
  0
LINE
  5
383D
330
155B
100
AcDbEntity
  8
SUNPOU
100
AcDbLine
 10
2270.904316012969
 20
4019.439640734301
 30
0.0
 11
2160.904316012969
 21
4019.439640734301
 31
0.0
  0
MTEXT
  5
383E
330
155B
100
AcDbEntity
  8
SUNPOU
 62
     6
100
AcDbMText
 10
2215.904316012966
 20
3959.488336497154
 30
0.0
 40
75.0
 41
0.0
 71
     5
 72
     1
  1
\A1;110
  7
SUNPOU
1001
ACAD
1000
MTEXTBEGIN
1070
    73
1070
     1
1070
    44
1040
1.0
1070
    74
1070
     0
1000
MTEXTEND
1000
MTEXTBEGIN
1070
    73
1070
     1
1070
    44
1040
1.0
1070
    74
1070
     0
1000
MTEXTEND
  0
INSERT
  5
383F
330
155B
100
AcDbEntity
  8
SUNPOU
100
AcDbBlockReference
  2
_DOTSMALL
 10
2270.904316012969
 20
4019.439640734301
 30
0.0
 41
75.0
 42
75.0
 43
75.0
  0
INSERT
  5
3840
330
155B
100
AcDbEntity
  8
SUNPOU
100
AcDbBlockReference
  2
_DOTSMALL
 10
2160.904316012969
 20
4019.439640734301
 30
0.0
 41
75.0
 42
75.0
 43
75.0
 50
180.0
  0
POINT
  5
3841
330
155B
100
AcDbEntity
  8
DEFPOINTS
 62
     0
100
AcDbPoint
 10
2270.904316012969
 20
4019.439640734301
 30
0.0
  0
POINT
  5
3842
330
155B
100
AcDbEntity
  8
DEFPOINTS
 62
     0
100
AcDbPoint
 10
2160.904316012969
 20
4019.439640734301
 30
0.0
  0
POINT
  5
3843
330
155B
100
AcDbEntity
  8
DEFPOINTS
 62
     0
100
AcDbPoint
 10
2160.904316012969
 20
4019.439640734301
 30
0.0
  0
ENDBLK
  5
1568
330
155B
100
AcDbEntity
  8
0
100
AcDbBlockEnd
  0
BLOCK
  5
1576
330
156A
100
AcDbEntity
  8
0
100
AcDbBlockBegin
  2
*D42
 70
     1
 10
0.0
 20
0.0
 30
0.0
  3
*D42
  1

  0
LINE
  5
3844
330
156A
100
AcDbEntity
  8
SUNPOU
100
AcDbLine
 10
2160.904316012969
 20
4064.439640734301
 30
0.0
 11
2160.904316012969
 21
4049.439640734301
 31
0.0
  0
LINE
  5
3845
330
156A
100
AcDbEntity
  8
SUNPOU
100
AcDbLine
 10
2135.904316012969
 20
4064.439640734301
 30
0.0
 11
2135.904316012969
 21
4049.439640734301
 31
0.0
  0
LINE
  5
3846
330
156A
100
AcDbEntity
  8
SUNPOU
100
AcDbLine
 10
2160.904316012969
 20
4019.439640734301
 30
0.0
 11
2235.904316012969
 21
4019.439640734301
 31
0.0
  0
LINE
  5
3847
330
156A
100
AcDbEntity
  8
SUNPOU
100
AcDbLine
 10
2060.904316012968
 20
4019.439640734301
 30
0.0
 11
1985.904316012969
 21
4019.439640734301
 31
0.0
  0
MTEXT
  5
3848
330
156A
100
AcDbEntity
  8
SUNPOU
 62
     6
100
AcDbMText
 10
2079.594577404412
 20
3957.902444677976
 30
0.0
 40
75.0
 41
0.0
 71
     5
 72
     1
  1
\A1;25
  7
SUNPOU
1001
ACAD
1000
MTEXTBEGIN
1070
    73
1070
     1
1070
    44
1040
1.0
1070
    74
1070
     0
1000
MTEXTEND
1000
MTEXTBEGIN
1070
    73
1070
     1
1070
    44
1040
1.0
1070
    74
1070
     0
1000
MTEXTEND
  0
LINE
  5
3849
330
156A
100
AcDbEntity
  8
SUNPOU
100
AcDbLine
 10
2160.904316012969
 20
4019.439640734301
 30
0.0
 11
2135.904316012969
 21
4019.439640734301
 31
0.0
  0
INSERT
  5
384A
330
156A
100
AcDbEntity
  8
SUNPOU
100
AcDbBlockReference
  2
_DOTSMALL
 10
2160.904316012969
 20
4019.439640734301
 30
0.0
 41
75.0
 42
75.0
 43
75.0
 50
180.0
  0
INSERT
  5
384B
330
156A
100
AcDbEntity
  8
SUNPOU
100
AcDbBlockReference
  2
_OPEN30
 10
2135.904316012969
 20
4019.439640734301
 30
0.0
 41
75.0
 42
75.0
 43
75.0
  0
POINT
  5
384C
330
156A
100
AcDbEntity
  8
DEFPOINTS
 62
     0
100
AcDbPoint
 10
2160.904316012969
 20
4019.439640734301
 30
0.0
  0
POINT
  5
384D
330
156A
100
AcDbEntity
  8
DEFPOINTS
 62
     0
100
AcDbPoint
 10
2135.904316012969
 20
4019.439640734301
 30
0.0
  0
POINT
  5
384E
330
156A
100
AcDbEntity
  8
DEFPOINTS
 62
     0
100
AcDbPoint
 10
2135.904316012969
 20
4019.439640734301
 30
0.0
  0
ENDBLK
  5
1577
330
156A
100
AcDbEntity
  8
0
100
AcDbBlockEnd
  0
BLOCK
  5
1583
330
1579
100
AcDbEntity
  8
0
100
AcDbBlockBegin
  2
*D43
 70
     1
 10
0.0
 20
0.0
 30
0.0
  3
*D43
  1

  0
LINE
  5
316F
330
1579
100
AcDbEntity
  8
SUNPOU
100
AcDbLine
 10
2135.904316012969
 20
4064.439640734301
 30
0.0
 11
2135.904316012969
 21
4049.439640734301
 31
0.0
  0
LINE
  5
3170
330
1579
100
AcDbEntity
  8
SUNPOU
100
AcDbLine
 10
1732.904095559321
 20
3974.439652140146
 30
0.0
 11
1732.904095559321
 21
3989.439640734301
 31
0.0
  0
LINE
  5
3171
330
1579
100
AcDbEntity
  8
SUNPOU
100
AcDbLine
 10
2060.904316012968
 20
4019.439640734301
 30
0.0
 11
1807.904095559321
 21
4019.439640734301
 31
0.0
  0
MTEXT
  5
3172
330
1579
100
AcDbEntity
  8
SUNPOU
 62
     6
100
AcDbMText
 10
1925.129045185
 20
4094.644774793922
 30
0.0
 40
75.0
 41
0.0
 71
     5
 72
     1
  1
\A1;403
  7
SUNPOU
1001
ACAD
1000
MTEXTBEGIN
1070
    73
1070
     1
1070
    44
1040
1.0
1070
    74
1070
     0
1000
MTEXTEND
1000
MTEXTBEGIN
1070
    73
1070
     1
1070
    44
1040
1.0
1070
    74
1070
     0
1000
MTEXTEND
  0
INSERT
  5
3173
330
1579
100
AcDbEntity
  8
SUNPOU
100
AcDbBlockReference
  2
_OPEN30
 10
2135.904316012969
 20
4019.439640734301
 30
0.0
 41
75.0
 42
75.0
 43
75.0
  0
INSERT
  5
3174
330
1579
100
AcDbEntity
  8
SUNPOU
100
AcDbBlockReference
  2
_OPEN30
 10
1732.904095559321
 20
4019.439640734301
 30
0.0
 41
75.0
 42
75.0
 43
75.0
 50
180.0
  0
POINT
  5
3175
330
1579
100
AcDbEntity
  8
DEFPOINTS
 62
     0
100
AcDbPoint
 10
2135.904316012969
 20
4019.439640734301
 30
0.0
  0
POINT
  5
3176
330
1579
100
AcDbEntity
  8
DEFPOINTS
 62
     0
100
AcDbPoint
 10
1732.904095559321
 20
4019.439652140145
 30
0.0
  0
POINT
  5
3177
330
1579
100
AcDbEntity
  8
DEFPOINTS
 62
     0
100
AcDbPoint
 10
1732.904095559321
 20
4019.439640734301
 30
0.0
  0
ENDBLK
  5
1584
330
1579
100
AcDbEntity
  8
0
100
AcDbBlockEnd
  0
BLOCK
  5
1592
330
1586
100
AcDbEntity
  8
0
100
AcDbBlockBegin
  2
*D44
 70
     1
 10
0.0
 20
0.0
 30
0.0
  3
*D44
  1

  0
LINE
  5
3164
330
1586
100
AcDbEntity
  8
SUNPOU
100
AcDbLine
 10
1732.904095559321
 20
3974.439652140146
 30
0.0
 11
1732.904095559321
 21
3989.439640734301
 31
0.0
  0
LINE
  5
3165
330
1586
100
AcDbEntity
  8
SUNPOU
100
AcDbLine
 10
1632.904095559319
 20
3974.439654970381
 30
0.0
 11
1632.904095559319
 21
3989.439640734301
 31
0.0
  0
LINE
  5
3166
330
1586
100
AcDbEntity
  8
SUNPOU
100
AcDbLine
 10
1807.904095559321
 20
4019.439640734301
 30
0.0
 11
1882.904095559321
 21
4019.439640734301
 31
0.0
  0
LINE
  5
3167
330
1586
100
AcDbEntity
  8
SUNPOU
100
AcDbLine
 10
1557.904095559319
 20
4019.439640734301
 30
0.0
 11
1482.904095559319
 21
4019.439640734301
 31
0.0
  0
MTEXT
  5
3168
330
1586
100
AcDbEntity
  8
SUNPOU
 62
     6
100
AcDbMText
 10
1558.785378745004
 20
4096.229267546838
 30
0.0
 40
75.0
 41
0.0
 71
     5
 72
     1
  1
\A1;100
  7
SUNPOU
1001
ACAD
1000
MTEXTBEGIN
1070
    73
1070
     1
1070
    44
1040
1.0
1070
    74
1070
     0
1000
MTEXTEND
1000
MTEXTBEGIN
1070
    73
1070
     1
1070
    44
1040
1.0
1070
    74
1070
     0
1000
MTEXTEND
  0
LINE
  5
3169
330
1586
100
AcDbEntity
  8
SUNPOU
100
AcDbLine
 10
1732.904095559321
 20
4019.439640734301
 30
0.0
 11
1632.904095559319
 21
4019.439640734301
 31
0.0
  0
INSERT
  5
316A
330
1586
100
AcDbEntity
  8
SUNPOU
100
AcDbBlockReference
  2
_OPEN30
 10
1732.904095559321
 20
4019.439640734301
 30
0.0
 41
75.0
 42
75.0
 43
75.0
 50
180.0
  0
INSERT
  5
316B
330
1586
100
AcDbEntity
  8
SUNPOU
100
AcDbBlockReference
  2
_OPEN30
 10
1632.904095559319
 20
4019.439640734301
 30
0.0
 41
75.0
 42
75.0
 43
75.0
  0
POINT
  5
316C
330
1586
100
AcDbEntity
  8
DEFPOINTS
 62
     0
100
AcDbPoint
 10
1732.904095559321
 20
4019.439652140145
 30
0.0
  0
POINT
  5
316D
330
1586
100
AcDbEntity
  8
DEFPOINTS
 62
     0
100
AcDbPoint
 10
1632.904095559319
 20
4019.439654970382
 30
0.0
  0
POINT
  5
316E
330
1586
100
AcDbEntity
  8
DEFPOINTS
 62
     0
100
AcDbPoint
 10
1632.904095559319
 20
4019.439640734301
 30
0.0
  0
ENDBLK
  5
1593
330
1586
100
AcDbEntity
  8
0
100
AcDbBlockEnd
  0
BLOCK
  5
15A1
330
1595
100
AcDbEntity
  8
0
100
AcDbBlockBegin
  2
*D45
 70
     1
 10
0.0
 20
0.0
 30
0.0
  3
*D45
  1

  0
LINE
  5
3121
330
1595
100
AcDbEntity
  8
SUNPOU
100
AcDbLine
 10
2441.25847250711
 20
4415.071064233051
 30
0.0
 11
2692.313341733092
 21
4415.071064233051
 31
0.0
  0
LINE
  5
3122
330
1595
100
AcDbEntity
  8
SUNPOU
100
AcDbLine
 10
2441.25847250711
 20
4455.071064233051
 30
0.0
 11
2692.313341733092
 21
4455.071064233051
 31
0.0
  0
LINE
  5
3123
330
1595
100
AcDbEntity
  8
SUNPOU
100
AcDbLine
 10
2662.313341733093
 20
4340.071064233051
 30
0.0
 11
2662.313341733093
 21
4265.071064233051
 31
0.0
  0
LINE
  5
3124
330
1595
100
AcDbEntity
  8
SUNPOU
100
AcDbLine
 10
2662.313341733093
 20
4530.071064233051
 30
0.0
 11
2662.313341733093
 21
4605.071064233051
 31
0.0
  0
MTEXT
  5
3125
330
1595
100
AcDbEntity
  8
SUNPOU
 62
     6
100
AcDbMText
 10
2595.283863949907
 20
4271.953067651844
 30
0.0
 40
75.0
 41
0.0
 71
     5
 72
     1
  1
\A1;40
  7
SUNPOU
 11
0.0000000000000001
 21
1.0
 31
0.0
1001
ACAD
1000
MTEXTBEGIN
1070
    73
1070
     1
1070
    44
1040
1.0
1070
    74
1070
     0
1000
MTEXTEND
1000
MTEXTBEGIN
1070
    73
1070
     1
1070
    44
1040
1.0
1070
    74
1070
     0
1000
MTEXTEND
  0
LINE
  5
3126
330
1595
100
AcDbEntity
  8
SUNPOU
100
AcDbLine
 10
2662.313341733093
 20
4415.071064233051
 30
0.0
 11
2662.313341733093
 21
4455.071064233051
 31
0.0
  0
INSERT
  5
3127
330
1595
100
AcDbEntity
  8
SUNPOU
100
AcDbBlockReference
  2
_OPEN30
 10
2662.313341733093
 20
4415.071064233051
 30
0.0
 41
75.0
 42
75.0
 43
75.0
 50
90.0
  0
INSERT
  5
3128
330
1595
100
AcDbEntity
  8
SUNPOU
100
AcDbBlockReference
  2
_OPEN30
 10
2662.313341733093
 20
4455.071064233051
 30
0.0
 41
75.0
 42
75.0
 43
75.0
 50
270.0
  0
POINT
  5
3129
330
1595
100
AcDbEntity
  8
DEFPOINTS
 62
     0
100
AcDbPoint
 10
2396.25847250711
 20
4415.071064233051
 30
0.0
  0
POINT
  5
312A
330
1595
100
AcDbEntity
  8
DEFPOINTS
 62
     0
100
AcDbPoint
 10
2396.25847250711
 20
4455.071064233051
 30
0.0
  0
POINT
  5
312B
330
1595
100
AcDbEntity
  8
DEFPOINTS
 62
     0
100
AcDbPoint
 10
2662.313341733093
 20
4455.071064233051
 30
0.0
  0
ENDBLK
  5
15A2
330
1595
100
AcDbEntity
  8
0
100
AcDbBlockEnd
  0
BLOCK
  5
15B0
330
15A4
100
AcDbEntity
  8
0
100
AcDbBlockBegin
  2
*D46
 70
     1
 10
0.0
 20
0.0
 30
0.0
  3
*D46
  1

  0
LINE
  5
312C
330
15A4
100
AcDbEntity
  8
SUNPOU
100
AcDbLine
 10
2441.25847250711
 20
4633.371235131481
 30
0.0
 11
2692.313341733092
 21
4633.371235131481
 31
0.0
  0
LINE
  5
312D
330
15A4
100
AcDbEntity
  8
SUNPOU
100
AcDbLine
 10
2441.25847250711
 20
4593.371235131481
 30
0.0
 11
2692.313341733092
 21
4593.371235131481
 31
0.0
  0
LINE
  5
312E
330
15A4
100
AcDbEntity
  8
SUNPOU
100
AcDbLine
 10
2662.313341733093
 20
4708.371235131481
 30
0.0
 11
2662.313341733093
 21
4783.371235131482
 31
0.0
  0
LINE
  5
312F
330
15A4
100
AcDbEntity
  8
SUNPOU
100
AcDbLine
 10
2662.313341733093
 20
4518.371235131481
 30
0.0
 11
2662.313341733093
 21
4443.371235131482
 31
0.0
  0
MTEXT
  5
3130
330
15A4
100
AcDbEntity
  8
SUNPOU
 62
     6
100
AcDbMText
 10
2600.414319321942
 20
4782.61544762909
 30
0.0
 40
75.0
 41
0.0
 71
     5
 72
     1
  1
\A1;40
  7
SUNPOU
 11
0.0000000000000001
 21
1.0
 31
0.0
1001
ACAD
1000
MTEXTBEGIN
1070
    73
1070
     1
1070
    44
1040
1.0
1070
    74
1070
     0
1000
MTEXTEND
1000
MTEXTBEGIN
1070
    73
1070
     1
1070
    44
1040
1.0
1070
    74
1070
     0
1000
MTEXTEND
  0
LINE
  5
3131
330
15A4
100
AcDbEntity
  8
SUNPOU
100
AcDbLine
 10
2662.313341733093
 20
4633.371235131481
 30
0.0
 11
2662.313341733093
 21
4593.371235131481
 31
0.0
  0
INSERT
  5
3132
330
15A4
100
AcDbEntity
  8
SUNPOU
100
AcDbBlockReference
  2
_OPEN30
 10
2662.313341733093
 20
4633.371235131481
 30
0.0
 41
75.0
 42
75.0
 43
75.0
 50
270.0
  0
INSERT
  5
3133
330
15A4
100
AcDbEntity
  8
SUNPOU
100
AcDbBlockReference
  2
_OPEN30
 10
2662.313341733093
 20
4593.371235131481
 30
0.0
 41
75.0
 42
75.0
 43
75.0
 50
90.0
  0
POINT
  5
3134
330
15A4
100
AcDbEntity
  8
DEFPOINTS
 62
     0
100
AcDbPoint
 10
2396.25847250711
 20
4633.371235131481
 30
0.0
  0
POINT
  5
3135
330
15A4
100
AcDbEntity
  8
DEFPOINTS
 62
     0
100
AcDbPoint
 10
2396.25847250711
 20
4593.371235131481
 30
0.0
  0
POINT
  5
3136
330
15A4
100
AcDbEntity
  8
DEFPOINTS
 62
     0
100
AcDbPoint
 10
2662.313341733093
 20
4593.371235131481
 30
0.0
  0
ENDBLK
  5
15B1
330
15A4
100
AcDbEntity
  8
0
100
AcDbBlockEnd
  0
BLOCK
  5
15E9
330
15DF
100
AcDbEntity
  8
0
100
AcDbBlockBegin
  2
*D47
 70
     1
 10
0.0
 20
0.0
 30
0.0
  3
*D47
  1

  0
LINE
  5
32AE
330
15DF
100
AcDbEntity
  8
SUNPOU
100
AcDbLine
 10
2334.904254977808
 20
3154.221149682275
 30
0.0
 11
2669.191196805799
 21
3154.221149682275
 31
0.0
  0
LINE
  5
32AF
330
15DF
100
AcDbEntity
  8
SUNPOU
100
AcDbLine
 10
2681.106280104801
 20
2954.221149682275
 30
0.0
 11
2669.191196805799
 21
2954.221149682275
 31
0.0
  0
LINE
  5
32B0
330
15DF
100
AcDbEntity
  8
SUNPOU
100
AcDbLine
 10
2639.191196805799
 20
3229.221149682274
 30
0.0
 11
2639.191196805799
 21
3304.221149682274
 31
0.0
  0
LINE
  5
32B1
330
15DF
100
AcDbEntity
  8
SUNPOU
100
AcDbLine
 10
2639.191196805799
 20
2879.221149682274
 30
0.0
 11
2639.191196805799
 21
2804.221149682275
 31
0.0
  0
MTEXT
  5
32B2
330
15DF
100
AcDbEntity
  8
SUNPOU
 62
     6
100
AcDbMText
 10
2709.532833045626
 20
3134.479159649807
 30
0.0
 40
75.0
 41
0.0
 71
     5
 72
     1
  1
\A1;200
  7
SUNPOU
 11
0.0000000000000001
 21
1.0
 31
0.0
1001
ACAD
1000
MTEXTBEGIN
1070
    73
1070
     1
1070
    44
1040
1.0
1070
    74
1070
     0
1000
MTEXTEND
1000
MTEXTBEGIN
1070
    73
1070
     1
1070
    44
1040
1.0
1070
    74
1070
     0
1000
MTEXTEND
  0
LINE
  5
32B3
330
15DF
100
AcDbEntity
  8
SUNPOU
100
AcDbLine
 10
2639.191196805799
 20
3154.221149682275
 30
0.0
 11
2639.191196805799
 21
2954.221149682275
 31
0.0
  0
INSERT
  5
32B4
330
15DF
100
AcDbEntity
  8
SUNPOU
100
AcDbBlockReference
  2
_OPEN30
 10
2639.191196805799
 20
3154.221149682275
 30
0.0
 41
75.0
 42
75.0
 43
75.0
 50
270.0
  0
INSERT
  5
32B5
330
15DF
100
AcDbEntity
  8
SUNPOU
100
AcDbBlockReference
  2
_OPEN30
 10
2639.191196805799
 20
2954.221149682275
 30
0.0
 41
75.0
 42
75.0
 43
75.0
 50
90.0
  0
POINT
  5
32B6
330
15DF
100
AcDbEntity
  8
DEFPOINTS
 62
     0
100
AcDbPoint
 10
2289.904254977809
 20
3154.221149682275
 30
0.0
  0
POINT
  5
32B7
330
15DF
100
AcDbEntity
  8
DEFPOINTS
 62
     0
100
AcDbPoint
 10
2636.106280104801
 20
2954.221149682275
 30
0.0
  0
POINT
  5
32B8
330
15DF
100
AcDbEntity
  8
DEFPOINTS
 62
     0
100
AcDbPoint
 10
2639.191196805799
 20
2954.221149682275
 30
0.0
  0
ENDBLK
  5
15EA
330
15DF
100
AcDbEntity
  8
0
100
AcDbBlockEnd
  0
BLOCK
  5
15F8
330
15EC
100
AcDbEntity
  8
0
100
AcDbBlockBegin
  2
*D48
 70
     1
 10
0.0
 20
0.0
 30
0.0
  3
*D48
  1

  0
LINE
  5
3142
330
15EC
100
AcDbEntity
  8
SUNPOU
100
AcDbLine
 10
2334.904254977808
 20
3114.221149682274
 30
0.0
 11
2501.297603821495
 21
3114.221149682274
 31
0.0
  0
LINE
  5
3143
330
15EC
100
AcDbEntity
  8
SUNPOU
100
AcDbLine
 10
2426.297603821494
 20
3154.221149682271
 30
0.0
 11
2441.297603821494
 21
3154.221149682271
 31
0.0
  0
LINE
  5
3144
330
15EC
100
AcDbEntity
  8
SUNPOU
100
AcDbLine
 10
2471.297603821494
 20
3039.221149682274
 30
0.0
 11
2471.297603821494
 21
2964.221149682274
 31
0.0
  0
LINE
  5
3145
330
15EC
100
AcDbEntity
  8
SUNPOU
100
AcDbLine
 10
2471.297603821494
 20
3229.221149682269
 30
0.0
 11
2471.297603821494
 21
3304.221149682271
 31
0.0
  0
MTEXT
  5
3146
330
15EC
100
AcDbEntity
  8
SUNPOU
 62
     6
100
AcDbMText
 10
2423.141518038657
 20
3248.248545316361
 30
0.0
 40
75.0
 41
0.0
 71
     5
 72
     1
  1
\A1;40
  7
SUNPOU
 11
0.0000000000000001
 21
1.0
 31
0.0
1001
ACAD
1000
MTEXTBEGIN
1070
    73
1070
     1
1070
    44
1040
1.0
1070
    74
1070
     0
1000
MTEXTEND
1000
MTEXTBEGIN
1070
    73
1070
     1
1070
    44
1040
1.0
1070
    74
1070
     0
1000
MTEXTEND
  0
LINE
  5
3147
330
15EC
100
AcDbEntity
  8
SUNPOU
100
AcDbLine
 10
2471.297603821494
 20
3114.221149682274
 30
0.0
 11
2471.297603821494
 21
3154.221149682271
 31
0.0
  0
INSERT
  5
3148
330
15EC
100
AcDbEntity
  8
SUNPOU
100
AcDbBlockReference
  2
_OPEN30
 10
2471.297603821494
 20
3114.221149682274
 30
0.0
 41
75.0
 42
75.0
 43
75.0
 50
90.0
  0
INSERT
  5
3149
330
15EC
100
AcDbEntity
  8
SUNPOU
100
AcDbBlockReference
  2
_OPEN30
 10
2471.297603821494
 20
3154.221149682271
 30
0.0
 41
75.0
 42
75.0
 43
75.0
 50
270.0
  0
POINT
  5
314A
330
15EC
100
AcDbEntity
  8
DEFPOINTS
 62
     0
100
AcDbPoint
 10
2289.904254977809
 20
3114.221149682274
 30
0.0
  0
POINT
  5
314B
330
15EC
100
AcDbEntity
  8
DEFPOINTS
 62
     0
100
AcDbPoint
 10
2471.297603821494
 20
3154.221149682271
 30
0.0
  0
POINT
  5
314C
330
15EC
100
AcDbEntity
  8
DEFPOINTS
 62
     0
100
AcDbPoint
 10
2471.297603821494
 20
3154.221149682271
 30
0.0
  0
ENDBLK
  5
15F9
330
15EC
100
AcDbEntity
  8
0
100
AcDbBlockEnd
  0
BLOCK
  5
19ED
330
19EB
100
AcDbEntity
  8
0
100
AcDbBlockBegin
  2
_DOTSMALL
 70
     0
 10
0.0
 20
0.0
 30
0.0
  3
_DOTSMALL
  1

  0
POLYLINE
  5
19EC
330
19EB
100
AcDbEntity
  8
0
  6
BYBLOCK
 62
     0
100
AcDb2dPolyline
 66
     1
 10
0.0
 20
0.0
 30
0.0
 70
     1
 40
0.5
 41
0.5
  0
VERTEX
  5
3971
330
19EC
100
AcDbEntity
  8
0
  6
BYBLOCK
 62
     0
100
AcDbVertex
100
AcDb2dVertex
 10
-0.0625
 20
0.0
 30
0.0
 42
1.0
  0
VERTEX
  5
3972
330
19EC
100
AcDbEntity
  8
0
  6
BYBLOCK
 62
     0
100
AcDbVertex
100
AcDb2dVertex
 10
0.0625
 20
0.0
 30
0.0
 42
1.0
  0
SEQEND
  5
3973
330
19EC
100
AcDbEntity
  8
0
  6
BYBLOCK
 62
     0
  0
ENDBLK
  5
19EE
330
19EB
100
AcDbEntity
  8
0
100
AcDbBlockEnd
  0
BLOCK
  5
1A48
330
1A47
100
AcDbEntity
  8
0
100
AcDbBlockBegin
  2
_NONE
 70
     0
 10
0.0
 20
0.0
 30
0.0
  3
_NONE
  1

  0
ENDBLK
  5
1A49
330
1A47
100
AcDbEntity
  8
0
100
AcDbBlockEnd
  0
BLOCK
  5
1B56
330
1B4C
100
AcDbEntity
  8
0
100
AcDbBlockBegin
  2
*D51
 70
     1
 10
0.0
 20
0.0
 30
0.0
  3
*D51
  1

  0
LINE
  5
314D
330
1B4C
100
AcDbEntity
  8
SUNPOU
100
AcDbLine
 10
2334.904254977811
 20
5894.221149682276
 30
0.0
 11
2669.191196805801
 21
5894.221149682276
 31
0.0
  0
LINE
  5
314E
330
1B4C
100
AcDbEntity
  8
SUNPOU
100
AcDbLine
 10
2681.106280104803
 20
6094.221149682276
 30
0.0
 11
2669.191196805801
 21
6094.221149682276
 31
0.0
  0
LINE
  5
314F
330
1B4C
100
AcDbEntity
  8
SUNPOU
100
AcDbLine
 10
2639.191196805801
 20
5819.221149682276
 30
0.0
 11
2639.191196805801
 21
5744.221149682275
 31
0.0
  0
LINE
  5
3150
330
1B4C
100
AcDbEntity
  8
SUNPOU
100
AcDbLine
 10
2639.191196805801
 20
6169.221149682275
 30
0.0
 11
2639.191196805801
 21
6244.221149682275
 31
0.0
  0
MTEXT
  5
3151
330
1B4C
100
AcDbEntity
  8
SUNPOU
 62
     6
100
AcDbMText
 10
2720.143583870466
 20
5910.929834627885
 30
0.0
 40
75.0
 41
0.0
 71
     5
 72
     1
  1
\A1;200
  7
SUNPOU
 11
0.0000000000000001
 21
1.0
 31
0.0
1001
ACAD
1000
MTEXTBEGIN
1070
    73
1070
     1
1070
    44
1040
1.0
1070
    74
1070
     0
1000
MTEXTEND
1000
MTEXTBEGIN
1070
    73
1070
     1
1070
    44
1040
1.0
1070
    74
1070
     0
1000
MTEXTEND
  0
LINE
  5
3152
330
1B4C
100
AcDbEntity
  8
SUNPOU
100
AcDbLine
 10
2639.191196805801
 20
5894.221149682276
 30
0.0
 11
2639.191196805801
 21
6094.221149682276
 31
0.0
  0
INSERT
  5
3153
330
1B4C
100
AcDbEntity
  8
SUNPOU
100
AcDbBlockReference
  2
_OPEN30
 10
2639.191196805801
 20
5894.221149682276
 30
0.0
 41
75.0
 42
75.0
 43
75.0
 50
90.0
  0
INSERT
  5
3154
330
1B4C
100
AcDbEntity
  8
SUNPOU
100
AcDbBlockReference
  2
_OPEN30
 10
2639.191196805801
 20
6094.221149682276
 30
0.0
 41
75.0
 42
75.0
 43
75.0
 50
270.0
  0
POINT
  5
3155
330
1B4C
100
AcDbEntity
  8
DEFPOINTS
 62
     0
100
AcDbPoint
 10
2289.90425497781
 20
5894.221149682276
 30
0.0
  0
POINT
  5
3156
330
1B4C
100
AcDbEntity
  8
DEFPOINTS
 62
     0
100
AcDbPoint
 10
2636.106280104803
 20
6094.221149682276
 30
0.0
  0
POINT
  5
3157
330
1B4C
100
AcDbEntity
  8
DEFPOINTS
 62
     0
100
AcDbPoint
 10
2639.191196805801
 20
6094.221149682276
 30
0.0
  0
ENDBLK
  5
1B57
330
1B4C
100
AcDbEntity
  8
0
100
AcDbBlockEnd
  0
BLOCK
  5
1B64
330
1B58
100
AcDbEntity
  8
0
100
AcDbBlockBegin
  2
*D52
 70
     1
 10
0.0
 20
0.0
 30
0.0
  3
*D52
  1

  0
LINE
  5
3158
330
1B58
100
AcDbEntity
  8
SUNPOU
100
AcDbLine
 10
2334.904254977811
 20
5934.221149682276
 30
0.0
 11
2501.297603821496
 21
5934.221149682276
 31
0.0
  0
LINE
  5
3159
330
1B58
100
AcDbEntity
  8
SUNPOU
100
AcDbLine
 10
2426.297603821496
 20
5894.221149682276
 30
0.0
 11
2441.297603821496
 21
5894.221149682276
 31
0.0
  0
LINE
  5
315A
330
1B58
100
AcDbEntity
  8
SUNPOU
100
AcDbLine
 10
2471.297603821496
 20
6009.221149682275
 30
0.0
 11
2471.297603821496
 21
6084.221149682274
 31
0.0
  0
LINE
  5
315B
330
1B58
100
AcDbEntity
  8
SUNPOU
100
AcDbLine
 10
2471.297603821496
 20
5819.221149682276
 30
0.0
 11
2471.297603821496
 21
5744.221149682275
 31
0.0
  0
MTEXT
  5
315C
330
1B58
100
AcDbEntity
  8
SUNPOU
 62
     6
100
AcDbMText
 10
2423.141518038659
 20
5800.193754048189
 30
0.0
 40
75.0
 41
0.0
 71
     5
 72
     1
  1
\A1;40
  7
SUNPOU
 11
0.0000000000000001
 21
1.0
 31
0.0
1001
ACAD
1000
MTEXTBEGIN
1070
    73
1070
     1
1070
    44
1040
1.0
1070
    74
1070
     0
1000
MTEXTEND
1000
MTEXTBEGIN
1070
    73
1070
     1
1070
    44
1040
1.0
1070
    74
1070
     0
1000
MTEXTEND
  0
LINE
  5
315D
330
1B58
100
AcDbEntity
  8
SUNPOU
100
AcDbLine
 10
2471.297603821496
 20
5934.221149682276
 30
0.0
 11
2471.297603821496
 21
5894.221149682276
 31
0.0
  0
INSERT
  5
315E
330
1B58
100
AcDbEntity
  8
SUNPOU
100
AcDbBlockReference
  2
_OPEN30
 10
2471.297603821496
 20
5934.221149682276
 30
0.0
 41
75.0
 42
75.0
 43
75.0
 50
270.0
  0
INSERT
  5
315F
330
1B58
100
AcDbEntity
  8
SUNPOU
100
AcDbBlockReference
  2
_OPEN30
 10
2471.297603821496
 20
5894.221149682276
 30
0.0
 41
75.0
 42
75.0
 43
75.0
 50
90.0
  0
POINT
  5
3160
330
1B58
100
AcDbEntity
  8
DEFPOINTS
 62
     0
100
AcDbPoint
 10
2289.90425497781
 20
5934.221149682276
 30
0.0
  0
POINT
  5
3161
330
1B58
100
AcDbEntity
  8
DEFPOINTS
 62
     0
100
AcDbPoint
 10
2471.297603821496
 20
5894.221149682276
 30
0.0
  0
POINT
  5
3162
330
1B58
100
AcDbEntity
  8
DEFPOINTS
 62
     0
100
AcDbPoint
 10
2471.297603821496
 20
5894.221149682276
 30
0.0
  0
ENDBLK
  5
1B65
330
1B58
100
AcDbEntity
  8
0
100
AcDbBlockEnd
  0
BLOCK
  5
3518
330
350C
100
AcDbEntity
  8
0
100
AcDbBlockBegin
  2
*D53
 70
     1
 10
0.0
 20
0.0
 30
0.0
  3
*D53
  1

  0
LINE
  5
385C
330
350C
100
AcDbEntity
  8
SUNPOU
100
AcDbLine
 10
2409.15446860087
 20
2918.221149682274
 30
0.0
 11
2447.348637347706
 21
2918.221149682274
 31
0.0
  0
LINE
  5
385D
330
350C
100
AcDbEntity
  8
SUNPOU
100
AcDbLine
 10
2429.998561451224
 20
2900.221149682269
 30
0.0
 11
2447.348637347706
 21
2900.221149682269
 31
0.0
  0
LINE
  5
385E
330
350C
100
AcDbEntity
  8
SUNPOU
100
AcDbLine
 10
2417.348637347705
 20
2993.221149682275
 30
0.0
 11
2417.348637347705
 21
3068.221149682274
 31
0.0
  0
LINE
  5
385F
330
350C
100
AcDbEntity
  8
SUNPOU
100
AcDbLine
 10
2417.348637347705
 20
2900.221149682269
 30
0.0
 11
2417.348637347705
 21
2825.221149682271
 31
0.0
  0
MTEXT
  5
3860
330
350C
100
AcDbEntity
  8
SUNPOU
 62
     6
100
AcDbMText
 10
2348.900484676203
 20
3003.256872852678
 30
0.0
 40
75.0
 41
0.0
 71
     5
 72
     1
  1
\A1;18
  7
SUNPOU
 11
0.0000000000000001
 21
1.0
 31
0.0
1001
ACAD
1000
MTEXTBEGIN
1070
    73
1070
     1
1070
    44
1040
1.0
1070
    74
1070
     0
1000
MTEXTEND
1000
MTEXTBEGIN
1070
    73
1070
     1
1070
    44
1040
1.0
1070
    74
1070
     0
1000
MTEXTEND
  0
LINE
  5
3861
330
350C
100
AcDbEntity
  8
SUNPOU
100
AcDbLine
 10
2417.348637347705
 20
2918.221149682274
 30
0.0
 11
2417.348637347705
 21
2900.221149682269
 31
0.0
  0
INSERT
  5
3862
330
350C
100
AcDbEntity
  8
SUNPOU
100
AcDbBlockReference
  2
_OPEN30
 10
2417.348637347705
 20
2918.221149682274
 30
0.0
 41
75.0
 42
75.0
 43
75.0
 50
270.0
  0
INSERT
  5
3863
330
350C
100
AcDbEntity
  8
SUNPOU
100
AcDbBlockReference
  2
_DOTSMALL
 10
2417.348637347705
 20
2900.221149682269
 30
0.0
 41
75.0
 42
75.0
 43
75.0
 50
90.0
  0
POINT
  5
3864
330
350C
100
AcDbEntity
  8
DEFPOINTS
 62
     0
100
AcDbPoint
 10
2364.15446860087
 20
2918.221149682274
 30
0.0
  0
POINT
  5
3865
330
350C
100
AcDbEntity
  8
DEFPOINTS
 62
     0
100
AcDbPoint
 10
2384.998561451224
 20
2900.221149682269
 30
0.0
  0
POINT
  5
3866
330
350C
100
AcDbEntity
  8
DEFPOINTS
 62
     0
100
AcDbPoint
 10
2417.348637347705
 20
2900.221149682269
 30
0.0
  0
ENDBLK
  5
3519
330
350C
100
AcDbEntity
  8
0
100
AcDbBlockEnd
  0
BLOCK
  5
3527
330
351B
100
AcDbEntity
  8
0
100
AcDbBlockBegin
  2
*D54
 70
     1
 10
0.0
 20
0.0
 30
0.0
  3
*D54
  1

  0
LINE
  5
3974
330
351B
100
AcDbEntity
  8
SUNPOU
100
AcDbLine
 10
2429.998561451224
 20
2900.221149682269
 30
0.0
 11
2447.348637347706
 21
2900.221149682269
 31
0.0
  0
LINE
  5
3975
330
351B
100
AcDbEntity
  8
SUNPOU
100
AcDbLine
 10
2372.348637347705
 20
2878.22114968227
 30
0.0
 11
2387.348637347705
 21
2878.22114968227
 31
0.0
  0
LINE
  5
3976
330
351B
100
AcDbEntity
  8
SUNPOU
100
AcDbLine
 10
2417.348637347705
 20
2900.221149682269
 30
0.0
 11
2417.348637347705
 21
2975.221149682269
 31
0.0
  0
LINE
  5
3977
330
351B
100
AcDbEntity
  8
SUNPOU
100
AcDbLine
 10
2417.348637347705
 20
2878.22114968227
 30
0.0
 11
2417.348637347705
 21
2803.221149682269
 31
0.0
  0
LINE
  5
3978
330
351B
100
AcDbEntity
  8
SUNPOU
100
AcDbLine
 10
2417.348637347705
 20
2889.221149682269
 30
0.0
 11
2608.615649161178
 21
2804.610658146804
 31
0.0
  0
LINE
  5
3979
330
351B
100
AcDbEntity
  8
SUNPOU
100
AcDbLine
 10
2608.615649161178
 20
2804.610658146804
 30
0.0
 11
2608.615649161178
 21
2644.610658146804
 31
0.0
  0
MTEXT
  5
397A
330
351B
100
AcDbEntity
  8
SUNPOU
 62
     6
100
AcDbMText
 10
2541.115649161177
 20
2724.610658146804
 30
0.0
 40
75.0
 41
0.0
 71
     5
 72
     1
  1
\A1;22
  7
SUNPOU
 11
0.0000000000000001
 21
1.0
 31
0.0
  0
LINE
  5
397B
330
351B
100
AcDbEntity
  8
SUNPOU
100
AcDbLine
 10
2417.348637347705
 20
2900.221149682269
 30
0.0
 11
2417.348637347705
 21
2878.22114968227
 31
0.0
  0
LINE
  5
397C
330
351B
100
AcDbEntity
  8
SUNPOU
100
AcDbLine
 10
2417.348637347705
 20
2900.221149682269
 30
0.0
 11
2417.348637347705
 21
2878.22114968227
 31
0.0
  0
INSERT
  5
397D
330
351B
100
AcDbEntity
  8
SUNPOU
100
AcDbBlockReference
  2
_DOTSMALL
 10
2417.348637347705
 20
2900.221149682269
 30
0.0
 41
75.0
 42
75.0
 43
75.0
 50
270.0
  0
INSERT
  5
397E
330
351B
100
AcDbEntity
  8
SUNPOU
100
AcDbBlockReference
  2
_DOTSMALL
 10
2417.348637347705
 20
2878.22114968227
 30
0.0
 41
75.0
 42
75.0
 43
75.0
 50
90.0
  0
POINT
  5
397F
330
351B
100
AcDbEntity
  8
DEFPOINTS
 62
     0
100
AcDbPoint
 10
2384.998561451224
 20
2900.221149682269
 30
0.0
  0
POINT
  5
3980
330
351B
100
AcDbEntity
  8
DEFPOINTS
 62
     0
100
AcDbPoint
 10
2417.348637347705
 20
2878.22114968227
 30
0.0
  0
POINT
  5
3981
330
351B
100
AcDbEntity
  8
DEFPOINTS
 62
     0
100
AcDbPoint
 10
2417.348637347705
 20
2878.22114968227
 30
0.0
  0
ENDBLK
  5
3528
330
351B
100
AcDbEntity
  8
0
100
AcDbBlockEnd
  0
BLOCK
  5
3536
330
352A
100
AcDbEntity
  8
0
100
AcDbBlockBegin
  2
*D55
 70
     1
 10
0.0
 20
0.0
 30
0.0
  3
*D55
  1

  0
LINE
  5
3875
330
352A
100
AcDbEntity
  8
SUNPOU
100
AcDbLine
 10
2372.348637347705
 20
2878.22114968227
 30
0.0
 11
2387.348637347705
 21
2878.22114968227
 31
0.0
  0
LINE
  5
3876
330
352A
100
AcDbEntity
  8
SUNPOU
100
AcDbLine
 10
2409.15446860087
 20
2860.221149682274
 30
0.0
 11
2447.348637347706
 21
2860.221149682274
 31
0.0
  0
LINE
  5
3877
330
352A
100
AcDbEntity
  8
SUNPOU
100
AcDbLine
 10
2417.348637347705
 20
2878.22114968227
 30
0.0
 11
2417.348637347705
 21
2953.221149682271
 31
0.0
  0
LINE
  5
3878
330
352A
100
AcDbEntity
  8
SUNPOU
100
AcDbLine
 10
2417.348637347705
 20
2785.221149682274
 30
0.0
 11
2417.348637347705
 21
2710.221149682274
 31
0.0
  0
MTEXT
  5
3879
330
352A
100
AcDbEntity
  8
SUNPOU
 62
     6
100
AcDbMText
 10
2347.620518273433
 20
2737.083861056093
 30
0.0
 40
75.0
 41
0.0
 71
     5
 72
     1
  1
\A1;18
  7
SUNPOU
 11
0.0000000000000001
 21
1.0
 31
0.0
1001
ACAD
1000
MTEXTBEGIN
1070
    73
1070
     1
1070
    44
1040
1.0
1070
    74
1070
     0
1000
MTEXTEND
1000
MTEXTBEGIN
1070
    73
1070
     1
1070
    44
1040
1.0
1070
    74
1070
     0
1000
MTEXTEND
  0
LINE
  5
387A
330
352A
100
AcDbEntity
  8
SUNPOU
100
AcDbLine
 10
2417.348637347705
 20
2878.22114968227
 30
0.0
 11
2417.348637347705
 21
2860.221149682274
 31
0.0
  0
INSERT
  5
387B
330
352A
100
AcDbEntity
  8
SUNPOU
100
AcDbBlockReference
  2
_DOTSMALL
 10
2417.348637347705
 20
2878.22114968227
 30
0.0
 41
75.0
 42
75.0
 43
75.0
 50
270.0
  0
INSERT
  5
387C
330
352A
100
AcDbEntity
  8
SUNPOU
100
AcDbBlockReference
  2
_OPEN30
 10
2417.348637347705
 20
2860.221149682274
 30
0.0
 41
75.0
 42
75.0
 43
75.0
 50
90.0
  0
POINT
  5
387D
330
352A
100
AcDbEntity
  8
DEFPOINTS
 62
     0
100
AcDbPoint
 10
2417.348637347705
 20
2878.22114968227
 30
0.0
  0
POINT
  5
387E
330
352A
100
AcDbEntity
  8
DEFPOINTS
 62
     0
100
AcDbPoint
 10
2364.15446860087
 20
2860.221149682274
 30
0.0
  0
POINT
  5
387F
330
352A
100
AcDbEntity
  8
DEFPOINTS
 62
     0
100
AcDbPoint
 10
2417.348637347705
 20
2860.221149682274
 30
0.0
  0
ENDBLK
  5
3537
330
352A
100
AcDbEntity
  8
0
100
AcDbBlockEnd
  0
BLOCK
  5
3601
330
35F5
100
AcDbEntity
  8
0
100
AcDbBlockBegin
  2
*D56
 70
     1
 10
0.0
 20
0.0
 30
0.0
  3
*D56
  1

  0
LINE
  5
3603
330
35F5
100
AcDbEntity
  8
SUNPOU
100
AcDbLine
 10
2818.285908234916
 20
2854.221149682271
 30
0.0
 11
2833.285908234917
 21
2854.221149682271
 31
0.0
  0
LINE
  5
3604
330
35F5
100
AcDbEntity
  8
SUNPOU
100
AcDbLine
 10
2818.285908234916
 20
2924.221149682271
 30
0.0
 11
2833.285908234917
 21
2924.221149682271
 31
0.0
  0
LINE
  5
3605
330
35F5
100
AcDbEntity
  8
SUNPOU
100
AcDbLine
 10
2863.285908234917
 20
2779.221149682271
 30
0.0
 11
2863.285908234917
 21
2704.221149682272
 31
0.0
  0
LINE
  5
3606
330
35F5
100
AcDbEntity
  8
SUNPOU
100
AcDbLine
 10
2863.285908234917
 20
2999.221149682271
 30
0.0
 11
2863.285908234917
 21
3074.221149682271
 31
0.0
  0
MTEXT
  5
3607
330
35F5
100
AcDbEntity
  8
SUNPOU
 62
     6
100
AcDbMText
 10
2796.400930052155
 20
2745.477764110749
 30
0.0
 40
75.0
 41
0.0
 71
     5
 72
     1
  1
\A1;70
  7
SUNPOU
 11
0.0000000000000001
 21
1.0
 31
0.0
1001
ACAD
1000
MTEXTBEGIN
1070
    73
1070
     1
1070
    44
1040
1.0
1070
    74
1070
     0
1000
MTEXTEND
1000
MTEXTBEGIN
1070
    73
1070
     1
1070
    44
1040
1.0
1070
    74
1070
     0
1000
MTEXTEND
  0
LINE
  5
3608
330
35F5
100
AcDbEntity
  8
SUNPOU
100
AcDbLine
 10
2863.285908234917
 20
2854.221149682271
 30
0.0
 11
2863.285908234917
 21
2924.221149682271
 31
0.0
  0
INSERT
  5
3609
330
35F5
100
AcDbEntity
  8
SUNPOU
100
AcDbBlockReference
  2
_OPEN30
 10
2863.285908234917
 20
2854.221149682271
 30
0.0
 41
75.0
 42
75.0
 43
75.0
 50
90.0
  0
INSERT
  5
360A
330
35F5
100
AcDbEntity
  8
SUNPOU
100
AcDbBlockReference
  2
_OPEN30
 10
2863.285908234917
 20
2924.221149682271
 30
0.0
 41
75.0
 42
75.0
 43
75.0
 50
270.0
  0
POINT
  5
360B
330
35F5
100
AcDbEntity
  8
DEFPOINTS
 62
     0
100
AcDbPoint
 10
2863.285908234917
 20
2854.221149682271
 30
0.0
  0
POINT
  5
360C
330
35F5
100
AcDbEntity
  8
DEFPOINTS
 62
     0
100
AcDbPoint
 10
2863.285908234917
 20
2924.221149682271
 30
0.0
  0
POINT
  5
360D
330
35F5
100
AcDbEntity
  8
DEFPOINTS
 62
     0
100
AcDbPoint
 10
2863.285908234917
 20
2924.221149682271
 30
0.0
  0
ENDBLK
  5
3602
330
35F5
100
AcDbEntity
  8
0
100
AcDbBlockEnd
  0
BLOCK
  5
368E
330
3682
100
AcDbEntity
  8
0
100
AcDbBlockBegin
  2
*D57
 70
     1
 10
0.0
 20
0.0
 30
0.0
  3
*D57
  1

  0
LINE
  5
38A4
330
3682
100
AcDbEntity
  8
SUNPOU
100
AcDbLine
 10
4715.904468600903
 20
6194.221149682224
 30
0.0
 11
4511.993666148992
 21
6194.221149682224
 31
0.0
  0
LINE
  5
38A5
330
3682
100
AcDbEntity
  8
SUNPOU
100
AcDbLine
 10
4715.904468600903
 20
6159.221149682223
 30
0.0
 11
4511.993666148992
 21
6159.221149682223
 31
0.0
  0
LINE
  5
38A6
330
3682
100
AcDbEntity
  8
SUNPOU
100
AcDbLine
 10
4541.993666148992
 20
6269.221149682223
 30
0.0
 11
4541.993666148992
 21
6344.221149682224
 31
0.0
  0
LINE
  5
38A7
330
3682
100
AcDbEntity
  8
SUNPOU
100
AcDbLine
 10
4541.993666148992
 20
6159.221149682223
 30
0.0
 11
4541.993666148991
 21
6084.221149682223
 31
0.0
  0
MTEXT
  5
38A8
330
3682
100
AcDbEntity
  8
SUNPOU
 62
     6
100
AcDbMText
 10
4448.243666148992
 20
6266.98432645008
 30
0.0
 40
75.0
 41
0.0
 71
     5
 72
     1
  1
\A1;35
  7
SUNPOU
 11
0.0000000000000001
 21
1.0
 31
0.0
1001
ACAD
1000
MTEXTBEGIN
1070
    73
1070
     1
1070
    44
1040
1.0
1070
    74
1070
     0
1000
MTEXTEND
1000
MTEXTBEGIN
1070
    73
1070
     1
1070
    44
1040
1.0
1070
    74
1070
     0
1000
MTEXTEND
  0
LINE
  5
38A9
330
3682
100
AcDbEntity
  8
SUNPOU
100
AcDbLine
 10
4541.993666148992
 20
6194.221149682224
 30
0.0
 11
4541.993666148992
 21
6159.221149682223
 31
0.0
  0
INSERT
  5
38AA
330
3682
100
AcDbEntity
  8
SUNPOU
100
AcDbBlockReference
  2
_OPEN30
 10
4541.993666148992
 20
6194.221149682224
 30
0.0
 41
75.0
 42
75.0
 43
75.0
 50
270.0
  0
INSERT
  5
38AB
330
3682
100
AcDbEntity
  8
SUNPOU
100
AcDbBlockReference
  2
_DOTSMALL
 10
4541.993666148992
 20
6159.221149682223
 30
0.0
 41
75.0
 42
75.0
 43
75.0
 50
90.0
  0
POINT
  5
38AC
330
3682
100
AcDbEntity
  8
DEFPOINTS
 62
     0
100
AcDbPoint
 10
4760.904468600902
 20
6194.221149682224
 30
0.0
  0
POINT
  5
38AD
330
3682
100
AcDbEntity
  8
DEFPOINTS
 62
     0
100
AcDbPoint
 10
4760.904468600902
 20
6159.221149682223
 30
0.0
  0
POINT
  5
38AE
330
3682
100
AcDbEntity
  8
DEFPOINTS
 62
     0
100
AcDbPoint
 10
4541.993666148992
 20
6159.221149682223
 30
0.0
  0
ENDBLK
  5
368F
330
3682
100
AcDbEntity
  8
0
100
AcDbBlockEnd
  0
BLOCK
  5
369C
330
3690
100
AcDbEntity
  8
0
100
AcDbBlockBegin
  2
*D58
 70
     1
 10
0.0
 20
0.0
 30
0.0
  3
*D58
  1

  0
LINE
  5
38AF
330
3690
100
AcDbEntity
  8
SUNPOU
100
AcDbLine
 10
4715.904468600903
 20
6159.221149682223
 30
0.0
 11
4511.993666148993
 21
6159.221149682223
 31
0.0
  0
LINE
  5
38B0
330
3690
100
AcDbEntity
  8
SUNPOU
100
AcDbLine
 10
4745.904316013001
 20
6124.221149682222
 30
0.0
 11
4511.993666148992
 21
6124.221149682222
 31
0.0
  0
LINE
  5
38B1
330
3690
100
AcDbEntity
  8
SUNPOU
100
AcDbLine
 10
4541.993666148992
 20
6159.221149682223
 30
0.0
 11
4541.993666148992
 21
6234.221149682223
 31
0.0
  0
LINE
  5
38B2
330
3690
100
AcDbEntity
  8
SUNPOU
100
AcDbLine
 10
4541.993666148992
 20
6049.221149682222
 30
0.0
 11
4541.993666148992
 21
5974.221149682222
 31
0.0
  0
MTEXT
  5
38B3
330
3690
100
AcDbEntity
  8
SUNPOU
 62
     6
100
AcDbMText
 10
4448.243666148989
 20
5999.409983823372
 30
0.0
 40
75.0
 41
0.0
 71
     5
 72
     1
  1
\A1;35
  7
SUNPOU
 11
0.0000000000000001
 21
1.0
 31
0.0
1001
ACAD
1000
MTEXTBEGIN
1070
    73
1070
     1
1070
    44
1040
1.0
1070
    74
1070
     0
1000
MTEXTEND
1000
MTEXTBEGIN
1070
    73
1070
     1
1070
    44
1040
1.0
1070
    74
1070
     0
1000
MTEXTEND
  0
LINE
  5
38B4
330
3690
100
AcDbEntity
  8
SUNPOU
100
AcDbLine
 10
4541.993666148992
 20
6159.221149682223
 30
0.0
 11
4541.993666148992
 21
6124.221149682222
 31
0.0
  0
INSERT
  5
38B5
330
3690
100
AcDbEntity
  8
SUNPOU
100
AcDbBlockReference
  2
_DOTSMALL
 10
4541.993666148992
 20
6159.221149682223
 30
0.0
 41
75.0
 42
75.0
 43
75.0
 50
270.0
  0
INSERT
  5
38B6
330
3690
100
AcDbEntity
  8
SUNPOU
100
AcDbBlockReference
  2
_OPEN30
 10
4541.993666148992
 20
6124.221149682222
 30
0.0
 41
75.0
 42
75.0
 43
75.0
 50
90.0
  0
POINT
  5
38B7
330
3690
100
AcDbEntity
  8
DEFPOINTS
 62
     0
100
AcDbPoint
 10
4760.904468600902
 20
6159.221149682223
 30
0.0
  0
POINT
  5
38B8
330
3690
100
AcDbEntity
  8
DEFPOINTS
 62
     0
100
AcDbPoint
 10
4790.904316013
 20
6124.221149682222
 30
0.0
  0
POINT
  5
38B9
330
3690
100
AcDbEntity
  8
DEFPOINTS
 62
     0
100
AcDbPoint
 10
4541.993666148992
 20
6124.221149682222
 30
0.0
  0
ENDBLK
  5
369D
330
3690
100
AcDbEntity
  8
0
100
AcDbBlockEnd
  0
BLOCK
  5
36AA
330
369E
100
AcDbEntity
  8
0
100
AcDbBlockBegin
  2
*D59
 70
     1
 10
0.0
 20
0.0
 30
0.0
  3
*D59
  1

  0
LINE
  5
3899
330
369E
100
AcDbEntity
  8
SUNPOU
100
AcDbLine
 10
2409.154468600903
 20
6130.22114968227
 30
0.0
 11
2447.348637347741
 21
6130.22114968227
 31
0.0
  0
LINE
  5
389A
330
369E
100
AcDbEntity
  8
SUNPOU
100
AcDbLine
 10
2429.998561451258
 20
6148.221149682274
 30
0.0
 11
2447.348637347741
 21
6148.221149682274
 31
0.0
  0
LINE
  5
389B
330
369E
100
AcDbEntity
  8
SUNPOU
100
AcDbLine
 10
2417.348637347741
 20
6055.22114968227
 30
0.0
 11
2417.348637347741
 21
5980.22114968227
 31
0.0
  0
LINE
  5
389C
330
369E
100
AcDbEntity
  8
SUNPOU
100
AcDbLine
 10
2417.348637347741
 20
6148.221149682274
 30
0.0
 11
2417.348637347741
 21
6223.221149682274
 31
0.0
  0
MTEXT
  5
389D
330
369E
100
AcDbEntity
  8
SUNPOU
 62
     6
100
AcDbMText
 10
2348.900484676236
 20
6045.185426511866
 30
0.0
 40
75.0
 41
0.0
 71
     5
 72
     1
  1
\A1;18
  7
SUNPOU
 11
0.0000000000000001
 21
1.0
 31
0.0
1001
ACAD
1000
MTEXTBEGIN
1070
    73
1070
     1
1070
    44
1040
1.0
1070
    74
1070
     0
1000
MTEXTEND
1000
MTEXTBEGIN
1070
    73
1070
     1
1070
    44
1040
1.0
1070
    74
1070
     0
1000
MTEXTEND
  0
LINE
  5
389E
330
369E
100
AcDbEntity
  8
SUNPOU
100
AcDbLine
 10
2417.348637347741
 20
6130.22114968227
 30
0.0
 11
2417.348637347741
 21
6148.221149682274
 31
0.0
  0
INSERT
  5
389F
330
369E
100
AcDbEntity
  8
SUNPOU
100
AcDbBlockReference
  2
_OPEN30
 10
2417.348637347741
 20
6130.22114968227
 30
0.0
 41
75.0
 42
75.0
 43
75.0
 50
90.0
  0
INSERT
  5
38A0
330
369E
100
AcDbEntity
  8
SUNPOU
100
AcDbBlockReference
  2
_DOTSMALL
 10
2417.348637347741
 20
6148.221149682274
 30
0.0
 41
75.0
 42
75.0
 43
75.0
 50
270.0
  0
POINT
  5
38A1
330
369E
100
AcDbEntity
  8
DEFPOINTS
 62
     0
100
AcDbPoint
 10
2364.154468600903
 20
6130.22114968227
 30
0.0
  0
POINT
  5
38A2
330
369E
100
AcDbEntity
  8
DEFPOINTS
 62
     0
100
AcDbPoint
 10
2384.998561451257
 20
6148.221149682274
 30
0.0
  0
POINT
  5
38A3
330
369E
100
AcDbEntity
  8
DEFPOINTS
 62
     0
100
AcDbPoint
 10
2417.348637347741
 20
6148.221149682274
 30
0.0
  0
ENDBLK
  5
36AB
330
369E
100
AcDbEntity
  8
0
100
AcDbBlockEnd
  0
BLOCK
  5
36BB
330
36AC
100
AcDbEntity
  8
0
100
AcDbBlockBegin
  2
*D60
 70
     1
 10
0.0
 20
0.0
 30
0.0
  3
*D60
  1

  0
LINE
  5
3982
330
36AC
100
AcDbEntity
  8
SUNPOU
100
AcDbLine
 10
2429.998561451258
 20
6148.221149682274
 30
0.0
 11
2447.348637347741
 21
6148.221149682274
 31
0.0
  0
LINE
  5
3983
330
36AC
100
AcDbEntity
  8
SUNPOU
100
AcDbLine
 10
2372.348637347741
 20
6170.221149682273
 30
0.0
 11
2387.348637347741
 21
6170.221149682273
 31
0.0
  0
LINE
  5
3984
330
36AC
100
AcDbEntity
  8
SUNPOU
100
AcDbLine
 10
2417.348637347741
 20
6148.221149682274
 30
0.0
 11
2417.348637347741
 21
6073.221149682274
 31
0.0
  0
LINE
  5
3985
330
36AC
100
AcDbEntity
  8
SUNPOU
100
AcDbLine
 10
2417.348637347741
 20
6170.221149682273
 30
0.0
 11
2417.348637347741
 21
6245.221149682272
 31
0.0
  0
LINE
  5
3986
330
36AC
100
AcDbEntity
  8
SUNPOU
100
AcDbLine
 10
2417.348637347741
 20
6159.221149682274
 30
0.0
 11
2608.615649161217
 21
6300.623529083226
 31
0.0
  0
LINE
  5
3987
330
36AC
100
AcDbEntity
  8
SUNPOU
100
AcDbLine
 10
2608.615649161217
 20
6300.623529083226
 30
0.0
 11
2608.615649161217
 21
6460.623529083226
 31
0.0
  0
MTEXT
  5
3988
330
36AC
100
AcDbEntity
  8
SUNPOU
 62
     6
100
AcDbMText
 10
2541.115649161216
 20
6380.623529083227
 30
0.0
 40
75.0
 41
0.0
 71
     5
 72
     1
  1
\A1;22
  7
SUNPOU
 11
0.0000000000000001
 21
1.0
 31
0.0
  0
LINE
  5
3989
330
36AC
100
AcDbEntity
  8
SUNPOU
100
AcDbLine
 10
2417.348637347741
 20
6148.221149682274
 30
0.0
 11
2417.348637347741
 21
6170.221149682273
 31
0.0
  0
LINE
  5
398A
330
36AC
100
AcDbEntity
  8
SUNPOU
100
AcDbLine
 10
2417.348637347741
 20
6148.221149682274
 30
0.0
 11
2417.348637347741
 21
6170.221149682273
 31
0.0
  0
INSERT
  5
398B
330
36AC
100
AcDbEntity
  8
SUNPOU
100
AcDbBlockReference
  2
_DOTSMALL
 10
2417.348637347741
 20
6148.221149682274
 30
0.0
 41
75.0
 42
75.0
 43
75.0
 50
90.0
  0
INSERT
  5
398C
330
36AC
100
AcDbEntity
  8
SUNPOU
100
AcDbBlockReference
  2
_DOTSMALL
 10
2417.348637347741
 20
6170.221149682273
 30
0.0
 41
75.0
 42
75.0
 43
75.0
 50
270.0
  0
POINT
  5
398D
330
36AC
100
AcDbEntity
  8
DEFPOINTS
 62
     0
100
AcDbPoint
 10
2384.998561451257
 20
6148.221149682274
 30
0.0
  0
POINT
  5
398E
330
36AC
100
AcDbEntity
  8
DEFPOINTS
 62
     0
100
AcDbPoint
 10
2417.348637347741
 20
6170.221149682273
 30
0.0
  0
POINT
  5
398F
330
36AC
100
AcDbEntity
  8
DEFPOINTS
 62
     0
100
AcDbPoint
 10
2417.348637347741
 20
6170.221149682273
 30
0.0
  0
ENDBLK
  5
36BC
330
36AC
100
AcDbEntity
  8
0
100
AcDbBlockEnd
  0
BLOCK
  5
36C9
330
36BD
100
AcDbEntity
  8
0
100
AcDbBlockBegin
  2
*D61
 70
     1
 10
0.0
 20
0.0
 30
0.0
  3
*D61
  1

  0
LINE
  5
3880
330
36BD
100
AcDbEntity
  8
SUNPOU
100
AcDbLine
 10
2372.348637347741
 20
6170.221149682273
 30
0.0
 11
2387.348637347741
 21
6170.221149682273
 31
0.0
  0
LINE
  5
3881
330
36BD
100
AcDbEntity
  8
SUNPOU
100
AcDbLine
 10
2409.154468600905
 20
6188.22114968227
 30
0.0
 11
2447.348637347741
 21
6188.22114968227
 31
0.0
  0
LINE
  5
3882
330
36BD
100
AcDbEntity
  8
SUNPOU
100
AcDbLine
 10
2417.348637347741
 20
6170.221149682273
 30
0.0
 11
2417.348637347741
 21
6095.221149682273
 31
0.0
  0
LINE
  5
3883
330
36BD
100
AcDbEntity
  8
SUNPOU
100
AcDbLine
 10
2417.348637347741
 20
6263.22114968227
 30
0.0
 11
2417.348637347741
 21
6338.22114968227
 31
0.0
  0
MTEXT
  5
3884
330
36BD
100
AcDbEntity
  8
SUNPOU
 62
     6
100
AcDbMText
 10
2347.620518273471
 20
6311.358438308452
 30
0.0
 40
75.0
 41
0.0
 71
     5
 72
     1
  1
\A1;18
  7
SUNPOU
 11
0.0000000000000001
 21
1.0
 31
0.0
1001
ACAD
1000
MTEXTBEGIN
1070
    73
1070
     1
1070
    44
1040
1.0
1070
    74
1070
     0
1000
MTEXTEND
1000
MTEXTBEGIN
1070
    73
1070
     1
1070
    44
1040
1.0
1070
    74
1070
     0
1000
MTEXTEND
  0
LINE
  5
3885
330
36BD
100
AcDbEntity
  8
SUNPOU
100
AcDbLine
 10
2417.348637347741
 20
6170.221149682273
 30
0.0
 11
2417.348637347741
 21
6188.22114968227
 31
0.0
  0
INSERT
  5
3886
330
36BD
100
AcDbEntity
  8
SUNPOU
100
AcDbBlockReference
  2
_DOTSMALL
 10
2417.348637347741
 20
6170.221149682273
 30
0.0
 41
75.0
 42
75.0
 43
75.0
 50
90.0
  0
INSERT
  5
3887
330
36BD
100
AcDbEntity
  8
SUNPOU
100
AcDbBlockReference
  2
_OPEN30
 10
2417.348637347741
 20
6188.22114968227
 30
0.0
 41
75.0
 42
75.0
 43
75.0
 50
270.0
  0
POINT
  5
3888
330
36BD
100
AcDbEntity
  8
DEFPOINTS
 62
     0
100
AcDbPoint
 10
2417.348637347741
 20
6170.221149682273
 30
0.0
  0
POINT
  5
3889
330
36BD
100
AcDbEntity
  8
DEFPOINTS
 62
     0
100
AcDbPoint
 10
2364.154468600905
 20
6188.22114968227
 30
0.0
  0
POINT
  5
388A
330
36BD
100
AcDbEntity
  8
DEFPOINTS
 62
     0
100
AcDbPoint
 10
2417.348637347741
 20
6188.22114968227
 30
0.0
  0
ENDBLK
  5
36CA
330
36BD
100
AcDbEntity
  8
0
100
AcDbBlockEnd
  0
BLOCK
  5
36D7
330
36CB
100
AcDbEntity
  8
0
100
AcDbBlockBegin
  2
*D62
 70
     1
 10
0.0
 20
0.0
 30
0.0
  3
*D62
  1

  0
LINE
  5
3713
330
36CB
100
AcDbEntity
  8
SUNPOU
100
AcDbLine
 10
2818.285908234951
 20
6194.221149682262
 30
0.0
 11
2833.28590823495
 21
6194.221149682262
 31
0.0
  0
LINE
  5
3714
330
36CB
100
AcDbEntity
  8
SUNPOU
100
AcDbLine
 10
2818.28590823495
 20
6124.221149682262
 30
0.0
 11
2833.28590823495
 21
6124.221149682262
 31
0.0
  0
LINE
  5
3715
330
36CB
100
AcDbEntity
  8
SUNPOU
100
AcDbLine
 10
2863.28590823495
 20
6269.221149682262
 30
0.0
 11
2863.28590823495
 21
6344.221149682262
 31
0.0
  0
LINE
  5
3716
330
36CB
100
AcDbEntity
  8
SUNPOU
100
AcDbLine
 10
2863.28590823495
 20
6049.221149682262
 30
0.0
 11
2863.28590823495
 21
5974.221149682262
 31
0.0
  0
MTEXT
  5
3717
330
36CB
100
AcDbEntity
  8
SUNPOU
 62
     6
100
AcDbMText
 10
2796.400930052191
 20
6302.964535253785
 30
0.0
 40
75.0
 41
0.0
 71
     5
 72
     1
  1
\A1;70
  7
SUNPOU
 11
0.0000000000000001
 21
1.0
 31
0.0
1001
ACAD
1000
MTEXTBEGIN
1070
    73
1070
     1
1070
    44
1040
1.0
1070
    74
1070
     0
1000
MTEXTEND
1000
MTEXTBEGIN
1070
    73
1070
     1
1070
    44
1040
1.0
1070
    74
1070
     0
1000
MTEXTEND
  0
LINE
  5
3718
330
36CB
100
AcDbEntity
  8
SUNPOU
100
AcDbLine
 10
2863.28590823495
 20
6194.221149682262
 30
0.0
 11
2863.28590823495
 21
6124.221149682262
 31
0.0
  0
INSERT
  5
3719
330
36CB
100
AcDbEntity
  8
SUNPOU
100
AcDbBlockReference
  2
_OPEN30
 10
2863.28590823495
 20
6194.221149682262
 30
0.0
 41
75.0
 42
75.0
 43
75.0
 50
270.0
  0
INSERT
  5
371A
330
36CB
100
AcDbEntity
  8
SUNPOU
100
AcDbBlockReference
  2
_OPEN30
 10
2863.28590823495
 20
6124.221149682262
 30
0.0
 41
75.0
 42
75.0
 43
75.0
 50
90.0
  0
POINT
  5
371B
330
36CB
100
AcDbEntity
  8
DEFPOINTS
 62
     0
100
AcDbPoint
 10
2863.285908234951
 20
6194.221149682262
 30
0.0
  0
POINT
  5
371C
330
36CB
100
AcDbEntity
  8
DEFPOINTS
 62
     0
100
AcDbPoint
 10
2863.28590823495
 20
6124.221149682262
 30
0.0
  0
POINT
  5
371D
330
36CB
100
AcDbEntity
  8
DEFPOINTS
 62
     0
100
AcDbPoint
 10
2863.28590823495
 20
6124.221149682262
 30
0.0
  0
ENDBLK
  5
36D8
330
36CB
100
AcDbEntity
  8
0
100
AcDbBlockEnd
  0
BLOCK
  5
374C
330
3740
100
AcDbEntity
  8
0
100
AcDbBlockBegin
  2
*D63
 70
     1
 10
0.0
 20
0.0
 30
0.0
  3
*D63
  1

  0
LINE
  5
3767
330
3740
100
AcDbEntity
  8
SUNPOU
100
AcDbLine
 10
2364.90446860087
 20
2620.905513260241
 30
0.0
 11
2364.90446860087
 21
2493.317027920773
 31
0.0
  0
LINE
  5
3768
330
3740
100
AcDbEntity
  8
SUNPOU
100
AcDbLine
 10
2346.904468600869
 20
2620.515668262282
 30
0.0
 11
2346.904468600869
 21
2493.317027920773
 31
0.0
  0
LINE
  5
3769
330
3740
100
AcDbEntity
  8
SUNPOU
100
AcDbLine
 10
2439.90446860087
 20
2523.317027920773
 30
0.0
 11
2514.90446860087
 21
2523.317027920773
 31
0.0
  0
LINE
  5
376A
330
3740
100
AcDbEntity
  8
SUNPOU
100
AcDbLine
 10
2271.90446860087
 20
2523.317027920773
 30
0.0
 11
2196.90446860087
 21
2523.317027920773
 31
0.0
  0
MTEXT
  5
376B
330
3740
100
AcDbEntity
  8
SUNPOU
 62
     6
100
AcDbMText
 10
2502.225188689622
 20
2589.251949314556
 30
0.0
 40
75.0
 41
0.0
 71
     5
 72
     1
  1
\A1;18
  7
SUNPOU
1001
ACAD
1000
MTEXTBEGIN
1070
    73
1070
     1
1070
    44
1040
1.0
1070
    74
1070
     0
1000
MTEXTEND
1000
MTEXTBEGIN
1070
    73
1070
     1
1070
    44
1040
1.0
1070
    74
1070
     0
1000
MTEXTEND
  0
LINE
  5
376C
330
3740
100
AcDbEntity
  8
SUNPOU
100
AcDbLine
 10
2364.90446860087
 20
2523.317027920773
 30
0.0
 11
2346.904468600869
 21
2523.317027920773
 31
0.0
  0
INSERT
  5
376D
330
3740
100
AcDbEntity
  8
SUNPOU
100
AcDbBlockReference
  2
_OPEN30
 10
2364.90446860087
 20
2523.317027920773
 30
0.0
 41
75.0
 42
75.0
 43
75.0
 50
180.0
  0
INSERT
  5
376E
330
3740
100
AcDbEntity
  8
SUNPOU
100
AcDbBlockReference
  2
_OPEN30
 10
2346.904468600869
 20
2523.317027920773
 30
0.0
 41
75.0
 42
75.0
 43
75.0
  0
POINT
  5
376F
330
3740
100
AcDbEntity
  8
DEFPOINTS
 62
     0
100
AcDbPoint
 10
2364.90446860087
 20
2665.90551326024
 30
0.0
  0
POINT
  5
3770
330
3740
100
AcDbEntity
  8
DEFPOINTS
 62
     0
100
AcDbPoint
 10
2346.904468600869
 20
2665.515668262282
 30
0.0
  0
POINT
  5
3771
330
3740
100
AcDbEntity
  8
DEFPOINTS
 62
     0
100
AcDbPoint
 10
2346.904468600869
 20
2523.317027920773
 30
0.0
  0
ENDBLK
  5
374D
330
3740
100
AcDbEntity
  8
0
100
AcDbBlockEnd
  0
ENDSEC
  0
SECTION
  2
ENTITIES
  0
LINE
  5
10A
330
1E
100
AcDbEntity
  8
03
100
AcDbLine
 10
954.3651619602403
 20
3042.144123315082
 30
0.0
 11
904.3657723117997
 21
3042.144123315082
 31
0.0
  0
LINE
  5
10B
330
1E
100
AcDbEntity
  8
03
100
AcDbLine
 10
954.3651619602403
 20
6130.823322533832
 30
0.0
 11
904.3657723117997
 21
6130.823322533832
 31
0.0
  0
LINE
  5
10C
330
1E
100
AcDbEntity
  8
03
100
AcDbLine
 10
954.3651619602403
 20
3042.144123315082
 30
0.0
 11
954.3651619602403
 21
4424.221149682273
 31
0.0
  0
LINE
  5
10D
330
1E
100
AcDbEntity
  8
02
100
AcDbLine
 10
904.3657723117997
 20
1330.188938378556
 30
0.0
 11
904.3657723117997
 21
4424.221149682273
 31
0.0
  0
LINE
  5
111
330
1E
100
AcDbEntity
  8
SAISEN
100
AcDbLine
 10
4424.077228610629
 20
5132.332111596332
 30
0.0
 11
4378.46519858133
 21
5177.943989037732
 31
0.0
  0
LINE
  5
113
330
1E
100
AcDbEntity
  8
SAISEN
100
AcDbLine
 10
4424.077228610629
 20
3904.422565697892
 30
0.0
 11
4378.46519858133
 21
3950.034748315078
 31
0.0
  0
LINE
  5
114
330
1E
100
AcDbEntity
  8
SAISEN
100
AcDbLine
 10
4409.935077731721
 20
5118.18996071742
 30
0.0
 11
4364.32304770243
 21
5163.801838158835
 31
0.0
  0
LINE
  5
11E
330
1E
100
AcDbEntity
  8
03
100
AcDbLine
 10
1911.904071872345
 20
3195.150409936173
 30
0.0
 11
1999.904254977819
 21
3195.150409936173
 31
0.0
  0
LINE
  5
11F
330
1E
100
AcDbEntity
  8
03
100
AcDbLine
 10
1911.904071872345
 20
3195.150409936173
 30
0.0
 11
1911.904071872345
 21
3283.150287865864
 31
0.0
  0
LINE
  5
120
330
1E
100
AcDbEntity
  8
03
100
AcDbLine
 10
1911.904071872345
 20
3189.150348901025
 30
0.0
 11
1999.904254977819
 21
3189.150348901025
 31
0.0
  0
LINE
  5
121
330
1E
100
AcDbEntity
  8
03
100
AcDbLine
 10
1911.904071872345
 20
3289.150348901024
 30
0.0
 11
1999.904254977819
 21
3289.150348901024
 31
0.0
  0
LINE
  5
142
330
1E
100
AcDbEntity
  8
SAISEN
100
AcDbLine
 10
4409.935077731718
 20
3890.28071999476
 30
0.0
 11
4364.32304770243
 21
3935.892597436174
 31
0.0
  0
LINE
  5
1DA
330
1E
100
AcDbEntity
  8
06
100
AcDbLine
 10
4986.412357394812
 20
4357.2771799557
 30
0.0
 11
4986.412357394812
 21
4383.951374291641
 31
0.0
  0
LINE
  5
1DB
330
1E
100
AcDbEntity
  8
06
100
AcDbLine
 10
4988.412326877231
 20
4359.27730202601
 30
0.0
 11
4988.412326877231
 21
4383.951374291641
 31
0.0
  0
LINE
  5
1DC
330
1E
100
AcDbEntity
  8
06
100
AcDbLine
 10
4988.412326877231
 20
4359.27730202601
 30
0.0
 11
4990.912326877231
 21
4359.27730202601
 31
0.0
  0
LINE
  5
1DD
330
1E
100
AcDbEntity
  8
06
100
AcDbLine
 10
4986.412357394812
 20
4383.951374291641
 30
0.0
 11
4988.412326877231
 21
4383.951374291641
 31
0.0
  0
LINE
  5
1E0
330
1E
100
AcDbEntity
  8
06
100
AcDbLine
 10
4990.912326877231
 20
4359.27730202601
 30
0.0
 11
5001.412281100871
 21
4359.27730202601
 31
0.0
  0
LINE
  5
1E1
330
1E
100
AcDbEntity
  8
06
100
AcDbLine
 10
5001.412281100871
 20
4357.2771799557
 30
0.0
 11
5001.412281100871
 21
4359.27730202601
 31
0.0
  0
LINE
  5
1E6
330
1E
100
AcDbEntity
  8
06
100
AcDbLine
 10
4973.404346210662
 20
4379.277179985503
 30
0.0
 11
4986.412357394812
 21
4379.27730202601
 31
0.0
  0
LINE
  5
1EE
330
1E
100
AcDbEntity
  8
06
100
AcDbLine
 10
5050.40436178934
 20
4346.22114968227
 30
0.0
 11
5081.4044228245
 21
4346.221027641752
 31
0.0
  0
LINE
  5
1F0
330
1E
100
AcDbEntity
  8
06
100
AcDbLine
 10
4967.904438083291
 20
4697.697407006478
 30
0.0
 11
4967.904438083291
 21
4350.699421166641
 31
0.0
  0
LINE
  5
1F2
330
1E
100
AcDbEntity
  8
03
100
AcDbLine
 10
4970.904468600867
 20
1314.543220615305
 30
0.0
 11
4970.90446860087
 21
4343.233295678361
 31
0.0
  0
LINE
  5
1F4
330
1E
100
AcDbEntity
  8
06
100
AcDbLine
 10
5048.404468600871
 20
4348.22127175258
 30
0.0
 11
5048.404468600871
 21
4351.221149682269
 31
0.0
  0
LINE
  5
1F5
330
1E
100
AcDbEntity
  8
06
100
AcDbLine
 10
4973.404346530551
 20
4357.233234643201
 30
0.0
 11
5072.90439230692
 21
4357.233234643201
 31
0.0
  0
LINE
  5
1F6
330
1E
100
AcDbEntity
  8
06
100
AcDbLine
 10
5048.404468600871
 20
4351.221149682269
 30
0.0
 11
5088.40439230692
 21
4351.221149682269
 31
0.0
  0
LINE
  5
1F7
330
1E
100
AcDbEntity
  8
06
100
AcDbLine
 10
4967.904438083291
 20
4350.699421166641
 30
0.0
 11
4969.38270956765
 21
4349.221149682271
 31
0.0
  0
LINE
  5
1FA
330
1E
100
AcDbEntity
  8
06
100
AcDbLine
 10
5083.404316012972
 20
4344.221027611951
 30
0.0
 11
5083.404316012972
 21
4313.220966576799
 31
0.0
  0
LINE
  5
1FB
330
1E
100
AcDbEntity
  8
06
100
AcDbLine
 10
5088.40439230692
 20
4351.221149682269
 30
0.0
 11
5088.40439230692
 21
4311.221149682267
 31
0.0
  0
LINE
  5
1FC
330
1E
100
AcDbEntity
  8
06
100
AcDbLine
 10
5085.404438083291
 20
4311.221149682267
 30
0.0
 11
5088.40439230692
 21
4311.221149682267
 31
0.0
  0
LINE
  5
1FD
330
1E
100
AcDbEntity
  8
CHUSIN
 48
10.0
100
AcDbLine
 10
5106.236479779598
 20
4719.720844506478
 30
0.0
 11
5063.564380710239
 21
4719.720844506478
 31
0.0
  0
LINE
  5
1FF
330
1E
100
AcDbEntity
  8
06
100
AcDbLine
 10
5050.40436178934
 20
4702.221149682269
 30
0.0
 11
5081.404422999344
 21
4702.221271722776
 31
0.0
  0
LINE
  5
202
330
1E
100
AcDbEntity
  8
06
100
AcDbLine
 10
4990.90439230692
 20
4351.221149682269
 30
0.0
 11
4990.90439230692
 21
4349.233051537733
 31
0.0
  0
LINE
  5
203
330
1E
100
AcDbEntity
  8
06
100
AcDbLine
 10
4990.90439230692
 20
4351.221149682269
 30
0.0
 11
5072.90439230692
 21
4351.221149682269
 31
0.0
  0
LINE
  5
204
330
1E
100
AcDbEntity
  8
03
100
AcDbLine
 10
4970.90446860087
 20
4343.233295678361
 30
0.0
 11
4982.904438083291
 21
4343.233295678361
 31
0.0
  0
LINE
  5
205
330
1E
100
AcDbEntity
  8
06
100
AcDbLine
 10
5048.404468600871
 20
4700.221332787729
 30
0.0
 11
5048.404468600871
 21
4697.221149682266
 31
0.0
  0
LINE
  5
206
330
1E
100
AcDbEntity
  8
06
100
AcDbLine
 10
5088.40439230692
 20
4697.221149682266
 30
0.0
 11
5088.40439230692
 21
4737.221454858048
 31
0.0
  0
LINE
  5
208
330
1E
100
AcDbEntity
  8
03
100
AcDbLine
 10
4970.90446860087
 20
4705.111652611951
 30
0.0
 11
4985.644535129193
 21
4705.111652611951
 31
0.0
  0
LINE
  5
209
330
1E
100
AcDbEntity
  8
06
100
AcDbLine
 10
5048.404468600871
 20
4697.221149682266
 30
0.0
 11
5088.40439230692
 21
4697.221149682266
 31
0.0
  0
LINE
  5
20A
330
1E
100
AcDbEntity
  8
06
100
AcDbLine
 10
5083.404316012972
 20
4735.221332787729
 30
0.0
 11
5083.404422854303
 21
4704.221271776432
 31
0.0
  0
LINE
  5
20B
330
1E
100
AcDbEntity
  8
06
100
AcDbLine
 10
5085.404438083291
 20
4737.221454858048
 30
0.0
 11
5088.40439230692
 21
4737.221454858048
 31
0.0
  0
LINE
  5
214
330
1E
100
AcDbEntity
  8
06
100
AcDbLine
 10
4973.404346530551
 20
4377.277179955701
 30
0.0
 11
4986.412357394812
 21
4377.277179955701
 31
0.0
  0
LINE
  5
218
330
1E
100
AcDbEntity
  8
03
100
AcDbLine
 10
4971.904377048131
 20
4349.221149682271
 30
0.0
 11
4971.904377048131
 21
4343.233295678361
 31
0.0
  0
LINE
  5
220
330
1E
100
AcDbEntity
  8
06
100
AcDbLine
 10
2120.904316012966
 20
4779.237323998674
 30
0.0
 11
2122.904438083276
 21
4779.237323998674
 31
0.0
  0
LINE
  5
221
330
1E
100
AcDbEntity
  8
06
100
AcDbLine
 10
2118.904499118436
 20
4819.237018822891
 30
0.0
 11
2120.904316012966
 21
4819.237018822891
 31
0.0
  0
LINE
  5
222
330
1E
100
AcDbEntity
  8
06
100
AcDbLine
 10
2120.904316012966
 20
4772.237201928365
 30
0.0
 11
2133.904316012967
 21
4772.237201928365
 31
0.0
  0
LINE
  5
223
330
1E
100
AcDbEntity
  8
06
100
AcDbLine
 10
2122.904438083276
 20
4779.237323998674
 30
0.0
 11
2122.904438083276
 21
4824.237323998674
 31
0.0
  0
LINE
  5
224
330
1E
100
AcDbEntity
  8
06
100
AcDbLine
 10
2134.404316102374
 20
4774.237384944426
 30
0.0
 11
2120.904316012966
 21
4774.237018822891
 31
0.0
  0
LINE
  5
228
330
1E
100
AcDbEntity
  8
06
100
AcDbLine
 10
2118.904377048127
 20
4774.237018822891
 30
0.0
 11
2118.904377048127
 21
4819.237018822891
 31
0.0
  0
LINE
  5
22A
330
1E
100
AcDbEntity
  8
06
100
AcDbLine
 10
2120.904316012966
 20
4774.237018822891
 30
0.0
 11
2120.904316012966
 21
4824.237323998674
 31
0.0
  0
LINE
  5
22B
330
1E
100
AcDbEntity
  8
06
100
AcDbLine
 10
2122.904438083276
 20
4826.237140893205
 30
0.0
 11
2133.90431469572
 21
4826.237140893205
 31
0.0
  0
LINE
  5
22D
330
1E
100
AcDbEntity
  8
06
100
AcDbLine
 10
2122.904438083276
 20
4824.237323998674
 30
0.0
 11
2133.904314870565
 21
4824.237140863402
 31
0.0
  0
LINE
  5
230
330
1E
100
AcDbEntity
  8
06
100
AcDbLine
 10
2220.904285495407
 20
2836.221119164693
 30
0.0
 11
2253.904773776657
 21
2836.221119164693
 31
0.0
  0
LINE
  5
232
330
1E
100
AcDbEntity
  8
03
100
AcDbLine
 10
2260.404468600869
 20
2833.221149682275
 30
0.0
 11
2260.404468600869
 21
2829.221149682275
 31
0.0
  0
LINE
  5
235
330
1E
100
AcDbEntity
  8
06
100
AcDbLine
 10
2255.904590671188
 20
2838.221241235013
 30
0.0
 11
2255.904590671188
 21
2875.221210717434
 31
0.0
  0
LINE
  5
241
330
1E
100
AcDbEntity
  8
03
 48
60.0
100
AcDbLine
 10
2005.904316012967
 20
3139.150348901024
 30
0.0
 11
2005.904316012967
 21
2840.669971703762
 31
0.0
  0
LINE
  5
244
330
1E
100
AcDbEntity
  8
03
100
AcDbLine
 10
1905.904316012967
 20
3139.150348901024
 30
0.0
 11
1807.234882419217
 21
3139.150348901024
 31
0.0
  0
LINE
  5
245
330
1E
100
AcDbEntity
  8
03
100
AcDbLine
 10
1767.234882419217
 20
3139.150348901024
 30
0.0
 11
1761.457904880158
 21
3139.150348901024
 31
0.0
  0
LINE
  5
246
330
1E
100
AcDbEntity
  8
03
100
AcDbLine
 10
1911.904071872345
 20
3189.150348901025
 30
0.0
 11
1797.463153903595
 21
3189.150348901025
 31
0.0
  0
LINE
  5
247
330
1E
100
AcDbEntity
  8
03
100
AcDbLine
 10
1905.904316012967
 20
3184.150348901024
 30
0.0
 11
1797.463153903595
 21
3184.150348901024
 31
0.0
  0
LINE
  5
249
330
1E
100
AcDbEntity
  8
06
100
AcDbLine
 10
5066.904407565711
 20
4691.111713647111
 30
0.0
 11
5066.904407565711
 21
4357.233234643201
 31
0.0
  0
LINE
  5
24A
330
1E
100
AcDbEntity
  8
03
100
AcDbLine
 10
4970.90446860087
 20
4705.111652611951
 30
0.0
 11
4970.90446860087
 21
5872.414509057264
 31
0.0
  0
LINE
  5
24B
330
1E
100
AcDbEntity
  8
06
100
AcDbLine
 10
4971.404346530551
 20
4699.221149682271
 30
0.0
 11
4971.404346530551
 21
4349.221149682271
 31
0.0
  0
LINE
  5
24C
330
1E
100
AcDbEntity
  8
06
100
AcDbLine
 10
5072.90439230692
 20
4697.22114968227
 30
0.0
 11
5072.90439230692
 21
4351.221149682269
 31
0.0
  0
LINE
  5
24F
330
1E
100
AcDbEntity
  8
06
100
AcDbLine
 10
4990.90439230692
 20
4699.221149682271
 30
0.0
 11
4990.90439230692
 21
4699.111591576797
 31
0.0
  0
LINE
  5
251
330
1E
100
AcDbEntity
  8
03
100
AcDbLine
 10
1761.457904880158
 20
3139.150348901024
 30
0.0
 11
1761.457904880158
 21
3189.150348901025
 31
0.0
  0
LINE
  5
25C
330
1E
100
AcDbEntity
  8
03
100
AcDbLine
 10
1798.404316012967
 20
3189.150348901025
 30
0.0
 11
1761.457904880158
 21
3189.150348901025
 31
0.0
  0
LINE
  5
25D
330
1E
100
AcDbEntity
  8
03
100
AcDbLine
 10
1797.463153903595
 20
3184.150348901024
 30
0.0
 11
1761.457904880158
 21
3184.150348901024
 31
0.0
  0
LINE
  5
260
330
1E
100
AcDbEntity
  8
03
 48
60.0
100
AcDbLine
 10
1807.234882419217
 20
3180.273090600243
 30
0.0
 11
1767.234882419217
 21
3180.273090600243
 31
0.0
  0
LINE
  5
26A
330
1E
100
AcDbEntity
  8
03
100
AcDbLine
 10
1999.659504001249
 20
5853.561969994768
 30
0.0
 11
1999.659504001249
 21
5765.562092065088
 31
0.0
  0
LINE
  5
26C
330
1E
100
AcDbEntity
  8
03
100
AcDbLine
 10
1911.659320895779
 20
5859.562336205706
 30
0.0
 11
1999.659504001249
 21
5859.562336205706
 31
0.0
  0
LINE
  5
26F
330
1E
100
AcDbEntity
  8
03
100
AcDbLine
 10
1911.659320895779
 20
5853.561969994768
 30
0.0
 11
1911.659320895779
 21
5765.562092065088
 31
0.0
  0
LINE
  5
270
330
1E
100
AcDbEntity
  8
03
100
AcDbLine
 10
1911.659320895779
 20
5765.562092065088
 30
0.0
 11
1999.659504001249
 21
5765.562092065088
 31
0.0
  0
LINE
  5
271
330
1E
100
AcDbEntity
  8
03
100
AcDbLine
 10
1911.659320895779
 20
5759.562336205704
 30
0.0
 11
1999.659504001249
 21
5759.562336205704
 31
0.0
  0
LINE
  5
272
330
1E
100
AcDbEntity
  8
03
100
AcDbLine
 10
1911.659320895779
 20
5853.561969994768
 30
0.0
 11
1999.659504001249
 21
5853.561969994768
 31
0.0
  0
LINE
  5
28F
330
1E
100
AcDbEntity
  8
03
 48
60.0
100
AcDbLine
 10
1905.904316012967
 20
3184.150348901024
 30
0.0
 11
2005.904316012967
 21
3184.150348901024
 31
0.0
  0
LINE
  5
290
330
1E
100
AcDbEntity
  8
03
100
AcDbLine
 10
1911.904071872345
 20
3283.150287865864
 30
0.0
 11
1999.904254977819
 21
3283.150287865864
 31
0.0
  0
LINE
  5
291
330
1E
100
AcDbEntity
  8
03
100
AcDbLine
 10
1999.904254977819
 20
3195.150409936173
 30
0.0
 11
1999.904254977819
 21
3283.150287865864
 31
0.0
  0
LINE
  5
299
330
1E
100
AcDbEntity
  8
03
100
AcDbLine
 10
1910.059131686799
 20
3624.221149682274
 30
0.0
 11
2005.904316012953
 21
3624.221149682274
 31
0.0
  0
LINE
  5
29B
330
1E
100
AcDbEntity
  8
03
100
AcDbLine
 10
1632.90408154348
 20
3524.221150626145
 30
0.0
 11
904.3657723117997
 21
3524.221149687899
 31
0.0
  0
LINE
  5
29E
330
1E
100
AcDbEntity
  8
03
100
AcDbLine
 10
1632.904084373704
 20
3624.220844336679
 30
0.0
 11
904.3657723117997
 21
3624.220844505482
 31
0.0
  0
LINE
  5
2A4
330
1E
100
AcDbEntity
  8
03
100
AcDbLine
 10
2005.904316012967
 20
3283.678852318994
 30
0.0
 11
2005.904316012953
 21
3624.221149682274
 31
0.0
  0
LINE
  5
2B5
330
1E
100
AcDbEntity
  8
06
100
AcDbLine
 10
4967.904438083291
 20
4697.697407006478
 30
0.0
 11
4969.42818075907
 21
4699.221149682271
 31
0.0
  0
LINE
  5
2B7
330
1E
100
AcDbEntity
  8
06
100
AcDbLine
 10
4973.404468600871
 20
4697.221149682266
 30
0.0
 11
4973.404468600871
 21
4671.221149682271
 31
0.0
  0
LINE
  5
2BA
330
1E
100
AcDbEntity
  8
06
100
AcDbLine
 10
4988.404392306922
 20
4689.11189675258
 30
0.0
 11
4988.404392306922
 21
4664.437824486951
 31
0.0
  0
LINE
  5
2BC
330
1E
100
AcDbEntity
  8
06
100
AcDbLine
 10
4986.404422824501
 20
4664.437824486951
 30
0.0
 11
4988.404392306922
 21
4664.437824486951
 31
0.0
  0
LINE
  5
2BD
330
1E
100
AcDbEntity
  8
06
100
AcDbLine
 10
4986.404422824501
 20
4691.111713647111
 30
0.0
 11
4986.404422824501
 21
4664.437824486951
 31
0.0
  0
LINE
  5
2C2
330
1E
100
AcDbEntity
  8
06
100
AcDbLine
 10
4990.90439230692
 20
4689.11189675258
 30
0.0
 11
5001.4044228245
 21
4689.11189675258
 31
0.0
  0
LINE
  5
2C3
330
1E
100
AcDbEntity
  8
06
100
AcDbLine
 10
4969.42818075907
 20
4699.221149682271
 30
0.0
 11
4990.90439230692
 21
4699.221149682271
 31
0.0
  0
LINE
  5
2C4
330
1E
100
AcDbEntity
  8
06
100
AcDbLine
 10
4973.404468600871
 20
4691.111713647111
 30
0.0
 11
4990.90439230692
 21
4691.111713647111
 31
0.0
  0
LINE
  5
2C7
330
1E
100
AcDbEntity
  8
06
100
AcDbLine
 10
4988.404392306922
 20
4689.11189675258
 30
0.0
 11
4990.90439230692
 21
4689.11189675258
 31
0.0
  0
LINE
  5
2C8
330
1E
100
AcDbEntity
  8
06
100
AcDbLine
 10
5001.4044228245
 20
4691.111713647111
 30
0.0
 11
5001.4044228245
 21
4689.11189675258
 31
0.0
  0
LINE
  5
2C9
330
1E
100
AcDbEntity
  8
06
100
AcDbLine
 10
4990.90439230692
 20
4697.22114968227
 30
0.0
 11
5072.90439230692
 21
4697.22114968227
 31
0.0
  0
LINE
  5
2CA
330
1E
100
AcDbEntity
  8
06
100
AcDbLine
 10
4990.90439230692
 20
4691.111713647111
 30
0.0
 11
5072.90439230692
 21
4691.111713647111
 31
0.0
  0
LINE
  5
2CB
330
1E
100
AcDbEntity
  8
03
100
AcDbLine
 10
1634.089433809696
 20
5524.221149690352
 30
0.0
 11
904.3657723117997
 21
5524.221149690352
 31
0.0
  0
LINE
  5
2D1
330
1E
100
AcDbEntity
  8
03
100
AcDbLine
 10
1905.904316012967
 20
5524.221149690352
 30
0.0
 11
2005.904316012953
 21
5524.221149690352
 31
0.0
  0
LINE
  5
2D4
330
1E
100
AcDbEntity
  8
03
100
AcDbLine
 10
1905.904316012967
 20
5424.22114969035
 30
0.0
 11
2005.904316012953
 21
5424.22114969035
 31
0.0
  0
LINE
  5
2D5
330
1E
100
AcDbEntity
  8
03
100
AcDbLine
 10
2005.904316012953
 20
5424.22114969035
 30
0.0
 11
2005.904316012953
 21
5765.562092136636
 31
0.0
  0
LINE
  5
2D8
330
1E
100
AcDbEntity
  8
03
100
AcDbLine
 10
1905.904316012955
 20
5765.562091802819
 30
0.0
 11
1905.904316012967
 21
5424.22114969035
 31
0.0
  0
LINE
  5
2D9
330
1E
100
AcDbEntity
  8
03
100
AcDbLine
 10
1910.059131686799
 20
5424.22114969035
 30
0.0
 11
1732.904135317914
 21
5424.22114969035
 31
0.0
  0
LINE
  5
2DD
330
1E
100
AcDbEntity
  8
03
100
AcDbLine
 10
4971.904377048131
 20
4699.221149682271
 30
0.0
 11
4971.904377048131
 21
4705.111652611951
 31
0.0
  0
LINE
  5
2E5
330
1E
100
AcDbEntity
  8
06
100
AcDbLine
 10
4990.90439230692
 20
4697.22114968227
 30
0.0
 11
4990.90439230692
 21
4699.111591576797
 31
0.0
  0
LINE
  5
2E6
330
1E
100
AcDbEntity
  8
03
100
AcDbLine
 10
2005.904316012967
 20
3139.150348901024
 30
0.0
 11
2005.904316012967
 21
3283.678852318994
 31
0.0
  0
LINE
  5
2E7
330
1E
100
AcDbEntity
  8
03
 48
60.0
100
AcDbLine
 10
1905.904316012967
 20
2840.669971703762
 30
0.0
 11
1905.904316012967
 21
3189.150348901025
 31
0.0
  0
LINE
  5
2F9
330
1E
100
AcDbEntity
  8
03
100
AcDbLine
 10
2061.312824313748
 20
4343.221210717422
 30
0.0
 11
2061.312824313748
 21
4523.221149682274
 31
0.0
  0
LINE
  5
2FC
330
1E
100
AcDbEntity
  8
03
100
AcDbLine
 10
2061.312824313748
 20
4523.221149682274
 30
0.0
 11
2061.312824313748
 21
4939.221088647115
 31
0.0
  0
LINE
  5
2FD
330
1E
100
AcDbEntity
  8
KAKURE
 48
60.0
100
AcDbLine
 10
1905.904316012967
 20
3624.221149682274
 30
0.0
 11
1905.904316012967
 21
5424.221149682274
 31
0.0
  0
LINE
  5
303
330
1E
100
AcDbEntity
  8
KAKURE
100
AcDbLine
 10
4850.904316012968
 20
4614.220844506479
 30
0.0
 11
4866.904377048129
 21
4614.220844506479
 31
0.0
  0
LINE
  5
304
330
1E
100
AcDbEntity
  8
KAKURE
100
AcDbLine
 10
4850.904316012968
 20
4634.220844506478
 30
0.0
 11
4872.904438083291
 21
4634.220844506478
 31
0.0
  0
LINE
  5
305
330
1E
100
AcDbEntity
  8
03
100
AcDbLine
 10
4755.904468600871
 20
4497.22114968227
 30
0.0
 11
4755.904468600871
 21
4549.221027611962
 31
0.0
  0
LINE
  5
307
330
1E
100
AcDbEntity
  8
SAISEN
100
AcDbLine
 10
3120.743946139928
 20
3788.404499291642
 30
0.0
 11
2885.975879733678
 21
4023.172870873674
 31
0.0
  0
LINE
  5
30D
330
1E
100
AcDbEntity
  8
SAISEN
100
AcDbLine
 10
3120.743946139928
 20
5018.404499291643
 30
0.0
 11
2885.975879733678
 21
5253.172565697894
 31
0.0
  0
LINE
  5
314
330
1E
100
AcDbEntity
  8
KAKURE
 48
50.0
100
AcDbLine
 10
2264.90394980203
 20
4554.221149682273
 30
0.0
 11
2264.90394980203
 21
4773.371540307262
 31
0.0
  0
LINE
  5
358
330
1E
100
AcDbEntity
  8
03
100
AcDbLine
 10
4961.904438083291
 20
4509.221149682271
 30
0.0
 11
4973.904438083291
 21
4509.221149682271
 31
0.0
  0
LINE
  5
359
330
1E
100
AcDbEntity
  8
03
100
AcDbLine
 10
4961.904438083291
 20
4539.221454858049
 30
0.0
 11
4973.904438083291
 21
4539.221454858049
 31
0.0
  0
LINE
  5
35B
330
1E
100
AcDbEntity
  8
03
100
AcDbLine
 10
4757.904438083291
 20
4551.22114968227
 30
0.0
 11
4840.904468600871
 21
4551.22114968227
 31
0.0
  0
LINE
  5
35D
330
1E
100
AcDbEntity
  8
03
100
AcDbLine
 10
4742.904438083291
 20
4497.22114968227
 30
0.0
 11
4840.904468600871
 21
4497.22114968227
 31
0.0
  0
LINE
  5
35F
330
1E
100
AcDbEntity
  8
03
100
AcDbLine
 10
4740.904438053926
 20
4536.221576840946
 30
0.0
 11
4740.904468600871
 21
4547.220905541641
 31
0.0
  0
LINE
  5
360
330
1E
100
AcDbEntity
  8
03
100
AcDbLine
 10
4742.904438083291
 20
4549.221027611962
 30
0.0
 11
4755.904468600871
 21
4549.221027611962
 31
0.0
  0
LINE
  5
361
330
1E
100
AcDbEntity
  8
03
100
AcDbLine
 10
4742.904438083291
 20
4514.221149682271
 30
0.0
 11
4755.904468600871
 21
4514.221149682271
 31
0.0
  0
LINE
  5
362
330
1E
100
AcDbEntity
  8
03
100
AcDbLine
 10
4740.904468600871
 20
4499.220966576812
 30
0.0
 11
4740.904438053489
 21
4512.221028239796
 31
0.0
  0
LINE
  5
365
330
1E
100
AcDbEntity
  8
03
100
AcDbLine
 10
4742.904438083726
 20
4534.221149682271
 30
0.0
 11
4755.904468601307
 21
4534.221149682271
 31
0.0
  0
LINE
  5
366
330
1E
100
AcDbEntity
  8
03
100
AcDbLine
 10
4840.904468600871
 20
4494.221149682271
 30
0.0
 11
4840.904468600871
 21
4554.221149682271
 31
0.0
  0
LINE
  5
367
330
1E
100
AcDbEntity
  8
03
 48
50.0
100
AcDbLine
 10
4961.904438083291
 20
4478.221088647111
 30
0.0
 11
4961.904438083291
 21
4570.221210717419
 31
0.0
  0
LINE
  5
371
330
1E
100
AcDbEntity
  8
KAKURE
 48
50.0
100
AcDbLine
 10
4872.904438083291
 20
4414.221149682271
 30
0.0
 11
4872.904438083291
 21
4494.221149682271
 31
0.0
  0
LINE
  5
372
330
1E
100
AcDbEntity
  8
KAKURE
 48
50.0
100
AcDbLine
 10
4872.904438083291
 20
4554.221149682271
 30
0.0
 11
4872.904438083291
 21
4634.220844506478
 31
0.0
  0
LINE
  5
373
330
1E
100
AcDbEntity
  8
03
 48
50.0
100
AcDbLine
 10
4961.904438083291
 20
4570.221210717419
 30
0.0
 11
4946.904438083291
 21
4583.85768784986
 31
0.0
  0
LINE
  5
374
330
1E
100
AcDbEntity
  8
03
 48
50.0
100
AcDbLine
 10
4946.904438083291
 20
4464.58461151467
 30
0.0
 11
4961.904438083291
 21
4478.221088647111
 31
0.0
  0
LINE
  5
375
330
1E
100
AcDbEntity
  8
SAISEN
100
AcDbLine
 10
4522.987140720011
 20
5018.404499291643
 30
0.0
 11
4288.219226901651
 21
5253.172565697894
 31
0.0
  0
LINE
  5
376
330
1E
100
AcDbEntity
  8
SAISEN
100
AcDbLine
 10
4522.987140720011
 20
3788.404499291642
 30
0.0
 11
4288.219226901651
 21
4023.17287087367
 31
0.0
  0
LINE
  5
377
330
1E
100
AcDbEntity
  8
KAKURE
 48
50.0
100
AcDbLine
 10
4866.904377048133
 20
4414.221149682271
 30
0.0
 11
4866.904377048133
 21
4494.221149682271
 31
0.0
  0
LINE
  5
378
330
1E
100
AcDbEntity
  8
KAKURE
 48
50.0
100
AcDbLine
 10
4866.904377048133
 20
4554.221149682271
 30
0.0
 11
4866.904377048133
 21
4634.221149682271
 31
0.0
  0
LINE
  5
379
330
1E
100
AcDbEntity
  8
KAKURE
 48
60.0
100
AcDbLine
 10
2068.904316012968
 20
4434.221149682275
 30
0.0
 11
2098.904316012967
 21
4434.221149682275
 31
0.0
  0
LINE
  5
37A
330
1E
100
AcDbEntity
  8
KAKURE
 48
60.0
100
AcDbLine
 10
2113.904193942658
 20
4236.520175400891
 30
0.0
 11
2118.904316012967
 21
4236.520175400891
 31
0.0
  0
LINE
  5
37B
330
1E
100
AcDbEntity
  8
KAKURE
 48
60.0
100
AcDbLine
 10
2068.904316012968
 20
4659.221454858051
 30
0.0
 11
2068.904316012968
 21
4434.221149682275
 31
0.0
  0
LINE
  5
37C
330
1E
100
AcDbEntity
  8
KAKURE
 48
60.0
100
AcDbLine
 10
2092.904560153589
 20
4659.221454858051
 30
0.0
 11
2092.904560153589
 21
4434.221149682275
 31
0.0
  0
LINE
  5
383
330
1E
100
AcDbEntity
  8
KAKURE
 48
60.0
100
AcDbLine
 10
2113.904193942658
 20
4303.221210717423
 30
0.0
 11
2113.904193942658
 21
4343.221210717422
 31
0.0
  0
LINE
  5
388
330
1E
100
AcDbEntity
  8
KAKURE
 48
60.0
100
AcDbLine
 10
2068.904316012968
 20
4659.221454858051
 30
0.0
 11
2098.904316012967
 21
4659.221454858051
 31
0.0
  0
LINE
  5
395
330
1E
100
AcDbEntity
  8
06
100
AcDbLine
 10
2048.904377048127
 20
4343.221210717422
 30
0.0
 11
2113.904316012968
 21
4343.221210717422
 31
0.0
  0
LINE
  5
39D
330
1E
100
AcDbEntity
  8
03
100
AcDbLine
 10
2356.904193444993
 20
4497.221149682274
 30
0.0
 11
2356.904193444993
 21
4551.221149682275
 31
0.0
  0
LINE
  5
3A3
330
1E
100
AcDbEntity
  8
03
100
AcDbLine
 10
2107.904316012966
 20
4922.221088647114
 30
0.0
 11
2107.904316012966
 21
4364.221210717423
 31
0.0
  0
LINE
  5
3A7
330
1E
100
AcDbEntity
  8
06
100
AcDbLine
 10
4950.904316012969
 20
3049.221149682271
 30
0.0
 11
2274.904316012967
 21
3049.221149682274
 31
0.0
  0
LINE
  5
3AB
330
1E
100
AcDbEntity
  8
06
100
AcDbLine
 10
2178.904316012967
 20
4273.979450463524
 30
0.0
 11
2161.555103366489
 21
4273.979450463524
 31
0.0
  0
LINE
  5
3AD
330
1E
100
AcDbEntity
  8
03
100
AcDbLine
 10
2066.904254977808
 20
4913.221454858051
 30
0.0
 11
2107.904316012966
 21
4913.221454858051
 31
0.0
  0
LINE
  5
3B7
330
1E
100
AcDbEntity
  8
03
100
AcDbLine
 10
2066.904254977808
 20
4364.221210717423
 30
0.0
 11
2107.904316012966
 21
4364.221210717423
 31
0.0
  0
LINE
  5
3B9
330
1E
100
AcDbEntity
  8
03
100
AcDbLine
 10
2066.904254977808
 20
4922.221088647114
 30
0.0
 11
2107.904316012966
 21
4922.221088647114
 31
0.0
  0
LINE
  5
3BA
330
1E
100
AcDbEntity
  8
03
100
AcDbLine
 10
2066.904254977808
 20
4373.221454858051
 30
0.0
 11
2107.904316012966
 21
4373.221454858051
 31
0.0
  0
LINE
  5
3BB
330
1E
100
AcDbEntity
  8
03
100
AcDbLine
 10
2066.904254977808
 20
4373.221454858051
 30
0.0
 11
2066.904254977808
 21
4364.221210717423
 31
0.0
  0
LINE
  5
3BC
330
1E
100
AcDbEntity
  8
03
100
AcDbLine
 10
2066.904254977808
 20
4922.221088647114
 30
0.0
 11
2066.904254977808
 21
4913.221454858051
 31
0.0
  0
LINE
  5
40E
330
1E
100
AcDbEntity
  8
SAISEN
100
AcDbLine
 10
3021.834034030548
 20
3901.033893822893
 30
0.0
 11
2976.221851413369
 21
3946.646076440083
 31
0.0
  0
LINE
  5
40F
330
1E
100
AcDbEntity
  8
SAISEN
100
AcDbLine
 10
3007.691883151649
 20
5116.937824486955
 30
0.0
 11
2962.079700534459
 21
5162.549701928361
 31
0.0
  0
LINE
  5
411
330
1E
100
AcDbEntity
  8
SAISEN
100
AcDbLine
 10
3007.691883151649
 20
3886.891742943982
 30
0.0
 11
2962.079700534459
 21
3932.503925561173
 31
0.0
  0
LINE
  5
414
330
1E
100
AcDbEntity
  8
SAISEN
100
AcDbLine
 10
3021.834034030548
 20
5131.079975365861
 30
0.0
 11
2976.221851413369
 21
5176.691852807262
 31
0.0
  0
LINE
  5
42E
330
1E
100
AcDbEntity
  8
KAKURE
 48
4.0
100
AcDbLine
 10
4995.904468600869
 20
2854.221149682271
 30
0.0
 11
4995.904468600869
 21
2924.221149682271
 31
0.0
  0
LINE
  5
444
330
1E
100
AcDbEntity
  8
06
100
AcDbLine
 10
2270.904316012968
 20
2927.804828881493
 30
0.0
 11
2270.904316012968
 21
4494.221149682275
 31
0.0
  0
LINE
  5
446
330
1E
100
AcDbEntity
  8
03
100
AcDbLine
 10
4970.904468600873
 20
7166.255451440079
 30
0.0
 11
4970.904468600873
 21
7788.773151635393
 31
0.0
  0
LINE
  5
492
330
1E
100
AcDbEntity
  8
06
100
AcDbLine
 10
2258.904468600853
 20
6127.221637963526
 30
0.0
 11
2120.904316012966
 21
6127.221637963526
 31
0.0
  0
LINE
  5
493
330
1E
100
AcDbEntity
  8
06
100
AcDbLine
 10
2258.904468600853
 20
6129.221760033836
 30
0.0
 11
2120.904316012966
 21
6129.221760033836
 31
0.0
  0
LINE
  5
49A
330
1E
100
AcDbEntity
  8
03
100
AcDbLine
 10
4970.904468600873
 20
7166.255451440079
 30
0.0
 11
4970.90446860087
 21
5836.623493432274
 31
0.0
  0
LINE
  5
49D
330
1E
100
AcDbEntity
  8
03
 48
50.0
100
AcDbLine
 10
2118.90449911844
 20
6110.221515893204
 30
0.0
 11
2086.904377048119
 21
6110.221515893204
 31
0.0
  0
LINE
  5
4A4
330
1E
100
AcDbEntity
  8
06
100
AcDbLine
 10
2122.904438083276
 20
6125.220905541645
 30
0.0
 11
2120.904316012966
 21
6125.220905541645
 31
0.0
  0
LINE
  5
4A6
330
1E
100
AcDbEntity
  8
06
100
AcDbLine
 10
2120.904316012966
 20
6129.221760033836
 30
0.0
 11
2120.904316012966
 21
6112.221637963525
 31
0.0
  0
LINE
  5
4A7
330
1E
100
AcDbEntity
  8
06
100
AcDbLine
 10
2118.90449911844
 20
6129.221760033836
 30
0.0
 11
2118.90449911844
 21
6112.221637963525
 31
0.0
  0
LINE
  5
4AA
330
1E
100
AcDbEntity
  8
06
100
AcDbLine
 10
2133.904315299705
 20
6112.221515923007
 30
0.0
 11
2122.904438083276
 21
6112.221637963525
 31
0.0
  0
LINE
  5
4AB
330
1E
100
AcDbEntity
  8
06
100
AcDbLine
 10
2136.904377048119
 20
6131.221271752586
 30
0.0
 11
2136.904377048119
 21
6129.221760033836
 31
0.0
  0
LINE
  5
4AE
330
1E
100
AcDbEntity
  8
06
100
AcDbLine
 10
2136.904377048119
 20
6131.221271752586
 30
0.0
 11
2120.904316012966
 21
6131.221271752586
 31
0.0
  0
LINE
  5
4AF
330
1E
100
AcDbEntity
  8
06
100
AcDbLine
 10
2122.904438083276
 20
6125.220905541645
 30
0.0
 11
2122.904438083276
 21
6112.221637963525
 31
0.0
  0
LINE
  5
4B0
330
1E
100
AcDbEntity
  8
06
100
AcDbLine
 10
2120.904316012966
 20
6112.221637963525
 30
0.0
 11
2118.90449911844
 21
6112.221637963525
 31
0.0
  0
LINE
  5
4B2
330
1E
100
AcDbEntity
  8
06
100
AcDbLine
 10
2133.90431469572
 20
6110.221515893204
 30
0.0
 11
2122.904438083276
 21
6110.221515893204
 31
0.0
  0
LINE
  5
4D6
330
1E
100
AcDbEntity
  8
03
100
AcDbLine
 10
2258.904468600869
 20
2919.220997094384
 30
0.0
 11
2120.904316012966
 21
2919.220997094384
 31
0.0
  0
LINE
  5
4D7
330
1E
100
AcDbEntity
  8
06
100
AcDbLine
 10
2120.904316012966
 20
2919.220997094384
 30
0.0
 11
2120.904316012966
 21
2936.220966576802
 31
0.0
  0
LINE
  5
4D8
330
1E
100
AcDbEntity
  8
KAKURE
 48
50.0
100
AcDbLine
 10
2086.904377048116
 20
2875.221210717434
 30
0.0
 11
2086.904377048116
 21
2938.221393822892
 31
0.0
  0
LINE
  5
4D9
330
1E
100
AcDbEntity
  8
03
100
AcDbLine
 10
2258.904468600869
 20
2921.221271752584
 30
0.0
 11
2120.904316012966
 21
2921.221271752584
 31
0.0
  0
LINE
  5
4DA
330
1E
100
AcDbEntity
  8
06
100
AcDbLine
 10
2256.90434653056
 20
2917.221027611955
 30
0.0
 11
2238.904468600869
 21
2917.221027611955
 31
0.0
  0
LINE
  5
4DB
330
1E
100
AcDbEntity
  8
06
100
AcDbLine
 10
2256.90434653056
 20
2917.221027611955
 30
0.0
 11
2256.90434653056
 21
2904.221302270165
 31
0.0
  0
LINE
  5
4DC
330
1E
100
AcDbEntity
  8
06
100
AcDbLine
 10
2118.904499118436
 20
2919.220997094384
 30
0.0
 11
2118.904499118436
 21
2936.220966576802
 31
0.0
  0
LINE
  5
4DD
330
1E
100
AcDbEntity
  8
06
100
AcDbLine
 10
2238.904468600869
 20
2919.220997094384
 30
0.0
 11
2238.904468600869
 21
2917.221027611955
 31
0.0
  0
LINE
  5
4DE
330
1E
100
AcDbEntity
  8
KAKURE
 48
50.0
100
AcDbLine
 10
2114.904560153584
 20
2875.221210717434
 30
0.0
 11
2114.904560153584
 21
2938.221393822892
 31
0.0
  0
LINE
  5
4E3
330
1E
100
AcDbEntity
  8
KAKURE
 48
50.0
100
AcDbLine
 10
2118.904499118436
 20
2875.221210717434
 30
0.0
 11
2118.904499118436
 21
2938.221393822892
 31
0.0
  0
LINE
  5
4E4
330
1E
100
AcDbEntity
  8
KAKURE
 48
50.0
100
AcDbLine
 10
2118.904499118436
 20
2938.221393822892
 30
0.0
 11
2086.904377048116
 21
2938.221393822892
 31
0.0
  0
LINE
  5
4E5
330
1E
100
AcDbEntity
  8
03
100
AcDbLine
 10
2258.904468600869
 20
2924.221149682274
 30
0.0
 11
2270.904468600869
 21
2924.221149682274
 31
0.0
  0
LINE
  5
4EA
330
1E
100
AcDbEntity
  8
06
100
AcDbLine
 10
2133.904499118436
 20
2936.220966576802
 30
0.0
 11
2122.904438083276
 21
2936.220966576802
 31
0.0
  0
LINE
  5
4EB
330
1E
100
AcDbEntity
  8
06
100
AcDbLine
 10
2122.904438083276
 20
2923.221241235001
 30
0.0
 11
2120.904316012966
 21
2923.221241235001
 31
0.0
  0
LINE
  5
4F0
330
1E
100
AcDbEntity
  8
06
100
AcDbLine
 10
2120.904316012966
 20
2936.220966576802
 30
0.0
 11
2118.904499118436
 21
2936.220966576802
 31
0.0
  0
LINE
  5
4F1
330
1E
100
AcDbEntity
  8
06
100
AcDbLine
 10
2136.904377048116
 20
2917.221027611955
 30
0.0
 11
2120.904316012966
 21
2917.221027611955
 31
0.0
  0
LINE
  5
4F2
330
1E
100
AcDbEntity
  8
06
100
AcDbLine
 10
2136.904377048116
 20
2917.221027611955
 30
0.0
 11
2136.904377048116
 21
2919.220997094384
 31
0.0
  0
LINE
  5
4F5
330
1E
100
AcDbEntity
  8
06
100
AcDbLine
 10
2133.904316012967
 20
2938.221393822892
 30
0.0
 11
2122.904438083276
 21
2938.221393822892
 31
0.0
  0
LINE
  5
4F6
330
1E
100
AcDbEntity
  8
06
100
AcDbLine
 10
2122.904438083276
 20
2923.221241235001
 30
0.0
 11
2122.904438083276
 21
2936.220966576802
 31
0.0
  0
LINE
  5
50F
330
1E
100
AcDbEntity
  8
03
100
AcDbLine
 10
4755.904468600871
 20
4514.221149682271
 30
0.0
 11
2357.271534030549
 21
4514.221149682273
 31
0.0
  0
LINE
  5
510
330
1E
100
AcDbEntity
  8
03
100
AcDbLine
 10
4755.904468600871
 20
4534.221149682271
 30
0.0
 11
2357.271534030549
 21
4534.221149682275
 31
0.0
  0
LINE
  5
568
330
1E
100
AcDbEntity
  8
06
100
AcDbLine
 10
2832.506336276651
 20
5994.221149682275
 30
0.0
 11
4950.904316012971
 21
5994.221149682275
 31
0.0
  0
LINE
  5
56A
330
1E
100
AcDbEntity
  8
06
100
AcDbLine
 10
4950.904316012969
 20
2954.221149682271
 30
0.0
 11
4950.904316012971
 21
4345.071064233051
 31
0.0
  0
LINE
  5
575
330
1E
100
AcDbEntity
  8
06
100
AcDbLine
 10
2274.904316012971
 20
6094.221149682276
 30
0.0
 11
4967.904438083291
 21
6094.221149682276
 31
0.0
  0
LINE
  5
57F
330
1E
100
AcDbEntity
  8
06
100
AcDbLine
 10
4967.827076022739
 20
4703.371235131479
 30
0.0
 11
4950.904316012971
 21
4703.371235131479
 31
0.0
  0
LINE
  5
580
330
1E
100
AcDbEntity
  8
06
100
AcDbLine
 10
4967.904438083291
 20
4703.371235131479
 30
0.0
 11
4967.904438083291
 21
6094.221149682276
 31
0.0
  0
LINE
  5
581
330
1E
100
AcDbEntity
  8
06
100
AcDbLine
 10
4950.904316012971
 20
6094.221149682276
 30
0.0
 11
4950.904316012971
 21
4703.371235131479
 31
0.0
  0
LINE
  5
5A5
330
1E
100
AcDbEntity
  8
03
 48
50.0
100
AcDbLine
 10
2118.90449911844
 20
6200.954548119774
 30
0.0
 11
2118.90449911844
 21
6110.221515893204
 31
0.0
  0
LINE
  5
5A7
330
1E
100
AcDbEntity
  8
03
 48
50.0
100
AcDbLine
 10
2086.904377048119
 20
6200.954548119774
 30
0.0
 11
2086.904377048119
 21
6110.221515893204
 31
0.0
  0
LINE
  5
5A8
330
1E
100
AcDbEntity
  8
03
 48
50.0
100
AcDbLine
 10
2114.904560153589
 20
6200.954548119774
 30
0.0
 11
2114.904560153589
 21
6110.221515893204
 31
0.0
  0
LINE
  5
67A
330
1E
100
AcDbEntity
  8
KAKURE
 48
50.0
100
AcDbLine
 10
2266.904071872338
 20
3085.220905541653
 30
0.0
 11
2266.904071872338
 21
3319.221149682275
 31
0.0
  0
LINE
  5
67B
330
1E
100
AcDbEntity
  8
06
100
AcDbLine
 10
2832.506336276651
 20
5994.221149682275
 30
0.0
 11
2274.904316012971
 21
5994.221149682275
 31
0.0
  0
LINE
  5
680
330
1E
100
AcDbEntity
  8
KAKURE
 48
50.0
100
AcDbLine
 10
2266.904071872338
 20
3059.221149682274
 30
0.0
 11
2270.904316012968
 21
3059.221149682274
 31
0.0
  0
LINE
  5
682
330
1E
100
AcDbEntity
  8
KAKURE
 48
50.0
100
AcDbLine
 10
2190.904010837189
 20
3085.220905541653
 30
0.0
 11
2190.904010837189
 21
3275.221210717434
 31
0.0
  0
LINE
  5
683
330
1E
100
AcDbEntity
  8
KAKURE
 48
50.0
100
AcDbLine
 10
2266.904071872338
 20
3059.221149682274
 30
0.0
 11
2266.904071872338
 21
3085.220905541653
 31
0.0
  0
LINE
  5
686
330
1E
100
AcDbEntity
  8
KAKURE
 48
50.0
100
AcDbLine
 10
2205.90401083719
 20
3275.221210717434
 30
0.0
 11
2205.90401083719
 21
3292.221332787743
 31
0.0
  0
LINE
  5
68E
330
1E
100
AcDbEntity
  8
03
100
AcDbLine
 10
1634.089433809696
 20
5424.22114969035
 30
0.0
 11
904.3657723117997
 21
5424.22114969035
 31
0.0
  0
LINE
  5
692
330
1E
100
AcDbEntity
  8
06
100
AcDbLine
 10
2048.904377048127
 20
4945.221088647115
 30
0.0
 11
2113.904316012968
 21
4945.221088647115
 31
0.0
  0
LINE
  5
693
330
1E
100
AcDbEntity
  8
06
100
AcDbLine
 10
2048.904377048127
 20
4945.220661222213
 30
0.0
 11
2048.904377048127
 21
4942.221088468304
 31
0.0
  0
LINE
  5
695
330
1E
100
AcDbEntity
  8
06
100
AcDbLine
 10
2110.904316012968
 20
4880.221393822893
 30
0.0
 11
2113.904316012968
 21
4880.221393822893
 31
0.0
  0
LINE
  5
6AE
330
1E
100
AcDbEntity
  8
KAKURE
 48
50.0
100
AcDbLine
 10
2190.904010837189
 20
3275.221210717434
 30
0.0
 11
2205.90401083719
 21
3275.221210717434
 31
0.0
  0
LINE
  5
6AF
330
1E
100
AcDbEntity
  8
KAKURE
 48
50.0
100
AcDbLine
 10
2190.904010837189
 20
3085.220905541653
 30
0.0
 11
2266.904071872338
 21
3085.220905541653
 31
0.0
  0
LINE
  5
6B1
330
1E
100
AcDbEntity
  8
KAKURE
 48
50.0
100
AcDbLine
 10
2205.90401083719
 20
3292.221332787743
 30
0.0
 11
2266.904071872338
 21
3292.221332787743
 31
0.0
  0
LINE
  5
6B3
330
1E
100
AcDbEntity
  8
KAKURE
 48
50.0
100
AcDbLine
 10
2270.904316012968
 20
3099.221149682275
 30
0.0
 11
2289.904254977807
 21
3099.221149682275
 31
0.0
  0
LINE
  5
6B4
330
1E
100
AcDbEntity
  8
KAKURE
 48
50.0
100
AcDbLine
 10
2270.904316012968
 20
3129.221149682274
 30
0.0
 11
2289.904254977807
 21
3129.221149682274
 31
0.0
  0
LINE
  5
6B6
330
1E
100
AcDbEntity
  8
KAKURE
 48
50.0
100
AcDbLine
 10
2289.904254977807
 20
3099.221149682275
 30
0.0
 11
2289.904254977807
 21
3129.221149682274
 31
0.0
  0
LINE
  5
6B9
330
1E
100
AcDbEntity
  8
CHUSIN
 48
10.0
100
AcDbLine
 10
2219.904254977806
 20
3133.221088647115
 30
0.0
 11
2219.904254977806
 21
3175.221210717435
 31
0.0
  0
LINE
  5
6BA
330
1E
100
AcDbEntity
  8
CHUSIN
 48
10.0
100
AcDbLine
 10
2198.904193942659
 20
3154.221149682275
 30
0.0
 11
2240.90401083719
 21
3154.221149682275
 31
0.0
  0
LINE
  5
6E1
330
1E
100
AcDbEntity
  8
06
100
AcDbLine
 10
4965.904468600869
 20
2927.804828881489
 30
0.0
 11
4965.904468600871
 21
4345.071064233051
 31
0.0
  0
LINE
  5
707
330
1E
100
AcDbEntity
  8
03
100
AcDbLine
 10
1725.967334782008
 20
2875.221210717434
 30
0.0
 11
1767.234882419217
 21
2875.221210717434
 31
0.0
  0
LINE
  5
708
330
1E
100
AcDbEntity
  8
03
100
AcDbLine
 10
2220.904286099392
 20
2836.221149712077
 30
0.0
 11
1751.978565280559
 21
2836.221027611955
 31
0.0
  0
LINE
  5
709
330
1E
100
AcDbEntity
  8
06
100
AcDbLine
 10
1751.978565280559
 20
2836.221027611955
 30
0.0
 11
1727.967334986655
 21
2836.221149652471
 31
0.0
  0
LINE
  5
70F
330
1E
100
AcDbEntity
  8
03
100
AcDbLine
 10
1721.404468600869
 20
2829.221149682275
 30
0.0
 11
2260.404468600869
 21
2829.221149682275
 31
0.0
  0
LINE
  5
737
330
1E
100
AcDbEntity
  8
06
100
AcDbLine
 10
1725.967334782008
 20
2838.22114959485
 30
0.0
 11
1725.967334782008
 21
2875.221210717434
 31
0.0
  0
LINE
  5
743
330
1E
100
AcDbEntity
  8
06
100
AcDbLine
 10
1722.967029636029
 20
2873.221149682274
 30
0.0
 11
1723.9667854954
 21
2873.221149682274
 31
0.0
  0
LINE
  5
746
330
1E
100
AcDbEntity
  8
06
100
AcDbLine
 10
2161.555103366489
 20
4273.979450463524
 30
0.0
 11
2146.271595065708
 21
4273.979450463524
 31
0.0
  0
LINE
  5
747
330
1E
100
AcDbEntity
  8
06
100
AcDbLine
 10
2146.271595065708
 20
2927.804828881493
 30
0.0
 11
2146.271595065708
 21
4273.979450463524
 31
0.0
  0
LINE
  5
74E
330
1E
100
AcDbEntity
  8
06
100
AcDbLine
 10
2146.271595065708
 20
4774.131122826801
 30
0.0
 11
2146.271595065708
 21
6121.042438744766
 31
0.0
  0
LINE
  5
750
330
1E
100
AcDbEntity
  8
CHUSIN
 48
15.0
100
AcDbLine
 10
4325.79872519265
 20
4624.220844506481
 30
0.0
 11
4890.904316012971
 21
4624.220844506479
 31
0.0
  0
LINE
  5
751
330
1E
100
AcDbEntity
  8
KAKURE
 48
50.0
100
AcDbLine
 10
4370.904163425069
 20
4609.22114968226
 30
0.0
 11
4840.904316012971
 21
4609.22114968226
 31
0.0
  0
LINE
  5
754
330
1E
100
AcDbEntity
  8
06
100
AcDbLine
 10
2161.271900241489
 20
4774.131122826801
 30
0.0
 11
2146.271595065708
 21
4774.131122826801
 31
0.0
  0
LINE
  5
758
330
1E
100
AcDbEntity
  8
03
100
AcDbLine
 10
1691.477588718049
 20
2851.573902367814
 30
0.0
 11
1691.308216159458
 21
2851.573902367814
 31
0.0
  0
LINE
  5
759
330
1E
100
AcDbEntity
  8
03
100
AcDbLine
 10
1696.314930026646
 20
2849.573932885391
 30
0.0
 11
1690.904468600869
 21
2849.573932885391
 31
0.0
  0
LINE
  5
75A
330
1E
100
AcDbEntity
  8
03
100
AcDbLine
 10
1678.771900241487
 20
2937.117267846333
 30
0.0
 11
1690.904468600869
 21
2937.117267846333
 31
0.0
  0
LINE
  5
75B
330
1E
100
AcDbEntity
  8
03
100
AcDbLine
 10
1696.314930026646
 20
2851.573902367814
 30
0.0
 11
1690.904468600869
 21
2851.573902367814
 31
0.0
  0
LINE
  5
75C
330
1E
100
AcDbEntity
  8
03
100
AcDbLine
 10
1710.904468600869
 20
2831.167560815083
 30
0.0
 11
1690.904468600869
 21
2831.167560815083
 31
0.0
  0
LINE
  5
760
330
1E
100
AcDbEntity
  8
03
100
AcDbLine
 10
1678.771900241487
 20
2829.573932885391
 30
0.0
 11
1678.771900241487
 21
2937.117267846333
 31
0.0
  0
LINE
  5
762
330
1E
100
AcDbEntity
  8
06
100
AcDbLine
 10
1753.978687350869
 20
2834.221058129532
 30
0.0
 11
1753.978687350869
 21
2833.221149682275
 31
0.0
  0
LINE
  5
764
330
1E
100
AcDbEntity
  8
03
100
AcDbLine
 10
2160.904316012966
 20
4494.221149682275
 30
0.0
 11
2160.904316012966
 21
4554.221149682273
 31
0.0
  0
LINE
  5
766
330
1E
100
AcDbEntity
  8
03
100
AcDbLine
 10
1708.904468600869
 20
2851.573902367814
 30
0.0
 11
1696.314930026646
 21
2851.573902367814
 31
0.0
  0
LINE
  5
767
330
1E
100
AcDbEntity
  8
03
100
AcDbLine
 10
1710.904468600869
 20
2849.573932885391
 30
0.0
 11
1696.314930026646
 21
2849.573932885391
 31
0.0
  0
LINE
  5
768
330
1E
100
AcDbEntity
  8
03
100
AcDbLine
 10
1710.904468600869
 20
2869.574085473283
 30
0.0
 11
1708.904468600869
 21
2869.574085473283
 31
0.0
  0
LINE
  5
77B
330
1E
100
AcDbEntity
  8
KAKURE
 48
50.0
100
AcDbLine
 10
4787.904285495389
 20
4754.220844506481
 30
0.0
 11
4834.90425497781
 21
4754.220844506479
 31
0.0
  0
LINE
  5
77C
330
1E
100
AcDbEntity
  8
KAKURE
 48
50.0
100
AcDbLine
 10
4775.90416342507
 20
4769.220844506484
 30
0.0
 11
4775.90416342507
 21
4639.22114968226
 31
0.0
  0
LINE
  5
77E
330
1E
100
AcDbEntity
  8
KAKURE
 48
50.0
100
AcDbLine
 10
4840.904316012971
 20
4748.220783471324
 30
0.0
 11
4840.904316012971
 21
4684.22114968226
 31
0.0
  0
LINE
  5
77F
330
1E
100
AcDbEntity
  8
KAKURE
 48
50.0
100
AcDbLine
 10
4370.904163425069
 20
4639.22114968226
 30
0.0
 11
4370.904163425069
 21
4609.22114968226
 31
0.0
  0
LINE
  5
780
330
1E
100
AcDbEntity
  8
KAKURE
 48
50.0
100
AcDbLine
 10
4370.904163425069
 20
4639.22114968226
 30
0.0
 11
4775.90416342507
 21
4639.22114968226
 31
0.0
  0
LINE
  5
781
330
1E
100
AcDbEntity
  8
KAKURE
 48
50.0
100
AcDbLine
 10
4775.90416342507
 20
4769.220844506484
 30
0.0
 11
4787.904285495389
 21
4769.220844506484
 31
0.0
  0
LINE
  5
782
330
1E
100
AcDbEntity
  8
KAKURE
 48
50.0
100
AcDbLine
 10
4787.904285495389
 20
4769.220844506484
 30
0.0
 11
4787.904285495389
 21
4754.220844506481
 31
0.0
  0
LINE
  5
784
330
1E
100
AcDbEntity
  8
06
100
AcDbLine
 10
2703.800891940709
 20
4703.371235131482
 30
0.0
 11
2275.271839206329
 21
4703.371235131482
 31
0.0
  0
LINE
  5
785
330
1E
100
AcDbEntity
  8
06
100
AcDbLine
 10
2703.800891940709
 20
4703.371235131482
 30
0.0
 11
2274.904316012967
 21
4703.371235131482
 31
0.0
  0
LINE
  5
786
330
1E
100
AcDbEntity
  8
CHUSIN
 48
15.0
100
AcDbLine
 10
5567.230175253917
 20
4524.221149682271
 30
0.0
 11
5301.877359677019
 21
4524.221149682271
 31
0.0
  0
LINE
  5
787
330
1E
100
AcDbEntity
  8
06
100
AcDbLine
 10
2669.512561862581
 20
4703.371235131482
 30
0.0
 11
4950.904316012971
 21
4703.371235131479
 31
0.0
  0
LINE
  5
79E
330
1E
100
AcDbEntity
  8
03
 48
60.0
100
AcDbLine
 10
1697.483020846959
 20
4985.220783471334
 30
0.0
 11
1697.483020846959
 21
4945.220783471333
 31
0.0
  0
LINE
  5
7A1
330
1E
100
AcDbEntity
  8
03
 48
60.0
100
AcDbLine
 10
1697.483020846959
 20
4343.221210717422
 30
0.0
 11
1697.483020846959
 21
4303.221210717423
 31
0.0
  0
LINE
  5
7A2
330
1E
100
AcDbEntity
  8
03
100
AcDbLine
 10
1626.904027802623
 20
3630.221210717435
 30
0.0
 11
1567.904088837775
 21
3630.221210717435
 31
0.0
  0
LINE
  5
7A5
330
1E
100
AcDbEntity
  8
03
100
AcDbLine
 10
1632.904088837777
 20
3781.948810815082
 30
0.0
 11
1626.904027802623
 21
3781.948810815082
 31
0.0
  0
LINE
  5
7CF
330
1E
100
AcDbEntity
  8
03
100
AcDbLine
 10
1710.904468600869
 20
2842.154346703755
 30
0.0
 11
1690.904468600869
 21
2842.154346703755
 31
0.0
  0
LINE
  5
7D6
330
1E
100
AcDbEntity
  8
06
100
AcDbLine
 10
2135.904436766033
 20
4826.237140893205
 30
0.0
 11
2135.904314725523
 21
6110.221515917054
 31
0.0
  0
LINE
  5
7D7
330
1E
100
AcDbEntity
  8
06
100
AcDbLine
 10
2122.904438083276
 20
4223.838459252585
 30
0.0
 11
2133.904499118436
 21
4223.838459252585
 31
0.0
  0
LINE
  5
7D9
330
1E
100
AcDbEntity
  8
06
100
AcDbLine
 10
2133.90431469572
 20
4826.237140893205
 30
0.0
 11
2133.90431469572
 21
6110.221515893204
 31
0.0
  0
LINE
  5
7DD
330
1E
100
AcDbEntity
  8
06
100
AcDbLine
 10
4950.904316012969
 20
2954.221149682271
 30
0.0
 11
2274.904316012967
 21
2954.221149682275
 31
0.0
  0
LINE
  5
7E3
330
1E
100
AcDbEntity
  8
06
100
AcDbLine
 10
2120.904316012966
 20
4273.838459252583
 30
0.0
 11
2133.904499118436
 21
4273.838459252583
 31
0.0
  0
LINE
  5
7E8
330
1E
100
AcDbEntity
  8
06
100
AcDbLine
 10
2135.904316012966
 20
4275.811211270243
 30
0.0
 11
2135.904316012966
 21
4772.737385051722
 31
0.0
  0
LINE
  5
7ED
330
1E
100
AcDbEntity
  8
06
100
AcDbLine
 10
2118.904499118436
 20
4273.838459252583
 30
0.0
 11
2118.904499118436
 21
4228.838459252584
 31
0.0
  0
LINE
  5
7EE
330
1E
100
AcDbEntity
  8
06
100
AcDbLine
 10
2120.904316012966
 20
4275.838276147115
 30
0.0
 11
2133.904316012967
 21
4275.838276147115
 31
0.0
  0
LINE
  5
7EF
330
1E
100
AcDbEntity
  8
06
100
AcDbLine
 10
2120.904316012966
 20
4273.838459252583
 30
0.0
 11
2120.904316012966
 21
4223.838459252585
 31
0.0
  0
LINE
  5
7F0
330
1E
100
AcDbEntity
  8
06
100
AcDbLine
 10
2122.904438083276
 20
4221.838337182274
 30
0.0
 11
2133.904316012967
 21
4221.838337182274
 31
0.0
  0
LINE
  5
7F1
330
1E
100
AcDbEntity
  8
06
100
AcDbLine
 10
2118.904499118436
 20
4228.838459252584
 30
0.0
 11
2120.904316012966
 21
4228.838459252584
 31
0.0
  0
LINE
  5
7F3
330
1E
100
AcDbEntity
  8
06
100
AcDbLine
 10
2122.904438083276
 20
4268.838459252584
 30
0.0
 11
2122.904438083276
 21
4223.838459252585
 31
0.0
  0
LINE
  5
7F4
330
1E
100
AcDbEntity
  8
06
100
AcDbLine
 10
2120.904316012966
 20
4268.838459252584
 30
0.0
 11
2122.904438083276
 21
4268.838459252584
 31
0.0
  0
LINE
  5
7F8
330
1E
100
AcDbEntity
  8
03
 48
60.0
100
AcDbLine
 10
1767.234882419217
 20
2839.775806664693
 30
0.0
 11
1807.234882419217
 21
2839.775806664693
 31
0.0
  0
LINE
  5
7FD
330
1E
100
AcDbEntity
  8
03
 48
60.0
100
AcDbLine
 10
2005.904316012967
 20
2840.669971703762
 30
0.0
 11
1905.904316012967
 21
2840.669971703762
 31
0.0
  0
LINE
  5
7FE
330
1E
100
AcDbEntity
  8
06
100
AcDbLine
 10
2218.904468600869
 20
2834.221149682274
 30
0.0
 11
2218.904468600869
 21
2833.221241235012
 31
0.0
  0
LINE
  5
801
330
1E
100
AcDbEntity
  8
06
100
AcDbLine
 10
2258.904469204852
 20
2873.221271782396
 30
0.0
 11
2257.904408169701
 21
2873.221271782396
 31
0.0
  0
LINE
  5
808
330
1E
100
AcDbEntity
  8
06
100
AcDbLine
 10
2271.271900241486
 20
2927.804828881493
 30
0.0
 11
2146.271595065708
 21
2927.804828881493
 31
0.0
  0
LINE
  5
80B
330
1E
100
AcDbEntity
  8
06
100
AcDbLine
 10
4950.904316012969
 20
2954.221149682271
 30
0.0
 11
4965.904468600869
 21
2954.221149682271
 31
0.0
  0
LINE
  5
80C
330
1E
100
AcDbEntity
  8
06
100
AcDbLine
 10
2270.904316012968
 20
2954.221149682275
 30
0.0
 11
2164.078296725869
 21
2954.221149682275
 31
0.0
  0
LINE
  5
80E
330
1E
100
AcDbEntity
  8
06
100
AcDbLine
 10
2274.904316012967
 20
2927.804828881493
 30
0.0
 11
4965.904468600869
 21
2927.804828881489
 31
0.0
  0
LINE
  5
810
330
1E
100
AcDbEntity
  8
06
100
AcDbLine
 10
2258.904468600869
 20
2904.193226098283
 30
0.0
 11
2256.90434653056
 21
2904.193226098283
 31
0.0
  0
LINE
  5
816
330
1E
100
AcDbEntity
  8
03
100
AcDbLine
 10
1678.771900241487
 20
2829.573932885391
 30
0.0
 11
1678.771900241487
 21
1374.63924050258
 31
0.0
  0
LINE
  5
824
330
1E
100
AcDbEntity
  8
03
 48
50.0
100
AcDbLine
 10
2118.90449911844
 20
6200.954548119774
 30
0.0
 11
2086.904377048119
 21
6200.954548119774
 31
0.0
  0
LINE
  5
82D
330
1E
100
AcDbEntity
  8
06
100
AcDbLine
 10
2270.904316012971
 20
6094.221149682276
 30
0.0
 11
2146.271595065708
 21
6094.221149682276
 31
0.0
  0
LINE
  5
82E
330
1E
100
AcDbEntity
  8
06
100
AcDbLine
 10
2274.904316012971
 20
6121.042438744765
 30
0.0
 11
4967.904438083291
 21
6121.042438744741
 31
0.0
  0
LINE
  5
830
330
1E
100
AcDbEntity
  8
06
100
AcDbLine
 10
2270.904316012971
 20
6121.042438744766
 30
0.0
 11
2146.271595065708
 21
6121.042438744766
 31
0.0
  0
LINE
  5
83C
330
1E
100
AcDbEntity
  8
06
100
AcDbLine
 10
2178.904316012967
 20
4273.979450463524
 30
0.0
 11
2178.904316012967
 21
4774.131122826801
 31
0.0
  0
LINE
  5
841
330
1E
100
AcDbEntity
  8
06
100
AcDbLine
 10
2178.904316012967
 20
4774.131122826801
 30
0.0
 11
2161.271900241489
 21
4774.131122826801
 31
0.0
  0
LINE
  5
846
330
1E
100
AcDbEntity
  8
06
100
AcDbLine
 10
2135.904316012966
 20
2938.194328945977
 30
0.0
 11
2135.904316012966
 21
4221.838337182274
 31
0.0
  0
LINE
  5
848
330
1E
100
AcDbEntity
  8
03
 48
60.0
100
AcDbLine
 10
1767.234882419217
 20
3180.273090600243
 30
0.0
 11
1767.234882419217
 21
2839.775806664693
 31
0.0
  0
LINE
  5
849
330
1E
100
AcDbEntity
  8
03
 48
60.0
100
AcDbLine
 10
1773.235248630158
 20
3180.273090600243
 30
0.0
 11
1773.235248630158
 21
2839.775806664693
 31
0.0
  0
LINE
  5
85A
330
1E
100
AcDbEntity
  8
KAKURE
 48
50.0
100
AcDbLine
 10
2161.271900241489
 20
4499.221149682274
 30
0.0
 11
2107.904438083276
 21
4499.221149682274
 31
0.0
  0
LINE
  5
85B
330
1E
100
AcDbEntity
  8
KAKURE
 48
50.0
100
AcDbLine
 10
2161.271900241489
 20
4549.221149682273
 30
0.0
 11
2107.904438083276
 21
4549.221149682273
 31
0.0
  0
LINE
  5
85E
330
1E
100
AcDbEntity
  8
06
100
AcDbLine
 10
4755.904468600869
 20
3049.221149682271
 30
0.0
 11
4755.904468600871
 21
4345.071064233051
 31
0.0
  0
LINE
  5
85F
330
1E
100
AcDbEntity
  8
06
100
AcDbLine
 10
4740.904468600871
 20
5994.221149682275
 30
0.0
 11
4740.904468600871
 21
4703.371235131482
 31
0.0
  0
LINE
  5
860
330
1E
100
AcDbEntity
  8
06
100
AcDbLine
 10
4950.904316012971
 20
4345.071064233051
 30
0.0
 11
4965.904468600871
 21
4345.071064233051
 31
0.0
  0
LINE
  5
861
330
1E
100
AcDbEntity
  8
06
100
AcDbLine
 10
4740.904468600869
 20
3049.221149682271
 30
0.0
 11
4740.904468600871
 21
4345.071064233051
 31
0.0
  0
LINE
  5
862
330
1E
100
AcDbEntity
  8
KAKURE
100
AcDbLine
 10
4850.904316012968
 20
4414.221149682271
 30
0.0
 11
4872.904438083291
 21
4414.221149682271
 31
0.0
  0
LINE
  5
863
330
1E
100
AcDbEntity
  8
KAKURE
100
AcDbLine
 10
4850.904316012968
 20
4434.221149682271
 30
0.0
 11
4866.904377048129
 21
4434.221149682271
 31
0.0
  0
LINE
  5
864
330
1E
100
AcDbEntity
  8
06
100
AcDbLine
 10
4755.904468600871
 20
5994.221149682275
 30
0.0
 11
4755.904468600871
 21
4703.371235131482
 31
0.0
  0
LINE
  5
874
330
1E
100
AcDbEntity
  8
06
100
AcDbLine
 10
4840.904316012971
 20
4455.071064233048
 30
0.0
 11
2274.904316012967
 21
4455.071064233051
 31
0.0
  0
LINE
  5
875
330
1E
100
AcDbEntity
  8
06
100
AcDbLine
 10
4950.904316012971
 20
4345.071064233051
 30
0.0
 11
2274.904316012967
 21
4345.071064233051
 31
0.0
  0
LINE
  5
876
330
1E
100
AcDbEntity
  8
CHUSIN
 48
15.0
100
AcDbLine
 10
4324.270718595855
 20
4424.221149682271
 30
0.0
 11
4890.904468600871
 21
4424.221149682271
 31
0.0
  0
LINE
  5
879
330
1E
100
AcDbEntity
  8
KAKURE
 48
50.0
100
AcDbLine
 10
4370.904316012971
 20
4409.221454858061
 30
0.0
 11
4775.904316012971
 21
4409.221454858061
 31
0.0
  0
LINE
  5
87A
330
1E
100
AcDbEntity
  8
KAKURE
 48
50.0
100
AcDbLine
 10
4775.904316012971
 20
4279.22114968227
 30
0.0
 11
4775.904316012971
 21
4409.221454858061
 31
0.0
  0
LINE
  5
87B
330
1E
100
AcDbEntity
  8
KAKURE
 48
50.0
100
AcDbLine
 10
4370.904316012971
 20
4409.221454858061
 30
0.0
 11
4370.904316012971
 21
4439.22114968227
 31
0.0
  0
LINE
  5
87C
330
1E
100
AcDbEntity
  8
KAKURE
 48
50.0
100
AcDbLine
 10
4370.904316012971
 20
4439.22114968227
 30
0.0
 11
4840.904468600871
 21
4439.22114968227
 31
0.0
  0
LINE
  5
87D
330
1E
100
AcDbEntity
  8
KAKURE
 48
50.0
100
AcDbLine
 10
4775.904316012971
 20
4279.22114968227
 30
0.0
 11
4787.90443808329
 21
4279.22114968227
 31
0.0
  0
LINE
  5
87E
330
1E
100
AcDbEntity
  8
KAKURE
 48
50.0
100
AcDbLine
 10
4840.904468600871
 20
4300.22121071743
 30
0.0
 11
4840.904468600871
 21
4364.221454858062
 31
0.0
  0
LINE
  5
87F
330
1E
100
AcDbEntity
  8
KAKURE
 48
50.0
100
AcDbLine
 10
4787.90443808329
 20
4294.221149682271
 30
0.0
 11
4834.904407565711
 21
4294.221149682271
 31
0.0
  0
LINE
  5
880
330
1E
100
AcDbEntity
  8
KAKURE
 48
50.0
100
AcDbLine
 10
4787.90443808329
 20
4279.22114968227
 30
0.0
 11
4787.90443808329
 21
4294.221149682271
 31
0.0
  0
LINE
  5
882
330
1E
100
AcDbEntity
  8
03
 48
60.0
100
AcDbLine
 10
1697.483020846959
 20
4945.220783471333
 30
0.0
 11
2048.904377048127
 21
4945.220783471333
 31
0.0
  0
LINE
  5
885
330
1E
100
AcDbEntity
  8
06
100
AcDbLine
 10
4840.904316012971
 20
4593.371235131479
 30
0.0
 11
2274.904316012967
 21
4593.371235131481
 31
0.0
  0
LINE
  5
88A
330
1E
100
AcDbEntity
  8
03
100
AcDbLine
 10
1916.058887546178
 20
3624.221149682274
 30
0.0
 11
1732.904084373713
 21
3624.221149682274
 31
0.0
  0
LINE
  5
88C
330
1E
100
AcDbEntity
  8
03
 48
60.0
100
AcDbLine
 10
1697.483020846959
 20
4338.221210717422
 30
0.0
 11
2113.904316012968
 21
4338.221210717422
 31
0.0
  0
LINE
  5
88D
330
1E
100
AcDbEntity
  8
03
 48
60.0
100
AcDbLine
 10
1697.483020846959
 20
4303.221210717423
 30
0.0
 11
2113.904316012968
 21
4303.221210717423
 31
0.0
  0
LINE
  5
892
330
1E
100
AcDbEntity
  8
KAKURE
 48
50.0
100
AcDbLine
 10
2235.271839206329
 20
4643.371540307263
 30
0.0
 11
2235.271839206329
 21
4623.371235131481
 31
0.0
  0
LINE
  5
893
330
1E
100
AcDbEntity
  8
KAKURE
 48
50.0
100
AcDbLine
 10
2264.90394980203
 20
4698.371540307262
 30
0.0
 11
2270.904316012968
 21
4698.371540307262
 31
0.0
  0
LINE
  5
894
330
1E
100
AcDbEntity
  8
KAKURE
 48
50.0
100
AcDbLine
 10
2259.655536716099
 20
4730.871235131481
 30
0.0
 11
2264.90394980203
 21
4730.871235131481
 31
0.0
  0
LINE
  5
895
330
1E
100
AcDbEntity
  8
KAKURE
 48
50.0
100
AcDbLine
 10
2264.90394980203
 20
4735.871540307264
 30
0.0
 11
2270.904316012968
 21
4741.182819604143
 31
0.0
  0
LINE
  5
896
330
1E
100
AcDbEntity
  8
KAKURE
 48
50.0
100
AcDbLine
 10
2264.90394980203
 20
4730.871235131481
 30
0.0
 11
2270.904316012968
 21
4725.559650658833
 31
0.0
  0
LINE
  5
897
330
1E
100
AcDbEntity
  8
KAKURE
 48
50.0
100
AcDbLine
 10
2259.655486854474
 20
4735.871236370683
 30
0.0
 11
2264.903899940405
 21
4735.871236370683
 31
0.0
  0
LINE
  5
899
330
1E
100
AcDbEntity
  8
KAKURE
 48
50.0
100
AcDbLine
 10
2230.90401083719
 20
4733.371235131481
 30
0.0
 11
2258.568195407498
 21
4643.371540307263
 31
0.0
  0
LINE
  5
89A
330
1E
100
AcDbEntity
  8
CHUSIN
 48
5.0
100
AcDbLine
 10
2220.92125326883
 20
4633.371235131481
 30
0.0
 11
2396.258472507108
 21
4633.371235131481
 31
0.0
  0
LINE
  5
89B
330
1E
100
AcDbEntity
  8
KAKURE
 48
50.0
100
AcDbLine
 10
2264.90394980203
 20
4773.371540307262
 30
0.0
 11
2270.904316012971
 21
4773.371540307262
 31
0.0
  0
LINE
  5
89C
330
1E
100
AcDbEntity
  8
KAKURE
 48
50.0
100
AcDbLine
 10
2294.904316012967
 20
4643.371540307263
 30
0.0
 11
2294.904316012967
 21
4623.371235131481
 31
0.0
  0
LINE
  5
89D
330
1E
100
AcDbEntity
  8
KAKURE
 48
50.0
100
AcDbLine
 10
2284.904316012966
 20
4643.371540307263
 30
0.0
 11
2294.904316012967
 21
4643.371540307263
 31
0.0
  0
LINE
  5
89E
330
1E
100
AcDbEntity
  8
KAKURE
 48
50.0
100
AcDbLine
 10
2235.271839206329
 20
4643.371540307263
 30
0.0
 11
2265.271534030549
 21
4643.371540307263
 31
0.0
  0
LINE
  5
89F
330
1E
100
AcDbEntity
  8
KAKURE
 48
50.0
100
AcDbLine
 10
2235.271839206329
 20
4623.371235131481
 30
0.0
 11
2265.271534030549
 21
4623.371235131481
 31
0.0
  0
LINE
  5
8A0
330
1E
100
AcDbEntity
  8
KAKURE
 48
50.0
100
AcDbLine
 10
2274.904316012967
 20
4773.371540307262
 30
0.0
 11
2284.904316012966
 21
4773.371540307262
 31
0.0
  0
LINE
  5
8A1
330
1E
100
AcDbEntity
  8
KAKURE
 48
50.0
100
AcDbLine
 10
2257.312091891877
 20
4727.678791283834
 30
0.0
 11
2264.90394980203
 21
4698.371540307262
 31
0.0
  0
LINE
  5
8A2
330
1E
100
AcDbEntity
  8
KAKURE
 48
50.0
100
AcDbLine
 10
2284.904316012966
 20
4773.371540307262
 30
0.0
 11
2284.904316012966
 21
4623.371235131481
 31
0.0
  0
LINE
  5
8A3
330
1E
100
AcDbEntity
  8
KAKURE
 48
50.0
100
AcDbLine
 10
2274.904316012967
 20
4623.371235131481
 30
0.0
 11
2294.904316012967
 21
4623.371235131481
 31
0.0
  0
LINE
  5
8A8
330
1E
100
AcDbEntity
  8
02
100
AcDbLine
 10
5120.90439230692
 20
4749.221454858047
 30
0.0
 11
5120.90439230692
 21
7769.949909447892
 31
0.0
  0
LINE
  5
8AB
330
1E
100
AcDbEntity
  8
02
100
AcDbLine
 10
5320.904392306919
 20
1311.093097924455
 30
0.0
 11
5320.90439230692
 21
7769.584233299723
 31
0.0
  0
LINE
  5
8AC
330
1E
100
AcDbEntity
  8
02
100
AcDbLine
 10
5120.904392306917
 20
1311.093097924455
 30
0.0
 11
5120.90439230692
 21
4749.221454858047
 31
0.0
  0
LINE
  5
8B8
330
1E
100
AcDbEntity
  8
SAISEN
100
AcDbLine
 10
5120.90439230692
 20
5566.219745873671
 30
0.0
 11
5320.904392306919
 21
5366.219280295787
 31
0.0
  0
LINE
  5
8BA
330
1E
100
AcDbEntity
  8
SAISEN
100
AcDbLine
 10
5120.90439230692
 20
7157.97176003383
 30
0.0
 11
5320.90439230692
 21
6957.97168407111
 31
0.0
  0
LINE
  5
8BC
330
1E
100
AcDbEntity
  8
SAISEN
100
AcDbLine
 10
5120.904392306917
 20
7073.394123315079
 30
0.0
 11
5320.90439230692
 21
6873.393812186468
 31
0.0
  0
LINE
  5
8BD
330
1E
100
AcDbEntity
  8
SAISEN
100
AcDbLine
 10
5120.904392306917
 20
7099.237018822893
 30
0.0
 11
5320.90439230692
 21
6899.236788237859
 31
0.0
  0
LINE
  5
8BE
330
1E
100
AcDbEntity
  8
SAISEN
100
AcDbLine
 10
5120.90439230692
 20
5591.592975854141
 30
0.0
 11
5320.904392306919
 21
5391.59290021
 31
0.0
  0
LINE
  5
8C4
330
1E
100
AcDbEntity
  8
SAISEN
100
AcDbLine
 10
5120.90439230692
 20
5637.264972924452
 30
0.0
 11
5320.904392306919
 21
5437.265128117081
 31
0.0
  0
LINE
  5
8C7
330
1E
100
AcDbEntity
  8
KAKURE
 48
50.0
100
AcDbLine
 10
2264.90394980203
 20
4350.071064233051
 30
0.0
 11
2270.904316012968
 21
4350.071064233051
 31
0.0
  0
LINE
  5
8C8
330
1E
100
AcDbEntity
  8
KAKURE
 48
50.0
100
AcDbLine
 10
2257.312091891877
 20
4320.76320290493
 30
0.0
 11
2264.90394980203
 21
4350.071064233051
 31
0.0
  0
LINE
  5
8C9
330
1E
100
AcDbEntity
  8
KAKURE
 48
50.0
100
AcDbLine
 10
2264.90394980203
 20
4312.570759057273
 30
0.0
 11
2270.904316012968
 21
4307.259174584614
 31
0.0
  0
LINE
  5
8CA
330
1E
100
AcDbEntity
  8
KAKURE
 48
50.0
100
AcDbLine
 10
2264.90394980203
 20
4317.571064233051
 30
0.0
 11
2270.904316012968
 21
4322.882648705712
 31
0.0
  0
LINE
  5
8CB
330
1E
100
AcDbEntity
  8
KAKURE
 48
50.0
100
AcDbLine
 10
2230.536426608667
 20
4315.071064233051
 30
0.0
 11
2258.200611178978
 21
4405.071064233051
 31
0.0
  0
LINE
  5
8CC
330
1E
100
AcDbEntity
  8
CHUSIN
 48
5.0
100
AcDbLine
 10
2220.92125326883
 20
4415.071064233051
 30
0.0
 11
2393.5195198704
 21
4415.071064233051
 31
0.0
  0
LINE
  5
8CD
330
1E
100
AcDbEntity
  8
KAKURE
 48
50.0
100
AcDbLine
 10
2264.90394980203
 20
4275.560261010393
 30
0.0
 11
2264.90394980203
 21
4494.221149682275
 31
0.0
  0
LINE
  5
8CF
330
1E
100
AcDbEntity
  8
KAKURE
 48
50.0
100
AcDbLine
 10
2259.655536716099
 20
4317.571064233051
 30
0.0
 11
2264.90394980203
 21
4317.571064233051
 31
0.0
  0
LINE
  5
8D0
330
1E
100
AcDbEntity
  8
KAKURE
 48
50.0
100
AcDbLine
 10
2284.904316012966
 20
4275.070759057274
 30
0.0
 11
2284.904316012966
 21
4425.071064233051
 31
0.0
  0
LINE
  5
8D1
330
1E
100
AcDbEntity
  8
KAKURE
 48
50.0
100
AcDbLine
 10
2284.904316012966
 20
4405.071064233051
 30
0.0
 11
2294.904316012967
 21
4405.071064233051
 31
0.0
  0
LINE
  5
8D2
330
1E
100
AcDbEntity
  8
KAKURE
 48
50.0
100
AcDbLine
 10
2294.904316012967
 20
4405.071064233051
 30
0.0
 11
2294.904316012967
 21
4425.071064233051
 31
0.0
  0
LINE
  5
8D3
330
1E
100
AcDbEntity
  8
KAKURE
 48
50.0
100
AcDbLine
 10
2234.904254977807
 20
4405.071064233051
 30
0.0
 11
2234.904254977807
 21
4425.071064233051
 31
0.0
  0
LINE
  5
8D4
330
1E
100
AcDbEntity
  8
KAKURE
 48
50.0
100
AcDbLine
 10
2234.904254977807
 20
4425.071064233051
 30
0.0
 11
2264.90394980203
 21
4425.071064233051
 31
0.0
  0
LINE
  5
8D5
330
1E
100
AcDbEntity
  8
KAKURE
 48
50.0
100
AcDbLine
 10
2259.655536716099
 20
4312.570759057273
 30
0.0
 11
2264.90394980203
 21
4312.570759057273
 31
0.0
  0
LINE
  5
8D6
330
1E
100
AcDbEntity
  8
KAKURE
 48
50.0
100
AcDbLine
 10
2234.904254977807
 20
4405.071064233051
 30
0.0
 11
2264.90394980203
 21
4405.071064233051
 31
0.0
  0
LINE
  5
8D7
330
1E
100
AcDbEntity
  8
KAKURE
 48
50.0
100
AcDbLine
 10
2274.904316012967
 20
4425.071064233051
 30
0.0
 11
2294.904316012967
 21
4425.071064233051
 31
0.0
  0
LINE
  5
8DB
330
1E
100
AcDbEntity
  8
03
 48
50.0
100
AcDbLine
 10
4933.904438083291
 20
4374.221149682271
 30
0.0
 11
4946.904438083291
 21
4374.221149682271
 31
0.0
  0
LINE
  5
8DC
330
1E
100
AcDbEntity
  8
03
 48
50.0
100
AcDbLine
 10
4933.904438083291
 20
4674.221149682271
 30
0.0
 11
4946.904438083291
 21
4674.221149682271
 31
0.0
  0
LINE
  5
8E2
330
1E
100
AcDbEntity
  8
KAKURE
 48
50.0
100
AcDbLine
 10
2264.90394980203
 20
4275.070759057274
 30
0.0
 11
2270.904316012968
 21
4275.070759057274
 31
0.0
  0
LINE
  5
8E5
330
1E
100
AcDbEntity
  8
KAKURE
 48
50.0
100
AcDbLine
 10
2274.904316012967
 20
4275.070759057274
 30
0.0
 11
2284.904316012966
 21
4275.070759057274
 31
0.0
  0
LINE
  5
90D
330
1E
100
AcDbEntity
  8
KAKURE
 48
60.0
100
AcDbLine
 10
1626.904070040165
 20
5418.221088655202
 30
0.0
 11
1626.904070040165
 21
5524.221149690352
 31
0.0
  0
LINE
  5
90F
330
1E
100
AcDbEntity
  8
03
100
AcDbLine
 10
1632.904131075329
 20
5274.31880594035
 30
0.0
 11
1626.904070040165
 21
5274.31880594035
 31
0.0
  0
LINE
  5
910
330
1E
100
AcDbEntity
  8
KAKURE
 48
60.0
100
AcDbLine
 10
1567.904131075328
 20
5424.22114969035
 30
0.0
 11
1567.904131075328
 21
5524.221149690352
 31
0.0
  0
LINE
  5
911
330
1E
100
AcDbEntity
  8
03
100
AcDbLine
 10
1732.904108430697
 20
4474.221149861405
 30
0.0
 11
1354.365772311798
 21
4474.221148966408
 31
0.0
  0
LINE
  5
914
330
1E
100
AcDbEntity
  8
03
100
AcDbLine
 10
1732.904111260932
 20
4574.221149810619
 30
0.0
 11
1354.365772311798
 21
4574.221149169369
 31
0.0
  0
LINE
  5
915
330
1E
100
AcDbEntity
  8
03
100
AcDbLine
 10
1626.904070040165
 20
5418.221088655202
 30
0.0
 11
1567.904131075328
 21
5418.221088655202
 31
0.0
  0
LINE
  5
916
330
1E
100
AcDbEntity
  8
KAKURE
 48
60.0
100
AcDbLine
 10
1626.904027802623
 20
3630.221210717435
 30
0.0
 11
1626.904027802623
 21
3524.221150621157
 31
0.0
  0
LINE
  5
918
330
1E
100
AcDbEntity
  8
03
100
AcDbLine
 10
1626.904027802623
 20
3781.948810815082
 30
0.0
 11
1626.904027802623
 21
3630.221210717435
 31
0.0
  0
LINE
  5
919
330
1E
100
AcDbEntity
  8
KAKURE
 48
60.0
100
AcDbLine
 10
1567.904088837775
 20
3624.220844346401
 30
0.0
 11
1567.904088837775
 21
3524.221150572106
 31
0.0
  0
LINE
  5
91A
330
1E
100
AcDbEntity
  8
03
100
AcDbLine
 10
1567.904131075328
 20
5418.221088655202
 30
0.0
 11
1567.904131075328
 21
5424.22114969035
 31
0.0
  0
LINE
  5
91B
330
1E
100
AcDbEntity
  8
03
100
AcDbLine
 10
1626.904070040165
 20
5274.31880594035
 30
0.0
 11
1626.904070040165
 21
5418.221088655202
 31
0.0
  0
LINE
  5
947
330
1E
100
AcDbEntity
  8
03
 48
60.0
100
AcDbLine
 10
1697.483020846959
 20
4343.221210717422
 30
0.0
 11
2048.904377048127
 21
4343.221210717422
 31
0.0
  0
ARC
  5
976
330
1E
100
AcDbEntity
  8
06
100
AcDbCircle
 10
4973.404468600869
 20
4671.221149712073
 30
0.0
 40
2.00000002980232
100
AcDbArc
 50
180.0000025044781
 51
270.0000050089558
  0
ARC
  5
977
330
1E
100
AcDbEntity
  8
03
100
AcDbCircle
 10
1911.904315655324
 20
5765.562092065085
 30
0.0
 40
5.99999964237213
100
AcDbArc
 50
180.0000025044781
 51
270.0000050089558
  0
ARC
  5
978
330
1E
100
AcDbEntity
  8
06
100
AcDbCircle
 10
4973.404468600869
 20
4697.221149652468
 30
0.0
 40
2.00000002980232
100
AcDbArc
 50
90.0
 51
180.0000025044781
  0
ARC
  5
979
330
1E
100
AcDbEntity
  8
06
100
AcDbCircle
 10
5085.404438083291
 20
4735.221332787729
 30
0.0
 40
2.00000002980232
100
AcDbArc
 50
90.0
 51
180.0000025044781
  0
ARC
  5
97A
330
1E
100
AcDbEntity
  8
06
100
AcDbCircle
 10
5081.404422824499
 20
4704.221271752579
 30
0.0
 40
2.00000002980232
100
AcDbArc
 50
270.0000050089558
 51
0.0000006832449806
  0
ARC
  5
97B
330
1E
100
AcDbEntity
  8
03
100
AcDbCircle
 10
1911.904315655324
 20
5853.561969994764
 30
0.0
 40
5.99999964237213
100
AcDbArc
 50
89.99998269715595
 51
179.9999820139106
  0
ARC
  5
97C
330
1E
100
AcDbEntity
  8
03
100
AcDbCircle
 10
1999.904254977818
 20
3283.150287865861
 30
0.0
 40
5.99999964237213
100
AcDbArc
 50
0.0000006832449806
 51
89.99998269715595
  0
ARC
  5
97D
330
1E
100
AcDbEntity
  8
03
100
AcDbCircle
 10
1911.904071872345
 20
3283.150287865861
 30
0.0
 40
5.99999964237213
100
AcDbArc
 50
89.99998269715595
 51
179.9999820139106
  0
ARC
  5
97E
330
1E
100
AcDbEntity
  8
03
100
AcDbCircle
 10
1999.904254977818
 20
3195.150409936173
 30
0.0
 40
5.99999964237213
100
AcDbArc
 50
270.0000050089558
 51
0.0000006832449806
  0
ARC
  5
97F
330
1E
100
AcDbEntity
  8
03
100
AcDbCircle
 10
1999.90431637058
 20
5853.561969994764
 30
0.0
 40
5.99999964237213
100
AcDbArc
 50
0.0000006832449806
 51
89.99998269715595
  0
ARC
  5
980
330
1E
100
AcDbEntity
  8
03
100
AcDbCircle
 10
1999.90431637058
 20
5765.562092065085
 30
0.0
 40
5.99999964237213
100
AcDbArc
 50
270.0000050089558
 51
0.0000006832449806
  0
ARC
  5
981
330
1E
100
AcDbEntity
  8
06
100
AcDbCircle
 10
5050.40436178934
 20
4700.221332787729
 30
0.0
 40
2.00000002980232
100
AcDbArc
 50
90.0
 51
180.0000025044781
  0
ARC
  5
982
330
1E
100
AcDbEntity
  8
06
100
AcDbCircle
 10
2122.904438083276
 20
4824.23732399867
 30
0.0
 40
2.00000002980232
100
AcDbArc
 50
89.99998269715595
 51
179.9999820139106
  0
ARC
  5
984
330
1E
100
AcDbEntity
  8
06
100
AcDbCircle
 10
2120.904316012966
 20
4774.237018822891
 30
0.0
 40
2.00000002980232
100
AcDbArc
 50
180.0000025044781
 51
270.0000050089558
  0
ARC
  5
985
330
1E
100
AcDbEntity
  8
06
100
AcDbCircle
 10
2134.404316102374
 20
4772.737385033834
 30
0.0
 40
1.49999991059303
100
AcDbArc
 50
0.0000006832449806
 51
90.0
  0
ARC
  5
986
330
1E
100
AcDbEntity
  8
06
100
AcDbCircle
 10
2133.90431469572
 20
4826.237140893201
 30
0.0
 40
2.00000002980232
100
AcDbArc
 50
270.0000050089558
 51
0.0000006832449806
  0
ARC
  5
988
330
1E
100
AcDbEntity
  8
06
100
AcDbCircle
 10
4973.404346560352
 20
4377.277179955701
 30
0.0
 40
2.00000002980232
100
AcDbArc
 50
90.00001001791295
 51
180.0000025044781
  0
ARC
  5
98A
330
1E
100
AcDbEntity
  8
06
100
AcDbCircle
 10
5085.404438083291
 20
4313.220966576799
 30
0.0
 40
2.00000002980232
100
AcDbArc
 50
180.0000025044781
 51
270.0000050089558
  0
ARC
  5
98B
330
1E
100
AcDbEntity
  8
06
100
AcDbCircle
 10
5050.40436178934
 20
4348.22127175258
 30
0.0
 40
2.00000002980232
100
AcDbArc
 50
180.0000025044781
 51
270.0000050089558
  0
ARC
  5
98C
330
1E
100
AcDbEntity
  8
06
100
AcDbCircle
 10
5081.404422824499
 20
4344.221027611946
 30
0.0
 40
2.00000002980232
100
AcDbArc
 50
0.0000006832449806
 51
90.0
  0
ARC
  5
98D
330
1E
100
AcDbEntity
  8
03
100
AcDbCircle
 10
1911.904071872345
 20
3195.150409936173
 30
0.0
 40
5.99999964237213
100
AcDbArc
 50
180.0000025044781
 51
270.0000050089558
  0
ARC
  5
9AD
330
1E
100
AcDbEntity
  8
06
100
AcDbCircle
 10
2133.904499118436
 20
4221.838337182274
 30
0.0
 40
2.00000002980232
100
AcDbArc
 50
0.0000006832449806
 51
89.99998269715595
  0
ARC
  5
9B2
330
1E
100
AcDbEntity
  8
KAKURE
 48
50.0
100
AcDbCircle
 10
4834.90425497781
 20
4748.220783471319
 30
0.0
 40
5.99999964237213
100
AcDbArc
 50
0.0000006832449806
 51
89.99998269715595
  0
ARC
  5
9BD
330
1E
100
AcDbEntity
  8
06
100
AcDbCircle
 10
2133.904499118436
 20
4275.838276147111
 30
0.0
 40
2.00000002980232
100
AcDbArc
 50
270.0000050089558
 51
0.0000006832449806
  0
ARC
  5
9CD
330
1E
100
AcDbEntity
  8
06
100
AcDbCircle
 10
2120.904316012966
 20
4273.838459252579
 30
0.0
 40
2.00000002980232
100
AcDbArc
 50
89.99998269715595
 51
179.9999820139106
  0
ARC
  5
9CE
330
1E
100
AcDbEntity
  8
06
100
AcDbCircle
 10
2122.904438083276
 20
4223.838459252578
 30
0.0
 40
2.00000002980232
100
AcDbArc
 50
180.0000025044781
 51
270.0000050089558
  0
CIRCLE
  5
9CF
330
1E
100
AcDbEntity
  8
03
100
AcDbCircle
 10
1925.904316012967
 20
2860.669971703762
 30
0.0
 40
5.99999964237213
  0
ARC
  5
9D2
330
1E
100
AcDbEntity
  8
06
100
AcDbCircle
 10
2257.904407565719
 20
2871.22127175259
 30
0.0
 40
2.00000002980232
100
AcDbArc
 50
89.99998269715595
 51
179.9999820139106
  0
ARC
  5
9D3
330
1E
100
AcDbEntity
  8
06
100
AcDbCircle
 10
2253.904773776655
 20
2838.221241235013
 30
0.0
 40
2.00000002980232
100
AcDbArc
 50
270.0000050089558
 51
0.0000006832449806
  0
ARC
  5
9D4
330
1E
100
AcDbEntity
  8
06
100
AcDbCircle
 10
2220.904285495407
 20
2834.221149682271
 30
0.0
 40
2.00000002980232
100
AcDbArc
 50
89.99998269715595
 51
179.9999820139106
  0
ARC
  5
9D6
330
1E
100
AcDbEntity
  8
03
100
AcDbCircle
 10
4742.904438083288
 20
4499.220966576809
 30
0.0
 40
2.00000002980232
100
AcDbArc
 50
180.0000025044781
 51
270.0000050089558
  0
ARC
  5
9D7
330
1E
100
AcDbEntity
  8
03
100
AcDbCircle
 10
4742.904438083288
 20
4547.220905541641
 30
0.0
 40
2.00000002980232
100
AcDbArc
 50
89.99998269715595
 51
179.9999820139106
  0
ARC
  5
9D8
330
1E
100
AcDbEntity
  8
03
100
AcDbCircle
 10
4742.904438083288
 20
4512.221027611962
 30
0.0
 40
2.00000002980232
100
AcDbArc
 50
89.99998269715595
 51
179.9999820139106
  0
ARC
  5
9DB
330
1E
100
AcDbEntity
  8
03
100
AcDbCircle
 10
4742.904438083726
 20
4536.221576928368
 30
0.0
 40
2.00000002980232
100
AcDbArc
 50
180.0000025044781
 51
270.0000050089558
  0
ARC
  5
9DF
330
1E
100
AcDbEntity
  8
03
100
AcDbCircle
 10
4757.904438083289
 20
4549.221027611962
 30
0.0
 40
2.00000002980232
100
AcDbArc
 50
89.99998269715595
 51
179.9999820139106
  0
ARC
  5
9E3
330
1E
100
AcDbEntity
  8
06
100
AcDbCircle
 10
2133.904499118435
 20
2938.221393822892
 30
0.0
 40
2.00000002980232
100
AcDbArc
 50
270.0000050089558
 51
0.0000006832449806
  0
ARC
  5
9E7
330
1E
100
AcDbEntity
  8
06
100
AcDbCircle
 10
2122.904438083276
 20
2936.220966576802
 30
0.0
 40
2.00000002980232
100
AcDbArc
 50
89.99998269715595
 51
179.9999820139106
  0
ARC
  5
9E8
330
1E
100
AcDbEntity
  8
06
100
AcDbCircle
 10
2120.904316012966
 20
6129.221760033835
 30
0.0
 40
2.00000002980232
100
AcDbArc
 50
89.99998269715595
 51
179.9999820139106
  0
ARC
  5
9EA
330
1E
100
AcDbEntity
  8
06
100
AcDbCircle
 10
2122.904438083276
 20
6112.221637963525
 30
0.0
 40
2.00000002980232
100
AcDbArc
 50
180.0000025044781
 51
270.0000050089558
  0
ARC
  5
9EB
330
1E
100
AcDbEntity
  8
06
100
AcDbCircle
 10
2120.904316012965
 20
2919.220997094384
 30
0.0
 40
2.00000002980232
100
AcDbArc
 50
180.0000025044781
 51
270.0000050089558
  0
ARC
  5
9EC
330
1E
100
AcDbEntity
  8
06
100
AcDbCircle
 10
2133.90431469572
 20
6110.221515893204
 30
0.0
 40
2.00000002980232
100
AcDbArc
 50
0.0000006832449806
 51
89.99998269715595
  0
ARC
  5
9F4
330
1E
100
AcDbEntity
  8
03
100
AcDbCircle
 10
2276.904316042768
 20
4549.221315907805
 30
0.0
 40
2.00000002980232
100
AcDbArc
 50
89.99998269715595
 51
179.9999820139106
  0
ARC
  5
9F5
330
1E
100
AcDbEntity
  8
03
100
AcDbCircle
 10
2276.904316042768
 20
4499.220983456735
 30
0.0
 40
2.00000002980232
100
AcDbArc
 50
180.0000025044781
 51
270.0000050089558
  0
ARC
  5
A74
330
1E
100
AcDbEntity
  8
06
100
AcDbCircle
 10
2101.904316370596
 20
4933.221089004742
 30
0.0
 40
5.99999964237213
100
AcDbArc
 50
0.0000006832449806
 51
89.99998269715595
  0
ARC
  5
A75
330
1E
100
AcDbEntity
  8
06
100
AcDbCircle
 10
2051.904560153596
 20
4942.221088468301
 30
0.0
 40
2.999999821186068
100
AcDbArc
 50
180.0000025044781
 51
270.0000050089558
  0
ARC
  5
A89
330
1E
100
AcDbEntity
  8
06
100
AcDbCircle
 10
1727.967334811809
 20
2838.221149682271
 30
0.0
 40
2.00000002980232
100
AcDbArc
 50
180.0000025044781
 51
270.0000050089558
  0
ARC
  5
A8A
330
1E
100
AcDbEntity
  8
06
100
AcDbCircle
 10
1723.9667854954
 20
2871.221180199853
 30
0.0
 40
2.00000002980232
100
AcDbArc
 50
0.0000006832449806
 51
89.99998269715595
  0
ARC
  5
A8B
330
1E
100
AcDbEntity
  8
06
100
AcDbCircle
 10
1751.978564676575
 20
2834.221027582149
 30
0.0
 40
2.00000002980232
100
AcDbArc
 50
0.0000006832449806
 51
89.99998269715595
  0
ARC
  5
A98
330
1E
100
AcDbEntity
  8
KAKURE
 48
50.0
100
AcDbCircle
 10
2246.764301364529
 20
4732.550922631483
 30
0.0
 40
15.9974002838135
100
AcDbArc
 50
16.67896746657994
 51
172.488003360947
  0
ARC
  5
A99
330
1E
100
AcDbEntity
  8
KAKURE
 48
50.0
100
AcDbCircle
 10
2252.904132907498
 20
4733.371235131481
 30
0.0
 40
7.199360132217409
100
AcDbArc
 50
20.31940365268297
 51
339.6805977138078
  0
ARC
  5
AA0
330
1E
100
AcDbEntity
  8
KAKURE
 48
50.0
100
AcDbCircle
 10
4834.904407565709
 20
4300.22121071743
 30
0.0
 40
5.99999964237213
100
AcDbArc
 50
270.0000050089558
 51
0.0000006832449806
  0
ARC
  5
AA7
330
1E
100
AcDbEntity
  8
KAKURE
 48
50.0
100
AcDbCircle
 10
2246.764301364526
 20
4317.162433861962
 30
0.0
 40
15.9974002838135
100
AcDbArc
 50
187.511960666874
 51
343.321006579154
  0
ARC
  5
AA8
330
1E
100
AcDbEntity
  8
KAKURE
 48
50.0
100
AcDbCircle
 10
2252.904132907498
 20
4315.071064233051
 30
0.0
 40
7.199360132217409
100
AcDbArc
 50
20.31940365268297
 51
339.6805977138078
  0
LINE
  5
BD7
330
1E
100
AcDbEntity
  8
06
100
AcDbLine
 10
4973.404346530551
 20
4351.221149682269
 30
0.0
 11
4990.90439230692
 21
4351.221149682269
 31
0.0
  0
LINE
  5
BD8
330
1E
100
AcDbEntity
  8
06
100
AcDbLine
 10
4973.404468600871
 20
4697.221149682266
 30
0.0
 11
4990.90439230692
 21
4697.22114968227
 31
0.0
  0
LINE
  5
BD9
330
1E
100
AcDbEntity
  8
06
100
AcDbLine
 10
4973.404468600871
 20
4669.221149682271
 30
0.0
 11
4986.404422824501
 21
4669.221149682271
 31
0.0
  0
LINE
  5
BDB
330
1E
100
AcDbEntity
  8
06
100
AcDbLine
 10
4973.404468600871
 20
4671.221149682271
 30
0.0
 11
4986.404422824501
 21
4671.221149682271
 31
0.0
  0
LINE
  5
BDC
330
1E
100
AcDbEntity
  8
06
100
AcDbLine
 10
4969.38270956765
 20
4349.221149682271
 30
0.0
 11
4990.90439230692
 21
4349.221149682271
 31
0.0
  0
ARC
  5
BDD
330
1E
100
AcDbEntity
  8
06
100
AcDbCircle
 10
4973.404346560352
 20
4351.221149712072
 30
0.0
 40
2.00000002980232
100
AcDbArc
 50
179.9999974955215
 51
270.0
  0
LINE
  5
BDE
330
1E
100
AcDbEntity
  8
06
100
AcDbLine
 10
4973.404346530551
 20
4377.277179955701
 30
0.0
 11
4973.404346530551
 21
4351.221149682269
 31
0.0
  0
LINE
  5
BE0
330
1E
100
AcDbEntity
  8
CHUSIN
 48
10.0
100
AcDbLine
 10
5106.236426358932
 20
4328.72069190667
 30
0.0
 11
5063.564327289574
 21
4328.72069190667
 31
0.0
  0
LINE
  5
BE3
330
1E
100
AcDbEntity
  8
03
 48
50.0
100
AcDbLine
 10
4946.904438083291
 20
4374.221149682271
 30
0.0
 11
4946.904438083291
 21
4494.221149682271
 31
0.0
  0
LINE
  5
BE4
330
1E
100
AcDbEntity
  8
03
 48
50.0
100
AcDbLine
 10
4933.904438083291
 20
4374.221149682271
 30
0.0
 11
4933.904438083291
 21
4494.221149682271
 31
0.0
  0
LINE
  5
BE6
330
1E
100
AcDbEntity
  8
03
100
AcDbLine
 10
4950.904316012971
 20
4699.221149682271
 30
0.0
 11
4950.904316012971
 21
4674.221149682271
 31
0.0
  0
LINE
  5
BE7
330
1E
100
AcDbEntity
  8
03
100
AcDbLine
 10
4850.904316012972
 20
4699.221149682271
 30
0.0
 11
4850.904316012972
 21
4349.221149682271
 31
0.0
  0
LINE
  5
BE8
330
1E
100
AcDbEntity
  8
03
100
AcDbLine
 10
4850.904316012972
 20
4349.221149682271
 30
0.0
 11
4950.904316012971
 21
4349.221149682271
 31
0.0
  0
LINE
  5
BEB
330
1E
100
AcDbEntity
  8
03
100
AcDbLine
 10
4950.904316012971
 20
4699.221149682271
 30
0.0
 11
4850.904316012972
 21
4699.221149682271
 31
0.0
  0
LINE
  5
BEC
330
1E
100
AcDbEntity
  8
06
100
AcDbLine
 10
4840.904316012971
 20
4703.371235131479
 30
0.0
 11
4840.904316012971
 21
4593.371235131479
 31
0.0
  0
DIMENSION
  5
BEE
330
1E
100
AcDbEntity
  8
SUNPOU
100
AcDbDimension
  2
*D1
 10
4950.904316012969
 20
3809.425262003212
 30
0.0
 11
5041.821729116662
 21
3871.608152569501
 31
0.0
 70
   160
  3
SUNPOU_30
100
AcDbAlignedDimension
 13
4970.90446860087
 23
3825.679963639162
 33
0.0
 14
4950.904316012969
 24
3825.679963639162
 34
0.0
 50
180.0
100
AcDbRotatedDimension
1001
ACAD
1000
DSTYLE
1002
{
1070
     7
1000
DOTSMALL
1070
     5
1000

1070
   173
1070
     1
1070
     6
1000
OPEN30
1002
}
  0
DIMENSION
  5
BFD
330
1E
100
AcDbEntity
  8
SUNPOU
100
AcDbDimension
  2
*D2
 10
4740.904468600871
 20
3809.425262003212
 30
0.0
 11
4841.053945013715
 21
3869.100511158221
 31
0.0
 70
   160
  3
SUNPOU_30
100
AcDbAlignedDimension
 13
4950.904316012969
 23
3825.679963639162
 33
0.0
 14
4740.904468600871
 24
3809.425262003212
 34
0.0
 50
180.0
100
AcDbRotatedDimension
1001
ACAD
1000
DSTYLE
1002
{
1070
     7
1000
OPEN30
1070
     5
1000

1070
   173
1070
     1
1070
     6
1000
NONE
1002
}
  0
DIMENSION
  5
C0A
330
1E
100
AcDbEntity
  8
SUNPOU
100
AcDbDimension
  2
*D3
 10
4850.904316012972
 20
4020.668323225687
 30
0.0
 11
5050.406295588647
 21
4091.393958107643
 31
0.0
 70
   160
  3
SUNPOU_30
100
AcDbAlignedDimension
 13
4950.904316012971
 23
4253.95864225022
 33
0.0
 14
4850.904316012972
 24
4249.808556801002
 34
0.0
 50
180.0
100
AcDbRotatedDimension
1001
ACAD
1000
DSTYLE
1002
{
1070
     7
1000
NONE
1070
     5
1000

1070
   173
1070
     1
1070
     6
1000
OPEN30
1002
}
  0
DIMENSION
  5
C19
330
1E
100
AcDbEntity
  8
SUNPOU
100
AcDbDimension
  2
*D4
 10
4840.904316012971
 20
4020.668323225687
 30
0.0
 11
4901.588939196955
 21
4084.918086941462
 31
0.0
 70
   160
  3
SUNPOU_30
100
AcDbAlignedDimension
 13
4850.904316012972
 23
4249.808556801002
 33
0.0
 14
4840.904316012971
 24
4249.808556801002
 34
0.0
 50
180.0
100
AcDbRotatedDimension
  0
DIMENSION
  5
C28
330
1E
100
AcDbEntity
  8
SUNPOU
100
AcDbDimension
  2
*D5
 10
4740.904468600871
 20
4020.668323225687
 30
0.0
 11
4638.601549824111
 21
4088.227618254259
 31
0.0
 70
   160
  3
SUNPOU_30
100
AcDbAlignedDimension
 13
4840.904316012971
 23
4249.808556801002
 33
0.0
 14
4740.904468600871
 24
4249.808556801002
 34
0.0
 50
180.0
100
AcDbRotatedDimension
1001
ACAD
1000
DSTYLE
1002
{
1070
     7
1000
OPEN30
1070
     5
1000

1070
   173
1070
     1
1070
     6
1000
NONE
1002
}
  0
LINE
  5
C5A
330
1E
100
AcDbEntity
  8
03
100
AcDbLine
 10
4946.904438083291
 20
4374.221149682271
 30
0.0
 11
4950.904316012971
 21
4374.221149682271
 31
0.0
  0
LINE
  5
C5B
330
1E
100
AcDbEntity
  8
03
100
AcDbLine
 10
4946.904438083291
 20
4674.221149682271
 30
0.0
 11
4950.904316012971
 21
4674.221149682271
 31
0.0
  0
LINE
  5
C5C
330
1E
100
AcDbEntity
  8
03
100
AcDbLine
 10
4950.904316012971
 20
4374.221149682271
 30
0.0
 11
4950.904316012971
 21
4349.221149682271
 31
0.0
  0
DIMENSION
  5
C89
330
1E
100
AcDbEntity
  8
SUNPOU
100
AcDbDimension
  2
*D6
 10
5273.706909090684
 20
4699.221149682271
 30
0.0
 11
5206.206909090685
 21
4524.221149682271
 31
0.0
 70
    32
  3
SUNPOU_30
100
AcDbAlignedDimension
 13
5101.103912264514
 23
4349.221149682271
 33
0.0
 14
5101.103912264514
 24
4699.221149682271
 34
0.0
 50
90.0
100
AcDbRotatedDimension
  0
DIMENSION
  5
CA8
330
1E
100
AcDbEntity
  8
SUNPOU
100
AcDbDimension
  2
*D7
 10
4591.148149533197
 20
4524.221149682271
 30
0.0
 11
4514.508503396046
 21
4276.483788599791
 31
0.0
 70
   160
  3
SUNPOU_30
100
AcDbAlignedDimension
 13
4608.269779993026
 23
4424.221149682271
 33
0.0
 14
4608.269779993026
 24
4524.221149682271
 34
0.0
 50
90.0
100
AcDbRotatedDimension
  0
DIMENSION
  5
CB7
330
1E
100
AcDbEntity
  8
SUNPOU
100
AcDbDimension
  2
*D8
 10
4591.148149533197
 20
4624.220844506481
 30
0.0
 11
4519.400405748496
 21
4767.775681218012
 31
0.0
 70
   160
  3
SUNPOU_30
100
AcDbAlignedDimension
 13
4608.269779993026
 23
4524.221149682271
 33
0.0
 14
4656.373379992753
 24
4624.220844506481
 34
0.0
 50
90.0
100
AcDbRotatedDimension
  0
DIMENSION
  5
CF4
330
1E
100
AcDbEntity
  8
SUNPOU
100
AcDbDimension
  2
*D9
 10
4967.904438083291
 20
4893.240475643066
 30
0.0
 11
5039.725667627492
 21
4962.120245063255
 31
0.0
 70
   160
  3
SUNPOU_30
100
AcDbAlignedDimension
 13
5072.90439230692
 23
4778.916043099478
 33
0.0
 14
4967.904438083291
 24
4778.916043099478
 34
0.0
 50
180.0
100
AcDbRotatedDimension
  0
LINE
  5
D20
330
1E
100
AcDbEntity
  8
06
100
AcDbLine
 10
4840.904316012971
 20
4455.071064233048
 30
0.0
 11
4840.904316012971
 21
4345.071064233051
 31
0.0
  0
LINE
  5
D21
330
1E
100
AcDbEntity
  8
03
100
AcDbLine
 10
4840.904468600871
 20
4494.221149682271
 30
0.0
 11
2274.904316012967
 21
4494.221149682275
 31
0.0
  0
LINE
  5
D22
330
1E
100
AcDbEntity
  8
03
100
AcDbLine
 10
4840.904468600871
 20
4554.221149682271
 30
0.0
 11
2274.904316012967
 21
4554.221149682273
 31
0.0
  0
LINE
  5
D23
330
1E
100
AcDbEntity
  8
03
100
AcDbLine
 10
2372.904208514036
 20
4497.22096654701
 30
0.0
 11
2276.904315691104
 21
4497.220983426937
 31
0.0
  0
LINE
  5
D24
330
1E
100
AcDbEntity
  8
03
100
AcDbLine
 10
2372.904208514032
 20
4551.221332817535
 30
0.0
 11
2276.904316646754
 21
4551.221315937608
 31
0.0
  0
LINE
  5
D27
330
1E
100
AcDbEntity
  8
03
100
AcDbLine
 10
4950.904316012971
 20
4494.221149682271
 30
0.0
 11
4950.904316012971
 21
4554.221149682271
 31
0.0
  0
LINE
  5
D28
330
1E
100
AcDbEntity
  8
03
100
AcDbLine
 10
4850.904316012972
 20
4497.22114968227
 30
0.0
 11
4950.904316012971
 21
4497.22114968227
 31
0.0
  0
LINE
  5
D29
330
1E
100
AcDbEntity
  8
03
100
AcDbLine
 10
4850.904316012972
 20
4494.221149682271
 30
0.0
 11
4950.904316012971
 21
4494.221149682271
 31
0.0
  0
LINE
  5
D2A
330
1E
100
AcDbEntity
  8
03
100
AcDbLine
 10
4850.904316012972
 20
4554.221149682271
 30
0.0
 11
4950.904316012971
 21
4554.221149682271
 31
0.0
  0
LINE
  5
D2B
330
1E
100
AcDbEntity
  8
03
100
AcDbLine
 10
4850.904316012972
 20
4551.22114968227
 30
0.0
 11
4950.904316012971
 21
4551.22114968227
 31
0.0
  0
ARC
  5
D2D
330
1E
100
AcDbEntity
  8
03
100
AcDbCircle
 10
2372.90420868888
 20
4499.220966576809
 30
0.0
 40
2.00000002980232
100
AcDbArc
 50
269.999994991044
 51
359.9999974955218
  0
LINE
  5
D2E
330
1E
100
AcDbEntity
  8
03
100
AcDbLine
 10
2374.9041781713
 20
4499.220966576812
 30
0.0
 11
2374.904208718684
 21
4512.221028239796
 31
0.0
  0
ARC
  5
D2F
330
1E
100
AcDbEntity
  8
03
100
AcDbCircle
 10
2372.90420868888
 20
4512.221027611962
 30
0.0
 40
2.00000002980232
100
AcDbArc
 50
0.000017986089258
 51
90.00001730284401
  0
LINE
  5
D30
330
1E
100
AcDbEntity
  8
03
100
AcDbLine
 10
2372.904208688882
 20
4514.221149682273
 30
0.0
 11
2356.904193444993
 21
4514.221149682273
 31
0.0
  0
ARC
  5
D31
330
1E
100
AcDbEntity
  8
03
100
AcDbCircle
 10
2372.904208688878
 20
4549.221332787731
 30
0.0
 40
2.00000002980232
100
AcDbArc
 50
0.0000025044833407
 51
90.00000500896106
  0
LINE
  5
D32
330
1E
100
AcDbEntity
  8
03
100
AcDbLine
 10
2372.904208688882
 20
4534.221149682275
 30
0.0
 11
2356.904193444993
 21
4534.221149682271
 31
0.0
  0
ARC
  5
D33
330
1E
100
AcDbEntity
  8
03
100
AcDbCircle
 10
2372.904208688878
 20
4536.221271752579
 30
0.0
 40
2.00000002980232
100
AcDbArc
 50
269.9999826971611
 51
359.9999820139157
  0
LINE
  5
D34
330
1E
100
AcDbEntity
  8
03
100
AcDbLine
 10
2374.9041781713
 20
4549.221332787737
 30
0.0
 11
2374.90420871868
 21
4536.221271124752
 31
0.0
  0
LINE
  5
D35
330
1E
100
AcDbEntity
  8
03
100
AcDbLine
 10
2270.904316012968
 20
4494.221149682275
 30
0.0
 11
2160.904316012966
 21
4494.221149682275
 31
0.0
  0
LINE
  5
D36
330
1E
100
AcDbEntity
  8
03
100
AcDbLine
 10
2270.904316012968
 20
4497.22098448189
 30
0.0
 11
2160.904316012966
 21
4497.221003823495
 31
0.0
  0
LINE
  5
D37
330
1E
100
AcDbEntity
  8
03
100
AcDbLine
 10
2270.904316012968
 20
4554.221149682273
 30
0.0
 11
2160.904316012966
 21
4554.221149682273
 31
0.0
  0
LINE
  5
D38
330
1E
100
AcDbEntity
  8
03
100
AcDbLine
 10
2270.904316012968
 20
4551.221314882655
 30
0.0
 11
2160.904316012966
 21
4551.22129554105
 31
0.0
  0
LINE
  5
D39
330
1E
100
AcDbEntity
  8
03
100
AcDbLine
 10
2270.904316012968
 20
4494.221149682275
 30
0.0
 11
2270.904316012968
 21
4554.221149682273
 31
0.0
  0
LINE
  5
D3C
330
1E
100
AcDbEntity
  8
06
100
AcDbLine
 10
4967.904438083291
 20
6094.221149682276
 30
0.0
 11
4967.904438083291
 21
6121.042438744741
 31
0.0
  0
LINE
  5
D56
330
1E
100
AcDbEntity
  8
03
100
AcDbLine
 10
2270.904468600869
 20
2824.221149682275
 30
0.0
 11
2270.904468600869
 21
2924.221149682274
 31
0.0
  0
LINE
  5
D64
330
1E
100
AcDbEntity
  8
03
100
AcDbLine
 10
2258.904468600869
 20
2824.221149682275
 30
0.0
 11
2258.904468600869
 21
2829.221149682275
 31
0.0
  0
LINE
  5
D65
330
1E
100
AcDbEntity
  8
03
100
AcDbLine
 10
2258.904468600869
 20
2824.221149682275
 30
0.0
 11
2270.904468600869
 21
2824.221149682275
 31
0.0
  0
LINE
  5
D67
330
1E
100
AcDbEntity
  8
03
100
AcDbLine
 10
2258.904468600869
 20
2833.221241235012
 30
0.0
 11
2258.904468600869
 21
2924.221149682274
 31
0.0
  0
LINE
  5
D68
330
1E
100
AcDbEntity
  8
03
100
AcDbLine
 10
1710.904468600869
 20
2824.221149682275
 30
0.0
 11
1710.904468600869
 21
2874.221149682274
 31
0.0
  0
LINE
  5
D69
330
1E
100
AcDbEntity
  8
03
100
AcDbLine
 10
1722.904468600869
 20
2824.221149682275
 30
0.0
 11
1722.904468600869
 21
2829.221149682275
 31
0.0
  0
LINE
  5
D6A
330
1E
100
AcDbEntity
  8
03
100
AcDbLine
 10
1710.904468600869
 20
2824.221149682275
 30
0.0
 11
1722.904468600869
 21
2824.221149682275
 31
0.0
  0
LINE
  5
D6B
330
1E
100
AcDbEntity
  8
03
100
AcDbLine
 10
1710.904468600869
 20
2874.221149682274
 30
0.0
 11
1722.904468600869
 21
2874.221149682274
 31
0.0
  0
LINE
  5
D6E
330
1E
100
AcDbEntity
  8
03
100
AcDbLine
 10
1721.404468600869
 20
2829.221149682275
 30
0.0
 11
1721.404468600869
 21
2833.221149682275
 31
0.0
  0
LINE
  5
D71
330
1E
100
AcDbEntity
  8
03
100
AcDbLine
 10
1721.404468600869
 20
2833.221149682275
 30
0.0
 11
2260.404468600869
 21
2833.221149682275
 31
0.0
  0
LINE
  5
D72
330
1E
100
AcDbEntity
  8
03
100
AcDbLine
 10
1722.904468600869
 20
2833.221149682275
 30
0.0
 11
1722.904468600869
 21
2874.221149682274
 31
0.0
  0
LINE
  5
D73
330
1E
100
AcDbEntity
  8
03
100
AcDbLine
 10
1690.904468600869
 20
1373.383951456922
 30
0.0
 11
1690.904468600869
 21
2937.117267846333
 31
0.0
  0
LINE
  5
D74
330
1E
100
AcDbEntity
  8
03
100
AcDbLine
 10
1708.904468600869
 20
2851.573902367814
 30
0.0
 11
1708.904468600869
 21
2869.574085473283
 31
0.0
  0
LINE
  5
D75
330
1E
100
AcDbEntity
  8
03
 48
60.0
100
AcDbLine
 10
1807.234882419217
 20
3180.273090600243
 30
0.0
 11
1807.234882419217
 21
2839.775806664693
 31
0.0
  0
CIRCLE
  5
D76
330
1E
100
AcDbEntity
  8
03
100
AcDbCircle
 10
1985.904316012966
 20
2860.669971703762
 30
0.0
 40
5.99999964237213
  0
CIRCLE
  5
D77
330
1E
100
AcDbEntity
  8
03
100
AcDbCircle
 10
1985.904316012966
 20
3159.150348901021
 30
0.0
 40
5.99999964237213
  0
CIRCLE
  5
D78
330
1E
100
AcDbEntity
  8
03
100
AcDbCircle
 10
1925.904316012967
 20
3159.150348901021
 30
0.0
 40
5.99999964237213
  0
LINE
  5
D79
330
1E
100
AcDbEntity
  8
03
100
AcDbLine
 10
2258.904468600853
 20
6215.221058129532
 30
0.0
 11
2258.904468600853
 21
6124.221149682274
 31
0.0
  0
LINE
  5
D7A
330
1E
100
AcDbEntity
  8
03
100
AcDbLine
 10
2270.904468600853
 20
6224.221149682275
 30
0.0
 11
2270.904468600853
 21
6124.221149682274
 31
0.0
  0
LINE
  5
D7E
330
1E
100
AcDbEntity
  8
03
100
AcDbLine
 10
2260.404468600853
 20
6215.221149682276
 30
0.0
 11
2260.404468600853
 21
6219.221149682276
 31
0.0
  0
LINE
  5
D7F
330
1E
100
AcDbEntity
  8
03
100
AcDbLine
 10
2258.904468600853
 20
6224.221149682275
 30
0.0
 11
2258.904468600853
 21
6219.221149682276
 31
0.0
  0
LINE
  5
D80
330
1E
100
AcDbEntity
  8
06
100
AcDbLine
 10
2258.904469204835
 20
6175.221027582153
 30
0.0
 11
2257.904408169685
 21
6175.221027582153
 31
0.0
  0
ARC
  5
D81
330
1E
100
AcDbEntity
  8
06
100
AcDbCircle
 10
2253.904773776642
 20
6210.221058129532
 30
0.0
 40
2.00000002980232
100
AcDbArc
 50
359.9999993167555
 51
89.99999499104466
  0
ARC
  5
D82
330
1E
100
AcDbEntity
  8
06
100
AcDbCircle
 10
2257.904407565701
 20
6177.221027611953
 30
0.0
 40
2.00000002980232
100
AcDbArc
 50
180.0000179860899
 51
270.0000173028445
  0
LINE
  5
D93
330
1E
100
AcDbEntity
  8
06
100
AcDbLine
 10
2255.904590671174
 20
6210.221058129532
 30
0.0
 11
2255.904590671174
 21
6173.221088647116
 31
0.0
  0
LINE
  5
D94
330
1E
100
AcDbEntity
  8
03
100
AcDbLine
 10
2258.904468600853
 20
6224.221149682275
 30
0.0
 11
2270.904468600853
 21
6224.221149682275
 31
0.0
  0
LINE
  5
D99
330
1E
100
AcDbEntity
  8
03
100
AcDbLine
 10
2258.904468600853
 20
6124.221149682274
 30
0.0
 11
2270.904468600853
 21
6124.221149682274
 31
0.0
  0
LINE
  5
D9D
330
1E
100
AcDbEntity
  8
03
100
AcDbLine
 10
1721.404468600851
 20
6215.221149682268
 30
0.0
 11
2260.404468600853
 21
6215.221149682276
 31
0.0
  0
LINE
  5
D9F
330
1E
100
AcDbEntity
  8
03
100
AcDbLine
 10
1721.404468600851
 20
6219.221149682266
 30
0.0
 11
2260.404468600853
 21
6219.221149682276
 31
0.0
  0
LINE
  5
DA0
330
1E
100
AcDbEntity
  8
03
100
AcDbLine
 10
1725.967334781993
 20
6173.221088647109
 30
0.0
 11
2086.904377048119
 21
6173.221088647112
 31
0.0
  0
LINE
  5
DA1
330
1E
100
AcDbEntity
  8
06
100
AcDbLine
 10
2220.904285495393
 20
6212.221180199854
 30
0.0
 11
2253.904773776643
 21
6212.221180199854
 31
0.0
  0
LINE
  5
DA2
330
1E
100
AcDbEntity
  8
03
100
AcDbLine
 10
1678.771900241471
 20
6218.868366479146
 30
0.0
 11
1678.771900241471
 21
6111.325031518209
 31
0.0
  0
ARC
  5
DA3
330
1E
100
AcDbEntity
  8
06
100
AcDbCircle
 10
1751.97856467656
 20
6214.221271782388
 30
0.0
 40
2.00000002980232
100
AcDbArc
 50
270.0000173028445
 51
359.9999993167555
  0
LINE
  5
DA5
330
1E
100
AcDbEntity
  8
06
100
AcDbLine
 10
1753.978687350851
 20
6214.221241235009
 30
0.0
 11
1753.978687350851
 21
6215.221149682268
 31
0.0
  0
LINE
  5
DA6
330
1E
100
AcDbEntity
  8
03
100
AcDbLine
 10
1696.314930026631
 20
6198.868366479145
 30
0.0
 11
1690.904468600851
 21
6198.868366479145
 31
0.0
  0
LINE
  5
DA7
330
1E
100
AcDbEntity
  8
03
100
AcDbLine
 10
1696.314930026631
 20
6196.868396996729
 30
0.0
 11
1690.904468600851
 21
6196.868396996729
 31
0.0
  0
LINE
  5
DA8
330
1E
100
AcDbEntity
  8
03
100
AcDbLine
 10
1710.904468600855
 20
6178.868213891258
 30
0.0
 11
1708.90446860085
 21
6178.868213891256
 31
0.0
  0
LINE
  5
DA9
330
1E
100
AcDbEntity
  8
03
100
AcDbLine
 10
1708.90446860085
 20
6196.868396996729
 30
0.0
 11
1708.90446860085
 21
6178.868213891256
 31
0.0
  0
LINE
  5
DAA
330
1E
100
AcDbEntity
  8
03
100
AcDbLine
 10
1708.90446860085
 20
6196.868396996729
 30
0.0
 11
1696.314930026631
 21
6196.868396996729
 31
0.0
  0
LINE
  5
DAB
330
1E
100
AcDbEntity
  8
03
100
AcDbLine
 10
1710.904468600849
 20
6198.868366479145
 30
0.0
 11
1696.314930026631
 21
6198.868366479145
 31
0.0
  0
LINE
  5
DAC
330
1E
100
AcDbEntity
  8
03
100
AcDbLine
 10
1710.904468600849
 20
6206.287952660788
 30
0.0
 11
1690.904468600853
 21
6206.287952660788
 31
0.0
  0
LINE
  5
DAD
330
1E
100
AcDbEntity
  8
03
100
AcDbLine
 10
1710.904468600849
 20
6217.274738549459
 30
0.0
 11
1690.904468600853
 21
6217.274738549459
 31
0.0
  0
LINE
  5
DAF
330
1E
100
AcDbEntity
  8
06
100
AcDbLine
 10
1725.967334781989
 20
6210.221149769693
 30
0.0
 11
1725.967334781993
 21
6173.221088647109
 31
0.0
  0
ARC
  5
DB6
330
1E
100
AcDbEntity
  8
06
100
AcDbCircle
 10
1723.96678549538
 20
6177.221119164687
 30
0.0
 40
2.00000002980232
100
AcDbArc
 50
270.0000173028445
 51
359.9999993167555
  0
ARC
  5
DB7
330
1E
100
AcDbEntity
  8
06
100
AcDbCircle
 10
1727.967334811791
 20
6210.221149682269
 30
0.0
 40
2.00000002980232
100
AcDbArc
 50
89.99999499104466
 51
179.9999974955223
  0
LINE
  5
DC1
330
1E
100
AcDbEntity
  8
06
100
AcDbLine
 10
1722.967029636014
 20
6175.221149682267
 30
0.0
 11
1723.966785495382
 21
6175.221149682267
 31
0.0
  0
LINE
  5
DC3
330
1E
100
AcDbEntity
  8
06
100
AcDbLine
 10
1751.978565280542
 20
6212.221271752586
 30
0.0
 11
1727.967334986639
 21
6212.221149712071
 31
0.0
  0
LINE
  5
DC4
330
1E
100
AcDbEntity
  8
03
100
AcDbLine
 10
1722.904468600851
 20
6224.221149682268
 30
0.0
 11
1722.904468600851
 21
6219.221149682266
 31
0.0
  0
LINE
  5
DC5
330
1E
100
AcDbEntity
  8
03
100
AcDbLine
 10
1722.904468600851
 20
6215.221149682268
 30
0.0
 11
1722.904468600853
 21
6174.221149682267
 31
0.0
  0
LINE
  5
DC6
330
1E
100
AcDbEntity
  8
03
100
AcDbLine
 10
1721.404468600851
 20
6219.221149682266
 30
0.0
 11
1721.404468600851
 21
6215.221149682268
 31
0.0
  0
LINE
  5
DC7
330
1E
100
AcDbEntity
  8
03
100
AcDbLine
 10
1710.904468600855
 20
6174.221149682267
 30
0.0
 11
1722.904468600853
 21
6174.221149682267
 31
0.0
  0
LINE
  5
DC8
330
1E
100
AcDbEntity
  8
03
100
AcDbLine
 10
1710.904468600849
 20
6224.221149682268
 30
0.0
 11
1710.904468600855
 21
6174.221149682267
 31
0.0
  0
LINE
  5
DC9
330
1E
100
AcDbEntity
  8
03
100
AcDbLine
 10
1710.904468600849
 20
6224.221149682268
 30
0.0
 11
1722.904468600851
 21
6224.221149682268
 31
0.0
  0
LINE
  5
DCA
330
1E
100
AcDbEntity
  8
03
100
AcDbLine
 10
1691.477588718031
 20
6196.868396996729
 30
0.0
 11
1691.308216159441
 21
6196.868396996729
 31
0.0
  0
LINE
  5
DCB
330
1E
100
AcDbEntity
  8
03
100
AcDbLine
 10
1678.771900241471
 20
6111.325031518209
 30
0.0
 11
1690.904468600853
 21
6111.325031518209
 31
0.0
  0
LINE
  5
DCC
330
1E
100
AcDbEntity
  8
03
100
AcDbLine
 10
1690.90446860084
 20
7675.058347907615
 30
0.0
 11
1690.904468600853
 21
6111.325031518209
 31
0.0
  0
LINE
  5
DCD
330
1E
100
AcDbEntity
  8
03
100
AcDbLine
 10
1678.771900241471
 20
6218.868366479146
 30
0.0
 11
1678.771900241458
 21
7673.803058861961
 31
0.0
  0
LINE
  5
DCF
330
1E
100
AcDbEntity
  8
KAKURE
 48
60.0
100
AcDbLine
 10
1807.234882419205
 20
5909.291950463519
 30
0.0
 11
1807.234882419203
 21
6173.221088647109
 31
0.0
  0
LINE
  5
DD0
330
1E
100
AcDbEntity
  8
KAKURE
 48
60.0
100
AcDbLine
 10
1767.234882419206
 20
5909.291950463519
 30
0.0
 11
1767.234882419202
 21
6173.221088647109
 31
0.0
  0
LINE
  5
DD1
330
1E
100
AcDbEntity
  8
KAKURE
 48
60.0
100
AcDbLine
 10
1773.235248630143
 20
5909.291950463519
 30
0.0
 11
1773.235248630141
 21
6173.221088647109
 31
0.0
  0
LINE
  5
DD2
330
1E
100
AcDbEntity
  8
03
100
AcDbLine
 10
2220.904286099377
 20
6212.221149652473
 30
0.0
 11
1751.978565280542
 21
6212.221271752586
 31
0.0
  0
LINE
  5
DD3
330
1E
100
AcDbEntity
  8
03
100
AcDbLine
 10
2005.904316012953
 20
5864.291950463524
 30
0.0
 11
1797.463153903585
 21
5864.291950463517
 31
0.0
  0
LINE
  5
DD4
330
1E
100
AcDbEntity
  8
03
100
AcDbLine
 10
1911.904071872335
 20
5859.291950463521
 30
0.0
 11
1797.463153903585
 21
5859.291950463518
 31
0.0
  0
LINE
  5
DD6
330
1E
100
AcDbEntity
  8
03
100
AcDbLine
 10
1761.457904880144
 20
5909.291950463519
 30
0.0
 11
1761.457904880144
 21
5859.291950463518
 31
0.0
  0
LINE
  5
DD7
330
1E
100
AcDbEntity
  8
03
100
AcDbLine
 10
2005.904316012953
 20
5909.291950463519
 30
0.0
 11
1761.457904880144
 21
5909.291950463519
 31
0.0
  0
LINE
  5
DD8
330
1E
100
AcDbEntity
  8
03
100
AcDbLine
 10
1797.463153903585
 20
5864.291950463517
 30
0.0
 11
1761.457904880144
 21
5864.291950463517
 31
0.0
  0
LINE
  5
DDA
330
1E
100
AcDbEntity
  8
03
100
AcDbLine
 10
1798.404316012955
 20
5859.291950463518
 30
0.0
 11
1761.457904880144
 21
5859.291950463518
 31
0.0
  0
LINE
  5
DDB
330
1E
100
AcDbEntity
  8
KAKURE
 48
60.0
100
AcDbLine
 10
2005.904316012953
 20
5909.29195046352
 30
0.0
 11
2005.904316012953
 21
6173.22108864711
 31
0.0
  0
LINE
  5
DDD
330
1E
100
AcDbEntity
  8
03
 48
50.0
100
AcDbLine
 10
2086.904377048102
 20
6199.868427514303
 30
0.0
 11
2086.904377048102
 21
6110.220905541654
 31
0.0
  0
CIRCLE
  5
DDE
330
1E
100
AcDbEntity
  8
03
100
AcDbCircle
 10
1985.904316012948
 20
6187.772327660781
 30
0.0
 40
5.99999964237213
  0
CIRCLE
  5
DDF
330
1E
100
AcDbEntity
  8
03
100
AcDbCircle
 10
1925.904316012951
 20
6187.772327660781
 30
0.0
 40
5.99999964237213
  0
CIRCLE
  5
DE1
330
1E
100
AcDbEntity
  8
03
100
AcDbCircle
 10
1925.904316012955
 20
5889.29195046352
 30
0.0
 40
5.99999964237213
  0
CIRCLE
  5
DE2
330
1E
100
AcDbEntity
  8
03
100
AcDbCircle
 10
1985.904316012952
 20
5889.29195046352
 30
0.0
 40
5.99999964237213
  0
LINE
  5
DE3
330
1E
100
AcDbEntity
  8
KAKURE
 48
60.0
100
AcDbLine
 10
1905.904316012952
 20
6173.22108864711
 30
0.0
 11
1905.90431601295
 21
5909.29195046352
 31
0.0
  0
LINE
  5
DE4
330
1E
100
AcDbEntity
  8
03
100
AcDbLine
 10
2005.904316012953
 20
5909.291950463519
 30
0.0
 11
2005.904316012953
 21
5765.562092136636
 31
0.0
  0
LINE
  5
DE8
330
1E
100
AcDbEntity
  8
06
100
AcDbLine
 10
2256.904346530505
 20
6131.221271752593
 30
0.0
 11
2238.904468600813
 21
6131.221271752593
 31
0.0
  0
LINE
  5
DE9
330
1E
100
AcDbEntity
  8
06
100
AcDbLine
 10
2256.904346530505
 20
6131.221271752593
 30
0.0
 11
2256.904346530505
 21
6144.220997094383
 31
0.0
  0
LINE
  5
DEA
330
1E
100
AcDbEntity
  8
06
100
AcDbLine
 10
2238.904468600813
 20
6129.221302270164
 30
0.0
 11
2238.904468600813
 21
6131.221271752593
 31
0.0
  0
LINE
  5
DEB
330
1E
100
AcDbEntity
  8
06
100
AcDbLine
 10
2258.904468600813
 20
6144.249073266266
 30
0.0
 11
2256.904346530505
 21
6144.249073266266
 31
0.0
  0
ARC
  5
DEC
330
1E
100
AcDbEntity
  8
06
100
AcDbCircle
 10
2220.904285495345
 20
6214.22114968227
 30
0.0
 40
2.00000002980232
100
AcDbArc
 50
180.0000179860915
 51
270.0000173028461
  0
LINE
  5
DED
330
1E
100
AcDbEntity
  8
06
100
AcDbLine
 10
2218.904468600807
 20
6214.221149682273
 30
0.0
 11
2218.904468600807
 21
6215.221058129532
 31
0.0
  0
LINE
  5
DF0
330
1E
100
AcDbEntity
  8
03
100
AcDbLine
 10
1905.904316012955
 20
5765.562092065088
 30
0.0
 11
1905.904316012955
 21
5853.561971878265
 31
0.0
  0
LINE
  5
DF1
330
1E
100
AcDbEntity
  8
03
100
AcDbLine
 10
1910.059131686784
 20
5524.221149690352
 30
0.0
 11
1632.904138148145
 21
5524.221149690355
 31
0.0
  0
LINE
  5
DF2
330
1E
100
AcDbEntity
  8
06
100
AcDbLine
 10
2274.904316012971
 20
6121.042438744765
 30
0.0
 11
2274.904316012967
 21
4593.371235131481
 31
0.0
  0
LINE
  5
DF3
330
1E
100
AcDbEntity
  8
06
100
AcDbLine
 10
2274.904316012967
 20
2927.804828881493
 30
0.0
 11
2274.904316012967
 21
4455.071064233051
 31
0.0
  0
LINE
  5
DF4
330
1E
100
AcDbEntity
  8
06
100
AcDbLine
 10
2274.904316012967
 20
4593.371235131481
 30
0.0
 11
2274.904316012967
 21
4455.071064233051
 31
0.0
  0
LINE
  5
DF5
330
1E
100
AcDbEntity
  8
06
100
AcDbLine
 10
2374.90431601297
 20
5994.221149682275
 30
0.0
 11
2374.904316012967
 21
4703.371235131482
 31
0.0
  0
LINE
  5
DF6
330
1E
100
AcDbEntity
  8
06
100
AcDbLine
 10
2374.904316012967
 20
3049.221149682274
 30
0.0
 11
2374.904316012967
 21
4345.071064233051
 31
0.0
  0
LINE
  5
DF7
330
1E
100
AcDbEntity
  8
06
100
AcDbLine
 10
2270.904316012971
 20
6121.042438744766
 30
0.0
 11
2270.904316012968
 21
4554.221149682273
 31
0.0
  0
LINE
  5
DFA
330
1E
100
AcDbEntity
  8
06
100
AcDbLine
 10
2160.904316012966
 20
2954.221149682275
 30
0.0
 11
2160.904316012966
 21
4456.221149682273
 31
0.0
  0
LINE
  5
DFB
330
1E
100
AcDbEntity
  8
06
100
AcDbLine
 10
2133.904316012967
 20
2938.221393822892
 30
0.0
 11
2133.904316012967
 21
4221.838337182274
 31
0.0
  0
LINE
  5
DFC
330
1E
100
AcDbEntity
  8
06
100
AcDbLine
 10
2133.904316012967
 20
4275.838276147115
 30
0.0
 11
2133.904316012967
 21
4772.237201928365
 31
0.0
  0
LINE
  5
E00
330
1E
100
AcDbEntity
  8
KAKURE
 48
60.0
100
AcDbLine
 10
2005.904316012953
 20
5424.221149682274
 30
0.0
 11
2005.904316012953
 21
3624.221149682274
 31
0.0
  0
LINE
  5
E01
330
1E
100
AcDbEntity
  8
03
100
AcDbLine
 10
1905.904072229974
 20
3195.150409673903
 30
0.0
 11
1905.904253361766
 21
3624.221149682274
 31
0.0
  0
LINE
  5
E02
330
1E
100
AcDbEntity
  8
03
100
AcDbLine
 10
1905.904253361766
 20
3524.221149682274
 30
0.0
 11
1632.90408154348
 21
3524.221149682274
 31
0.0
  0
LINE
  5
E04
330
1E
100
AcDbEntity
  8
03
100
AcDbLine
 10
2005.904316012953
 20
5424.221149682274
 30
0.0
 11
1910.059131686784
 21
5524.221149690352
 31
0.0
  0
LINE
  5
E05
330
1E
100
AcDbEntity
  8
03
100
AcDbLine
 10
1910.059131686799
 20
5424.22114969035
 30
0.0
 11
2005.904316012953
 21
5524.221149690352
 31
0.0
  0
LINE
  5
E06
330
1E
100
AcDbEntity
  8
03
100
AcDbLine
 10
1632.90408154348
 20
3524.221149682274
 30
0.0
 11
1632.904138148145
 21
5524.221149690355
 31
0.0
  0
LINE
  5
E07
330
1E
100
AcDbEntity
  8
03
100
AcDbLine
 10
1732.904084373713
 20
3624.221149682274
 30
0.0
 11
1732.904135317914
 21
5424.22114969035
 31
0.0
  0
LINE
  5
E08
330
1E
100
AcDbEntity
  8
03
100
AcDbLine
 10
1567.904088837775
 20
3624.220844346401
 30
0.0
 11
1567.904088837775
 21
3630.221210717435
 31
0.0
  0
LINE
  5
E09
330
1E
100
AcDbEntity
  8
03
100
AcDbLine
 10
1905.904253361766
 20
3524.221149682274
 30
0.0
 11
2005.904316012955
 21
3524.221149682278
 31
0.0
  0
LINE
  5
E0B
330
1E
100
AcDbEntity
  8
03
100
AcDbLine
 10
1905.904211146864
 20
3524.221149682274
 30
0.0
 11
2005.904316012953
 21
3624.221149682274
 31
0.0
  0
LINE
  5
E0C
330
1E
100
AcDbEntity
  8
03
100
AcDbLine
 10
2005.904316012955
 20
3524.221149682278
 30
0.0
 11
1905.904253361766
 21
3624.221149682274
 31
0.0
  0
LINE
  5
E0D
330
1E
100
AcDbEntity
  8
03
100
AcDbLine
 10
1732.904084373713
 20
3624.221149682274
 30
0.0
 11
1632.90408154348
 21
3524.221150626145
 31
0.0
  0
LINE
  5
E0E
330
1E
100
AcDbEntity
  8
03
100
AcDbLine
 10
1632.904108430697
 20
4474.221149822603
 30
0.0
 11
1732.904111260932
 21
4574.221149810619
 31
0.0
  0
LINE
  5
E0F
330
1E
100
AcDbEntity
  8
03
100
AcDbLine
 10
1732.904108430697
 20
4474.221149861405
 30
0.0
 11
1632.904111260932
 21
4574.221149782814
 31
0.0
  0
LINE
  5
E10
330
1E
100
AcDbEntity
  8
03
100
AcDbLine
 10
1634.089433809696
 20
5524.221149690352
 30
0.0
 11
1732.904135317914
 21
5424.22114969035
 31
0.0
  0
LINE
  5
E11
330
1E
100
AcDbEntity
  8
02
100
AcDbLine
 10
1354.365772311798
 20
4424.221149682273
 30
0.0
 11
904.3657723117997
 21
4424.221149682273
 31
0.0
  0
LINE
  5
E12
330
1E
100
AcDbEntity
  8
02
100
AcDbLine
 10
1354.365772311798
 20
4624.221149682274
 30
0.0
 11
904.3657723117997
 21
4624.221149682274
 31
0.0
  0
LINE
  5
E13
330
1E
100
AcDbEntity
  8
02
100
AcDbLine
 10
1354.365772311798
 20
4424.221149682273
 30
0.0
 11
1354.365772311798
 21
4624.221149682274
 31
0.0
  0
LINE
  5
E14
330
1E
100
AcDbEntity
  8
02
100
AcDbLine
 10
904.3657723117997
 20
4624.221149682274
 30
0.0
 11
904.3657723118029
 21
7891.055866479142
 31
0.0
  0
LINE
  5
E15
330
1E
100
AcDbEntity
  8
03
100
AcDbLine
 10
954.3651619602403
 20
4624.221149682274
 30
0.0
 11
954.3651619602403
 21
6130.823322533832
 31
0.0
  0
LINE
  5
E16
330
1E
100
AcDbEntity
  8
KAKURE
 48
60.0
100
AcDbLine
 10
1710.904468600869
 20
2874.221149682274
 30
0.0
 11
1710.904468600869
 21
3649.809100968432
 31
0.0
  0
LINE
  5
E18
330
1E
100
AcDbEntity
  8
KAKURE
 48
60.0
100
AcDbLine
 10
1710.904468600855
 20
6174.221149682267
 30
0.0
 11
1710.904468600855
 21
5285.704247618348
 31
0.0
  0
DIMENSION
  5
EDC
330
1E
100
AcDbEntity
  8
SUNPOU
100
AcDbDimension
  2
*D10
 10
4541.993666148957
 20
2889.221149682271
 30
0.0
 11
4448.243666148957
 21
2781.45797291442
 31
0.0
 70
   160
  3
SUNPOU_30
100
AcDbAlignedDimension
 13
4760.904468600869
 23
2854.22114968227
 33
0.0
 14
4760.904468600869
 24
2889.221149682271
 34
0.0
 50
90.0
100
AcDbRotatedDimension
1001
ACAD
1000
DSTYLE
1002
{
1070
     7
1000
DOTSMALL
1070
     5
1000

1070
   173
1070
     1
1070
     6
1000
OPEN30
1002
}
  0
DIMENSION
  5
EEB
330
1E
100
AcDbEntity
  8
SUNPOU
100
AcDbDimension
  2
*D11
 10
4541.993666148957
 20
2924.221149682271
 30
0.0
 11
4448.243666148957
 21
3049.032315541126
 31
0.0
 70
   160
  3
SUNPOU_30
100
AcDbAlignedDimension
 13
4760.904468600869
 23
2889.221149682271
 33
0.0
 14
4790.904316012968
 24
2924.221149682271
 34
0.0
 50
90.0
100
AcDbRotatedDimension
1001
ACAD
1000
DSTYLE
1002
{
1070
     6
1000
DOTSMALL
1070
     5
1000

1070
   173
1070
     1
1070
     7
1000
OPEN30
1002
}
  0
DIMENSION
  5
F26
330
1E
100
AcDbEntity
  8
SUNPOU
100
AcDbDimension
  2
*D12
 10
4788.904468600869
 20
2640.686776840379
 30
0.0
 11
4847.73566994351
 21
2708.552339834794
 31
0.0
 70
   160
  3
SUNPOU_30
100
AcDbAlignedDimension
 13
4770.904468600869
 23
2860.971149682271
 33
0.0
 14
4788.904468600869
 24
2860.221149682271
 34
0.0
 50
180.0
100
AcDbRotatedDimension
  0
DIMENSION
  5
F35
330
1E
100
AcDbEntity
  8
SUNPOU
100
AcDbDimension
  2
*D13
 10
4970.90446860087
 20
2421.352440057791
 30
0.0
 11
4870.904468600869
 21
2233.852440057791
 31
0.0
 70
    32
  3
SUNPOU_30
100
AcDbAlignedDimension
 13
4770.904468600869
 23
2860.971149682271
 33
0.0
 14
4970.90446860087
 24
2864.221149682271
 34
0.0
 50
180.0
100
AcDbRotatedDimension
  0
LINE
  5
F5C
330
1E
100
AcDbEntity
  8
SAISEN
100
AcDbLine
 10
604.3657723117994
 20
5101.773871420592
 30
0.0
 11
904.3657723117997
 21
4801.774104209533
 31
0.0
  0
LINE
  5
F5D
330
1E
100
AcDbEntity
  8
SAISEN
100
AcDbLine
 10
604.3657723117994
 20
5053.564966013455
 30
0.0
 11
904.3657723117997
 21
4753.564852547238
 31
0.0
  0
LINE
  5
F5E
330
1E
100
AcDbEntity
  8
SAISEN
100
AcDbLine
 10
604.3657723117994
 20
5030.730131373286
 30
0.0
 11
904.3657723117997
 21
4730.729433006458
 31
0.0
  0
ARC
  5
1007
330
1E
100
AcDbEntity
  8
03
100
AcDbCircle
 10
1823.472797458279
 20
4512.471149682271
 30
0.0
 40
9.53125
100
AcDbArc
 50
153.5189492809938
 51
206.4810352374146
  0
LINE
  5
100A
330
1E
100
AcDbEntity
  8
03
100
AcDbLine
 10
1814.941547458279
 20
4508.221149682275
 30
0.0
 11
1823.941486423127
 21
4508.221149682275
 31
0.0
  0
LINE
  5
100B
330
1E
100
AcDbEntity
  8
03
100
AcDbLine
 10
1823.941486423127
 20
4508.221149682275
 30
0.0
 11
1825.941547458279
 21
4508.221149682275
 31
0.0
  0
LINE
  5
100C
330
1E
100
AcDbEntity
  8
03
100
AcDbLine
 10
1825.941547458279
 20
4506.221149682274
 30
0.0
 11
1827.94154745828
 21
4506.221149682274
 31
0.0
  0
LINE
  5
1013
330
1E
100
AcDbEntity
  8
03
100
AcDbLine
 10
1814.941547458279
 20
4540.221149682275
 30
0.0
 11
1825.941547458279
 21
4540.221149682275
 31
0.0
  0
LINE
  5
1024
330
1E
100
AcDbEntity
  8
03
100
AcDbLine
 10
1825.941547458279
 20
4542.221149682275
 30
0.0
 11
1827.94154745828
 21
4542.221149682275
 31
0.0
  0
LINE
  5
1025
330
1E
100
AcDbEntity
  8
03
100
AcDbLine
 10
1833.94154745828
 20
4544.221149682273
 30
0.0
 11
1845.941486423127
 21
4544.221149682273
 31
0.0
  0
LINE
  5
102A
330
1E
100
AcDbEntity
  8
03
100
AcDbLine
 10
1808.941486423127
 20
4531.721149682275
 30
0.0
 11
1808.941486423127
 21
4516.721149682275
 31
0.0
  0
LINE
  5
102D
330
1E
100
AcDbEntity
  8
03
100
AcDbLine
 10
1808.941486423127
 20
4516.721149682275
 30
0.0
 11
1814.941486135415
 21
4516.721150741992
 31
0.0
  0
ARC
  5
1030
330
1E
100
AcDbEntity
  8
03
100
AcDbCircle
 10
1823.472797458279
 20
4535.97114968227
 30
0.0
 40
9.53125
100
AcDbArc
 50
153.5189492809938
 51
206.4810352374146
  0
LINE
  5
1033
330
1E
100
AcDbEntity
  8
03
100
AcDbLine
 10
1808.941486423127
 20
4531.721149682275
 30
0.0
 11
1814.941488161956
 21
4531.721156086967
 31
0.0
  0
LINE
  5
103B
330
1E
100
AcDbEntity
  8
03
100
AcDbLine
 10
1852.31898886453
 20
4461.221149682273
 30
0.0
 11
1852.31898886453
 21
4484.221149682275
 31
0.0
  0
LINE
  5
1041
330
1E
100
AcDbEntity
  8
03
100
AcDbLine
 10
1852.31898886453
 20
4461.221149682273
 30
0.0
 11
1882.319049899686
 21
4461.221149682273
 31
0.0
  0
LINE
  5
1045
330
1E
100
AcDbEntity
  8
03
100
AcDbLine
 10
1882.319049899686
 20
4449.221149682275
 30
0.0
 11
1891.319049899686
 21
4449.221149682275
 31
0.0
  0
POINT
  5
104C
330
1E
100
AcDbEntity
  8
03
100
AcDbPoint
 10
1891.319049899686
 20
4479.221149682273
 30
0.0
  0
LINE
  5
104D
330
1E
100
AcDbEntity
  8
03
100
AcDbLine
 10
1845.941486423127
 20
4484.221149682275
 30
0.0
 11
1851.94154745828
 21
4484.221149682275
 31
0.0
  0
LINE
  5
104F
330
1E
100
AcDbEntity
  8
03
100
AcDbLine
 10
1833.94154745828
 20
4504.221149682273
 30
0.0
 11
1845.941486423127
 21
4504.221149682273
 31
0.0
  0
LINE
  5
1051
330
1E
100
AcDbEntity
  8
03
100
AcDbLine
 10
1852.31898886453
 20
4587.254719018212
 30
0.0
 11
1882.319049899686
 21
4587.254719018212
 31
0.0
  0
LINE
  5
105C
330
1E
100
AcDbEntity
  8
03
100
AcDbLine
 10
1882.319049899686
 20
4599.221149682274
 30
0.0
 11
1891.319049899686
 21
4599.221149682274
 31
0.0
  0
LINE
  5
105D
330
1E
100
AcDbEntity
  8
03
100
AcDbLine
 10
1845.941486423127
 20
4564.221149682274
 30
0.0
 11
1851.94154745828
 21
4564.221149682274
 31
0.0
  0
LINE
  5
1060
330
1E
100
AcDbEntity
  8
03
100
AcDbLine
 10
1827.94154745828
 20
4484.221149682275
 30
0.0
 11
1833.94154745828
 21
4484.221149682275
 31
0.0
  0
LINE
  5
1061
330
1E
100
AcDbEntity
  8
03
100
AcDbLine
 10
1827.94154745828
 20
4564.221149682274
 30
0.0
 11
1833.94154745828
 21
4564.221149682274
 31
0.0
  0
LINE
  5
1062
330
1E
100
AcDbEntity
  8
03
100
AcDbLine
 10
1891.319049899686
 20
4461.221149682273
 30
0.0
 11
1921.793598239529
 21
4461.221149682273
 31
0.0
  0
LINE
  5
106C
330
1E
100
AcDbEntity
  8
03
100
AcDbLine
 10
1921.793598239529
 20
4449.221149682275
 30
0.0
 11
1930.79359823953
 21
4449.221149682275
 31
0.0
  0
LINE
  5
106D
330
1E
100
AcDbEntity
  8
03
100
AcDbLine
 10
1936.080524509061
 20
4461.633503197902
 30
0.0
 11
1930.79359823953
 21
4461.633503197902
 31
0.0
  0
POINT
  5
1078
330
1E
100
AcDbEntity
  8
03
100
AcDbPoint
 10
1930.79359823953
 20
4569.221149682275
 30
0.0
  0
LINE
  5
107B
330
1E
100
AcDbEntity
  8
03
100
AcDbLine
 10
1936.080524509061
 20
4586.446857690094
 30
0.0
 11
1930.79359823953
 21
4586.446857690094
 31
0.0
  0
LINE
  5
107D
330
1E
100
AcDbEntity
  8
03
100
AcDbLine
 10
1921.793598239529
 20
4599.221149682274
 30
0.0
 11
1930.79359823953
 21
4599.221149682274
 31
0.0
  0
LINE
  5
107E
330
1E
100
AcDbEntity
  8
03
100
AcDbLine
 10
1936.080524509061
 20
4602.221149682274
 30
0.0
 11
1936.080524509061
 21
4446.221149682274
 31
0.0
  0
LINE
  5
107F
330
1E
100
AcDbEntity
  8
03
100
AcDbLine
 10
1942.08052450906
 20
4446.221149682274
 30
0.0
 11
1942.08052450906
 21
4602.221149682274
 31
0.0
  0
LINE
  5
1080
330
1E
100
AcDbEntity
  8
03
100
AcDbLine
 10
1937.080524509061
 20
4439.221149682274
 30
0.0
 11
1936.080524509061
 21
4446.221149682274
 31
0.0
  0
LINE
  5
1081
330
1E
100
AcDbEntity
  8
03
100
AcDbLine
 10
1941.080524509061
 20
4439.221149682274
 30
0.0
 11
1942.08052450906
 21
4446.221149682274
 31
0.0
  0
LINE
  5
1082
330
1E
100
AcDbEntity
  8
03
100
AcDbLine
 10
1937.080524509061
 20
4439.221149682274
 30
0.0
 11
1941.080524509061
 21
4439.221149682274
 31
0.0
  0
LINE
  5
1083
330
1E
100
AcDbEntity
  8
03
100
AcDbLine
 10
1941.080524509061
 20
4609.221149682275
 30
0.0
 11
1942.08052450906
 21
4602.221149682274
 31
0.0
  0
LINE
  5
1084
330
1E
100
AcDbEntity
  8
03
100
AcDbLine
 10
1937.080524509061
 20
4609.221149682275
 30
0.0
 11
1936.080524509061
 21
4602.221149682274
 31
0.0
  0
LINE
  5
1085
330
1E
100
AcDbEntity
  8
03
100
AcDbLine
 10
1937.080524509061
 20
4609.221149682275
 30
0.0
 11
1941.080524509061
 21
4609.221149682275
 31
0.0
  0
LINE
  5
1086
330
1E
100
AcDbEntity
  8
03
100
AcDbLine
 10
1942.08052450906
 20
4461.221149682273
 30
0.0
 11
1972.080524509061
 21
4461.221149682273
 31
0.0
  0
LINE
  5
1088
330
1E
100
AcDbEntity
  8
03
100
AcDbLine
 10
1942.08052450906
 20
4587.221149682275
 30
0.0
 11
1972.080524509061
 21
4587.221149682275
 31
0.0
  0
LINE
  5
108A
330
1E
100
AcDbEntity
  8
03
100
AcDbLine
 10
1981.08052450906
 20
4449.221149682275
 30
0.0
 11
1981.08052450906
 21
4599.221149682274
 31
0.0
  0
LINE
  5
1090
330
1E
100
AcDbEntity
  8
03
100
AcDbLine
 10
1972.080524509061
 20
4449.221149682275
 30
0.0
 11
1981.08052450906
 21
4449.221149682275
 31
0.0
  0
POINT
  5
1097
330
1E
100
AcDbEntity
  8
03
100
AcDbPoint
 10
1981.08052450906
 20
4479.221149682273
 30
0.0
  0
POINT
  5
109E
330
1E
100
AcDbEntity
  8
03
100
AcDbPoint
 10
1981.08052450906
 20
4569.221149682275
 30
0.0
  0
LINE
  5
10A2
330
1E
100
AcDbEntity
  8
03
100
AcDbLine
 10
1972.080524509061
 20
4599.221149682274
 30
0.0
 11
1981.08052450906
 21
4599.221149682274
 31
0.0
  0
LINE
  5
10A3
330
1E
100
AcDbEntity
  8
03
100
AcDbLine
 10
1981.08052450906
 20
4480.506729944456
 30
0.0
 11
2068.904316012968
 21
4476.721149682274
 31
0.0
  0
LINE
  5
10A4
330
1E
100
AcDbEntity
  8
03
100
AcDbLine
 10
1981.08052450906
 20
4567.935685121982
 30
0.0
 11
2068.904316012968
 21
4571.721149682274
 31
0.0
  0
LINE
  5
1180
330
1E
100
AcDbEntity
  8
03
100
AcDbLine
 10
1881.080829684838
 20
4772.221393822891
 30
0.0
 11
1881.080829684838
 21
4756.221393822891
 31
0.0
  0
LINE
  5
1182
330
1E
100
AcDbEntity
  8
03
100
AcDbLine
 10
1886.080768649682
 20
4748.221393822891
 30
0.0
 11
1896.080707614526
 21
4748.221393822891
 31
0.0
  0
LINE
  5
1183
330
1E
100
AcDbEntity
  8
03
100
AcDbLine
 10
1896.080707614526
 20
4746.221393822891
 30
0.0
 11
1900.080768649682
 21
4746.221393822891
 31
0.0
  0
ARC
  5
1184
330
1E
100
AcDbEntity
  8
03
100
AcDbCircle
 10
1893.580768649678
 20
4752.221271752572
 30
0.0
 40
8.5
100
AcDbArc
 50
151.9275083741946
 51
208.0724829743889
  0
LINE
  5
1187
330
1E
100
AcDbEntity
  8
03
100
AcDbLine
 10
1881.080829684838
 20
4756.221393822891
 30
0.0
 11
1886.080768977098
 21
4756.221272366486
 31
0.0
  0
LINE
  5
1189
330
1E
100
AcDbEntity
  8
03
100
AcDbLine
 10
1886.080768649682
 20
4780.221393822891
 30
0.0
 11
1896.080707614526
 21
4780.221393822891
 31
0.0
  0
LINE
  5
118A
330
1E
100
AcDbEntity
  8
03
100
AcDbLine
 10
1896.080707614526
 20
4782.221393822893
 30
0.0
 11
1900.080768649682
 21
4782.221393822893
 31
0.0
  0
ARC
  5
118B
330
1E
100
AcDbEntity
  8
03
100
AcDbCircle
 10
1893.580768649678
 20
4776.221393822893
 30
0.0
 40
8.5
100
AcDbArc
 50
151.9275083741946
 51
208.0724829743889
  0
LINE
  5
118E
330
1E
100
AcDbEntity
  8
03
100
AcDbLine
 10
1886.080770584811
 20
4772.221401442473
 30
0.0
 11
1881.080829684838
 21
4772.221393822891
 31
0.0
  0
LINE
  5
118F
330
1E
100
AcDbEntity
  8
03
100
AcDbLine
 10
1900.080768649682
 20
4784.221393822892
 30
0.0
 11
1914.080768649682
 21
4784.221393822892
 31
0.0
  0
LINE
  5
1190
330
1E
100
AcDbEntity
  8
03
100
AcDbLine
 10
1900.080768649682
 20
4744.221393822892
 30
0.0
 11
1914.080768649682
 21
4744.221393822892
 31
0.0
  0
LINE
  5
1192
330
1E
100
AcDbEntity
  8
03
100
AcDbLine
 10
1914.080768649682
 20
4734.221393822891
 30
0.0
 11
1936.080768649682
 21
4734.221393822891
 31
0.0
  0
LINE
  5
1193
330
1E
100
AcDbEntity
  8
03
100
AcDbLine
 10
1914.080768649682
 20
4794.221393822891
 30
0.0
 11
1936.080768649682
 21
4794.221393822891
 31
0.0
  0
LINE
  5
1194
330
1E
100
AcDbEntity
  8
03
100
AcDbLine
 10
1942.080768649683
 20
4729.221393822892
 30
0.0
 11
1942.080768649683
 21
4799.221393822891
 31
0.0
  0
LINE
  5
1195
330
1E
100
AcDbEntity
  8
03
100
AcDbLine
 10
1936.080768649682
 20
4729.221393822892
 30
0.0
 11
1936.080768649682
 21
4799.221393822891
 31
0.0
  0
LINE
  5
1196
330
1E
100
AcDbEntity
  8
03
100
AcDbLine
 10
1937.080768649682
 20
4720.221393822892
 30
0.0
 11
1941.080768649682
 21
4720.221393822892
 31
0.0
  0
LINE
  5
1197
330
1E
100
AcDbEntity
  8
03
100
AcDbLine
 10
1941.080768649682
 20
4720.221393822892
 30
0.0
 11
1942.080768649683
 21
4729.221393822892
 31
0.0
  0
LINE
  5
1198
330
1E
100
AcDbEntity
  8
03
100
AcDbLine
 10
1937.080768649682
 20
4720.221393822892
 30
0.0
 11
1936.080768649682
 21
4729.221393822892
 31
0.0
  0
POINT
  5
1199
330
1E
100
AcDbEntity
  8
03
100
AcDbPoint
 10
1939.080768649682
 20
4720.221393822892
 30
0.0
  0
LINE
  5
119A
330
1E
100
AcDbEntity
  8
03
100
AcDbLine
 10
1937.080768649682
 20
4808.221393822893
 30
0.0
 11
1941.080768649682
 21
4808.221393822893
 31
0.0
  0
LINE
  5
119B
330
1E
100
AcDbEntity
  8
03
100
AcDbLine
 10
1941.080768649682
 20
4808.221393822893
 30
0.0
 11
1942.080768649683
 21
4799.221393822891
 31
0.0
  0
LINE
  5
119C
330
1E
100
AcDbEntity
  8
03
100
AcDbLine
 10
1937.080768649682
 20
4808.221393822893
 30
0.0
 11
1936.080768649682
 21
4799.221393822891
 31
0.0
  0
LINE
  5
119D
330
1E
100
AcDbEntity
  8
03
100
AcDbLine
 10
1942.080768649683
 20
4784.221393822892
 30
0.0
 11
1971.080768649683
 21
4784.221393822892
 31
0.0
  0
LINE
  5
119F
330
1E
100
AcDbEntity
  8
03
100
AcDbLine
 10
1976.080768649683
 20
4683.221393822893
 30
0.0
 11
1976.080768649683
 21
4845.221393822885
 31
0.0
  0
LINE
  5
11A1
330
1E
100
AcDbEntity
  8
03
100
AcDbLine
 10
1977.578022067651
 20
4683.221393822893
 30
0.0
 11
2092.904560153589
 21
4683.221393822893
 31
0.0
  0
LINE
  5
11BF
330
1E
100
AcDbEntity
  8
03
100
AcDbLine
 10
1975.700763766869
 20
4845.221393822885
 30
0.0
 11
2098.904316012967
 21
4845.221393822885
 31
0.0
  0
LINE
  5
11DF
330
1E
100
AcDbEntity
  8
03
100
AcDbLine
 10
1971.080768649683
 20
4724.221393822891
 30
0.0
 11
1976.080768649683
 21
4724.221393822891
 31
0.0
  0
LINE
  5
11E0
330
1E
100
AcDbEntity
  8
03
100
AcDbLine
 10
1971.080768649683
 20
4804.221393822892
 30
0.0
 11
1976.080768649683
 21
4804.221393822892
 31
0.0
  0
LINE
  5
12B6
330
1E
100
AcDbEntity
  8
03
100
AcDbLine
 10
1942.080768649683
 20
4744.221393822892
 30
0.0
 11
1971.080768649683
 21
4744.221393822892
 31
0.0
  0
LINE
  5
12B8
330
1E
100
AcDbEntity
  8
03
100
AcDbLine
 10
1891.319049899686
 20
4587.221149682275
 30
0.0
 11
1921.793598239529
 21
4587.221149682275
 31
0.0
  0
LINE
  5
12B9
330
1E
100
AcDbEntity
  8
CHUSIN
 48
10.0
100
AcDbLine
 10
1939.080524509061
 20
4438.645043335731
 30
0.0
 11
1939.080524509061
 21
4808.6554752354
 31
0.0
  0
DIMENSION
  5
12E7
330
1E
100
AcDbEntity
  8
SUNPOU
100
AcDbDimension
  2
*D14
 10
1710.904468600869
 20
2421.352440057791
 30
0.0
 11
1990.904468600869
 21
2488.852440057792
 31
0.0
 70
    32
  3
SUNPOU_30
100
AcDbAlignedDimension
 13
2270.904468600869
 23
2824.221149682275
 33
0.0
 14
1710.904468600869
 24
2824.221149682275
 34
0.0
 50
180.0
100
AcDbRotatedDimension
  0
DIMENSION
  5
12F4
330
1E
100
AcDbEntity
  8
SUNPOU
100
AcDbDimension
  2
*D15
 10
1690.904468600869
 20
2421.352440057791
 30
0.0
 11
1758.167865881026
 21
2358.605880545233
 31
0.0
 70
   160
  3
SUNPOU_30
100
AcDbAlignedDimension
 13
1710.904468600869
 23
2824.221149682275
 33
0.0
 14
1690.904468600869
 24
2421.352440057791
 34
0.0
 50
180.0
100
AcDbRotatedDimension
  0
DIMENSION
  5
1324
330
1E
100
AcDbEntity
  8
SUNPOU
100
AcDbDimension
  2
*D16
 10
2060.889951795075
 20
2829.221149682275
 30
0.0
 11
1967.139951795075
 21
2730.476468828601
 31
0.0
 70
   160
  3
SUNPOU_30
100
AcDbAlignedDimension
 13
2258.904468600871
 23
2824.221149682275
 33
0.0
 14
2258.904468600871
 24
2829.221149682275
 34
0.0
 50
90.0
100
AcDbRotatedDimension
  0
DIMENSION
  5
133E
330
1E
100
AcDbEntity
  8
SUNPOU
100
AcDbDimension
  2
*D17
 10
3038.974314782599
 20
4455.071064233051
 30
0.0
 11
2926.474314782598
 21
4400.071064233055
 31
0.0
 70
    32
  3
SUNPOU_30
100
AcDbAlignedDimension
 13
3038.9743147826
 23
4345.071064233056
 33
0.0
 14
3038.974314782599
 24
4455.071064233051
 34
0.0
 50
90.0
100
AcDbRotatedDimension
  0
DIMENSION
  5
134D
330
1E
100
AcDbEntity
  8
SUNPOU
100
AcDbDimension
  2
*D18
 10
3038.974314782599
 20
4703.371235131482
 30
0.0
 11
2926.474314782598
 21
4648.371235131485
 31
0.0
 70
    32
  3
SUNPOU_30
100
AcDbAlignedDimension
 13
3038.9743147826
 23
4593.371235131486
 33
0.0
 14
3038.974314782599
 24
4703.371235131482
 34
0.0
 50
90.0
100
AcDbRotatedDimension
  0
LINE
  5
139D
330
1E
100
AcDbEntity
  8
06
100
AcDbLine
 10
2160.90431601297
 20
6094.221149682276
 30
0.0
 11
2160.904316012966
 21
4592.221149682274
 31
0.0
  0
DIMENSION
  5
13AD
330
1E
100
AcDbEntity
  8
SUNPOU
100
AcDbDimension
  2
*D19
 10
3375.569967888186
 20
2924.221149682271
 30
0.0
 11
3295.84818512791
 21
2754.480700929965
 31
0.0
 70
   160
  3
SUNPOU_30
100
AcDbAlignedDimension
 13
3038.974314782599
 23
2824.221149682271
 33
0.0
 14
3375.569967888186
 24
2924.221149682271
 34
0.0
 50
90.0
100
AcDbRotatedDimension
1001
ACAD
1000
DSTYLE
1002
{
1070
     6
1000
OPEN30
1070
     5
1000

1070
   173
1070
     1
1070
     7
1000
DOTSMALL
1002
}
  0
DIMENSION
  5
13BC
330
1E
100
AcDbEntity
  8
SUNPOU
100
AcDbDimension
  2
*D20
 10
3375.569967888186
 20
2954.221149682271
 30
0.0
 11
3300.580649716273
 21
2996.767967754113
 31
0.0
 70
   160
  3
SUNPOU_30
100
AcDbAlignedDimension
 13
3375.569967888186
 23
2924.221149682271
 33
0.0
 14
3375.569967888186
 24
2954.221149682271
 34
0.0
 50
90.0
100
AcDbRotatedDimension
1001
ACAD
1000
DSTYLE
1002
{
1070
     7
1000
OPEN30
1070
     5
1000

1070
   173
1070
     1
1070
     6
1000
DOTSMALL
1002
}
  0
DIMENSION
  5
13CB
330
1E
100
AcDbEntity
  8
SUNPOU
100
AcDbDimension
  2
*D21
 10
3375.569967888188
 20
4455.071064233051
 30
0.0
 11
3301.819967888187
 21
3704.646106957663
 31
0.0
 70
    32
  3
SUNPOU_30
100
AcDbAlignedDimension
 13
3375.569967888186
 23
2954.221149682271
 33
0.0
 14
3375.569967888188
 24
4455.071064233051
 34
0.0
 50
90.0
100
AcDbRotatedDimension
1001
ACAD
1000
DSTYLE
1002
{
1070
   271
1070
     2
1002
}
  0
DIMENSION
  5
13D8
330
1E
100
AcDbEntity
  8
SUNPOU
100
AcDbDimension
  2
*D22
 10
3375.569967888188
 20
4524.221149682275
 30
0.0
 11
3281.819967888188
 21
4323.139424026371
 31
0.0
 70
   160
  3
SUNPOU_30
100
AcDbAlignedDimension
 13
3375.569967888188
 23
4455.071064233051
 33
0.0
 14
3375.569967888188
 24
4524.221149682275
 34
0.0
 50
90.0
100
AcDbRotatedDimension
1001
ACAD
1000
DSTYLE
1002
{
1070
   271
1070
     2
1070
     6
1000
OPEN30
1070
     5
1000

1070
   173
1070
     1
1070
     7
1000
DOTSMALL
1002
}
  0
DIMENSION
  5
13E7
330
1E
100
AcDbEntity
  8
SUNPOU
100
AcDbDimension
  2
*D23
 10
3375.569967888188
 20
4593.371235131481
 30
0.0
 11
3281.819967888188
 21
4710.642041330044
 31
0.0
 70
   160
  3
SUNPOU_30
100
AcDbAlignedDimension
 13
3375.569967888188
 23
4524.221149682275
 33
0.0
 14
3375.569967888188
 24
4593.371235131481
 34
0.0
 50
90.0
100
AcDbRotatedDimension
1001
ACAD
1000
DSTYLE
1002
{
1070
   271
1070
     2
1070
     6
1000
DOTSMALL
1070
     5
1000

1070
   173
1070
     1
1070
     7
1000
OPEN30
1002
}
  0
DIMENSION
  5
13F6
330
1E
100
AcDbEntity
  8
SUNPOU
100
AcDbDimension
  2
*D24
 10
3375.569967888188
 20
6094.221149682276
 30
0.0
 11
3301.819967888187
 21
5343.796192406879
 31
0.0
 70
    32
  3
SUNPOU_30
100
AcDbAlignedDimension
 13
3375.569967888188
 23
4593.371235131481
 33
0.0
 14
3375.569967888188
 24
6094.221149682276
 34
0.0
 50
90.0
100
AcDbRotatedDimension
1001
ACAD
1000
DSTYLE
1002
{
1070
   271
1070
     2
1002
}
  0
DIMENSION
  5
1403
330
1E
100
AcDbEntity
  8
SUNPOU
100
AcDbDimension
  2
*D25
 10
3375.569967888188
 20
6124.221149682274
 30
0.0
 11
3281.819967888188
 21
6038.297374391143
 31
0.0
 70
   160
  3
SUNPOU_30
100
AcDbAlignedDimension
 13
3375.569967888188
 23
6094.221149682276
 33
0.0
 14
3375.569967888188
 24
6124.221149682274
 34
0.0
 50
90.0
100
AcDbRotatedDimension
1001
ACAD
1000
DSTYLE
1002
{
1070
     7
1000
DOTSMALL
1070
     5
1000

1070
   173
1070
     1
1070
     6
1000
OPEN30
1002
}
  0
DIMENSION
  5
1412
330
1E
100
AcDbEntity
  8
SUNPOU
100
AcDbDimension
  2
*D26
 10
3375.569967888188
 20
6224.221149682275
 30
0.0
 11
3281.535346107246
 21
6303.49206045334
 31
0.0
 70
   160
  3
SUNPOU_30
100
AcDbAlignedDimension
 13
3375.569967888188
 23
6124.221149682274
 33
0.0
 14
3038.9743147826
 24
6224.221149682275
 34
0.0
 50
90.0
100
AcDbRotatedDimension
1001
ACAD
1000
DSTYLE
1002
{
1070
     6
1000
DOTSMALL
1070
     5
1000

1070
   173
1070
     1
1070
     7
1000
OPEN30
1002
}
  0
DIMENSION
  5
1421
330
1E
100
AcDbEntity
  8
SUNPOU
100
AcDbDimension
  2
*D27
 10
3564.994735484457
 20
2889.221149682271
 30
0.0
 11
3483.566721228292
 21
4208.264344285253
 31
0.0
 70
   160
  3
SUNPOU_30
100
AcDbAlignedDimension
 13
3564.994735484461
 23
6159.221149682245
 33
0.0
 14
3564.994735484457
 24
2889.221149682271
 34
0.0
 50
90.0
100
AcDbRotatedDimension
  0
DIMENSION
  5
142F
330
1E
100
AcDbEntity
  8
SUNPOU
100
AcDbDimension
  2
*D28
 10
4950.904316012971
 20
6747.023200649772
 30
0.0
 11
4878.461115095845
 21
6669.24860838088
 31
0.0
 70
   160
  3
SUNPOU_30
100
AcDbAlignedDimension
 13
4970.90446860087
 23
6747.023200649772
 33
0.0
 14
4950.904316012971
 24
6184.221149682276
 34
0.0
 50
180.0
100
AcDbRotatedDimension
  0
DIMENSION
  5
143E
330
1E
100
AcDbEntity
  8
SUNPOU
100
AcDbDimension
  2
*D29
 10
2274.904316012971
 20
6747.023200649775
 30
0.0
 11
3612.904316012971
 21
6820.773200649774
 31
0.0
 70
    32
  1
DH=<>
  3
SUNPOU_30
100
AcDbAlignedDimension
 13
4950.904316012971
 23
6184.221149682276
 33
0.0
 14
2274.904316012971
 24
6224.221149682275
 34
0.0
 50
180.0
100
AcDbRotatedDimension
  0
DIMENSION
  5
144B
330
1E
100
AcDbEntity
  8
SUNPOU
100
AcDbDimension
  2
*D30
 10
2270.904316012971
 20
6747.023200649775
 30
0.0
 11
2205.857679811632
 21
6820.920035141496
 31
0.0
 70
   160
  3
SUNPOU_30
100
AcDbAlignedDimension
 13
2274.904316012971
 23
6224.221149682275
 33
0.0
 14
2270.904316012971
 24
6224.221149682275
 34
0.0
 50
180.0
100
AcDbRotatedDimension
  0
DIMENSION
  5
1467
330
1E
100
AcDbEntity
  8
SUNPOU
100
AcDbDimension
  2
*D31
 10
2270.904316012971
 20
6994.456083095021
 30
0.0
 11
3620.904392306921
 21
7068.206083095022
 31
0.0
 70
    32
  1
H=<>
  3
SUNPOU_30
100
AcDbAlignedDimension
 13
4970.90446860087
 23
6994.456083095018
 33
0.0
 14
2270.904316012971
 24
6224.221149682275
 34
0.0
 50
180.0
100
AcDbRotatedDimension
  0
DIMENSION
  5
1474
330
1E
100
AcDbEntity
  8
SUNPOU
100
AcDbDimension
  2
*D32
 10
1690.904468600853
 20
6994.456083095021
 30
0.0
 11
1980.904392306912
 21
7061.956083095022
 31
0.0
 70
    32
  3
SUNPOU_30
100
AcDbAlignedDimension
 13
2270.904316012971
 23
6224.221149682275
 33
0.0
 14
1690.904468600853
 24
6217.274738549459
 34
0.0
 50
180.0
100
AcDbRotatedDimension
  0
DIMENSION
  5
1497
330
1E
100
AcDbEntity
  8
SUNPOU
100
AcDbDimension
  2
*D33
 10
2364.90446860087
 20
2421.352440057791
 30
0.0
 11
2312.738612754669
 21
2346.887431229871
 31
0.0
 70
   160
  3
SUNPOU_30
100
AcDbAlignedDimension
 13
2270.904468600869
 23
2824.221149682275
 33
0.0
 14
2364.90446860087
 24
2665.90551326024
 34
0.0
 50
180.0
100
AcDbRotatedDimension
  0
DIMENSION
  5
14C7
330
1E
100
AcDbEntity
  8
SUNPOU
100
AcDbDimension
  2
*D34
 10
1769.215794916361
 20
4524.221149682275
 30
0.0
 11
1685.462795316905
 21
4410.217062805517
 31
0.0
 70
   160
  3
SUNPOU_30
100
AcDbAlignedDimension
 13
1773.655012243454
 23
4343.221210717422
 33
0.0
 14
1773.655012243454
 24
4524.221149682275
 34
0.0
 50
90.0
100
AcDbRotatedDimension
  0
DIMENSION
  5
14D4
330
1E
100
AcDbEntity
  8
SUNPOU
100
AcDbDimension
  2
*D35
 10
1769.215794916361
 20
4945.220783471333
 30
0.0
 11
1686.627714810298
 21
4734.22099709438
 31
0.0
 70
   160
  3
SUNPOU_30
100
AcDbAlignedDimension
 13
1773.655012243454
 23
4524.221149682275
 33
0.0
 14
1796.132260349139
 24
4945.220783471333
 34
0.0
 50
90.0
100
AcDbRotatedDimension
  0
DIMENSION
  5
14F0
330
1E
100
AcDbEntity
  8
SUNPOU
100
AcDbDimension
  2
*D36
 10
2005.904316012955
 20
3789.917304715654
 30
0.0
 11
2070.904316012962
 21
3715.469268045071
 31
0.0
 70
   160
  3
SUNPOU_30
100
AcDbAlignedDimension
 13
2135.904316012969
 23
3739.949480579925
 33
0.0
 14
2005.904316012955
 24
3739.949480579925
 34
0.0
 50
180.0
100
AcDbRotatedDimension
1001
ACAD
1000
DSTYLE
1002
{
1070
     6
1000
OPEN30
1070
     5
1000

1070
   173
1070
     1
1070
     7
1000
DOTSMALL
1002
}
  0
DIMENSION
  5
14FF
330
1E
100
AcDbEntity
  8
SUNPOU
100
AcDbDimension
  2
*D37
 10
1905.904316012967
 20
3789.917304715654
 30
0.0
 11
1988.047485652438
 21
3871.834229322455
 31
0.0
 70
   160
  3
SUNPOU_30
100
AcDbAlignedDimension
 13
2005.904316012955
 23
3739.949480579925
 33
0.0
 14
1905.904316012967
 24
3789.917304715654
 34
0.0
 50
180.0
100
AcDbRotatedDimension
1001
ACAD
1000
DSTYLE
1002
{
1070
     6
1000
DOTSMALL
1070
     5
1000

1070
   173
1070
     1
1070
     7
1000
OPEN30
1002
}
  0
DIMENSION
  5
150E
330
1E
100
AcDbEntity
  8
SUNPOU
100
AcDbDimension
  2
*D38
 10
1632.904089063302
 20
3789.917304715654
 30
0.0
 11
1756.181479353389
 21
3871.834229322455
 31
0.0
 70
   160
  3
SUNPOU_30
100
AcDbAlignedDimension
 13
1905.904316012967
 23
3789.917304715654
 33
0.0
 14
1632.904089063302
 24
3789.917312442197
 34
0.0
 50
180.0
100
AcDbRotatedDimension
  0
DIMENSION
  5
153C
330
1E
100
AcDbEntity
  8
SUNPOU
100
AcDbDimension
  2
*D39
 10
2274.904316012969
 20
4019.439640734301
 30
0.0
 11
2447.096791657918
 21
3960.329128670851
 31
0.0
 70
   160
  3
SUNPOU_30
100
AcDbAlignedDimension
 13
2374.904316012969
 23
4019.439640734301
 33
0.0
 14
2274.904316012969
 24
4019.439640734301
 34
0.0
 50
180.0
100
AcDbRotatedDimension
1001
ACAD
1000
DSTYLE
1002
{
1070
     6
1000
OPEN30
1070
     5
1000

1070
   173
1070
     1
1070
     7
1000
DOTSMALL
1002
}
  0
DIMENSION
  5
154B
330
1E
100
AcDbEntity
  8
SUNPOU
100
AcDbDimension
  2
*D40
 10
2270.904316012969
 20
4019.439640734301
 30
0.0
 11
2311.182247741608
 21
4083.132079114268
 31
0.0
 70
   160
  3
SUNPOU_30
100
AcDbAlignedDimension
 13
2274.904316012969
 23
4019.439640734301
 33
0.0
 14
2270.904316012969
 24
4019.439640734301
 34
0.0
 50
180.0
100
AcDbRotatedDimension
1001
ACAD
1000
DSTYLE
1002
{
1070
     6
1000
DOTSMALL
1070
     5
1000

1070
   173
1070
     1
1070
     7
1000
DOTSMALL
1002
}
  0
DIMENSION
  5
155A
330
1E
100
AcDbEntity
  8
SUNPOU
100
AcDbDimension
  2
*D41
 10
2160.904316012969
 20
4019.439640734301
 30
0.0
 11
2215.904316012966
 21
3959.488336497154
 31
0.0
 70
   160
  3
SUNPOU_30
100
AcDbAlignedDimension
 13
2270.904316012969
 23
4019.439640734301
 33
0.0
 14
2160.904316012969
 24
4019.439640734301
 34
0.0
 50
180.0
100
AcDbRotatedDimension
1001
ACAD
1000
DSTYLE
1002
{
1070
     7
1000
DOTSMALL
1070
     5
1000

1070
   173
1070
     1
1070
     6
1000
DOTSMALL
1002
}
  0
DIMENSION
  5
1569
330
1E
100
AcDbEntity
  8
SUNPOU
100
AcDbDimension
  2
*D42
 10
2135.904316012969
 20
4019.439640734301
 30
0.0
 11
2079.594577404412
 21
3957.902444677976
 31
0.0
 70
   160
  3
SUNPOU_30
100
AcDbAlignedDimension
 13
2160.904316012969
 23
4019.439640734301
 33
0.0
 14
2135.904316012969
 24
4019.439640734301
 34
0.0
 50
180.0
100
AcDbRotatedDimension
1001
ACAD
1000
DSTYLE
1002
{
1070
     6
1000
DOTSMALL
1070
     5
1000

1070
   173
1070
     1
1070
     7
1000
OPEN30
1002
}
  0
DIMENSION
  5
1578
330
1E
100
AcDbEntity
  8
SUNPOU
100
AcDbDimension
  2
*D43
 10
1732.904095559321
 20
4019.439640734301
 30
0.0
 11
1925.129045185
 21
4094.644774793922
 31
0.0
 70
   160
  3
SUNPOU_30
100
AcDbAlignedDimension
 13
2135.904316012969
 23
4019.439640734301
 33
0.0
 14
1732.904095559321
 24
4019.439652140145
 34
0.0
 50
180.0
100
AcDbRotatedDimension
  0
DIMENSION
  5
1585
330
1E
100
AcDbEntity
  8
SUNPOU
100
AcDbDimension
  2
*D44
 10
1632.904095559319
 20
4019.439640734301
 30
0.0
 11
1558.785378745004
 21
4096.229267546838
 31
0.0
 70
   160
  3
SUNPOU_30
100
AcDbAlignedDimension
 13
1732.904095559321
 23
4019.439652140145
 33
0.0
 14
1632.904095559319
 24
4019.439654970382
 34
0.0
 50
180.0
100
AcDbRotatedDimension
  0
DIMENSION
  5
1594
330
1E
100
AcDbEntity
  8
SUNPOU
100
AcDbDimension
  2
*D45
 10
2662.313341733093
 20
4455.071064233051
 30
0.0
 11
2595.283863949907
 21
4271.953067651844
 31
0.0
 70
   160
  3
SUNPOU_30
100
AcDbAlignedDimension
 13
2396.25847250711
 23
4415.071064233051
 33
0.0
 14
2396.25847250711
 24
4455.071064233051
 34
0.0
 50
90.0
100
AcDbRotatedDimension
  0
DIMENSION
  5
15A3
330
1E
100
AcDbEntity
  8
SUNPOU
100
AcDbDimension
  2
*D46
 10
2662.313341733093
 20
4593.371235131481
 30
0.0
 11
2600.414319321942
 21
4782.61544762909
 31
0.0
 70
   160
  3
SUNPOU_30
100
AcDbAlignedDimension
 13
2396.25847250711
 23
4633.371235131481
 33
0.0
 14
2396.25847250711
 24
4593.371235131481
 34
0.0
 50
90.0
100
AcDbRotatedDimension
  0
DIMENSION
  5
15DE
330
1E
100
AcDbEntity
  8
SUNPOU
100
AcDbDimension
  2
*D47
 10
2639.191196805799
 20
2954.221149682275
 30
0.0
 11
2709.532833045626
 21
3134.479159649807
 31
0.0
 70
   160
  3
SUNPOU_30
100
AcDbAlignedDimension
 13
2289.904254977809
 23
3154.221149682275
 33
0.0
 14
2636.106280104801
 24
2954.221149682275
 34
0.0
 50
90.0
100
AcDbRotatedDimension
  0
DIMENSION
  5
15EB
330
1E
100
AcDbEntity
  8
SUNPOU
100
AcDbDimension
  2
*D48
 10
2471.297603821494
 20
3154.221149682271
 30
0.0
 11
2423.141518038657
 21
3248.248545316361
 31
0.0
 70
   160
  3
SUNPOU_30
100
AcDbAlignedDimension
 13
2289.904254977809
 23
3114.221149682274
 33
0.0
 14
2471.297603821494
 24
3154.221149682271
 34
0.0
 50
90.0
100
AcDbRotatedDimension
  0
LINE
  5
165D
330
1E
100
AcDbEntity
  8
SAISEN
100
AcDbLine
 10
1010.873807697053
 20
4624.221149682274
 30
0.0
 11
1210.873342120254
 21
4424.221149682273
 31
0.0
  0
LINE
  5
165E
330
1E
100
AcDbEntity
  8
SAISEN
100
AcDbLine
 10
1033.709426256313
 20
4624.221149682274
 30
0.0
 11
1233.7093506122
 21
4424.221149682273
 31
0.0
  0
LINE
  5
165F
330
1E
100
AcDbEntity
  8
SAISEN
100
AcDbLine
 10
1081.918864613713
 20
4624.221149682274
 30
0.0
 11
1281.919019806461
 21
4424.221149682273
 31
0.0
  0
LINE
  5
1660
330
1E
100
AcDbEntity
  8
SAISEN
100
AcDbLine
 10
604.3657723117994
 20
7257.897576331008
 30
0.0
 11
904.3657723117997
 21
6957.897462864797
 31
0.0
  0
LINE
  5
1661
330
1E
100
AcDbEntity
  8
SAISEN
100
AcDbLine
 10
604.3657723117994
 20
7235.062741690838
 30
0.0
 11
904.3657723117997
 21
6935.062043324015
 31
0.0
  0
LINE
  5
1662
330
1E
100
AcDbEntity
  8
SAISEN
100
AcDbLine
 10
604.3657723117994
 20
7306.106481738145
 30
0.0
 11
904.3657723117997
 21
7006.106714527087
 31
0.0
  0
LINE
  5
1663
330
1E
100
AcDbEntity
  8
SAISEN
100
AcDbLine
 10
604.3657723117994
 20
2544.035119806864
 30
0.0
 11
904.3657723117958
 21
2244.035352595804
 31
0.0
  0
LINE
  5
1664
330
1E
100
AcDbEntity
  8
SAISEN
100
AcDbLine
 10
604.3657723117994
 20
2472.991379759558
 30
0.0
 11
904.3657723117958
 21
2172.990681392732
 31
0.0
  0
LINE
  5
1665
330
1E
100
AcDbEntity
  8
SAISEN
100
AcDbLine
 10
604.3657723117994
 20
2495.826214399726
 30
0.0
 11
904.3657723117958
 21
2195.826100933514
 31
0.0
  0
LINE
  5
1666
330
1E
100
AcDbEntity
  8
SAISEN
100
AcDbLine
 10
604.3657723117994
 20
3630.928651780529
 30
0.0
 11
904.3657723117997
 21
3330.928538314317
 31
0.0
  0
LINE
  5
1667
330
1E
100
AcDbEntity
  8
SAISEN
100
AcDbLine
 10
604.3657723117994
 20
3608.09381714036
 30
0.0
 11
904.3657723117997
 21
3308.093118773536
 31
0.0
  0
LINE
  5
1668
330
1E
100
AcDbEntity
  8
SAISEN
100
AcDbLine
 10
604.3657723117994
 20
3679.137557187667
 30
0.0
 11
904.3657723117997
 21
3379.137789976608
 31
0.0
  0
LINE
  5
1669
330
1E
100
AcDbEntity
  8
SAISEN
100
AcDbLine
 10
604.3657723117957
 20
6332.012742706
 30
0.0
 11
904.3657723117958
 21
6032.012975494945
 31
0.0
  0
LINE
  5
166A
330
1E
100
AcDbEntity
  8
SAISEN
100
AcDbLine
 10
604.3657723117957
 20
6260.969002658698
 30
0.0
 11
904.3657723117958
 21
5960.968304291871
 31
0.0
  0
LINE
  5
166B
330
1E
100
AcDbEntity
  8
SAISEN
100
AcDbLine
 10
604.3657723117957
 20
6283.803837298868
 30
0.0
 11
904.3657723117958
 21
5983.80372383265
 31
0.0
  0
POLYLINE
  5
17E0
330
1E
100
AcDbEntity
  8
DEFPOINTS
100
AcDb2dPolyline
 66
     1
 10
0.0
 20
0.0
 30
0.0
 70
     1
  0
VERTEX
  5
396C
330
17E0
100
AcDbEntity
  8
DEFPOINTS
100
AcDbVertex
100
AcDb2dVertex
 10
0.000000000001819
 20
8410.0
 30
0.0
  0
VERTEX
  5
396D
330
17E0
100
AcDbEntity
  8
DEFPOINTS
100
AcDbVertex
100
AcDb2dVertex
 10
0.0
 20
0.0
 30
0.0
  0
VERTEX
  5
396E
330
17E0
100
AcDbEntity
  8
DEFPOINTS
100
AcDbVertex
100
AcDb2dVertex
 10
5940.0
 20
-0.000000000003638
 30
0.0
  0
VERTEX
  5
396F
330
17E0
100
AcDbEntity
  8
DEFPOINTS
100
AcDbVertex
100
AcDb2dVertex
 10
5940.000000000003
 20
8409.999999999996
 30
0.0
  0
SEQEND
  5
3970
330
17E0
100
AcDbEntity
  8
DEFPOINTS
  0
LINE
  5
1A8C
330
1E
100
AcDbEntity
  8
KAKURE
 48
60.0
100
AcDbLine
 10
2289.904254977807
 20
5949.221149682275
 30
0.0
 11
2289.904254977807
 21
5919.221149682275
 31
0.0
  0
LINE
  5
1A8D
330
1E
100
AcDbEntity
  8
KAKURE
 48
60.0
100
AcDbLine
 10
2190.904010837189
 20
5963.221393822891
 30
0.0
 11
2190.904010837189
 21
5773.221088647115
 31
0.0
  0
LINE
  5
1A8E
330
1E
100
AcDbEntity
  8
KAKURE
 48
60.0
100
AcDbLine
 10
2266.904071872338
 20
5963.221393822891
 30
0.0
 11
2266.904071872338
 21
5729.221149682274
 31
0.0
  0
LINE
  5
1A8F
330
1E
100
AcDbEntity
  8
KAKURE
 48
60.0
100
AcDbLine
 10
2270.904316012968
 20
5949.221149682275
 30
0.0
 11
2289.904254977807
 21
5949.221149682275
 31
0.0
  0
LINE
  5
1A90
330
1E
100
AcDbEntity
  8
KAKURE
 48
60.0
100
AcDbLine
 10
2266.904071872338
 20
5989.221149682276
 30
0.0
 11
2266.904071872338
 21
5963.221393822891
 31
0.0
  0
LINE
  5
1A91
330
1E
100
AcDbEntity
  8
KAKURE
 48
60.0
100
AcDbLine
 10
2266.904071872338
 20
5989.221149682276
 30
0.0
 11
2270.904316012968
 21
5989.221149682276
 31
0.0
  0
LINE
  5
1A92
330
1E
100
AcDbEntity
  8
KAKURE
 48
60.0
100
AcDbLine
 10
2190.904010837189
 20
5963.221393822891
 30
0.0
 11
2266.904071872338
 21
5963.221393822891
 31
0.0
  0
LINE
  5
1A93
330
1E
100
AcDbEntity
  8
KAKURE
 48
60.0
100
AcDbLine
 10
2270.904316012968
 20
5919.221149682275
 30
0.0
 11
2289.904254977807
 21
5919.221149682275
 31
0.0
  0
LINE
  5
1A94
330
1E
100
AcDbEntity
  8
CHUSIN
 48
10.0
100
AcDbLine
 10
2198.904193942659
 20
5894.221149682276
 30
0.0
 11
2240.90401083719
 21
5894.221149682276
 31
0.0
  0
LINE
  5
1A95
330
1E
100
AcDbEntity
  8
CHUSIN
 48
10.0
100
AcDbLine
 10
2219.904254977806
 20
5915.221210717436
 30
0.0
 11
2219.904254977806
 21
5873.221088647116
 31
0.0
  0
LINE
  5
1A9B
330
1E
100
AcDbEntity
  8
KAKURE
 48
60.0
100
AcDbLine
 10
2205.90401083719
 20
5756.220966576801
 30
0.0
 11
2266.904071872338
 21
5756.220966576801
 31
0.0
  0
LINE
  5
1A9C
330
1E
100
AcDbEntity
  8
KAKURE
 48
60.0
100
AcDbLine
 10
2205.90401083719
 20
5773.221088647115
 30
0.0
 11
2205.90401083719
 21
5756.220966576801
 31
0.0
  0
LINE
  5
1AA0
330
1E
100
AcDbEntity
  8
KAKURE
 48
60.0
100
AcDbLine
 10
2190.904010837189
 20
5773.221088647115
 30
0.0
 11
2205.90401083719
 21
5773.221088647115
 31
0.0
  0
DIMENSION
  5
1B4A
330
1E
100
AcDbEntity
  8
SUNPOU
100
AcDbDimension
  2
*D51
 10
2639.191196805801
 20
6094.221149682276
 30
0.0
 11
2720.143583870466
 21
5910.929834627885
 31
0.0
 70
   160
  3
SUNPOU_30
100
AcDbAlignedDimension
 13
2289.90425497781
 23
5894.221149682276
 33
0.0
 14
2636.106280104803
 24
6094.221149682276
 34
0.0
 50
270.0
100
AcDbRotatedDimension
  0
DIMENSION
  5
1B4B
330
1E
100
AcDbEntity
  8
SUNPOU
100
AcDbDimension
  2
*D52
 10
2471.297603821496
 20
5894.221149682276
 30
0.0
 11
2423.141518038659
 21
5800.193754048189
 31
0.0
 70
   160
  3
SUNPOU_30
100
AcDbAlignedDimension
 13
2289.90425497781
 23
5934.221149682276
 33
0.0
 14
2471.297603821496
 24
5894.221149682276
 34
0.0
 50
270.0
100
AcDbRotatedDimension
  0
LEADER
  5
2653
330
1E
100
AcDbEntity
  8
HIKIDASI
100
AcDbLeader
  3
SUNPOU_30
 73
     0
 74
     0
 75
     1
 40
62.5
 41
180.0
 76
     3
 10
2241.571408153921
 20
3274.662484605313
 30
0.0
 10
2645.666642448772
 20
3357.306480989553
 30
0.0
 10
2645.666642448772
 20
3432.306480989553
 30
0.0
340
2654
211
0.0000000000000001
221
1.0
231
0.0
1001
ACAD
1000
DSTYLE
1002
{
1070
     5
1000
OPEN30
1070
    77
1070
     1
1070
   147
1040
1.0
1070
   342
1005
BB3
1002
}
1000
LEANOF
1010
0.0
1020
0.0
1030
0.0
1000
LEANOF
1010
0.0
1020
0.0
1030
0.0
  0
MTEXT
  5
2654
330
1E
100
AcDbEntity
  8
HIKIDASI
100
AcDbMText
 10
2620.666642448772
 20
3457.306480989553
 30
0.0
 40
62.5
 41
0.0
 71
     7
 72
     1
  1
電気錠
  7
SUNPOU
 11
0.0000000000000001
 21
1.0
 31
0.0
1001
ACAD
1000
MTEXTBEGIN
1070
    73
1070
     1
1070
    44
1040
1.0
1070
    74
1070
     0
1000
MTEXTEND
1000
MTEXTBEGIN
1070
    73
1070
     1
1070
    44
1040
1.0
1070
    74
1070
     0
1000
MTEXTEND
  0
LEADER
  5
2657
330
1E
100
AcDbEntity
  8
HIKIDASI
100
AcDbLeader
  3
SUNPOU_30
 73
     0
 74
     0
 75
     1
 40
62.5
 41
616.6666666666667
 76
     3
 10
1632.90411126093
 20
4574.221149641217
 30
0.0
 10
1521.279919477028
 20
4639.097141753485
 30
0.0
 10
1521.279919477028
 20
4714.097141753486
 30
0.0
340
2658
211
0.0000000000000001
221
1.0
231
0.0
1001
ACAD
1000
DSTYLE
1002
{
1070
     5
1000
OPEN30
1070
    77
1070
     1
1070
   147
1040
1.0
1070
   342
1005
BB3
1002
}
1000
LEANOF
1010
0.0
1020
0.0
1030
0.0
1000
LEANOF
1010
0.0
1020
0.0
1030
0.0
  0
MTEXT
  5
2658
330
1E
100
AcDbEntity
  8
HIKIDASI
100
AcDbMText
 10
1496.279919477028
 20
4739.097141753485
 30
0.0
 40
62.5
 41
0.0
 71
     7
 72
     1
  1
\U+25A1－100×100×3.2t
  7
SUNPOU
 11
0.0000000000000001
 21
1.0
 31
0.0
1001
ACAD
1000
MTEXTBEGIN
1070
    73
1070
     1
1070
    44
1040
1.0
1070
    74
1070
     0
1000
MTEXTEND
1000
MTEXTBEGIN
1070
    73
1070
     1
1070
    44
1040
1.0
1070
    74
1070
     0
1000
MTEXTEND
  0
MTEXT
  5
2AAD
330
1E
100
AcDbEntity
  8
MOJI
100
AcDbMText
 10
4864.690348817272
 20
1522.414965260301
 30
0.0
 40
62.5
 41
0.0
 71
     1
 72
     1
  1
F.L
  7
0_8
 11
0.0000000000000001
 21
1.0
 31
0.0
1001
ACAD
1000
MTEXTBEGIN
1070
    73
1070
     1
1070
    44
1040
1.0
1070
    74
1070
     0
1000
MTEXTEND
1000
MTEXTBEGIN
1070
    73
1070
     1
1070
    44
1040
1.0
1070
    74
1070
     0
1000
MTEXTEND
  0
LINE
  5
2AD4
330
1E
100
AcDbEntity
  8
06
100
AcDbLine
 10
2146.904316012968
 20
4469.221149682272
 30
0.0
 11
2146.904316012968
 21
4579.221149682274
 31
0.0
  0
LINE
  5
2AD6
330
1E
100
AcDbEntity
  8
06
100
AcDbLine
 10
2160.904316012966
 20
4456.221149682273
 30
0.0
 11
2154.904316012966
 21
4456.221149682273
 31
0.0
  0
LINE
  5
2AD7
330
1E
100
AcDbEntity
  8
06
100
AcDbLine
 10
2154.904316012966
 20
4456.221149682273
 30
0.0
 11
2146.904316012968
 21
4469.221149682272
 31
0.0
  0
LINE
  5
2AD8
330
1E
100
AcDbEntity
  8
06
100
AcDbLine
 10
2160.904316012966
 20
4592.221149682274
 30
0.0
 11
2154.904316012966
 21
4592.221149682274
 31
0.0
  0
LINE
  5
2AD9
330
1E
100
AcDbEntity
  8
06
100
AcDbLine
 10
2154.904316012966
 20
4592.221149682274
 30
0.0
 11
2146.904316012968
 21
4579.221149682274
 31
0.0
  0
LINE
  5
2EDE
330
1E
100
AcDbEntity
  8
06
100
AcDbLine
 10
2160.904316012966
 20
4592.221149682274
 30
0.0
 11
2160.904316012966
 21
4456.221149682273
 31
0.0
  0
LINE
  5
2EE0
330
1E
100
AcDbEntity
  8
KAKURE
100
AcDbLine
 10
2118.904316012967
 20
4236.520175400891
 30
0.0
 11
2118.904316012967
 21
4938.221454858041
 31
0.0
  0
LINE
  5
2EE1
330
1E
100
AcDbEntity
  8
KAKURE
100
AcDbLine
 10
2118.904316012967
 20
4938.221454858041
 30
0.0
 11
2113.904316012968
 21
4938.221454858042
 31
0.0
  0
LINE
  5
2EE2
330
1E
100
AcDbEntity
  8
KAKURE
100
AcDbLine
 10
2113.904316012968
 20
4236.520175400891
 30
0.0
 11
2113.904316012968
 21
4938.221454858042
 31
0.0
  0
LINE
  5
2EE4
330
1E
100
AcDbEntity
  8
06
100
AcDbLine
 10
2113.904316012968
 20
4880.221393822893
 30
0.0
 11
2113.904316012968
 21
4945.221088647115
 31
0.0
  0
LINE
  5
2EE5
330
1E
100
AcDbEntity
  8
KAKURE
100
AcDbLine
 10
2113.904316012968
 20
4945.221088647115
 30
0.0
 11
2113.904316012968
 21
4985.220783471334
 31
0.0
  0
LINE
  5
2EE7
330
1E
100
AcDbEntity
  8
06
100
AcDbLine
 10
2051.904560415864
 20
4939.221088647115
 30
0.0
 11
2101.904318182544
 21
4939.221088647115
 31
0.0
  0
LINE
  5
2EE8
330
1E
100
AcDbEntity
  8
06
100
AcDbLine
 10
2107.904316012968
 20
4933.22108907629
 30
0.0
 11
2107.904316012968
 21
4883.221393822893
 31
0.0
  0
ARC
  5
2EEB
330
1E
100
AcDbEntity
  8
06
100
AcDbCircle
 10
2110.904316012968
 20
4883.221393822893
 30
0.0
 40
3.0
100
AcDbArc
 50
179.9999999999994
 51
270.0000000000116
  0
LINE
  5
2EEC
330
1E
100
AcDbEntity
  8
03
100
AcDbLine
 10
2098.904316012967
 20
4922.221088647114
 30
0.0
 11
2098.904316012967
 21
4373.221454858051
 31
0.0
  0
LINE
  5
2EED
330
1E
100
AcDbEntity
  8
06
100
AcDbLine
 10
2051.904560415864
 20
4349.221210717423
 30
0.0
 11
2101.904318182544
 21
4349.221210717423
 31
0.0
  0
LINE
  5
2EEE
330
1E
100
AcDbEntity
  8
06
100
AcDbLine
 10
2048.904377048127
 20
4343.221210717422
 30
0.0
 11
2113.904316012968
 21
4343.221210717422
 31
0.0
  0
ARC
  5
2EEF
330
1E
100
AcDbEntity
  8
06
100
AcDbCircle
 10
2051.904560153596
 20
4346.221210896238
 30
0.0
 40
2.999999821186068
100
AcDbArc
 50
89.99999499104403
 51
179.9999974955218
  0
LINE
  5
2EF0
330
1E
100
AcDbEntity
  8
06
100
AcDbLine
 10
2048.904377048127
 20
4343.221638142323
 30
0.0
 11
2048.904377048127
 21
4346.221210896234
 31
0.0
  0
ARC
  5
2EF1
330
1E
100
AcDbEntity
  8
06
100
AcDbCircle
 10
2101.904316370596
 20
4355.221210359796
 30
0.0
 40
5.99999964237213
100
AcDbArc
 50
270.000017302844
 51
359.999999316755
  0
ARC
  5
2EF2
330
1E
100
AcDbEntity
  8
06
100
AcDbCircle
 10
2110.904316012968
 20
4405.220905541646
 30
0.0
 40
3.0
100
AcDbArc
 50
89.9999999999884
 51
180.0000000000004
  0
LINE
  5
2EF3
330
1E
100
AcDbEntity
  8
06
100
AcDbLine
 10
2113.904316012968
 20
4407.220905541644
 30
0.0
 11
2113.904316012968
 21
4342.221210717424
 31
0.0
  0
LINE
  5
2EF4
330
1E
100
AcDbEntity
  8
06
100
AcDbLine
 10
2107.904316012968
 20
4355.221210288247
 30
0.0
 11
2107.904316012968
 21
4405.220905541646
 31
0.0
  0
LINE
  5
2EF5
330
1E
100
AcDbEntity
  8
06
100
AcDbLine
 10
2110.904316012968
 20
4408.220905541646
 30
0.0
 11
2113.904316012968
 21
4408.220905541646
 31
0.0
  0
LINE
  5
2EF6
330
1E
100
AcDbEntity
  8
03
 48
60.0
100
AcDbLine
 10
1697.483020846959
 20
4950.220783471332
 30
0.0
 11
2113.904316012968
 21
4950.220783471332
 31
0.0
  0
LINE
  5
2EF7
330
1E
100
AcDbEntity
  8
03
 48
60.0
100
AcDbLine
 10
1697.483020846959
 20
4985.220783471334
 30
0.0
 11
2113.904316012968
 21
4985.220783471334
 31
0.0
  0
LINE
  5
2F0B
330
1E
100
AcDbEntity
  8
SAISEN
100
AcDbLine
 10
5120.90439230692
 20
2569.123245715251
 30
0.0
 11
5320.904392306919
 21
2369.122780137368
 31
0.0
  0
LINE
  5
2F0C
330
1E
100
AcDbEntity
  8
SAISEN
100
AcDbLine
 10
5120.90439230692
 20
2640.168472766032
 30
0.0
 11
5320.904392306919
 21
2440.168627958662
 31
0.0
  0
LINE
  5
2F0D
330
1E
100
AcDbEntity
  8
SAISEN
100
AcDbLine
 10
5120.90439230692
 20
2594.496475695723
 30
0.0
 11
5320.904392306919
 21
2394.49640005158
 31
0.0
  0
LINE
  5
2F0E
330
1E
100
AcDbEntity
  8
SAISEN
100
AcDbLine
 10
5120.90439230692
 20
4160.875259875409
 30
0.0
 11
5320.90439230692
 21
3960.87518391269
 31
0.0
  0
LINE
  5
2F0F
330
1E
100
AcDbEntity
  8
SAISEN
100
AcDbLine
 10
5120.904392306917
 20
4076.297623156661
 30
0.0
 11
5320.90439230692
 21
3876.297312028048
 31
0.0
  0
LINE
  5
2F10
330
1E
100
AcDbEntity
  8
SAISEN
100
AcDbLine
 10
5120.904392306917
 20
4102.140518664473
 30
0.0
 11
5320.90439230692
 21
3902.14028807944
 31
0.0
  0
LINE
  5
3262
330
1E
100
AcDbEntity
  8
CHUSIN
 48
15.0
100
AcDbLine
 10
5146.835100044082
 20
4524.221149682271
 30
0.0
 11
735.0700754254049
 21
4524.221149682275
 31
0.0
  0
LINE
  5
32D2
330
1E
100
AcDbEntity
  8
03
100
AcDbLine
 10
1825.941547458279
 20
4540.221149682275
 30
0.0
 11
1825.941547458279
 21
4542.221149682275
 31
0.0
  0
LINE
  5
32D3
330
1E
100
AcDbEntity
  8
03
100
AcDbLine
 10
1825.941547458279
 20
4508.221149682275
 30
0.0
 11
1825.941547458279
 21
4506.221149682274
 31
0.0
  0
LINE
  5
32D4
330
1E
100
AcDbEntity
  8
03
100
AcDbLine
 10
1827.94154745828
 20
4564.221149682274
 30
0.0
 11
1827.94154745828
 21
4542.221149682275
 31
0.0
  0
LINE
  5
32D5
330
1E
100
AcDbEntity
  8
03
100
AcDbLine
 10
1827.94154745828
 20
4484.221149682275
 30
0.0
 11
1827.94154745828
 21
4506.221149682274
 31
0.0
  0
LINE
  5
32D7
330
1E
100
AcDbEntity
  8
03
100
AcDbLine
 10
1833.94154745828
 20
4564.221149682274
 30
0.0
 11
1833.94154745828
 21
4544.221149682273
 31
0.0
  0
LINE
  5
32D8
330
1E
100
AcDbEntity
  8
03
100
AcDbLine
 10
1833.94154745828
 20
4504.221149682273
 30
0.0
 11
1833.94154745828
 21
4484.221149682275
 31
0.0
  0
LINE
  5
32D9
330
1E
100
AcDbEntity
  8
03
100
AcDbLine
 10
1845.941486423127
 20
4504.221149682273
 30
0.0
 11
1845.941486423127
 21
4484.221149682275
 31
0.0
  0
LINE
  5
32DA
330
1E
100
AcDbEntity
  8
03
100
AcDbLine
 10
1845.941486423127
 20
4544.221149682273
 30
0.0
 11
1845.941486423127
 21
4564.221149682274
 31
0.0
  0
LINE
  5
32DB
330
1E
100
AcDbEntity
  8
03
100
AcDbLine
 10
1852.31898886453
 20
4587.254719018212
 30
0.0
 11
1852.31898886453
 21
4564.221149682274
 31
0.0
  0
LINE
  5
32DC
330
1E
100
AcDbEntity
  8
03
100
AcDbLine
 10
1882.319049899686
 20
4587.254719018212
 30
0.0
 11
1882.319049899686
 21
4599.221149682274
 31
0.0
  0
LINE
  5
32DD
330
1E
100
AcDbEntity
  8
03
100
AcDbLine
 10
1891.319049899686
 20
4599.221149682274
 30
0.0
 11
1891.319049899686
 21
4587.221149682275
 31
0.0
  0
LINE
  5
32DE
330
1E
100
AcDbEntity
  8
03
100
AcDbLine
 10
1921.793598239529
 20
4599.221149682274
 30
0.0
 11
1921.793598239529
 21
4587.221149682275
 31
0.0
  0
LINE
  5
32DF
330
1E
100
AcDbEntity
  8
03
100
AcDbLine
 10
1930.79359823953
 20
4599.221149682274
 30
0.0
 11
1930.79359823953
 21
4586.446857690094
 31
0.0
  0
LINE
  5
32E0
330
1E
100
AcDbEntity
  8
03
100
AcDbLine
 10
1882.319049899686
 20
4461.221149682273
 30
0.0
 11
1882.319049899686
 21
4449.221149682275
 31
0.0
  0
LINE
  5
32E1
330
1E
100
AcDbEntity
  8
03
100
AcDbLine
 10
1891.319049899686
 20
4461.221149682273
 30
0.0
 11
1891.319049899686
 21
4449.221149682275
 31
0.0
  0
LINE
  5
32E2
330
1E
100
AcDbEntity
  8
03
100
AcDbLine
 10
1921.793598239529
 20
4461.221149682273
 30
0.0
 11
1921.793598239529
 21
4449.221149682275
 31
0.0
  0
LINE
  5
32E3
330
1E
100
AcDbEntity
  8
03
100
AcDbLine
 10
1930.79359823953
 20
4461.633503197902
 30
0.0
 11
1930.79359823953
 21
4449.221149682275
 31
0.0
  0
LINE
  5
32E4
330
1E
100
AcDbEntity
  8
03
100
AcDbLine
 10
1972.080524509061
 20
4599.221149682274
 30
0.0
 11
1972.080524509061
 21
4587.221149682275
 31
0.0
  0
LINE
  5
32E5
330
1E
100
AcDbEntity
  8
03
100
AcDbLine
 10
1972.080524509061
 20
4461.221149682273
 30
0.0
 11
1972.080524509061
 21
4449.221149682275
 31
0.0
  0
LINE
  5
32E6
330
1E
100
AcDbEntity
  8
03
100
AcDbLine
 10
1896.080707614526
 20
4782.221393822893
 30
0.0
 11
1896.080707614526
 21
4780.221393822891
 31
0.0
  0
LINE
  5
32E7
330
1E
100
AcDbEntity
  8
03
100
AcDbLine
 10
1900.080768649682
 20
4784.221393822892
 30
0.0
 11
1900.080768649682
 21
4782.221393822893
 31
0.0
  0
LINE
  5
32E8
330
1E
100
AcDbEntity
  8
03
100
AcDbLine
 10
1896.080707614526
 20
4748.221393822891
 30
0.0
 11
1896.080707614526
 21
4746.221393822891
 31
0.0
  0
LINE
  5
32E9
330
1E
100
AcDbEntity
  8
03
100
AcDbLine
 10
1900.080768649682
 20
4746.221393822891
 30
0.0
 11
1900.080768649682
 21
4744.221393822892
 31
0.0
  0
LINE
  5
32EA
330
1E
100
AcDbEntity
  8
03
100
AcDbLine
 10
1914.080768649682
 20
4784.221393822892
 30
0.0
 11
1914.080768649682
 21
4794.221393822891
 31
0.0
  0
LINE
  5
32EB
330
1E
100
AcDbEntity
  8
03
100
AcDbLine
 10
1914.080768649682
 20
4744.221393822892
 30
0.0
 11
1914.080768649682
 21
4734.221393822891
 31
0.0
  0
LINE
  5
32EC
330
1E
100
AcDbEntity
  8
03
100
AcDbLine
 10
1971.080768649683
 20
4804.221393822892
 30
0.0
 11
1971.080768649683
 21
4784.221393822892
 31
0.0
  0
LINE
  5
32ED
330
1E
100
AcDbEntity
  8
03
100
AcDbLine
 10
1971.080768649683
 20
4744.221393822892
 30
0.0
 11
1971.080768649683
 21
4724.221393822891
 31
0.0
  0
LINE
  5
3404
330
1E
100
AcDbEntity
  8
KAKURE
100
AcDbLine
 10
2266.904071872338
 20
3319.221149682275
 30
0.0
 11
2270.904316012968
 21
3319.221149682275
 31
0.0
  0
LINE
  5
3405
330
1E
100
AcDbEntity
  8
KAKURE
100
AcDbLine
 10
2266.904071872338
 20
5729.221149682274
 30
0.0
 11
2270.904316012971
 21
5729.221149682274
 31
0.0
  0
LINE
  5
340F
330
1E
100
AcDbEntity
  8
03
 48
50.0
100
AcDbLine
 10
4933.904438083291
 20
4554.221149682271
 30
0.0
 11
4933.904438083291
 21
4674.221149682271
 31
0.0
  0
LINE
  5
3410
330
1E
100
AcDbEntity
  8
03
 48
50.0
100
AcDbLine
 10
4946.904438083291
 20
4554.221149682271
 30
0.0
 11
4946.904438083291
 21
4674.221149682271
 31
0.0
  0
LINE
  5
3411
330
1E
100
AcDbEntity
  8
03
100
AcDbLine
 10
1807.234882419217
 20
2875.221210717434
 30
0.0
 11
1905.904316012967
 21
2875.221210717434
 31
0.0
  0
LINE
  5
3412
330
1E
100
AcDbEntity
  8
03
100
AcDbLine
 10
2005.904316012967
 20
2875.221210717434
 30
0.0
 11
2255.904590671188
 21
2875.221210717434
 31
0.0
  0
LINE
  5
3413
330
1E
100
AcDbEntity
  8
03
100
AcDbLine
 10
2118.90449911844
 20
6173.221088647113
 30
0.0
 11
2255.904590671174
 21
6173.221088647116
 31
0.0
  0
LINE
  5
347C
330
1E
100
AcDbEntity
  8
03
100
AcDbLine
 10
4970.90446860087
 20
2924.221149682271
 30
0.0
 11
2270.904468600869
 21
2924.221149682271
 31
0.0
  0
LINE
  5
347D
330
1E
100
AcDbEntity
  8
03
100
AcDbLine
 10
2270.904468600869
 20
2854.221149682271
 30
0.0
 11
4970.90446860087
 21
2854.221149682271
 31
0.0
  0
LINE
  5
3483
330
1E
100
AcDbEntity
  8
CHUSIN
100
AcDbLine
 10
2350.472164878272
 20
2889.221149682274
 30
0.0
 11
4785.43928607291
 21
2889.221149682271
 31
0.0
  0
LINE
  5
3484
330
1E
100
AcDbEntity
  8
03
100
AcDbLine
 10
4771.654468600869
 20
2878.221149682271
 30
0.0
 11
2364.15446860087
 21
2878.22114968227
 31
0.0
  0
LINE
  5
3485
330
1E
100
AcDbEntity
  8
03
100
AcDbLine
 10
4771.654468600869
 20
2900.221149682271
 30
0.0
 11
2364.15446860087
 21
2900.221149682269
 31
0.0
  0
LINE
  5
3486
330
1E
100
AcDbEntity
  8
06
100
AcDbLine
 10
2354.90446860087
 20
2885.221149682271
 30
0.0
 11
4780.904468600868
 21
2885.221149682271
 31
0.0
  0
LINE
  5
3487
330
1E
100
AcDbEntity
  8
06
100
AcDbLine
 10
2354.904468600869
 20
2893.22114968227
 30
0.0
 11
4780.904468600868
 21
2893.22114968227
 31
0.0
  0
LINE
  5
3488
330
1E
100
AcDbEntity
  8
06
100
AcDbLine
 10
2354.90446860087
 20
2886.22114968227
 30
0.0
 11
4780.904468600868
 21
2886.22114968227
 31
0.0
  0
LINE
  5
3489
330
1E
100
AcDbEntity
  8
06
100
AcDbLine
 10
2354.90446860087
 20
2892.221149682271
 30
0.0
 11
4780.904468600868
 21
2892.221149682271
 31
0.0
  0
LINE
  5
348B
330
1E
100
AcDbEntity
  8
03
100
AcDbLine
 10
2346.154468600869
 20
2857.221149682274
 30
0.0
 11
2270.90446860087
 21
2857.221149682274
 31
0.0
  0
LINE
  5
348C
330
1E
100
AcDbEntity
  8
03
100
AcDbLine
 10
2346.904468600869
 20
2920.471149682274
 30
0.0
 11
2346.904468600869
 21
2857.971149682274
 31
0.0
  0
ARC
  5
348D
330
1E
100
AcDbEntity
  8
03
100
AcDbCircle
 10
2346.154468600869
 20
2857.971149682274
 30
0.0
 40
0.75
100
AcDbArc
 50
270.0
 51
0.0
  0
LINE
  5
348E
330
1E
100
AcDbEntity
  8
03
100
AcDbLine
 10
2364.15446860087
 20
2860.221149682274
 30
0.0
 11
2346.904468600869
 21
2860.221149682274
 31
0.0
  0
LINE
  5
348F
330
1E
100
AcDbEntity
  8
03
100
AcDbLine
 10
2346.904468600869
 20
2861.721149682274
 30
0.0
 11
2363.40446860087
 21
2861.721149682274
 31
0.0
  0
LINE
  5
3490
330
1E
100
AcDbEntity
  8
03
100
AcDbLine
 10
2363.40446860087
 20
2861.721149682274
 30
0.0
 11
2363.40446860087
 21
2876.721149682274
 31
0.0
  0
ARC
  5
3491
330
1E
100
AcDbEntity
  8
03
100
AcDbCircle
 10
2364.15446860087
 20
2860.971149682274
 30
0.0
 40
0.75
100
AcDbArc
 50
270.0
 51
0.0
  0
LINE
  5
3492
330
1E
100
AcDbEntity
  8
03
100
AcDbLine
 10
2364.90446860087
 20
2877.471149682274
 30
0.0
 11
2364.90446860087
 21
2860.971149682274
 31
0.0
  0
LINE
  5
3493
330
1E
100
AcDbEntity
  8
03
100
AcDbLine
 10
2346.904468600869
 20
2878.221149682275
 30
0.0
 11
2364.15446860087
 21
2878.221149682275
 31
0.0
  0
LINE
  5
3494
330
1E
100
AcDbEntity
  8
03
100
AcDbLine
 10
2363.40446860087
 20
2876.721149682274
 30
0.0
 11
2346.904468600869
 21
2876.721149682274
 31
0.0
  0
ARC
  5
3495
330
1E
100
AcDbEntity
  8
06
100
AcDbCircle
 10
2376.568332531029
 20
2878.460045702229
 30
0.0
 40
12.41616240973193
100
AcDbArc
 50
147.0067275829085
 51
181.1024806152531
  0
ARC
  5
3496
330
1E
100
AcDbEntity
  8
03
100
AcDbCircle
 10
2364.15446860087
 20
2877.471149682274
 30
0.0
 40
0.75
100
AcDbArc
 50
0.0
 51
90.0
  0
LINE
  5
3497
330
1E
100
AcDbEntity
  8
03
100
AcDbLine
 10
2345.404468600869
 20
2858.721149682274
 30
0.0
 11
2270.90446860087
 21
2858.721149682274
 31
0.0
  0
LINE
  5
3498
330
1E
100
AcDbEntity
  8
03
100
AcDbLine
 10
2345.404468600869
 20
2919.721149682274
 30
0.0
 11
2345.404468600869
 21
2858.721149682274
 31
0.0
  0
LINE
  5
349C
330
1E
100
AcDbEntity
  8
03
100
AcDbLine
 10
2270.904468600869
 20
2919.721149682274
 30
0.0
 11
2345.404468600869
 21
2919.721149682274
 31
0.0
  0
ARC
  5
349F
330
1E
100
AcDbEntity
  8
03
100
AcDbCircle
 10
2346.154468600869
 20
2920.471149682274
 30
0.0
 40
0.75
100
AcDbArc
 50
0.0
 51
90.0
  0
LINE
  5
34A0
330
1E
100
AcDbEntity
  8
03
100
AcDbLine
 10
2270.90446860087
 20
2921.221149682274
 30
0.0
 11
2346.154468600869
 21
2921.221149682274
 31
0.0
  0
LINE
  5
34A4
330
1E
100
AcDbEntity
  8
03
100
AcDbLine
 10
2364.15446860087
 20
2918.221149682274
 30
0.0
 11
2346.904468600869
 21
2918.221149682274
 31
0.0
  0
LINE
  5
34A5
330
1E
100
AcDbEntity
  8
03
100
AcDbLine
 10
2346.904468600869
 20
2916.721149682274
 30
0.0
 11
2363.40446860087
 21
2916.721149682274
 31
0.0
  0
ARC
  5
34A6
330
1E
100
AcDbEntity
  8
03
100
AcDbCircle
 10
2364.15446860087
 20
2917.471149682274
 30
0.0
 40
0.75
100
AcDbArc
 50
0.0
 51
90.0
  0
LINE
  5
34A7
330
1E
100
AcDbEntity
  8
03
100
AcDbLine
 10
2364.90446860087
 20
2900.971149682274
 30
0.0
 11
2364.90446860087
 21
2917.471149682274
 31
0.0
  0
LINE
  5
34A8
330
1E
100
AcDbEntity
  8
03
100
AcDbLine
 10
2363.40446860087
 20
2916.721149682274
 30
0.0
 11
2363.40446860087
 21
2901.721149682274
 31
0.0
  0
ARC
  5
34A9
330
1E
100
AcDbEntity
  8
03
100
AcDbCircle
 10
2364.15446860087
 20
2900.971149682274
 30
0.0
 40
0.75
100
AcDbArc
 50
270.0
 51
0.0
  0
ARC
  5
34AA
330
1E
100
AcDbEntity
  8
06
100
AcDbCircle
 10
2376.568332531029
 20
2899.98225366232
 30
0.0
 40
12.41616240973193
100
AcDbArc
 50
178.8975193847468
 51
212.9932724170911
  0
LINE
  5
34AB
330
1E
100
AcDbEntity
  8
03
100
AcDbLine
 10
2346.904468600869
 20
2900.221149682275
 30
0.0
 11
2364.15446860087
 21
2900.221149682275
 31
0.0
  0
LINE
  5
34AC
330
1E
100
AcDbEntity
  8
03
100
AcDbLine
 10
2363.40446860087
 20
2901.721149682274
 30
0.0
 11
2346.904468600869
 21
2901.721149682274
 31
0.0
  0
LINE
  5
34AD
330
1E
100
AcDbEntity
  8
03
100
AcDbLine
 10
4771.654468600869
 20
2860.221149682271
 30
0.0
 11
4788.904468600869
 21
2860.221149682271
 31
0.0
  0
LINE
  5
34AE
330
1E
100
AcDbEntity
  8
03
100
AcDbLine
 10
4788.904468600869
 20
2861.721149682271
 30
0.0
 11
4772.404468600869
 21
2861.721149682271
 31
0.0
  0
ARC
  5
34AF
330
1E
100
AcDbEntity
  8
03
100
AcDbCircle
 10
4771.654468600869
 20
2860.971149682271
 30
0.0
 40
0.75
100
AcDbArc
 50
180.0
 51
270.0
  0
LINE
  5
34B0
330
1E
100
AcDbEntity
  8
03
100
AcDbLine
 10
4770.904468600869
 20
2877.471149682271
 30
0.0
 11
4770.904468600869
 21
2860.971149682271
 31
0.0
  0
LINE
  5
34B1
330
1E
100
AcDbEntity
  8
03
100
AcDbLine
 10
4772.404468600869
 20
2861.721149682271
 30
0.0
 11
4772.404468600869
 21
2876.721149682271
 31
0.0
  0
ARC
  5
34B2
330
1E
100
AcDbEntity
  8
03
100
AcDbCircle
 10
4771.654468600869
 20
2877.471149682271
 30
0.0
 40
0.75
100
AcDbArc
 50
90.0
 51
180.0
  0
LINE
  5
34B3
330
1E
100
AcDbEntity
  8
03
100
AcDbLine
 10
4788.904468600869
 20
2878.221149682271
 30
0.0
 11
4771.654468600869
 21
2878.221149682271
 31
0.0
  0
LINE
  5
34B4
330
1E
100
AcDbEntity
  8
03
100
AcDbLine
 10
4772.404468600869
 20
2876.721149682271
 30
0.0
 11
4788.904468600869
 21
2876.721149682271
 31
0.0
  0
ARC
  5
34B5
330
1E
100
AcDbEntity
  8
06
100
AcDbCircle
 10
4759.24060467071
 20
2878.460045702226
 30
0.0
 40
12.41616240973193
100
AcDbArc
 50
358.8975193847467
 51
32.9932724170913
  0
ARC
  5
34B6
330
1E
100
AcDbEntity
  8
06
100
AcDbCircle
 10
4759.24060467071
 20
2899.982253662316
 30
0.0
 40
12.41616240973193
100
AcDbArc
 50
327.0067275829087
 51
1.102480615253207
  0
ARC
  5
34B7
330
1E
100
AcDbEntity
  8
03
100
AcDbCircle
 10
4771.654468600869
 20
2900.971149682271
 30
0.0
 40
0.75
100
AcDbArc
 50
180.0
 51
270.0
  0
LINE
  5
34B8
330
1E
100
AcDbEntity
  8
03
100
AcDbLine
 10
4788.904468600869
 20
2900.221149682271
 30
0.0
 11
4771.654468600869
 21
2900.221149682271
 31
0.0
  0
LINE
  5
34B9
330
1E
100
AcDbEntity
  8
03
100
AcDbLine
 10
4772.404468600869
 20
2901.721149682271
 30
0.0
 11
4788.904468600869
 21
2901.721149682271
 31
0.0
  0
LINE
  5
34BA
330
1E
100
AcDbEntity
  8
03
100
AcDbLine
 10
4770.904468600869
 20
2900.971149682271
 30
0.0
 11
4770.904468600869
 21
2917.47114968227
 31
0.0
  0
LINE
  5
34BB
330
1E
100
AcDbEntity
  8
03
100
AcDbLine
 10
4772.404468600869
 20
2916.721149682271
 30
0.0
 11
4772.404468600869
 21
2901.721149682271
 31
0.0
  0
LINE
  5
34BC
330
1E
100
AcDbEntity
  8
03
100
AcDbLine
 10
4771.654468600869
 20
2918.22114968227
 30
0.0
 11
4788.904468600869
 21
2918.22114968227
 31
0.0
  0
LINE
  5
34BD
330
1E
100
AcDbEntity
  8
03
100
AcDbLine
 10
4788.904468600869
 20
2916.721149682271
 30
0.0
 11
4772.404468600869
 21
2916.721149682271
 31
0.0
  0
ARC
  5
34BE
330
1E
100
AcDbEntity
  8
03
100
AcDbCircle
 10
4771.654468600869
 20
2917.47114968227
 30
0.0
 40
0.75
100
AcDbArc
 50
90.0
 51
180.0
  0
LINE
  5
34BF
330
1E
100
AcDbEntity
  8
03
100
AcDbLine
 10
4789.654468600869
 20
2921.221149682271
 30
0.0
 11
4970.90446860087
 21
2921.221149682271
 31
0.0
  0
ARC
  5
34C0
330
1E
100
AcDbEntity
  8
03
100
AcDbCircle
 10
4789.654468600869
 20
2920.471149682271
 30
0.0
 40
0.75
100
AcDbArc
 50
90.0
 51
180.0
  0
LINE
  5
34C1
330
1E
100
AcDbEntity
  8
03
100
AcDbLine
 10
4788.904468600869
 20
2920.471149682271
 30
0.0
 11
4788.904468600869
 21
2857.971149682271
 31
0.0
  0
LINE
  5
34C3
330
1E
100
AcDbEntity
  8
03
100
AcDbLine
 10
4790.404468600869
 20
2919.721149682271
 30
0.0
 11
4970.90446860087
 21
2919.721149682271
 31
0.0
  0
LINE
  5
34C4
330
1E
100
AcDbEntity
  8
03
100
AcDbLine
 10
4970.90446860087
 20
2857.221149682271
 30
0.0
 11
4789.654468600869
 21
2857.221149682271
 31
0.0
  0
ARC
  5
34C5
330
1E
100
AcDbEntity
  8
03
100
AcDbCircle
 10
4789.654468600869
 20
2857.971149682271
 30
0.0
 40
0.75
100
AcDbArc
 50
180.0
 51
270.0
  0
LINE
  5
34C6
330
1E
100
AcDbEntity
  8
03
100
AcDbLine
 10
4790.404468600869
 20
2919.721149682271
 30
0.0
 11
4790.404468600869
 21
2858.721149682271
 31
0.0
  0
LINE
  5
34C7
330
1E
100
AcDbEntity
  8
03
100
AcDbLine
 10
4790.404468600869
 20
2858.721149682271
 30
0.0
 11
4970.90446860087
 21
2858.721149682271
 31
0.0
  0
LINE
  5
34CB
330
1E
100
AcDbEntity
  8
06
100
AcDbLine
 10
2354.90446860087
 20
2893.221149682275
 30
0.0
 11
2354.90446860087
 21
2885.221149682275
 31
0.0
  0
LINE
  5
34CC
330
1E
100
AcDbEntity
  8
06
100
AcDbLine
 10
4780.904468600868
 20
2893.22114968227
 30
0.0
 11
4780.90446860087
 21
2885.221149682271
 31
0.0
  0
LINE
  5
34CE
330
1E
100
AcDbEntity
  8
KAKURE
 48
4.0
100
AcDbLine
 10
4970.90446860087
 20
2924.221149682271
 30
0.0
 11
4995.904468600869
 21
2924.221149682271
 31
0.0
  0
LINE
  5
34CF
330
1E
100
AcDbEntity
  8
KAKURE
 48
4.0
100
AcDbLine
 10
4970.90446860087
 20
2921.221149682271
 30
0.0
 11
4995.904468600869
 21
2921.221149682271
 31
0.0
  0
LINE
  5
34D0
330
1E
100
AcDbEntity
  8
KAKURE
 48
4.0
100
AcDbLine
 10
4970.90446860087
 20
2919.721149682271
 30
0.0
 11
4995.904468600869
 21
2919.721149682271
 31
0.0
  0
LINE
  5
34D1
330
1E
100
AcDbEntity
  8
KAKURE
 48
4.0
100
AcDbLine
 10
4970.90446860087
 20
2858.721149682271
 30
0.0
 11
4995.904468600869
 21
2858.721149682271
 31
0.0
  0
LINE
  5
34D2
330
1E
100
AcDbEntity
  8
KAKURE
 48
4.0
100
AcDbLine
 10
4970.90446860087
 20
2857.221149682271
 30
0.0
 11
4995.904468600869
 21
2857.221149682271
 31
0.0
  0
LINE
  5
34D3
330
1E
100
AcDbEntity
  8
KAKURE
 48
4.0
100
AcDbLine
 10
4970.90446860087
 20
2854.221149682271
 30
0.0
 11
4995.904468600869
 21
2854.221149682271
 31
0.0
  0
DIMENSION
  5
350B
330
1E
100
AcDbEntity
  8
SUNPOU
100
AcDbDimension
  2
*D53
 10
2417.348637347705
 20
2900.221149682269
 30
0.0
 11
2348.900484676203
 21
3003.256872852678
 31
0.0
 70
   160
  3
SUNPOU_30
100
AcDbAlignedDimension
 13
2364.15446860087
 23
2918.221149682274
 33
0.0
 14
2384.998561451224
 24
2900.221149682269
 34
0.0
 50
90.0
100
AcDbRotatedDimension
1001
ACAD
1000
DSTYLE
1002
{
1070
     7
1000
DOTSMALL
1070
     5
1000

1070
   173
1070
     1
1070
     6
1000
OPEN30
1002
}
  0
DIMENSION
  5
351A
330
1E
100
AcDbEntity
  8
SUNPOU
100
AcDbDimension
  2
*D54
 10
2417.348637347705
 20
2878.22114968227
 30
0.0
 11
2608.615649161178
 21
2774.610658146805
 31
0.0
 70
   160
  3
SUNPOU_30
100
AcDbAlignedDimension
 13
2384.998561451224
 23
2900.221149682269
 33
0.0
 14
2417.348637347705
 24
2878.22114968227
 34
0.0
 50
90.0
100
AcDbRotatedDimension
1001
ACAD
1000
DSTYLE
1002
{
1070
   287
1070
     4
1070
   287
1070
     4
1070
     6
1000
DOTSMALL
1070
     5
1000

1070
   173
1070
     1
1070
     7
1000
DOTSMALL
1070
   279
1070
     1
1070
   289
1070
     3
1002
}
  0
DIMENSION
  5
3529
330
1E
100
AcDbEntity
  8
SUNPOU
100
AcDbDimension
  2
*D55
 10
2417.348637347705
 20
2860.221149682274
 30
0.0
 11
2347.620518273433
 21
2737.083861056093
 31
0.0
 70
   160
  3
SUNPOU_30
100
AcDbAlignedDimension
 13
2417.348637347705
 23
2878.22114968227
 33
0.0
 14
2364.15446860087
 24
2860.221149682274
 34
0.0
 50
90.0
100
AcDbRotatedDimension
1001
ACAD
1000
DSTYLE
1002
{
1070
     6
1000
DOTSMALL
1070
     5
1000

1070
   173
1070
     1
1070
     7
1000
OPEN30
1002
}
  0
DIMENSION
  5
35F4
330
1E
100
AcDbEntity
  8
SUNPOU
100
AcDbDimension
  2
*D56
 10
2863.285908234917
 20
2924.221149682271
 30
0.0
 11
2796.400930052155
 21
2745.477764110749
 31
0.0
 70
   160
  3
SUNPOU_30
100
AcDbAlignedDimension
 13
2863.285908234917
 23
2854.221149682271
 33
0.0
 14
2863.285908234917
 24
2924.221149682271
 34
0.0
 50
90.0
100
AcDbRotatedDimension
  0
LINE
  5
3636
330
1E
100
AcDbEntity
  8
03
100
AcDbLine
 10
4970.904468600902
 20
6124.221149682218
 30
0.0
 11
2270.904468600903
 21
6124.221149682274
 31
0.0
  0
LINE
  5
3637
330
1E
100
AcDbEntity
  8
03
100
AcDbLine
 10
2270.904468600905
 20
6194.221149682276
 30
0.0
 11
4970.904468600902
 21
6194.221149682218
 31
0.0
  0
LINE
  5
3638
330
1E
100
AcDbEntity
  8
03
100
AcDbLine
 10
2345.404468600905
 20
6189.72114968227
 30
0.0
 11
2270.904468600905
 21
6189.72114968227
 31
0.0
  0
LINE
  5
3639
330
1E
100
AcDbEntity
  8
03
100
AcDbLine
 10
2346.154468600905
 20
6191.22114968227
 30
0.0
 11
2270.904468600905
 21
6191.221149682272
 31
0.0
  0
LINE
  5
363A
330
1E
100
AcDbEntity
  8
03
100
AcDbLine
 10
2270.904468600903
 20
6128.721149682272
 30
0.0
 11
2345.404468600903
 21
6128.72114968227
 31
0.0
  0
LINE
  5
363B
330
1E
100
AcDbEntity
  8
03
100
AcDbLine
 10
2270.904468600903
 20
6127.221149682272
 30
0.0
 11
2346.154468600903
 21
6127.22114968227
 31
0.0
  0
LINE
  5
363C
330
1E
100
AcDbEntity
  8
06
100
AcDbLine
 10
2354.904468600903
 20
6155.22114968227
 30
0.0
 11
2354.904468600905
 21
6163.221149682271
 31
0.0
  0
LINE
  5
363D
330
1E
100
AcDbEntity
  8
03
100
AcDbLine
 10
2346.904468600903
 20
6127.97114968227
 30
0.0
 11
2346.904468600905
 21
6190.47114968227
 31
0.0
  0
LINE
  5
363E
330
1E
100
AcDbEntity
  8
03
100
AcDbLine
 10
2345.404468600903
 20
6128.72114968227
 30
0.0
 11
2345.404468600905
 21
6189.72114968227
 31
0.0
  0
ARC
  5
363F
330
1E
100
AcDbEntity
  8
06
100
AcDbCircle
 10
2376.568332531064
 20
6169.982253662315
 30
0.0
 40
12.41616240973193
100
AcDbArc
 50
178.8975193847455
 51
212.9932724170901
  0
LINE
  5
3640
330
1E
100
AcDbEntity
  8
03
100
AcDbLine
 10
2346.904468600905
 20
6170.22114968227
 30
0.0
 11
2364.154468600905
 21
6170.22114968227
 31
0.0
  0
LINE
  5
3641
330
1E
100
AcDbEntity
  8
03
100
AcDbLine
 10
2363.404468600905
 20
6171.72114968227
 30
0.0
 11
2346.904468600905
 21
6171.72114968227
 31
0.0
  0
ARC
  5
3642
330
1E
100
AcDbEntity
  8
03
100
AcDbCircle
 10
2364.154468600905
 20
6170.97114968227
 30
0.0
 40
0.75
100
AcDbArc
 50
269.9999999999986
 51
359.9999999999987
  0
ARC
  5
3643
330
1E
100
AcDbEntity
  8
03
100
AcDbCircle
 10
2346.154468600905
 20
6190.47114968227
 30
0.0
 40
0.75
100
AcDbArc
 50
359.9999999999987
 51
89.99999999999879
  0
LINE
  5
3644
330
1E
100
AcDbEntity
  8
03
100
AcDbLine
 10
2364.154468600905
 20
6188.22114968227
 30
0.0
 11
2346.904468600905
 21
6188.22114968227
 31
0.0
  0
LINE
  5
3645
330
1E
100
AcDbEntity
  8
03
100
AcDbLine
 10
2346.904468600905
 20
6186.72114968227
 30
0.0
 11
2363.404468600905
 21
6186.72114968227
 31
0.0
  0
ARC
  5
3646
330
1E
100
AcDbEntity
  8
03
100
AcDbCircle
 10
2364.154468600905
 20
6187.47114968227
 30
0.0
 40
0.75
100
AcDbArc
 50
359.9999999999987
 51
89.99999999999879
  0
LINE
  5
3647
330
1E
100
AcDbEntity
  8
03
100
AcDbLine
 10
2363.404468600905
 20
6186.72114968227
 30
0.0
 11
2363.404468600905
 21
6171.72114968227
 31
0.0
  0
LINE
  5
3648
330
1E
100
AcDbEntity
  8
03
100
AcDbLine
 10
2364.904468600905
 20
6170.97114968227
 30
0.0
 11
2364.904468600905
 21
6187.47114968227
 31
0.0
  0
ARC
  5
3649
330
1E
100
AcDbEntity
  8
06
100
AcDbCircle
 10
2376.568332531064
 20
6148.460045702226
 30
0.0
 40
12.41616240973193
100
AcDbArc
 50
147.0067275829075
 51
181.1024806152519
  0
ARC
  5
364A
330
1E
100
AcDbEntity
  8
03
100
AcDbCircle
 10
2346.154468600903
 20
6127.97114968227
 30
0.0
 40
0.75
100
AcDbArc
 50
269.9999999999986
 51
359.9999999999987
  0
LINE
  5
364B
330
1E
100
AcDbEntity
  8
03
100
AcDbLine
 10
2364.154468600903
 20
6130.22114968227
 30
0.0
 11
2346.904468600903
 21
6130.22114968227
 31
0.0
  0
LINE
  5
364C
330
1E
100
AcDbEntity
  8
03
100
AcDbLine
 10
2346.904468600903
 20
6131.72114968227
 30
0.0
 11
2363.404468600903
 21
6131.72114968227
 31
0.0
  0
ARC
  5
364D
330
1E
100
AcDbEntity
  8
03
100
AcDbCircle
 10
2364.154468600903
 20
6130.97114968227
 30
0.0
 40
0.75
100
AcDbArc
 50
269.9999999999986
 51
359.9999999999987
  0
LINE
  5
364E
330
1E
100
AcDbEntity
  8
03
100
AcDbLine
 10
2364.904468600903
 20
6147.47114968227
 30
0.0
 11
2364.904468600903
 21
6130.97114968227
 31
0.0
  0
LINE
  5
364F
330
1E
100
AcDbEntity
  8
03
100
AcDbLine
 10
2363.404468600903
 20
6131.72114968227
 30
0.0
 11
2363.404468600903
 21
6146.721149682271
 31
0.0
  0
ARC
  5
3650
330
1E
100
AcDbEntity
  8
03
100
AcDbCircle
 10
2364.154468600903
 20
6147.47114968227
 30
0.0
 40
0.75
100
AcDbArc
 50
359.9999999999987
 51
89.99999999999879
  0
LINE
  5
3651
330
1E
100
AcDbEntity
  8
03
100
AcDbLine
 10
2346.904468600905
 20
6148.22114968227
 30
0.0
 11
2364.154468600903
 21
6148.22114968227
 31
0.0
  0
LINE
  5
3652
330
1E
100
AcDbEntity
  8
03
100
AcDbLine
 10
2363.404468600903
 20
6146.721149682271
 30
0.0
 11
2346.904468600903
 21
6146.721149682271
 31
0.0
  0
LINE
  5
3653
330
1E
100
AcDbEntity
  8
CHUSIN
100
AcDbLine
 10
2350.472164878307
 20
6159.22114968227
 30
0.0
 11
4785.439286072945
 21
6159.221149682222
 31
0.0
  0
LINE
  5
3654
330
1E
100
AcDbEntity
  8
06
100
AcDbLine
 10
2354.904468600905
 20
6163.221149682274
 30
0.0
 11
4780.904468600904
 21
6163.221149682222
 31
0.0
  0
LINE
  5
3655
330
1E
100
AcDbEntity
  8
06
100
AcDbLine
 10
2354.904468600903
 20
6155.221149682274
 30
0.0
 11
4780.904468600904
 21
6155.221149682223
 31
0.0
  0
LINE
  5
3656
330
1E
100
AcDbEntity
  8
03
100
AcDbLine
 10
4771.654468600902
 20
6170.221149682222
 30
0.0
 11
2364.154468600905
 21
6170.221149682276
 31
0.0
  0
LINE
  5
3657
330
1E
100
AcDbEntity
  8
06
100
AcDbLine
 10
2354.904468600905
 20
6162.221149682274
 30
0.0
 11
4780.904468600904
 21
6162.221149682222
 31
0.0
  0
LINE
  5
3658
330
1E
100
AcDbEntity
  8
06
100
AcDbLine
 10
2354.904468600903
 20
6156.221149682274
 30
0.0
 11
4780.904468600904
 21
6156.221149682222
 31
0.0
  0
LINE
  5
3659
330
1E
100
AcDbEntity
  8
03
100
AcDbLine
 10
4771.654468600902
 20
6148.221149682222
 30
0.0
 11
2364.154468600903
 21
6148.221149682274
 31
0.0
  0
DIMENSION
  5
365A
330
1E
100
AcDbEntity
  8
SUNPOU
100
AcDbDimension
  2
*D61
 10
2417.348637347741
 20
6188.22114968227
 30
0.0
 11
2347.620518273471
 21
6311.358438308452
 31
0.0
 70
   160
  3
SUNPOU_30
100
AcDbAlignedDimension
 13
2417.348637347741
 23
6170.221149682273
 33
0.0
 14
2364.154468600905
 24
6188.22114968227
 34
0.0
 50
269.9999999999986
100
AcDbRotatedDimension
1001
ACAD
1000
DSTYLE
1002
{
1070
     6
1000
DOTSMALL
1070
     5
1000

1070
   173
1070
     1
1070
     7
1000
OPEN30
1002
}
  0
DIMENSION
  5
365B
330
1E
100
AcDbEntity
  8
SUNPOU
100
AcDbDimension
  2
*D60
 10
2417.348637347741
 20
6170.221149682273
 30
0.0
 11
2608.615649161216
 21
6330.623529083228
 31
0.0
 70
   160
  3
SUNPOU_30
100
AcDbAlignedDimension
 13
2384.998561451257
 23
6148.221149682274
 33
0.0
 14
2417.348637347741
 24
6170.221149682273
 34
0.0
 50
269.9999999999986
100
AcDbRotatedDimension
1001
ACAD
1000
DSTYLE
1002
{
1070
   287
1070
     4
1070
   287
1070
     4
1070
     6
1000
DOTSMALL
1070
     5
1000

1070
   173
1070
     1
1070
     7
1000
DOTSMALL
1070
   279
1070
     1
1070
   289
1070
     3
1002
}
  0
DIMENSION
  5
365C
330
1E
100
AcDbEntity
  8
SUNPOU
100
AcDbDimension
  2
*D59
 10
2417.348637347741
 20
6148.221149682274
 30
0.0
 11
2348.900484676236
 21
6045.185426511866
 31
0.0
 70
   160
  3
SUNPOU_30
100
AcDbAlignedDimension
 13
2364.154468600903
 23
6130.22114968227
 33
0.0
 14
2384.998561451257
 24
6148.221149682274
 34
0.0
 50
269.9999999999986
100
AcDbRotatedDimension
1001
ACAD
1000
DSTYLE
1002
{
1070
     7
1000
DOTSMALL
1070
     5
1000

1070
   173
1070
     1
1070
     6
1000
OPEN30
1002
}
  0
DIMENSION
  5
365D
330
1E
100
AcDbEntity
  8
SUNPOU
100
AcDbDimension
  2
*D62
 10
2863.28590823495
 20
6124.221149682262
 30
0.0
 11
2796.400930052191
 21
6302.964535253785
 31
0.0
 70
   160
  3
SUNPOU_30
100
AcDbAlignedDimension
 13
2863.285908234951
 23
6194.221149682262
 33
0.0
 14
2863.28590823495
 24
6124.221149682262
 34
0.0
 50
269.9999999999986
100
AcDbRotatedDimension
  0
DIMENSION
  5
365E
330
1E
100
AcDbEntity
  8
SUNPOU
100
AcDbDimension
  2
*D57
 10
4541.993666148992
 20
6159.221149682223
 30
0.0
 11
4448.243666148992
 21
6266.98432645008
 31
0.0
 70
   160
  3
SUNPOU_30
100
AcDbAlignedDimension
 13
4760.904468600902
 23
6194.221149682224
 33
0.0
 14
4760.904468600902
 24
6159.221149682223
 34
0.0
 50
269.9999999999986
100
AcDbRotatedDimension
1001
ACAD
1000
DSTYLE
1002
{
1070
     7
1000
DOTSMALL
1070
     5
1000

1070
   173
1070
     1
1070
     6
1000
OPEN30
1002
}
  0
DIMENSION
  5
365F
330
1E
100
AcDbEntity
  8
SUNPOU
100
AcDbDimension
  2
*D58
 10
4541.993666148992
 20
6124.221149682222
 30
0.0
 11
4448.243666148989
 21
5999.409983823372
 31
0.0
 70
   160
  3
SUNPOU_30
100
AcDbAlignedDimension
 13
4760.904468600902
 23
6159.221149682223
 33
0.0
 14
4790.904316013
 24
6124.221149682222
 34
0.0
 50
269.9999999999986
100
AcDbRotatedDimension
1001
ACAD
1000
DSTYLE
1002
{
1070
     6
1000
DOTSMALL
1070
     5
1000

1070
   173
1070
     1
1070
     7
1000
OPEN30
1002
}
  0
LINE
  5
3660
330
1E
100
AcDbEntity
  8
03
100
AcDbLine
 10
4789.654468600903
 20
6127.221149682222
 30
0.0
 11
4970.904468600902
 21
6127.221149682219
 31
0.0
  0
LINE
  5
3661
330
1E
100
AcDbEntity
  8
03
100
AcDbLine
 10
4790.404468600903
 20
6128.721149682222
 30
0.0
 11
4970.904468600902
 21
6128.721149682218
 31
0.0
  0
LINE
  5
3662
330
1E
100
AcDbEntity
  8
03
100
AcDbLine
 10
4970.904468600902
 20
6191.22114968222
 30
0.0
 11
4789.654468600903
 21
6191.221149682222
 31
0.0
  0
LINE
  5
3663
330
1E
100
AcDbEntity
  8
03
100
AcDbLine
 10
4790.404468600903
 20
6189.721149682222
 30
0.0
 11
4970.904468600902
 21
6189.721149682219
 31
0.0
  0
LINE
  5
3664
330
1E
100
AcDbEntity
  8
06
100
AcDbLine
 10
4780.904468600904
 20
6155.221149682223
 30
0.0
 11
4780.904468600906
 21
6163.221149682222
 31
0.0
  0
LINE
  5
3665
330
1E
100
AcDbEntity
  8
03
100
AcDbLine
 10
4788.904468600903
 20
6127.971149682222
 30
0.0
 11
4788.904468600903
 21
6190.471149682222
 31
0.0
  0
LINE
  5
3666
330
1E
100
AcDbEntity
  8
03
100
AcDbLine
 10
4790.404468600903
 20
6128.721149682222
 30
0.0
 11
4790.404468600903
 21
6189.721149682222
 31
0.0
  0
ARC
  5
3667
330
1E
100
AcDbEntity
  8
06
100
AcDbCircle
 10
4759.240604670746
 20
6169.982253662269
 30
0.0
 40
12.41616240973193
100
AcDbArc
 50
327.0067275829075
 51
1.102480615252029
  0
ARC
  5
3668
330
1E
100
AcDbEntity
  8
03
100
AcDbCircle
 10
4771.654468600902
 20
6170.971149682222
 30
0.0
 40
0.75
100
AcDbArc
 50
179.9999999999986
 51
269.9999999999986
  0
LINE
  5
3669
330
1E
100
AcDbEntity
  8
03
100
AcDbLine
 10
4788.904468600903
 20
6170.221149682222
 30
0.0
 11
4771.654468600902
 21
6170.221149682222
 31
0.0
  0
LINE
  5
366A
330
1E
100
AcDbEntity
  8
03
100
AcDbLine
 10
4772.404468600902
 20
6171.721149682222
 30
0.0
 11
4788.904468600903
 21
6171.721149682222
 31
0.0
  0
LINE
  5
366B
330
1E
100
AcDbEntity
  8
03
100
AcDbLine
 10
4771.654468600902
 20
6188.221149682222
 30
0.0
 11
4788.904468600903
 21
6188.221149682222
 31
0.0
  0
LINE
  5
366C
330
1E
100
AcDbEntity
  8
03
100
AcDbLine
 10
4788.904468600903
 20
6186.721149682222
 30
0.0
 11
4772.404468600902
 21
6186.721149682222
 31
0.0
  0
ARC
  5
366D
330
1E
100
AcDbEntity
  8
03
100
AcDbCircle
 10
4771.654468600902
 20
6187.471149682222
 30
0.0
 40
0.75
100
AcDbArc
 50
89.99999999999879
 51
179.9999999999986
  0
ARC
  5
366E
330
1E
100
AcDbEntity
  8
03
100
AcDbCircle
 10
4789.654468600903
 20
6190.471149682222
 30
0.0
 40
0.75
100
AcDbArc
 50
89.99999999999879
 51
179.9999999999986
  0
LINE
  5
366F
330
1E
100
AcDbEntity
  8
03
100
AcDbLine
 10
4770.904468600902
 20
6170.971149682222
 30
0.0
 11
4770.904468600902
 21
6187.471149682222
 31
0.0
  0
LINE
  5
3670
330
1E
100
AcDbEntity
  8
03
100
AcDbLine
 10
4772.404468600902
 20
6186.721149682222
 30
0.0
 11
4772.404468600902
 21
6171.721149682222
 31
0.0
  0
ARC
  5
3671
330
1E
100
AcDbEntity
  8
06
100
AcDbCircle
 10
4759.240604670746
 20
6148.460045702176
 30
0.0
 40
12.41616240973193
100
AcDbArc
 50
358.8975193847455
 51
32.99327241709011
  0
ARC
  5
3672
330
1E
100
AcDbEntity
  8
03
100
AcDbCircle
 10
4771.654468600902
 20
6147.471149682222
 30
0.0
 40
0.75
100
AcDbArc
 50
89.99999999999879
 51
179.9999999999986
  0
LINE
  5
3673
330
1E
100
AcDbEntity
  8
03
100
AcDbLine
 10
4788.904468600903
 20
6148.221149682222
 30
0.0
 11
4771.654468600902
 21
6148.221149682222
 31
0.0
  0
LINE
  5
3674
330
1E
100
AcDbEntity
  8
03
100
AcDbLine
 10
4772.404468600902
 20
6146.721149682222
 30
0.0
 11
4788.904468600903
 21
6146.721149682222
 31
0.0
  0
LINE
  5
3675
330
1E
100
AcDbEntity
  8
03
100
AcDbLine
 10
4770.904468600902
 20
6147.471149682222
 30
0.0
 11
4770.904468600902
 21
6130.971149682221
 31
0.0
  0
LINE
  5
3676
330
1E
100
AcDbEntity
  8
03
100
AcDbLine
 10
4772.404468600902
 20
6131.721149682221
 30
0.0
 11
4772.404468600902
 21
6146.721149682222
 31
0.0
  0
LINE
  5
3677
330
1E
100
AcDbEntity
  8
03
100
AcDbLine
 10
4771.654468600902
 20
6130.221149682222
 30
0.0
 11
4788.904468600903
 21
6130.221149682222
 31
0.0
  0
LINE
  5
3678
330
1E
100
AcDbEntity
  8
03
100
AcDbLine
 10
4788.904468600903
 20
6131.721149682221
 30
0.0
 11
4772.404468600902
 21
6131.721149682221
 31
0.0
  0
ARC
  5
3679
330
1E
100
AcDbEntity
  8
03
100
AcDbCircle
 10
4771.654468600902
 20
6130.971149682221
 30
0.0
 40
0.75
100
AcDbArc
 50
179.9999999999986
 51
269.9999999999986
  0
ARC
  5
367A
330
1E
100
AcDbEntity
  8
03
100
AcDbCircle
 10
4789.654468600903
 20
6127.971149682222
 30
0.0
 40
0.75
100
AcDbArc
 50
179.9999999999986
 51
269.9999999999986
  0
LINE
  5
367B
330
1E
100
AcDbEntity
  8
KAKURE
 48
4.0
100
AcDbLine
 10
4995.904468600904
 20
6194.221149682218
 30
0.0
 11
4995.904468600904
 21
6124.221149682218
 31
0.0
  0
LINE
  5
367C
330
1E
100
AcDbEntity
  8
KAKURE
 48
4.0
100
AcDbLine
 10
4970.904468600902
 20
6194.221149682218
 30
0.0
 11
4995.904468600904
 21
6194.221149682218
 31
0.0
  0
LINE
  5
367D
330
1E
100
AcDbEntity
  8
KAKURE
 48
4.0
100
AcDbLine
 10
4970.904468600902
 20
6191.22114968222
 30
0.0
 11
4995.904468600904
 21
6191.22114968222
 31
0.0
  0
LINE
  5
367E
330
1E
100
AcDbEntity
  8
KAKURE
 48
4.0
100
AcDbLine
 10
4970.904468600902
 20
6189.721149682219
 30
0.0
 11
4995.904468600904
 21
6189.721149682219
 31
0.0
  0
LINE
  5
367F
330
1E
100
AcDbEntity
  8
KAKURE
 48
4.0
100
AcDbLine
 10
4970.904468600902
 20
6128.721149682218
 30
0.0
 11
4995.904468600904
 21
6128.721149682218
 31
0.0
  0
LINE
  5
3680
330
1E
100
AcDbEntity
  8
KAKURE
 48
4.0
100
AcDbLine
 10
4970.904468600902
 20
6127.221149682219
 30
0.0
 11
4995.904468600904
 21
6127.221149682219
 31
0.0
  0
LINE
  5
3681
330
1E
100
AcDbEntity
  8
KAKURE
 48
4.0
100
AcDbLine
 10
4970.904468600902
 20
6124.221149682218
 30
0.0
 11
4995.904468600904
 21
6124.221149682218
 31
0.0
  0
DIMENSION
  5
373F
330
1E
100
AcDbEntity
  8
SUNPOU
100
AcDbDimension
  2
*D63
 10
2346.904468600869
 20
2523.317027920773
 30
0.0
 11
2502.225188689622
 21
2589.251949314556
 31
0.0
 70
   160
  3
SUNPOU_30
100
AcDbAlignedDimension
 13
2364.90446860087
 23
2665.90551326024
 33
0.0
 14
2346.904468600869
 24
2665.515668262282
 34
0.0
100
AcDbRotatedDimension
  0
MTEXT
  5
38E0
330
1E
100
AcDbEntity
  8
MOJI
100
AcDbMText
 10
5174.999999999999
 20
326.3999999999995
 30
0.0
 40
100.0
 41
735.0
 71
     5
 72
     1
  1
立面図　　
  7
0_80
1001
ACAD
1000
MTEXTBEGIN
1070
    73
1070
     1
1070
    44
1040
1.0
1070
    74
1070
     0
1000
MTEXTEND
1000
MTEXTBEGIN
1070
    73
1070
     1
1070
    44
1040
1.0
1070
    74
1070
     0
1000
MTEXTEND
  0
MTEXT
  5
38E1
330
1E
100
AcDbEntity
  8
MOJI
100
AcDbMText
 10
4439.999999999999
 20
326.3999999999999
 30
0.0
 40
100.0
 41
735.0000000000004
 71
     5
 72
     1
  1
図番１９－２
  7
0_80
1001
ACAD
1000
MTEXTBEGIN
1070
    73
1070
     1
1070
    44
1040
1.0
1070
    74
1070
     0
1000
MTEXTEND
1000
MTEXTBEGIN
1070
    73
1070
     1
1070
    44
1040
1.0
1070
    74
1070
     0
1000
MTEXTEND
  0
POLYLINE
  5
38E2
330
1E
100
AcDbEntity
  8
SAISEN
100
AcDb2dPolyline
 66
     1
 10
0.0
 20
0.0
 30
0.0
 70
     1
  0
VERTEX
  5
3990
330
38E2
100
AcDbEntity
  8
SAISEN
100
AcDbVertex
100
AcDb2dVertex
 10
397.5000000000008
 20
149.999999999999
 30
0.0
  0
VERTEX
  5
3991
330
38E2
100
AcDbEntity
  8
SAISEN
100
AcDbVertex
100
AcDb2dVertex
 10
5542.499999999999
 20
149.9999999999971
 30
0.0
  0
VERTEX
  5
3992
330
38E2
100
AcDbEntity
  8
SAISEN
100
AcDbVertex
100
AcDb2dVertex
 10
5542.499999999999
 20
502.8000000000019
 30
0.0
  0
VERTEX
  5
3993
330
38E2
100
AcDbEntity
  8
SAISEN
100
AcDbVertex
100
AcDb2dVertex
 10
397.5000000000008
 20
502.8000000000019
 30
0.0
  0
SEQEND
  5
3994
330
38E2
100
AcDbEntity
  8
SAISEN
  0
MTEXT
  5
38E3
330
1E
100
AcDbEntity
  8
MOJI
100
AcDbMText
 10
1206.000000000001
 20
326.3999999999967
 30
0.0
 40
100.0
 41
1616.999999999999
 71
     5
 72
     1
  1
自動式回転ドア
  7
0_8
1001
ACAD
1000
MTEXTBEGIN
1070
    73
1070
     1
1070
    44
1040
1.0
1070
    74
1070
     0
1000
MTEXTEND
1000
MTEXTBEGIN
1070
    73
1070
     1
1070
    44
1040
1.0
1070
    74
1070
     0
1000
MTEXTEND
  0
LINE
  5
38E4
330
1E
100
AcDbEntity
  8
SAISEN
100
AcDbLine
 10
2014.499999999997
 20
502.8000000000055
 30
0.0
 11
2014.499999999997
 21
150.0000000000008
 31
0.0
  0
MTEXT
  5
38E5
330
1E
100
AcDbEntity
  8
MOJI
100
AcDbMText
 10
2602.499999999999
 20
326.3999999999967
 30
0.0
 40
100.0
 41
1175.999999999999
 71
     5
 72
     1
  1
ＲＶ－３０００
  7
0_8
1001
ACAD
1000
MTEXTBEGIN
1070
    73
1070
     1
1070
    44
1040
1.0
1070
    74
1070
     0
1000
MTEXTEND
1000
MTEXTBEGIN
1070
    73
1070
     1
1070
    44
1040
1.0
1070
    74
1070
     0
1000
MTEXTEND
  0
LINE
  5
38E6
330
1E
100
AcDbEntity
  8
SAISEN
100
AcDbLine
 10
3190.499999999997
 20
502.8000000000055
 30
0.0
 11
3190.499999999997
 21
150.0000000000008
 31
0.0
  0
MTEXT
  5
38E7
330
1E
100
AcDbEntity
  8
MOJI
100
AcDbMText
 10
3631.500000000041
 20
326.3999999999967
 30
0.0
 40
100.0
 41
882.0
 71
     5
 72
     1
  1
180゜回転
  7
0_8
1001
ACAD
1000
MTEXTBEGIN
1070
    73
1070
     1
1070
    44
1040
1.0
1070
    74
1070
     0
1000
MTEXTEND
1000
MTEXTBEGIN
1070
    73
1070
     1
1070
    44
1040
1.0
1070
    74
1070
     0
1000
MTEXTEND
  0
LINE
  5
38E8
330
1E
100
AcDbEntity
  8
SAISEN
100
AcDbLine
 10
4072.499999999998
 20
502.8000000000055
 30
0.0
 11
4072.499999999998
 21
150.0000000000008
 31
0.0
  0
CIRCLE
  5
392D
330
1E
100
AcDbEntity
  8
SAISEN
100
AcDbCircle
 10
5633.964571176483
 20
630.9453961834734
 30
0.0
 40
75.0
  0
TEXT
  5
392E
330
1E
100
AcDbEntity
  8
MOJI
100
AcDbText
 10
5588.232285588241
 20
566.872698091738
 30
0.0
 40
120.0
  1
Ｓ
 41
0.8
  7
0_8
 11
5588.232285588241
 21
686.8726980917379
 31
0.0
100
AcDbText
 73
     3
  0
VIEWPORT
  5
137D
102
{ACAD_XDICTIONARY
360
3959
102
}
330
1A
100
AcDbEntity
 67
     1
  8
0
100
AcDbViewport
 10
2970.720789091368
 20
4277.811731551763
 30
0.0
 40
16205.36545142598
 41
9425.390932829385
 68
     1
 69
     1
1001
ACAD
1000
MVIEW
1002
{
1070
    16
1010
0.0
1020
0.0
1030
0.0
1010
0.0
1020
0.0
1030
1.0
1040
0.0
1040
9425.390932829385
1040
2970.720789091368
1040
4277.811731551763
1040
50.0
1040
0.0
1040
0.0
1070
     0
1070
  1000
1070
     1
1070
     3
1070
     0
1070
     0
1070
     0
1070
     0
1040
0.0
1040
0.0
1040
0.0
1040
1.0
1040
1.0
1040
0.0
1040
0.0
1070
     0
1002
{
1002
}
1002
}
  0
VIEWPORT
  5
32BB
102
{ACAD_XDICTIONARY
360
395B
102
}
330
1A
100
AcDbEntity
 67
     1
  8
DEFPOINTS
100
AcDbViewport
 10
2970.847613811493
 20
4277.677395343779
 30
0.0
 40
5941.695227622986
 41
8555.354790687561
 68
     3
 69
     2
1001
ACAD
1000
MVIEW
1002
{
1070
    16
1010
0.0
1020
0.0
1030
0.0
1010
0.0
1020
0.0
1030
1.0
1040
0.0
1040
9.0
1040
7.722634508348794
1040
4.5
1040
50.0
1040
0.0
1040
0.0
1070
     0
1070
  1000
1070
     1
1070
     3
1070
     0
1070
     0
1070
     0
1070
     0
1040
0.0
1040
0.0
1040
0.0
1040
1.0
1040
1.0
1040
0.0
1040
0.0
1070
     0
1002
{
1002
}
1002
}
  0
VIEWPORT
  5
3912
102
{ACAD_XDICTIONARY
360
3961
102
}
330
1A
100
AcDbEntity
 67
     1
  8
DEFPOINTS
100
AcDbViewport
 10
2970.72080339794
 20
4277.811717245191
 30
0.0
 40
5947.380538401567
 41
8556.226290296498
 68
     2
 69
     3
1001
ACAD
1000
MVIEW
1002
{
1070
    16
1010
0.0
1020
0.0
1030
0.0
1010
0.0
1020
0.0
1030
1.0
1040
0.0
1040
8556.226290296498
1040
2970.000000000001
1040
4204.999999999998
1040
50.0
1040
0.0
1040
0.0
1070
     0
1070
  1000
1070
     1
1070
     3
1070
     0
1070
     0
1070
     0
1070
     0
1040
0.0
1040
0.0
1040
0.0
1040
1.0
1040
1.0
1040
0.0
1040
0.0
1070
     0
1002
{
1002
}
1002
}
  0
ENDSEC
  0
SECTION
  2
OBJECTS
  0
DICTIONARY
  5
C
330
0
100
AcDbDictionary
  3
ACAD_COLOR
350
38C4
  3
ACAD_GROUP
350
D
  3
ACAD_LAYOUT
350
19
  3
ACAD_MATERIAL
350
38C3
  3
ACAD_MLINESTYLE
350
16
  3
ACAD_PLOTSETTINGS
350
18
  3
ACADDIM
350
1AA4
  3
ASE_INDEX_DICTIONARY
350
38CB
1001
ACAD
1000
TREAT_AS_HARD
1070
     0
1000
TREAT_AS_HARD
1070
     0
  0
DICTIONARY
  5
1C2A
330
2
100
AcDbDictionary
  3
ACAD_LAYERFILTERS
350
1C2B
  3
ACAD_LAYERSTATES
350
1C2E
1001
ACAD
1000
TREAT_AS_HARD
1070
     1
1000
TREAT_AS_HARD
1070
     1
  0
DICTIONARY
  5
378B
330
1E
100
AcDbDictionary
  3
ACAD_LAYOUTSELFREF
350
396A
1001
ACAD
1000
TREAT_AS_HARD
1070
     1
  0
DICTIONARY
  5
3789
330
1A
100
AcDbDictionary
  3
ACAD_LAYOUTSELFREF
350
3969
1001
ACAD
1000
TREAT_AS_HARD
1070
     1
  0
DICTIONARY
  5
3959
330
137D
100
AcDbDictionary
  3
ACAD_XREC_ROUNDTRIP
350
395A
1001
ACAD
1000
TREAT_AS_HARD
1070
     1
  0
DICTIONARY
  5
395B
330
32BB
100
AcDbDictionary
  3
ACAD_XREC_ROUNDTRIP
350
395C
1001
ACAD
1000
TREAT_AS_HARD
1070
     1
  0
DICTIONARY
  5
3961
330
3912
100
AcDbDictionary
  3
ACAD_XREC_ROUNDTRIP
350
3962
1001
ACAD
1000
TREAT_AS_HARD
1070
     1
  0
DICTIONARY
  5
38C4
102
{ACAD_REACTORS
330
C
102
}
330
C
100
AcDbDictionary
1001
ACAD
1000
TREAT_AS_HARD
1070
     0
  0
DICTIONARY
  5
D
102
{ACAD_REACTORS
330
C
102
}
330
C
100
AcDbDictionary
1001
ACAD
1000
TREAT_AS_HARD
1070
     0
1000
TREAT_AS_HARD
1070
     0
  0
DICTIONARY
  5
19
102
{ACAD_REACTORS
330
C
102
}
330
C
100
AcDbDictionary
1001
ACAD
1000
TREAT_AS_HARD
1070
     0
1000
TREAT_AS_HARD
1070
     0
  0
DICTIONARY
  5
38C3
102
{ACAD_REACTORS
330
C
102
}
330
C
100
AcDbDictionary
1001
ACAD
1000
TREAT_AS_HARD
1070
     0
  0
DICTIONARY
  5
16
102
{ACAD_REACTORS
330
C
102
}
330
C
100
AcDbDictionary
  3
STANDARD
350
17
1001
ACAD
1000
TREAT_AS_HARD
1070
     0
1000
TREAT_AS_HARD
1070
     0
  0
DICTIONARY
  5
18
102
{ACAD_REACTORS
330
C
102
}
330
C
100
AcDbDictionary
1001
ACAD
1000
TREAT_AS_HARD
1070
     0
1000
TREAT_AS_HARD
1070
     0
  0
XRECORD
  5
1AA4
102
{ACAD_REACTORS
330
C
102
}
330
C
100
AcDbXrecord
 90
   990106
  3

 60
     0
 61
     0
 62
     4
 63
     4
 64
     1
 65
     0
 66
     0
 67
     3
 68
     1
 69
     1
 70
     0
 71
     0
 72
     0
 40
0.0
170
     2
340
2658
  0
DICTIONARY
  5
38CB
102
{ACAD_REACTORS
330
C
102
}
330
C
100
AcDbDictionary
  3
ASEBLOCKHIERARCHYINDEXRECORD
350
38CD
1001
DCO15
1040
1508738871.983999
1001
ACAD
1000
TREAT_AS_HARD
1070
     0
  0
DICTIONARY
  5
1C2B
102
{ACAD_REACTORS
330
1C2A
102
}
330
1C2A
100
AcDbDictionary
  3
HIHYOJI
350
1C2C
  3
その他
350
3422
  3
サッシ
350
3423
  3
ユニット
350
3424
1001
ACAD
1000
TREAT_AS_HARD
1070
     1
1000
TREAT_AS_HARD
1070
     0
  0
DICTIONARY
  5
1C2E
102
{ACAD_REACTORS
330
1C2A
102
}
330
1C2A
100
AcDbDictionary
1001
ACAD
1000
TREAT_AS_HARD
1070
     0
1000
TREAT_AS_HARD
1070
     0
  0
XRECORD
  5
396A
102
{ACAD_REACTORS
330
378B
102
}
330
378B
100
AcDbXrecord
340
1E
  0
XRECORD
  5
3969
102
{ACAD_REACTORS
330
3789
102
}
330
3789
100
AcDbXrecord
340
1A
  0
XRECORD
  5
395A
102
{ACAD_REACTORS
330
3959
102
}
330
3959
100
AcDbXrecord
102
SHADEPLOT
 70
     0
  0
XRECORD
  5
395C
102
{ACAD_REACTORS
330
395B
102
}
330
395B
100
AcDbXrecord
102
SHADEPLOT
 70
     0
  0
XRECORD
  5
3962
102
{ACAD_REACTORS
330
3961
102
}
330
3961
100
AcDbXrecord
102
SHADEPLOT
 70
     0
  0
MLINESTYLE
  5
17
102
{ACAD_REACTORS
330
16
102
}
330
16
100
AcDbMlineStyle
  2
STANDARD
 70
     0
  3

 62
   256
 51
90.0
 52
90.0
 71
     2
 49
0.5
 62
   256
  6
BYLAYER
 49
-0.5
 62
   256
  6
BYLAYER
  0
XRECORD
  5
38CD
102
{ACAD_REACTORS
330
38CB
102
}
330
38CB
100
AcDbXrecord
330
3794
330
3795
330
379F
330
37A9
330
2F79
330
2F7A
330
37B3
330
2F8B
330
2F8C
330
2F97
330
2F98
330
2FA2
330
2FA3
330
2FAD
330
2FAE
330
37BD
330
37BE
330
37C8
330
37C9
330
3628
330
3629
330
361D
330
361E
330
2FE1
330
2FE2
330
2FED
330
2FEE
330
2FF8
330
2FF9
330
3003
330
3004
330
300E
330
300F
330
37D3
330
37D4
330
37DE
330
37DF
330
334C
330
334D
330
37E9
330
37EA
330
37F4
330
37F5
330
3343
330
3344
330
37FF
330
3800
330
380A
330
380B
330
3776
330
3777
330
3077
330
3078
330
307F
330
3080
330
308B
330
308C
330
3093
330
3094
330
309C
330
309D
330
373A
330
373B
330
3323
330
3324
330
3335
330
3336
330
3815
330
3816
330
3820
330
3821
330
317C
330
317D
330
382B
330
382C
330
3836
330
3837
330
383F
330
3840
330
384A
330
384B
330
3173
330
3174
330
316A
330
316B
330
3127
330
3128
330
3132
330
3133
330
32B4
330
32B5
330
3148
330
3149
330
3153
330
3154
330
315E
330
315F
330
3862
330
3863
330
3870
330
3871
330
387B
330
387C
330
3609
330
360A
330
38AA
330
38AB
330
38B5
330
38B6
330
38A0
330
389F
330
3894
330
3895
330
3886
330
3887
330
3719
330
371A
330
376D
330
376E
  0
XRECORD
  5
1C2C
102
{ACAD_REACTORS
330
1C2B
102
}
330
1C2B
100
AcDbXrecord
  1
hihyoji
  1
08,09,*_h
  1
*
  1
*
 70
     0
  1
*
  1
*
  0
XRECORD
  5
3422
102
{ACAD_REACTORS
330
1C2B
102
}
330
1C2B
100
AcDbXrecord
  1
その他
  1
sunpou,saisen,moji,hikidasi,zuwaku,0,Defpoints
  1
*
  1
*
 70
     0
  1
*
  1
*
  0
XRECORD
  5
3423
102
{ACAD_REACTORS
330
1C2B
102
}
330
1C2B
100
AcDbXrecord
  1
サッシ
  1
sash_*
  1
*
  1
*
 70
     0
  1
*
  1
*
  0
XRECORD
  5
3424
102
{ACAD_REACTORS
330
1C2B
102
}
330
1C2B
100
AcDbXrecord
  1
ユニット
  1
unit_*
  1
*
  1
*
 70
     0
  1
*
  1
*
  0
ENDSEC
  0
EOF
