  0
SECTION
  2
HEADER
  9
$ACADVER
  1
AC1012
  9
$DWGCODEPAGE
  3
dos932
  9
$INSBASE
 10
0.0
 20
0.0
 30
0.0
  9
$EXTMIN
 10
0.0
 20
0.0
 30
0.0
  9
$EXTMAX
 10
594.0
 20
841.0
 30
0.0
  9
$LIMMIN
 10
0.0
 20
0.0
  9
$LIMMAX
 10
594.0
 20
841.0
  9
$ORTHOMODE
 70
     1
  9
$REGENMODE
 70
     1
  9
$FILLMODE
 70
     1
  9
$QTEXTMODE
 70
     0
  9
$MIRRTEXT
 70
     1
  9
$DRAGMODE
 70
     2
  9
$LTSCALE
 40
1.0
  9
$OSMODE
 70
    37
  9
$ATTMODE
 70
     1
  9
$TEXTSIZE
 40
4.0
  9
$TRACEWID
 40
0.05
  9
$TEXTSTYLE
  7
1_0
  9
$CLAYER
  8
DEFPOINTS
  9
$CELTYPE
  6
BYLAYER
  9
$CECOLOR
 62
   256
  9
$CELTSCALE
 40
1.0
  9
$DELOBJ
 70
     1
  9
$DISPSILH
 70
     0
  9
$DIMSCALE
 40
2.0
  9
$DIMASZ
 40
2.5
  9
$DIMEXO
 40
1.5
  9
$DIMDLI
 40
0.0
  9
$DIMRND
 40
0.0
  9
$DIMDLE
 40
0.0
  9
$DIMEXE
 40
1.0
  9
$DIMTP
 40
0.0
  9
$DIMTM
 40
0.0
  9
$DIMTXT
 40
2.5
  9
$DIMCEN
 40
0.0
  9
$DIMTSZ
 40
0.0
  9
$DIMTOL
 70
     0
  9
$DIMLIM
 70
     0
  9
$DIMTIH
 70
     0
  9
$DIMTOH
 70
     0
  9
$DIMSE1
 70
     0
  9
$DIMSE2
 70
     0
  9
$DIMTAD
 70
     1
  9
$DIMZIN
 70
     8
  9
$DIMBLK
  1
OPEN30
  9
$DIMASO
 70
     1
  9
$DIMSHO
 70
     1
  9
$DIMPOST
  1

  9
$DIMAPOST
  1

  9
$DIMALT
 70
     0
  9
$DIMALTD
 70
     2
  9
$DIMALTF
 40
25.4
  9
$DIMLFAC
 40
1.0
  9
$DIMTOFL
 70
     1
  9
$DIMTVP
 40
0.0
  9
$DIMTIX
 70
     0
  9
$DIMSOXD
 70
     0
  9
$DIMSAH
 70
     0
  9
$DIMBLK1
  1

  9
$DIMBLK2
  1

  9
$DIMSTYLE
  2
SUNPOU_2
  9
$DIMCLRD
 70
   256
  9
$DIMCLRE
 70
   256
  9
$DIMCLRT
 70
   256
  9
$DIMTFAC
 40
1.0
  9
$DIMGAP
 40
1.0
  9
$DIMJUST
 70
     0
  9
$DIMSD1
 70
     0
  9
$DIMSD2
 70
     0
  9
$DIMTOLJ
 70
     1
  9
$DIMTZIN
 70
     0
  9
$DIMALTZ
 70
     0
  9
$DIMALTTZ
 70
     0
  9
$DIMFIT
 70
     3
  9
$DIMUPT
 70
     0
  9
$DIMUNIT
 70
     2
  9
$DIMDEC
 70
     1
  9
$DIMTDEC
 70
     1
  9
$DIMALTU
 70
     2
  9
$DIMALTTD
 70
     2
  9
$DIMTXSTY
  7
SUNPOU
  9
$DIMAUNIT
 70
     0
  9
$LUNITS
 70
     2
  9
$LUPREC
 70
     4
  9
$SKETCHINC
 40
0.1
  9
$FILLETRAD
 40
0.0
  9
$AUNITS
 70
     0
  9
$AUPREC
 70
     0
  9
$MENU
  1
.
  9
$ELEVATION
 40
0.0
  9
$PELEVATION
 40
0.0
  9
$THICKNESS
 40
0.0
  9
$LIMCHECK
 70
     0
  9
$BLIPMODE
 70
     0
  9
$CHAMFERA
 40
0.0
  9
$CHAMFERB
 40
0.0
  9
$CHAMFERC
 40
0.0
  9
$CHAMFERD
 40
0.0
  9
$SKPOLY
 70
     0
  9
$TDCREATE
 40
2452998.418731192
  9
$TDUPDATE
 40
2453266.459327072
  9
$TDINDWG
 40
0.6181486921
  9
$TDUSRTIMER
 40
0.6181486921
  9
$USRTIMER
 70
     1
  9
$ANGBASE
 50
0.0
  9
$ANGDIR
 70
     0
  9
$PDMODE
 70
     0
  9
$PDSIZE
 40
0.0
  9
$PLINEWID
 40
0.0
  9
$COORDS
 70
     1
  9
$SPLFRAME
 70
     0
  9
$SPLINETYPE
 70
     6
  9
$SPLINESEGS
 70
     8
  9
$ATTDIA
 70
     0
  9
$ATTREQ
 70
     1
  9
$HANDLING
 70
-16383
  9
$HANDSEED
  5
18A6
  9
$SURFTAB1
 70
     6
  9
$SURFTAB2
 70
     6
  9
$SURFTYPE
 70
     6
  9
$SURFU
 70
     6
  9
$SURFV
 70
     6
  9
$UCSNAME
  2

  9
$UCSORG
 10
0.0
 20
0.0
 30
0.0
  9
$UCSXDIR
 10
1.0
 20
0.0
 30
0.0
  9
$UCSYDIR
 10
0.0
 20
1.0
 30
0.0
  9
$PUCSNAME
  2

  9
$PUCSORG
 10
0.0
 20
0.0
 30
0.0
  9
$PUCSXDIR
 10
1.0
 20
0.0
 30
0.0
  9
$PUCSYDIR
 10
0.0
 20
1.0
 30
0.0
  9
$USERI1
 70
     0
  9
$USERI2
 70
     0
  9
$USERI3
 70
     0
  9
$USERI4
 70
     0
  9
$USERI5
 70
     0
  9
$USERR1
 40
0.0
  9
$USERR2
 40
0.0
  9
$USERR3
 40
0.0
  9
$USERR4
 40
0.0
  9
$USERR5
 40
0.0
  9
$WORLDVIEW
 70
     1
  9
$SHADEDGE
 70
     3
  9
$SHADEDIF
 70
    70
  9
$TILEMODE
 70
     1
  9
$MAXACTVP
 70
    64
  9
$PINSBASE
 10
0.0
 20
0.0
 30
0.0
  9
$PLIMCHECK
 70
     0
  9
$PEXTMIN
 10
-0.3083210659378892
 20
-0.0261304186901725
 30
-0.0015258207003583
  9
$PEXTMAX
 10
594.4708619754353
 20
855.5884737637461
 30
0.0000000349246037
  9
$PLIMMIN
 10
-17.91287014236687
 20
-17.64900329097213
  9
$PLIMMAX
 10
612.0653600040226
 20
873.2113494973155
  9
$UNITMODE
 70
     0
  9
$VISRETAIN
 70
     1
  9
$PLINEGEN
 70
     0
  9
$PSLTSCALE
 70
     1
  9
$TREEDEPTH
 70
  3020
  9
$PICKSTYLE
 70
     1
  9
$CMLSTYLE
  2
STANDARD
  9
$CMLJUST
 70
     0
  9
$CMLSCALE
 40
1.0
  9
$SAVEIMAGES
 70
     1
  0
ENDSEC
  0
SECTION
  2
CLASSES
  0
CLASS
  1
ACDBDICTIONARYWDFLT
  2
AcDbDictionaryWithDefault
  3
AutoCAD 2000
 90
    32768
280
     0
281
     0
  0
CLASS
  1
ACDBPLACEHOLDER
  2
AcDbPlaceHolder
  3
AutoCAD 2000
 90
    32768
280
     0
281
     0
  0
CLASS
  1
LAYOUT
  2
AcDbLayout
  3
AutoCAD 2000
 90
    32768
280
     0
281
     0
  0
CLASS
  1
DICTIONARYVAR
  2
AcDbDictionaryVar
  3
AutoCAD 2000
 90
    32768
280
     0
281
     0
  0
CLASS
  1
LONG_TRANSACTION
  2
AcDbLongTransaction
  3
AutoCAD 2000
 90
    32768
280
     0
281
     0
  0
CLASS
  1
LWPOLYLINE
  2
AcDbPolyline
  3
AutoCAD 2000
 90
    32768
280
     0
281
     1
  0
CLASS
  1
HATCH
  2
AcDbHatch
  3
AutoCAD 2000
 90
    32768
280
     0
281
     1
  0
CLASS
  1
XRECORD
  2
AcDbXrecord
  3
AutoCAD 2000
 90
    32768
280
     0
281
     0
  0
CLASS
  1
LONG_TRANSACTION
  2
AcDbLongTransaction
  3
AutoCAD 2000
 90
    32768
280
     0
281
     0
  0
CLASS
  1
LWPOLYLINE
  2
AcDbPolyline
  3
AutoCAD 2000
 90
    32768
280
     0
281
     1
  0
CLASS
  1
HATCH
  2
AcDbHatch
  3
AutoCAD 2000
 90
    32768
280
     0
281
     1
  0
CLASS
  1
XRECORD
  2
AcDbXrecord
  3
AutoCAD 2000
 90
    32768
280
     0
281
     0
  0
ENDSEC
  0
SECTION
  2
TABLES
  0
TABLE
  2
VPORT
  5
8
330
0
100
AcDbSymbolTable
 70
     2
  0
VPORT
  5
1895
330
8
100
AcDbSymbolTableRecord
100
AcDbViewportTableRecord
  2
*ACTIVE
 70
     0
 10
0.0
 20
0.0
 11
1.0
 21
1.0
 12
322.9852203705485
 22
420.5000019581056
 13
0.0
 23
0.0
 14
1.0
 24
1.0
 15
0.0
 25
0.0
 16
0.0
 26
0.0
 36
1.0
 17
0.0
 27
0.0
 37
0.0
 40
850.5564368010746
 41
1.780442804428044
 42
50.0
 43
0.0
 44
0.0
 50
0.0
 51
0.0
 71
     0
 72
   100
 73
     1
 74
     1
 75
     0
 76
     0
 77
     0
 78
     0
  0
ENDTAB
  0
TABLE
  2
LTYPE
  5
5
330
0
100
AcDbSymbolTable
 70
     2
  0
LTYPE
  5
13
330
5
100
AcDbSymbolTableRecord
100
AcDbLinetypeTableRecord
  2
BYBLOCK
 70
     0
  3

 72
    65
 73
     0
 40
0.0
  0
LTYPE
  5
14
330
5
100
AcDbSymbolTableRecord
100
AcDbLinetypeTableRecord
  2
BYLAYER
 70
     0
  3

 72
    65
 73
     0
 40
0.0
  0
LTYPE
  5
15
330
5
100
AcDbSymbolTableRecord
100
AcDbLinetypeTableRecord
  2
CONTINUOUS
 70
     0
  3
CONTINUOUS
 72
    65
 73
     0
 40
0.0
  0
LTYPE
  5
7EC
330
5
100
AcDbSymbolTableRecord
100
AcDbLinetypeTableRecord
  2
CENTER2
 70
     0
  3
Center (.5x) ___ _ ___ _ ___ _ ___ _ ___ _ ___
 72
    65
 73
     4
 40
28.57499999999999
 49
19.05
 74
     0
 49
-3.174999999999998
 74
     0
 49
3.174999999999998
 74
     0
 49
-3.174999999999998
 74
     0
  0
ENDTAB
  0
TABLE
  2
LAYER
  5
2
102
{ACAD_XDICTIONARY
360
ABB
102
}
330
0
100
AcDbSymbolTable
 70
    10
  0
LAYER
  5
10
330
2
100
AcDbSymbolTableRecord
100
AcDbLayerTableRecord
  2
0
 70
     0
 62
     7
  6
CONTINUOUS
  0
LAYER
  5
7DF
330
2
100
AcDbSymbolTableRecord
100
AcDbLayerTableRecord
  2
DEFPOINTS
 70
     0
 62
     7
  6
CONTINUOUS
  0
LAYER
  5
7E1
330
2
100
AcDbSymbolTableRecord
100
AcDbLayerTableRecord
  2
02
 70
     0
 62
     2
  6
CONTINUOUS
  0
LAYER
  5
7E2
330
2
100
AcDbSymbolTableRecord
100
AcDbLayerTableRecord
  2
03
 70
     0
 62
     3
  6
CONTINUOUS
  0
LAYER
  5
7E5
330
2
100
AcDbSymbolTableRecord
100
AcDbLayerTableRecord
  2
06
 70
     0
 62
     6
  6
CONTINUOUS
  0
LAYER
  5
7EB
330
2
100
AcDbSymbolTableRecord
100
AcDbLayerTableRecord
  2
CHUSIN
 70
     0
 62
     6
  6
CENTER2
  0
LAYER
  5
7ED
330
2
100
AcDbSymbolTableRecord
100
AcDbLayerTableRecord
  2
HIKIDASI
 70
     0
 62
     6
  6
CONTINUOUS
  0
LAYER
  5
7EF
330
2
100
AcDbSymbolTableRecord
100
AcDbLayerTableRecord
  2
MOJI
 70
     0
 62
     3
  6
CONTINUOUS
  0
LAYER
  5
7F2
330
2
100
AcDbSymbolTableRecord
100
AcDbLayerTableRecord
  2
SUNPOU
 70
     0
 62
     6
  6
CONTINUOUS
  0
LAYER
  5
ABE
330
2
100
AcDbSymbolTableRecord
100
AcDbLayerTableRecord
  2
SAISEN
 70
     0
 62
     3
  6
CONTINUOUS
  0
ENDTAB
  0
TABLE
  2
STYLE
  5
3
330
0
100
AcDbSymbolTable
 70
     5
  0
STYLE
  5
11
330
3
100
AcDbSymbolTableRecord
100
AcDbTextStyleTableRecord
  2
STANDARD
 70
     0
 40
0.0
 41
1.0
 50
0.0
 71
     0
 42
0.0
  3
TXT
  4
BIGFONT
  0
STYLE
  5
7F4
330
3
100
AcDbSymbolTableRecord
100
AcDbTextStyleTableRecord
  2
SUNPOU
 70
     0
 40
0.0
 41
0.8
 50
0.0
 71
     0
 42
0.2
  3
txt.shx
  4
extfont.shx
  0
STYLE
  5
7FD
330
3
100
AcDbSymbolTableRecord
100
AcDbTextStyleTableRecord
  2
0_8
 70
     0
 40
0.0
 41
0.8
 50
0.0
 71
     0
 42
2.5
  3
txt.shx
  4
extfont.shx
  0
STYLE
  5
805
330
3
100
AcDbSymbolTableRecord
100
AcDbTextStyleTableRecord
  2
1_0
 70
     0
 40
0.0
 41
1.0
 50
0.0
 71
     0
 42
4.0
  3
txt.shx
  4
extfont.shx
  0
STYLE
  5
1810
330
3
100
AcDbSymbolTableRecord
100
AcDbTextStyleTableRecord
  2
0_80
 70
     0
 40
0.0
 41
0.8
 50
0.0
 71
     0
 42
16.8
  3
txt.shx
  4
extfont.shx
  0
ENDTAB
  0
TABLE
  2
VIEW
  5
6
330
0
100
AcDbSymbolTable
 70
     0
  0
ENDTAB
  0
TABLE
  2
UCS
  5
7
330
0
100
AcDbSymbolTable
 70
     0
  0
ENDTAB
  0
TABLE
  2
APPID
  5
9
330
0
100
AcDbSymbolTable
 70
     3
  0
APPID
  5
12
330
9
100
AcDbSymbolTableRecord
100
AcDbRegAppTableRecord
  2
ACAD
 70
     0
  0
APPID
  5
179A
330
9
100
AcDbSymbolTableRecord
100
AcDbRegAppTableRecord
  2
CONTENTBLOCKICON
 70
     0
  0
APPID
  5
180D
330
9
100
AcDbSymbolTableRecord
100
AcDbRegAppTableRecord
  2
DCO15
 70
     0
  0
ENDTAB
  0
TABLE
  2
DIMSTYLE
  5
A
330
0
100
AcDbSymbolTable
 70
     3
  0
DIMSTYLE
105
7D6
330
A
100
AcDbSymbolTableRecord
100
AcDbDimStyleTableRecord
  2
STANDARD
 70
     0
  3

  4

  5

  6

  7

 40
1.0
 41
0.18
 42
0.0625
 43
0.38
 44
0.18
 45
0.0
 46
0.0
 47
0.0
 48
0.0
140
0.18
141
0.09
142
0.0
143
25.4
144
1.0
145
0.0
146
1.0
147
0.09
 71
     0
 72
     0
 73
     1
 74
     1
 75
     0
 76
     0
 77
     0
 78
     0
170
     0
171
     2
172
     0
173
     0
174
     0
175
     0
176
     0
177
     0
178
     0
270
     2
271
     4
272
     4
273
     2
274
     2
340
11
275
     0
280
     0
281
     0
282
     0
283
     1
284
     0
285
     0
286
     0
287
     3
288
     0
  0
DIMSTYLE
105
7F3
102
{ACAD_REACTORS
330
AD9
330
AE6
330
AF3
330
B00
330
B1F
330
B2C
330
B4B
330
B58
330
B65
330
B8C
330
BA6
330
BEC
330
BFB
330
C0A
330
CF2
330
D01
330
D0E
330
D1D
330
DCF
330
DDC
330
DF6
330
E2E
330
E69
330
E8A
330
E99
330
EA6
330
F18
330
F27
330
F36
330
F45
330
F52
330
F61
330
FE2
330
FF1
330
FFE
330
10C5
330
1173
330
106D
330
106F
330
1071
330
1073
330
1075
330
1171
330
1378
330
15E9
330
1677
330
168B
102
}
330
A
100
AcDbSymbolTableRecord
100
AcDbDimStyleTableRecord
  2
SUNPOU_5
 70
     0
  3

  4

  5
OPEN30
  6

  7

 40
3.0
 41
2.5
 42
1.5
 43
0.0
 44
1.0
 45
0.0
 46
0.0
 47
0.0
 48
0.0
140
2.5
141
0.0
142
0.0
143
25.4
144
1.0
145
0.0
146
1.0
147
1.0
 71
     0
 72
     0
 73
     0
 74
     0
 75
     0
 76
     0
 77
     1
 78
     8
170
     0
171
     2
172
     1
173
     0
174
     0
175
     0
176
   256
177
   256
178
     6
270
     2
271
     1
272
     1
273
     2
274
     2
340
7F4
275
     0
280
     0
281
     0
282
     0
283
     1
284
     0
285
     0
286
     0
287
     3
288
     0
  0
DIMSTYLE
105
182A
330
A
100
AcDbSymbolTableRecord
100
AcDbDimStyleTableRecord
  2
SUNPOU_2
 70
     0
  3

  4

  5
OPEN30
  6

  7

 40
2.0
 41
2.5
 42
1.5
 43
0.0
 44
1.0
 45
0.0
 46
0.0
 47
0.0
 48
0.0
140
2.5
141
0.0
142
0.0
143
25.4
144
1.0
145
0.0
146
1.0
147
1.0
 71
     0
 72
     0
 73
     0
 74
     0
 75
     0
 76
     0
 77
     1
 78
     8
170
     0
171
     2
172
     1
173
     0
174
     0
175
     0
176
   256
177
   256
178
   256
270
     2
271
     1
272
     1
273
     2
274
     2
340
7F4
275
     0
280
     0
281
     0
282
     0
283
     1
284
     0
285
     0
286
     0
287
     3
288
     0
  0
ENDTAB
  0
TABLE
  2
BLOCK_RECORD
  5
1
330
0
100
AcDbSymbolTable
 70
    44
  0
BLOCK_RECORD
  5
1E
102
{ACAD_XDICTIONARY
360
1798
102
}
330
1
100
AcDbSymbolTableRecord
100
AcDbBlockTableRecord
  2
*MODEL_SPACE
  0
BLOCK_RECORD
  5
1A
102
{ACAD_XDICTIONARY
360
1796
102
}
330
1
100
AcDbSymbolTableRecord
100
AcDbBlockTableRecord
  2
*PAPER_SPACE
  0
BLOCK_RECORD
  5
7F5
330
1
100
AcDbSymbolTableRecord
100
AcDbBlockTableRecord
  2
_OPEN30
1001
CONTENTBLOCKICON
1071
        0
1004
2800000020000000200000000100080000000000000400000000000000000000000000000000000000000000000080000080000000808000800000008000800080800000C0C0C000C0DCC000F0CAA6000020400000206000002080000020A0000020C0000020E00000400000004020000040400000406000004080000040A0
1004
000040C0000040E00000600000006020000060400000606000006080000060A0000060C0000060E00000800000008020000080400000806000008080000080A0000080C0000080E00000A0000000A0200000A0400000A0600000A0800000A0A00000A0C00000A0E00000C0000000C0200000C0400000C0600000C0800000C0
1004
A00000C0C00000C0E00000E0000000E0200000E0400000E0600000E0800000E0A00000E0C00000E0E00040000000400020004000400040006000400080004000A0004000C0004000E00040200000402020004020400040206000402080004020A0004020C0004020E000404000004040200040404000404060004040800040
1004
40A0004040C0004040E00040600000406020004060400040606000406080004060A0004060C0004060E00040800000408020004080400040806000408080004080A0004080C0004080E00040A0000040A0200040A0400040A0600040A0800040A0A00040A0C00040A0E00040C0000040C0200040C0400040C0600040C08000
1004
40C0A00040C0C00040C0E00040E0000040E0200040E0400040E0600040E0800040E0A00040E0C00040E0E00080000000800020008000400080006000800080008000A0008000C0008000E00080200000802020008020400080206000802080008020A0008020C0008020E00080400000804020008040400080406000804080
1004
008040A0008040C0008040E00080600000806020008060400080606000806080008060A0008060C0008060E00080800000808020008080400080806000808080008080A0008080C0008080E00080A0000080A0200080A0400080A0600080A0800080A0A00080A0C00080A0E00080C0000080C0200080C0400080C0600080C0
1004
800080C0A00080C0C00080C0E00080E0000080E0200080E0400080E0600080E0800080E0A00080E0C00080E0E000C0000000C0002000C0004000C0006000C0008000C000A000C000C000C000E000C0200000C0202000C0204000C0206000C0208000C020A000C020C000C020E000C0400000C0402000C0404000C0406000C0
1004
408000C040A000C040C000C040E000C0600000C0602000C0604000C0606000C0608000C060A000C060C000C060E000C0800000C0802000C0804000C0806000C0808000C080A000C080C000C080E000C0A00000C0A02000C0A04000C0A06000C0A08000C0A0A000C0A0C000C0A0E000C0C00000C0C02000C0C04000C0C06000
1004
C0C08000C0C0A000F0FBFF00A4A0A000808080000000FF0000FF000000FFFF00FF000000FF00FF00FFFF0000FFFFFF0000000000000000000000000000000000000000000000000000000000000000000000000000000000000000000000000000000000000000000000000000000000000000000000000000000000000000
1004
00000000000000000000000000000000000000000000000000000000000000000000000000000000000000000000000000000000000000000000000000000000000000000000000000000000000000000000000000000000000000000000000000000000000000000000000000000000000000000000000000000000000000
1004
000000000000000000000000000000000000000000000000000000000000000000000000000000000000000000000000000000FFFF0000000000000000000000000000000000000000000000000000000000000000FFFFFFFF0000000000000000000000000000000000000000000000000000000000000000FFFFFFFF0000
1004
000000000000000000000000000000000000000000000000000000000000FFFFFF0000000000000000000000000000000000000000000000000000000000000000FFFFFFFF0000000000000000000000000000000000000000000000000000000000000000FFFFFF0000000000000000000000000000000000000000000000
1004
000000000000000000FFFFFFFF0000000000000000000000000000000000000000000000000000000000000000FFFFFFFF00000000FFFFFFFFFFFFFFFFFFFFFFFFFFFFFFFFFFFFFFFFFFFFFFFFFFFFFFFFFFFF00000000000000000000000000000000000000000000000000FFFFFFFF000000000000000000000000000000
1004
000000000000000000FFFFFFFF000000000000000000000000000000000000000000000000FFFFFFFF000000000000000000000000000000000000000000000000FFFFFFFF000000000000000000000000000000000000000000000000FFFFFFFF000000000000000000000000000000000000000000000000FFFFFFFF0000
1004
0000000000000000000000000000000000000000000000FFFFFF0000000000000000000000000000000000000000000000000000000000000000000000000000000000000000000000000000000000000000000000000000000000000000000000000000000000000000000000000000000000000000000000000000000000
1004
00000000000000000000000000000000000000000000000000000000000000000000000000000000000000000000000000000000000000000000000000000000000000000000000000000000000000000000000000000000000000000000000000000000000000000000000000000000000000000000000000000000000000
1004
0000000000000000000000000000000000000000000000000000000000000000000000000000000000000000000000000000000000000000
  0
BLOCK_RECORD
  5
ADA
330
1
100
AcDbSymbolTableRecord
100
AcDbBlockTableRecord
  2
*D1
  0
BLOCK_RECORD
  5
AE7
330
1
100
AcDbSymbolTableRecord
100
AcDbBlockTableRecord
  2
*D2
  0
BLOCK_RECORD
  5
AF4
330
1
100
AcDbSymbolTableRecord
100
AcDbBlockTableRecord
  2
*D3
  0
BLOCK_RECORD
  5
B01
330
1
100
AcDbSymbolTableRecord
100
AcDbBlockTableRecord
  2
*D4
  0
BLOCK_RECORD
  5
B20
330
1
100
AcDbSymbolTableRecord
100
AcDbBlockTableRecord
  2
*D5
  0
BLOCK_RECORD
  5
B2D
330
1
100
AcDbSymbolTableRecord
100
AcDbBlockTableRecord
  2
*D6
  0
BLOCK_RECORD
  5
B4C
330
1
100
AcDbSymbolTableRecord
100
AcDbBlockTableRecord
  2
*D7
  0
BLOCK_RECORD
  5
B59
330
1
100
AcDbSymbolTableRecord
100
AcDbBlockTableRecord
  2
*D8
  0
BLOCK_RECORD
  5
B66
330
1
100
AcDbSymbolTableRecord
100
AcDbBlockTableRecord
  2
*D9
  0
BLOCK_RECORD
  5
B8D
330
1
100
AcDbSymbolTableRecord
100
AcDbBlockTableRecord
  2
*D10
  0
BLOCK_RECORD
  5
BA7
330
1
100
AcDbSymbolTableRecord
100
AcDbBlockTableRecord
  2
*D11
  0
BLOCK_RECORD
  5
BED
330
1
100
AcDbSymbolTableRecord
100
AcDbBlockTableRecord
  2
*D12
  0
BLOCK_RECORD
  5
BFC
330
1
100
AcDbSymbolTableRecord
100
AcDbBlockTableRecord
  2
*D13
  0
BLOCK_RECORD
  5
C0B
330
1
100
AcDbSymbolTableRecord
100
AcDbBlockTableRecord
  2
*D14
  0
BLOCK_RECORD
  5
C6E
330
1
100
AcDbSymbolTableRecord
100
AcDbBlockTableRecord
  2
_DOTSMALL
  0
BLOCK_RECORD
  5
CF3
330
1
100
AcDbSymbolTableRecord
100
AcDbBlockTableRecord
  2
*D16
  0
BLOCK_RECORD
  5
D02
330
1
100
AcDbSymbolTableRecord
100
AcDbBlockTableRecord
  2
*D17
  0
BLOCK_RECORD
  5
D0F
330
1
100
AcDbSymbolTableRecord
100
AcDbBlockTableRecord
  2
*D18
  0
BLOCK_RECORD
  5
D1E
330
1
100
AcDbSymbolTableRecord
100
AcDbBlockTableRecord
  2
*D19
  0
BLOCK_RECORD
  5
DD0
330
1
100
AcDbSymbolTableRecord
100
AcDbBlockTableRecord
  2
*D20
  0
BLOCK_RECORD
  5
DDD
330
1
100
AcDbSymbolTableRecord
100
AcDbBlockTableRecord
  2
*D21
  0
BLOCK_RECORD
  5
DF7
330
1
100
AcDbSymbolTableRecord
100
AcDbBlockTableRecord
  2
*D22
  0
BLOCK_RECORD
  5
E2F
330
1
100
AcDbSymbolTableRecord
100
AcDbBlockTableRecord
  2
*D23
  0
BLOCK_RECORD
  5
E6A
330
1
100
AcDbSymbolTableRecord
100
AcDbBlockTableRecord
  2
*D24
  0
BLOCK_RECORD
  5
E8B
330
1
100
AcDbSymbolTableRecord
100
AcDbBlockTableRecord
  2
*D25
  0
BLOCK_RECORD
  5
E9A
330
1
100
AcDbSymbolTableRecord
100
AcDbBlockTableRecord
  2
*D26
  0
BLOCK_RECORD
  5
EA7
330
1
100
AcDbSymbolTableRecord
100
AcDbBlockTableRecord
  2
*D27
  0
BLOCK_RECORD
  5
F19
330
1
100
AcDbSymbolTableRecord
100
AcDbBlockTableRecord
  2
*D28
  0
BLOCK_RECORD
  5
F28
330
1
100
AcDbSymbolTableRecord
100
AcDbBlockTableRecord
  2
*D29
  0
BLOCK_RECORD
  5
F37
330
1
100
AcDbSymbolTableRecord
100
AcDbBlockTableRecord
  2
*D30
  0
BLOCK_RECORD
  5
F46
330
1
100
AcDbSymbolTableRecord
100
AcDbBlockTableRecord
  2
*D31
  0
BLOCK_RECORD
  5
F53
330
1
100
AcDbSymbolTableRecord
100
AcDbBlockTableRecord
  2
*D32
  0
BLOCK_RECORD
  5
F62
330
1
100
AcDbSymbolTableRecord
100
AcDbBlockTableRecord
  2
*D33
  0
BLOCK_RECORD
  5
FE3
330
1
100
AcDbSymbolTableRecord
100
AcDbBlockTableRecord
  2
*D34
  0
BLOCK_RECORD
  5
FF2
330
1
100
AcDbSymbolTableRecord
100
AcDbBlockTableRecord
  2
*D35
  0
BLOCK_RECORD
  5
FFF
330
1
100
AcDbSymbolTableRecord
100
AcDbBlockTableRecord
  2
*D36
  0
BLOCK_RECORD
  5
10C6
330
1
100
AcDbSymbolTableRecord
100
AcDbBlockTableRecord
  2
*D37
  0
BLOCK_RECORD
  5
1174
330
1
100
AcDbSymbolTableRecord
100
AcDbBlockTableRecord
  2
*D38
  0
BLOCK_RECORD
  5
1379
330
1
100
AcDbSymbolTableRecord
100
AcDbBlockTableRecord
  2
*D39
  0
BLOCK_RECORD
  5
13F9
330
1
100
AcDbSymbolTableRecord
100
AcDbBlockTableRecord
  2
_NONE
  0
BLOCK_RECORD
  5
15EA
330
1
100
AcDbSymbolTableRecord
100
AcDbBlockTableRecord
  2
*D41
  0
BLOCK_RECORD
  5
1678
330
1
100
AcDbSymbolTableRecord
100
AcDbBlockTableRecord
  2
*D42
  0
BLOCK_RECORD
  5
168C
330
1
100
AcDbSymbolTableRecord
100
AcDbBlockTableRecord
  2
*D43
  0
ENDTAB
  0
ENDSEC
  0
SECTION
  2
BLOCKS
  0
BLOCK
  5
1F
330
1E
100
AcDbEntity
  8
0
100
AcDbBlockBegin
  2
*MODEL_SPACE
 70
     0
 10
0.0
 20
0.0
 30
0.0
  3
*MODEL_SPACE
  1

  0
ENDBLK
  5
20
330
1E
100
AcDbEntity
  8
0
100
AcDbBlockEnd
  0
BLOCK
  5
1B
330
1A
100
AcDbEntity
 67
     1
  8
0
100
AcDbBlockBegin
  2
*PAPER_SPACE
 70
     0
 10
0.0
 20
0.0
 30
0.0
  3
*PAPER_SPACE
  1

  0
ENDBLK
  5
1C
330
1A
100
AcDbEntity
 67
     1
  8
0
100
AcDbBlockEnd
  0
BLOCK
  5
7F9
330
7F5
100
AcDbEntity
  8
0
100
AcDbBlockBegin
  2
_OPEN30
 70
     0
 10
0.0
 20
0.0
 30
0.0
  3
_OPEN30
  1

  0
LINE
  5
7F6
330
7F5
100
AcDbEntity
  8
0
  6
BYBLOCK
 62
     0
100
AcDbLine
 10
-1.0
 20
0.26794919
 30
0.0
 11
0.0
 21
0.0
 31
0.0
  0
LINE
  5
7F7
330
7F5
100
AcDbEntity
  8
0
  6
BYBLOCK
 62
     0
100
AcDbLine
 10
0.0
 20
0.0
 30
0.0
 11
-1.0
 21
-0.26794919
 31
0.0
  0
LINE
  5
7F8
330
7F5
100
AcDbEntity
  8
0
  6
BYBLOCK
 62
     0
100
AcDbLine
 10
0.0
 20
0.0
 30
0.0
 11
-1.0
 21
0.0
 31
0.0
  0
ENDBLK
  5
7FA
330
7F5
100
AcDbEntity
  8
0
100
AcDbBlockEnd
  0
BLOCK
  5
AE4
330
ADA
100
AcDbEntity
  8
0
100
AcDbBlockBegin
  2
*D1
 70
     1
 10
0.0
 20
0.0
 30
0.0
  3
*D1
  1

  0
LINE
  5
118C
330
ADA
100
AcDbEntity
  8
SUNPOU
100
AcDbLine
 10
77.15466895240616
 20
277.5278033319364
 30
0.0
 11
78.65466895240612
 21
277.5278033319364
 31
0.0
  0
LINE
  5
118D
330
ADA
100
AcDbEntity
  8
SUNPOU
100
AcDbLine
 10
77.15466895240616
 20
387.5278033319364
 30
0.0
 11
78.65466895240615
 21
387.5278033319364
 31
0.0
  0
LINE
  5
118E
330
ADA
100
AcDbEntity
  8
SUNPOU
100
AcDbLine
 10
81.65466895240612
 20
285.0278033319364
 30
0.0
 11
81.65466895240616
 21
380.0278033319364
 31
0.0
  0
INSERT
  5
118F
330
ADA
100
AcDbEntity
  8
SUNPOU
100
AcDbBlockReference
  2
_OPEN30
 10
81.65466895240612
 20
277.5278033319364
 30
0.0
 41
7.5
 42
7.5
 43
7.5
 50
270.0
  0
INSERT
  5
1190
330
ADA
100
AcDbEntity
  8
SUNPOU
100
AcDbBlockReference
  2
_OPEN30
 10
81.65466895240616
 20
387.5278033319364
 30
0.0
 41
7.5
 42
7.5
 43
7.5
 50
90.0
  0
MTEXT
  5
1191
330
ADA
100
AcDbEntity
  8
SUNPOU
 62
     6
100
AcDbMText
 10
74.90466895240608
 20
332.5278033319364
 30
0.0
 40
7.5
 41
0.0
 71
     5
 72
     1
  1
\A1;110
  7
SUNPOU
 11
0.0000000000000001
 21
1.0
 31
0.0
1001
ACAD
1000
MTEXTBEGIN
1070
    73
1070
     1
1070
    44
1040
1.0
1070
    74
1070
     0
1000
MTEXTEND
1000
MTEXTBEGIN
1070
    73
1070
     1
1070
    44
1040
1.0
1070
    74
1070
     0
1000
MTEXTEND
  0
POINT
  5
1192
330
ADA
100
AcDbEntity
  8
DEFPOINTS
 62
     0
100
AcDbPoint
 10
81.65466895240616
 20
277.5278033319364
 30
0.0
  0
POINT
  5
1193
330
ADA
100
AcDbEntity
  8
DEFPOINTS
 62
     0
100
AcDbPoint
 10
81.65466895240616
 20
387.5278033319364
 30
0.0
  0
POINT
  5
1194
330
ADA
100
AcDbEntity
  8
DEFPOINTS
 62
     0
100
AcDbPoint
 10
81.65466895240616
 20
387.5278033319364
 30
0.0
  0
ENDBLK
  5
AE5
330
ADA
100
AcDbEntity
  8
0
100
AcDbBlockEnd
  0
BLOCK
  5
AF1
330
AE7
100
AcDbEntity
  8
0
100
AcDbBlockBegin
  2
*D2
 70
     1
 10
0.0
 20
0.0
 30
0.0
  3
*D2
  1

  0
LINE
  5
130E
330
AE7
100
AcDbEntity
  8
SUNPOU
100
AcDbLine
 10
77.15466895240616
 20
387.5278033319364
 30
0.0
 11
78.65466895240615
 21
387.5278033319364
 31
0.0
  0
LINE
  5
130F
330
AE7
100
AcDbEntity
  8
SUNPOU
100
AcDbLine
 10
86.15466895240615
 20
456.6778033319365
 30
0.0
 11
84.65466895240615
 21
456.6778033319365
 31
0.0
  0
LINE
  5
1310
330
AE7
100
AcDbEntity
  8
SUNPOU
100
AcDbLine
 10
81.65466895240616
 20
395.0278033319364
 30
0.0
 11
81.65466895240617
 21
449.1778033319365
 31
0.0
  0
MTEXT
  5
1311
330
AE7
100
AcDbEntity
  8
SUNPOU
 62
     6
100
AcDbMText
 10
74.9046689524061
 20
401.2056298874311
 30
0.0
 40
7.5
 41
0.0
 71
     5
 72
     1
  1
\A1;69.15
  7
SUNPOU
 11
0.0000000000000001
 21
1.0
 31
0.0
1001
ACAD
1000
MTEXTBEGIN
1070
    73
1070
     1
1070
    44
1040
1.0
1070
    74
1070
     0
1000
MTEXTEND
1000
MTEXTBEGIN
1070
    73
1070
     1
1070
    44
1040
1.0
1070
    74
1070
     0
1000
MTEXTEND
  0
INSERT
  5
1312
330
AE7
100
AcDbEntity
  8
SUNPOU
100
AcDbBlockReference
  2
_OPEN30
 10
81.65466895240616
 20
387.5278033319364
 30
0.0
 41
7.5
 42
7.5
 43
7.5
 50
270.0
  0
INSERT
  5
1313
330
AE7
100
AcDbEntity
  8
SUNPOU
100
AcDbBlockReference
  2
_OPEN30
 10
81.65466895240617
 20
456.6778033319365
 30
0.0
 41
7.5
 42
7.5
 43
7.5
 50
90.0
  0
POINT
  5
1314
330
AE7
100
AcDbEntity
  8
DEFPOINTS
 62
     0
100
AcDbPoint
 10
81.65466895240616
 20
387.5278033319364
 30
0.0
  0
POINT
  5
1315
330
AE7
100
AcDbEntity
  8
DEFPOINTS
 62
     0
100
AcDbPoint
 10
81.65466895240616
 20
456.6778033319365
 30
0.0
  0
POINT
  5
1316
330
AE7
100
AcDbEntity
  8
DEFPOINTS
 62
     0
100
AcDbPoint
 10
81.65466895240617
 20
456.6778033319365
 30
0.0
  0
ENDBLK
  5
AF2
330
AE7
100
AcDbEntity
  8
0
100
AcDbBlockEnd
  0
BLOCK
  5
AFE
330
AF4
100
AcDbEntity
  8
0
100
AcDbBlockBegin
  2
*D3
 70
     1
 10
0.0
 20
0.0
 30
0.0
  3
*D3
  1

  0
LINE
  5
1305
330
AF4
100
AcDbEntity
  8
SUNPOU
100
AcDbLine
 10
86.15466895240615
 20
456.6778033319365
 30
0.0
 11
84.65466895240615
 21
456.6778033319365
 31
0.0
  0
LINE
  5
1306
330
AF4
100
AcDbEntity
  8
SUNPOU
100
AcDbLine
 10
86.15466895240615
 20
525.8278033319364
 30
0.0
 11
84.65466895240618
 21
525.8278033319364
 31
0.0
  0
LINE
  5
1307
330
AF4
100
AcDbEntity
  8
SUNPOU
100
AcDbLine
 10
81.65466895240617
 20
464.1778033319365
 30
0.0
 11
81.65466895240617
 21
518.3278033319366
 31
0.0
  0
MTEXT
  5
1308
330
AF4
100
AcDbEntity
  8
SUNPOU
 62
     6
100
AcDbMText
 10
74.9046689524061
 20
508.301199769529
 30
0.0
 40
7.5
 41
0.0
 71
     5
 72
     1
  1
\A1;69.15
  7
SUNPOU
 11
0.0000000000000001
 21
1.0
 31
0.0
1001
ACAD
1000
MTEXTBEGIN
1070
    73
1070
     1
1070
    44
1040
1.0
1070
    74
1070
     0
1000
MTEXTEND
1000
MTEXTBEGIN
1070
    73
1070
     1
1070
    44
1040
1.0
1070
    74
1070
     0
1000
MTEXTEND
  0
INSERT
  5
1309
330
AF4
100
AcDbEntity
  8
SUNPOU
100
AcDbBlockReference
  2
_OPEN30
 10
81.65466895240617
 20
456.6778033319365
 30
0.0
 41
7.5
 42
7.5
 43
7.5
 50
270.0
  0
INSERT
  5
130A
330
AF4
100
AcDbEntity
  8
SUNPOU
100
AcDbBlockReference
  2
_OPEN30
 10
81.65466895240617
 20
525.8278033319364
 30
0.0
 41
7.5
 42
7.5
 43
7.5
 50
90.0
  0
POINT
  5
130B
330
AF4
100
AcDbEntity
  8
DEFPOINTS
 62
     0
100
AcDbPoint
 10
81.65466895240616
 20
456.6778033319365
 30
0.0
  0
POINT
  5
130C
330
AF4
100
AcDbEntity
  8
DEFPOINTS
 62
     0
100
AcDbPoint
 10
81.65466895240616
 20
525.8278033319364
 30
0.0
  0
POINT
  5
130D
330
AF4
100
AcDbEntity
  8
DEFPOINTS
 62
     0
100
AcDbPoint
 10
81.65466895240617
 20
525.8278033319364
 30
0.0
  0
ENDBLK
  5
AFF
330
AF4
100
AcDbEntity
  8
0
100
AcDbBlockEnd
  0
BLOCK
  5
B0B
330
B01
100
AcDbEntity
  8
0
100
AcDbBlockBegin
  2
*D4
 70
     1
 10
0.0
 20
0.0
 30
0.0
  3
*D4
  1

  0
LINE
  5
11A7
330
B01
100
AcDbEntity
  8
SUNPOU
100
AcDbLine
 10
86.15466895240615
 20
525.8278033319364
 30
0.0
 11
84.65466895240618
 21
525.8278033319364
 31
0.0
  0
LINE
  5
11A8
330
B01
100
AcDbEntity
  8
SUNPOU
100
AcDbLine
 10
86.15466895240606
 20
635.8278033319366
 30
0.0
 11
84.65466895240622
 21
635.8278033319366
 31
0.0
  0
LINE
  5
11A9
330
B01
100
AcDbEntity
  8
SUNPOU
100
AcDbLine
 10
81.65466895240617
 20
533.3278033319365
 30
0.0
 11
81.65466895240621
 21
628.3278033319366
 31
0.0
  0
INSERT
  5
11AA
330
B01
100
AcDbEntity
  8
SUNPOU
100
AcDbBlockReference
  2
_OPEN30
 10
81.65466895240617
 20
525.8278033319364
 30
0.0
 41
7.5
 42
7.5
 43
7.5
 50
270.0
  0
INSERT
  5
11AB
330
B01
100
AcDbEntity
  8
SUNPOU
100
AcDbBlockReference
  2
_OPEN30
 10
81.65466895240621
 20
635.8278033319366
 30
0.0
 41
7.5
 42
7.5
 43
7.5
 50
90.0
  0
MTEXT
  5
11AC
330
B01
100
AcDbEntity
  8
SUNPOU
 62
     6
100
AcDbMText
 10
74.90466895240611
 20
580.8278033319366
 30
0.0
 40
7.5
 41
0.0
 71
     5
 72
     1
  1
\A1;110
  7
SUNPOU
 11
0.0000000000000001
 21
1.0
 31
0.0
1001
ACAD
1000
MTEXTBEGIN
1070
    73
1070
     1
1070
    44
1040
1.0
1070
    74
1070
     0
1000
MTEXTEND
1000
MTEXTBEGIN
1070
    73
1070
     1
1070
    44
1040
1.0
1070
    74
1070
     0
1000
MTEXTEND
  0
POINT
  5
11AD
330
B01
100
AcDbEntity
  8
DEFPOINTS
 62
     0
100
AcDbPoint
 10
81.65466895240616
 20
525.8278033319364
 30
0.0
  0
POINT
  5
11AE
330
B01
100
AcDbEntity
  8
DEFPOINTS
 62
     0
100
AcDbPoint
 10
81.65466895240607
 20
635.8278033319366
 30
0.0
  0
POINT
  5
11AF
330
B01
100
AcDbEntity
  8
DEFPOINTS
 62
     0
100
AcDbPoint
 10
81.65466895240621
 20
635.8278033319366
 30
0.0
  0
ENDBLK
  5
B0C
330
B01
100
AcDbEntity
  8
0
100
AcDbBlockEnd
  0
BLOCK
  5
B2A
330
B20
100
AcDbEntity
  8
0
100
AcDbBlockBegin
  2
*D5
 70
     1
 10
0.0
 20
0.0
 30
0.0
  3
*D5
  1

  0
LINE
  5
11B0
330
B20
100
AcDbEntity
  8
SUNPOU
100
AcDbLine
 10
104.8641582531318
 20
356.6778033319365
 30
0.0
 11
106.3641582531317
 21
356.6778033319365
 31
0.0
  0
LINE
  5
11B1
330
B20
100
AcDbEntity
  8
SUNPOU
100
AcDbLine
 10
104.8641582531318
 20
456.6778033319365
 30
0.0
 11
106.3641582531317
 21
456.6778033319365
 31
0.0
  0
LINE
  5
11B2
330
B20
100
AcDbEntity
  8
SUNPOU
100
AcDbLine
 10
109.3641582531317
 20
364.1778033319365
 30
0.0
 11
109.3641582531317
 21
449.1778033319365
 31
0.0
  0
INSERT
  5
11B3
330
B20
100
AcDbEntity
  8
SUNPOU
100
AcDbBlockReference
  2
_OPEN30
 10
109.3641582531317
 20
356.6778033319365
 30
0.0
 41
7.5
 42
7.5
 43
7.5
 50
270.0
  0
INSERT
  5
11B4
330
B20
100
AcDbEntity
  8
SUNPOU
100
AcDbBlockReference
  2
_OPEN30
 10
109.3641582531317
 20
456.6778033319365
 30
0.0
 41
7.5
 42
7.5
 43
7.5
 50
90.0
  0
MTEXT
  5
11B5
330
B20
100
AcDbEntity
  8
SUNPOU
 62
     6
100
AcDbMText
 10
102.6141582531316
 20
406.6778033319365
 30
0.0
 40
7.5
 41
0.0
 71
     5
 72
     1
  1
\A1;100
  7
SUNPOU
 11
0.0000000000000001
 21
1.0
 31
0.0
1001
ACAD
1000
MTEXTBEGIN
1070
    73
1070
     1
1070
    44
1040
1.0
1070
    74
1070
     0
1000
MTEXTEND
1000
MTEXTBEGIN
1070
    73
1070
     1
1070
    44
1040
1.0
1070
    74
1070
     0
1000
MTEXTEND
  0
POINT
  5
11B6
330
B20
100
AcDbEntity
  8
DEFPOINTS
 62
     0
100
AcDbPoint
 10
109.3641582531317
 20
356.6778033319365
 30
0.0
  0
POINT
  5
11B7
330
B20
100
AcDbEntity
  8
DEFPOINTS
 62
     0
100
AcDbPoint
 10
109.3641582531317
 20
456.6778033319365
 30
0.0
  0
POINT
  5
11B8
330
B20
100
AcDbEntity
  8
DEFPOINTS
 62
     0
100
AcDbPoint
 10
109.3641582531317
 20
456.6778033319365
 30
0.0
  0
ENDBLK
  5
B2B
330
B20
100
AcDbEntity
  8
0
100
AcDbBlockEnd
  0
BLOCK
  5
B37
330
B2D
100
AcDbEntity
  8
0
100
AcDbBlockBegin
  2
*D6
 70
     1
 10
0.0
 20
0.0
 30
0.0
  3
*D6
  1

  0
LINE
  5
11B9
330
B2D
100
AcDbEntity
  8
SUNPOU
100
AcDbLine
 10
104.8641582531318
 20
456.6778033319365
 30
0.0
 11
106.3641582531317
 21
456.6778033319365
 31
0.0
  0
LINE
  5
11BA
330
B2D
100
AcDbEntity
  8
SUNPOU
100
AcDbLine
 10
104.8641582531318
 20
556.6778033319365
 30
0.0
 11
106.3641582531317
 21
556.6778033319365
 31
0.0
  0
LINE
  5
11BB
330
B2D
100
AcDbEntity
  8
SUNPOU
100
AcDbLine
 10
109.3641582531317
 20
464.1778033319365
 30
0.0
 11
109.3641582531317
 21
549.1778033319365
 31
0.0
  0
INSERT
  5
11BC
330
B2D
100
AcDbEntity
  8
SUNPOU
100
AcDbBlockReference
  2
_OPEN30
 10
109.3641582531317
 20
456.6778033319365
 30
0.0
 41
7.5
 42
7.5
 43
7.5
 50
270.0
  0
INSERT
  5
11BD
330
B2D
100
AcDbEntity
  8
SUNPOU
100
AcDbBlockReference
  2
_OPEN30
 10
109.3641582531317
 20
556.6778033319365
 30
0.0
 41
7.5
 42
7.5
 43
7.5
 50
90.0
  0
MTEXT
  5
11BE
330
B2D
100
AcDbEntity
  8
SUNPOU
 62
     6
100
AcDbMText
 10
102.6141582531316
 20
506.6778033319365
 30
0.0
 40
7.5
 41
0.0
 71
     5
 72
     1
  1
\A1;100
  7
SUNPOU
 11
0.0000000000000001
 21
1.0
 31
0.0
1001
ACAD
1000
MTEXTBEGIN
1070
    73
1070
     1
1070
    44
1040
1.0
1070
    74
1070
     0
1000
MTEXTEND
1000
MTEXTBEGIN
1070
    73
1070
     1
1070
    44
1040
1.0
1070
    74
1070
     0
1000
MTEXTEND
  0
POINT
  5
11BF
330
B2D
100
AcDbEntity
  8
DEFPOINTS
 62
     0
100
AcDbPoint
 10
109.3641582531317
 20
456.6778033319365
 30
0.0
  0
POINT
  5
11C0
330
B2D
100
AcDbEntity
  8
DEFPOINTS
 62
     0
100
AcDbPoint
 10
109.3641582531317
 20
556.6778033319365
 30
0.0
  0
POINT
  5
11C1
330
B2D
100
AcDbEntity
  8
DEFPOINTS
 62
     0
100
AcDbPoint
 10
109.3641582531317
 20
556.6778033319365
 30
0.0
  0
ENDBLK
  5
B38
330
B2D
100
AcDbEntity
  8
0
100
AcDbBlockEnd
  0
BLOCK
  5
B56
330
B4C
100
AcDbEntity
  8
0
100
AcDbBlockBegin
  2
*D7
 70
     1
 10
0.0
 20
0.0
 30
0.0
  3
*D7
  1

  0
LINE
  5
175F
330
B4C
100
AcDbEntity
  8
SUNPOU
100
AcDbLine
 10
218.8338158670567
 20
418.4278033319363
 30
0.0
 11
220.3338158670566
 21
418.4278033319363
 31
0.0
  0
LINE
  5
1760
330
B4C
100
AcDbEntity
  8
SUNPOU
100
AcDbLine
 10
218.8338158670567
 20
494.9278033319365
 30
0.0
 11
220.3338158670566
 21
494.9278033319365
 31
0.0
  0
LINE
  5
1761
330
B4C
100
AcDbEntity
  8
SUNPOU
100
AcDbLine
 10
223.3338158670565
 20
425.9278033319365
 30
0.0
 11
223.3338158670567
 21
487.4278033319365
 31
0.0
  0
MTEXT
  5
1762
330
B4C
100
AcDbEntity
  8
SUNPOU
 62
     6
100
AcDbMText
 10
208.1210672654105
 20
456.6778033319365
 30
0.0
 40
7.5
 41
0.0
 71
     5
 72
     1
  1
\A1;中心丸パイプ\P76.5
  7
SUNPOU
 11
0.0000000000000001
 21
1.0
 31
0.0
1001
ACAD
1000
MTEXTBEGIN
1070
    73
1070
     1
1070
    44
1040
1.0
1070
    74
1070
     0
1000
MTEXTEND
1000
MTEXTBEGIN
1070
    73
1070
     1
1070
    44
1040
1.0
1070
    74
1070
     0
1000
MTEXTEND
  0
INSERT
  5
1763
330
B4C
100
AcDbEntity
  8
SUNPOU
100
AcDbBlockReference
  2
_OPEN30
 10
223.3338158670565
 20
418.4278033319363
 30
0.0
 41
7.5
 42
7.5
 43
7.5
 50
270.0
  0
INSERT
  5
1764
330
B4C
100
AcDbEntity
  8
SUNPOU
100
AcDbBlockReference
  2
_OPEN30
 10
223.3338158670567
 20
494.9278033319365
 30
0.0
 41
7.5
 42
7.5
 43
7.5
 50
90.0
  0
POINT
  5
1765
330
B4C
100
AcDbEntity
  8
DEFPOINTS
 62
     0
100
AcDbPoint
 10
223.3338158670567
 20
418.4278033319363
 30
0.0
  0
POINT
  5
1766
330
B4C
100
AcDbEntity
  8
DEFPOINTS
 62
     0
100
AcDbPoint
 10
223.3338158670567
 20
494.9278033319365
 30
0.0
  0
POINT
  5
1767
330
B4C
100
AcDbEntity
  8
DEFPOINTS
 62
     0
100
AcDbPoint
 10
223.3338158670567
 20
494.9278033319365
 30
0.0
  0
ENDBLK
  5
B57
330
B4C
100
AcDbEntity
  8
0
100
AcDbBlockEnd
  0
BLOCK
  5
B63
330
B59
100
AcDbEntity
  8
0
100
AcDbBlockBegin
  2
*D8
 70
     1
 10
0.0
 20
0.0
 30
0.0
  3
*D8
  1

  0
LINE
  5
13D1
330
B59
100
AcDbEntity
  8
SUNPOU
100
AcDbLine
 10
335.3020054352715
 20
306.6778033319365
 30
0.0
 11
299.4098404202722
 21
306.6778033319365
 31
0.0
  0
LINE
  5
13D2
330
B59
100
AcDbEntity
  8
SUNPOU
100
AcDbLine
 10
335.3020054352719
 20
606.6778033319365
 30
0.0
 11
299.4098404202722
 21
606.6778033319365
 31
0.0
  0
LINE
  5
13D3
330
B59
100
AcDbEntity
  8
SUNPOU
100
AcDbLine
 10
302.4098404202721
 20
314.1778033319365
 30
0.0
 11
302.4098404202723
 21
599.1778033319365
 31
0.0
  0
MTEXT
  5
13D4
330
B59
100
AcDbEntity
  8
SUNPOU
 62
     6
100
AcDbMText
 10
294.6611818043801
 20
455.3713679003179
 30
0.0
 40
7.5
 41
0.0
 71
     5
 72
     1
  1
\A1;φ300
  7
SUNPOU
 11
0.0000000000000001
 21
1.0
 31
0.0
1001
ACAD
1000
MTEXTBEGIN
1070
    73
1070
     1
1070
    44
1040
1.0
1070
    74
1070
     0
1000
MTEXTEND
1000
MTEXTBEGIN
1070
    73
1070
     1
1070
    44
1040
1.0
1070
    74
1070
     0
1000
MTEXTEND
  0
INSERT
  5
13D5
330
B59
100
AcDbEntity
  8
SUNPOU
100
AcDbBlockReference
  2
_OPEN30
 10
302.4098404202721
 20
306.6778033319365
 30
0.0
 41
7.5
 42
7.5
 43
7.5
 50
270.0
  0
INSERT
  5
13D6
330
B59
100
AcDbEntity
  8
SUNPOU
100
AcDbBlockReference
  2
_OPEN30
 10
302.4098404202723
 20
606.6778033319365
 30
0.0
 41
7.5
 42
7.5
 43
7.5
 50
90.0
  0
POINT
  5
13D7
330
B59
100
AcDbEntity
  8
DEFPOINTS
 62
     0
100
AcDbPoint
 10
339.8020054352716
 20
306.6778033319365
 30
0.0
  0
POINT
  5
13D8
330
B59
100
AcDbEntity
  8
DEFPOINTS
 62
     0
100
AcDbPoint
 10
339.8020054352719
 20
606.6778033319365
 30
0.0
  0
POINT
  5
13D9
330
B59
100
AcDbEntity
  8
DEFPOINTS
 62
     0
100
AcDbPoint
 10
302.4098404202723
 20
606.6778033319365
 30
0.0
  0
ENDBLK
  5
B64
330
B59
100
AcDbEntity
  8
0
100
AcDbBlockEnd
  0
BLOCK
  5
B72
330
B66
100
AcDbEntity
  8
0
100
AcDbBlockBegin
  2
*D9
 70
     1
 10
0.0
 20
0.0
 30
0.0
  3
*D9
  1

  0
LINE
  5
13C6
330
B66
100
AcDbEntity
  8
SUNPOU
100
AcDbLine
 10
335.6262788137172
 20
606.6778033319365
 30
0.0
 11
312.6313059172403
 21
606.6778033319365
 31
0.0
  0
LINE
  5
13C7
330
B66
100
AcDbEntity
  8
SUNPOU
100
AcDbLine
 10
311.1313059172402
 20
586.6778033319365
 30
0.0
 11
312.6313059172403
 21
586.6778033319365
 31
0.0
  0
LINE
  5
13C8
330
B66
100
AcDbEntity
  8
SUNPOU
100
AcDbLine
 10
315.6313059172402
 20
614.1778033319365
 30
0.0
 11
315.6313059172402
 21
621.6778033319363
 31
0.0
  0
LINE
  5
13C9
330
B66
100
AcDbEntity
  8
SUNPOU
100
AcDbLine
 10
315.6313059172402
 20
579.1778033319364
 30
0.0
 11
315.6313059172402
 21
571.6778033319363
 31
0.0
  0
MTEXT
  5
13CA
330
B66
100
AcDbEntity
  8
SUNPOU
 62
     6
100
AcDbMText
 10
309.0572296696955
 20
619.8042010638289
 30
0.0
 40
7.5
 41
0.0
 71
     5
 72
     1
  1
\A1;20
  7
SUNPOU
 11
0.0000000000000001
 21
1.0
 31
0.0
1001
ACAD
1000
MTEXTBEGIN
1070
    73
1070
     1
1070
    44
1040
1.0
1070
    74
1070
     0
1000
MTEXTEND
1000
MTEXTBEGIN
1070
    73
1070
     1
1070
    44
1040
1.0
1070
    74
1070
     0
1000
MTEXTEND
  0
LINE
  5
13CB
330
B66
100
AcDbEntity
  8
SUNPOU
100
AcDbLine
 10
315.6313059172402
 20
606.6778033319365
 30
0.0
 11
315.6313059172402
 21
586.6778033319365
 31
0.0
  0
INSERT
  5
13CC
330
B66
100
AcDbEntity
  8
SUNPOU
100
AcDbBlockReference
  2
_OPEN30
 10
315.6313059172402
 20
606.6778033319365
 30
0.0
 41
7.5
 42
7.5
 43
7.5
 50
270.0
  0
INSERT
  5
13CD
330
B66
100
AcDbEntity
  8
SUNPOU
100
AcDbBlockReference
  2
_OPEN30
 10
315.6313059172402
 20
586.6778033319365
 30
0.0
 41
7.5
 42
7.5
 43
7.5
 50
90.0
  0
POINT
  5
13CE
330
B66
100
AcDbEntity
  8
DEFPOINTS
 62
     0
100
AcDbPoint
 10
340.1262788137173
 20
606.6778033319365
 30
0.0
  0
POINT
  5
13CF
330
B66
100
AcDbEntity
  8
DEFPOINTS
 62
     0
100
AcDbPoint
 10
315.6313059172402
 20
586.6778033319365
 30
0.0
  0
POINT
  5
13D0
330
B66
100
AcDbEntity
  8
DEFPOINTS
 62
     0
100
AcDbPoint
 10
315.6313059172402
 20
586.6778033319365
 30
0.0
  0
ENDBLK
  5
B73
330
B66
100
AcDbEntity
  8
0
100
AcDbBlockEnd
  0
BLOCK
  5
B97
330
B8D
100
AcDbEntity
  8
0
100
AcDbBlockBegin
  2
*D10
 70
     1
 10
0.0
 20
0.0
 30
0.0
  3
*D10
  1

  0
LINE
  5
13BD
330
B8D
100
AcDbEntity
  8
SUNPOU
100
AcDbLine
 10
311.1313059172402
 20
546.6778033319363
 30
0.0
 11
312.6313059172403
 21
546.6778033319363
 31
0.0
  0
LINE
  5
13BE
330
B8D
100
AcDbEntity
  8
SUNPOU
100
AcDbLine
 10
323.6262788137171
 20
366.6778033319364
 30
0.0
 11
312.6313059172401
 21
366.6778033319364
 31
0.0
  0
LINE
  5
13BF
330
B8D
100
AcDbEntity
  8
SUNPOU
100
AcDbLine
 10
315.6313059172402
 20
539.1778033319365
 30
0.0
 11
315.6313059172402
 21
374.1778033319365
 31
0.0
  0
INSERT
  5
13C0
330
B8D
100
AcDbEntity
  8
SUNPOU
100
AcDbBlockReference
  2
_OPEN30
 10
315.6313059172402
 20
546.6778033319363
 30
0.0
 41
7.5
 42
7.5
 43
7.5
 50
90.0
  0
INSERT
  5
13C1
330
B8D
100
AcDbEntity
  8
SUNPOU
100
AcDbBlockReference
  2
_OPEN30
 10
315.6313059172402
 20
366.6778033319364
 30
0.0
 41
7.5
 42
7.5
 43
7.5
 50
270.0
  0
MTEXT
  5
13C2
330
B8D
100
AcDbEntity
  8
SUNPOU
 62
     6
100
AcDbMText
 10
308.8813059172402
 20
456.6778033319367
 30
0.0
 40
7.5
 41
0.0
 71
     5
 72
     1
  1
\A1;180
  7
SUNPOU
 11
0.0000000000000001
 21
1.0
 31
0.0
1001
ACAD
1000
MTEXTBEGIN
1070
    73
1070
     1
1070
    44
1040
1.0
1070
    74
1070
     0
1000
MTEXTEND
1000
MTEXTBEGIN
1070
    73
1070
     1
1070
    44
1040
1.0
1070
    74
1070
     0
1000
MTEXTEND
  0
POINT
  5
13C3
330
B8D
100
AcDbEntity
  8
DEFPOINTS
 62
     0
100
AcDbPoint
 10
315.6313059172402
 20
546.6778033319363
 30
0.0
  0
POINT
  5
13C4
330
B8D
100
AcDbEntity
  8
DEFPOINTS
 62
     0
100
AcDbPoint
 10
328.1262788137171
 20
366.6778033319364
 30
0.0
  0
POINT
  5
13C5
330
B8D
100
AcDbEntity
  8
DEFPOINTS
 62
     0
100
AcDbPoint
 10
315.6313059172402
 20
366.6778033319364
 30
0.0
  0
ENDBLK
  5
B98
330
B8D
100
AcDbEntity
  8
0
100
AcDbBlockEnd
  0
BLOCK
  5
BB3
330
BA7
100
AcDbEntity
  8
0
100
AcDbBlockBegin
  2
*D11
 70
     1
 10
0.0
 20
0.0
 30
0.0
  3
*D11
  1

  0
LINE
  5
14FC
330
BA7
100
AcDbEntity
  8
SUNPOU
100
AcDbLine
 10
311.1313059172403
 20
326.6778033319365
 30
0.0
 11
312.6313059172403
 21
326.6778033319365
 31
0.0
  0
LINE
  5
14FD
330
BA7
100
AcDbEntity
  8
SUNPOU
100
AcDbLine
 10
335.3020054352715
 20
306.6778033319365
 30
0.0
 11
312.6313059172403
 21
306.6778033319365
 31
0.0
  0
LINE
  5
14FE
330
BA7
100
AcDbEntity
  8
SUNPOU
100
AcDbLine
 10
315.6313059172403
 20
334.1778033319365
 30
0.0
 11
315.6313059172403
 21
341.6778033319364
 31
0.0
  0
LINE
  5
14FF
330
BA7
100
AcDbEntity
  8
SUNPOU
100
AcDbLine
 10
315.6313059172403
 20
299.1778033319365
 30
0.0
 11
315.6313059172403
 21
291.6778033319364
 31
0.0
  0
MTEXT
  5
1500
330
BA7
100
AcDbEntity
  8
SUNPOU
 62
     6
100
AcDbMText
 10
308.4935539370821
 20
297.6336572044493
 30
0.0
 40
7.5
 41
0.0
 71
     5
 72
     1
  1
\A1;20
  7
SUNPOU
 11
0.0000000000000001
 21
1.0
 31
0.0
1001
ACAD
1000
MTEXTBEGIN
1070
    73
1070
     1
1070
    44
1040
1.0
1070
    74
1070
     0
1000
MTEXTEND
1000
MTEXTBEGIN
1070
    73
1070
     1
1070
    44
1040
1.0
1070
    74
1070
     0
1000
MTEXTEND
  0
LINE
  5
1501
330
BA7
100
AcDbEntity
  8
SUNPOU
100
AcDbLine
 10
315.6313059172403
 20
326.6778033319365
 30
0.0
 11
315.6313059172403
 21
306.6778033319365
 31
0.0
  0
INSERT
  5
1502
330
BA7
100
AcDbEntity
  8
SUNPOU
100
AcDbBlockReference
  2
_OPEN30
 10
315.6313059172403
 20
326.6778033319365
 30
0.0
 41
7.5
 42
7.5
 43
7.5
 50
270.0
  0
INSERT
  5
1503
330
BA7
100
AcDbEntity
  8
SUNPOU
100
AcDbBlockReference
  2
_OPEN30
 10
315.6313059172403
 20
306.6778033319365
 30
0.0
 41
7.5
 42
7.5
 43
7.5
 50
90.0
  0
POINT
  5
1504
330
BA7
100
AcDbEntity
  8
DEFPOINTS
 62
     0
100
AcDbPoint
 10
315.6313059172403
 20
326.6778033319365
 30
0.0
  0
POINT
  5
1505
330
BA7
100
AcDbEntity
  8
DEFPOINTS
 62
     0
100
AcDbPoint
 10
339.8020054352716
 20
306.6778033319365
 30
0.0
  0
POINT
  5
1506
330
BA7
100
AcDbEntity
  8
DEFPOINTS
 62
     0
100
AcDbPoint
 10
315.6313059172403
 20
306.6778033319365
 30
0.0
  0
ENDBLK
  5
BB4
330
BA7
100
AcDbEntity
  8
0
100
AcDbBlockEnd
  0
BLOCK
  5
BF9
330
BED
100
AcDbEntity
  8
0
100
AcDbBlockBegin
  2
*D12
 70
     1
 10
0.0
 20
0.0
 30
0.0
  3
*D12
  1

  0
LINE
  5
17A0
330
BED
100
AcDbEntity
  8
SUNPOU
100
AcDbLine
 10
339.8020054352716
 20
379.3400313363361
 30
0.0
 11
339.8020054352716
 21
380.4202286133197
 31
0.0
  0
LINE
  5
17A1
330
BED
100
AcDbEntity
  8
SUNPOU
100
AcDbLine
 10
352.8020054352718
 20
379.3400313363361
 30
0.0
 11
352.8020054352718
 21
380.4202286133197
 31
0.0
  0
LINE
  5
17A2
330
BED
100
AcDbEntity
  8
SUNPOU
100
AcDbLine
 10
332.3020054352716
 20
383.4202286133197
 30
0.0
 11
324.8020054352716
 21
383.4202286133197
 31
0.0
  0
LINE
  5
17A3
330
BED
100
AcDbEntity
  8
SUNPOU
100
AcDbLine
 10
352.8020054352718
 20
383.4202286133197
 30
0.0
 11
360.3020054352719
 21
383.4202286133197
 31
0.0
  0
MTEXT
  5
17A4
330
BED
100
AcDbEntity
  8
SUNPOU
 62
     6
100
AcDbMText
 10
326.7655649835818
 20
393.3880427365981
 30
0.0
 40
7.5
 41
0.0
 71
     5
 72
     1
  1
\A1;13
  7
SUNPOU
1001
ACAD
1000
MTEXTBEGIN
1070
    73
1070
     1
1070
    44
1040
1.0
1070
    74
1070
     0
1000
MTEXTEND
1000
MTEXTBEGIN
1070
    73
1070
     1
1070
    44
1040
1.0
1070
    74
1070
     0
1000
MTEXTEND
  0
LINE
  5
17A5
330
BED
100
AcDbEntity
  8
SUNPOU
100
AcDbLine
 10
339.8020054352716
 20
383.4202286133197
 30
0.0
 11
352.8020054352718
 21
383.4202286133197
 31
0.0
  0
INSERT
  5
17A6
330
BED
100
AcDbEntity
  8
SUNPOU
100
AcDbBlockReference
  2
_OPEN30
 10
339.8020054352716
 20
383.4202286133197
 30
0.0
 41
7.5
 42
7.5
 43
7.5
  0
INSERT
  5
17A7
330
BED
100
AcDbEntity
  8
SUNPOU
100
AcDbBlockReference
  2
_DOTSMALL
 10
352.8020054352718
 20
383.4202286133197
 30
0.0
 41
7.5
 42
7.5
 43
7.5
 50
180.0
  0
POINT
  5
17A8
330
BED
100
AcDbEntity
  8
DEFPOINTS
 62
     0
100
AcDbPoint
 10
339.8020054352716
 20
383.8400313363361
 30
0.0
  0
POINT
  5
17A9
330
BED
100
AcDbEntity
  8
DEFPOINTS
 62
     0
100
AcDbPoint
 10
352.8020054352718
 20
383.8400313363361
 30
0.0
  0
POINT
  5
17AA
330
BED
100
AcDbEntity
  8
DEFPOINTS
 62
     0
100
AcDbPoint
 10
352.8020054352718
 20
383.4202286133197
 30
0.0
  0
ENDBLK
  5
BFA
330
BED
100
AcDbEntity
  8
0
100
AcDbBlockEnd
  0
BLOCK
  5
C08
330
BFC
100
AcDbEntity
  8
0
100
AcDbBlockBegin
  2
*D13
 70
     1
 10
0.0
 20
0.0
 30
0.0
  3
*D13
  1

  0
LINE
  5
17AB
330
BFC
100
AcDbEntity
  8
SUNPOU
100
AcDbLine
 10
352.8020054352718
 20
379.3400313363361
 30
0.0
 11
352.8020054352718
 21
380.4202286133197
 31
0.0
  0
LINE
  5
17AC
330
BFC
100
AcDbEntity
  8
SUNPOU
100
AcDbLine
 10
367.8020054352708
 20
402.177803331936
 30
0.0
 11
367.8020054352708
 21
380.4202286133197
 31
0.0
  0
LINE
  5
17AD
330
BFC
100
AcDbEntity
  8
SUNPOU
100
AcDbLine
 10
352.8020054352718
 20
383.4202286133196
 30
0.0
 11
367.8020054352708
 21
383.4202286133196
 31
0.0
  0
MTEXT
  5
17AE
330
BFC
100
AcDbEntity
  8
SUNPOU
 62
     6
100
AcDbMText
 10
360.2261521636195
 20
373.7422580753942
 30
0.0
 40
7.5
 41
0.0
 71
     5
 72
     1
  1
\A1;15
  7
SUNPOU
1001
ACAD
1000
MTEXTBEGIN
1070
    73
1070
     1
1070
    44
1040
1.0
1070
    74
1070
     0
1000
MTEXTEND
1000
MTEXTBEGIN
1070
    73
1070
     1
1070
    44
1040
1.0
1070
    74
1070
     0
1000
MTEXTEND
  0
INSERT
  5
17AF
330
BFC
100
AcDbEntity
  8
SUNPOU
100
AcDbBlockReference
  2
_DOTSMALL
 10
352.8020054352718
 20
383.4202286133196
 30
0.0
 41
7.5
 42
7.5
 43
7.5
 50
180.0
  0
INSERT
  5
17B0
330
BFC
100
AcDbEntity
  8
SUNPOU
100
AcDbBlockReference
  2
_DOTSMALL
 10
367.8020054352708
 20
383.4202286133196
 30
0.0
 41
7.5
 42
7.5
 43
7.5
  0
POINT
  5
17B1
330
BFC
100
AcDbEntity
  8
DEFPOINTS
 62
     0
100
AcDbPoint
 10
352.8020054352718
 20
383.8400313363361
 30
0.0
  0
POINT
  5
17B2
330
BFC
100
AcDbEntity
  8
DEFPOINTS
 62
     0
100
AcDbPoint
 10
367.8020054352708
 20
406.6778033319359
 30
0.0
  0
POINT
  5
17B3
330
BFC
100
AcDbEntity
  8
DEFPOINTS
 62
     0
100
AcDbPoint
 10
367.8020054352708
 20
383.4202286133196
 30
0.0
  0
ENDBLK
  5
C09
330
BFC
100
AcDbEntity
  8
0
100
AcDbBlockEnd
  0
BLOCK
  5
C17
330
C0B
100
AcDbEntity
  8
0
100
AcDbBlockBegin
  2
*D14
 70
     1
 10
0.0
 20
0.0
 30
0.0
  3
*D14
  1

  0
LINE
  5
17B4
330
C0B
100
AcDbEntity
  8
SUNPOU
100
AcDbLine
 10
367.8020054352708
 20
402.177803331936
 30
0.0
 11
367.8020054352708
 21
380.4202286133197
 31
0.0
  0
LINE
  5
17B5
330
C0B
100
AcDbEntity
  8
SUNPOU
100
AcDbLine
 10
373.8020054352718
 20
387.9202286133196
 30
0.0
 11
373.8020054352718
 21
386.4202286133196
 31
0.0
  0
LINE
  5
17B6
330
C0B
100
AcDbEntity
  8
SUNPOU
100
AcDbLine
 10
367.8020054352708
 20
383.4202286133196
 30
0.0
 11
360.3020054352708
 21
383.4202286133196
 31
0.0
  0
LINE
  5
17B7
330
C0B
100
AcDbEntity
  8
SUNPOU
100
AcDbLine
 10
381.3020054352716
 20
383.4202286133196
 30
0.0
 11
388.8020054352716
 21
383.4202286133196
 31
0.0
  0
MTEXT
  5
17B8
330
C0B
100
AcDbEntity
  8
SUNPOU
 62
     6
100
AcDbMText
 10
384.0266197086788
 20
392.0054524570866
 30
0.0
 40
7.5
 41
0.0
 71
     5
 72
     1
  1
\A1;6
  7
SUNPOU
1001
ACAD
1000
MTEXTBEGIN
1070
    73
1070
     1
1070
    44
1040
1.0
1070
    74
1070
     0
1000
MTEXTEND
1000
MTEXTBEGIN
1070
    73
1070
     1
1070
    44
1040
1.0
1070
    74
1070
     0
1000
MTEXTEND
  0
LINE
  5
17B9
330
C0B
100
AcDbEntity
  8
SUNPOU
100
AcDbLine
 10
367.8020054352708
 20
383.4202286133196
 30
0.0
 11
373.8020054352718
 21
383.4202286133196
 31
0.0
  0
INSERT
  5
17BA
330
C0B
100
AcDbEntity
  8
SUNPOU
100
AcDbBlockReference
  2
_DOTSMALL
 10
367.8020054352708
 20
383.4202286133196
 30
0.0
 41
7.5
 42
7.5
 43
7.5
  0
INSERT
  5
17BB
330
C0B
100
AcDbEntity
  8
SUNPOU
100
AcDbBlockReference
  2
_OPEN30
 10
373.8020054352718
 20
383.4202286133196
 30
0.0
 41
7.5
 42
7.5
 43
7.5
 50
180.0
  0
POINT
  5
17BC
330
C0B
100
AcDbEntity
  8
DEFPOINTS
 62
     0
100
AcDbPoint
 10
367.8020054352708
 20
406.6778033319359
 30
0.0
  0
POINT
  5
17BD
330
C0B
100
AcDbEntity
  8
DEFPOINTS
 62
     0
100
AcDbPoint
 10
373.8020054352718
 20
383.4202286133196
 30
0.0
  0
POINT
  5
17BE
330
C0B
100
AcDbEntity
  8
DEFPOINTS
 62
     0
100
AcDbPoint
 10
373.8020054352718
 20
383.4202286133196
 30
0.0
  0
ENDBLK
  5
C18
330
C0B
100
AcDbEntity
  8
0
100
AcDbBlockEnd
  0
BLOCK
  5
C70
330
C6E
100
AcDbEntity
  8
0
100
AcDbBlockBegin
  2
_DOTSMALL
 70
     0
 10
0.0
 20
0.0
 30
0.0
  3
_DOTSMALL
  1

  0
POLYLINE
  5
C6F
330
C6E
100
AcDbEntity
  8
0
  6
BYBLOCK
 62
     0
100
AcDb2dPolyline
 66
     1
 10
0.0
 20
0.0
 30
0.0
 70
     1
 40
0.5
 41
0.5
  0
VERTEX
  5
189E
330
C6F
100
AcDbEntity
  8
0
  6
BYBLOCK
 62
     0
100
AcDbVertex
100
AcDb2dVertex
 10
-0.0625
 20
0.0
 30
0.0
 42
1.0
  0
VERTEX
  5
189F
330
C6F
100
AcDbEntity
  8
0
  6
BYBLOCK
 62
     0
100
AcDbVertex
100
AcDb2dVertex
 10
0.0625
 20
0.0
 30
0.0
 42
1.0
  0
SEQEND
  5
18A0
330
C6F
100
AcDbEntity
  8
0
  6
BYBLOCK
 62
     0
  0
ENDBLK
  5
C71
330
C6E
100
AcDbEntity
  8
0
100
AcDbBlockEnd
  0
BLOCK
  5
CFF
330
CF3
100
AcDbEntity
  8
0
100
AcDbBlockBegin
  2
*D16
 70
     1
 10
0.0
 20
0.0
 30
0.0
  3
*D16
  1

  0
LINE
  5
1547
330
CF3
100
AcDbEntity
  8
SUNPOU
100
AcDbLine
 10
373.8020054352718
 20
337.3959005822844
 30
0.0
 11
373.8020054352718
 21
337.5468611331803
 31
0.0
  0
LINE
  5
1548
330
CF3
100
AcDbEntity
  8
SUNPOU
100
AcDbLine
 10
379.8020054352722
 20
361.9034753009013
 30
0.0
 11
379.8020054352722
 21
337.5468611331803
 31
0.0
  0
LINE
  5
1549
330
CF3
100
AcDbEntity
  8
SUNPOU
100
AcDbLine
 10
366.3020054352716
 20
340.5468611331802
 30
0.0
 11
358.8020054352718
 21
340.5468611331802
 31
0.0
  0
LINE
  5
154A
330
CF3
100
AcDbEntity
  8
SUNPOU
100
AcDbLine
 10
387.3020054352723
 20
340.5468611331802
 30
0.0
 11
394.8020054352722
 21
340.5468611331802
 31
0.0
  0
MTEXT
  5
154B
330
CF3
100
AcDbEntity
  8
SUNPOU
 62
     6
100
AcDbMText
 10
367.1344013551478
 20
349.3540763785182
 30
0.0
 40
7.5
 41
0.0
 71
     5
 72
     1
  1
\A1;6
  7
SUNPOU
1001
ACAD
1000
MTEXTBEGIN
1070
    73
1070
     1
1070
    44
1040
1.0
1070
    74
1070
     0
1000
MTEXTEND
1000
MTEXTBEGIN
1070
    73
1070
     1
1070
    44
1040
1.0
1070
    74
1070
     0
1000
MTEXTEND
  0
LINE
  5
154C
330
CF3
100
AcDbEntity
  8
SUNPOU
100
AcDbLine
 10
373.8020054352718
 20
340.5468611331802
 30
0.0
 11
379.8020054352722
 21
340.5468611331802
 31
0.0
  0
INSERT
  5
154D
330
CF3
100
AcDbEntity
  8
SUNPOU
100
AcDbBlockReference
  2
_OPEN30
 10
373.8020054352718
 20
340.5468611331802
 30
0.0
 41
7.5
 42
7.5
 43
7.5
  0
INSERT
  5
154E
330
CF3
100
AcDbEntity
  8
SUNPOU
100
AcDbBlockReference
  2
_OPEN30
 10
379.8020054352722
 20
340.5468611331802
 30
0.0
 41
7.5
 42
7.5
 43
7.5
 50
180.0
  0
POINT
  5
154F
330
CF3
100
AcDbEntity
  8
DEFPOINTS
 62
     0
100
AcDbPoint
 10
373.8020054352718
 20
341.8959005822844
 30
0.0
  0
POINT
  5
1550
330
CF3
100
AcDbEntity
  8
DEFPOINTS
 62
     0
100
AcDbPoint
 10
379.8020054352722
 20
366.4034753009011
 30
0.0
  0
POINT
  5
1551
330
CF3
100
AcDbEntity
  8
DEFPOINTS
 62
     0
100
AcDbPoint
 10
379.8020054352722
 20
340.5468611331802
 30
0.0
  0
ENDBLK
  5
D00
330
CF3
100
AcDbEntity
  8
0
100
AcDbBlockEnd
  0
BLOCK
  5
D0C
330
D02
100
AcDbEntity
  8
0
100
AcDbBlockBegin
  2
*D17
 70
     1
 10
0.0
 20
0.0
 30
0.0
  3
*D17
  1

  0
LINE
  5
1494
330
D02
100
AcDbEntity
  8
SUNPOU
100
AcDbLine
 10
379.8020054352722
 20
361.9034753009013
 30
0.0
 11
379.8020054352722
 21
337.5468611331803
 31
0.0
  0
LINE
  5
1495
330
D02
100
AcDbEntity
  8
SUNPOU
100
AcDbLine
 10
462.8020054352723
 20
351.9034753009011
 30
0.0
 11
462.8020054352723
 21
337.5468611331803
 31
0.0
  0
LINE
  5
1496
330
D02
100
AcDbEntity
  8
SUNPOU
100
AcDbLine
 10
387.3020054352723
 20
340.5468611331802
 30
0.0
 11
455.3020054352723
 21
340.5468611331802
 31
0.0
  0
MTEXT
  5
1497
330
D02
100
AcDbEntity
  8
SUNPOU
 62
     6
100
AcDbMText
 10
410.8427239586388
 20
348.1177288809141
 30
0.0
 40
7.5
 41
0.0
 71
     5
 72
     1
  1
\A1;83
  7
SUNPOU
1001
ACAD
1000
MTEXTBEGIN
1070
    73
1070
     1
1070
    44
1040
1.0
1070
    74
1070
     0
1000
MTEXTEND
1000
MTEXTBEGIN
1070
    73
1070
     1
1070
    44
1040
1.0
1070
    74
1070
     0
1000
MTEXTEND
  0
INSERT
  5
1498
330
D02
100
AcDbEntity
  8
SUNPOU
100
AcDbBlockReference
  2
_OPEN30
 10
379.8020054352722
 20
340.5468611331802
 30
0.0
 41
7.5
 42
7.5
 43
7.5
 50
180.0
  0
INSERT
  5
1499
330
D02
100
AcDbEntity
  8
SUNPOU
100
AcDbBlockReference
  2
_OPEN30
 10
462.8020054352723
 20
340.5468611331802
 30
0.0
 41
7.5
 42
7.5
 43
7.5
  0
POINT
  5
149A
330
D02
100
AcDbEntity
  8
DEFPOINTS
 62
     0
100
AcDbPoint
 10
379.8020054352722
 20
366.4034753009011
 30
0.0
  0
POINT
  5
149B
330
D02
100
AcDbEntity
  8
DEFPOINTS
 62
     0
100
AcDbPoint
 10
462.8020054352723
 20
356.4034753009011
 30
0.0
  0
POINT
  5
149C
330
D02
100
AcDbEntity
  8
DEFPOINTS
 62
     0
100
AcDbPoint
 10
462.8020054352723
 20
340.5468611331802
 30
0.0
  0
ENDBLK
  5
D0D
330
D02
100
AcDbEntity
  8
0
100
AcDbBlockEnd
  0
BLOCK
  5
D1B
330
D0F
100
AcDbEntity
  8
0
100
AcDbBlockBegin
  2
*D18
 70
     1
 10
0.0
 20
0.0
 30
0.0
  3
*D18
  1

  0
LINE
  5
17C2
330
D0F
100
AcDbEntity
  8
SUNPOU
100
AcDbLine
 10
462.8020054352723
 20
362.1778033319366
 30
0.0
 11
462.8020054352723
 21
337.5468611331803
 31
0.0
  0
LINE
  5
17C3
330
D0F
100
AcDbEntity
  8
SUNPOU
100
AcDbLine
 10
466.8020054352721
 20
357.1778033319366
 30
0.0
 11
466.8020054352721
 21
337.5468611331803
 31
0.0
  0
LINE
  5
17C4
330
D0F
100
AcDbEntity
  8
SUNPOU
100
AcDbLine
 10
455.3020054352723
 20
340.5468611331802
 30
0.0
 11
447.8020054352723
 21
340.5468611331802
 31
0.0
  0
LINE
  5
17C5
330
D0F
100
AcDbEntity
  8
SUNPOU
100
AcDbLine
 10
466.8020054352721
 20
340.5468611331802
 30
0.0
 11
474.3020054352721
 21
340.5468611331802
 31
0.0
  0
MTEXT
  5
17C6
330
D0F
100
AcDbEntity
  8
SUNPOU
 62
     6
100
AcDbMText
 10
464.8020054352722
 20
329.9845629499476
 30
0.0
 40
7.5
 41
0.0
 71
     5
 72
     1
  1
\A1;4
  7
SUNPOU
1001
ACAD
1000
MTEXTBEGIN
1070
    73
1070
     1
1070
    44
1040
1.0
1070
    74
1070
     0
1000
MTEXTEND
1000
MTEXTBEGIN
1070
    73
1070
     1
1070
    44
1040
1.0
1070
    74
1070
     0
1000
MTEXTEND
  0
LINE
  5
17C7
330
D0F
100
AcDbEntity
  8
SUNPOU
100
AcDbLine
 10
462.8020054352723
 20
340.5468611331802
 30
0.0
 11
466.8020054352721
 21
340.5468611331802
 31
0.0
  0
INSERT
  5
17C8
330
D0F
100
AcDbEntity
  8
SUNPOU
100
AcDbBlockReference
  2
_OPEN30
 10
462.8020054352723
 20
340.5468611331802
 30
0.0
 41
7.5
 42
7.5
 43
7.5
  0
INSERT
  5
17C9
330
D0F
100
AcDbEntity
  8
SUNPOU
100
AcDbBlockReference
  2
_DOTSMALL
 10
466.8020054352721
 20
340.5468611331802
 30
0.0
 41
7.5
 42
7.5
 43
7.5
 50
180.0
  0
POINT
  5
17CA
330
D0F
100
AcDbEntity
  8
DEFPOINTS
 62
     0
100
AcDbPoint
 10
462.8020054352723
 20
366.6778033319366
 30
0.0
  0
POINT
  5
17CB
330
D0F
100
AcDbEntity
  8
DEFPOINTS
 62
     0
100
AcDbPoint
 10
466.8020054352721
 20
361.6778033319366
 30
0.0
  0
POINT
  5
17CC
330
D0F
100
AcDbEntity
  8
DEFPOINTS
 62
     0
100
AcDbPoint
 10
466.8020054352721
 20
340.5468611331802
 30
0.0
  0
ENDBLK
  5
D1C
330
D0F
100
AcDbEntity
  8
0
100
AcDbBlockEnd
  0
BLOCK
  5
D2A
330
D1E
100
AcDbEntity
  8
0
100
AcDbBlockBegin
  2
*D19
 70
     1
 10
0.0
 20
0.0
 30
0.0
  3
*D19
  1

  0
LINE
  5
17CD
330
D1E
100
AcDbEntity
  8
SUNPOU
100
AcDbLine
 10
466.8020054352721
 20
346.9034753009011
 30
0.0
 11
466.8020054352721
 21
337.5468611331803
 31
0.0
  0
LINE
  5
17CE
330
D1E
100
AcDbEntity
  8
SUNPOU
100
AcDbLine
 10
472.8020054352718
 20
346.9034753009011
 30
0.0
 11
472.8020054352718
 21
337.5468611331803
 31
0.0
  0
LINE
  5
17CF
330
D1E
100
AcDbEntity
  8
SUNPOU
100
AcDbLine
 10
466.8020054352721
 20
340.5468611331802
 30
0.0
 11
459.3020054352721
 21
340.5468611331802
 31
0.0
  0
LINE
  5
17D0
330
D1E
100
AcDbEntity
  8
SUNPOU
100
AcDbLine
 10
480.3020054352718
 20
340.5468611331802
 30
0.0
 11
487.8020054352719
 21
340.5468611331802
 31
0.0
  0
MTEXT
  5
17D1
330
D1E
100
AcDbEntity
  8
SUNPOU
 62
     6
100
AcDbMText
 10
485.5165271814435
 20
349.7867867391617
 30
0.0
 40
7.5
 41
0.0
 71
     5
 72
     1
  1
\A1;6
  7
SUNPOU
1001
ACAD
1000
MTEXTBEGIN
1070
    73
1070
     1
1070
    44
1040
1.0
1070
    74
1070
     0
1000
MTEXTEND
1000
MTEXTBEGIN
1070
    73
1070
     1
1070
    44
1040
1.0
1070
    74
1070
     0
1000
MTEXTEND
  0
LINE
  5
17D2
330
D1E
100
AcDbEntity
  8
SUNPOU
100
AcDbLine
 10
466.8020054352721
 20
340.5468611331802
 30
0.0
 11
472.8020054352718
 21
340.5468611331802
 31
0.0
  0
INSERT
  5
17D3
330
D1E
100
AcDbEntity
  8
SUNPOU
100
AcDbBlockReference
  2
_DOTSMALL
 10
466.8020054352721
 20
340.5468611331802
 30
0.0
 41
7.5
 42
7.5
 43
7.5
  0
INSERT
  5
17D4
330
D1E
100
AcDbEntity
  8
SUNPOU
100
AcDbBlockReference
  2
_OPEN30
 10
472.8020054352718
 20
340.5468611331802
 30
0.0
 41
7.5
 42
7.5
 43
7.5
 50
180.0
  0
POINT
  5
17D5
330
D1E
100
AcDbEntity
  8
DEFPOINTS
 62
     0
100
AcDbPoint
 10
466.8020054352721
 20
351.4034753009013
 30
0.0
  0
POINT
  5
17D6
330
D1E
100
AcDbEntity
  8
DEFPOINTS
 62
     0
100
AcDbPoint
 10
472.8020054352718
 20
351.4034753009013
 30
0.0
  0
POINT
  5
17D7
330
D1E
100
AcDbEntity
  8
DEFPOINTS
 62
     0
100
AcDbPoint
 10
472.8020054352718
 20
340.5468611331802
 30
0.0
  0
ENDBLK
  5
D2B
330
D1E
100
AcDbEntity
  8
0
100
AcDbBlockEnd
  0
BLOCK
  5
DDA
330
DD0
100
AcDbEntity
  8
0
100
AcDbBlockBegin
  2
*D20
 70
     1
 10
0.0
 20
0.0
 30
0.0
  3
*D20
  1

  0
LINE
  5
1602
330
DD0
100
AcDbEntity
  8
SUNPOU
100
AcDbLine
 10
498.3020054352722
 20
281.6778033319366
 30
0.0
 11
555.8259663845945
 21
281.6778033319366
 31
0.0
  0
LINE
  5
1603
330
DD0
100
AcDbEntity
  8
SUNPOU
100
AcDbLine
 10
498.3020054352719
 20
631.6778033319365
 30
0.0
 11
555.8259663845945
 21
631.6778033319365
 31
0.0
  0
LINE
  5
1604
330
DD0
100
AcDbEntity
  8
SUNPOU
100
AcDbLine
 10
552.8259663845946
 20
289.1778033319366
 30
0.0
 11
552.8259663845946
 21
624.1778033319365
 31
0.0
  0
MTEXT
  5
1605
330
DD0
100
AcDbEntity
  8
SUNPOU
 62
     6
100
AcDbMText
 10
541.5759663845944
 20
434.7624072938372
 30
0.0
 40
7.5
 41
0.0
 71
     5
 72
     1
  1
\A1;φ350
  7
SUNPOU
 11
0.0000000000000001
 21
1.0
 31
0.0
1001
ACAD
1000
MTEXTBEGIN
1070
    73
1070
     1
1070
    44
1040
1.0
1070
    74
1070
     0
1000
MTEXTEND
1000
MTEXTBEGIN
1070
    73
1070
     1
1070
    44
1040
1.0
1070
    74
1070
     0
1000
MTEXTEND
  0
INSERT
  5
1606
330
DD0
100
AcDbEntity
  8
SUNPOU
100
AcDbBlockReference
  2
_OPEN30
 10
552.8259663845946
 20
281.6778033319366
 30
0.0
 41
7.5
 42
7.5
 43
7.5
 50
270.0
  0
INSERT
  5
1607
330
DD0
100
AcDbEntity
  8
SUNPOU
100
AcDbBlockReference
  2
_OPEN30
 10
552.8259663845946
 20
631.6778033319365
 30
0.0
 41
7.5
 42
7.5
 43
7.5
 50
90.0
  0
POINT
  5
1608
330
DD0
100
AcDbEntity
  8
DEFPOINTS
 62
     0
100
AcDbPoint
 10
493.8020054352723
 20
281.6778033319366
 30
0.0
  0
POINT
  5
1609
330
DD0
100
AcDbEntity
  8
DEFPOINTS
 62
     0
100
AcDbPoint
 10
493.8020054352718
 20
631.6778033319365
 30
0.0
  0
POINT
  5
160A
330
DD0
100
AcDbEntity
  8
DEFPOINTS
 62
     0
100
AcDbPoint
 10
552.8259663845946
 20
631.6778033319365
 30
0.0
  0
ENDBLK
  5
DDB
330
DD0
100
AcDbEntity
  8
0
100
AcDbBlockEnd
  0
BLOCK
  5
DE9
330
DDD
100
AcDbEntity
  8
0
100
AcDbBlockBegin
  2
*D21
 70
     1
 10
0.0
 20
0.0
 30
0.0
  3
*D21
  1

  0
LINE
  5
146C
330
DDD
100
AcDbEntity
  8
SUNPOU
100
AcDbLine
 10
411.3020054352715
 20
281.6778033319366
 30
0.0
 11
420.5157873462654
 21
281.6778033319366
 31
0.0
  0
LINE
  5
146D
330
DDD
100
AcDbEntity
  8
SUNPOU
100
AcDbLine
 10
396.8020054352721
 20
311.6778033319366
 30
0.0
 11
420.5157873462654
 21
311.6778033319366
 31
0.0
  0
LINE
  5
146E
330
DDD
100
AcDbEntity
  8
SUNPOU
100
AcDbLine
 10
417.5157873462652
 20
289.1778033319366
 30
0.0
 11
417.5157873462652
 21
304.1778033319366
 31
0.0
  0
MTEXT
  5
146F
330
DDD
100
AcDbEntity
  8
SUNPOU
 62
     6
100
AcDbMText
 10
406.2657873462653
 20
300.7254139712471
 30
0.0
 40
7.5
 41
0.0
 71
     5
 72
     1
  1
\A1;30
  7
SUNPOU
 11
0.0000000000000001
 21
1.0
 31
0.0
1001
ACAD
1000
MTEXTBEGIN
1070
    73
1070
     1
1070
    44
1040
1.0
1070
    74
1070
     0
1000
MTEXTEND
1000
MTEXTBEGIN
1070
    73
1070
     1
1070
    44
1040
1.0
1070
    74
1070
     0
1000
MTEXTEND
  0
INSERT
  5
1470
330
DDD
100
AcDbEntity
  8
SUNPOU
100
AcDbBlockReference
  2
_OPEN30
 10
417.5157873462652
 20
281.6778033319366
 30
0.0
 41
7.5
 42
7.5
 43
7.5
 50
270.0
  0
INSERT
  5
1471
330
DDD
100
AcDbEntity
  8
SUNPOU
100
AcDbBlockReference
  2
_OPEN30
 10
417.5157873462652
 20
311.6778033319366
 30
0.0
 41
7.5
 42
7.5
 43
7.5
 50
90.0
  0
POINT
  5
1472
330
DDD
100
AcDbEntity
  8
DEFPOINTS
 62
     0
100
AcDbPoint
 10
406.8020054352715
 20
281.6778033319366
 30
0.0
  0
POINT
  5
1473
330
DDD
100
AcDbEntity
  8
DEFPOINTS
 62
     0
100
AcDbPoint
 10
392.3020054352721
 20
311.6778033319366
 30
0.0
  0
POINT
  5
1474
330
DDD
100
AcDbEntity
  8
DEFPOINTS
 62
     0
100
AcDbPoint
 10
417.5157873462652
 20
311.6778033319366
 30
0.0
  0
ENDBLK
  5
DEA
330
DDD
100
AcDbEntity
  8
0
100
AcDbBlockEnd
  0
BLOCK
  5
E03
330
DF7
100
AcDbEntity
  8
0
100
AcDbBlockBegin
  2
*D22
 70
     1
 10
0.0
 20
0.0
 30
0.0
  3
*D22
  1

  0
LINE
  5
1430
330
DF7
100
AcDbEntity
  8
SUNPOU
100
AcDbLine
 10
411.3020054352715
 20
631.6778033319365
 30
0.0
 11
420.5157873462654
 21
631.6778033319365
 31
0.0
  0
LINE
  5
1431
330
DF7
100
AcDbEntity
  8
SUNPOU
100
AcDbLine
 10
396.8020054352721
 20
601.6778033319365
 30
0.0
 11
420.5157873462654
 21
601.6778033319365
 31
0.0
  0
LINE
  5
1432
330
DF7
100
AcDbEntity
  8
SUNPOU
100
AcDbLine
 10
417.5157873462652
 20
624.1778033319365
 30
0.0
 11
417.5157873462652
 21
609.1778033319363
 31
0.0
  0
MTEXT
  5
1433
330
DF7
100
AcDbEntity
  8
SUNPOU
 62
     6
100
AcDbMText
 10
406.2657873462653
 20
610.7175825589422
 30
0.0
 40
7.5
 41
0.0
 71
     5
 72
     1
  1
\A1;30
  7
SUNPOU
 11
0.0000000000000001
 21
1.0
 31
0.0
1001
ACAD
1000
MTEXTBEGIN
1070
    73
1070
     1
1070
    44
1040
1.0
1070
    74
1070
     0
1000
MTEXTEND
1000
MTEXTBEGIN
1070
    73
1070
     1
1070
    44
1040
1.0
1070
    74
1070
     0
1000
MTEXTEND
  0
INSERT
  5
1434
330
DF7
100
AcDbEntity
  8
SUNPOU
100
AcDbBlockReference
  2
_OPEN30
 10
417.5157873462652
 20
631.6778033319365
 30
0.0
 41
7.5
 42
7.5
 43
7.5
 50
90.0
  0
INSERT
  5
1435
330
DF7
100
AcDbEntity
  8
SUNPOU
100
AcDbBlockReference
  2
_OPEN30
 10
417.5157873462652
 20
601.6778033319365
 30
0.0
 41
7.5
 42
7.5
 43
7.5
 50
270.0
  0
POINT
  5
1436
330
DF7
100
AcDbEntity
  8
DEFPOINTS
 62
     0
100
AcDbPoint
 10
406.8020054352715
 20
631.6778033319365
 30
0.0
  0
POINT
  5
1437
330
DF7
100
AcDbEntity
  8
DEFPOINTS
 62
     0
100
AcDbPoint
 10
392.3020054352721
 20
601.6778033319365
 30
0.0
  0
POINT
  5
1438
330
DF7
100
AcDbEntity
  8
DEFPOINTS
 62
     0
100
AcDbPoint
 10
417.5157873462652
 20
601.6778033319365
 30
0.0
  0
ENDBLK
  5
E04
330
DF7
100
AcDbEntity
  8
0
100
AcDbBlockEnd
  0
BLOCK
  5
E3B
330
E2F
100
AcDbEntity
  8
0
100
AcDbBlockBegin
  2
*D23
 70
     1
 10
0.0
 20
0.0
 30
0.0
  3
*D23
  1

  0
LINE
  5
1444
330
E2F
100
AcDbEntity
  8
SUNPOU
100
AcDbLine
 10
377.3020054352701
 20
549.8121640558975
 30
0.0
 11
377.3020054352701
 21
550.9102402708979
 31
0.0
  0
LINE
  5
1445
330
E2F
100
AcDbEntity
  8
SUNPOU
100
AcDbLine
 10
392.3020054352706
 20
589.1778033319362
 30
0.0
 11
392.3020054352706
 21
550.9102402708979
 31
0.0
  0
LINE
  5
1446
330
E2F
100
AcDbEntity
  8
SUNPOU
100
AcDbLine
 10
369.8020054352701
 20
553.9102402708979
 30
0.0
 11
362.3020054352701
 21
553.9102402708979
 31
0.0
  0
LINE
  5
1447
330
E2F
100
AcDbEntity
  8
SUNPOU
100
AcDbLine
 10
399.8020054352707
 20
553.9102402708979
 30
0.0
 11
407.3020054352706
 21
553.9102402708979
 31
0.0
  0
MTEXT
  5
1448
330
E2F
100
AcDbEntity
  8
SUNPOU
 62
     6
100
AcDbMText
 10
384.1558587970725
 20
563.3356922645999
 30
0.0
 40
7.5
 41
0.0
 71
     5
 72
     1
  1
\A1;15
  7
SUNPOU
1001
ACAD
1000
MTEXTBEGIN
1070
    73
1070
     1
1070
    44
1040
1.0
1070
    74
1070
     0
1000
MTEXTEND
1000
MTEXTBEGIN
1070
    73
1070
     1
1070
    44
1040
1.0
1070
    74
1070
     0
1000
MTEXTEND
  0
LINE
  5
1449
330
E2F
100
AcDbEntity
  8
SUNPOU
100
AcDbLine
 10
377.3020054352701
 20
553.9102402708979
 30
0.0
 11
392.3020054352706
 21
553.9102402708979
 31
0.0
  0
INSERT
  5
144A
330
E2F
100
AcDbEntity
  8
SUNPOU
100
AcDbBlockReference
  2
_OPEN30
 10
377.3020054352701
 20
553.9102402708979
 30
0.0
 41
7.5
 42
7.5
 43
7.5
  0
INSERT
  5
144B
330
E2F
100
AcDbEntity
  8
SUNPOU
100
AcDbBlockReference
  2
_OPEN30
 10
392.3020054352706
 20
553.9102402708979
 30
0.0
 41
7.5
 42
7.5
 43
7.5
 50
180.0
  0
POINT
  5
144C
330
E2F
100
AcDbEntity
  8
DEFPOINTS
 62
     0
100
AcDbPoint
 10
377.3020054352701
 20
554.3121640558974
 30
0.0
  0
POINT
  5
144D
330
E2F
100
AcDbEntity
  8
DEFPOINTS
 62
     0
100
AcDbPoint
 10
392.3020054352706
 20
593.6778033319362
 30
0.0
  0
POINT
  5
144E
330
E2F
100
AcDbEntity
  8
DEFPOINTS
 62
     0
100
AcDbPoint
 10
392.3020054352706
 20
553.9102402708979
 30
0.0
  0
ENDBLK
  5
E3C
330
E2F
100
AcDbEntity
  8
0
100
AcDbBlockEnd
  0
BLOCK
  5
E76
330
E6A
100
AcDbEntity
  8
0
100
AcDbBlockBegin
  2
*D24
 70
     1
 10
0.0
 20
0.0
 30
0.0
  3
*D24
  1

  0
LINE
  5
1274
330
E6A
100
AcDbEntity
  8
SUNPOU
100
AcDbLine
 10
376.8020054352716
 20
239.5000130017324
 30
0.0
 11
376.8020054352716
 21
223.9582100058648
 31
0.0
  0
LINE
  5
1275
330
E6A
100
AcDbEntity
  8
SUNPOU
100
AcDbLine
 10
406.8020054352715
 20
277.1778033319366
 30
0.0
 11
406.8020054352715
 21
223.9582100058648
 31
0.0
  0
LINE
  5
1276
330
E6A
100
AcDbEntity
  8
SUNPOU
100
AcDbLine
 10
384.3020054352716
 20
226.9582100058648
 30
0.0
 11
399.3020054352716
 21
226.9582100058648
 31
0.0
  0
INSERT
  5
1277
330
E6A
100
AcDbEntity
  8
SUNPOU
100
AcDbBlockReference
  2
_OPEN30
 10
376.8020054352716
 20
226.9582100058648
 30
0.0
 41
7.5
 42
7.5
 43
7.5
 50
180.0
  0
INSERT
  5
1278
330
E6A
100
AcDbEntity
  8
SUNPOU
100
AcDbBlockReference
  2
_OPEN30
 10
406.8020054352715
 20
226.9582100058648
 30
0.0
 41
7.5
 42
7.5
 43
7.5
  0
MTEXT
  5
1279
330
E6A
100
AcDbEntity
  8
SUNPOU
 62
     6
100
AcDbMText
 10
391.8020054352716
 20
233.7082100058649
 30
0.0
 40
7.5
 41
0.0
 71
     5
 72
     1
  1
\A1;30
  7
SUNPOU
1001
ACAD
1000
MTEXTBEGIN
1070
    73
1070
     1
1070
    44
1040
1.0
1070
    74
1070
     0
1000
MTEXTEND
1000
MTEXTBEGIN
1070
    73
1070
     1
1070
    44
1040
1.0
1070
    74
1070
     0
1000
MTEXTEND
  0
POINT
  5
127A
330
E6A
100
AcDbEntity
  8
DEFPOINTS
 62
     0
100
AcDbPoint
 10
376.8020054352716
 20
244.0000130017323
 30
0.0
  0
POINT
  5
127B
330
E6A
100
AcDbEntity
  8
DEFPOINTS
 62
     0
100
AcDbPoint
 10
406.8020054352715
 20
281.6778033319366
 30
0.0
  0
POINT
  5
127C
330
E6A
100
AcDbEntity
  8
DEFPOINTS
 62
     0
100
AcDbPoint
 10
406.8020054352715
 20
226.9582100058648
 30
0.0
  0
ENDBLK
  5
E77
330
E6A
100
AcDbEntity
  8
0
100
AcDbBlockEnd
  0
BLOCK
  5
E97
330
E8B
100
AcDbEntity
  8
0
100
AcDbBlockBegin
  2
*D25
 70
     1
 10
0.0
 20
0.0
 30
0.0
  3
*D25
  1

  0
LINE
  5
1618
330
E8B
100
AcDbEntity
  8
SUNPOU
100
AcDbLine
 10
445.8020054352722
 20
361.6778033319366
 30
0.0
 11
414.3398760788058
 21
361.6778033319366
 31
0.0
  0
LINE
  5
1619
330
E8B
100
AcDbEntity
  8
SUNPOU
100
AcDbLine
 10
445.8020054352722
 20
366.6778033319366
 30
0.0
 11
414.3398760788058
 21
366.6778033319366
 31
0.0
  0
LINE
  5
161A
330
E8B
100
AcDbEntity
  8
SUNPOU
100
AcDbLine
 10
417.3398760788058
 20
354.1778033319366
 30
0.0
 11
417.3398760788058
 21
346.6778033319366
 31
0.0
  0
LINE
  5
161B
330
E8B
100
AcDbEntity
  8
SUNPOU
100
AcDbLine
 10
417.3398760788058
 20
374.1778033319366
 30
0.0
 11
417.3398760788058
 21
381.6778033319366
 31
0.0
  0
MTEXT
  5
161C
330
E8B
100
AcDbEntity
  8
SUNPOU
 62
     6
100
AcDbMText
 10
406.0898760788058
 20
364.1778033319367
 30
0.0
 40
7.5
 41
0.0
 71
     5
 72
     1
  1
\A1;5
  7
SUNPOU
 11
0.0000000000000001
 21
1.0
 31
0.0
1001
ACAD
1000
MTEXTBEGIN
1070
    73
1070
     1
1070
    44
1040
1.0
1070
    74
1070
     0
1000
MTEXTEND
1000
MTEXTBEGIN
1070
    73
1070
     1
1070
    44
1040
1.0
1070
    74
1070
     0
1000
MTEXTEND
  0
LINE
  5
161D
330
E8B
100
AcDbEntity
  8
SUNPOU
100
AcDbLine
 10
417.3398760788058
 20
361.6778033319366
 30
0.0
 11
417.3398760788058
 21
366.6778033319366
 31
0.0
  0
INSERT
  5
161E
330
E8B
100
AcDbEntity
  8
SUNPOU
100
AcDbBlockReference
  2
_OPEN30
 10
417.3398760788058
 20
361.6778033319366
 30
0.0
 41
7.5
 42
7.5
 43
7.5
 50
90.0
  0
INSERT
  5
161F
330
E8B
100
AcDbEntity
  8
SUNPOU
100
AcDbBlockReference
  2
_OPEN30
 10
417.3398760788058
 20
366.6778033319366
 30
0.0
 41
7.5
 42
7.5
 43
7.5
 50
270.0
  0
POINT
  5
1620
330
E8B
100
AcDbEntity
  8
DEFPOINTS
 62
     0
100
AcDbPoint
 10
450.3020054352723
 20
361.6778033319366
 30
0.0
  0
POINT
  5
1621
330
E8B
100
AcDbEntity
  8
DEFPOINTS
 62
     0
100
AcDbPoint
 10
450.3020054352723
 20
366.6778033319366
 30
0.0
  0
POINT
  5
1622
330
E8B
100
AcDbEntity
  8
DEFPOINTS
 62
     0
100
AcDbPoint
 10
417.3398760788058
 20
366.6778033319366
 30
0.0
  0
ENDBLK
  5
E98
330
E8B
100
AcDbEntity
  8
0
100
AcDbBlockEnd
  0
BLOCK
  5
EA4
330
E9A
100
AcDbEntity
  8
0
100
AcDbBlockBegin
  2
*D26
 70
     1
 10
0.0
 20
0.0
 30
0.0
  3
*D26
  1

  0
LINE
  5
1288
330
E9A
100
AcDbEntity
  8
SUNPOU
100
AcDbLine
 10
445.8020054352722
 20
366.6778033319366
 30
0.0
 11
414.3398760788058
 21
366.6778033319366
 31
0.0
  0
LINE
  5
1289
330
E9A
100
AcDbEntity
  8
SUNPOU
100
AcDbLine
 10
445.8020054352713
 20
546.6778033319363
 30
0.0
 11
414.3398760788058
 21
546.6778033319363
 31
0.0
  0
LINE
  5
128A
330
E9A
100
AcDbEntity
  8
SUNPOU
100
AcDbLine
 10
417.3398760788058
 20
374.1778033319366
 30
0.0
 11
417.3398760788058
 21
539.1778033319365
 31
0.0
  0
MTEXT
  5
128B
330
E9A
100
AcDbEntity
  8
SUNPOU
 62
     6
100
AcDbMText
 10
406.0898760788058
 20
438.9035790118128
 30
0.0
 40
7.5
 41
0.0
 71
     5
 72
     1
  1
\A1;180
  7
SUNPOU
 11
0.0000000000000001
 21
1.0
 31
0.0
1001
ACAD
1000
MTEXTBEGIN
1070
    73
1070
     1
1070
    44
1040
1.0
1070
    74
1070
     0
1000
MTEXTEND
1000
MTEXTBEGIN
1070
    73
1070
     1
1070
    44
1040
1.0
1070
    74
1070
     0
1000
MTEXTEND
  0
INSERT
  5
128C
330
E9A
100
AcDbEntity
  8
SUNPOU
100
AcDbBlockReference
  2
_OPEN30
 10
417.3398760788058
 20
366.6778033319366
 30
0.0
 41
7.5
 42
7.5
 43
7.5
 50
270.0
  0
INSERT
  5
128D
330
E9A
100
AcDbEntity
  8
SUNPOU
100
AcDbBlockReference
  2
_OPEN30
 10
417.3398760788058
 20
546.6778033319363
 30
0.0
 41
7.5
 42
7.5
 43
7.5
 50
90.0
  0
POINT
  5
128E
330
E9A
100
AcDbEntity
  8
DEFPOINTS
 62
     0
100
AcDbPoint
 10
450.3020054352723
 20
366.6778033319366
 30
0.0
  0
POINT
  5
128F
330
E9A
100
AcDbEntity
  8
DEFPOINTS
 62
     0
100
AcDbPoint
 10
450.3020054352713
 20
546.6778033319363
 30
0.0
  0
POINT
  5
1290
330
E9A
100
AcDbEntity
  8
DEFPOINTS
 62
     0
100
AcDbPoint
 10
417.3398760788058
 20
546.6778033319363
 30
0.0
  0
ENDBLK
  5
EA5
330
E9A
100
AcDbEntity
  8
0
100
AcDbBlockEnd
  0
BLOCK
  5
EB3
330
EA7
100
AcDbEntity
  8
0
100
AcDbBlockBegin
  2
*D27
 70
     1
 10
0.0
 20
0.0
 30
0.0
  3
*D27
  1

  0
LINE
  5
160D
330
EA7
100
AcDbEntity
  8
SUNPOU
100
AcDbLine
 10
445.8020054352713
 20
546.6778033319363
 30
0.0
 11
414.3398760788058
 21
546.6778033319363
 31
0.0
  0
LINE
  5
160E
330
EA7
100
AcDbEntity
  8
SUNPOU
100
AcDbLine
 10
445.8020054352722
 20
551.6778033319361
 30
0.0
 11
414.3398760788058
 21
551.6778033319361
 31
0.0
  0
LINE
  5
160F
330
EA7
100
AcDbEntity
  8
SUNPOU
100
AcDbLine
 10
417.3398760788058
 20
539.1778033319365
 30
0.0
 11
417.3398760788058
 21
531.6778033319365
 31
0.0
  0
LINE
  5
1610
330
EA7
100
AcDbEntity
  8
SUNPOU
100
AcDbLine
 10
417.3398760788058
 20
559.1778033319362
 30
0.0
 11
417.3398760788058
 21
566.6778033319363
 31
0.0
  0
MTEXT
  5
1611
330
EA7
100
AcDbEntity
  8
SUNPOU
 62
     6
100
AcDbMText
 10
406.0898760788058
 20
549.1778033319365
 30
0.0
 40
7.5
 41
0.0
 71
     5
 72
     1
  1
\A1;5
  7
SUNPOU
 11
0.0000000000000001
 21
1.0
 31
0.0
1001
ACAD
1000
MTEXTBEGIN
1070
    73
1070
     1
1070
    44
1040
1.0
1070
    74
1070
     0
1000
MTEXTEND
1000
MTEXTBEGIN
1070
    73
1070
     1
1070
    44
1040
1.0
1070
    74
1070
     0
1000
MTEXTEND
  0
LINE
  5
1612
330
EA7
100
AcDbEntity
  8
SUNPOU
100
AcDbLine
 10
417.3398760788058
 20
546.6778033319363
 30
0.0
 11
417.3398760788058
 21
551.6778033319361
 31
0.0
  0
INSERT
  5
1613
330
EA7
100
AcDbEntity
  8
SUNPOU
100
AcDbBlockReference
  2
_OPEN30
 10
417.3398760788058
 20
546.6778033319363
 30
0.0
 41
7.5
 42
7.5
 43
7.5
 50
90.0
  0
INSERT
  5
1614
330
EA7
100
AcDbEntity
  8
SUNPOU
100
AcDbBlockReference
  2
_OPEN30
 10
417.3398760788058
 20
551.6778033319361
 30
0.0
 41
7.5
 42
7.5
 43
7.5
 50
270.0
  0
POINT
  5
1615
330
EA7
100
AcDbEntity
  8
DEFPOINTS
 62
     0
100
AcDbPoint
 10
450.3020054352713
 20
546.6778033319363
 30
0.0
  0
POINT
  5
1616
330
EA7
100
AcDbEntity
  8
DEFPOINTS
 62
     0
100
AcDbPoint
 10
450.3020054352723
 20
551.6778033319361
 30
0.0
  0
POINT
  5
1617
330
EA7
100
AcDbEntity
  8
DEFPOINTS
 62
     0
100
AcDbPoint
 10
417.3398760788058
 20
551.6778033319361
 30
0.0
  0
ENDBLK
  5
EB4
330
EA7
100
AcDbEntity
  8
0
100
AcDbBlockEnd
  0
BLOCK
  5
F25
330
F19
100
AcDbEntity
  8
0
100
AcDbBlockBegin
  2
*D28
 70
     1
 10
0.0
 20
0.0
 30
0.0
  3
*D28
  1

  0
LINE
  5
17D8
330
F19
100
AcDbEntity
  8
SUNPOU
100
AcDbLine
 10
406.8020054352715
 20
636.1778033319365
 30
0.0
 11
406.8020054352715
 21
697.6355062445978
 31
0.0
  0
LINE
  5
17D9
330
F19
100
AcDbEntity
  8
SUNPOU
100
AcDbLine
 10
376.8020054352719
 20
640.3278033319366
 30
0.0
 11
376.8020054352719
 21
697.6355062445978
 31
0.0
  0
LINE
  5
17DA
330
F19
100
AcDbEntity
  8
SUNPOU
100
AcDbLine
 10
399.3020054352716
 20
694.6355062445978
 30
0.0
 11
384.3020054352718
 21
694.6355062445978
 31
0.0
  0
MTEXT
  5
17DB
330
F19
100
AcDbEntity
  8
SUNPOU
 62
     6
100
AcDbMText
 10
395.6331133268344
 20
702.183224737191
 30
0.0
 40
7.5
 41
0.0
 71
     5
 72
     1
  1
\A1;30
  7
SUNPOU
1001
ACAD
1000
MTEXTBEGIN
1070
    73
1070
     1
1070
    44
1040
1.0
1070
    74
1070
     0
1000
MTEXTEND
1000
MTEXTBEGIN
1070
    73
1070
     1
1070
    44
1040
1.0
1070
    74
1070
     0
1000
MTEXTEND
  0
INSERT
  5
17DC
330
F19
100
AcDbEntity
  8
SUNPOU
100
AcDbBlockReference
  2
_OPEN30
 10
406.8020054352715
 20
694.6355062445978
 30
0.0
 41
7.5
 42
7.5
 43
7.5
  0
INSERT
  5
17DD
330
F19
100
AcDbEntity
  8
SUNPOU
100
AcDbBlockReference
  2
_OPEN30
 10
376.8020054352719
 20
694.6355062445978
 30
0.0
 41
7.5
 42
7.5
 43
7.5
 50
180.0
  0
POINT
  5
17DE
330
F19
100
AcDbEntity
  8
DEFPOINTS
 62
     0
100
AcDbPoint
 10
406.8020054352715
 20
631.6778033319365
 30
0.0
  0
POINT
  5
17DF
330
F19
100
AcDbEntity
  8
DEFPOINTS
 62
     0
100
AcDbPoint
 10
376.8020054352719
 20
635.8278033319366
 30
0.0
  0
POINT
  5
17E0
330
F19
100
AcDbEntity
  8
DEFPOINTS
 62
     0
100
AcDbPoint
 10
376.8020054352719
 20
694.6355062445978
 30
0.0
  0
ENDBLK
  5
F26
330
F19
100
AcDbEntity
  8
0
100
AcDbBlockEnd
  0
BLOCK
  5
F34
330
F28
100
AcDbEntity
  8
0
100
AcDbBlockBegin
  2
*D29
 70
     1
 10
0.0
 20
0.0
 30
0.0
  3
*D29
  1

  0
LINE
  5
17E1
330
F28
100
AcDbEntity
  8
SUNPOU
100
AcDbLine
 10
376.8020054352719
 20
640.3278033319366
 30
0.0
 11
376.8020054352719
 21
697.6355062445978
 31
0.0
  0
LINE
  5
17E2
330
F28
100
AcDbEntity
  8
SUNPOU
100
AcDbLine
 10
373.8020054352721
 20
635.1171431601567
 30
0.0
 11
373.8020054352721
 21
697.6355062445978
 31
0.0
  0
LINE
  5
17E3
330
F28
100
AcDbEntity
  8
SUNPOU
100
AcDbLine
 10
384.3020054352718
 20
694.6355062445978
 30
0.0
 11
391.8020054352719
 21
694.6355062445978
 31
0.0
  0
LINE
  5
17E4
330
F28
100
AcDbEntity
  8
SUNPOU
100
AcDbLine
 10
373.8020054352721
 20
694.6355062445978
 30
0.0
 11
366.3020054352721
 21
694.6355062445978
 31
0.0
  0
MTEXT
  5
17E5
330
F28
100
AcDbEntity
  8
SUNPOU
 62
     6
100
AcDbMText
 10
382.1892874661298
 20
705.7332250218451
 30
0.0
 40
7.5
 41
0.0
 71
     5
 72
     1
  1
\A1;3
  7
SUNPOU
1001
ACAD
1000
MTEXTBEGIN
1070
    73
1070
     1
1070
    44
1040
1.0
1070
    74
1070
     0
1000
MTEXTEND
1000
MTEXTBEGIN
1070
    73
1070
     1
1070
    44
1040
1.0
1070
    74
1070
     0
1000
MTEXTEND
  0
LINE
  5
17E6
330
F28
100
AcDbEntity
  8
SUNPOU
100
AcDbLine
 10
376.8020054352719
 20
694.6355062445978
 30
0.0
 11
373.8020054352721
 21
694.6355062445978
 31
0.0
  0
INSERT
  5
17E7
330
F28
100
AcDbEntity
  8
SUNPOU
100
AcDbBlockReference
  2
_OPEN30
 10
376.8020054352719
 20
694.6355062445978
 30
0.0
 41
7.5
 42
7.5
 43
7.5
 50
180.0
  0
INSERT
  5
17E8
330
F28
100
AcDbEntity
  8
SUNPOU
100
AcDbBlockReference
  2
_DOTSMALL
 10
373.8020054352721
 20
694.6355062445978
 30
0.0
 41
7.5
 42
7.5
 43
7.5
  0
POINT
  5
17E9
330
F28
100
AcDbEntity
  8
DEFPOINTS
 62
     0
100
AcDbPoint
 10
376.8020054352719
 20
635.8278033319366
 30
0.0
  0
POINT
  5
17EA
330
F28
100
AcDbEntity
  8
DEFPOINTS
 62
     0
100
AcDbPoint
 10
373.8020054352721
 20
630.6171431601567
 30
0.0
  0
POINT
  5
17EB
330
F28
100
AcDbEntity
  8
DEFPOINTS
 62
     0
100
AcDbPoint
 10
373.8020054352721
 20
694.6355062445978
 30
0.0
  0
ENDBLK
  5
F35
330
F28
100
AcDbEntity
  8
0
100
AcDbBlockEnd
  0
BLOCK
  5
F43
330
F37
100
AcDbEntity
  8
0
100
AcDbBlockBegin
  2
*D30
 70
     1
 10
0.0
 20
0.0
 30
0.0
  3
*D30
  1

  0
LINE
  5
17EC
330
F37
100
AcDbEntity
  8
SUNPOU
100
AcDbLine
 10
373.8020054352721
 20
635.1171431601567
 30
0.0
 11
373.8020054352721
 21
697.6355062445978
 31
0.0
  0
LINE
  5
17ED
330
F37
100
AcDbEntity
  8
SUNPOU
100
AcDbLine
 10
356.8020054352716
 20
699.1355062445978
 30
0.0
 11
356.8020054352716
 21
697.6355062445978
 31
0.0
  0
LINE
  5
17EE
330
F37
100
AcDbEntity
  8
SUNPOU
100
AcDbLine
 10
373.8020054352721
 20
694.6355062445978
 30
0.0
 11
356.8020054352716
 21
694.6355062445978
 31
0.0
  0
INSERT
  5
17EF
330
F37
100
AcDbEntity
  8
SUNPOU
100
AcDbBlockReference
  2
_DOTSMALL
 10
373.8020054352721
 20
694.6355062445978
 30
0.0
 41
7.5
 42
7.5
 43
7.5
  0
MTEXT
  5
17F0
330
F37
100
AcDbEntity
  8
SUNPOU
 62
     6
100
AcDbMText
 10
365.3020054352718
 20
701.3855062445978
 30
0.0
 40
7.5
 41
0.0
 71
     5
 72
     1
  1
\A1;17
  7
SUNPOU
1001
ACAD
1000
MTEXTBEGIN
1070
    73
1070
     1
1070
    44
1040
1.0
1070
    74
1070
     0
1000
MTEXTEND
1000
MTEXTBEGIN
1070
    73
1070
     1
1070
    44
1040
1.0
1070
    74
1070
     0
1000
MTEXTEND
  0
POINT
  5
17F1
330
F37
100
AcDbEntity
  8
DEFPOINTS
 62
     0
100
AcDbPoint
 10
373.8020054352721
 20
630.6171431601567
 30
0.0
  0
POINT
  5
17F2
330
F37
100
AcDbEntity
  8
DEFPOINTS
 62
     0
100
AcDbPoint
 10
356.8020054352716
 20
694.6355062445978
 30
0.0
  0
POINT
  5
17F3
330
F37
100
AcDbEntity
  8
DEFPOINTS
 62
     0
100
AcDbPoint
 10
356.8020054352716
 20
694.6355062445978
 30
0.0
  0
ENDBLK
  5
F44
330
F37
100
AcDbEntity
  8
0
100
AcDbBlockEnd
  0
BLOCK
  5
F50
330
F46
100
AcDbEntity
  8
0
100
AcDbBlockBegin
  2
*D31
 70
     1
 10
0.0
 20
0.0
 30
0.0
  3
*D31
  1

  0
LINE
  5
1663
330
F46
100
AcDbEntity
  8
SUNPOU
100
AcDbLine
 10
356.8020054352716
 20
699.1355062445978
 30
0.0
 11
356.8020054352716
 21
697.6355062445978
 31
0.0
  0
LINE
  5
1664
330
F46
100
AcDbEntity
  8
SUNPOU
100
AcDbLine
 10
256.8020054352716
 20
640.3278033319367
 30
0.0
 11
256.8020054352716
 21
697.6355062445978
 31
0.0
  0
LINE
  5
1665
330
F46
100
AcDbEntity
  8
SUNPOU
100
AcDbLine
 10
349.3020054352716
 20
694.6355062445978
 30
0.0
 11
264.3020054352716
 21
694.6355062445978
 31
0.0
  0
INSERT
  5
1666
330
F46
100
AcDbEntity
  8
SUNPOU
100
AcDbBlockReference
  2
_OPEN30
 10
356.8020054352716
 20
694.6355062445978
 30
0.0
 41
7.5
 42
7.5
 43
7.5
  0
INSERT
  5
1667
330
F46
100
AcDbEntity
  8
SUNPOU
100
AcDbBlockReference
  2
_OPEN30
 10
256.8020054352716
 20
694.6355062445978
 30
0.0
 41
7.5
 42
7.5
 43
7.5
 50
180.0
  0
MTEXT
  5
1668
330
F46
100
AcDbEntity
  8
SUNPOU
 62
     6
100
AcDbMText
 10
306.8020054352716
 20
701.3855062445978
 30
0.0
 40
7.5
 41
0.0
 71
     5
 72
     1
  1
\A1;100
  7
SUNPOU
1001
ACAD
1000
MTEXTBEGIN
1070
    73
1070
     1
1070
    44
1040
1.0
1070
    74
1070
     0
1000
MTEXTEND
1000
MTEXTBEGIN
1070
    73
1070
     1
1070
    44
1040
1.0
1070
    74
1070
     0
1000
MTEXTEND
  0
POINT
  5
1669
330
F46
100
AcDbEntity
  8
DEFPOINTS
 62
     0
100
AcDbPoint
 10
356.8020054352716
 20
694.6355062445978
 30
0.0
  0
POINT
  5
166A
330
F46
100
AcDbEntity
  8
DEFPOINTS
 62
     0
100
AcDbPoint
 10
256.8020054352716
 20
635.8278033319367
 30
0.0
  0
POINT
  5
166B
330
F46
100
AcDbEntity
  8
DEFPOINTS
 62
     0
100
AcDbPoint
 10
256.8020054352716
 20
694.6355062445978
 30
0.0
  0
ENDBLK
  5
F51
330
F46
100
AcDbEntity
  8
0
100
AcDbBlockEnd
  0
BLOCK
  5
F5F
330
F53
100
AcDbEntity
  8
0
100
AcDbBlockBegin
  2
*D32
 70
     1
 10
0.0
 20
0.0
 30
0.0
  3
*D32
  1

  0
LINE
  5
166C
330
F53
100
AcDbEntity
  8
SUNPOU
100
AcDbLine
 10
256.8020054352716
 20
640.3278033319367
 30
0.0
 11
256.8020054352716
 21
697.6355062445978
 31
0.0
  0
LINE
  5
166D
330
F53
100
AcDbEntity
  8
SUNPOU
100
AcDbLine
 10
246.8020054352716
 20
661.2522051874044
 30
0.0
 11
246.8020054352716
 21
697.6355062445978
 31
0.0
  0
LINE
  5
166E
330
F53
100
AcDbEntity
  8
SUNPOU
100
AcDbLine
 10
264.3020054352716
 20
694.6355062445978
 30
0.0
 11
271.8020054352716
 21
694.6355062445978
 31
0.0
  0
LINE
  5
166F
330
F53
100
AcDbEntity
  8
SUNPOU
100
AcDbLine
 10
239.3020054352716
 20
694.6355062445978
 30
0.0
 11
231.8020054352716
 21
694.6355062445978
 31
0.0
  0
MTEXT
  5
1670
330
F53
100
AcDbEntity
  8
SUNPOU
 62
     6
100
AcDbMText
 10
251.8020054352716
 20
705.8855062445978
 30
0.0
 40
7.5
 41
0.0
 71
     5
 72
     1
  1
\A1;10
  7
SUNPOU
1001
ACAD
1000
MTEXTBEGIN
1070
    73
1070
     1
1070
    44
1040
1.0
1070
    74
1070
     0
1000
MTEXTEND
1000
MTEXTBEGIN
1070
    73
1070
     1
1070
    44
1040
1.0
1070
    74
1070
     0
1000
MTEXTEND
  0
LINE
  5
1671
330
F53
100
AcDbEntity
  8
SUNPOU
100
AcDbLine
 10
256.8020054352716
 20
694.6355062445978
 30
0.0
 11
246.8020054352716
 21
694.6355062445978
 31
0.0
  0
INSERT
  5
1672
330
F53
100
AcDbEntity
  8
SUNPOU
100
AcDbBlockReference
  2
_OPEN30
 10
256.8020054352716
 20
694.6355062445978
 30
0.0
 41
7.5
 42
7.5
 43
7.5
 50
180.0
  0
INSERT
  5
1673
330
F53
100
AcDbEntity
  8
SUNPOU
100
AcDbBlockReference
  2
_OPEN30
 10
246.8020054352716
 20
694.6355062445978
 30
0.0
 41
7.5
 42
7.5
 43
7.5
  0
POINT
  5
1674
330
F53
100
AcDbEntity
  8
DEFPOINTS
 62
     0
100
AcDbPoint
 10
256.8020054352716
 20
635.8278033319367
 30
0.0
  0
POINT
  5
1675
330
F53
100
AcDbEntity
  8
DEFPOINTS
 62
     0
100
AcDbPoint
 10
246.8020054352716
 20
656.7522051874044
 30
0.0
  0
POINT
  5
1676
330
F53
100
AcDbEntity
  8
DEFPOINTS
 62
     0
100
AcDbPoint
 10
246.8020054352716
 20
694.6355062445978
 30
0.0
  0
ENDBLK
  5
F60
330
F53
100
AcDbEntity
  8
0
100
AcDbBlockEnd
  0
BLOCK
  5
F6C
330
F62
100
AcDbEntity
  8
0
100
AcDbBlockBegin
  2
*D33
 70
     1
 10
0.0
 20
0.0
 30
0.0
  3
*D33
  1

  0
LINE
  5
164F
330
F62
100
AcDbEntity
  8
SUNPOU
100
AcDbLine
 10
246.8020054352716
 20
661.2522051874044
 30
0.0
 11
246.8020054352716
 21
697.6355062445978
 31
0.0
  0
LINE
  5
1650
330
F62
100
AcDbEntity
  8
SUNPOU
100
AcDbLine
 10
146.8020054352715
 20
689.8107939120425
 30
0.0
 11
146.8020054352715
 21
697.6355062445978
 31
0.0
  0
LINE
  5
1651
330
F62
100
AcDbEntity
  8
SUNPOU
100
AcDbLine
 10
239.3020054352716
 20
694.6355062445978
 30
0.0
 11
154.3020054352715
 21
694.6355062445978
 31
0.0
  0
MTEXT
  5
1652
330
F62
100
AcDbEntity
  8
SUNPOU
 62
     6
100
AcDbMText
 10
207.9562095051483
 20
705.8855062445978
 30
0.0
 40
7.5
 41
0.0
 71
     5
 72
     1
  1
\A1;100
  7
SUNPOU
1001
ACAD
1000
MTEXTBEGIN
1070
    73
1070
     1
1070
    44
1040
1.0
1070
    74
1070
     0
1000
MTEXTEND
1000
MTEXTBEGIN
1070
    73
1070
     1
1070
    44
1040
1.0
1070
    74
1070
     0
1000
MTEXTEND
  0
INSERT
  5
1653
330
F62
100
AcDbEntity
  8
SUNPOU
100
AcDbBlockReference
  2
_OPEN30
 10
246.8020054352716
 20
694.6355062445978
 30
0.0
 41
7.5
 42
7.5
 43
7.5
  0
INSERT
  5
1654
330
F62
100
AcDbEntity
  8
SUNPOU
100
AcDbBlockReference
  2
_OPEN30
 10
146.8020054352715
 20
694.6355062445978
 30
0.0
 41
7.5
 42
7.5
 43
7.5
 50
180.0
  0
POINT
  5
1655
330
F62
100
AcDbEntity
  8
DEFPOINTS
 62
     0
100
AcDbPoint
 10
246.8020054352716
 20
656.7522051874044
 30
0.0
  0
POINT
  5
1656
330
F62
100
AcDbEntity
  8
DEFPOINTS
 62
     0
100
AcDbPoint
 10
146.8020054352715
 20
685.3107939120424
 30
0.0
  0
POINT
  5
1657
330
F62
100
AcDbEntity
  8
DEFPOINTS
 62
     0
100
AcDbPoint
 10
146.8020054352715
 20
694.6355062445978
 30
0.0
  0
ENDBLK
  5
F6D
330
F62
100
AcDbEntity
  8
0
100
AcDbBlockEnd
  0
BLOCK
  5
FEF
330
FE3
100
AcDbEntity
  8
0
100
AcDbBlockBegin
  2
*D34
 70
     1
 10
0.0
 20
0.0
 30
0.0
  3
*D34
  1

  0
LINE
  5
1625
330
FE3
100
AcDbEntity
  8
SUNPOU
100
AcDbLine
 10
507.3020054352719
 20
361.6778033319366
 30
0.0
 11
521.436775077452
 21
361.6778033319366
 31
0.0
  0
LINE
  5
1626
330
FE3
100
AcDbEntity
  8
SUNPOU
100
AcDbLine
 10
507.3020054352719
 20
386.6778033319366
 30
0.0
 11
521.436775077452
 21
386.6778033319366
 31
0.0
  0
LINE
  5
1627
330
FE3
100
AcDbEntity
  8
SUNPOU
100
AcDbLine
 10
518.4367750774521
 20
369.1778033319366
 30
0.0
 11
518.4367750774521
 21
379.1778033319366
 31
0.0
  0
MTEXT
  5
1628
330
FE3
100
AcDbEntity
  8
SUNPOU
 62
     6
100
AcDbMText
 10
507.3848190248968
 20
373.9196398214868
 30
0.0
 40
7.5
 41
0.0
 71
     5
 72
     1
  1
\A1;25
  7
SUNPOU
 11
0.0000000000000001
 21
1.0
 31
0.0
1001
ACAD
1000
MTEXTBEGIN
1070
    73
1070
     1
1070
    44
1040
1.0
1070
    74
1070
     0
1000
MTEXTEND
1000
MTEXTBEGIN
1070
    73
1070
     1
1070
    44
1040
1.0
1070
    74
1070
     0
1000
MTEXTEND
  0
INSERT
  5
1629
330
FE3
100
AcDbEntity
  8
SUNPOU
100
AcDbBlockReference
  2
_OPEN30
 10
518.4367750774521
 20
361.6778033319366
 30
0.0
 41
7.5
 42
7.5
 43
7.5
 50
270.0
  0
INSERT
  5
162A
330
FE3
100
AcDbEntity
  8
SUNPOU
100
AcDbBlockReference
  2
_OPEN30
 10
518.4367750774521
 20
386.6778033319366
 30
0.0
 41
7.5
 42
7.5
 43
7.5
 50
90.0
  0
POINT
  5
162B
330
FE3
100
AcDbEntity
  8
DEFPOINTS
 62
     0
100
AcDbPoint
 10
502.8020054352719
 20
361.6778033319366
 30
0.0
  0
POINT
  5
162C
330
FE3
100
AcDbEntity
  8
DEFPOINTS
 62
     0
100
AcDbPoint
 10
502.8020054352719
 20
386.6778033319366
 30
0.0
  0
POINT
  5
162D
330
FE3
100
AcDbEntity
  8
DEFPOINTS
 62
     0
100
AcDbPoint
 10
518.4367750774521
 20
386.6778033319366
 30
0.0
  0
ENDBLK
  5
FF0
330
FE3
100
AcDbEntity
  8
0
100
AcDbBlockEnd
  0
BLOCK
  5
FFC
330
FF2
100
AcDbEntity
  8
0
100
AcDbBlockBegin
  2
*D35
 70
     1
 10
0.0
 20
0.0
 30
0.0
  3
*D35
  1

  0
LINE
  5
12DF
330
FF2
100
AcDbEntity
  8
SUNPOU
100
AcDbLine
 10
507.3020054352719
 20
386.6778033319366
 30
0.0
 11
521.436775077452
 21
386.6778033319366
 31
0.0
  0
LINE
  5
12E0
330
FF2
100
AcDbEntity
  8
SUNPOU
100
AcDbLine
 10
507.3020054352719
 20
526.6778033319365
 30
0.0
 11
521.436775077452
 21
526.6778033319365
 31
0.0
  0
LINE
  5
12E1
330
FF2
100
AcDbEntity
  8
SUNPOU
100
AcDbLine
 10
518.4367750774521
 20
394.1778033319366
 30
0.0
 11
518.4367750774521
 21
519.1778033319365
 31
0.0
  0
MTEXT
  5
12E2
330
FF2
100
AcDbEntity
  8
SUNPOU
 62
     6
100
AcDbMText
 10
507.186775077452
 20
440.7431956708066
 30
0.0
 40
7.5
 41
0.0
 71
     5
 72
     1
  1
\A1;140
  7
SUNPOU
 11
0.0000000000000001
 21
1.0
 31
0.0
1001
ACAD
1000
MTEXTBEGIN
1070
    73
1070
     1
1070
    44
1040
1.0
1070
    74
1070
     0
1000
MTEXTEND
1000
MTEXTBEGIN
1070
    73
1070
     1
1070
    44
1040
1.0
1070
    74
1070
     0
1000
MTEXTEND
  0
INSERT
  5
12E3
330
FF2
100
AcDbEntity
  8
SUNPOU
100
AcDbBlockReference
  2
_OPEN30
 10
518.4367750774521
 20
386.6778033319366
 30
0.0
 41
7.5
 42
7.5
 43
7.5
 50
270.0
  0
INSERT
  5
12E4
330
FF2
100
AcDbEntity
  8
SUNPOU
100
AcDbBlockReference
  2
_OPEN30
 10
518.4367750774521
 20
526.6778033319365
 30
0.0
 41
7.5
 42
7.5
 43
7.5
 50
90.0
  0
POINT
  5
12E5
330
FF2
100
AcDbEntity
  8
DEFPOINTS
 62
     0
100
AcDbPoint
 10
502.8020054352719
 20
386.6778033319366
 30
0.0
  0
POINT
  5
12E6
330
FF2
100
AcDbEntity
  8
DEFPOINTS
 62
     0
100
AcDbPoint
 10
502.8020054352719
 20
526.6778033319365
 30
0.0
  0
POINT
  5
12E7
330
FF2
100
AcDbEntity
  8
DEFPOINTS
 62
     0
100
AcDbPoint
 10
518.4367750774521
 20
526.6778033319365
 30
0.0
  0
ENDBLK
  5
FFD
330
FF2
100
AcDbEntity
  8
0
100
AcDbBlockEnd
  0
BLOCK
  5
100B
330
FFF
100
AcDbEntity
  8
0
100
AcDbBlockBegin
  2
*D36
 70
     1
 10
0.0
 20
0.0
 30
0.0
  3
*D36
  1

  0
LINE
  5
162E
330
FFF
100
AcDbEntity
  8
SUNPOU
100
AcDbLine
 10
507.3020054352719
 20
526.6778033319365
 30
0.0
 11
521.436775077452
 21
526.6778033319365
 31
0.0
  0
LINE
  5
162F
330
FFF
100
AcDbEntity
  8
SUNPOU
100
AcDbLine
 10
507.3020054352719
 20
551.6778033319361
 30
0.0
 11
521.436775077452
 21
551.6778033319361
 31
0.0
  0
LINE
  5
1630
330
FFF
100
AcDbEntity
  8
SUNPOU
100
AcDbLine
 10
518.4367750774521
 20
534.1778033319363
 30
0.0
 11
518.4367750774521
 21
544.1778033319361
 31
0.0
  0
MTEXT
  5
1631
330
FFF
100
AcDbEntity
  8
SUNPOU
 62
     6
100
AcDbMText
 10
505.8361596345006
 20
538.2947030033403
 30
0.0
 40
7.5
 41
0.0
 71
     5
 72
     1
  1
\A1;25
  7
SUNPOU
 11
0.0000000000000001
 21
1.0
 31
0.0
1001
ACAD
1000
MTEXTBEGIN
1070
    73
1070
     1
1070
    44
1040
1.0
1070
    74
1070
     0
1000
MTEXTEND
1000
MTEXTBEGIN
1070
    73
1070
     1
1070
    44
1040
1.0
1070
    74
1070
     0
1000
MTEXTEND
  0
INSERT
  5
1632
330
FFF
100
AcDbEntity
  8
SUNPOU
100
AcDbBlockReference
  2
_OPEN30
 10
518.4367750774521
 20
526.6778033319365
 30
0.0
 41
7.5
 42
7.5
 43
7.5
 50
270.0
  0
INSERT
  5
1633
330
FFF
100
AcDbEntity
  8
SUNPOU
100
AcDbBlockReference
  2
_OPEN30
 10
518.4367750774521
 20
551.6778033319361
 30
0.0
 41
7.5
 42
7.5
 43
7.5
 50
90.0
  0
POINT
  5
1634
330
FFF
100
AcDbEntity
  8
DEFPOINTS
 62
     0
100
AcDbPoint
 10
502.8020054352719
 20
526.6778033319365
 30
0.0
  0
POINT
  5
1635
330
FFF
100
AcDbEntity
  8
DEFPOINTS
 62
     0
100
AcDbPoint
 10
502.8020054352719
 20
551.6778033319361
 30
0.0
  0
POINT
  5
1636
330
FFF
100
AcDbEntity
  8
DEFPOINTS
 62
     0
100
AcDbPoint
 10
518.4367750774521
 20
551.6778033319361
 30
0.0
  0
ENDBLK
  5
100C
330
FFF
100
AcDbEntity
  8
0
100
AcDbBlockEnd
  0
BLOCK
  5
10D2
330
10C6
100
AcDbEntity
  8
0
100
AcDbBlockBegin
  2
*D37
 70
     1
 10
0.0
 20
0.0
 30
0.0
  3
*D37
  1

  0
LINE
  5
16D4
330
10C6
100
AcDbEntity
  8
SUNPOU
100
AcDbLine
 10
376.8020054352716
 20
231.4582100058649
 30
0.0
 11
376.8020054352716
 21
229.9582100058648
 31
0.0
  0
LINE
  5
16D5
330
10C6
100
AcDbEntity
  8
SUNPOU
100
AcDbLine
 10
356.8020054352714
 20
231.4582100058649
 30
0.0
 11
356.8020054352714
 21
229.9582100058648
 31
0.0
  0
LINE
  5
16D6
330
10C6
100
AcDbEntity
  8
SUNPOU
100
AcDbLine
 10
384.3020054352716
 20
226.9582100058648
 30
0.0
 11
391.8020054352716
 21
226.9582100058648
 31
0.0
  0
LINE
  5
16D7
330
10C6
100
AcDbEntity
  8
SUNPOU
100
AcDbLine
 10
349.3020054352713
 20
226.9582100058648
 30
0.0
 11
341.8020054352713
 21
226.9582100058648
 31
0.0
  0
MTEXT
  5
16D8
330
10C6
100
AcDbEntity
  8
SUNPOU
 62
     6
100
AcDbMText
 10
345.3287099135736
 20
235.8143577798686
 30
0.0
 40
7.5
 41
0.0
 71
     5
 72
     1
  1
\A1;20
  7
SUNPOU
1001
ACAD
1000
MTEXTBEGIN
1070
    73
1070
     1
1070
    44
1040
1.0
1070
    74
1070
     0
1000
MTEXTEND
1000
MTEXTBEGIN
1070
    73
1070
     1
1070
    44
1040
1.0
1070
    74
1070
     0
1000
MTEXTEND
  0
LINE
  5
16D9
330
10C6
100
AcDbEntity
  8
SUNPOU
100
AcDbLine
 10
376.8020054352716
 20
226.9582100058648
 30
0.0
 11
356.8020054352714
 21
226.9582100058648
 31
0.0
  0
INSERT
  5
16DA
330
10C6
100
AcDbEntity
  8
SUNPOU
100
AcDbBlockReference
  2
_OPEN30
 10
376.8020054352716
 20
226.9582100058648
 30
0.0
 41
7.5
 42
7.5
 43
7.5
 50
180.0
  0
INSERT
  5
16DB
330
10C6
100
AcDbEntity
  8
SUNPOU
100
AcDbBlockReference
  2
_OPEN30
 10
356.8020054352714
 20
226.9582100058648
 30
0.0
 41
7.5
 42
7.5
 43
7.5
  0
POINT
  5
16DC
330
10C6
100
AcDbEntity
  8
DEFPOINTS
 62
     0
100
AcDbPoint
 10
376.8020054352716
 20
226.9582100058648
 30
0.0
  0
POINT
  5
16DD
330
10C6
100
AcDbEntity
  8
DEFPOINTS
 62
     0
100
AcDbPoint
 10
356.8020054352714
 20
226.9582100058648
 30
0.0
  0
POINT
  5
16DE
330
10C6
100
AcDbEntity
  8
DEFPOINTS
 62
     0
100
AcDbPoint
 10
356.8020054352714
 20
226.9582100058648
 30
0.0
  0
ENDBLK
  5
10D3
330
10C6
100
AcDbEntity
  8
0
100
AcDbBlockEnd
  0
BLOCK
  5
117E
330
1174
100
AcDbEntity
  8
0
100
AcDbBlockBegin
  2
*D38
 70
     1
 10
0.0
 20
0.0
 30
0.0
  3
*D38
  1

  0
LINE
  5
12FC
330
1174
100
AcDbEntity
  8
SUNPOU
100
AcDbLine
 10
356.8020054352716
 20
737.6837179419752
 30
0.0
 11
356.8020054352716
 21
736.1837179419751
 31
0.0
  0
LINE
  5
12FD
330
1174
100
AcDbEntity
  8
SUNPOU
100
AcDbLine
 10
146.8020054352715
 20
737.6837179419752
 30
0.0
 11
146.8020054352715
 21
736.1837179419751
 31
0.0
  0
LINE
  5
12FE
330
1174
100
AcDbEntity
  8
SUNPOU
100
AcDbLine
 10
349.3020054352716
 20
733.1837179419751
 30
0.0
 11
154.3020054352715
 21
733.1837179419751
 31
0.0
  0
INSERT
  5
12FF
330
1174
100
AcDbEntity
  8
SUNPOU
100
AcDbBlockReference
  2
_OPEN30
 10
356.8020054352716
 20
733.1837179419751
 30
0.0
 41
7.5
 42
7.5
 43
7.5
  0
INSERT
  5
1300
330
1174
100
AcDbEntity
  8
SUNPOU
100
AcDbBlockReference
  2
_OPEN30
 10
146.8020054352715
 20
733.1837179419751
 30
0.0
 41
7.5
 42
7.5
 43
7.5
 50
180.0
  0
MTEXT
  5
1301
330
1174
100
AcDbEntity
  8
SUNPOU
 62
     6
100
AcDbMText
 10
251.8020054352716
 20
739.9337179419751
 30
0.0
 40
7.5
 41
0.0
 71
     5
 72
     1
  1
\A1;210
  7
SUNPOU
1001
ACAD
1000
MTEXTBEGIN
1070
    73
1070
     1
1070
    44
1040
1.0
1070
    74
1070
     0
1000
MTEXTEND
1000
MTEXTBEGIN
1070
    73
1070
     1
1070
    44
1040
1.0
1070
    74
1070
     0
1000
MTEXTEND
  0
POINT
  5
1302
330
1174
100
AcDbEntity
  8
DEFPOINTS
 62
     0
100
AcDbPoint
 10
356.8020054352716
 20
733.1837179419751
 30
0.0
  0
POINT
  5
1303
330
1174
100
AcDbEntity
  8
DEFPOINTS
 62
     0
100
AcDbPoint
 10
146.8020054352715
 20
733.1837179419751
 30
0.0
  0
POINT
  5
1304
330
1174
100
AcDbEntity
  8
DEFPOINTS
 62
     0
100
AcDbPoint
 10
146.8020054352715
 20
733.1837179419751
 30
0.0
  0
ENDBLK
  5
117F
330
1174
100
AcDbEntity
  8
0
100
AcDbBlockEnd
  0
BLOCK
  5
1383
330
1379
100
AcDbEntity
  8
0
100
AcDbBlockBegin
  2
*D39
 70
     1
 10
0.0
 20
0.0
 30
0.0
  3
*D39
  1

  0
LINE
  5
13B4
330
1379
100
AcDbEntity
  8
SUNPOU
100
AcDbLine
 10
323.3020054352717
 20
586.6778033319365
 30
0.0
 11
312.6313059172403
 21
586.6778033319365
 31
0.0
  0
LINE
  5
13B5
330
1379
100
AcDbEntity
  8
SUNPOU
100
AcDbLine
 10
323.3020054352717
 20
546.6778033319363
 30
0.0
 11
312.6313059172403
 21
546.6778033319363
 31
0.0
  0
LINE
  5
13B6
330
1379
100
AcDbEntity
  8
SUNPOU
100
AcDbLine
 10
315.6313059172402
 20
579.1778033319364
 30
0.0
 11
315.6313059172402
 21
554.1778033319364
 31
0.0
  0
INSERT
  5
13B7
330
1379
100
AcDbEntity
  8
SUNPOU
100
AcDbBlockReference
  2
_OPEN30
 10
315.6313059172402
 20
586.6778033319365
 30
0.0
 41
7.5
 42
7.5
 43
7.5
 50
90.0
  0
INSERT
  5
13B8
330
1379
100
AcDbEntity
  8
SUNPOU
100
AcDbBlockReference
  2
_OPEN30
 10
315.6313059172402
 20
546.6778033319363
 30
0.0
 41
7.5
 42
7.5
 43
7.5
 50
270.0
  0
MTEXT
  5
13B9
330
1379
100
AcDbEntity
  8
SUNPOU
 62
     6
100
AcDbMText
 10
308.8813059172402
 20
566.6778033319366
 30
0.0
 40
7.5
 41
0.0
 71
     5
 72
     1
  1
\A1;40
  7
SUNPOU
 11
0.0000000000000001
 21
1.0
 31
0.0
1001
ACAD
1000
MTEXTBEGIN
1070
    73
1070
     1
1070
    44
1040
1.0
1070
    74
1070
     0
1000
MTEXTEND
1000
MTEXTBEGIN
1070
    73
1070
     1
1070
    44
1040
1.0
1070
    74
1070
     0
1000
MTEXTEND
  0
POINT
  5
13BA
330
1379
100
AcDbEntity
  8
DEFPOINTS
 62
     0
100
AcDbPoint
 10
327.8020054352718
 20
586.6778033319365
 30
0.0
  0
POINT
  5
13BB
330
1379
100
AcDbEntity
  8
DEFPOINTS
 62
     0
100
AcDbPoint
 10
327.8020054352718
 20
546.6778033319363
 30
0.0
  0
POINT
  5
13BC
330
1379
100
AcDbEntity
  8
DEFPOINTS
 62
     0
100
AcDbPoint
 10
315.6313059172402
 20
546.6778033319363
 30
0.0
  0
ENDBLK
  5
1384
330
1379
100
AcDbEntity
  8
0
100
AcDbBlockEnd
  0
BLOCK
  5
13FA
330
13F9
100
AcDbEntity
  8
0
100
AcDbBlockBegin
  2
_NONE
 70
     0
 10
0.0
 20
0.0
 30
0.0
  3
_NONE
  1

  0
ENDBLK
  5
13FB
330
13F9
100
AcDbEntity
  8
0
100
AcDbBlockEnd
  0
BLOCK
  5
15F4
330
15EA
100
AcDbEntity
  8
0
100
AcDbBlockBegin
  2
*D41
 70
     1
 10
0.0
 20
0.0
 30
0.0
  3
*D41
  1

  0
LINE
  5
15EB
330
15EA
100
AcDbEntity
  8
SUNPOU
100
AcDbLine
 10
373.8020054352716
 20
320.3871339544874
 30
0.0
 11
373.8020054352716
 21
321.8871339544873
 31
0.0
  0
LINE
  5
15EC
330
15EA
100
AcDbEntity
  8
SUNPOU
100
AcDbLine
 10
478.8020054352716
 20
329.3871339544873
 30
0.0
 11
478.8020054352716
 21
327.8871339544873
 31
0.0
  0
LINE
  5
15ED
330
15EA
100
AcDbEntity
  8
SUNPOU
100
AcDbLine
 10
381.3020054352716
 20
324.8871339544873
 30
0.0
 11
471.3020054352717
 21
324.8871339544873
 31
0.0
  0
INSERT
  5
15EE
330
15EA
100
AcDbEntity
  8
SUNPOU
100
AcDbBlockReference
  2
_OPEN30
 10
373.8020054352716
 20
324.8871339544873
 30
0.0
 41
7.5
 42
7.5
 43
7.5
 50
180.0
  0
INSERT
  5
15EF
330
15EA
100
AcDbEntity
  8
SUNPOU
100
AcDbBlockReference
  2
_OPEN30
 10
478.8020054352716
 20
324.8871339544873
 30
0.0
 41
7.5
 42
7.5
 43
7.5
  0
MTEXT
  5
15F0
330
15EA
100
AcDbEntity
  8
SUNPOU
 62
     6
100
AcDbMText
 10
426.3020054352717
 20
331.6371339544873
 30
0.0
 40
7.5
 41
0.0
 71
     5
 72
     1
  1
\A1;105
  7
SUNPOU
1001
ACAD
1000
MTEXTBEGIN
1070
    73
1070
     1
1070
    44
1040
1.0
1070
    74
1070
     0
1000
MTEXTEND
1000
MTEXTBEGIN
1070
    73
1070
     1
1070
    44
1040
1.0
1070
    74
1070
     0
1000
MTEXTEND
  0
POINT
  5
15F1
330
15EA
100
AcDbEntity
  8
DEFPOINTS
 62
     0
100
AcDbPoint
 10
373.8020054352716
 20
324.8871339544876
 30
0.0
  0
POINT
  5
15F2
330
15EA
100
AcDbEntity
  8
DEFPOINTS
 62
     0
100
AcDbPoint
 10
478.8020054352716
 20
324.8871339544873
 30
0.0
  0
POINT
  5
15F3
330
15EA
100
AcDbEntity
  8
DEFPOINTS
 62
     0
100
AcDbPoint
 10
478.8020054352716
 20
324.8871339544873
 30
0.0
  0
ENDBLK
  5
15F5
330
15EA
100
AcDbEntity
  8
0
100
AcDbBlockEnd
  0
BLOCK
  5
1682
330
1678
100
AcDbEntity
  8
0
100
AcDbBlockBegin
  2
*D42
 70
     1
 10
0.0
 20
0.0
 30
0.0
  3
*D42
  1

  0
LINE
  5
1679
330
1678
100
AcDbEntity
  8
SUNPOU
100
AcDbLine
 10
323.3020054352716
 20
326.6778033319365
 30
0.0
 11
312.6313059172401
 21
326.6778033319365
 31
0.0
  0
LINE
  5
167A
330
1678
100
AcDbEntity
  8
SUNPOU
100
AcDbLine
 10
323.3020054352716
 20
366.6778033319364
 30
0.0
 11
312.6313059172401
 21
366.6778033319364
 31
0.0
  0
LINE
  5
167B
330
1678
100
AcDbEntity
  8
SUNPOU
100
AcDbLine
 10
315.6313059172402
 20
334.1778033319365
 30
0.0
 11
315.6313059172402
 21
359.1778033319365
 31
0.0
  0
INSERT
  5
167C
330
1678
100
AcDbEntity
  8
SUNPOU
100
AcDbBlockReference
  2
_OPEN30
 10
315.6313059172402
 20
326.6778033319365
 30
0.0
 41
7.5
 42
7.5
 43
7.5
 50
270.0
  0
INSERT
  5
167D
330
1678
100
AcDbEntity
  8
SUNPOU
100
AcDbBlockReference
  2
_OPEN30
 10
315.6313059172402
 20
366.6778033319364
 30
0.0
 41
7.5
 42
7.5
 43
7.5
 50
90.0
  0
MTEXT
  5
167E
330
1678
100
AcDbEntity
  8
SUNPOU
 62
     6
100
AcDbMText
 10
308.8813059172402
 20
346.6778033319366
 30
0.0
 40
7.5
 41
0.0
 71
     5
 72
     1
  1
\A1;40
  7
SUNPOU
 11
0.0000000000000001
 21
1.0
 31
0.0
1001
ACAD
1000
MTEXTBEGIN
1070
    73
1070
     1
1070
    44
1040
1.0
1070
    74
1070
     0
1000
MTEXTEND
1000
MTEXTBEGIN
1070
    73
1070
     1
1070
    44
1040
1.0
1070
    74
1070
     0
1000
MTEXTEND
  0
POINT
  5
167F
330
1678
100
AcDbEntity
  8
DEFPOINTS
 62
     0
100
AcDbPoint
 10
327.8020054352716
 20
326.6778033319365
 30
0.0
  0
POINT
  5
1680
330
1678
100
AcDbEntity
  8
DEFPOINTS
 62
     0
100
AcDbPoint
 10
327.8020054352716
 20
366.6778033319364
 30
0.0
  0
POINT
  5
1681
330
1678
100
AcDbEntity
  8
DEFPOINTS
 62
     0
100
AcDbPoint
 10
315.6313059172402
 20
366.6778033319364
 30
0.0
  0
ENDBLK
  5
1683
330
1678
100
AcDbEntity
  8
0
100
AcDbBlockEnd
  0
BLOCK
  5
1696
330
168C
100
AcDbEntity
  8
0
100
AcDbBlockBegin
  2
*D43
 70
     1
 10
0.0
 20
0.0
 30
0.0
  3
*D43
  1

  0
LINE
  5
16A1
330
168C
100
AcDbEntity
  8
SUNPOU
100
AcDbLine
 10
381.8020054352708
 20
419.1778033319365
 30
0.0
 11
395.8619118209338
 21
419.1778033319365
 31
0.0
  0
LINE
  5
16A2
330
168C
100
AcDbEntity
  8
SUNPOU
100
AcDbLine
 10
381.8020054352708
 20
494.1778033319363
 30
0.0
 11
395.8619118209338
 21
494.1778033319363
 31
0.0
  0
LINE
  5
16A3
330
168C
100
AcDbEntity
  8
SUNPOU
100
AcDbLine
 10
392.861911820934
 20
426.6778033319365
 30
0.0
 11
392.861911820934
 21
486.6778033319363
 31
0.0
  0
MTEXT
  5
16A4
330
168C
100
AcDbEntity
  8
SUNPOU
 62
     6
100
AcDbMText
 10
386.1119118209338
 20
459.0102763015607
 30
0.0
 40
7.5
 41
0.0
 71
     5
 72
     1
  1
\A1;φ75
  7
SUNPOU
 11
0.0000000000000001
 21
1.0
 31
0.0
1001
ACAD
1000
MTEXTBEGIN
1070
    73
1070
     1
1070
    44
1040
1.0
1070
    74
1070
     0
1000
MTEXTEND
1000
MTEXTBEGIN
1070
    73
1070
     1
1070
    44
1040
1.0
1070
    74
1070
     0
1000
MTEXTEND
  0
INSERT
  5
16A5
330
168C
100
AcDbEntity
  8
SUNPOU
100
AcDbBlockReference
  2
_OPEN30
 10
392.861911820934
 20
419.1778033319365
 30
0.0
 41
7.5
 42
7.5
 43
7.5
 50
270.0
  0
INSERT
  5
16A6
330
168C
100
AcDbEntity
  8
SUNPOU
100
AcDbBlockReference
  2
_OPEN30
 10
392.861911820934
 20
494.1778033319363
 30
0.0
 41
7.5
 42
7.5
 43
7.5
 50
90.0
  0
POINT
  5
16A7
330
168C
100
AcDbEntity
  8
DEFPOINTS
 62
     0
100
AcDbPoint
 10
377.3020054352708
 20
419.1778033319365
 30
0.0
  0
POINT
  5
16A8
330
168C
100
AcDbEntity
  8
DEFPOINTS
 62
     0
100
AcDbPoint
 10
377.3020054352708
 20
494.1778033319363
 30
0.0
  0
POINT
  5
16A9
330
168C
100
AcDbEntity
  8
DEFPOINTS
 62
     0
100
AcDbPoint
 10
392.861911820934
 20
494.1778033319363
 30
0.0
  0
ENDBLK
  5
1697
330
168C
100
AcDbEntity
  8
0
100
AcDbBlockEnd
  0
ENDSEC
  0
SECTION
  2
ENTITIES
  0
ARC
  5
707
330
1E
100
AcDbEntity
  8
06
100
AcDbCircle
 10
118.8290135404336
 20
437.1869891229515
 30
0.0
 40
32.1067886352539
100
AcDbArc
 50
17.19360818639684
 51
28.84735945077148
  0
ARC
  5
70C
330
1E
100
AcDbEntity
  8
06
100
AcDbCircle
 10
118.8290135404467
 20
476.2056658807579
 30
0.0
 40
32.10678863523927
100
AcDbArc
 50
331.0771324179081
 51
342.7371719293918
  0
POLYLINE
  5
80C
330
1E
100
AcDbEntity
  8
DEFPOINTS
  6
CONTINUOUS
100
AcDb2dPolyline
 66
     1
 10
0.0
 20
0.0
 30
0.0
 70
     1
  0
VERTEX
  5
1899
330
80C
100
AcDbEntity
  8
DEFPOINTS
  6
CONTINUOUS
100
AcDbVertex
100
AcDb2dVertex
 10
594.0
 20
0.0
 30
0.0
  0
VERTEX
  5
189A
330
80C
100
AcDbEntity
  8
DEFPOINTS
  6
CONTINUOUS
100
AcDbVertex
100
AcDb2dVertex
 10
0.0
 20
0.0
 30
0.0
  0
VERTEX
  5
189B
330
80C
100
AcDbEntity
  8
DEFPOINTS
  6
CONTINUOUS
100
AcDbVertex
100
AcDb2dVertex
 10
0.0
 20
841.0
 30
0.0
  0
VERTEX
  5
189C
330
80C
100
AcDbEntity
  8
DEFPOINTS
  6
CONTINUOUS
100
AcDbVertex
100
AcDb2dVertex
 10
594.0
 20
841.0
 30
0.0
  0
SEQEND
  5
189D
330
80C
100
AcDbEntity
  8
DEFPOINTS
  6
CONTINUOUS
  0
LINE
  5
80F
330
1E
100
AcDbEntity
  8
02
  6
CONTINUOUS
100
AcDbLine
 10
526.8020054352717
 20
790.3853855223568
 30
0.0
 11
526.8020054352717
 21
105.3853855223569
 31
0.0
  0
LINE
  5
813
330
1E
100
AcDbEntity
  8
CHUSIN
100
AcDbLine
 10
52.87547791267662
 20
456.6778033319365
 30
0.0
 11
197.2278882060309
 21
456.6778033319365
 31
0.0
  0
LINE
  5
816
330
1E
100
AcDbEntity
  8
06
100
AcDbLine
 10
493.8020054352718
 20
629.6778033319363
 30
0.0
 11
493.8020054352718
 21
669.6778643670925
 31
0.0
  0
LINE
  5
817
330
1E
100
AcDbEntity
  8
06
100
AcDbLine
 10
478.8020054352719
 20
629.6778033319363
 30
0.0
 11
493.8020054352718
 21
629.6778033319363
 31
0.0
  0
ARC
  5
818
330
1E
100
AcDbEntity
  8
06
100
AcDbCircle
 10
484.8018833649518
 20
638.6778643670925
 30
0.0
 40
4.0
100
AcDbArc
 50
270.0000006832449
 51
0.0000100179129792
  0
ARC
  5
819
330
1E
100
AcDbEntity
  8
06
100
AcDbCircle
 10
457.801944400112
 20
630.6778643670924
 30
0.0
 40
4.0
100
AcDbArc
 50
90.0000025044782
 51
180.0000050089559
  0
LINE
  5
81A
330
1E
100
AcDbEntity
  8
06
100
AcDbLine
 10
453.8020054352719
 20
630.6778643670924
 30
0.0
 11
453.8020054352719
 21
629.6778033319363
 31
0.0
  0
LINE
  5
81B
330
1E
100
AcDbEntity
  8
06
100
AcDbLine
 10
457.801944400112
 20
634.6778643670925
 30
0.0
 11
484.8018834126515
 21
634.6778643670925
 31
0.0
  0
LINE
  5
81C
330
1E
100
AcDbEntity
  8
06
100
AcDbLine
 10
488.8020054352718
 20
665.6778643670925
 30
0.0
 11
488.8020054352718
 21
638.6778643670925
 31
0.0
  0
ARC
  5
81D
330
1E
100
AcDbEntity
  8
06
100
AcDbCircle
 10
492.8020054352718
 20
665.6778643670925
 30
0.0
 40
4.0
100
AcDbArc
 50
90.0000025044782
 51
180.0000050089559
  0
LINE
  5
81E
330
1E
100
AcDbEntity
  8
06
100
AcDbLine
 10
492.8020054352718
 20
669.6778643670925
 30
0.0
 11
493.7569614899517
 21
669.6778643670925
 31
0.0
  0
LINE
  5
81F
330
1E
100
AcDbEntity
  8
06
100
AcDbLine
 10
488.8020054352723
 20
247.6777422967805
 30
0.0
 11
488.8020054352723
 21
274.6777422967805
 31
0.0
  0
LINE
  5
820
330
1E
100
AcDbEntity
  8
06
100
AcDbLine
 10
493.8020054352723
 20
283.6778033319366
 30
0.0
 11
493.8020054352723
 21
243.6777422967807
 31
0.0
  0
LINE
  5
821
330
1E
100
AcDbEntity
  8
06
100
AcDbLine
 10
457.8019444001125
 20
278.6777422967805
 30
0.0
 11
484.8018834126518
 21
278.6777422967805
 31
0.0
  0
ARC
  5
822
330
1E
100
AcDbEntity
  8
06
100
AcDbCircle
 10
457.8019444001125
 20
282.6777422967806
 30
0.0
 40
4.0
100
AcDbArc
 50
179.999994991044
 51
269.9999974955218
  0
LINE
  5
823
330
1E
100
AcDbEntity
  8
06
100
AcDbLine
 10
453.8020054352722
 20
282.6777422967806
 30
0.0
 11
453.8020054352722
 21
283.6778033319366
 31
0.0
  0
ARC
  5
824
330
1E
100
AcDbEntity
  8
06
100
AcDbCircle
 10
484.8018833649523
 20
274.6777422967805
 30
0.0
 40
4.0
100
AcDbArc
 50
359.999989982087
 51
89.99999931675516
  0
LINE
  5
825
330
1E
100
AcDbEntity
  8
06
100
AcDbLine
 10
478.8020054352722
 20
283.6778033319366
 30
0.0
 11
493.8020054352723
 21
283.6778033319366
 31
0.0
  0
ARC
  5
826
330
1E
100
AcDbEntity
  8
06
100
AcDbCircle
 10
492.8020054352723
 20
247.6777422967807
 30
0.0
 40
4.0
100
AcDbArc
 50
179.999994991044
 51
269.9999974955218
  0
LINE
  5
827
330
1E
100
AcDbEntity
  8
06
100
AcDbLine
 10
492.8020054352723
 20
243.6777422967807
 30
0.0
 11
493.7569614899523
 21
243.6777422967807
 31
0.0
  0
LINE
  5
83F
330
1E
100
AcDbEntity
  8
06
100
AcDbLine
 10
478.8020054351488
 20
661.8457720815527
 30
0.0
 11
478.8020054351488
 21
643.8457720815526
 31
0.0
  0
ARC
  5
840
330
1E
100
AcDbEntity
  8
06
100
AcDbCircle
 10
482.6910366562566
 20
661.8457720826084
 30
0.0
 40
3.889031221107589
100
AcDbArc
 50
129.5201949305073
 51
180.0000000155531
  0
LINE
  5
842
330
1E
100
AcDbEntity
  8
06
100
AcDbLine
 10
480.2162510407375
 20
640.8457720819365
 30
0.0
 11
488.8020054352717
 21
640.8457720819365
 31
0.0
  0
LINE
  5
847
330
1E
100
AcDbEntity
  8
06
100
AcDbLine
 10
480.2162510407375
 20
664.8457720819365
 30
0.0
 11
488.8020054352717
 21
664.8457720819365
 31
0.0
  0
LINE
  5
848
330
1E
100
AcDbEntity
  8
06
100
AcDbLine
 10
480.2162510407375
 20
646.8457720819364
 30
0.0
 11
526.8020054352717
 21
646.8457720819364
 31
0.0
  0
LINE
  5
849
330
1E
100
AcDbEntity
  8
06
100
AcDbLine
 10
480.2162510407375
 20
658.8457720819365
 30
0.0
 11
526.8020054352717
 21
658.8457720819365
 31
0.0
  0
LINE
  5
84C
330
1E
100
AcDbEntity
  8
06
100
AcDbLine
 10
451.8020054352712
 20
640.8457720819365
 30
0.0
 11
451.8020054352712
 21
664.8457720819365
 31
0.0
  0
LINE
  5
84D
330
1E
100
AcDbEntity
  8
06
100
AcDbLine
 10
443.216251040737
 20
646.8457720819364
 30
0.0
 11
478.8020054351488
 21
646.8457720819364
 31
0.0
  0
LINE
  5
84E
330
1E
100
AcDbEntity
  8
06
100
AcDbLine
 10
443.2162510423653
 20
658.8457720819365
 30
0.0
 11
478.8020054351488
 21
658.8457720819365
 31
0.0
  0
LINE
  5
84F
330
1E
100
AcDbEntity
  8
06
100
AcDbLine
 10
443.216251040737
 20
640.8457720819365
 30
0.0
 11
451.8020054352712
 21
640.8457720819365
 31
0.0
  0
LINE
  5
852
330
1E
100
AcDbEntity
  8
06
100
AcDbLine
 10
443.216251040737
 20
664.8457720819365
 30
0.0
 11
451.8020054352712
 21
664.8457720819365
 31
0.0
  0
LINE
  5
858
330
1E
100
AcDbEntity
  8
CHUSIN
100
AcDbLine
 10
437.8500929166811
 20
652.8457720803052
 30
0.0
 11
541.8020054352719
 21
652.8457720803052
 31
0.0
  0
LINE
  5
86A
330
1E
100
AcDbEntity
  8
06
100
AcDbLine
 10
457.3020054352716
 20
272.5098345819365
 30
0.0
 11
457.3020054352716
 21
248.5098345819364
 31
0.0
  0
LINE
  5
871
330
1E
100
AcDbEntity
  8
06
100
AcDbLine
 10
480.2162510407378
 20
254.5098345819365
 30
0.0
 11
526.8020054352724
 21
254.5098345819366
 31
0.0
  0
LINE
  5
872
330
1E
100
AcDbEntity
  8
06
100
AcDbLine
 10
480.2162510407378
 20
266.5098345819365
 30
0.0
 11
526.8020054352724
 21
266.5098345819365
 31
0.0
  0
LINE
  5
875
330
1E
100
AcDbEntity
  8
06
100
AcDbLine
 10
448.7162510423658
 20
254.5098345819365
 30
0.0
 11
478.8020054351492
 21
254.5098345819365
 31
0.0
  0
LINE
  5
876
330
1E
100
AcDbEntity
  8
06
100
AcDbLine
 10
448.7162510407373
 20
266.5098345819365
 30
0.0
 11
478.8020054351492
 21
266.5098345819365
 31
0.0
  0
LINE
  5
879
330
1E
100
AcDbEntity
  8
06
100
AcDbLine
 10
448.7162510407373
 20
272.5098345819365
 30
0.0
 11
457.3020054352716
 21
272.5098345819365
 31
0.0
  0
LINE
  5
87A
330
1E
100
AcDbEntity
  8
06
100
AcDbLine
 10
480.2162510407378
 20
272.5098345819365
 30
0.0
 11
488.8020054352721
 21
272.5098345819365
 31
0.0
  0
LINE
  5
87D
330
1E
100
AcDbEntity
  8
06
100
AcDbLine
 10
448.7162510407373
 20
248.5098345819364
 30
0.0
 11
457.3020054352716
 21
248.5098345819364
 31
0.0
  0
LINE
  5
87E
330
1E
100
AcDbEntity
  8
06
100
AcDbLine
 10
480.2162510407378
 20
248.5098345819364
 30
0.0
 11
488.8020054352721
 21
248.5098345819364
 31
0.0
  0
LINE
  5
87F
330
1E
100
AcDbEntity
  8
CHUSIN
100
AcDbLine
 10
440.7742344389366
 20
260.5098345835676
 30
0.0
 11
541.8020054352723
 21
260.5098345835679
 31
0.0
  0
LINE
  5
880
330
1E
100
AcDbEntity
  8
03
100
AcDbLine
 10
478.8020054352719
 20
629.6778033319363
 30
0.0
 11
478.8020054352716
 21
283.6778033319366
 31
0.0
  0
LINE
  5
882
330
1E
100
AcDbEntity
  8
03
100
AcDbLine
 10
379.3020054352698
 20
629.6778033319363
 30
0.0
 11
478.8020054352719
 21
629.6778033319363
 31
0.0
  0
LINE
  5
884
330
1E
100
AcDbEntity
  8
03
100
AcDbLine
 10
379.3020054352698
 20
623.6778033319365
 30
0.0
 11
478.8020054352719
 21
623.6778033319365
 31
0.0
  0
LINE
  5
886
330
1E
100
AcDbEntity
  8
03
100
AcDbLine
 10
472.8020054352718
 20
623.6778033319367
 30
0.0
 11
472.8020054352718
 21
289.6778033319368
 31
0.0
  0
LINE
  5
888
330
1E
100
AcDbEntity
  8
03
100
AcDbLine
 10
379.3020054352713
 20
283.6778033319366
 30
0.0
 11
478.802005435272
 21
283.6778033319366
 31
0.0
  0
LINE
  5
889
330
1E
100
AcDbEntity
  8
03
100
AcDbLine
 10
379.3020054352713
 20
289.6778033319366
 30
0.0
 11
478.8020054352716
 21
289.6778033319366
 31
0.0
  0
LINE
  5
88A
330
1E
100
AcDbEntity
  8
03
100
AcDbLine
 10
373.8020054352721
 20
630.6171431601567
 30
0.0
 11
373.8020054352716
 21
282.7384635037164
 31
0.0
  0
LINE
  5
88C
330
1E
100
AcDbEntity
  8
03
100
AcDbLine
 10
376.8020054352719
 20
635.8278033319366
 30
0.0
 11
376.8020054352719
 21
812.498174314285
 31
0.0
  0
LINE
  5
88D
330
1E
100
AcDbEntity
  8
03
100
AcDbLine
 10
376.8020054352716
 20
277.5278033319364
 30
0.0
 11
376.8020054352716
 21
105.4853855223566
 31
0.0
  0
LINE
  5
88E
330
1E
100
AcDbEntity
  8
03
100
AcDbLine
 10
375.8020054352718
 20
631.6778033319365
 30
0.0
 11
375.8020054352716
 21
281.6778033319366
 31
0.0
  0
LINE
  5
88F
330
1E
100
AcDbEntity
  8
03
100
AcDbLine
 10
377.3020054352698
 20
631.6778033319365
 30
0.0
 11
377.3020054352713
 21
281.6778033319366
 31
0.0
  0
LINE
  5
892
330
1E
100
AcDbEntity
  8
03
100
AcDbLine
 10
374.8626656070516
 20
281.6778033319366
 30
0.0
 11
406.8020054352715
 21
281.6778033319366
 31
0.0
  0
LINE
  5
893
330
1E
100
AcDbEntity
  8
03
100
AcDbLine
 10
406.8020054352715
 20
281.6778033319366
 30
0.0
 11
406.8020054352715
 21
283.6778033319366
 31
0.0
  0
LINE
  5
895
330
1E
100
AcDbEntity
  8
03
100
AcDbLine
 10
373.8020054352716
 20
282.7384635037164
 30
0.0
 11
374.8626656070516
 21
281.6778033319366
 31
0.0
  0
LINE
  5
896
330
1E
100
AcDbEntity
  8
03
100
AcDbLine
 10
374.8626656070516
 20
631.6778033319365
 30
0.0
 11
406.8020054352715
 21
631.6778033319365
 31
0.0
  0
LINE
  5
897
330
1E
100
AcDbEntity
  8
03
100
AcDbLine
 10
373.8020054352721
 20
630.6171431601567
 30
0.0
 11
374.8626656070516
 21
631.6778033319365
 31
0.0
  0
LINE
  5
898
330
1E
100
AcDbEntity
  8
03
100
AcDbLine
 10
406.8020054352715
 20
631.6778033319365
 30
0.0
 11
406.8020054352715
 21
629.6778033319363
 31
0.0
  0
LINE
  5
89A
330
1E
100
AcDbEntity
  8
03
100
AcDbLine
 10
379.3020054352713
 20
309.6778033319366
 30
0.0
 11
379.3020054352713
 21
283.6778033319366
 31
0.0
  0
LINE
  5
89B
330
1E
100
AcDbEntity
  8
03
100
AcDbLine
 10
378.8020054352719
 20
311.6778033319366
 30
0.0
 11
392.3020054352718
 21
311.6778033319366
 31
0.0
  0
ARC
  5
89C
330
1E
100
AcDbEntity
  8
03
100
AcDbCircle
 10
378.8020054352719
 20
310.1778033319366
 30
0.0
 40
1.5
100
AcDbArc
 50
90.0
 51
179.9999999999999
  0
LINE
  5
89D
330
1E
100
AcDbEntity
  8
03
100
AcDbLine
 10
392.3020054352718
 20
311.6778033319366
 30
0.0
 11
392.3020054352721
 21
309.6778033319366
 31
0.0
  0
LINE
  5
89E
330
1E
100
AcDbEntity
  8
03
100
AcDbLine
 10
379.3020054352713
 20
309.6778033319366
 30
0.0
 11
392.3020054352721
 21
309.6778033319366
 31
0.0
  0
ARC
  5
8A0
330
1E
100
AcDbEntity
  8
03
100
AcDbCircle
 10
378.8020054352713
 20
283.1778033319366
 30
0.0
 40
1.5
100
AcDbArc
 50
179.9999999999995
 51
270.0
  0
LINE
  5
8A1
330
1E
100
AcDbEntity
  8
03
100
AcDbLine
 10
392.3020054352721
 20
319.6778033319366
 30
0.0
 11
392.3020054352721
 21
289.6778033319366
 31
0.0
  0
LINE
  5
8A3
330
1E
100
AcDbEntity
  8
03
100
AcDbLine
 10
394.3020054352721
 20
319.6778033319366
 30
0.0
 11
394.3020054352721
 21
291.6778033319366
 31
0.0
  0
LINE
  5
8A4
330
1E
100
AcDbEntity
  8
03
100
AcDbLine
 10
394.3020054352721
 20
291.6778033319366
 30
0.0
 11
406.8020054352715
 21
291.6778033319366
 31
0.0
  0
LINE
  5
8A5
330
1E
100
AcDbEntity
  8
03
100
AcDbLine
 10
406.8020054352715
 20
289.6778033319366
 30
0.0
 11
406.8020054352715
 21
291.6778033319366
 31
0.0
  0
LINE
  5
8A6
330
1E
100
AcDbEntity
  8
03
100
AcDbLine
 10
392.3020054352721
 20
319.6778033319366
 30
0.0
 11
394.3020054352721
 21
319.6778033319366
 31
0.0
  0
LINE
  5
8A7
330
1E
100
AcDbEntity
  8
03
100
AcDbLine
 10
379.30200543527
 20
603.6778033319363
 30
0.0
 11
392.3020054352706
 21
603.6778033319364
 31
0.0
  0
LINE
  5
8A8
330
1E
100
AcDbEntity
  8
03
100
AcDbLine
 10
378.8020054352704
 20
601.6778033319362
 30
0.0
 11
392.3020054352704
 21
601.6778033319362
 31
0.0
  0
LINE
  5
8A9
330
1E
100
AcDbEntity
  8
03
100
AcDbLine
 10
379.30200543527
 20
603.6778033319363
 30
0.0
 11
379.3020054352698
 21
629.6778033319363
 31
0.0
  0
ARC
  5
8AA
330
1E
100
AcDbEntity
  8
03
100
AcDbCircle
 10
378.8020054352697
 20
630.1778033319362
 30
0.0
 40
1.5
100
AcDbArc
 50
90.00000000000055
 51
180.0000000000009
  0
ARC
  5
8AB
330
1E
100
AcDbEntity
  8
03
100
AcDbCircle
 10
378.8020054352704
 20
603.1778033319362
 30
0.0
 40
1.5
100
AcDbArc
 50
180.0000000000006
 51
270.0000000000005
  0
LINE
  5
8AC
330
1E
100
AcDbEntity
  8
03
100
AcDbLine
 10
394.3020054352706
 20
593.6778033319362
 30
0.0
 11
394.3020054352704
 21
621.6778033319362
 31
0.0
  0
LINE
  5
8AD
330
1E
100
AcDbEntity
  8
03
100
AcDbLine
 10
392.3020054352706
 20
593.6778033319362
 30
0.0
 11
392.3020054352704
 21
623.6778033319362
 31
0.0
  0
LINE
  5
8AE
330
1E
100
AcDbEntity
  8
03
100
AcDbLine
 10
394.3020054352704
 20
621.6778033319362
 30
0.0
 11
406.8020054352699
 21
621.6778033319363
 31
0.0
  0
LINE
  5
8AF
330
1E
100
AcDbEntity
  8
03
100
AcDbLine
 10
406.8020054352699
 20
623.6778033319365
 30
0.0
 11
406.8020054352699
 21
621.6778033319363
 31
0.0
  0
LINE
  5
8B0
330
1E
100
AcDbEntity
  8
03
100
AcDbLine
 10
406.8020054352699
 20
631.6778033319365
 30
0.0
 11
406.8020054352699
 21
629.6778033319363
 31
0.0
  0
LINE
  5
8B1
330
1E
100
AcDbEntity
  8
03
100
AcDbLine
 10
392.3020054352706
 20
593.6778033319362
 30
0.0
 11
394.3020054352706
 21
593.6778033319362
 31
0.0
  0
LINE
  5
8B2
330
1E
100
AcDbEntity
  8
03
100
AcDbLine
 10
392.3020054352704
 20
601.6778033319362
 30
0.0
 11
392.3020054352706
 21
603.6778033319364
 31
0.0
  0
LINE
  5
8B3
330
1E
100
AcDbEntity
  8
06
100
AcDbLine
 10
379.8020054352714
 20
536.6778033319368
 30
0.0
 11
379.8020054352722
 21
376.6778033319366
 31
0.0
  0
LINE
  5
8B4
330
1E
100
AcDbEntity
  8
06
100
AcDbLine
 10
462.8020054352713
 20
546.6778033319363
 30
0.0
 11
462.8020054352723
 21
366.6778033319366
 31
0.0
  0
LINE
  5
8B5
330
1E
100
AcDbEntity
  8
03
100
AcDbLine
 10
466.8020054352713
 20
551.6778033319361
 30
0.0
 11
466.8020054352721
 21
361.6778033319366
 31
0.0
  0
LINE
  5
8B7
330
1E
100
AcDbEntity
  8
06
100
AcDbLine
 10
450.3020054352723
 20
366.6778033319366
 30
0.0
 11
462.8020054352723
 21
366.6778033319366
 31
0.0
  0
LINE
  5
8B8
330
1E
100
AcDbEntity
  8
03
100
AcDbLine
 10
466.8020054352721
 20
361.6778033319366
 30
0.0
 11
472.8020054352718
 21
361.6778033319366
 31
0.0
  0
LINE
  5
8BA
330
1E
100
AcDbEntity
  8
06
100
AcDbLine
 10
450.3020054352713
 20
546.6778033319363
 30
0.0
 11
462.8020054352713
 21
546.6778033319363
 31
0.0
  0
LINE
  5
8BB
330
1E
100
AcDbEntity
  8
03
100
AcDbLine
 10
466.8020054352713
 20
551.6778033319361
 30
0.0
 11
472.8020054352723
 21
551.6778033319361
 31
0.0
  0
LINE
  5
8BC
330
1E
100
AcDbEntity
  8
CHUSIN
100
AcDbLine
 10
436.8020054352721
 20
386.6778033319366
 30
0.0
 11
502.8020054352719
 21
386.6778033319366
 31
0.0
  0
LINE
  5
8BD
330
1E
100
AcDbEntity
  8
CHUSIN
100
AcDbLine
 10
436.8020054352721
 20
526.6778033319365
 30
0.0
 11
502.8020054352719
 21
526.6778033319365
 31
0.0
  0
LINE
  5
8BF
330
1E
100
AcDbEntity
  8
03
100
AcDbLine
 10
487.3876987946416
 20
374.6777728143579
 30
0.0
 11
478.8020054352716
 21
374.6777728143579
 31
0.0
  0
LINE
  5
8C7
330
1E
100
AcDbEntity
  8
03
100
AcDbLine
 10
487.3876987946416
 20
398.6777728143581
 30
0.0
 11
478.8020054352716
 21
398.6777728143581
 31
0.0
  0
ARC
  5
8D1
330
1E
100
AcDbEntity
  8
03
100
AcDbCircle
 10
484.9130486451793
 20
377.6777880731473
 30
0.0
 40
3.888956790092026
100
AcDbArc
 50
309.5185122969656
 51
0.0000000000167494
  0
LINE
  5
8D5
330
1E
100
AcDbEntity
  8
03
100
AcDbLine
 10
488.8020054352714
 20
395.6778185907245
 30
0.0
 11
488.8020054352714
 21
377.6777880731486
 31
0.0
  0
LINE
  5
8E4
330
1E
100
AcDbEntity
  8
03
100
AcDbLine
 10
487.3876987946416
 20
538.6778338495149
 30
0.0
 11
478.8020054352716
 21
538.6778338495149
 31
0.0
  0
LINE
  5
8E9
330
1E
100
AcDbEntity
  8
03
100
AcDbLine
 10
487.3876987946416
 20
514.6778338495152
 30
0.0
 11
478.8020054352716
 21
514.6778338495152
 31
0.0
  0
LINE
  5
8ED
330
1E
100
AcDbEntity
  8
03
100
AcDbLine
 10
466.8020054352713
 20
506.6778033319367
 30
0.0
 11
472.8020054352718
 21
506.6778033319367
 31
0.0
  0
LINE
  5
8F0
330
1E
100
AcDbEntity
  8
03
100
AcDbLine
 10
462.8020054352723
 20
374.6778033319366
 30
0.0
 11
466.8020054352721
 21
374.6778033319366
 31
0.0
  0
LINE
  5
8F1
330
1E
100
AcDbEntity
  8
03
100
AcDbLine
 10
462.8020054352721
 20
398.6778033319366
 30
0.0
 11
466.8020054352719
 21
398.6778033319366
 31
0.0
  0
LINE
  5
8F2
330
1E
100
AcDbEntity
  8
03
100
AcDbLine
 10
462.8020054352716
 20
514.6778033319366
 30
0.0
 11
466.8020054352719
 21
514.6778033319366
 31
0.0
  0
LINE
  5
8F3
330
1E
100
AcDbEntity
  8
03
100
AcDbLine
 10
462.8020054352713
 20
538.6778033319366
 30
0.0
 11
466.8020054352721
 21
538.6778033319366
 31
0.0
  0
LINE
  5
8F5
330
1E
100
AcDbEntity
  8
03
100
AcDbLine
 10
375.8020054352718
 20
419.1778033319365
 30
0.0
 11
377.3020054352707
 21
419.1778033319365
 31
0.0
  0
LINE
  5
8F6
330
1E
100
AcDbEntity
  8
03
100
AcDbLine
 10
375.8020054352718
 20
494.1778033319365
 30
0.0
 11
377.3020054352704
 21
494.1778033319365
 31
0.0
  0
LINE
  5
8FE
330
1E
100
AcDbEntity
  8
06
100
AcDbLine
 10
352.8020054352721
 20
606.6778033319365
 30
0.0
 11
352.8020054352718
 21
486.6778033319369
 31
0.0
  0
LINE
  5
8FF
330
1E
100
AcDbEntity
  8
06
100
AcDbLine
 10
339.8020054352719
 20
606.6778033319365
 30
0.0
 11
339.8020054352716
 21
486.6778033319369
 31
0.0
  0
LINE
  5
901
330
1E
100
AcDbEntity
  8
06
100
AcDbLine
 10
339.8020054352716
 20
306.6778033319365
 30
0.0
 11
352.8020054352718
 21
306.6778033319365
 31
0.0
  0
LINE
  5
902
330
1E
100
AcDbEntity
  8
06
100
AcDbLine
 10
339.8020054352719
 20
606.6778033319365
 30
0.0
 11
352.8020054352721
 21
606.6778033319365
 31
0.0
  0
LINE
  5
903
330
1E
100
AcDbEntity
  8
06
100
AcDbLine
 10
367.8020054352718
 20
406.6778033319367
 30
0.0
 11
367.8020054352718
 21
506.6778033319367
 31
0.0
  0
LINE
  5
904
330
1E
100
AcDbEntity
  8
06
100
AcDbLine
 10
367.8020054352718
 20
506.6778033319367
 30
0.0
 11
352.8020054352721
 21
521.6778033319363
 31
0.0
  0
LINE
  5
905
330
1E
100
AcDbEntity
  8
06
100
AcDbLine
 10
367.8020054352708
 20
406.6778033319359
 30
0.0
 11
352.802005435271
 21
391.6778033319363
 31
0.0
  0
LINE
  5
906
330
1E
100
AcDbEntity
  8
CHUSIN
100
AcDbLine
 10
327.8020054352716
 20
326.6778033319365
 30
0.0
 11
362.8020054352719
 21
326.6778033319365
 31
0.0
  0
LINE
  5
907
330
1E
100
AcDbEntity
  8
CHUSIN
100
AcDbLine
 10
327.8020054352718
 20
586.6778033319365
 30
0.0
 11
362.8020054352721
 21
586.6778033319365
 31
0.0
  0
LINE
  5
908
330
1E
100
AcDbEntity
  8
CHUSIN
100
AcDbLine
 10
327.8020054352718
 20
546.6778033319363
 30
0.0
 11
362.8020054352721
 21
546.6778033319363
 31
0.0
  0
LINE
  5
909
330
1E
100
AcDbEntity
  8
CHUSIN
100
AcDbLine
 10
327.8020054352716
 20
366.6778033319364
 30
0.0
 11
362.8020054352719
 21
366.6778033319364
 31
0.0
  0
LINE
  5
90C
330
1E
100
AcDbEntity
  8
03
100
AcDbLine
 10
356.8020054352716
 20
306.6778033319366
 30
0.0
 11
356.8020054352714
 21
281.6778033319366
 31
0.0
  0
LINE
  5
90D
330
1E
100
AcDbEntity
  8
03
100
AcDbLine
 10
356.8020054352718
 20
606.6778033319365
 30
0.0
 11
356.8020054352716
 21
631.6778033319367
 31
0.0
  0
LINE
  5
90E
330
1E
100
AcDbEntity
  8
03
100
AcDbLine
 10
352.8020054352721
 20
606.6778033319365
 30
0.0
 11
356.8020054352718
 21
606.6778033319365
 31
0.0
  0
LINE
  5
90F
330
1E
100
AcDbEntity
  8
03
100
AcDbLine
 10
352.8020054352718
 20
306.6778033319365
 30
0.0
 11
356.8020054352716
 21
306.6778033319366
 31
0.0
  0
LINE
  5
911
330
1E
100
AcDbEntity
  8
03
100
AcDbLine
 10
356.8020054352714
 20
281.6778033319366
 30
0.0
 11
256.8020054352716
 21
281.6778033319366
 31
0.0
  0
LINE
  5
912
330
1E
100
AcDbEntity
  8
03
100
AcDbLine
 10
256.8020054352716
 20
281.6778033319366
 30
0.0
 11
256.8020054352716
 21
631.6778033319367
 31
0.0
  0
LINE
  5
913
330
1E
100
AcDbEntity
  8
03
100
AcDbLine
 10
256.8020054352716
 20
631.6778033319367
 30
0.0
 11
356.8020054352716
 21
631.6778033319367
 31
0.0
  0
LINE
  5
914
330
1E
100
AcDbEntity
  8
03
100
AcDbLine
 10
52.87547791267662
 20
635.8278033319366
 30
0.0
 11
356.8020054352716
 21
635.8278033319367
 31
0.0
  0
LINE
  5
915
330
1E
100
AcDbEntity
  8
03
100
AcDbLine
 10
356.8020054352714
 20
277.5278033319364
 30
0.0
 11
52.87547791267662
 21
277.5278033319364
 31
0.0
  0
LINE
  5
916
330
1E
100
AcDbEntity
  8
03
100
AcDbLine
 10
246.8020054352716
 20
277.5278033319364
 30
0.0
 11
246.8020054352711
 21
387.5278033319364
 31
0.0
  0
LINE
  5
917
330
1E
100
AcDbEntity
  8
03
100
AcDbLine
 10
356.8020054352716
 20
635.8278033319367
 30
0.0
 11
356.8020054352716
 21
791.5353855223568
 31
0.0
  0
LINE
  5
918
330
1E
100
AcDbEntity
  8
03
100
AcDbLine
 10
356.8020054352714
 20
277.5278033319364
 30
0.0
 11
356.8020054352714
 21
105.3853855223569
 31
0.0
  0
LINE
  5
919
330
1E
100
AcDbEntity
  8
03
100
AcDbLine
 10
146.8020054352714
 20
277.5278033319364
 30
0.0
 11
146.8020054352714
 21
105.3853855223569
 31
0.0
  0
LINE
  5
91A
330
1E
100
AcDbEntity
  8
03
100
AcDbLine
 10
146.8020054352715
 20
635.8278033319367
 30
0.0
 11
146.8020054352715
 21
791.5353855223568
 31
0.0
  0
LINE
  5
91F
330
1E
100
AcDbEntity
  8
CHUSIN
100
AcDbLine
 10
52.87547791267662
 20
356.6778033319365
 30
0.0
 11
276.8020054352716
 21
356.6778033319365
 31
0.0
  0
LINE
  5
920
330
1E
100
AcDbEntity
  8
CHUSIN
100
AcDbLine
 10
52.87547791267662
 20
556.6778033319365
 30
0.0
 11
276.8020054352716
 21
556.6778033319365
 31
0.0
  0
LINE
  5
92F
330
1E
100
AcDbEntity
  8
03
100
AcDbLine
 10
251.8020054352716
 20
566.6778033319364
 30
0.0
 11
253.8020054352714
 21
566.6778033319364
 31
0.0
  0
LINE
  5
930
330
1E
100
AcDbEntity
  8
03
100
AcDbLine
 10
251.8020054352716
 20
572.6778033319365
 30
0.0
 11
246.8020054352713
 21
572.6778033319365
 31
0.0
  0
LINE
  5
931
330
1E
100
AcDbEntity
  8
03
100
AcDbLine
 10
255.8020054352714
 20
576.6778033319365
 30
0.0
 11
256.8020054352716
 21
576.6778033319365
 31
0.0
  0
LINE
  5
932
330
1E
100
AcDbEntity
  8
03
100
AcDbLine
 10
253.8020054352714
 20
569.6778033319365
 30
0.0
 11
255.8020054352714
 21
569.6778033319365
 31
0.0
  0
LINE
  5
933
330
1E
100
AcDbEntity
  8
03
100
AcDbLine
 10
251.8020054352716
 20
546.6778033319363
 30
0.0
 11
253.8020054352714
 21
546.6778033319363
 31
0.0
  0
LINE
  5
934
330
1E
100
AcDbEntity
  8
03
100
AcDbLine
 10
251.8020054352716
 20
540.6778033319365
 30
0.0
 11
246.8020054352713
 21
540.6778033319365
 31
0.0
  0
LINE
  5
935
330
1E
100
AcDbEntity
  8
03
100
AcDbLine
 10
255.8020054352714
 20
536.6778033319365
 30
0.0
 11
256.8020054352716
 21
536.6778033319365
 31
0.0
  0
LINE
  5
936
330
1E
100
AcDbEntity
  8
03
100
AcDbLine
 10
253.8020054352714
 20
543.6778033319365
 30
0.0
 11
255.8020054352714
 21
543.6778033319365
 31
0.0
  0
LINE
  5
93F
330
1E
100
AcDbEntity
  8
03
100
AcDbLine
 10
52.87547791267662
 20
387.5278033319364
 30
0.0
 11
246.8020054352711
 21
387.5278033319364
 31
0.0
  0
LINE
  5
940
330
1E
100
AcDbEntity
  8
03
100
AcDbLine
 10
52.87547791267662
 20
525.8278033319364
 30
0.0
 11
246.8020054352713
 21
525.8278033319364
 31
0.0
  0
LINE
  5
941
330
1E
100
AcDbEntity
  8
03
100
AcDbLine
 10
246.8020054352713
 20
525.8278033319364
 30
0.0
 11
246.8020054352716
 21
635.8278033319367
 31
0.0
  0
LINE
  5
942
330
1E
100
AcDbEntity
  8
03
100
AcDbLine
 10
52.87547791267662
 20
417.5278033319364
 30
0.0
 11
246.8020054352711
 21
417.5278033319364
 31
0.0
  0
LINE
  5
943
330
1E
100
AcDbEntity
  8
03
100
AcDbLine
 10
52.87547791267662
 20
495.8278033319365
 30
0.0
 11
246.8020054352713
 21
495.8278033319365
 31
0.0
  0
LINE
  5
944
330
1E
100
AcDbEntity
  8
03
100
AcDbLine
 10
246.8020054352713
 20
525.8278033319364
 30
0.0
 11
246.8020054352713
 21
495.8278033319365
 31
0.0
  0
LINE
  5
945
330
1E
100
AcDbEntity
  8
03
100
AcDbLine
 10
246.8020054352711
 20
387.5278033319364
 30
0.0
 11
246.8020054352711
 21
417.5278033319364
 31
0.0
  0
LINE
  5
946
330
1E
100
AcDbEntity
  8
03
100
AcDbLine
 10
162.8020054352715
 20
635.8278033319367
 30
0.0
 11
162.8020054352715
 21
791.5353855223568
 31
0.0
  0
LINE
  5
947
330
1E
100
AcDbEntity
  8
03
100
AcDbLine
 10
162.8020054352714
 20
277.5278033319364
 30
0.0
 11
162.8020054352714
 21
105.3853855223569
 31
0.0
  0
LINE
  5
948
330
1E
100
AcDbEntity
  8
06
100
AcDbLine
 10
52.87547791267662
 20
494.9278033319365
 30
0.0
 11
339.8020054352716
 21
494.9278033319365
 31
0.0
  0
LINE
  5
94A
330
1E
100
AcDbEntity
  8
06
100
AcDbLine
 10
339.8020054352717
 20
418.4278033319363
 30
0.0
 11
52.87547791267662
 21
418.4278033319363
 31
0.0
  0
LINE
  5
94D
330
1E
100
AcDbEntity
  8
03
100
AcDbLine
 10
356.8020054352721
 20
426.6778033319365
 30
0.0
 11
356.8020054352718
 21
486.6778033319363
 31
0.0
  0
LINE
  5
94E
330
1E
100
AcDbEntity
  8
03
100
AcDbLine
 10
52.87547791267662
 20
486.6778033319365
 30
0.0
 11
356.8020054352718
 21
486.6778033319369
 31
0.0
  0
LINE
  5
94F
330
1E
100
AcDbEntity
  8
03
100
AcDbLine
 10
52.87547791267662
 20
426.6778033319365
 30
0.0
 11
356.8020054352721
 21
426.6778033319369
 31
0.0
  0
LINE
  5
953
330
1E
100
AcDbEntity
  8
03
100
AcDbLine
 10
246.8020054352713
 20
495.8278033319365
 30
0.0
 11
246.8020054352713
 21
417.5278033319364
 31
0.0
  0
LINE
  5
95E
330
1E
100
AcDbEntity
  8
03
100
AcDbLine
 10
258.8020054352716
 20
428.6778033319365
 30
0.0
 11
356.8020054352721
 21
428.6778033319365
 31
0.0
  0
LINE
  5
95F
330
1E
100
AcDbEntity
  8
03
100
AcDbLine
 10
260.8020054352716
 20
430.6778033319365
 30
0.0
 11
270.3020054352716
 21
430.6778033319365
 31
0.0
  0
LINE
  5
960
330
1E
100
AcDbEntity
  8
03
100
AcDbLine
 10
258.8020054352714
 20
484.6778033319365
 30
0.0
 11
356.8020054352718
 21
484.6778033319365
 31
0.0
  0
LINE
  5
961
330
1E
100
AcDbEntity
  8
03
100
AcDbLine
 10
260.8020054352714
 20
482.6778033319365
 30
0.0
 11
270.3020054352714
 21
482.6778033319365
 31
0.0
  0
LINE
  5
962
330
1E
100
AcDbEntity
  8
03
100
AcDbLine
 10
258.8020054352716
 20
428.6778033319365
 30
0.0
 11
258.8020054352714
 21
484.6778033319365
 31
0.0
  0
LINE
  5
963
330
1E
100
AcDbEntity
  8
03
100
AcDbLine
 10
260.8020054352716
 20
430.6778033319365
 30
0.0
 11
260.8020054352714
 21
482.6778033319365
 31
0.0
  0
LINE
  5
964
330
1E
100
AcDbEntity
  8
03
100
AcDbLine
 10
260.8020054352714
 20
480.6778033319365
 30
0.0
 11
269.8020054352714
 21
480.6778033319365
 31
0.0
  0
LINE
  5
965
330
1E
100
AcDbEntity
  8
03
100
AcDbLine
 10
260.8020054352716
 20
432.6778033319365
 30
0.0
 11
269.8020054352716
 21
432.6778033319365
 31
0.0
  0
LINE
  5
966
330
1E
100
AcDbEntity
  8
03
100
AcDbLine
 10
269.8020054352716
 20
432.6778033319365
 30
0.0
 11
269.8020054352714
 21
480.6778033319365
 31
0.0
  0
LINE
  5
967
330
1E
100
AcDbEntity
  8
03
100
AcDbLine
 10
271.8020054352716
 20
432.1778033319365
 30
0.0
 11
271.8020054352714
 21
481.1778033319365
 31
0.0
  0
LINE
  5
969
330
1E
100
AcDbEntity
  8
03
100
AcDbLine
 10
260.8020054352716
 20
430.6778033319365
 30
0.0
 11
356.8020054352718
 21
430.6778033319374
 31
0.0
  0
LINE
  5
96A
330
1E
100
AcDbEntity
  8
03
100
AcDbLine
 10
260.8020054352714
 20
482.6778033319365
 30
0.0
 11
356.8020054352716
 21
482.6778033319365
 31
0.0
  0
ARC
  5
96B
330
1E
100
AcDbEntity
  8
03
100
AcDbCircle
 10
270.3020054352714
 20
481.1778033319365
 30
0.0
 40
1.5
100
AcDbArc
 50
0.0000000000002544
 51
90.0
  0
ARC
  5
96C
330
1E
100
AcDbEntity
  8
03
100
AcDbCircle
 10
270.3020054352716
 20
432.1778033319365
 30
0.0
 40
1.5
100
AcDbArc
 50
270.0
 51
0.0000000000002544
  0
LINE
  5
994
330
1E
100
AcDbEntity
  8
03
100
AcDbLine
 10
148.3020054352715
 20
429.6778033319363
 30
0.0
 11
246.8020054352713
 21
429.6778033319366
 31
0.0
  0
LINE
  5
996
330
1E
100
AcDbEntity
  8
03
100
AcDbLine
 10
148.3020054352715
 20
446.6778033319364
 30
0.0
 11
164.8020054352719
 21
446.6778033319364
 31
0.0
  0
LINE
  5
999
330
1E
100
AcDbEntity
  8
03
100
AcDbLine
 10
148.3020054352715
 20
466.6778033319364
 30
0.0
 11
162.8020054352715
 21
466.6778033319364
 31
0.0
  0
LINE
  5
99A
330
1E
100
AcDbEntity
  8
03
100
AcDbLine
 10
148.3020054352715
 20
481.6778033319365
 30
0.0
 11
162.8020054352715
 21
481.6778033319367
 31
0.0
  0
LINE
  5
99B
330
1E
100
AcDbEntity
  8
03
100
AcDbLine
 10
146.8020054352715
 20
431.1778033319365
 30
0.0
 11
146.8020054352715
 21
445.1778033319365
 31
0.0
  0
ARC
  5
99C
330
1E
100
AcDbEntity
  8
03
100
AcDbCircle
 10
148.3020054352715
 20
445.1778033319365
 30
0.0
 40
1.5
100
AcDbArc
 50
90.00000000000005
 51
180.0000000000004
  0
ARC
  5
99D
330
1E
100
AcDbEntity
  8
03
100
AcDbCircle
 10
148.3020054352715
 20
431.1778033319365
 30
0.0
 40
1.5
100
AcDbArc
 50
180.0000000000004
 51
270.0
  0
LINE
  5
99E
330
1E
100
AcDbEntity
  8
03
100
AcDbLine
 10
146.8020054352715
 20
468.1778033319365
 30
0.0
 11
146.8020054352715
 21
480.1778033319364
 31
0.0
  0
ARC
  5
99F
330
1E
100
AcDbEntity
  8
03
100
AcDbCircle
 10
148.3020054352715
 20
468.1778033319365
 30
0.0
 40
1.5
100
AcDbArc
 50
180.0
 51
270.0
  0
ARC
  5
9A0
330
1E
100
AcDbEntity
  8
03
100
AcDbCircle
 10
148.3020054352715
 20
480.1778033319364
 30
0.0
 40
1.5
100
AcDbArc
 50
90.0
 51
180.0
  0
LINE
  5
9A1
330
1E
100
AcDbEntity
  8
03
100
AcDbLine
 10
162.8020054352715
 20
446.6778033319364
 30
0.0
 11
162.8020054352715
 21
482.1778033319366
 31
0.0
  0
LINE
  5
9A2
330
1E
100
AcDbEntity
  8
03
100
AcDbLine
 10
164.3020054352715
 20
483.6778033319364
 30
0.0
 11
246.8020054352713
 21
483.6778033319364
 31
0.0
  0
ARC
  5
9A3
330
1E
100
AcDbEntity
  8
03
100
AcDbCircle
 10
164.3020054352715
 20
482.1778033319366
 30
0.0
 40
1.5
100
AcDbArc
 50
90.0
 51
180.0
  0
LINE
  5
9A4
330
1E
100
AcDbEntity
  8
03
100
AcDbLine
 10
164.8020054352719
 20
446.6778033319364
 30
0.0
 11
164.8020054352719
 21
481.6778033319365
 31
0.0
  0
LINE
  5
9A5
330
1E
100
AcDbEntity
  8
03
100
AcDbLine
 10
164.8020054352719
 20
481.6778033319365
 30
0.0
 11
246.8020054352713
 21
481.6778033319365
 31
0.0
  0
LINE
  5
9A6
330
1E
100
AcDbEntity
  8
03
100
AcDbLine
 10
166.8020054352719
 20
433.1778033319364
 30
0.0
 11
166.8020054352719
 21
480.1778033319364
 31
0.0
  0
LINE
  5
9A7
330
1E
100
AcDbEntity
  8
03
100
AcDbLine
 10
164.8020054352719
 20
466.6778033319364
 30
0.0
 11
166.8020054352719
 21
466.6778033319364
 31
0.0
  0
LINE
  5
9A8
330
1E
100
AcDbEntity
  8
03
100
AcDbLine
 10
148.8020054352715
 20
444.6778033319366
 30
0.0
 11
165.3020054352718
 21
444.6778033319366
 31
0.0
  0
LINE
  5
9A9
330
1E
100
AcDbEntity
  8
03
100
AcDbLine
 10
148.8020054352715
 20
431.6778033319367
 30
0.0
 11
148.8020054352715
 21
444.6778033319366
 31
0.0
  0
LINE
  5
9AA
330
1E
100
AcDbEntity
  8
03
100
AcDbLine
 10
148.8020054352715
 20
431.6778033319365
 30
0.0
 11
246.8020054352713
 21
431.6778033319367
 31
0.0
  0
LINE
  5
9AB
330
1E
100
AcDbEntity
  8
03
100
AcDbLine
 10
148.8020054352715
 20
468.6778033319365
 30
0.0
 11
162.8020054352715
 21
468.6778033319365
 31
0.0
  0
LINE
  5
9AC
330
1E
100
AcDbEntity
  8
03
100
AcDbLine
 10
148.8020054352715
 20
468.6778033319365
 30
0.0
 11
148.8020054352715
 21
479.6778033319364
 31
0.0
  0
LINE
  5
9AD
330
1E
100
AcDbEntity
  8
03
100
AcDbLine
 10
148.8020054352715
 20
479.6778033319364
 30
0.0
 11
162.8020054352715
 21
479.6778033319366
 31
0.0
  0
ARC
  5
9B0
330
1E
100
AcDbEntity
  8
03
100
AcDbCircle
 10
165.3020054352718
 20
446.1778033319364
 30
0.0
 40
1.5
100
AcDbArc
 50
270.0
 51
359.9999999999996
  0
LINE
  5
9B1
330
1E
100
AcDbEntity
  8
03
100
AcDbLine
 10
168.8020054352721
 20
433.6778033319366
 30
0.0
 11
168.8020054352719
 21
479.6778033319364
 31
0.0
  0
LINE
  5
9B2
330
1E
100
AcDbEntity
  8
03
100
AcDbLine
 10
168.8020054352721
 20
433.6778033319366
 30
0.0
 11
246.8020054352713
 21
433.6778033319363
 31
0.0
  0
LINE
  5
9B3
330
1E
100
AcDbEntity
  8
03
100
AcDbLine
 10
168.8020054352719
 20
479.6778033319364
 30
0.0
 11
246.8020054352713
 21
479.6778033319364
 31
0.0
  0
ARC
  5
9B4
330
1E
100
AcDbEntity
  8
03
100
AcDbCircle
 10
168.3020054352718
 20
433.1778033319364
 30
0.0
 40
1.5
100
AcDbArc
 50
180.0
 51
270.0
  0
ARC
  5
9B5
330
1E
100
AcDbEntity
  8
03
100
AcDbCircle
 10
168.3020054352718
 20
480.1778033319364
 30
0.0
 40
1.5
100
AcDbArc
 50
90.0
 51
180.0
  0
LINE
  5
9B6
330
1E
100
AcDbEntity
  8
03
100
AcDbLine
 10
186.8020054352721
 20
435.1778033319367
 30
0.0
 11
186.8020054352719
 21
478.1778033319366
 31
0.0
  0
LINE
  5
9B7
330
1E
100
AcDbEntity
  8
03
100
AcDbLine
 10
184.8020054352721
 20
435.6778033319367
 30
0.0
 11
184.8020054352718
 21
477.6778033319367
 31
0.0
  0
LINE
  5
9B8
330
1E
100
AcDbEntity
  8
03
100
AcDbLine
 10
168.8020054352719
 20
477.6778033319367
 30
0.0
 11
184.8020054352718
 21
477.6778033319367
 31
0.0
  0
LINE
  5
9B9
330
1E
100
AcDbEntity
  8
03
100
AcDbLine
 10
168.8020054352721
 20
435.6778033319367
 30
0.0
 11
184.8020054352721
 21
435.6778033319367
 31
0.0
  0
ARC
  5
9BA
330
1E
100
AcDbEntity
  8
03
100
AcDbCircle
 10
185.302005435272
 20
435.1778033319367
 30
0.0
 40
1.5
100
AcDbArc
 50
269.9999999999997
 51
0.0000000000002799
  0
ARC
  5
9BB
330
1E
100
AcDbEntity
  8
03
100
AcDbCircle
 10
185.3020054352718
 20
478.1778033319366
 30
0.0
 40
1.5
100
AcDbArc
 50
0.0000000000003053
 51
90.0
  0
LINE
  5
9CA
330
1E
100
AcDbEntity
  8
06
100
AcDbLine
 10
154.8020054352715
 20
450.1778033319364
 30
0.0
 11
162.8020054352715
 21
450.1778033319364
 31
0.0
  0
LINE
  5
9CB
330
1E
100
AcDbEntity
  8
06
100
AcDbLine
 10
162.8020054352715
 20
450.1778033319364
 30
0.0
 11
162.8020054352715
 21
463.1778033319364
 31
0.0
  0
LINE
  5
9CC
330
1E
100
AcDbEntity
  8
06
100
AcDbLine
 10
162.8020054352715
 20
463.1778033319364
 30
0.0
 11
154.8020054352715
 21
463.1778033319364
 31
0.0
  0
LINE
  5
9CD
330
1E
100
AcDbEntity
  8
06
100
AcDbLine
 10
154.8020054352715
 20
463.1778033319364
 30
0.0
 11
154.8020054352715
 21
450.1778033319364
 31
0.0
  0
LINE
  5
9D8
330
1E
100
AcDbEntity
  8
06
100
AcDbLine
 10
52.87547791267662
 20
460.6778033319365
 30
0.0
 11
154.8020054352715
 21
460.6778033319365
 31
0.0
  0
LINE
  5
9D9
330
1E
100
AcDbEntity
  8
06
100
AcDbLine
 10
52.87547791267662
 20
452.6778033319367
 30
0.0
 11
154.8020054352715
 21
452.6778033319367
 31
0.0
  0
LINE
  5
9DA
330
1E
100
AcDbEntity
  8
06
100
AcDbLine
 10
52.87547791267662
 20
459.6778033319365
 30
0.0
 11
154.8020054352715
 21
459.6778033319365
 31
0.0
  0
LINE
  5
9DB
330
1E
100
AcDbEntity
  8
06
100
AcDbLine
 10
52.87547791267662
 20
453.6778033319365
 30
0.0
 11
154.8020054352715
 21
453.6778033319365
 31
0.0
  0
LINE
  5
A12
330
1E
100
AcDbEntity
  8
03
100
AcDbLine
 10
153.2497147657199
 20
481.6778033319367
 30
0.0
 11
155.2497147657199
 21
479.6778033319364
 31
0.0
  0
LINE
  5
A13
330
1E
100
AcDbEntity
  8
03
100
AcDbLine
 10
146.8020054352715
 20
476.1778033319365
 30
0.0
 11
148.8020054352715
 21
474.1778033319365
 31
0.0
  0
LINE
  5
A14
330
1E
100
AcDbEntity
  8
03
100
AcDbLine
 10
154.6812210316811
 20
468.6778033319367
 30
0.0
 11
156.6812210316811
 21
466.6778033319364
 31
0.0
  0
LINE
  5
A15
330
1E
100
AcDbEntity
  8
03
100
AcDbLine
 10
155.0520054352718
 20
446.6778033319366
 30
0.0
 11
157.0520054352718
 21
444.6778033319366
 31
0.0
  0
LINE
  5
A16
330
1E
100
AcDbEntity
  8
03
100
AcDbLine
 10
146.8020054352715
 20
440.1778033319367
 30
0.0
 11
148.8020054352715
 21
438.1778033319366
 31
0.0
  0
LINE
  5
A17
330
1E
100
AcDbEntity
  8
03
100
AcDbLine
 10
159.1399033483003
 20
431.6778033319365
 30
0.0
 11
161.1399033483003
 21
429.6778033319363
 31
0.0
  0
LINE
  5
A18
330
1E
100
AcDbEntity
  8
03
100
AcDbLine
 10
181.7242606985773
 20
431.6778033319365
 30
0.0
 11
183.7242606985773
 21
429.6778033319363
 31
0.0
  0
LINE
  5
A19
330
1E
100
AcDbEntity
  8
03
100
AcDbLine
 10
200.5842981265276
 20
431.6778033319367
 30
0.0
 11
202.5842981265276
 21
429.6778033319366
 31
0.0
  0
LINE
  5
A1A
330
1E
100
AcDbEntity
  8
03
100
AcDbLine
 10
222.8049677610779
 20
431.6778033319367
 30
0.0
 11
224.8049677610779
 21
429.6778033319364
 31
0.0
  0
LINE
  5
A1B
330
1E
100
AcDbEntity
  8
03
100
AcDbLine
 10
162.8020054352719
 20
461.4388287729521
 30
0.0
 11
164.8020054352719
 21
459.4388287729519
 31
0.0
  0
LINE
  5
A1C
330
1E
100
AcDbEntity
  8
03
100
AcDbLine
 10
179.5713201726941
 20
483.6778033319366
 30
0.0
 11
181.5713201726941
 21
481.6778033319365
 31
0.0
  0
LINE
  5
A1D
330
1E
100
AcDbEntity
  8
03
100
AcDbLine
 10
199.9552467957009
 20
483.6778033319366
 30
0.0
 11
201.955246795701
 21
481.6778033319365
 31
0.0
  0
LINE
  5
A1E
330
1E
100
AcDbEntity
  8
03
100
AcDbLine
 10
219.5172360973864
 20
483.6778033319366
 30
0.0
 11
221.5172360973864
 21
481.6778033319367
 31
0.0
  0
LINE
  5
A28
330
1E
100
AcDbEntity
  8
SAISEN
100
AcDbLine
 10
526.8020054352717
 20
522.0831376444662
 30
0.0
 11
576.8020054352717
 21
572.0831376444662
 31
0.0
  0
LINE
  5
A29
330
1E
100
AcDbEntity
  8
SAISEN
100
AcDbLine
 10
526.8020054352717
 20
536.2252732681971
 30
0.0
 11
576.8020054352717
 21
586.2252732681972
 31
0.0
  0
LINE
  5
A2B
330
1E
100
AcDbEntity
  8
SAISEN
100
AcDbLine
 10
526.8020054352717
 20
550.3674088919283
 30
0.0
 11
576.8020054352717
 21
600.3674088919282
 31
0.0
  0
LINE
  5
A2C
330
1E
100
AcDbEntity
  8
SAISEN
100
AcDbLine
 10
526.8020054352717
 20
286.6065163878933
 30
0.0
 11
576.8020054352717
 21
336.6065163878933
 31
0.0
  0
LINE
  5
A2D
330
1E
100
AcDbEntity
  8
SAISEN
100
AcDbLine
 10
526.8020054352717
 20
300.7486520116243
 30
0.0
 11
576.8020054352717
 21
350.7486520116243
 31
0.0
  0
LINE
  5
A2E
330
1E
100
AcDbEntity
  8
SAISEN
100
AcDbLine
 10
526.8020054352717
 20
314.8907876353554
 30
0.0
 11
576.8020054352717
 21
364.8907876353555
 31
0.0
  0
LINE
  5
A30
330
1E
100
AcDbEntity
  8
SAISEN
100
AcDbLine
 10
526.8020054352717
 20
108.0400688456737
 30
0.0
 11
576.8020054352717
 21
158.0400688456738
 31
0.0
  0
LINE
  5
A31
330
1E
100
AcDbEntity
  8
SAISEN
100
AcDbLine
 10
526.8020054352717
 20
122.1822044694049
 30
0.0
 11
576.8020054352717
 21
172.1822044694048
 31
0.0
  0
LINE
  5
A32
330
1E
100
AcDbEntity
  8
SAISEN
100
AcDbLine
 10
526.8020054352717
 20
136.324340093136
 30
0.0
 11
576.8020054352717
 21
186.3243400931359
 31
0.0
  0
LINE
  5
A34
330
1E
100
AcDbEntity
  8
06
100
AcDbLine
 10
148.3020054352715
 20
466.6778033319364
 30
0.0
 11
52.87547791267662
 21
466.6778033319364
 31
0.0
  0
LINE
  5
A35
330
1E
100
AcDbEntity
  8
06
100
AcDbLine
 10
148.3020054352715
 20
446.6778033319364
 30
0.0
 11
52.87547791267662
 21
446.6778033319364
 31
0.0
  0
LINE
  5
A36
330
1E
100
AcDbEntity
  8
03
100
AcDbLine
 10
374.8020054352713
 20
277.5278033319364
 30
0.0
 11
374.8020054352713
 21
105.3853855223569
 31
0.0
  0
LINE
  5
A37
330
1E
100
AcDbEntity
  8
03
100
AcDbLine
 10
374.8020054352716
 20
635.8278033319367
 30
0.0
 11
374.8020054352716
 21
791.5353855223568
 31
0.0
  0
LINE
  5
A38
330
1E
100
AcDbEntity
  8
03
100
AcDbLine
 10
374.8020054352716
 20
635.8278033319367
 30
0.0
 11
356.8020054352718
 21
635.8278033319367
 31
0.0
  0
LINE
  5
A39
330
1E
100
AcDbEntity
  8
03
100
AcDbLine
 10
374.8020054352713
 20
277.5278033319364
 30
0.0
 11
356.8020054352714
 21
277.5278033319364
 31
0.0
  0
LINE
  5
A3C
330
1E
100
AcDbEntity
  8
03
100
AcDbLine
 10
466.8020054352713
 20
546.6778033319363
 30
0.0
 11
466.8020054352715
 21
532.677803331936
 31
0.0
  0
LINE
  5
A3E
330
1E
100
AcDbEntity
  8
03
100
AcDbLine
 10
472.8020054352718
 20
532.677803331936
 30
0.0
 11
472.8020054352716
 21
546.6778033319363
 31
0.0
  0
LINE
  5
A40
330
1E
100
AcDbEntity
  8
03
100
AcDbLine
 10
466.8020054352715
 20
532.677803331936
 30
0.0
 11
466.8020054352715
 21
526.6778033319365
 31
0.0
  0
LINE
  5
A42
330
1E
100
AcDbEntity
  8
03
100
AcDbLine
 10
472.8020054352718
 20
526.6778033319365
 30
0.0
 11
472.8020054352718
 21
532.677803331936
 31
0.0
  0
LINE
  5
A44
330
1E
100
AcDbEntity
  8
03
100
AcDbLine
 10
466.8020054352715
 20
526.6778033319365
 30
0.0
 11
466.8020054352715
 21
520.6778338495151
 31
0.0
  0
LINE
  5
A46
330
1E
100
AcDbEntity
  8
03
100
AcDbLine
 10
472.8020054352718
 20
520.677833849515
 30
0.0
 11
472.8020054352718
 21
526.6778033319365
 31
0.0
  0
LINE
  5
A48
330
1E
100
AcDbEntity
  8
03
100
AcDbLine
 10
466.8020054352715
 20
520.677833849515
 30
0.0
 11
466.8020054352715
 21
506.6778033319365
 31
0.0
  0
LINE
  5
A4A
330
1E
100
AcDbEntity
  8
03
100
AcDbLine
 10
472.8020054352718
 20
506.6778033319367
 30
0.0
 11
472.8020054352718
 21
520.677833849515
 31
0.0
  0
LINE
  5
AA6
330
1E
100
AcDbEntity
  8
06
100
AcDbLine
 10
450.3020054352713
 20
546.6778033319362
 30
0.0
 11
450.3020054352723
 21
366.6778033319364
 31
0.0
  0
LINE
  5
AA7
330
1E
100
AcDbEntity
  8
06
100
AcDbLine
 10
379.8020054352714
 20
536.6778033319368
 30
0.0
 11
450.3020054352715
 21
536.6778033319365
 31
0.0
  0
LINE
  5
AA8
330
1E
100
AcDbEntity
  8
06
100
AcDbLine
 10
379.8020054352722
 20
376.6778033319366
 30
0.0
 11
450.3020054352723
 21
376.6778033319366
 31
0.0
  0
LINE
  5
AAC
330
1E
100
AcDbEntity
  8
03
100
AcDbLine
 10
376.8020054352716
 20
277.5278033319364
 30
0.0
 11
396.8020054352716
 21
277.5278033319364
 31
0.0
  0
LINE
  5
AAE
330
1E
100
AcDbEntity
  8
03
100
AcDbLine
 10
376.8020054352719
 20
635.8278033319366
 30
0.0
 11
396.8020054352718
 21
635.8278033319366
 31
0.0
  0
LINE
  5
AAF
330
1E
100
AcDbEntity
  8
03
100
AcDbLine
 10
396.8020054352718
 20
635.8278033319366
 30
0.0
 11
396.8020054352718
 21
645.8278033319365
 31
0.0
  0
LINE
  5
AB0
330
1E
100
AcDbEntity
  8
03
100
AcDbLine
 10
396.8020054352716
 20
277.5278033319364
 30
0.0
 11
396.8020054352716
 21
267.5278033319364
 31
0.0
  0
DIMENSION
  5
AD9
330
1E
100
AcDbEntity
  8
SUNPOU
100
AcDbDimension
  2
*D1
 10
81.65466895240616
 20
387.5278033319364
 30
0.0
 11
74.90466895240608
 21
332.5278033319364
 31
0.0
 70
    32
  3
SUNPOU_5
100
AcDbAlignedDimension
 13
81.65466895240616
 23
277.5278033319364
 33
0.0
 14
81.65466895240616
 24
387.5278033319364
 34
0.0
 50
90.0
100
AcDbRotatedDimension
  0
DIMENSION
  5
AE6
330
1E
100
AcDbEntity
  8
SUNPOU
100
AcDbDimension
  2
*D2
 10
81.65466895240617
 20
456.6778033319365
 30
0.0
 11
74.9046689524061
 21
401.2056298874311
 31
0.0
 70
   160
  3
SUNPOU_5
100
AcDbAlignedDimension
 13
81.65466895240616
 23
387.5278033319364
 33
0.0
 14
81.65466895240616
 24
456.6778033319365
 34
0.0
 50
90.0
100
AcDbRotatedDimension
1001
ACAD
1000
DSTYLE
1002
{
1070
   271
1070
     2
1002
}
  0
DIMENSION
  5
AF3
330
1E
100
AcDbEntity
  8
SUNPOU
100
AcDbDimension
  2
*D3
 10
81.65466895240617
 20
525.8278033319364
 30
0.0
 11
74.9046689524061
 21
508.301199769529
 31
0.0
 70
   160
  3
SUNPOU_5
100
AcDbAlignedDimension
 13
81.65466895240616
 23
456.6778033319365
 33
0.0
 14
81.65466895240616
 24
525.8278033319364
 34
0.0
 50
90.0
100
AcDbRotatedDimension
1001
ACAD
1000
DSTYLE
1002
{
1070
   271
1070
     2
1002
}
  0
DIMENSION
  5
B00
330
1E
100
AcDbEntity
  8
SUNPOU
100
AcDbDimension
  2
*D4
 10
81.65466895240621
 20
635.8278033319366
 30
0.0
 11
74.90466895240611
 21
580.8278033319366
 31
0.0
 70
    32
  3
SUNPOU_5
100
AcDbAlignedDimension
 13
81.65466895240616
 23
525.8278033319364
 33
0.0
 14
81.65466895240607
 24
635.8278033319366
 34
0.0
 50
90.0
100
AcDbRotatedDimension
  0
DIMENSION
  5
B1F
330
1E
100
AcDbEntity
  8
SUNPOU
100
AcDbDimension
  2
*D5
 10
109.3641582531317
 20
456.6778033319365
 30
0.0
 11
102.6141582531316
 21
406.6778033319365
 31
0.0
 70
    32
  3
SUNPOU_5
100
AcDbAlignedDimension
 13
109.3641582531317
 23
356.6778033319365
 33
0.0
 14
109.3641582531317
 24
456.6778033319365
 34
0.0
 50
90.0
100
AcDbRotatedDimension
  0
DIMENSION
  5
B2C
330
1E
100
AcDbEntity
  8
SUNPOU
100
AcDbDimension
  2
*D6
 10
109.3641582531317
 20
556.6778033319365
 30
0.0
 11
102.6141582531316
 21
506.6778033319365
 31
0.0
 70
    32
  3
SUNPOU_5
100
AcDbAlignedDimension
 13
109.3641582531317
 23
456.6778033319365
 33
0.0
 14
109.3641582531317
 24
556.6778033319365
 34
0.0
 50
90.0
100
AcDbRotatedDimension
  0
DIMENSION
  5
B4B
330
1E
100
AcDbEntity
  8
SUNPOU
100
AcDbDimension
  2
*D7
 10
223.3338158670567
 20
494.9278033319365
 30
0.0
 11
208.1210672654105
 21
456.6778033319365
 31
0.0
 70
   160
  1
中心丸パイプ\P<>
  3
SUNPOU_5
100
AcDbAlignedDimension
 13
223.3338158670567
 23
418.4278033319363
 33
0.0
 14
223.3338158670567
 24
494.9278033319365
 34
0.0
 50
90.0
100
AcDbRotatedDimension
  0
DIMENSION
  5
B58
330
1E
100
AcDbEntity
  8
SUNPOU
100
AcDbDimension
  2
*D8
 10
302.4098404202723
 20
606.6778033319365
 30
0.0
 11
294.6611818043801
 21
455.3713679003179
 31
0.0
 70
   160
  1
φ<>
  3
SUNPOU_5
100
AcDbAlignedDimension
 13
339.8020054352716
 23
306.6778033319365
 33
0.0
 14
339.8020054352719
 24
606.6778033319365
 34
0.0
 50
90.0
100
AcDbRotatedDimension
  0
DIMENSION
  5
B65
330
1E
100
AcDbEntity
  8
SUNPOU
100
AcDbDimension
  2
*D9
 10
315.6313059172402
 20
586.6778033319365
 30
0.0
 11
309.0572296696955
 21
619.8042010638289
 31
0.0
 70
   160
  3
SUNPOU_5
100
AcDbAlignedDimension
 13
340.1262788137173
 23
606.6778033319365
 33
0.0
 14
315.6313059172402
 24
586.6778033319365
 34
0.0
 50
90.0
100
AcDbRotatedDimension
  0
DIMENSION
  5
B8C
330
1E
100
AcDbEntity
  8
SUNPOU
100
AcDbDimension
  2
*D10
 10
315.6313059172402
 20
366.6778033319364
 30
0.0
 11
308.8813059172402
 21
456.6778033319367
 31
0.0
 70
    32
  3
SUNPOU_5
100
AcDbAlignedDimension
 13
315.6313059172402
 23
546.6778033319363
 33
0.0
 14
328.1262788137171
 24
366.6778033319364
 34
0.0
 50
90.0
100
AcDbRotatedDimension
  0
DIMENSION
  5
BA6
330
1E
100
AcDbEntity
  8
SUNPOU
100
AcDbDimension
  2
*D11
 10
315.6313059172403
 20
306.6778033319365
 30
0.0
 11
308.4935539370821
 21
297.6336572044493
 31
0.0
 70
   160
  3
SUNPOU_5
100
AcDbAlignedDimension
 13
315.6313059172403
 23
326.6778033319365
 33
0.0
 14
339.8020054352716
 24
306.6778033319365
 34
0.0
 50
90.0
100
AcDbRotatedDimension
  0
DIMENSION
  5
BEC
330
1E
100
AcDbEntity
  8
SUNPOU
100
AcDbDimension
  2
*D12
 10
352.8020054352718
 20
383.4202286133197
 30
0.0
 11
326.7655649835818
 21
393.3880427365981
 31
0.0
 70
   160
  3
SUNPOU_5
100
AcDbAlignedDimension
 13
339.8020054352716
 23
383.8400313363361
 33
0.0
 14
352.8020054352718
 24
383.8400313363361
 34
0.0
100
AcDbRotatedDimension
1001
ACAD
1000
DSTYLE
1002
{
1070
     7
1000
DOTSMALL
1070
     5
1000

1070
   173
1070
     1
1070
     6
1000
OPEN30
1002
}
  0
DIMENSION
  5
BFB
330
1E
100
AcDbEntity
  8
SUNPOU
100
AcDbDimension
  2
*D13
 10
367.8020054352708
 20
383.4202286133196
 30
0.0
 11
360.2261521636195
 21
373.7422580753942
 31
0.0
 70
   160
  3
SUNPOU_5
100
AcDbAlignedDimension
 13
352.8020054352718
 23
383.8400313363361
 33
0.0
 14
367.8020054352708
 24
406.6778033319359
 34
0.0
100
AcDbRotatedDimension
1001
ACAD
1000
DSTYLE
1002
{
1070
     6
1000
DOTSMALL
1070
     5
1000

1070
   173
1070
     1
1070
     7
1000
DOTSMALL
1002
}
  0
DIMENSION
  5
C0A
330
1E
100
AcDbEntity
  8
SUNPOU
100
AcDbDimension
  2
*D14
 10
373.8020054352718
 20
383.4202286133196
 30
0.0
 11
384.0266197086788
 21
392.0054524570866
 31
0.0
 70
   160
  3
SUNPOU_5
100
AcDbAlignedDimension
 13
367.8020054352708
 23
406.6778033319359
 33
0.0
 14
373.8020054352718
 24
383.4202286133196
 34
0.0
100
AcDbRotatedDimension
1001
ACAD
1000
DSTYLE
1002
{
1070
     6
1000
DOTSMALL
1070
     5
1000

1070
   173
1070
     1
1070
     7
1000
OPEN30
1002
}
  0
DIMENSION
  5
CF2
330
1E
100
AcDbEntity
  8
SUNPOU
100
AcDbDimension
  2
*D16
 10
379.8020054352722
 20
340.5468611331802
 30
0.0
 11
367.1344013551478
 21
349.3540763785182
 31
0.0
 70
   160
  3
SUNPOU_5
100
AcDbAlignedDimension
 13
373.8020054352718
 23
341.8959005822844
 33
0.0
 14
379.8020054352722
 24
366.4034753009011
 34
0.0
100
AcDbRotatedDimension
  0
DIMENSION
  5
D01
330
1E
100
AcDbEntity
  8
SUNPOU
100
AcDbDimension
  2
*D17
 10
462.8020054352723
 20
340.5468611331802
 30
0.0
 11
410.8427239586388
 21
348.1177288809141
 31
0.0
 70
   160
  3
SUNPOU_5
100
AcDbAlignedDimension
 13
379.8020054352722
 23
366.4034753009011
 33
0.0
 14
462.8020054352723
 24
356.4034753009011
 34
0.0
100
AcDbRotatedDimension
  0
DIMENSION
  5
D0E
330
1E
100
AcDbEntity
  8
SUNPOU
100
AcDbDimension
  2
*D18
 10
466.8020054352721
 20
340.5468611331802
 30
0.0
 11
464.8020054352722
 21
329.9845629499476
 31
0.0
 70
   160
  3
SUNPOU_5
100
AcDbAlignedDimension
 13
462.8020054352723
 23
366.6778033319366
 33
0.0
 14
466.8020054352721
 24
361.6778033319366
 34
0.0
100
AcDbRotatedDimension
1001
ACAD
1000
DSTYLE
1002
{
1070
     7
1000
DOTSMALL
1070
     5
1000

1070
   173
1070
     1
1070
     6
1000
OPEN30
1070
   271
1070
     1
1002
}
  0
DIMENSION
  5
D1D
330
1E
100
AcDbEntity
  8
SUNPOU
100
AcDbDimension
  2
*D19
 10
472.8020054352718
 20
340.5468611331802
 30
0.0
 11
485.5165271814435
 21
349.7867867391617
 31
0.0
 70
   160
  3
SUNPOU_5
100
AcDbAlignedDimension
 13
466.8020054352721
 23
351.4034753009013
 33
0.0
 14
472.8020054352718
 24
351.4034753009013
 34
0.0
100
AcDbRotatedDimension
1001
ACAD
1000
DSTYLE
1002
{
1070
     6
1000
DOTSMALL
1070
     5
1000

1070
   173
1070
     1
1070
     7
1000
OPEN30
1002
}
  0
DIMENSION
  5
DCF
330
1E
100
AcDbEntity
  8
SUNPOU
100
AcDbDimension
  2
*D20
 10
552.8259663845946
 20
631.6778033319365
 30
0.0
 11
541.5759663845944
 21
434.7624072938372
 31
0.0
 70
   160
  1
φ<>
  3
SUNPOU_5
100
AcDbAlignedDimension
 13
493.8020054352723
 23
281.6778033319366
 33
0.0
 14
493.8020054352718
 24
631.6778033319365
 34
0.0
 50
90.0
100
AcDbRotatedDimension
  0
DIMENSION
  5
DDC
330
1E
100
AcDbEntity
  8
SUNPOU
100
AcDbDimension
  2
*D21
 10
417.5157873462652
 20
311.6778033319366
 30
0.0
 11
406.2657873462653
 21
300.7254139712471
 31
0.0
 70
   160
  3
SUNPOU_5
100
AcDbAlignedDimension
 13
406.8020054352715
 23
281.6778033319366
 33
0.0
 14
392.3020054352721
 24
311.6778033319366
 34
0.0
 50
90.0
100
AcDbRotatedDimension
  0
DIMENSION
  5
DF6
330
1E
100
AcDbEntity
  8
SUNPOU
100
AcDbDimension
  2
*D22
 10
417.5157873462652
 20
601.6778033319365
 30
0.0
 11
406.2657873462653
 21
610.7175825589422
 31
0.0
 70
   160
  3
SUNPOU_5
100
AcDbAlignedDimension
 13
406.8020054352715
 23
631.6778033319365
 33
0.0
 14
392.3020054352721
 24
601.6778033319365
 34
0.0
 50
270.0
100
AcDbRotatedDimension
  0
DIMENSION
  5
E2E
330
1E
100
AcDbEntity
  8
SUNPOU
100
AcDbDimension
  2
*D23
 10
392.3020054352706
 20
553.9102402708979
 30
0.0
 11
384.1558587970725
 21
563.3356922645999
 31
0.0
 70
   160
  3
SUNPOU_5
100
AcDbAlignedDimension
 13
377.3020054352701
 23
554.3121640558974
 33
0.0
 14
392.3020054352706
 24
593.6778033319362
 34
0.0
100
AcDbRotatedDimension
  0
DIMENSION
  5
E69
330
1E
100
AcDbEntity
  8
SUNPOU
100
AcDbDimension
  2
*D24
 10
406.8020054352715
 20
226.9582100058648
 30
0.0
 11
391.8020054352716
 21
233.7082100058649
 31
0.0
 70
    32
  3
SUNPOU_5
100
AcDbAlignedDimension
 13
376.8020054352716
 23
244.0000130017323
 33
0.0
 14
406.8020054352715
 24
281.6778033319366
 34
0.0
100
AcDbRotatedDimension
  0
DIMENSION
  5
E8A
330
1E
100
AcDbEntity
  8
SUNPOU
100
AcDbDimension
  2
*D25
 10
417.3398760788058
 20
366.6778033319366
 30
0.0
 11
406.0898760788058
 21
364.1778033319367
 31
0.0
 70
    32
  3
SUNPOU_5
100
AcDbAlignedDimension
 13
450.3020054352723
 23
361.6778033319366
 33
0.0
 14
450.3020054352723
 24
366.6778033319366
 34
0.0
 50
90.0
100
AcDbRotatedDimension
  0
DIMENSION
  5
E99
330
1E
100
AcDbEntity
  8
SUNPOU
100
AcDbDimension
  2
*D26
 10
417.3398760788058
 20
546.6778033319363
 30
0.0
 11
406.0898760788058
 21
438.9035790118128
 31
0.0
 70
   160
  3
SUNPOU_5
100
AcDbAlignedDimension
 13
450.3020054352723
 23
366.6778033319366
 33
0.0
 14
450.3020054352713
 24
546.6778033319363
 34
0.0
 50
90.0
100
AcDbRotatedDimension
  0
DIMENSION
  5
EA6
330
1E
100
AcDbEntity
  8
SUNPOU
100
AcDbDimension
  2
*D27
 10
417.3398760788058
 20
551.6778033319361
 30
0.0
 11
406.0898760788058
 21
549.1778033319365
 31
0.0
 70
    32
  3
SUNPOU_5
100
AcDbAlignedDimension
 13
450.3020054352713
 23
546.6778033319363
 33
0.0
 14
450.3020054352723
 24
551.6778033319361
 34
0.0
 50
90.0
100
AcDbRotatedDimension
  0
DIMENSION
  5
F18
330
1E
100
AcDbEntity
  8
SUNPOU
100
AcDbDimension
  2
*D28
 10
376.8020054352719
 20
694.6355062445978
 30
0.0
 11
395.6331133268344
 21
702.183224737191
 31
0.0
 70
   160
  3
SUNPOU_5
100
AcDbAlignedDimension
 13
406.8020054352715
 23
631.6778033319365
 33
0.0
 14
376.8020054352719
 24
635.8278033319366
 34
0.0
100
AcDbRotatedDimension
1001
ACAD
1000
DSTYLE
1002
{
1070
     7
1000
OPEN30
1070
     5
1000

1070
   173
1070
     1
1070
     6
1000
OPEN30
1002
}
  0
DIMENSION
  5
F27
330
1E
100
AcDbEntity
  8
SUNPOU
100
AcDbDimension
  2
*D29
 10
373.8020054352721
 20
694.6355062445978
 30
0.0
 11
382.1892874661298
 21
705.7332250218451
 31
0.0
 70
   160
  3
SUNPOU_5
100
AcDbAlignedDimension
 13
376.8020054352719
 23
635.8278033319366
 33
0.0
 14
373.8020054352721
 24
630.6171431601567
 34
0.0
100
AcDbRotatedDimension
1001
ACAD
1000
DSTYLE
1002
{
1070
     7
1000
DOTSMALL
1070
     5
1000

1070
   173
1070
     1
1070
     6
1000
OPEN30
1002
}
  0
DIMENSION
  5
F36
330
1E
100
AcDbEntity
  8
SUNPOU
100
AcDbDimension
  2
*D30
 10
356.8020054352716
 20
694.6355062445978
 30
0.0
 11
365.3020054352718
 21
701.3855062445978
 31
0.0
 70
    32
  3
SUNPOU_5
100
AcDbAlignedDimension
 13
373.8020054352721
 23
630.6171431601567
 33
0.0
 14
356.8020054352716
 24
694.6355062445978
 34
0.0
100
AcDbRotatedDimension
1001
ACAD
1000
DSTYLE
1002
{
1070
     6
1000
DOTSMALL
1070
     5
1000

1070
   173
1070
     1
1070
     7
1000
NONE
1002
}
  0
DIMENSION
  5
F45
330
1E
100
AcDbEntity
  8
SUNPOU
100
AcDbDimension
  2
*D31
 10
256.8020054352716
 20
694.6355062445978
 30
0.0
 11
306.8020054352716
 21
701.3855062445978
 31
0.0
 70
    32
  3
SUNPOU_5
100
AcDbAlignedDimension
 13
356.8020054352716
 23
694.6355062445978
 33
0.0
 14
256.8020054352716
 24
635.8278033319367
 34
0.0
100
AcDbRotatedDimension
  0
DIMENSION
  5
F52
330
1E
100
AcDbEntity
  8
SUNPOU
100
AcDbDimension
  2
*D32
 10
246.8020054352716
 20
694.6355062445978
 30
0.0
 11
251.8020054352716
 21
705.8855062445978
 31
0.0
 70
    32
  3
SUNPOU_5
100
AcDbAlignedDimension
 13
256.8020054352716
 23
635.8278033319367
 33
0.0
 14
246.8020054352716
 24
656.7522051874044
 34
0.0
100
AcDbRotatedDimension
  0
DIMENSION
  5
F61
330
1E
100
AcDbEntity
  8
SUNPOU
100
AcDbDimension
  2
*D33
 10
146.8020054352715
 20
694.6355062445978
 30
0.0
 11
207.9562095051483
 21
705.8855062445978
 31
0.0
 70
   160
  3
SUNPOU_5
100
AcDbAlignedDimension
 13
246.8020054352716
 23
656.7522051874044
 33
0.0
 14
146.8020054352715
 24
685.3107939120424
 34
0.0
100
AcDbRotatedDimension
  0
MTEXT
  5
FD4
330
1E
100
AcDbEntity
  8
MOJI
100
AcDbMText
 10
366.3320207027549
 20
796.4915388736077
 30
0.0
 40
6.0
 41
0.0
 71
     1
 72
     1
  1
F.L
  7
1_0
 11
0.0000000000000001
 21
1.0
 31
0.0
1001
ACAD
1000
MTEXTBEGIN
1070
    73
1070
     1
1070
    44
1040
1.0
1070
    74
1070
     0
1000
MTEXTEND
1000
MTEXTBEGIN
1070
    73
1070
     1
1070
    44
1040
1.0
1070
    74
1070
     0
1000
MTEXTEND
  0
DIMENSION
  5
FE2
330
1E
100
AcDbEntity
  8
SUNPOU
100
AcDbDimension
  2
*D34
 10
518.4367750774521
 20
386.6778033319366
 30
0.0
 11
507.3848190248968
 21
373.9196398214868
 31
0.0
 70
   160
  3
SUNPOU_5
100
AcDbAlignedDimension
 13
502.8020054352719
 23
361.6778033319366
 33
0.0
 14
502.8020054352719
 24
386.6778033319366
 34
0.0
 50
90.0
100
AcDbRotatedDimension
  0
DIMENSION
  5
FF1
330
1E
100
AcDbEntity
  8
SUNPOU
100
AcDbDimension
  2
*D35
 10
518.4367750774521
 20
526.6778033319365
 30
0.0
 11
507.186775077452
 21
440.7431956708066
 31
0.0
 70
   160
  3
SUNPOU_5
100
AcDbAlignedDimension
 13
502.8020054352719
 23
386.6778033319366
 33
0.0
 14
502.8020054352719
 24
526.6778033319365
 34
0.0
 50
90.0
100
AcDbRotatedDimension
  0
DIMENSION
  5
FFE
330
1E
100
AcDbEntity
  8
SUNPOU
100
AcDbDimension
  2
*D36
 10
518.4367750774521
 20
551.6778033319361
 30
0.0
 11
505.8361596345006
 21
538.2947030033403
 31
0.0
 70
   160
  3
SUNPOU_5
100
AcDbAlignedDimension
 13
502.8020054352719
 23
526.6778033319365
 33
0.0
 14
502.8020054352719
 24
551.6778033319361
 34
0.0
 50
90.0
100
AcDbRotatedDimension
  0
LEADER
  5
106D
330
1E
100
AcDbEntity
  8
HIKIDASI
100
AcDbLeader
  3
SUNPOU_5
 73
     0
 75
     1
 40
7.5
 41
58.00000000000001
 76
     3
 10
373.8020054352716
 20
309.0598312985171
 30
0.0
 10
293.4019090616001
 20
252.9240762751328
 30
0.0
 10
293.4019090616001
 20
245.4240762751327
 30
0.0
340
106E
211
0.0000000000000001
221
1.0
231
0.0
1001
ACAD
1000
DSTYLE
1002
{
1070
     5
1000
OPEN30
1070
    77
1070
     1
1070
   147
1040
1.0
1070
   342
1005
7F5
1002
}
1000
LEANOF
1010
0.0
1020
0.0
1030
0.0
1000
LEANOF
1010
0.0
1020
0.0
1030
0.0
  0
MTEXT
  5
106E
330
1E
100
AcDbEntity
  8
HIKIDASI
 62
     6
100
AcDbMText
 10
290.4019090616001
 20
242.4240762751328
 30
0.0
 40
7.5
 41
0.0
 71
     9
 72
     1
  1
SUS304-2.0t
  7
SUNPOU
 11
0.0000000000000001
 21
1.0
 31
0.0
1001
ACAD
1000
MTEXTBEGIN
1070
    73
1070
     1
1070
    44
1040
1.0
1070
    74
1070
     0
1000
MTEXTEND
1000
MTEXTBEGIN
1070
    73
1070
     1
1070
    44
1040
1.0
1070
    74
1070
     0
1000
MTEXTEND
  0
LEADER
  5
106F
330
1E
100
AcDbEntity
  8
HIKIDASI
100
AcDbLeader
  3
SUNPOU_5
 73
     0
 75
     1
 40
7.500000000000003
 41
72.80000000000001
 76
     3
 10
375.8020054352716
 20
292.7049823576451
 30
0.0
 10
325.8980515745956
 20
255.6308138951731
 30
0.0
 10
325.8980515745956
 20
248.1308138951731
 30
0.0
340
1070
211
0.0000000000000001
221
1.0
231
0.0
1001
ACAD
1000
DSTYLE
1002
{
1070
     5
1000
OPEN30
1070
    77
1070
     1
1070
   147
1040
1.0
1070
   342
1005
7F5
1002
}
1000
LEANOF
1010
0.0
1020
0.0
1030
0.0
1000
LEANOF
1010
0.0
1020
0.0
1030
0.0
  0
MTEXT
  5
1070
330
1E
100
AcDbEntity
  8
HIKIDASI
 62
     6
100
AcDbMText
 10
322.8980515745957
 20
245.1308138951731
 30
0.0
 40
7.5
 41
0.0
 71
     9
 72
     1
  1
ネオプレーンゴム1.5t
  7
SUNPOU
 11
0.0000000000000001
 21
1.0
 31
0.0
1001
ACAD
1000
MTEXTBEGIN
1070
    73
1070
     1
1070
    44
1040
1.0
1070
    74
1070
     0
1000
MTEXTEND
1000
MTEXTBEGIN
1070
    73
1070
     1
1070
    44
1040
1.0
1070
    74
1070
     0
1000
MTEXTEND
  0
LEADER
  5
1071
330
1E
100
AcDbEntity
  8
HIKIDASI
100
AcDbLeader
  3
SUNPOU_5
 73
     0
 75
     1
 40
7.500000000000005
 41
63.2
 76
     3
 10
457.3020054352716
 20
248.5098345819364
 30
0.0
 10
425.4785943348574
 20
209.2411461720674
 30
0.0
 10
425.4785943348574
 20
201.7411461720675
 30
0.0
340
1072
211
0.0000000000000001
221
1.0
231
0.0
1001
ACAD
1000
DSTYLE
1002
{
1070
     5
1000
OPEN30
1070
    77
1070
     1
1070
   147
1040
1.0
1070
   342
1005
7F5
1002
}
1000
LEANOF
1010
0.0
1020
0.0
1030
0.0
1000
LEANOF
1010
0.0
1020
0.0
1030
0.0
  0
MTEXT
  5
1072
330
1E
100
AcDbEntity
  8
HIKIDASI
 62
     6
100
AcDbMText
 10
422.4785943348575
 20
198.7411461720674
 30
0.0
 40
7.5
 41
0.0
 71
     9
 72
     1
  1
調整ボルトM12×7
  7
SUNPOU
 11
0.0000000000000001
 21
1.0
 31
0.0
1001
ACAD
1000
MTEXTBEGIN
1070
    73
1070
     1
1070
    44
1040
1.0
1070
    74
1070
     0
1000
MTEXTEND
1000
MTEXTBEGIN
1070
    73
1070
     1
1070
    44
1040
1.0
1070
    74
1070
     0
1000
MTEXTEND
  0
LEADER
  5
1073
330
1E
100
AcDbEntity
  8
HIKIDASI
100
AcDbLeader
  3
SUNPOU_5
 73
     0
 75
     1
 40
7.5
 41
34.2
 76
     3
 10
493.8020054352723
 20
243.6777422967807
 30
0.0
 10
463.0973646669963
 20
208.0097841851454
 30
0.0
 10
463.0973646669963
 20
200.5097841851454
 30
0.0
340
1074
211
0.0000000000000001
221
1.0
231
0.0
1001
ACAD
1000
DSTYLE
1002
{
1070
     5
1000
OPEN30
1070
    77
1070
     1
1070
   147
1040
1.0
1070
   342
1005
7F5
1002
}
1000
LEANOF
1010
0.0
1020
0.0
1030
0.0
1000
LEANOF
1010
0.0
1020
0.0
1030
0.0
  0
MTEXT
  5
1074
330
1E
100
AcDbEntity
  8
HIKIDASI
 62
     6
100
AcDbMText
 10
460.0973646669963
 20
197.5097841851454
 30
0.0
 40
7.5
 41
0.0
 71
     9
 72
     1
  1
L-5×40
  7
SUNPOU
 11
0.0000000000000001
 21
1.0
 31
0.0
1001
ACAD
1000
MTEXTBEGIN
1070
    73
1070
     1
1070
    44
1040
1.0
1070
    74
1070
     0
1000
MTEXTEND
1000
MTEXTBEGIN
1070
    73
1070
     1
1070
    44
1040
1.0
1070
    74
1070
     0
1000
MTEXTEND
  0
LEADER
  5
1075
330
1E
100
AcDbEntity
  8
HIKIDASI
100
AcDbLeader
  3
SUNPOU_5
 73
     0
 74
     0
 40
7.5
 41
37.2
 76
     2
 10
429.0520054352708
 20
629.6778033319363
 30
0.0
 10
435.4678422580558
 20
660.2242553265624
 30
0.0
340
1076
211
0.0000000000000001
221
1.0
231
0.0
1001
ACAD
1000
DSTYLE
1002
{
1070
     5
1000
OPEN30
1070
    77
1070
     1
1070
   147
1040
1.0
1070
   342
1005
7F5
1002
}
1000
LEANOF
1010
0.0
1020
0.0
1030
0.0
1000
LEANOF
1010
0.0
1020
0.0
1030
0.0
  0
MTEXT
  5
1076
330
1E
100
AcDbEntity
  8
HIKIDASI
 62
     6
100
AcDbMText
 10
428.7178422580558
 20
663.2242553265625
 30
0.0
 40
7.5
 41
0.0
 71
     4
 72
     1
  1
FB6×100
  7
SUNPOU
 11
0.0000000000000001
 21
1.0
 31
0.0
1001
ACAD
1000
MTEXTBEGIN
1070
    73
1070
     1
1070
    44
1040
1.0
1070
    74
1070
     0
1000
MTEXTEND
1000
MTEXTBEGIN
1070
    73
1070
     1
1070
    44
1040
1.0
1070
    74
1070
     0
1000
MTEXTEND
  0
DIMENSION
  5
10C5
330
1E
100
AcDbEntity
  8
SUNPOU
100
AcDbDimension
  2
*D37
 10
356.8020054352714
 20
226.9582100058648
 30
0.0
 11
345.3287099135736
 21
235.8143577798686
 31
0.0
 70
   160
  3
SUNPOU_5
100
AcDbAlignedDimension
 13
376.8020054352716
 23
226.9582100058648
 33
0.0
 14
356.8020054352714
 24
226.9582100058648
 34
0.0
100
AcDbRotatedDimension
  0
LINE
  5
114A
330
1E
100
AcDbEntity
  8
CHUSIN
100
AcDbLine
 10
227.2787937091951
 20
456.6778033319365
 30
0.0
 11
286.7419349357073
 21
456.6778033319365
 31
0.0
  0
LINE
  5
114B
330
1E
100
AcDbEntity
  8
CHUSIN
100
AcDbLine
 10
320.3412264006586
 20
456.6778033319365
 30
0.0
 11
565.0012938578682
 21
456.6778033319365
 31
0.0
  0
LEADER
  5
1171
330
1E
100
AcDbEntity
  8
HIKIDASI
100
AcDbLeader
  3
SUNPOU_5
 73
     0
 74
     0
 75
     1
 40
7.5
 41
62.0
 76
     3
 10
246.8020054352713
 20
556.6778033319361
 30
0.0
 10
210.5820073993318
 20
560.1574009412083
 30
0.0
 10
210.5820073993318
 20
567.6574009412084
 30
0.0
340
1172
211
0.0000000000000001
221
1.0
231
0.0
1001
ACAD
1000
DSTYLE
1002
{
1070
     5
1000
OPEN30
1070
    77
1070
     1
1070
   147
1040
1.0
1070
   342
1005
7F5
1002
}
1000
LEANOF
1010
0.0
1020
0.0
1030
0.0
1000
LEANOF
1010
0.0
1020
0.0
1030
0.0
  0
MTEXT
  5
1172
330
1E
100
AcDbEntity
  8
HIKIDASI
 62
     6
100
AcDbMText
 10
207.5820073993318
 20
632.6574009412084
 30
0.0
 40
7.5
 41
0.0
 71
     9
 72
     1
  1
オートパワーヒンジ
  7
SUNPOU
 11
0.0000000000000001
 21
1.0
 31
0.0
1001
ACAD
1000
MTEXTBEGIN
1070
    73
1070
     1
1070
    44
1040
1.0
1070
    74
1070
     0
1000
MTEXTEND
1000
MTEXTBEGIN
1070
    73
1070
     1
1070
    44
1040
1.0
1070
    74
1070
     0
1000
MTEXTEND
  0
DIMENSION
  5
1173
330
1E
100
AcDbEntity
  8
SUNPOU
100
AcDbDimension
  2
*D38
 10
146.8020054352715
 20
733.1837179419751
 30
0.0
 11
251.8020054352716
 21
739.9337179419751
 31
0.0
 70
    32
  3
SUNPOU_5
100
AcDbAlignedDimension
 13
356.8020054352716
 23
733.1837179419751
 33
0.0
 14
146.8020054352715
 24
733.1837179419751
 34
0.0
100
AcDbRotatedDimension
  0
DIMENSION
  5
1378
330
1E
100
AcDbEntity
  8
SUNPOU
100
AcDbDimension
  2
*D39
 10
315.6313059172402
 20
546.6778033319363
 30
0.0
 11
308.8813059172402
 21
566.6778033319366
 31
0.0
 70
    32
  3
SUNPOU_5
100
AcDbAlignedDimension
 13
327.8020054352718
 23
586.6778033319365
 33
0.0
 14
327.8020054352718
 24
546.6778033319363
 34
0.0
 50
90.0
100
AcDbRotatedDimension
  0
DIMENSION
  5
15E9
330
1E
100
AcDbEntity
  8
SUNPOU
100
AcDbDimension
  2
*D41
 10
478.8020054352716
 20
324.8871339544873
 30
0.0
 11
426.3020054352717
 21
331.6371339544873
 31
0.0
 70
    32
  3
SUNPOU_5
100
AcDbAlignedDimension
 13
373.8020054352716
 23
324.8871339544876
 33
0.0
 14
478.8020054352716
 24
324.8871339544873
 34
0.0
100
AcDbRotatedDimension
  0
ELLIPSE
  5
15F6
330
1E
100
AcDbEntity
  8
SUNPOU
100
AcDbEllipse
 10
376.8020054352716
 20
279.6028033319365
 30
0.0
 11
0.0
 21
-2.075000000000101
 31
0.0
210
0.0
220
0.0
230
1.0
 40
0.5160352501723896
 41
0.0
 42
3.141592653589792
  0
ELLIPSE
  5
15F8
330
1E
100
AcDbEntity
  8
SUNPOU
100
AcDbEllipse
 10
376.80200543527
 20
633.7528033319363
 30
0.0
 11
-0.0000000000000189
 21
2.075000000000101
 31
0.0
210
0.0
220
0.0
230
-1.0
 40
0.5160352501723896
 41
0.0
 42
3.141592653589792
  0
LINE
  5
1648
330
1E
100
AcDbEntity
  8
03
100
AcDbLine
 10
375.8020054352716
 20
295.0818856115511
 30
0.0
 11
377.3020054352713
 21
296.5818856115508
 31
0.0
  0
LINE
  5
1649
330
1E
100
AcDbEntity
  8
03
100
AcDbLine
 10
375.8020054352716
 20
357.8943489290271
 30
0.0
 11
377.3020054352713
 21
359.3943489290268
 31
0.0
  0
LINE
  5
164A
330
1E
100
AcDbEntity
  8
03
100
AcDbLine
 10
375.8020054352716
 20
398.2289715657311
 30
0.0
 11
377.3020054352713
 21
399.7289715657308
 31
0.0
  0
LINE
  5
164B
330
1E
100
AcDbEntity
  8
03
100
AcDbLine
 10
375.8020054352716
 20
522.2459928611068
 30
0.0
 11
377.3020054352713
 21
523.7459928611067
 31
0.0
  0
LINE
  5
164C
330
1E
100
AcDbEntity
  8
03
100
AcDbLine
 10
375.8020054352716
 20
574.1821372229192
 30
0.0
 11
377.3020054352713
 21
575.682137222919
 31
0.0
  0
LINE
  5
164D
330
1E
100
AcDbEntity
  8
03
100
AcDbLine
 10
375.8020054352716
 20
613.6856338905536
 30
0.0
 11
377.3020054352713
 21
615.1856338905534
 31
0.0
  0
DIMENSION
  5
1677
330
1E
100
AcDbEntity
  8
SUNPOU
100
AcDbDimension
  2
*D42
 10
315.6313059172402
 20
366.6778033319364
 30
0.0
 11
308.8813059172402
 21
346.6778033319366
 31
0.0
 70
    32
  3
SUNPOU_5
100
AcDbAlignedDimension
 13
327.8020054352716
 23
326.6778033319365
 33
0.0
 14
327.8020054352716
 24
366.6778033319364
 34
0.0
 50
90.0
100
AcDbRotatedDimension
  0
LINE
  5
1684
330
1E
100
AcDbEntity
  8
03
100
AcDbLine
 10
375.8020054352716
 20
593.7511221512562
 30
0.0
 11
377.3020054352713
 21
595.2511221512561
 31
0.0
  0
LINE
  5
1685
330
1E
100
AcDbEntity
  8
03
100
AcDbLine
 10
375.8020054352716
 20
555.2894930209154
 30
0.0
 11
377.3020054352713
 21
556.7894930209152
 31
0.0
  0
LINE
  5
1686
330
1E
100
AcDbEntity
  8
03
100
AcDbLine
 10
375.8020054352716
 20
539.2620518659214
 30
0.0
 11
377.3020054352713
 21
540.7620518659212
 31
0.0
  0
LINE
  5
1687
330
1E
100
AcDbEntity
  8
03
100
AcDbLine
 10
375.8020054352716
 20
502.648482304473
 30
0.0
 11
377.3020054352713
 21
504.1484823044727
 31
0.0
  0
LINE
  5
1688
330
1E
100
AcDbEntity
  8
03
100
AcDbLine
 10
375.8020054352716
 20
378.2244416551657
 30
0.0
 11
377.3020054352713
 21
379.7244416551655
 31
0.0
  0
LINE
  5
1689
330
1E
100
AcDbEntity
  8
03
100
AcDbLine
 10
375.8020054352716
 20
338.0812379236365
 30
0.0
 11
377.3020054352713
 21
339.5812379236363
 31
0.0
  0
LINE
  5
168A
330
1E
100
AcDbEntity
  8
03
100
AcDbLine
 10
375.8020054352716
 20
315.0168289873422
 30
0.0
 11
377.3020054352713
 21
316.516828987342
 31
0.0
  0
DIMENSION
  5
168B
330
1E
100
AcDbEntity
  8
SUNPOU
100
AcDbDimension
  2
*D43
 10
392.861911820934
 20
494.1778033319363
 30
0.0
 11
386.1119118209338
 21
459.0102763015607
 31
0.0
 70
   160
  1
φ<>
  3
SUNPOU_5
100
AcDbAlignedDimension
 13
377.3020054352708
 23
419.1778033319365
 33
0.0
 14
377.3020054352708
 24
494.1778033319363
 34
0.0
 50
90.0
100
AcDbRotatedDimension
  0
ARC
  5
16EB
330
1E
100
AcDbEntity
  8
03
100
AcDbCircle
 10
484.9130486451795
 20
395.6778185907257
 30
0.0
 40
3.888956790091924
100
AcDbArc
 50
359.9999999999823
 51
50.48148770303502
  0
ARC
  5
16EC
330
1E
100
AcDbEntity
  8
03
100
AcDbCircle
 10
484.9130486451795
 20
535.677818590727
 30
0.0
 40
3.888956790091924
100
AcDbArc
 50
359.9999999999823
 51
50.48148770303502
  0
LINE
  5
16EE
330
1E
100
AcDbEntity
  8
03
100
AcDbLine
 10
488.8020054352714
 20
535.6778185907256
 30
0.0
 11
488.8020054352714
 21
517.6777880731498
 31
0.0
  0
ARC
  5
16F1
330
1E
100
AcDbEntity
  8
03
100
AcDbCircle
 10
484.9130486451793
 20
517.6777880731488
 30
0.0
 40
3.888956790092026
100
AcDbArc
 50
309.5185122969656
 51
0.0000000000167494
  0
ARC
  5
16F5
330
1E
100
AcDbEntity
  8
06
100
AcDbCircle
 10
482.6910366562564
 20
643.845772082608
 30
0.0
 40
3.889031221107471
100
AcDbArc
 50
180.000000015548
 51
230.4798051005982
  0
ARC
  5
16F6
330
1E
100
AcDbEntity
  8
06
100
AcDbCircle
 10
445.6910366562558
 20
643.845772082608
 30
0.0
 40
3.889031221107471
100
AcDbArc
 50
180.000000015548
 51
230.4798051005982
  0
ARC
  5
16FA
330
1E
100
AcDbEntity
  8
06
100
AcDbCircle
 10
445.6910366562562
 20
661.8457720826084
 30
0.0
 40
3.889031221107589
100
AcDbArc
 50
129.5201949305073
 51
180.0000000155531
  0
LINE
  5
16FB
330
1E
100
AcDbEntity
  8
06
100
AcDbLine
 10
441.8020054351483
 20
661.8457720815527
 30
0.0
 11
441.8020054351483
 21
643.8457720815526
 31
0.0
  0
ARC
  5
16FC
330
1E
100
AcDbEntity
  8
06
100
AcDbCircle
 10
482.6910366562564
 20
251.5098345826081
 30
0.0
 40
3.889031221107471
100
AcDbArc
 50
180.000000015548
 51
230.4798051005982
  0
ARC
  5
1700
330
1E
100
AcDbEntity
  8
06
100
AcDbCircle
 10
482.6910366562566
 20
269.5098345826083
 30
0.0
 40
3.889031221107589
100
AcDbArc
 50
129.5201949305073
 51
180.0000000155531
  0
LINE
  5
1701
330
1E
100
AcDbEntity
  8
06
100
AcDbLine
 10
478.8020054351488
 20
269.5098345815527
 30
0.0
 11
478.8020054351488
 21
251.5098345815526
 31
0.0
  0
ARC
  5
1702
330
1E
100
AcDbEntity
  8
06
100
AcDbCircle
 10
451.1910366562563
 20
251.5098345826079
 30
0.0
 40
3.889031221107471
100
AcDbArc
 50
180.000000015548
 51
230.4798051005982
  0
ARC
  5
1706
330
1E
100
AcDbEntity
  8
06
100
AcDbCircle
 10
451.1910366562567
 20
269.5098345826082
 30
0.0
 40
3.889031221107589
100
AcDbArc
 50
129.5201949305073
 51
180.0000000155531
  0
LINE
  5
1707
330
1E
100
AcDbEntity
  8
06
100
AcDbLine
 10
447.3020054351488
 20
269.5098345815527
 30
0.0
 11
447.3020054351488
 21
251.5098345815526
 31
0.0
  0
LINE
  5
1708
330
1E
100
AcDbEntity
  8
03
100
AcDbLine
 10
251.8020054352716
 20
566.6778033319364
 30
0.0
 11
251.8020054352716
 21
572.6778033319365
 31
0.0
  0
LINE
  5
1709
330
1E
100
AcDbEntity
  8
03
100
AcDbLine
 10
251.8020054352716
 20
546.6778033319363
 30
0.0
 11
251.8020054352716
 21
540.6778033319365
 31
0.0
  0
LINE
  5
170A
330
1E
100
AcDbEntity
  8
03
100
AcDbLine
 10
253.8020054352714
 20
546.6778033319363
 30
0.0
 11
253.8020054352714
 21
543.6778033319365
 31
0.0
  0
LINE
  5
170B
330
1E
100
AcDbEntity
  8
03
100
AcDbLine
 10
255.8020054352714
 20
543.6778033319365
 30
0.0
 11
255.8020054352714
 21
536.6778033319365
 31
0.0
  0
LINE
  5
170E
330
1E
100
AcDbEntity
  8
03
100
AcDbLine
 10
253.8020054352714
 20
566.6778033319364
 30
0.0
 11
253.8020054352714
 21
569.6778033319365
 31
0.0
  0
LINE
  5
170F
330
1E
100
AcDbEntity
  8
03
100
AcDbLine
 10
255.8020054352714
 20
569.6778033319365
 30
0.0
 11
255.8020054352714
 21
576.6778033319365
 31
0.0
  0
LINE
  5
1710
330
1E
100
AcDbEntity
  8
03
100
AcDbLine
 10
255.8020054352714
 20
469.6778033319366
 30
0.0
 11
255.8020054352714
 21
476.6778033319365
 31
0.0
  0
LINE
  5
1711
330
1E
100
AcDbEntity
  8
03
100
AcDbLine
 10
253.8020054352714
 20
466.6778033319364
 30
0.0
 11
253.8020054352714
 21
469.6778033319366
 31
0.0
  0
LINE
  5
1712
330
1E
100
AcDbEntity
  8
03
100
AcDbLine
 10
255.8020054352714
 20
443.6778033319365
 30
0.0
 11
255.8020054352714
 21
436.6778033319365
 31
0.0
  0
LINE
  5
1713
330
1E
100
AcDbEntity
  8
03
100
AcDbLine
 10
253.8020054352714
 20
446.6778033319364
 30
0.0
 11
253.8020054352714
 21
443.6778033319365
 31
0.0
  0
LINE
  5
1714
330
1E
100
AcDbEntity
  8
03
100
AcDbLine
 10
251.8020054352716
 20
446.6778033319364
 30
0.0
 11
251.8020054352716
 21
440.6778033319366
 31
0.0
  0
LINE
  5
1715
330
1E
100
AcDbEntity
  8
03
100
AcDbLine
 10
251.8020054352716
 20
466.6778033319364
 30
0.0
 11
251.8020054352716
 21
472.6778033319365
 31
0.0
  0
LINE
  5
1717
330
1E
100
AcDbEntity
  8
03
100
AcDbLine
 10
253.8020054352714
 20
443.6778033319365
 30
0.0
 11
255.8020054352714
 21
443.6778033319365
 31
0.0
  0
LINE
  5
1718
330
1E
100
AcDbEntity
  8
03
100
AcDbLine
 10
255.8020054352714
 20
436.6778033319365
 30
0.0
 11
256.8020054352716
 21
436.6778033319365
 31
0.0
  0
LINE
  5
1719
330
1E
100
AcDbEntity
  8
03
100
AcDbLine
 10
251.8020054352716
 20
440.6778033319366
 30
0.0
 11
246.8020054352713
 21
440.6778033319366
 31
0.0
  0
LINE
  5
171A
330
1E
100
AcDbEntity
  8
03
100
AcDbLine
 10
251.8020054352716
 20
446.6778033319364
 30
0.0
 11
253.8020054352714
 21
446.6778033319364
 31
0.0
  0
LINE
  5
171B
330
1E
100
AcDbEntity
  8
03
100
AcDbLine
 10
253.8020054352714
 20
469.6778033319366
 30
0.0
 11
255.8020054352714
 21
469.6778033319366
 31
0.0
  0
LINE
  5
171C
330
1E
100
AcDbEntity
  8
03
100
AcDbLine
 10
255.8020054352714
 20
476.6778033319365
 30
0.0
 11
256.8020054352716
 21
476.6778033319365
 31
0.0
  0
LINE
  5
171D
330
1E
100
AcDbEntity
  8
03
100
AcDbLine
 10
251.8020054352716
 20
472.6778033319365
 30
0.0
 11
246.8020054352713
 21
472.6778033319365
 31
0.0
  0
LINE
  5
171E
330
1E
100
AcDbEntity
  8
03
100
AcDbLine
 10
251.8020054352716
 20
466.6778033319364
 30
0.0
 11
253.8020054352714
 21
466.6778033319364
 31
0.0
  0
LINE
  5
1734
330
1E
100
AcDbEntity
  8
03
100
AcDbLine
 10
251.8020054352716
 20
366.6778033319364
 30
0.0
 11
253.8020054352714
 21
366.6778033319364
 31
0.0
  0
LINE
  5
1735
330
1E
100
AcDbEntity
  8
03
100
AcDbLine
 10
251.8020054352716
 20
372.6778033319364
 30
0.0
 11
246.8020054352713
 21
372.6778033319364
 31
0.0
  0
LINE
  5
1736
330
1E
100
AcDbEntity
  8
03
100
AcDbLine
 10
255.8020054352714
 20
376.6778033319365
 30
0.0
 11
256.8020054352716
 21
376.6778033319365
 31
0.0
  0
LINE
  5
1737
330
1E
100
AcDbEntity
  8
03
100
AcDbLine
 10
253.8020054352714
 20
369.6778033319365
 30
0.0
 11
255.8020054352714
 21
369.6778033319365
 31
0.0
  0
LINE
  5
1738
330
1E
100
AcDbEntity
  8
03
100
AcDbLine
 10
251.8020054352716
 20
346.6778033319365
 30
0.0
 11
253.8020054352714
 21
346.6778033319365
 31
0.0
  0
LINE
  5
1739
330
1E
100
AcDbEntity
  8
03
100
AcDbLine
 10
251.8020054352716
 20
340.6778033319365
 30
0.0
 11
246.8020054352713
 21
340.6778033319365
 31
0.0
  0
LINE
  5
173A
330
1E
100
AcDbEntity
  8
03
100
AcDbLine
 10
255.8020054352714
 20
336.6778033319365
 30
0.0
 11
256.8020054352716
 21
336.6778033319365
 31
0.0
  0
LINE
  5
173B
330
1E
100
AcDbEntity
  8
03
100
AcDbLine
 10
253.8020054352714
 20
343.6778033319364
 30
0.0
 11
255.8020054352714
 21
343.6778033319364
 31
0.0
  0
LINE
  5
173D
330
1E
100
AcDbEntity
  8
03
100
AcDbLine
 10
251.8020054352716
 20
366.6778033319364
 30
0.0
 11
251.8020054352716
 21
372.6778033319364
 31
0.0
  0
LINE
  5
173E
330
1E
100
AcDbEntity
  8
03
100
AcDbLine
 10
251.8020054352716
 20
346.6778033319365
 30
0.0
 11
251.8020054352716
 21
340.6778033319365
 31
0.0
  0
LINE
  5
173F
330
1E
100
AcDbEntity
  8
03
100
AcDbLine
 10
253.8020054352714
 20
346.6778033319365
 30
0.0
 11
253.8020054352714
 21
343.6778033319364
 31
0.0
  0
LINE
  5
1740
330
1E
100
AcDbEntity
  8
03
100
AcDbLine
 10
255.8020054352714
 20
343.6778033319364
 30
0.0
 11
255.8020054352714
 21
336.6778033319365
 31
0.0
  0
LINE
  5
1741
330
1E
100
AcDbEntity
  8
03
100
AcDbLine
 10
253.8020054352714
 20
366.6778033319364
 30
0.0
 11
253.8020054352714
 21
369.6778033319365
 31
0.0
  0
LINE
  5
1742
330
1E
100
AcDbEntity
  8
03
100
AcDbLine
 10
255.8020054352714
 20
369.6778033319365
 30
0.0
 11
255.8020054352714
 21
376.6778033319365
 31
0.0
  0
LINE
  5
1775
330
1E
100
AcDbEntity
  8
06
100
AcDbLine
 10
339.8020054352717
 20
426.6778033319369
 30
0.0
 11
339.8020054352716
 21
306.6778033319365
 31
0.0
  0
LINE
  5
1776
330
1E
100
AcDbEntity
  8
06
100
AcDbLine
 10
352.802005435272
 20
426.6778033319369
 30
0.0
 11
352.8020054352718
 21
306.6778033319365
 31
0.0
  0
LINE
  5
177B
330
1E
100
AcDbEntity
  8
06
100
AcDbLine
 10
367.8020054352718
 20
481.6778033319365
 30
0.0
 11
373.8020054352718
 21
481.6778033319365
 31
0.0
  0
LINE
  5
177C
330
1E
100
AcDbEntity
  8
06
100
AcDbLine
 10
367.8020054352718
 20
431.6778033319365
 30
0.0
 11
373.8020054352718
 21
431.6778033319365
 31
0.0
  0
MTEXT
  5
1820
330
1E
100
AcDbEntity
  8
MOJI
100
AcDbMText
 10
446.9999999999994
 20
43.50000000000091
 30
0.0
 40
10.5
 41
75.0
 71
     5
 72
     1
  1
図番１９－４
  7
0_80
1001
ACAD
1000
MTEXTBEGIN
1070
    73
1070
     1
1070
    44
1040
1.0
1070
    74
1070
     0
1000
MTEXTEND
1000
MTEXTBEGIN
1070
    73
1070
     1
1070
    44
1040
1.0
1070
    74
1070
     0
1000
MTEXTEND
  0
MTEXT
  5
1821
330
1E
100
AcDbEntity
  8
MOJI
100
AcDbMText
 10
522.0000000000001
 20
42.7500000000009
 30
0.0
 40
10.5
 41
74.99999999999966
 71
     5
 72
     1
  1
下部詳細図
  7
0_80
1001
ACAD
1000
MTEXTBEGIN
1070
    73
1070
     1
1070
    44
1040
1.0
1070
    74
1070
     0
1000
MTEXTEND
1000
MTEXTBEGIN
1070
    73
1070
     1
1070
    44
1040
1.0
1070
    74
1070
     0
1000
MTEXTEND
  0
POLYLINE
  5
1822
330
1E
100
AcDbEntity
  8
SAISEN
100
AcDb2dPolyline
 66
     1
 10
0.0
 20
0.0
 30
0.0
 70
     1
  0
VERTEX
  5
18A1
330
1822
100
AcDbEntity
  8
SAISEN
100
AcDbVertex
100
AcDb2dVertex
 10
34.5
 20
25.5
 30
0.0
  0
VERTEX
  5
18A2
330
1822
100
AcDbEntity
  8
SAISEN
100
AcDbVertex
100
AcDb2dVertex
 10
559.5000000000001
 20
25.5
 30
0.0
  0
VERTEX
  5
18A3
330
1822
100
AcDbEntity
  8
SAISEN
100
AcDbVertex
100
AcDb2dVertex
 10
559.5000000000001
 20
61.50000000000045
 30
0.0
  0
VERTEX
  5
18A4
330
1822
100
AcDbEntity
  8
SAISEN
100
AcDbVertex
100
AcDb2dVertex
 10
34.5
 20
61.50000000000045
 30
0.0
  0
SEQEND
  5
18A5
330
1822
100
AcDbEntity
  8
SAISEN
  0
MTEXT
  5
1823
330
1E
100
AcDbEntity
  8
MOJI
100
AcDbMText
 10
259.5
 20
43.5
 30
0.0
 40
10.5
 41
120.0
 71
     5
 72
     1
  1
ＲＶ－３０００
  7
0_8
1001
ACAD
1000
MTEXTBEGIN
1070
    73
1070
     1
1070
    44
1040
1.0
1070
    74
1070
     0
1000
MTEXTEND
1000
MTEXTBEGIN
1070
    73
1070
     1
1070
    44
1040
1.0
1070
    74
1070
     0
1000
MTEXTEND
  0
MTEXT
  5
1824
330
1E
100
AcDbEntity
  8
MOJI
100
AcDbMText
 10
117.0
 20
43.5
 30
0.0
 40
10.5
 41
165.0
 71
     5
 72
     1
  1
自動式回転ドア
  7
0_8
1001
ACAD
1000
MTEXTBEGIN
1070
    73
1070
     1
1070
    44
1040
1.0
1070
    74
1070
     0
1000
MTEXTEND
1000
MTEXTBEGIN
1070
    73
1070
     1
1070
    44
1040
1.0
1070
    74
1070
     0
1000
MTEXTEND
  0
LINE
  5
1825
330
1E
100
AcDbEntity
  8
SAISEN
100
AcDbLine
 10
199.5
 20
61.50000000000045
 30
0.0
 11
199.5
 21
25.5
 31
0.0
  0
LINE
  5
1826
330
1E
100
AcDbEntity
  8
SAISEN
100
AcDbLine
 10
319.5
 20
61.50000000000045
 30
0.0
 11
319.5
 21
25.5
 31
0.0
  0
MTEXT
  5
1827
330
1E
100
AcDbEntity
  8
MOJI
100
AcDbMText
 10
364.5000000000043
 20
43.5
 30
0.0
 40
10.5
 41
90.0
 71
     5
 72
     1
  1
１８０°回転
  7
0_8
1001
ACAD
1000
MTEXTBEGIN
1070
    73
1070
     1
1070
    44
1040
1.0
1070
    74
1070
     0
1000
MTEXTEND
1000
MTEXTBEGIN
1070
    73
1070
     1
1070
    44
1040
1.0
1070
    74
1070
     0
1000
MTEXTEND
  0
LINE
  5
1828
330
1E
100
AcDbEntity
  8
SAISEN
100
AcDbLine
 10
409.4999999999997
 20
61.50000000000045
 30
0.0
 11
409.4999999999997
 21
25.5
 31
0.0
  0
CIRCLE
  5
1832
330
1E
100
AcDbEntity
  8
SAISEN
100
AcDbCircle
 10
568.6464571176485
 20
74.31453961834759
 30
0.0
 40
7.5
  0
TEXT
  5
1833
330
1E
100
AcDbEntity
  8
MOJI
100
AcDbText
 10
564.0732285588241
 20
67.90726980917404
 30
0.0
 40
12.0
  1
Ｓ
 41
0.8
  7
0_8
 11
564.0732285588241
 21
79.90726980917404
 31
0.0
100
AcDbText
 73
     3
  0
VIEWPORT
  5
1183
102
{ACAD_XDICTIONARY
360
1888
102
}
330
1A
100
AcDbEntity
 67
     1
  8
0
100
AcDbViewport
 10
297.0762449308279
 20
427.7811731031716
 30
0.0
 40
1620.521346201222
 41
942.5302532500083
 68
     1
 69
     1
1001
ACAD
1000
MVIEW
1002
{
1070
    16
1010
0.0
1020
0.0
1030
0.0
1010
0.0
1020
0.0
1030
1.0
1040
0.0
1040
942.5302532500083
1040
297.0762449308279
1040
427.7811731031716
1040
50.0
1040
0.0
1040
0.0
1070
     0
1070
   100
1070
     1
1070
     1
1070
     0
1070
     0
1070
     0
1070
     0
1040
0.0
1040
0.0
1040
0.0
1040
10.0
1040
10.0
1040
10.0
1040
10.0
1070
     0
1002
{
1002
}
1002
}
  0
VIEWPORT
  5
184A
102
{ACAD_XDICTIONARY
360
188E
102
}
330
1A
100
AcDbEntity
 67
     1
  8
DEFPOINTS
100
AcDbViewport
 10
297.0762463614716
 20
427.7811716725279
 30
0.0
 40
594.7324758179631
 41
855.6146041824362
 68
     2
 69
     2
1001
ACAD
1000
MVIEW
1002
{
1070
    16
1010
0.0
1020
0.0
1030
0.0
1010
0.0
1020
0.0
1030
1.0
1040
0.0
1040
855.6146041824362
1040
297.0
1040
420.5
1040
50.0
1040
0.0
1040
0.0
1070
     0
1070
   100
1070
     1
1070
     1
1070
     0
1070
     0
1070
     0
1070
     0
1040
0.0
1040
0.0
1040
0.0
1040
1.0
1040
1.0
1040
0.0
1040
0.0
1070
     0
1002
{
1002
}
1002
}
  0
ENDSEC
  0
SECTION
  2
OBJECTS
  0
DICTIONARY
  5
C
330
0
100
AcDbDictionary
  3
ACAD_COLOR
350
1803
  3
ACAD_GROUP
350
D
  3
ACAD_LAYOUT
350
19
  3
ACAD_MATERIAL
350
1802
  3
ACAD_MLINESTYLE
350
16
  3
ACAD_PLOTSETTINGS
350
18
  3
ACADDIM
350
1170
  3
ASE_INDEX_DICTIONARY
350
180C
1001
ACAD
1000
TREAT_AS_HARD
1070
     0
1000
TREAT_AS_HARD
1070
     0
  0
DICTIONARY
  5
ABB
330
2
100
AcDbDictionary
  3
ACAD_LAYERFILTERS
350
ABC
  3
ACAD_LAYERSTATES
350
AC0
1001
ACAD
1000
TREAT_AS_HARD
1070
     1
1000
TREAT_AS_HARD
1070
     1
  0
DICTIONARY
  5
1798
330
1E
100
AcDbDictionary
  3
ACAD_LAYOUTSELFREF
350
1897
1001
ACAD
1000
TREAT_AS_HARD
1070
     1
  0
DICTIONARY
  5
1796
330
1A
100
AcDbDictionary
  3
ACAD_LAYOUTSELFREF
350
1896
1001
ACAD
1000
TREAT_AS_HARD
1070
     1
  0
DICTIONARY
  5
1888
330
1183
100
AcDbDictionary
  3
ACAD_XREC_ROUNDTRIP
350
1889
1001
ACAD
1000
TREAT_AS_HARD
1070
     1
  0
DICTIONARY
  5
188E
330
184A
100
AcDbDictionary
  3
ACAD_XREC_ROUNDTRIP
350
188F
1001
ACAD
1000
TREAT_AS_HARD
1070
     1
  0
DICTIONARY
  5
1803
102
{ACAD_REACTORS
330
C
102
}
330
C
100
AcDbDictionary
1001
ACAD
1000
TREAT_AS_HARD
1070
     0
  0
DICTIONARY
  5
D
102
{ACAD_REACTORS
330
C
102
}
330
C
100
AcDbDictionary
1001
ACAD
1000
TREAT_AS_HARD
1070
     0
1000
TREAT_AS_HARD
1070
     0
  0
DICTIONARY
  5
19
102
{ACAD_REACTORS
330
C
102
}
330
C
100
AcDbDictionary
1001
ACAD
1000
TREAT_AS_HARD
1070
     0
1000
TREAT_AS_HARD
1070
     0
  0
DICTIONARY
  5
1802
102
{ACAD_REACTORS
330
C
102
}
330
C
100
AcDbDictionary
1001
ACAD
1000
TREAT_AS_HARD
1070
     0
  0
DICTIONARY
  5
16
102
{ACAD_REACTORS
330
C
102
}
330
C
100
AcDbDictionary
  3
STANDARD
350
17
1001
ACAD
1000
TREAT_AS_HARD
1070
     0
1000
TREAT_AS_HARD
1070
     0
  0
DICTIONARY
  5
18
102
{ACAD_REACTORS
330
C
102
}
330
C
100
AcDbDictionary
1001
ACAD
1000
TREAT_AS_HARD
1070
     0
1000
TREAT_AS_HARD
1070
     0
  0
XRECORD
  5
1170
102
{ACAD_REACTORS
330
C
102
}
330
C
100
AcDbXrecord
 90
   990106
  3

 60
     0
 61
     0
 62
     4
 63
     4
 64
     1
 65
     0
 66
     0
 67
     3
 68
     1
 69
     0
 70
     0
 71
     0
 72
     0
 40
0.0
170
     2
340
1172
  0
DICTIONARY
  5
180C
102
{ACAD_REACTORS
330
C
102
}
330
C
100
AcDbDictionary
  3
ASEBLOCKHIERARCHYINDEXRECORD
350
180E
1001
DCO15
1040
1508738732.718
1001
ACAD
1000
TREAT_AS_HARD
1070
     0
  0
DICTIONARY
  5
ABC
102
{ACAD_REACTORS
330
ABB
102
}
330
ABB
100
AcDbDictionary
  3
HIHYOJI
350
ABD
1001
ACAD
1000
TREAT_AS_HARD
1070
     1
1000
TREAT_AS_HARD
1070
     0
  0
DICTIONARY
  5
AC0
102
{ACAD_REACTORS
330
ABB
102
}
330
ABB
100
AcDbDictionary
1001
ACAD
1000
TREAT_AS_HARD
1070
     0
1000
TREAT_AS_HARD
1070
     0
  0
XRECORD
  5
1897
102
{ACAD_REACTORS
330
1798
102
}
330
1798
100
AcDbXrecord
340
1E
  0
XRECORD
  5
1896
102
{ACAD_REACTORS
330
1796
102
}
330
1796
100
AcDbXrecord
340
1A
  0
XRECORD
  5
1889
102
{ACAD_REACTORS
330
1888
102
}
330
1888
100
AcDbXrecord
102
SHADEPLOT
 70
     0
  0
XRECORD
  5
188F
102
{ACAD_REACTORS
330
188E
102
}
330
188E
100
AcDbXrecord
102
SHADEPLOT
 70
     0
  0
MLINESTYLE
  5
17
102
{ACAD_REACTORS
330
16
102
}
330
16
100
AcDbMlineStyle
  2
STANDARD
 70
     0
  3

 62
   256
 51
90.0
 52
90.0
 71
     2
 49
0.5
 62
   256
  6
BYLAYER
 49
-0.5
 62
   256
  6
BYLAYER
  0
XRECORD
  5
180E
102
{ACAD_REACTORS
330
180C
102
}
330
180C
100
AcDbXrecord
330
118F
330
1190
330
1312
330
1313
330
1309
330
130A
330
11AA
330
11AB
330
11B3
330
11B4
330
11BC
330
11BD
330
1763
330
1764
330
13D5
330
13D6
330
13CC
330
13CD
330
13C0
330
13C1
330
1502
330
1503
330
17A6
330
17A7
330
17AF
330
17B0
330
17BA
330
17BB
330
154D
330
154E
330
1498
330
1499
330
17C8
330
17C9
330
17D3
330
17D4
330
1606
330
1607
330
1470
330
1471
330
1434
330
1435
330
144A
330
144B
330
1277
330
1278
330
161E
330
161F
330
128C
330
128D
330
1613
330
1614
330
17DC
330
17DD
330
17E7
330
17E8
330
17EF
330
1666
330
1667
330
1672
330
1673
330
1653
330
1654
330
1629
330
162A
330
12E3
330
12E4
330
1632
330
1633
330
16DA
330
16DB
330
12FF
330
1300
330
13B7
330
13B8
330
15EE
330
15EF
330
167C
330
167D
330
16A5
330
16A6
  0
XRECORD
  5
ABD
102
{ACAD_REACTORS
330
ABC
102
}
330
ABC
100
AcDbXrecord
  1
hihyoji
  1
08,09,*_h
  1
*
  1
*
 70
     0
  1
*
  1
*
  0
ENDSEC
  0
EOF
