  0
SECTION
  2
HEADER
  9
$ACADVER
  1
AC1012
  9
$DWGCODEPAGE
  3
dos932
  9
$INSBASE
 10
0.0
 20
0.0
 30
0.0
  9
$EXTMIN
 10
0.0
 20
0.0
 30
0.0
  9
$EXTMAX
 10
420.0
 20
594.0
 30
0.0
  9
$LIMMIN
 10
0.0
 20
0.0
  9
$LIMMAX
 10
420.0
 20
594.0
  9
$ORTHOMODE
 70
     1
  9
$REGENMODE
 70
     1
  9
$FILLMODE
 70
     1
  9
$QTEXTMODE
 70
     0
  9
$MIRRTEXT
 70
     1
  9
$DRAGMODE
 70
     2
  9
$LTSCALE
 40
0.3
  9
$OSMODE
 70
    37
  9
$ATTMODE
 70
     1
  9
$TEXTSIZE
 40
2.5
  9
$TRACEWID
 40
0.05
  9
$TEXTSTYLE
  7
0_9
  9
$CLAYER
  8
DEFPOINTS
  9
$CELTYPE
  6
BYLAYER
  9
$CECOLOR
 62
   256
  9
$CELTSCALE
 40
1.0
  9
$DELOBJ
 70
     1
  9
$DISPSILH
 70
     0
  9
$DIMSCALE
 40
2.0
  9
$DIMASZ
 40
2.5
  9
$DIMEXO
 40
1.5
  9
$DIMDLI
 40
0.0
  9
$DIMRND
 40
0.0
  9
$DIMDLE
 40
0.0
  9
$DIMEXE
 40
1.0
  9
$DIMTP
 40
0.0
  9
$DIMTM
 40
0.0
  9
$DIMTXT
 40
2.5
  9
$DIMCEN
 40
0.0
  9
$DIMTSZ
 40
0.0
  9
$DIMTOL
 70
     0
  9
$DIMLIM
 70
     0
  9
$DIMTIH
 70
     0
  9
$DIMTOH
 70
     0
  9
$DIMSE1
 70
     0
  9
$DIMSE2
 70
     0
  9
$DIMTAD
 70
     1
  9
$DIMZIN
 70
     8
  9
$DIMBLK
  1
OPEN30
  9
$DIMASO
 70
     1
  9
$DIMSHO
 70
     1
  9
$DIMPOST
  1

  9
$DIMAPOST
  1

  9
$DIMALT
 70
     0
  9
$DIMALTD
 70
     2
  9
$DIMALTF
 40
25.4
  9
$DIMLFAC
 40
1.0
  9
$DIMTOFL
 70
     1
  9
$DIMTVP
 40
0.0
  9
$DIMTIX
 70
     0
  9
$DIMSOXD
 70
     0
  9
$DIMSAH
 70
     0
  9
$DIMBLK1
  1

  9
$DIMBLK2
  1

  9
$DIMSTYLE
  2
SUNPOU_2
  9
$DIMCLRD
 70
   256
  9
$DIMCLRE
 70
   256
  9
$DIMCLRT
 70
   256
  9
$DIMTFAC
 40
1.0
  9
$DIMGAP
 40
1.0
  9
$DIMJUST
 70
     0
  9
$DIMSD1
 70
     0
  9
$DIMSD2
 70
     0
  9
$DIMTOLJ
 70
     1
  9
$DIMTZIN
 70
     0
  9
$DIMALTZ
 70
     0
  9
$DIMALTTZ
 70
     0
  9
$DIMFIT
 70
     3
  9
$DIMUPT
 70
     0
  9
$DIMUNIT
 70
     2
  9
$DIMDEC
 70
     1
  9
$DIMTDEC
 70
     1
  9
$DIMALTU
 70
     2
  9
$DIMALTTD
 70
     2
  9
$DIMTXSTY
  7
SUNPOU
  9
$DIMAUNIT
 70
     0
  9
$LUNITS
 70
     2
  9
$LUPREC
 70
     4
  9
$SKETCHINC
 40
0.1
  9
$FILLETRAD
 40
0.0
  9
$AUNITS
 70
     0
  9
$AUPREC
 70
     0
  9
$MENU
  1
acad
  9
$ELEVATION
 40
0.0
  9
$PELEVATION
 40
0.0
  9
$THICKNESS
 40
0.0
  9
$LIMCHECK
 70
     0
  9
$BLIPMODE
 70
     0
  9
$CHAMFERA
 40
0.0
  9
$CHAMFERB
 40
0.0
  9
$CHAMFERC
 40
0.0
  9
$CHAMFERD
 40
0.0
  9
$SKPOLY
 70
     0
  9
$TDCREATE
 40
2444972.375000000
  9
$TDUPDATE
 40
2453266.399950266
  9
$TDINDWG
 40
0.6223697454
  9
$TDUSRTIMER
 40
0.6223697454
  9
$USRTIMER
 70
     1
  9
$ANGBASE
 50
0.0
  9
$ANGDIR
 70
     0
  9
$PDMODE
 70
     0
  9
$PDSIZE
 40
1.0
  9
$PLINEWID
 40
0.0
  9
$COORDS
 70
     1
  9
$SPLFRAME
 70
     0
  9
$SPLINETYPE
 70
     6
  9
$SPLINESEGS
 70
     8
  9
$ATTDIA
 70
     0
  9
$ATTREQ
 70
     1
  9
$HANDLING
 70
-16383
  9
$HANDSEED
  5
1991
  9
$SURFTAB1
 70
     6
  9
$SURFTAB2
 70
     6
  9
$SURFTYPE
 70
     6
  9
$SURFU
 70
     6
  9
$SURFV
 70
     6
  9
$UCSNAME
  2

  9
$UCSORG
 10
0.0
 20
0.0
 30
0.0
  9
$UCSXDIR
 10
1.0
 20
0.0
 30
0.0
  9
$UCSYDIR
 10
0.0
 20
1.0
 30
0.0
  9
$PUCSNAME
  2

  9
$PUCSORG
 10
0.0
 20
0.0
 30
0.0
  9
$PUCSXDIR
 10
1.0
 20
0.0
 30
0.0
  9
$PUCSYDIR
 10
0.0
 20
1.0
 30
0.0
  9
$USERI1
 70
     0
  9
$USERI2
 70
     0
  9
$USERI3
 70
     0
  9
$USERI4
 70
     0
  9
$USERI5
 70
     0
  9
$USERR1
 40
0.0
  9
$USERR2
 40
0.0
  9
$USERR3
 40
0.0
  9
$USERR4
 40
0.0
  9
$USERR5
 40
0.0
  9
$WORLDVIEW
 70
     1
  9
$SHADEDGE
 70
     3
  9
$SHADEDIF
 70
    70
  9
$TILEMODE
 70
     1
  9
$MAXACTVP
 70
    16
  9
$PINSBASE
 10
0.0
 20
0.0
 30
0.0
  9
$PLIMCHECK
 70
     0
  9
$PEXTMIN
 10
-0.1951870149786146
 20
-0.0484467188152849
 30
-0.0000000349181948
  9
$PEXTMAX
 10
396.296848878459
 20
570.4233469553055
 30
0.0000000814935746
  9
$PLIMMIN
 10
-11.94191342824454
 20
-11.76600219398141
  9
$PLIMMAX
 10
408.0435733360149
 20
582.1408996648768
  9
$UNITMODE
 70
     0
  9
$VISRETAIN
 70
     0
  9
$PLINEGEN
 70
     1
  9
$PSLTSCALE
 70
     0
  9
$TREEDEPTH
 70
  3020
  9
$PICKSTYLE
 70
     1
  9
$CMLSTYLE
  2
STANDARD
  9
$CMLJUST
 70
     0
  9
$CMLSCALE
 40
1.0
  9
$SAVEIMAGES
 70
     1
  0
ENDSEC
  0
SECTION
  2
CLASSES
  0
CLASS
  1
LWPOLYLINE
  2
AcDbPolyline
  3
AutoCAD 2000
 90
    32768
280
     0
281
     1
  0
CLASS
  1
IMAGE
  2
AcDbRasterImage
  3
ISM
 90
    32895
280
     0
281
     1
  0
CLASS
  1
OLE2FRAME
  2
AcDbOle2Frame
  3
AutoCAD 2000
 90
    32768
280
     0
281
     1
  0
CLASS
  1
HATCH
  2
AcDbHatch
  3
AutoCAD 2000
 90
    32768
280
     0
281
     1
  0
CLASS
  1
DICTIONARYVAR
  2
AcDbDictionaryVar
  3
AutoCAD 2000
 90
    32768
280
     0
281
     0
  0
CLASS
  1
RASTERVARIABLES
  2
AcDbRasterVariables
  3
ISM
 90
    32768
280
     0
281
     0
  0
CLASS
  1
IMAGEDEF
  2
AcDbRasterImageDef
  3
ISM
 90
    32768
280
     0
281
     0
  0
CLASS
  1
IMAGEDEF_REACTOR
  2
AcDbRasterImageDefReactor
  3
ISM
 90
    32769
280
     0
281
     0
  0
CLASS
  1
IDBUFFER
  2
AcDbIdBuffer
  3
AutoCAD 2000
 90
    32768
280
     0
281
     0
  0
CLASS
  1
SPATIAL_FILTER
  2
AcDbSpatialFilter
  3
AutoCAD 2000
 90
    32768
280
     0
281
     0
  0
CLASS
  1
XRECORD
  2
AcDbXrecord
  3
AutoCAD 2000
 90
    32768
280
     0
281
     0
  0
CLASS
  1
SORTENTSTABLE
  2
AcDbSortentsTable
  3
AutoCAD 2000
 90
    32768
280
     0
281
     0
  0
CLASS
  1
LAYER_INDEX
  2
AcDbLayerIndex
  3
AutoCAD 2000
 90
    32768
280
     0
281
     0
  0
CLASS
  1
SPATIAL_INDEX
  2
AcDbSpatialIndex
  3
AutoCAD 2000
 90
    32768
280
     0
281
     0
  0
CLASS
  1
OBJECT_PTR
  2
CAseDLPNTableRecord
  3
ASE-LPNTableRecord
 90
    32769
280
     0
281
     0
  0
CLASS
  1
ACDBDICTIONARYWDFLT
  2
AcDbDictionaryWithDefault
  3
AutoCAD 2000
 90
    32768
280
     0
281
     0
  0
CLASS
  1
ACDBPLACEHOLDER
  2
AcDbPlaceHolder
  3
AutoCAD 2000
 90
    32768
280
     0
281
     0
  0
CLASS
  1
LAYOUT
  2
AcDbLayout
  3
AutoCAD 2000
 90
    32768
280
     0
281
     0
  0
CLASS
  1
LONG_TRANSACTION
  2
AcDbLongTransaction
  3
AutoCAD 2000
 90
    32768
280
     0
281
     0
  0
CLASS
  1
LWPOLYLINE
  2
AcDbPolyline
  3
AutoCAD 2000
 90
    32768
280
     0
281
     1
  0
CLASS
  1
HATCH
  2
AcDbHatch
  3
AutoCAD 2000
 90
    32768
280
     0
281
     1
  0
CLASS
  1
XRECORD
  2
AcDbXrecord
  3
AutoCAD 2000
 90
    32768
280
     0
281
     0
  0
CLASS
  1
LONG_TRANSACTION
  2
AcDbLongTransaction
  3
AutoCAD 2000
 90
    32768
280
     0
281
     0
  0
CLASS
  1
LWPOLYLINE
  2
AcDbPolyline
  3
AutoCAD 2000
 90
    32768
280
     0
281
     1
  0
CLASS
  1
HATCH
  2
AcDbHatch
  3
AutoCAD 2000
 90
    32768
280
     0
281
     1
  0
CLASS
  1
XRECORD
  2
AcDbXrecord
  3
AutoCAD 2000
 90
    32768
280
     0
281
     0
  0
ENDSEC
  0
SECTION
  2
TABLES
  0
TABLE
  2
VPORT
  5
7
330
0
100
AcDbSymbolTable
 70
     2
  0
VPORT
  5
1974
330
7
100
AcDbSymbolTableRecord
100
AcDbViewportTableRecord
  2
*ACTIVE
 70
     0
 10
0.0
 20
0.0
 11
1.0
 21
1.0
 12
229.3104323677703
 22
297.0000172889207
 13
0.0
 23
0.0
 14
1.0
 24
1.0
 15
0.0
 25
0.0
 16
0.0
 26
0.0
 36
1.0
 17
0.0
 27
0.0
 37
0.0
 40
600.7617079671213
 41
1.780442804428044
 42
50.0
 43
0.0
 44
0.0
 50
0.0
 51
0.0
 71
     0
 72
   100
 73
     1
 74
     1
 75
     0
 76
     0
 77
     0
 78
     0
  0
ENDTAB
  0
TABLE
  2
LTYPE
  5
4
330
0
100
AcDbSymbolTable
 70
     4
  0
LTYPE
  5
11
330
4
100
AcDbSymbolTableRecord
100
AcDbLinetypeTableRecord
  2
BYBLOCK
 70
     0
  3

 72
    65
 73
     0
 40
0.0
  0
LTYPE
  5
12
330
4
100
AcDbSymbolTableRecord
100
AcDbLinetypeTableRecord
  2
BYLAYER
 70
     0
  3

 72
    65
 73
     0
 40
0.0
  0
LTYPE
  5
13
330
4
100
AcDbSymbolTableRecord
100
AcDbLinetypeTableRecord
  2
CONTINUOUS
 70
     0
  3
Solid line
 72
    65
 73
     0
 40
0.0
  0
LTYPE
  5
21
330
4
100
AcDbSymbolTableRecord
100
AcDbLinetypeTableRecord
  2
DASHED2
 70
     0
  3
Dashed (.5x) _ _ _ _ _ _ _ _ _ _ _ _ _ _ _ _ _
 72
    65
 73
     2
 40
9.524999999999996
 49
6.349999999999998
 74
     0
 49
-3.174999999999998
 74
     0
  0
LTYPE
  5
722
330
4
100
AcDbSymbolTableRecord
100
AcDbLinetypeTableRecord
  2
CENTER2
 70
     0
  3
Center (.5x) ___ _ ___ _ ___ _ ___ _ ___ _ ___
 72
    65
 73
     4
 40
28.57499999999999
 49
19.05
 74
     0
 49
-3.174999999999998
 74
     0
 49
3.174999999999998
 74
     0
 49
-3.174999999999998
 74
     0
  0
LTYPE
  5
723
330
4
100
AcDbSymbolTableRecord
100
AcDbLinetypeTableRecord
  2
PHANTOM2
 70
     0
  3
Phantom (.5x) ___ _ _ ___ _ _ ___ _ _ ___ _ _
 72
    65
 73
     6
 40
31.75
 49
15.875
 74
     0
 49
-3.174999999999998
 74
     0
 49
3.174999999999998
 74
     0
 49
-3.174999999999998
 74
     0
 49
3.174999999999998
 74
     0
 49
-3.174999999999998
 74
     0
  0
ENDTAB
  0
TABLE
  2
LAYER
  5
2
102
{ACAD_XDICTIONARY
360
1913
102
}
330
0
100
AcDbSymbolTable
 70
    12
  0
LAYER
  5
14
330
2
100
AcDbSymbolTableRecord
100
AcDbLayerTableRecord
  2
0
 70
     0
 62
     7
  6
CONTINUOUS
  0
LAYER
  5
724
330
2
100
AcDbSymbolTableRecord
100
AcDbLayerTableRecord
  2
DEFPOINTS
 70
     0
 62
     7
  6
CONTINUOUS
  0
LAYER
  5
727
330
2
100
AcDbSymbolTableRecord
100
AcDbLayerTableRecord
  2
03
 70
     0
 62
     3
  6
CONTINUOUS
  0
LAYER
  5
728
330
2
100
AcDbSymbolTableRecord
100
AcDbLayerTableRecord
  2
04
 70
     0
 62
     4
  6
CONTINUOUS
  0
LAYER
  5
72A
330
2
100
AcDbSymbolTableRecord
100
AcDbLayerTableRecord
  2
06
 70
     0
 62
     6
  6
CONTINUOUS
  0
LAYER
  5
72C
330
2
100
AcDbSymbolTableRecord
100
AcDbLayerTableRecord
  2
CHUSIN
 70
     0
 62
     6
  6
CENTER2
  0
LAYER
  5
72D
330
2
100
AcDbSymbolTableRecord
100
AcDbLayerTableRecord
  2
HIKIDASI
 70
     0
 62
     6
  6
CONTINUOUS
  0
LAYER
  5
72E
330
2
100
AcDbSymbolTableRecord
100
AcDbLayerTableRecord
  2
KAKURE
 70
     0
 62
     6
  6
DASHED2
  0
LAYER
  5
72F
330
2
100
AcDbSymbolTableRecord
100
AcDbLayerTableRecord
  2
MOJI
 70
     0
 62
     3
  6
CONTINUOUS
  0
LAYER
  5
730
330
2
100
AcDbSymbolTableRecord
100
AcDbLayerTableRecord
  2
SOUZOU
 70
     0
 62
     6
  6
PHANTOM2
  0
LAYER
  5
731
330
2
100
AcDbSymbolTableRecord
100
AcDbLayerTableRecord
  2
SUNPOU
 70
     0
 62
     6
  6
CONTINUOUS
  0
LAYER
  5
1212
330
2
100
AcDbSymbolTableRecord
100
AcDbLayerTableRecord
  2
SAISEN
 70
     0
 62
     3
  6
CONTINUOUS
  0
ENDTAB
  0
TABLE
  2
STYLE
  5
3
330
0
100
AcDbSymbolTable
 70
     5
  0
STYLE
  5
17
330
3
100
AcDbSymbolTableRecord
100
AcDbTextStyleTableRecord
  2
STANDARD
 70
     0
 40
0.0
 41
0.8
 50
0.0
 71
     0
 42
7.0
  3
txt.shx
  4
bigfont.shx
  0
STYLE
  5
73C
330
3
100
AcDbSymbolTableRecord
100
AcDbTextStyleTableRecord
  2
SUNPOU
 70
     0
 40
0.0
 41
0.8
 50
0.0
 71
     0
 42
0.2
  3
txt.shx
  4
extfont.shx
  0
STYLE
  5
743
330
3
100
AcDbSymbolTableRecord
100
AcDbTextStyleTableRecord
  2
0_8
 70
     0
 40
0.0
 41
0.8
 50
0.0
 71
     0
 42
6.0
  3
txt.shx
  4
extfont.shx
  0
STYLE
  5
747
330
3
100
AcDbSymbolTableRecord
100
AcDbTextStyleTableRecord
  2
0_9
 70
     0
 40
0.0
 41
0.9
 50
0.0
 71
     0
 42
2.5
  3
txt.shx
  4
extfont.shx
  0
STYLE
  5
1911
330
3
100
AcDbSymbolTableRecord
100
AcDbTextStyleTableRecord
  2
0_80
 70
     0
 40
0.0
 41
0.8
 50
0.0
 71
     0
 42
7.0
  3
txt.shx
  4
extfont.shx
  0
ENDTAB
  0
TABLE
  2
VIEW
  5
5
330
0
100
AcDbSymbolTable
 70
     1
  0
VIEW
  5
136
330
5
100
AcDbSymbolTableRecord
100
AcDbViewTableRecord
  2
QQQQ
 70
     0
 40
618.7999999999998
 10
-6.0
 20
-1.0
 41
419.8999999999999
 11
0.0
 21
0.0
 31
1.0
 12
100.0
 22
100.0
 32
0.0
 42
50.0
 43
0.0
 44
0.0
 50
0.0
 71
     0
  0
ENDTAB
  0
TABLE
  2
UCS
  5
6
330
0
100
AcDbSymbolTable
 70
     0
  0
ENDTAB
  0
TABLE
  2
APPID
  5
8
330
0
100
AcDbSymbolTable
 70
     3
  0
APPID
  5
16
330
8
100
AcDbSymbolTableRecord
100
AcDbRegAppTableRecord
  2
ACAD
 70
     0
  0
APPID
  5
71F
330
8
100
AcDbSymbolTableRecord
100
AcDbRegAppTableRecord
  2
DCO15
 70
     0
  0
APPID
  5
18E8
330
8
100
AcDbSymbolTableRecord
100
AcDbRegAppTableRecord
  2
CONTENTBLOCKICON
 70
     0
  0
ENDTAB
  0
TABLE
  2
DIMSTYLE
  5
9
330
0
100
AcDbSymbolTable
 70
     3
  0
DIMSTYLE
105
77C
102
{ACAD_REACTORS
330
7A1
330
7BB
330
7D5
330
7F1
330
7FE
330
8CC
330
8F4
330
92A
330
937
330
944
330
95E
330
951
330
A12
330
A4B
330
A58
330
A65
330
D22
102
}
330
9
100
AcDbSymbolTableRecord
100
AcDbDimStyleTableRecord
  2
SUNPOU_2
 70
     0
  3

  4

  5
OPEN30
  6

  7

 40
2.0
 41
2.5
 42
1.5
 43
0.0
 44
1.0
 45
0.0
 46
0.0
 47
0.0
 48
0.0
140
2.5
141
0.0
142
0.0
143
25.4
144
1.0
145
0.0
146
1.0
147
1.0
 71
     0
 72
     0
 73
     0
 74
     0
 75
     0
 76
     0
 77
     1
 78
     8
170
     0
171
     2
172
     1
173
     0
174
     0
175
     0
176
   256
177
   256
178
   256
270
     2
271
     1
272
     1
273
     2
274
     2
340
73C
275
     0
280
     0
281
     0
282
     0
283
     1
284
     0
285
     0
286
     0
287
     3
288
     0
  0
DIMSTYLE
105
A96
102
{ACAD_REACTORS
330
ABE
330
AE5
330
B02
330
B1C
330
B32
330
B52
330
B90
330
BC6
102
}
330
9
100
AcDbSymbolTableRecord
100
AcDbDimStyleTableRecord
  2
SUNPOU_2_10
 70
     0
  3

  4

  5
OPEN30
  6

  7

 40
2.0
 41
2.5
 42
1.5
 43
0.0
 44
1.0
 45
0.0
 46
0.0
 47
0.0
 48
0.0
140
2.5
141
0.0
142
0.0
143
25.4
144
10.0
145
0.0
146
1.0
147
1.0
 71
     0
 72
     0
 73
     0
 74
     0
 75
     0
 76
     0
 77
     1
 78
     8
170
     0
171
     2
172
     1
173
     0
174
     0
175
     0
176
   256
177
   256
178
   256
270
     2
271
     1
272
     1
273
     2
274
     2
340
73C
275
     0
280
     0
281
     0
282
     0
283
     1
284
     0
285
     0
286
     0
287
     3
288
     0
  0
DIMSTYLE
105
1480
330
9
100
AcDbSymbolTableRecord
100
AcDbDimStyleTableRecord
  2
STANDARD
 70
     0
  3

  4

  5

  6

  7

 40
1.0
 41
0.18
 42
0.0625
 43
0.38
 44
0.18
 45
0.0
 46
0.0
 47
0.0
 48
0.0
140
0.18
141
0.09
142
0.0
143
25.4
144
1.0
145
0.0
146
1.0
147
0.09
 71
     0
 72
     0
 73
     1
 74
     1
 75
     0
 76
     0
 77
     0
 78
     0
170
     0
171
     2
172
     0
173
     0
174
     0
175
     0
176
     0
177
     0
178
     0
270
     2
271
     4
272
     4
273
     2
274
     2
340
17
275
     0
280
     0
281
     0
282
     0
283
     1
284
     0
285
     0
286
     0
287
     3
288
     0
  0
ENDTAB
  0
TABLE
  2
BLOCK_RECORD
  5
1
330
0
100
AcDbSymbolTable
 70
    26
  0
BLOCK_RECORD
  5
A
102
{ACAD_XDICTIONARY
360
18E4
102
}
330
1
100
AcDbSymbolTableRecord
100
AcDbBlockTableRecord
  2
*MODEL_SPACE
  0
BLOCK_RECORD
  5
B
102
{ACAD_XDICTIONARY
360
18E6
102
}
330
1
100
AcDbSymbolTableRecord
100
AcDbBlockTableRecord
  2
*PAPER_SPACE
  0
BLOCK_RECORD
  5
736
330
1
100
AcDbSymbolTableRecord
100
AcDbBlockTableRecord
  2
_OPEN30
1001
CONTENTBLOCKICON
1071
        0
1004
2800000020000000200000000100080000000000000400000000000000000000000000000000000000000000000080000080000000808000800000008000800080800000C0C0C000C0DCC000F0CAA6000020400000206000002080000020A0000020C0000020E00000400000004020000040400000406000004080000040A0
1004
000040C0000040E00000600000006020000060400000606000006080000060A0000060C0000060E00000800000008020000080400000806000008080000080A0000080C0000080E00000A0000000A0200000A0400000A0600000A0800000A0A00000A0C00000A0E00000C0000000C0200000C0400000C0600000C0800000C0
1004
A00000C0C00000C0E00000E0000000E0200000E0400000E0600000E0800000E0A00000E0C00000E0E00040000000400020004000400040006000400080004000A0004000C0004000E00040200000402020004020400040206000402080004020A0004020C0004020E000404000004040200040404000404060004040800040
1004
40A0004040C0004040E00040600000406020004060400040606000406080004060A0004060C0004060E00040800000408020004080400040806000408080004080A0004080C0004080E00040A0000040A0200040A0400040A0600040A0800040A0A00040A0C00040A0E00040C0000040C0200040C0400040C0600040C08000
1004
40C0A00040C0C00040C0E00040E0000040E0200040E0400040E0600040E0800040E0A00040E0C00040E0E00080000000800020008000400080006000800080008000A0008000C0008000E00080200000802020008020400080206000802080008020A0008020C0008020E00080400000804020008040400080406000804080
1004
008040A0008040C0008040E00080600000806020008060400080606000806080008060A0008060C0008060E00080800000808020008080400080806000808080008080A0008080C0008080E00080A0000080A0200080A0400080A0600080A0800080A0A00080A0C00080A0E00080C0000080C0200080C0400080C0600080C0
1004
800080C0A00080C0C00080C0E00080E0000080E0200080E0400080E0600080E0800080E0A00080E0C00080E0E000C0000000C0002000C0004000C0006000C0008000C000A000C000C000C000E000C0200000C0202000C0204000C0206000C0208000C020A000C020C000C020E000C0400000C0402000C0404000C0406000C0
1004
408000C040A000C040C000C040E000C0600000C0602000C0604000C0606000C0608000C060A000C060C000C060E000C0800000C0802000C0804000C0806000C0808000C080A000C080C000C080E000C0A00000C0A02000C0A04000C0A06000C0A08000C0A0A000C0A0C000C0A0E000C0C00000C0C02000C0C04000C0C06000
1004
C0C08000C0C0A000F0FBFF00A4A0A000808080000000FF0000FF000000FFFF00FF000000FF00FF00FFFF0000FFFFFF0000000000000000000000000000000000000000000000000000000000000000000000000000000000000000000000000000000000000000000000000000000000000000000000000000000000000000
1004
00000000000000000000000000000000000000000000000000000000000000000000000000000000000000000000000000000000000000000000000000000000000000000000000000000000000000000000000000000000000000000000000000000000000000000000000000000000000000000000000000000000000000
1004
000000000000000000000000000000000000000000000000000000000000000000000000000000000000000000000000000000FFFF0000000000000000000000000000000000000000000000000000000000000000FFFFFFFF0000000000000000000000000000000000000000000000000000000000000000FFFFFFFF0000
1004
000000000000000000000000000000000000000000000000000000000000FFFFFF0000000000000000000000000000000000000000000000000000000000000000FFFFFFFF0000000000000000000000000000000000000000000000000000000000000000FFFFFF0000000000000000000000000000000000000000000000
1004
000000000000000000FFFFFFFF0000000000000000000000000000000000000000000000000000000000000000FFFFFFFF00000000FFFFFFFFFFFFFFFFFFFFFFFFFFFFFFFFFFFFFFFFFFFFFFFFFFFFFFFFFFFF00000000000000000000000000000000000000000000000000FFFFFFFF000000000000000000000000000000
1004
000000000000000000FFFFFFFF000000000000000000000000000000000000000000000000FFFFFFFF000000000000000000000000000000000000000000000000FFFFFFFF000000000000000000000000000000000000000000000000FFFFFFFF000000000000000000000000000000000000000000000000FFFFFFFF0000
1004
0000000000000000000000000000000000000000000000FFFFFF0000000000000000000000000000000000000000000000000000000000000000000000000000000000000000000000000000000000000000000000000000000000000000000000000000000000000000000000000000000000000000000000000000000000
1004
00000000000000000000000000000000000000000000000000000000000000000000000000000000000000000000000000000000000000000000000000000000000000000000000000000000000000000000000000000000000000000000000000000000000000000000000000000000000000000000000000000000000000
1004
0000000000000000000000000000000000000000000000000000000000000000000000000000000000000000000000000000000000000000
  0
BLOCK_RECORD
  5
7A2
330
1
100
AcDbSymbolTableRecord
100
AcDbBlockTableRecord
  2
*D1
  0
BLOCK_RECORD
  5
7BC
330
1
100
AcDbSymbolTableRecord
100
AcDbBlockTableRecord
  2
*D2
  0
BLOCK_RECORD
  5
7D6
330
1
100
AcDbSymbolTableRecord
100
AcDbBlockTableRecord
  2
*D3
  0
BLOCK_RECORD
  5
7F2
330
1
100
AcDbSymbolTableRecord
100
AcDbBlockTableRecord
  2
*D4
  0
BLOCK_RECORD
  5
7FF
330
1
100
AcDbSymbolTableRecord
100
AcDbBlockTableRecord
  2
*D5
  0
BLOCK_RECORD
  5
8CD
330
1
100
AcDbSymbolTableRecord
100
AcDbBlockTableRecord
  2
*D6
  0
BLOCK_RECORD
  5
8F5
330
1
100
AcDbSymbolTableRecord
100
AcDbBlockTableRecord
  2
*D7
  0
BLOCK_RECORD
  5
92B
330
1
100
AcDbSymbolTableRecord
100
AcDbBlockTableRecord
  2
*D8
  0
BLOCK_RECORD
  5
938
330
1
100
AcDbSymbolTableRecord
100
AcDbBlockTableRecord
  2
*D9
  0
BLOCK_RECORD
  5
945
330
1
100
AcDbSymbolTableRecord
100
AcDbBlockTableRecord
  2
*D10
  0
BLOCK_RECORD
  5
952
330
1
100
AcDbSymbolTableRecord
100
AcDbBlockTableRecord
  2
*D11
  0
BLOCK_RECORD
  5
95F
330
1
100
AcDbSymbolTableRecord
100
AcDbBlockTableRecord
  2
*D12
  0
BLOCK_RECORD
  5
A13
330
1
100
AcDbSymbolTableRecord
100
AcDbBlockTableRecord
  2
*D13
  0
BLOCK_RECORD
  5
A4C
330
1
100
AcDbSymbolTableRecord
100
AcDbBlockTableRecord
  2
*D14
  0
BLOCK_RECORD
  5
A59
330
1
100
AcDbSymbolTableRecord
100
AcDbBlockTableRecord
  2
*D15
  0
BLOCK_RECORD
  5
A66
330
1
100
AcDbSymbolTableRecord
100
AcDbBlockTableRecord
  2
*D16
  0
BLOCK_RECORD
  5
ABF
330
1
100
AcDbSymbolTableRecord
100
AcDbBlockTableRecord
  2
*D17
  0
BLOCK_RECORD
  5
AE6
330
1
100
AcDbSymbolTableRecord
100
AcDbBlockTableRecord
  2
*D18
  0
BLOCK_RECORD
  5
B03
330
1
100
AcDbSymbolTableRecord
100
AcDbBlockTableRecord
  2
*D19
  0
BLOCK_RECORD
  5
B1D
330
1
100
AcDbSymbolTableRecord
100
AcDbBlockTableRecord
  2
*D20
  0
BLOCK_RECORD
  5
B33
330
1
100
AcDbSymbolTableRecord
100
AcDbBlockTableRecord
  2
*D21
  0
BLOCK_RECORD
  5
B53
330
1
100
AcDbSymbolTableRecord
100
AcDbBlockTableRecord
  2
*D22
  0
BLOCK_RECORD
  5
B91
330
1
100
AcDbSymbolTableRecord
100
AcDbBlockTableRecord
  2
*D23
  0
BLOCK_RECORD
  5
BC7
330
1
100
AcDbSymbolTableRecord
100
AcDbBlockTableRecord
  2
*D24
  0
BLOCK_RECORD
  5
D23
330
1
100
AcDbSymbolTableRecord
100
AcDbBlockTableRecord
  2
*D25
  0
ENDTAB
  0
ENDSEC
  0
SECTION
  2
BLOCKS
  0
BLOCK
  5
D
330
A
100
AcDbEntity
  8
0
100
AcDbBlockBegin
  2
*MODEL_SPACE
 70
     0
 10
0.0
 20
0.0
 30
0.0
  3
*MODEL_SPACE
  1

  0
ENDBLK
  5
E
330
A
100
AcDbEntity
  8
0
100
AcDbBlockEnd
  0
BLOCK
  5
F
330
B
100
AcDbEntity
 67
     1
  8
0
100
AcDbBlockBegin
  2
*PAPER_SPACE
 70
     0
 10
0.0
 20
0.0
 30
0.0
  3
*PAPER_SPACE
  1

  0
ENDBLK
  5
10
330
B
100
AcDbEntity
 67
     1
  8
0
100
AcDbBlockEnd
  0
BLOCK
  5
737
330
736
100
AcDbEntity
  8
0
100
AcDbBlockBegin
  2
_OPEN30
 70
     0
 10
0.0
 20
0.0
 30
0.0
  3
_OPEN30
  1

  0
LINE
  5
738
330
736
100
AcDbEntity
  8
0
  6
BYBLOCK
 62
     0
100
AcDbLine
 10
-1.0
 20
0.26794919
 30
0.0
 11
0.0
 21
0.0
 31
0.0
  0
LINE
  5
739
330
736
100
AcDbEntity
  8
0
  6
BYBLOCK
 62
     0
100
AcDbLine
 10
0.0
 20
0.0
 30
0.0
 11
-1.0
 21
-0.26794919
 31
0.0
  0
LINE
  5
73A
330
736
100
AcDbEntity
  8
0
  6
BYBLOCK
 62
     0
100
AcDbLine
 10
0.0
 20
0.0
 30
0.0
 11
-1.0
 21
0.0
 31
0.0
  0
ENDBLK
  5
73B
330
736
100
AcDbEntity
  8
0
100
AcDbBlockEnd
  0
BLOCK
  5
7AD
330
7A2
100
AcDbEntity
  8
0
100
AcDbBlockBegin
  2
*D1
 70
     1
 10
0.0
 20
0.0
 30
0.0
  3
*D1
  1

  0
LINE
  5
187C
330
7A2
100
AcDbEntity
  8
SUNPOU
100
AcDbLine
 10
262.336743216856
 20
506.5268843444207
 30
0.0
 11
262.336743216856
 21
525.5268843444205
 31
0.0
  0
LINE
  5
187D
330
7A2
100
AcDbEntity
  8
SUNPOU
100
AcDbLine
 10
332.3367432168562
 20
506.5268843444204
 30
0.0
 11
332.3367432168562
 21
525.5268843444205
 31
0.0
  0
LINE
  5
187E
330
7A2
100
AcDbEntity
  8
SUNPOU
100
AcDbLine
 10
267.336743216856
 20
523.5268843444205
 30
0.0
 11
327.3367432168561
 21
523.5268843444205
 31
0.0
  0
MTEXT
  5
187F
330
7A2
100
AcDbEntity
  8
SUNPOU
100
AcDbMText
 10
297.3367432168561
 20
518.999682808487
 30
0.0
 40
5.0
 41
0.0
 71
     5
 72
     1
  1
\A1;70
  7
SUNPOU
 11
-1.0
 21
0.0000000000000001
 31
0.0
1001
ACAD
1000
MTEXTBEGIN
1070
    73
1070
     1
1070
    44
1040
1.0
1070
    74
1070
     0
1000
MTEXTEND
1000
MTEXTBEGIN
1070
    73
1070
     1
1070
    44
1040
1.0
1070
    74
1070
     0
1000
MTEXTEND
  0
INSERT
  5
1880
330
7A2
100
AcDbEntity
  8
SUNPOU
100
AcDbBlockReference
  2
_OPEN30
 10
262.336743216856
 20
523.5268843444205
 30
0.0
 41
5.0
 42
5.0
 43
5.0
 50
180.0
  0
INSERT
  5
1881
330
7A2
100
AcDbEntity
  8
SUNPOU
100
AcDbBlockReference
  2
_OPEN30
 10
332.3367432168562
 20
523.5268843444205
 30
0.0
 41
5.0
 42
5.0
 43
5.0
  0
POINT
  5
1882
330
7A2
100
AcDbEntity
  8
DEFPOINTS
 62
     0
100
AcDbPoint
 10
262.336743216856
 20
503.5268843444207
 30
0.0
  0
POINT
  5
1883
330
7A2
100
AcDbEntity
  8
DEFPOINTS
 62
     0
100
AcDbPoint
 10
332.3367432168562
 20
503.5268843444206
 30
0.0
  0
POINT
  5
1884
330
7A2
100
AcDbEntity
  8
DEFPOINTS
 62
     0
100
AcDbPoint
 10
332.3367432168562
 20
523.5268843444205
 30
0.0
  0
ENDBLK
  5
7AE
330
7A2
100
AcDbEntity
  8
0
100
AcDbBlockEnd
  0
BLOCK
  5
7C6
330
7BC
100
AcDbEntity
  8
0
100
AcDbBlockBegin
  2
*D2
 70
     1
 10
0.0
 20
0.0
 30
0.0
  3
*D2
  1

  0
LINE
  5
1871
330
7BC
100
AcDbEntity
  8
SUNPOU
100
AcDbLine
 10
262.336743216856
 20
470.5268843444208
 30
0.0
 11
262.336743216856
 21
456.633742396974
 31
0.0
  0
LINE
  5
1872
330
7BC
100
AcDbEntity
  8
SUNPOU
100
AcDbLine
 10
276.336743216856
 20
465.3068843444207
 30
0.0
 11
276.336743216856
 21
456.633742396974
 31
0.0
  0
LINE
  5
1873
330
7BC
100
AcDbEntity
  8
SUNPOU
100
AcDbLine
 10
257.336743216856
 20
458.6337423969742
 30
0.0
 11
252.3367432168559
 21
458.6337423969742
 31
0.0
  0
LINE
  5
1874
330
7BC
100
AcDbEntity
  8
SUNPOU
100
AcDbLine
 10
281.336743216856
 20
458.6337423969742
 30
0.0
 11
286.3367432168561
 21
458.6337423969742
 31
0.0
  0
MTEXT
  5
1875
330
7BC
100
AcDbEntity
  8
SUNPOU
100
AcDbMText
 10
269.336743216856
 20
454.6442881700991
 30
0.0
 40
5.0
 41
0.0
 71
     5
 72
     1
  1
\A1;14
  7
SUNPOU
 11
-1.0
 21
0.0000000000000001
 31
0.0
1001
ACAD
1000
MTEXTBEGIN
1070
    73
1070
     1
1070
    44
1040
1.0
1070
    74
1070
     0
1000
MTEXTEND
1000
MTEXTBEGIN
1070
    73
1070
     1
1070
    44
1040
1.0
1070
    74
1070
     0
1000
MTEXTEND
  0
LINE
  5
1876
330
7BC
100
AcDbEntity
  8
SUNPOU
100
AcDbLine
 10
262.336743216856
 20
458.6337423969742
 30
0.0
 11
276.336743216856
 21
458.6337423969742
 31
0.0
  0
INSERT
  5
1877
330
7BC
100
AcDbEntity
  8
SUNPOU
100
AcDbBlockReference
  2
_OPEN30
 10
262.336743216856
 20
458.6337423969742
 30
0.0
 41
5.0
 42
5.0
 43
5.0
  0
INSERT
  5
1878
330
7BC
100
AcDbEntity
  8
SUNPOU
100
AcDbBlockReference
  2
_OPEN30
 10
276.336743216856
 20
458.6337423969742
 30
0.0
 41
5.0
 42
5.0
 43
5.0
 50
180.0
  0
POINT
  5
1879
330
7BC
100
AcDbEntity
  8
DEFPOINTS
 62
     0
100
AcDbPoint
 10
262.336743216856
 20
473.5268843444207
 30
0.0
  0
POINT
  5
187A
330
7BC
100
AcDbEntity
  8
DEFPOINTS
 62
     0
100
AcDbPoint
 10
276.336743216856
 20
468.3068843444206
 30
0.0
  0
POINT
  5
187B
330
7BC
100
AcDbEntity
  8
DEFPOINTS
 62
     0
100
AcDbPoint
 10
276.336743216856
 20
458.6337423969742
 30
0.0
  0
ENDBLK
  5
7C7
330
7BC
100
AcDbEntity
  8
0
100
AcDbBlockEnd
  0
BLOCK
  5
7E0
330
7D6
100
AcDbEntity
  8
0
100
AcDbBlockBegin
  2
*D3
 70
     1
 10
0.0
 20
0.0
 30
0.0
  3
*D3
  1

  0
LINE
  5
1868
330
7D6
100
AcDbEntity
  8
SUNPOU
100
AcDbLine
 10
262.336743216856
 20
470.5268843444208
 30
0.0
 11
262.336743216856
 21
445.8181721910409
 31
0.0
  0
LINE
  5
1869
330
7D6
100
AcDbEntity
  8
SUNPOU
100
AcDbLine
 10
294.3367432168556
 20
450.818172191041
 30
0.0
 11
294.3367432168556
 21
449.8181721910409
 31
0.0
  0
LINE
  5
186A
330
7D6
100
AcDbEntity
  8
SUNPOU
100
AcDbLine
 10
267.336743216856
 20
447.8181721910408
 30
0.0
 11
289.3367432168556
 21
447.8181721910408
 31
0.0
  0
MTEXT
  5
186B
330
7D6
100
AcDbEntity
  8
SUNPOU
100
AcDbMText
 10
278.3367432168558
 20
443.2785332216055
 30
0.0
 40
5.0
 41
0.0
 71
     5
 72
     1
  1
\A1;32
  7
SUNPOU
 11
-1.0
 21
0.0000000000000001
 31
0.0
1001
ACAD
1000
MTEXTBEGIN
1070
    73
1070
     1
1070
    44
1040
1.0
1070
    74
1070
     0
1000
MTEXTEND
1000
MTEXTBEGIN
1070
    73
1070
     1
1070
    44
1040
1.0
1070
    74
1070
     0
1000
MTEXTEND
  0
INSERT
  5
186C
330
7D6
100
AcDbEntity
  8
SUNPOU
100
AcDbBlockReference
  2
_OPEN30
 10
262.336743216856
 20
447.8181721910408
 30
0.0
 41
5.0
 42
5.0
 43
5.0
 50
180.0
  0
INSERT
  5
186D
330
7D6
100
AcDbEntity
  8
SUNPOU
100
AcDbBlockReference
  2
_OPEN30
 10
294.3367432168556
 20
447.8181721910408
 30
0.0
 41
5.0
 42
5.0
 43
5.0
  0
POINT
  5
186E
330
7D6
100
AcDbEntity
  8
DEFPOINTS
 62
     0
100
AcDbPoint
 10
262.336743216856
 20
473.5268843444207
 30
0.0
  0
POINT
  5
186F
330
7D6
100
AcDbEntity
  8
DEFPOINTS
 62
     0
100
AcDbPoint
 10
294.3367432168556
 20
447.8181721910408
 30
0.0
  0
POINT
  5
1870
330
7D6
100
AcDbEntity
  8
DEFPOINTS
 62
     0
100
AcDbPoint
 10
294.3367432168556
 20
447.8181721910408
 30
0.0
  0
ENDBLK
  5
7E1
330
7D6
100
AcDbEntity
  8
0
100
AcDbBlockEnd
  0
BLOCK
  5
7FC
330
7F2
100
AcDbEntity
  8
0
100
AcDbBlockBegin
  2
*D4
 70
     1
 10
0.0
 20
0.0
 30
0.0
  3
*D4
  1

  0
LINE
  5
185F
330
7F2
100
AcDbEntity
  8
SUNPOU
100
AcDbLine
 10
297.3367432168558
 20
450.818172191041
 30
0.0
 11
297.3367432168558
 21
449.8181721910409
 31
0.0
  0
LINE
  5
1860
330
7F2
100
AcDbEntity
  8
SUNPOU
100
AcDbLine
 10
326.3367432168558
 20
450.6626179228477
 30
0.0
 11
326.3367432168558
 21
449.8181721910409
 31
0.0
  0
LINE
  5
1861
330
7F2
100
AcDbEntity
  8
SUNPOU
100
AcDbLine
 10
302.3367432168559
 20
447.8181721910408
 30
0.0
 11
321.3367432168559
 21
447.8181721910408
 31
0.0
  0
MTEXT
  5
1862
330
7F2
100
AcDbEntity
  8
SUNPOU
100
AcDbMText
 10
316.9393883365946
 20
443.2795249479801
 30
0.0
 40
5.0
 41
0.0
 71
     5
 72
     1
  1
\A1;29
  7
SUNPOU
 11
-1.0
 21
0.0000000000000001
 31
0.0
1001
ACAD
1000
MTEXTBEGIN
1070
    73
1070
     1
1070
    44
1040
1.0
1070
    74
1070
     0
1000
MTEXTEND
1000
MTEXTBEGIN
1070
    73
1070
     1
1070
    44
1040
1.0
1070
    74
1070
     0
1000
MTEXTEND
  0
INSERT
  5
1863
330
7F2
100
AcDbEntity
  8
SUNPOU
100
AcDbBlockReference
  2
_OPEN30
 10
297.3367432168558
 20
447.8181721910408
 30
0.0
 41
5.0
 42
5.0
 43
5.0
 50
180.0
  0
INSERT
  5
1864
330
7F2
100
AcDbEntity
  8
SUNPOU
100
AcDbBlockReference
  2
_OPEN30
 10
326.3367432168558
 20
447.8181721910408
 30
0.0
 41
5.0
 42
5.0
 43
5.0
  0
POINT
  5
1865
330
7F2
100
AcDbEntity
  8
DEFPOINTS
 62
     0
100
AcDbPoint
 10
297.3367432168558
 20
447.8181721910408
 30
0.0
  0
POINT
  5
1866
330
7F2
100
AcDbEntity
  8
DEFPOINTS
 62
     0
100
AcDbPoint
 10
326.3367432168558
 20
447.6626179228476
 30
0.0
  0
POINT
  5
1867
330
7F2
100
AcDbEntity
  8
DEFPOINTS
 62
     0
100
AcDbPoint
 10
326.3367432168558
 20
447.8181721910408
 30
0.0
  0
ENDBLK
  5
7FD
330
7F2
100
AcDbEntity
  8
0
100
AcDbBlockEnd
  0
BLOCK
  5
80B
330
7FF
100
AcDbEntity
  8
0
100
AcDbBlockBegin
  2
*D5
 70
     1
 10
0.0
 20
0.0
 30
0.0
  3
*D5
  1

  0
LINE
  5
1854
330
7FF
100
AcDbEntity
  8
SUNPOU
100
AcDbLine
 10
326.3367432168558
 20
450.6626179228477
 30
0.0
 11
326.3367432168558
 21
449.8181721910409
 31
0.0
  0
LINE
  5
1855
330
7FF
100
AcDbEntity
  8
SUNPOU
100
AcDbLine
 10
332.3367432168558
 20
450.6626179228477
 30
0.0
 11
332.3367432168558
 21
449.8181721910409
 31
0.0
  0
LINE
  5
1856
330
7FF
100
AcDbEntity
  8
SUNPOU
100
AcDbLine
 10
321.3367432168559
 20
447.8181721910408
 30
0.0
 11
316.3367432168559
 21
447.8181721910408
 31
0.0
  0
LINE
  5
1857
330
7FF
100
AcDbEntity
  8
SUNPOU
100
AcDbLine
 10
337.3367432168559
 20
447.8181721910408
 30
0.0
 11
342.3367432168558
 21
447.8181721910408
 31
0.0
  0
MTEXT
  5
1858
330
7FF
100
AcDbEntity
  8
SUNPOU
100
AcDbMText
 10
329.3367432168559
 20
443.8120190665098
 30
0.0
 40
5.0
 41
0.0
 71
     5
 72
     1
  1
\A1;6
  7
SUNPOU
 11
-1.0
 21
0.0000000000000001
 31
0.0
1001
ACAD
1000
MTEXTBEGIN
1070
    73
1070
     1
1070
    44
1040
1.0
1070
    74
1070
     0
1000
MTEXTEND
1000
MTEXTBEGIN
1070
    73
1070
     1
1070
    44
1040
1.0
1070
    74
1070
     0
1000
MTEXTEND
  0
LINE
  5
1859
330
7FF
100
AcDbEntity
  8
SUNPOU
100
AcDbLine
 10
326.3367432168558
 20
447.8181721910408
 30
0.0
 11
332.3367432168558
 21
447.8181721910408
 31
0.0
  0
INSERT
  5
185A
330
7FF
100
AcDbEntity
  8
SUNPOU
100
AcDbBlockReference
  2
_OPEN30
 10
326.3367432168558
 20
447.8181721910408
 30
0.0
 41
5.0
 42
5.0
 43
5.0
  0
INSERT
  5
185B
330
7FF
100
AcDbEntity
  8
SUNPOU
100
AcDbBlockReference
  2
_OPEN30
 10
332.3367432168558
 20
447.8181721910408
 30
0.0
 41
5.0
 42
5.0
 43
5.0
 50
180.0
  0
POINT
  5
185C
330
7FF
100
AcDbEntity
  8
DEFPOINTS
 62
     0
100
AcDbPoint
 10
326.3367432168558
 20
447.6626179228476
 30
0.0
  0
POINT
  5
185D
330
7FF
100
AcDbEntity
  8
DEFPOINTS
 62
     0
100
AcDbPoint
 10
332.3367432168558
 20
447.6626179228476
 30
0.0
  0
POINT
  5
185E
330
7FF
100
AcDbEntity
  8
DEFPOINTS
 62
     0
100
AcDbPoint
 10
332.3367432168558
 20
447.8181721910408
 30
0.0
  0
ENDBLK
  5
80C
330
7FF
100
AcDbEntity
  8
0
100
AcDbBlockEnd
  0
BLOCK
  5
8D9
330
8CD
100
AcDbEntity
  8
0
100
AcDbBlockBegin
  2
*D6
 70
     1
 10
0.0
 20
0.0
 30
0.0
  3
*D6
  1

  0
LINE
  5
1849
330
8CD
100
AcDbEntity
  8
SUNPOU
100
AcDbLine
 10
262.3367432168553
 20
252.8873998191514
 30
0.0
 11
262.3367432168553
 21
251.8873998191514
 31
0.0
  0
LINE
  5
184A
330
8CD
100
AcDbEntity
  8
SUNPOU
100
AcDbLine
 10
275.3367432168553
 20
252.8873998191514
 30
0.0
 11
275.3367432168553
 21
251.8873998191514
 31
0.0
  0
LINE
  5
184B
330
8CD
100
AcDbEntity
  8
SUNPOU
100
AcDbLine
 10
257.3367432168553
 20
249.8873998191514
 30
0.0
 11
252.3367432168553
 21
249.8873998191514
 31
0.0
  0
LINE
  5
184C
330
8CD
100
AcDbEntity
  8
SUNPOU
100
AcDbLine
 10
280.3367432168553
 20
249.8873998191514
 30
0.0
 11
285.3367432168553
 21
249.8873998191514
 31
0.0
  0
MTEXT
  5
184D
330
8CD
100
AcDbEntity
  8
SUNPOU
100
AcDbMText
 10
268.8367432168553
 20
245.9093604691161
 30
0.0
 40
5.0
 41
0.0
 71
     5
 72
     1
  1
\A1;13
  7
SUNPOU
 11
-1.0
 21
0.0000000000000001
 31
0.0
1001
ACAD
1000
MTEXTBEGIN
1070
    73
1070
     1
1070
    44
1040
1.0
1070
    74
1070
     0
1000
MTEXTEND
1000
MTEXTBEGIN
1070
    73
1070
     1
1070
    44
1040
1.0
1070
    74
1070
     0
1000
MTEXTEND
  0
LINE
  5
184E
330
8CD
100
AcDbEntity
  8
SUNPOU
100
AcDbLine
 10
262.3367432168553
 20
249.8873998191514
 30
0.0
 11
275.3367432168553
 21
249.8873998191514
 31
0.0
  0
INSERT
  5
184F
330
8CD
100
AcDbEntity
  8
SUNPOU
100
AcDbBlockReference
  2
_OPEN30
 10
262.3367432168553
 20
249.8873998191514
 30
0.0
 41
5.0
 42
5.0
 43
5.0
  0
INSERT
  5
1850
330
8CD
100
AcDbEntity
  8
SUNPOU
100
AcDbBlockReference
  2
_OPEN30
 10
275.3367432168553
 20
249.8873998191514
 30
0.0
 41
5.0
 42
5.0
 43
5.0
 50
180.0
  0
POINT
  5
1851
330
8CD
100
AcDbEntity
  8
DEFPOINTS
 62
     0
100
AcDbPoint
 10
262.3367432168553
 20
249.8873998191514
 30
0.0
  0
POINT
  5
1852
330
8CD
100
AcDbEntity
  8
DEFPOINTS
 62
     0
100
AcDbPoint
 10
275.3367432168553
 20
249.8873998191514
 30
0.0
  0
POINT
  5
1853
330
8CD
100
AcDbEntity
  8
DEFPOINTS
 62
     0
100
AcDbPoint
 10
275.3367432168553
 20
249.8873998191514
 30
0.0
  0
ENDBLK
  5
8DA
330
8CD
100
AcDbEntity
  8
0
100
AcDbBlockEnd
  0
BLOCK
  5
8FF
330
8F5
100
AcDbEntity
  8
0
100
AcDbBlockBegin
  2
*D7
 70
     1
 10
0.0
 20
0.0
 30
0.0
  3
*D7
  1

  0
LINE
  5
1840
330
8F5
100
AcDbEntity
  8
SUNPOU
100
AcDbLine
 10
92.83018867924491
 20
325.1114365809441
 30
0.0
 11
92.83018867924491
 21
306.1114365809438
 31
0.0
  0
LINE
  5
1841
330
8F5
100
AcDbEntity
  8
SUNPOU
100
AcDbLine
 10
162.8301886792449
 20
325.1114365809438
 30
0.0
 11
162.8301886792449
 21
306.1114365809438
 31
0.0
  0
LINE
  5
1842
330
8F5
100
AcDbEntity
  8
SUNPOU
100
AcDbLine
 10
97.83018867924491
 20
308.1114365809438
 30
0.0
 11
157.8301886792449
 21
308.1114365809438
 31
0.0
  0
MTEXT
  5
1843
330
8F5
100
AcDbEntity
  8
SUNPOU
100
AcDbMText
 10
127.8301886792448
 20
303.254410617402
 30
0.0
 40
5.0
 41
0.0
 71
     5
 72
     1
  1
\A1;70
  7
SUNPOU
 11
-1.0
 21
0.0000000000000001
 31
0.0
1001
ACAD
1000
MTEXTBEGIN
1070
    73
1070
     1
1070
    44
1040
1.0
1070
    74
1070
     0
1000
MTEXTEND
1000
MTEXTBEGIN
1070
    73
1070
     1
1070
    44
1040
1.0
1070
    74
1070
     0
1000
MTEXTEND
  0
INSERT
  5
1844
330
8F5
100
AcDbEntity
  8
SUNPOU
100
AcDbBlockReference
  2
_OPEN30
 10
92.83018867924491
 20
308.1114365809438
 30
0.0
 41
5.0
 42
5.0
 43
5.0
 50
180.0
  0
INSERT
  5
1845
330
8F5
100
AcDbEntity
  8
SUNPOU
100
AcDbBlockReference
  2
_OPEN30
 10
162.8301886792449
 20
308.1114365809438
 30
0.0
 41
5.0
 42
5.0
 43
5.0
  0
POINT
  5
1846
330
8F5
100
AcDbEntity
  8
DEFPOINTS
 62
     0
100
AcDbPoint
 10
92.83018867924491
 20
328.1114365809441
 30
0.0
  0
POINT
  5
1847
330
8F5
100
AcDbEntity
  8
DEFPOINTS
 62
     0
100
AcDbPoint
 10
162.8301886792449
 20
328.1114365809437
 30
0.0
  0
POINT
  5
1848
330
8F5
100
AcDbEntity
  8
DEFPOINTS
 62
     0
100
AcDbPoint
 10
162.8301886792449
 20
308.1114365809438
 30
0.0
  0
ENDBLK
  5
900
330
8F5
100
AcDbEntity
  8
0
100
AcDbBlockEnd
  0
BLOCK
  5
935
330
92B
100
AcDbEntity
  8
0
100
AcDbBlockBegin
  2
*D8
 70
     1
 10
0.0
 20
0.0
 30
0.0
  3
*D8
  1

  0
LINE
  5
1837
330
92B
100
AcDbEntity
  8
SUNPOU
100
AcDbLine
 10
259.3367432168553
 20
263.4868843444206
 30
0.0
 11
245.3367432168553
 21
263.4868843444206
 31
0.0
  0
LINE
  5
1838
330
92B
100
AcDbEntity
  8
SUNPOU
100
AcDbLine
 10
259.3367432168554
 20
323.4868843444206
 30
0.0
 11
245.3367432168553
 21
323.4868843444206
 31
0.0
  0
LINE
  5
1839
330
92B
100
AcDbEntity
  8
SUNPOU
100
AcDbLine
 10
247.3367432168553
 20
268.4868843444208
 30
0.0
 11
247.3367432168553
 21
318.4868843444206
 31
0.0
  0
INSERT
  5
183A
330
92B
100
AcDbEntity
  8
SUNPOU
100
AcDbBlockReference
  2
_OPEN30
 10
247.3367432168553
 20
263.4868843444206
 30
0.0
 41
5.0
 42
5.0
 43
5.0
 50
270.0
  0
INSERT
  5
183B
330
92B
100
AcDbEntity
  8
SUNPOU
100
AcDbBlockReference
  2
_OPEN30
 10
247.3367432168553
 20
323.4868843444206
 30
0.0
 41
5.0
 42
5.0
 43
5.0
 50
90.0
  0
MTEXT
  5
183C
330
92B
100
AcDbEntity
  8
SUNPOU
100
AcDbMText
 10
242.8367432168553
 20
293.4868843444208
 30
0.0
 40
5.0
 41
0.0
 71
     5
 72
     1
  1
\A1;60
  7
SUNPOU
 11
0.0000000000000001
 21
1.0
 31
0.0
1001
ACAD
1000
MTEXTBEGIN
1070
    73
1070
     1
1070
    44
1040
1.0
1070
    74
1070
     0
1000
MTEXTEND
1000
MTEXTBEGIN
1070
    73
1070
     1
1070
    44
1040
1.0
1070
    74
1070
     0
1000
MTEXTEND
  0
POINT
  5
183D
330
92B
100
AcDbEntity
  8
DEFPOINTS
 62
     0
100
AcDbPoint
 10
262.3367432168553
 20
263.4868843444206
 30
0.0
  0
POINT
  5
183E
330
92B
100
AcDbEntity
  8
DEFPOINTS
 62
     0
100
AcDbPoint
 10
262.3367432168555
 20
323.4868843444206
 30
0.0
  0
POINT
  5
183F
330
92B
100
AcDbEntity
  8
DEFPOINTS
 62
     0
100
AcDbPoint
 10
247.3367432168553
 20
323.4868843444206
 30
0.0
  0
ENDBLK
  5
936
330
92B
100
AcDbEntity
  8
0
100
AcDbBlockEnd
  0
BLOCK
  5
942
330
938
100
AcDbEntity
  8
0
100
AcDbBlockBegin
  2
*D9
 70
     1
 10
0.0
 20
0.0
 30
0.0
  3
*D9
  1

  0
LINE
  5
182E
330
938
100
AcDbEntity
  8
SUNPOU
100
AcDbLine
 10
328.8367432168555
 20
263.4868843444205
 30
0.0
 11
349.3367432168556
 21
263.4868843444205
 31
0.0
  0
LINE
  5
182F
330
938
100
AcDbEntity
  8
SUNPOU
100
AcDbLine
 10
329.3367432168555
 20
323.4868843444206
 30
0.0
 11
349.3367432168556
 21
323.4868843444206
 31
0.0
  0
LINE
  5
1830
330
938
100
AcDbEntity
  8
SUNPOU
100
AcDbLine
 10
347.3367432168556
 20
268.4868843444205
 30
0.0
 11
347.3367432168556
 21
318.4868843444206
 31
0.0
  0
INSERT
  5
1831
330
938
100
AcDbEntity
  8
SUNPOU
100
AcDbBlockReference
  2
_OPEN30
 10
347.3367432168556
 20
263.4868843444205
 30
0.0
 41
5.0
 42
5.0
 43
5.0
 50
270.0
  0
INSERT
  5
1832
330
938
100
AcDbEntity
  8
SUNPOU
100
AcDbBlockReference
  2
_OPEN30
 10
347.3367432168556
 20
323.4868843444206
 30
0.0
 41
5.0
 42
5.0
 43
5.0
 50
90.0
  0
MTEXT
  5
1833
330
938
100
AcDbEntity
  8
SUNPOU
100
AcDbMText
 10
342.8367432168554
 20
293.4868843444206
 30
0.0
 40
5.0
 41
0.0
 71
     5
 72
     1
  1
\A1;60
  7
SUNPOU
 11
0.0000000000000001
 21
1.0
 31
0.0
1001
ACAD
1000
MTEXTBEGIN
1070
    73
1070
     1
1070
    44
1040
1.0
1070
    74
1070
     0
1000
MTEXTEND
1000
MTEXTBEGIN
1070
    73
1070
     1
1070
    44
1040
1.0
1070
    74
1070
     0
1000
MTEXTEND
  0
POINT
  5
1834
330
938
100
AcDbEntity
  8
DEFPOINTS
 62
     0
100
AcDbPoint
 10
325.8367432168554
 20
263.4868843444205
 30
0.0
  0
POINT
  5
1835
330
938
100
AcDbEntity
  8
DEFPOINTS
 62
     0
100
AcDbPoint
 10
326.3367432168554
 20
323.4868843444206
 30
0.0
  0
POINT
  5
1836
330
938
100
AcDbEntity
  8
DEFPOINTS
 62
     0
100
AcDbPoint
 10
347.3367432168556
 20
323.4868843444206
 30
0.0
  0
ENDBLK
  5
943
330
938
100
AcDbEntity
  8
0
100
AcDbBlockEnd
  0
BLOCK
  5
94F
330
945
100
AcDbEntity
  8
0
100
AcDbBlockBegin
  2
*D10
 70
     1
 10
0.0
 20
0.0
 30
0.0
  3
*D10
  1

  0
LINE
  5
1825
330
945
100
AcDbEntity
  8
SUNPOU
100
AcDbLine
 10
335.3367432168552
 20
148.4868843444214
 30
0.0
 11
379.3367432168555
 21
148.4868843444214
 31
0.0
  0
LINE
  5
1826
330
945
100
AcDbEntity
  8
SUNPOU
100
AcDbLine
 10
335.3367432168552
 20
178.4868843444214
 30
0.0
 11
379.3367432168555
 21
178.4868843444214
 31
0.0
  0
LINE
  5
1827
330
945
100
AcDbEntity
  8
SUNPOU
100
AcDbLine
 10
377.3367432168555
 20
153.4868843444214
 30
0.0
 11
377.3367432168555
 21
173.4868843444214
 31
0.0
  0
INSERT
  5
1828
330
945
100
AcDbEntity
  8
SUNPOU
100
AcDbBlockReference
  2
_OPEN30
 10
377.3367432168555
 20
148.4868843444214
 30
0.0
 41
5.0
 42
5.0
 43
5.0
 50
270.0
  0
INSERT
  5
1829
330
945
100
AcDbEntity
  8
SUNPOU
100
AcDbBlockReference
  2
_OPEN30
 10
377.3367432168555
 20
178.4868843444214
 30
0.0
 41
5.0
 42
5.0
 43
5.0
 50
90.0
  0
MTEXT
  5
182A
330
945
100
AcDbEntity
  8
SUNPOU
100
AcDbMText
 10
372.8367432168555
 20
163.4868843444214
 30
0.0
 40
5.0
 41
0.0
 71
     5
 72
     1
  1
\A1;30
  7
SUNPOU
 11
0.0000000000000001
 21
1.0
 31
0.0
1001
ACAD
1000
MTEXTBEGIN
1070
    73
1070
     1
1070
    44
1040
1.0
1070
    74
1070
     0
1000
MTEXTEND
1000
MTEXTBEGIN
1070
    73
1070
     1
1070
    44
1040
1.0
1070
    74
1070
     0
1000
MTEXTEND
  0
POINT
  5
182B
330
945
100
AcDbEntity
  8
DEFPOINTS
 62
     0
100
AcDbPoint
 10
332.3367432168552
 20
148.4868843444214
 30
0.0
  0
POINT
  5
182C
330
945
100
AcDbEntity
  8
DEFPOINTS
 62
     0
100
AcDbPoint
 10
332.3367432168552
 20
178.4868843444214
 30
0.0
  0
POINT
  5
182D
330
945
100
AcDbEntity
  8
DEFPOINTS
 62
     0
100
AcDbPoint
 10
377.3367432168555
 20
178.4868843444214
 30
0.0
  0
ENDBLK
  5
950
330
945
100
AcDbEntity
  8
0
100
AcDbBlockEnd
  0
BLOCK
  5
95C
330
952
100
AcDbEntity
  8
0
100
AcDbBlockBegin
  2
*D11
 70
     1
 10
0.0
 20
0.0
 30
0.0
  3
*D11
  1

  0
LINE
  5
181C
330
952
100
AcDbEntity
  8
SUNPOU
100
AcDbLine
 10
335.3367432168552
 20
178.4868843444214
 30
0.0
 11
379.3367432168555
 21
178.4868843444214
 31
0.0
  0
LINE
  5
181D
330
952
100
AcDbEntity
  8
SUNPOU
100
AcDbLine
 10
335.3367432168561
 20
473.5268843444204
 30
0.0
 11
379.3367432168555
 21
473.5268843444204
 31
0.0
  0
LINE
  5
181E
330
952
100
AcDbEntity
  8
SUNPOU
100
AcDbLine
 10
377.3367432168555
 20
183.4868843444214
 30
0.0
 11
377.3367432168555
 21
468.5268843444204
 31
0.0
  0
INSERT
  5
181F
330
952
100
AcDbEntity
  8
SUNPOU
100
AcDbBlockReference
  2
_OPEN30
 10
377.3367432168555
 20
178.4868843444214
 30
0.0
 41
5.0
 42
5.0
 43
5.0
 50
270.0
  0
INSERT
  5
1820
330
952
100
AcDbEntity
  8
SUNPOU
100
AcDbBlockReference
  2
_OPEN30
 10
377.3367432168555
 20
473.5268843444204
 30
0.0
 41
5.0
 42
5.0
 43
5.0
 50
90.0
  0
MTEXT
  5
1821
330
952
100
AcDbEntity
  8
SUNPOU
100
AcDbMText
 10
372.8367432168555
 20
326.0068843444209
 30
0.0
 40
5.0
 41
0.0
 71
     5
 72
     1
  1
\A1;{\Ftxt.shx|c0;W}
  7
SUNPOU
 11
0.0000000000000001
 21
1.0
 31
0.0
1001
ACAD
1000
MTEXTBEGIN
1070
    73
1070
     1
1070
    44
1040
1.0
1070
    74
1070
     0
1000
MTEXTEND
1000
MTEXTBEGIN
1070
    73
1070
     1
1070
    44
1040
1.0
1070
    74
1070
     0
1000
MTEXTEND
  0
POINT
  5
1822
330
952
100
AcDbEntity
  8
DEFPOINTS
 62
     0
100
AcDbPoint
 10
332.3367432168552
 20
178.4868843444214
 30
0.0
  0
POINT
  5
1823
330
952
100
AcDbEntity
  8
DEFPOINTS
 62
     0
100
AcDbPoint
 10
332.3367432168561
 20
473.5268843444204
 30
0.0
  0
POINT
  5
1824
330
952
100
AcDbEntity
  8
DEFPOINTS
 62
     0
100
AcDbPoint
 10
377.3367432168555
 20
473.5268843444204
 30
0.0
  0
ENDBLK
  5
95D
330
952
100
AcDbEntity
  8
0
100
AcDbBlockEnd
  0
BLOCK
  5
969
330
95F
100
AcDbEntity
  8
0
100
AcDbBlockBegin
  2
*D12
 70
     1
 10
0.0
 20
0.0
 30
0.0
  3
*D12
  1

  0
LINE
  5
1813
330
95F
100
AcDbEntity
  8
SUNPOU
100
AcDbLine
 10
335.3367432168561
 20
473.5268843444204
 30
0.0
 11
379.3367432168555
 21
473.5268843444204
 31
0.0
  0
LINE
  5
1814
330
95F
100
AcDbEntity
  8
SUNPOU
100
AcDbLine
 10
335.3367432168561
 20
503.5268843444204
 30
0.0
 11
379.3367432168555
 21
503.5268843444204
 31
0.0
  0
LINE
  5
1815
330
95F
100
AcDbEntity
  8
SUNPOU
100
AcDbLine
 10
377.3367432168555
 20
478.5268843444204
 30
0.0
 11
377.3367432168555
 21
498.5268843444204
 31
0.0
  0
INSERT
  5
1816
330
95F
100
AcDbEntity
  8
SUNPOU
100
AcDbBlockReference
  2
_OPEN30
 10
377.3367432168555
 20
473.5268843444204
 30
0.0
 41
5.0
 42
5.0
 43
5.0
 50
270.0
  0
INSERT
  5
1817
330
95F
100
AcDbEntity
  8
SUNPOU
100
AcDbBlockReference
  2
_OPEN30
 10
377.3367432168555
 20
503.5268843444204
 30
0.0
 41
5.0
 42
5.0
 43
5.0
 50
90.0
  0
MTEXT
  5
1818
330
95F
100
AcDbEntity
  8
SUNPOU
100
AcDbMText
 10
372.8367432168556
 20
488.5268843444205
 30
0.0
 40
5.0
 41
0.0
 71
     5
 72
     1
  1
\A1;30
  7
SUNPOU
 11
0.0000000000000001
 21
1.0
 31
0.0
1001
ACAD
1000
MTEXTBEGIN
1070
    73
1070
     1
1070
    44
1040
1.0
1070
    74
1070
     0
1000
MTEXTEND
1000
MTEXTBEGIN
1070
    73
1070
     1
1070
    44
1040
1.0
1070
    74
1070
     0
1000
MTEXTEND
  0
POINT
  5
1819
330
95F
100
AcDbEntity
  8
DEFPOINTS
 62
     0
100
AcDbPoint
 10
332.3367432168561
 20
473.5268843444204
 30
0.0
  0
POINT
  5
181A
330
95F
100
AcDbEntity
  8
DEFPOINTS
 62
     0
100
AcDbPoint
 10
332.3367432168561
 20
503.5268843444204
 30
0.0
  0
POINT
  5
181B
330
95F
100
AcDbEntity
  8
DEFPOINTS
 62
     0
100
AcDbPoint
 10
377.3367432168555
 20
503.5268843444204
 30
0.0
  0
ENDBLK
  5
96A
330
95F
100
AcDbEntity
  8
0
100
AcDbBlockEnd
  0
BLOCK
  5
A1F
330
A13
100
AcDbEntity
  8
0
100
AcDbBlockBegin
  2
*D13
 70
     1
 10
0.0
 20
0.0
 30
0.0
  3
*D13
  1

  0
LINE
  5
1808
330
A13
100
AcDbEntity
  8
SUNPOU
100
AcDbLine
 10
294.3367432168555
 20
326.4868843444206
 30
0.0
 11
294.3367432168555
 21
449.8181721910409
 31
0.0
  0
LINE
  5
1809
330
A13
100
AcDbEntity
  8
SUNPOU
100
AcDbLine
 10
297.3367432168558
 20
450.818172191041
 30
0.0
 11
297.3367432168558
 21
449.8181721910409
 31
0.0
  0
LINE
  5
180A
330
A13
100
AcDbEntity
  8
SUNPOU
100
AcDbLine
 10
289.3367432168555
 20
447.8181721910408
 30
0.0
 11
284.3367432168554
 21
447.8181721910408
 31
0.0
  0
LINE
  5
180B
330
A13
100
AcDbEntity
  8
SUNPOU
100
AcDbLine
 10
302.3367432168559
 20
447.8181721910408
 30
0.0
 11
307.3367432168558
 21
447.8181721910408
 31
0.0
  0
MTEXT
  5
180C
330
A13
100
AcDbEntity
  8
SUNPOU
100
AcDbMText
 10
295.8367432168557
 20
443.8147005043941
 30
0.0
 40
5.0
 41
0.0
 71
     5
 72
     1
  1
\A1;3
  7
SUNPOU
 11
-1.0
 21
0.0000000000000001
 31
0.0
1001
ACAD
1000
MTEXTBEGIN
1070
    73
1070
     1
1070
    44
1040
1.0
1070
    74
1070
     0
1000
MTEXTEND
1000
MTEXTBEGIN
1070
    73
1070
     1
1070
    44
1040
1.0
1070
    74
1070
     0
1000
MTEXTEND
  0
LINE
  5
180D
330
A13
100
AcDbEntity
  8
SUNPOU
100
AcDbLine
 10
294.3367432168555
 20
447.8181721910408
 30
0.0
 11
297.3367432168558
 21
447.8181721910408
 31
0.0
  0
INSERT
  5
180E
330
A13
100
AcDbEntity
  8
SUNPOU
100
AcDbBlockReference
  2
_OPEN30
 10
294.3367432168555
 20
447.8181721910408
 30
0.0
 41
5.0
 42
5.0
 43
5.0
  0
INSERT
  5
180F
330
A13
100
AcDbEntity
  8
SUNPOU
100
AcDbBlockReference
  2
_OPEN30
 10
297.3367432168558
 20
447.8181721910408
 30
0.0
 41
5.0
 42
5.0
 43
5.0
 50
180.0
  0
POINT
  5
1810
330
A13
100
AcDbEntity
  8
DEFPOINTS
 62
     0
100
AcDbPoint
 10
294.3367432168555
 20
323.4868843444206
 30
0.0
  0
POINT
  5
1811
330
A13
100
AcDbEntity
  8
DEFPOINTS
 62
     0
100
AcDbPoint
 10
297.3367432168558
 20
447.8181721910408
 30
0.0
  0
POINT
  5
1812
330
A13
100
AcDbEntity
  8
DEFPOINTS
 62
     0
100
AcDbPoint
 10
297.3367432168558
 20
447.8181721910408
 30
0.0
  0
ENDBLK
  5
A20
330
A13
100
AcDbEntity
  8
0
100
AcDbBlockEnd
  0
BLOCK
  5
A56
330
A4C
100
AcDbEntity
  8
0
100
AcDbBlockBegin
  2
*D14
 70
     1
 10
0.0
 20
0.0
 30
0.0
  3
*D14
  1

  0
LINE
  5
17FF
330
A4C
100
AcDbEntity
  8
SUNPOU
100
AcDbLine
 10
329.3367432168557
 20
408.0268843444204
 30
0.0
 11
349.3367432168557
 21
408.0268843444204
 31
0.0
  0
LINE
  5
1800
330
A4C
100
AcDbEntity
  8
SUNPOU
100
AcDbLine
 10
328.8567432168558
 20
468.0268843444205
 30
0.0
 11
349.3367432168557
 21
468.0268843444205
 31
0.0
  0
LINE
  5
1801
330
A4C
100
AcDbEntity
  8
SUNPOU
100
AcDbLine
 10
347.3367432168557
 20
413.0268843444204
 30
0.0
 11
347.3367432168557
 21
463.0268843444205
 31
0.0
  0
INSERT
  5
1802
330
A4C
100
AcDbEntity
  8
SUNPOU
100
AcDbBlockReference
  2
_OPEN30
 10
347.3367432168557
 20
408.0268843444204
 30
0.0
 41
5.0
 42
5.0
 43
5.0
 50
270.0
  0
INSERT
  5
1803
330
A4C
100
AcDbEntity
  8
SUNPOU
100
AcDbBlockReference
  2
_OPEN30
 10
347.3367432168557
 20
468.0268843444205
 30
0.0
 41
5.0
 42
5.0
 43
5.0
 50
90.0
  0
MTEXT
  5
1804
330
A4C
100
AcDbEntity
  8
SUNPOU
100
AcDbMText
 10
342.8367432168556
 20
438.0268843444206
 30
0.0
 40
5.0
 41
0.0
 71
     5
 72
     1
  1
\A1;60
  7
SUNPOU
 11
0.0000000000000001
 21
1.0
 31
0.0
1001
ACAD
1000
MTEXTBEGIN
1070
    73
1070
     1
1070
    44
1040
1.0
1070
    74
1070
     0
1000
MTEXTEND
1000
MTEXTBEGIN
1070
    73
1070
     1
1070
    44
1040
1.0
1070
    74
1070
     0
1000
MTEXTEND
  0
POINT
  5
1805
330
A4C
100
AcDbEntity
  8
DEFPOINTS
 62
     0
100
AcDbPoint
 10
326.3367432168557
 20
408.0268843444204
 30
0.0
  0
POINT
  5
1806
330
A4C
100
AcDbEntity
  8
DEFPOINTS
 62
     0
100
AcDbPoint
 10
325.8567432168558
 20
468.0268843444205
 30
0.0
  0
POINT
  5
1807
330
A4C
100
AcDbEntity
  8
DEFPOINTS
 62
     0
100
AcDbPoint
 10
347.3367432168557
 20
468.0268843444205
 30
0.0
  0
ENDBLK
  5
A57
330
A4C
100
AcDbEntity
  8
0
100
AcDbBlockEnd
  0
BLOCK
  5
A63
330
A59
100
AcDbEntity
  8
0
100
AcDbBlockBegin
  2
*D15
 70
     1
 10
0.0
 20
0.0
 30
0.0
  3
*D15
  1

  0
LINE
  5
17F6
330
A59
100
AcDbEntity
  8
SUNPOU
100
AcDbLine
 10
328.8367432168555
 20
263.4868843444205
 30
0.0
 11
364.3367432168557
 21
263.4868843444205
 31
0.0
  0
LINE
  5
17F7
330
A59
100
AcDbEntity
  8
SUNPOU
100
AcDbLine
 10
328.8567432168558
 20
468.0268843444205
 30
0.0
 11
364.3367432168557
 21
468.0268843444205
 31
0.0
  0
LINE
  5
17F8
330
A59
100
AcDbEntity
  8
SUNPOU
100
AcDbLine
 10
362.3367432168557
 20
268.4868843444205
 30
0.0
 11
362.3367432168557
 21
463.0268843444205
 31
0.0
  0
INSERT
  5
17F9
330
A59
100
AcDbEntity
  8
SUNPOU
100
AcDbBlockReference
  2
_OPEN30
 10
362.3367432168557
 20
263.4868843444205
 30
0.0
 41
5.0
 42
5.0
 43
5.0
 50
270.0
  0
INSERT
  5
17FA
330
A59
100
AcDbEntity
  8
SUNPOU
100
AcDbBlockReference
  2
_OPEN30
 10
362.3367432168557
 20
468.0268843444205
 30
0.0
 41
5.0
 42
5.0
 43
5.0
 50
90.0
  0
MTEXT
  5
17FB
330
A59
100
AcDbEntity
  8
SUNPOU
100
AcDbMText
 10
357.8367432168556
 20
365.7568843444205
 30
0.0
 40
5.0
 41
0.0
 71
     5
 72
     1
  1
\A1;DW
  7
SUNPOU
 11
0.0000000000000001
 21
1.0
 31
0.0
1001
ACAD
1000
MTEXTBEGIN
1070
    73
1070
     1
1070
    44
1040
1.0
1070
    74
1070
     0
1000
MTEXTEND
1000
MTEXTBEGIN
1070
    73
1070
     1
1070
    44
1040
1.0
1070
    74
1070
     0
1000
MTEXTEND
  0
POINT
  5
17FC
330
A59
100
AcDbEntity
  8
DEFPOINTS
 62
     0
100
AcDbPoint
 10
325.8367432168554
 20
263.4868843444205
 30
0.0
  0
POINT
  5
17FD
330
A59
100
AcDbEntity
  8
DEFPOINTS
 62
     0
100
AcDbPoint
 10
325.8567432168558
 20
468.0268843444205
 30
0.0
  0
POINT
  5
17FE
330
A59
100
AcDbEntity
  8
DEFPOINTS
 62
     0
100
AcDbPoint
 10
362.3367432168557
 20
468.0268843444205
 30
0.0
  0
ENDBLK
  5
A64
330
A59
100
AcDbEntity
  8
0
100
AcDbBlockEnd
  0
BLOCK
  5
A72
330
A66
100
AcDbEntity
  8
0
100
AcDbBlockBegin
  2
*D16
 70
     1
 10
0.0
 20
0.0
 30
0.0
  3
*D16
  1

  0
LINE
  5
17EB
330
A66
100
AcDbEntity
  8
SUNPOU
100
AcDbLine
 10
328.8567432168558
 20
468.0268843444205
 30
0.0
 11
364.3367432168557
 21
468.0268843444205
 31
0.0
  0
LINE
  5
17EC
330
A66
100
AcDbEntity
  8
SUNPOU
100
AcDbLine
 10
335.336743216856
 20
473.5268843444204
 30
0.0
 11
364.3367432168557
 21
473.5268843444204
 31
0.0
  0
LINE
  5
17ED
330
A66
100
AcDbEntity
  8
SUNPOU
100
AcDbLine
 10
362.3367432168557
 20
463.0268843444205
 30
0.0
 11
362.3367432168557
 21
458.0268843444204
 31
0.0
  0
LINE
  5
17EE
330
A66
100
AcDbEntity
  8
SUNPOU
100
AcDbLine
 10
362.3367432168557
 20
478.5268843444204
 30
0.0
 11
362.3367432168557
 21
483.5268843444204
 31
0.0
  0
MTEXT
  5
17EF
330
A66
100
AcDbEntity
  8
SUNPOU
100
AcDbMText
 10
358.301185182926
 20
483.7083318500603
 30
0.0
 40
5.0
 41
0.0
 71
     5
 72
     1
  1
\A1;5.5
  7
SUNPOU
 11
0.0000000000000001
 21
1.0
 31
0.0
1001
ACAD
1000
MTEXTBEGIN
1070
    73
1070
     1
1070
    44
1040
1.0
1070
    74
1070
     0
1000
MTEXTEND
1000
MTEXTBEGIN
1070
    73
1070
     1
1070
    44
1040
1.0
1070
    74
1070
     0
1000
MTEXTEND
  0
LINE
  5
17F0
330
A66
100
AcDbEntity
  8
SUNPOU
100
AcDbLine
 10
362.3367432168557
 20
468.0268843444205
 30
0.0
 11
362.3367432168557
 21
473.5268843444204
 31
0.0
  0
INSERT
  5
17F1
330
A66
100
AcDbEntity
  8
SUNPOU
100
AcDbBlockReference
  2
_OPEN30
 10
362.3367432168557
 20
468.0268843444205
 30
0.0
 41
5.0
 42
5.0
 43
5.0
 50
90.0
  0
INSERT
  5
17F2
330
A66
100
AcDbEntity
  8
SUNPOU
100
AcDbBlockReference
  2
_OPEN30
 10
362.3367432168557
 20
473.5268843444204
 30
0.0
 41
5.0
 42
5.0
 43
5.0
 50
270.0
  0
POINT
  5
17F3
330
A66
100
AcDbEntity
  8
DEFPOINTS
 62
     0
100
AcDbPoint
 10
325.8567432168558
 20
468.0268843444205
 30
0.0
  0
POINT
  5
17F4
330
A66
100
AcDbEntity
  8
DEFPOINTS
 62
     0
100
AcDbPoint
 10
332.336743216856
 20
473.5268843444204
 30
0.0
  0
POINT
  5
17F5
330
A66
100
AcDbEntity
  8
DEFPOINTS
 62
     0
100
AcDbPoint
 10
362.3367432168557
 20
473.5268843444204
 30
0.0
  0
ENDBLK
  5
A73
330
A66
100
AcDbEntity
  8
0
100
AcDbBlockEnd
  0
BLOCK
  5
ACB
330
ABF
100
AcDbEntity
  8
0
100
AcDbBlockBegin
  2
*D17
 70
     1
 10
0.0
 20
0.0
 30
0.0
  3
*D17
  1

  0
LINE
  5
17E0
330
ABF
100
AcDbEntity
  8
SUNPOU
100
AcDbLine
 10
96.28209537073177
 20
222.8249848922316
 30
0.0
 11
116.2348404605905
 21
222.8249848922316
 31
0.0
  0
LINE
  5
17E1
330
ABF
100
AcDbEntity
  8
SUNPOU
100
AcDbLine
 10
96.28209537073177
 20
234.8249848922316
 30
0.0
 11
116.2348404605905
 21
234.8249848922316
 31
0.0
  0
LINE
  5
17E2
330
ABF
100
AcDbEntity
  8
SUNPOU
100
AcDbLine
 10
114.2348404605906
 20
217.8249848922316
 30
0.0
 11
114.2348404605906
 21
212.8249848922316
 31
0.0
  0
LINE
  5
17E3
330
ABF
100
AcDbEntity
  8
SUNPOU
100
AcDbLine
 10
114.2348404605906
 20
239.8249848922316
 30
0.0
 11
114.2348404605906
 21
244.8249848922316
 31
0.0
  0
MTEXT
  5
17E4
330
ABF
100
AcDbEntity
  8
SUNPOU
100
AcDbMText
 10
110.1322157696317
 20
228.8249848922316
 30
0.0
 40
5.0
 41
0.0
 71
     5
 72
     1
  1
\A1;120
  7
SUNPOU
 11
0.0000000000000001
 21
1.0
 31
0.0
1001
ACAD
1000
MTEXTBEGIN
1070
    73
1070
     1
1070
    44
1040
1.0
1070
    74
1070
     0
1000
MTEXTEND
1000
MTEXTBEGIN
1070
    73
1070
     1
1070
    44
1040
1.0
1070
    74
1070
     0
1000
MTEXTEND
  0
LINE
  5
17E5
330
ABF
100
AcDbEntity
  8
SUNPOU
100
AcDbLine
 10
114.2348404605906
 20
222.8249848922316
 30
0.0
 11
114.2348404605906
 21
234.8249848922316
 31
0.0
  0
INSERT
  5
17E6
330
ABF
100
AcDbEntity
  8
SUNPOU
100
AcDbBlockReference
  2
_OPEN30
 10
114.2348404605906
 20
222.8249848922316
 30
0.0
 41
5.0
 42
5.0
 43
5.0
 50
90.0
  0
INSERT
  5
17E7
330
ABF
100
AcDbEntity
  8
SUNPOU
100
AcDbBlockReference
  2
_OPEN30
 10
114.2348404605906
 20
234.8249848922316
 30
0.0
 41
5.0
 42
5.0
 43
5.0
 50
270.0
  0
POINT
  5
17E8
330
ABF
100
AcDbEntity
  8
DEFPOINTS
 62
     0
100
AcDbPoint
 10
93.28209537073176
 20
222.8249848922316
 30
0.0
  0
POINT
  5
17E9
330
ABF
100
AcDbEntity
  8
DEFPOINTS
 62
     0
100
AcDbPoint
 10
93.28209537073176
 20
234.8249848922316
 30
0.0
  0
POINT
  5
17EA
330
ABF
100
AcDbEntity
  8
DEFPOINTS
 62
     0
100
AcDbPoint
 10
114.2348404605906
 20
234.8249848922316
 30
0.0
  0
ENDBLK
  5
ACC
330
ABF
100
AcDbEntity
  8
0
100
AcDbBlockEnd
  0
BLOCK
  5
AF0
330
AE6
100
AcDbEntity
  8
0
100
AcDbBlockBegin
  2
*D18
 70
     1
 10
0.0
 20
0.0
 30
0.0
  3
*D18
  1

  0
LINE
  5
17D7
330
AE6
100
AcDbEntity
  8
SUNPOU
100
AcDbLine
 10
99.6205727369869
 20
228.8249848922316
 30
0.0
 11
132.237191036803
 21
228.8249848922316
 31
0.0
  0
LINE
  5
17D8
330
AE6
100
AcDbEntity
  8
SUNPOU
100
AcDbLine
 10
127.2371910368031
 20
253.8249848922314
 30
0.0
 11
128.237191036803
 21
253.8249848922314
 31
0.0
  0
LINE
  5
17D9
330
AE6
100
AcDbEntity
  8
SUNPOU
100
AcDbLine
 10
130.237191036803
 20
233.8249848922316
 30
0.0
 11
130.237191036803
 21
248.8249848922314
 31
0.0
  0
INSERT
  5
17DA
330
AE6
100
AcDbEntity
  8
SUNPOU
100
AcDbBlockReference
  2
_OPEN30
 10
130.237191036803
 20
228.8249848922316
 30
0.0
 41
5.0
 42
5.0
 43
5.0
 50
270.0
  0
INSERT
  5
17DB
330
AE6
100
AcDbEntity
  8
SUNPOU
100
AcDbBlockReference
  2
_OPEN30
 10
130.237191036803
 20
253.8249848922314
 30
0.0
 41
5.0
 42
5.0
 43
5.0
 50
90.0
  0
MTEXT
  5
17DC
330
AE6
100
AcDbEntity
  8
SUNPOU
100
AcDbMText
 10
125.737191036803
 20
241.3249848922315
 30
0.0
 40
5.0
 41
0.0
 71
     5
 72
     1
  1
\A1;250
  7
SUNPOU
 11
0.0000000000000001
 21
1.0
 31
0.0
1001
ACAD
1000
MTEXTBEGIN
1070
    73
1070
     1
1070
    44
1040
1.0
1070
    74
1070
     0
1000
MTEXTEND
1000
MTEXTBEGIN
1070
    73
1070
     1
1070
    44
1040
1.0
1070
    74
1070
     0
1000
MTEXTEND
  0
POINT
  5
17DD
330
AE6
100
AcDbEntity
  8
DEFPOINTS
 62
     0
100
AcDbPoint
 10
96.62057273698692
 20
228.8249848922316
 30
0.0
  0
POINT
  5
17DE
330
AE6
100
AcDbEntity
  8
DEFPOINTS
 62
     0
100
AcDbPoint
 10
130.237191036803
 20
253.8249848922314
 30
0.0
  0
POINT
  5
17DF
330
AE6
100
AcDbEntity
  8
DEFPOINTS
 62
     0
100
AcDbPoint
 10
130.237191036803
 20
253.8249848922314
 30
0.0
  0
ENDBLK
  5
AF1
330
AE6
100
AcDbEntity
  8
0
100
AcDbBlockEnd
  0
BLOCK
  5
B0F
330
B03
100
AcDbEntity
  8
0
100
AcDbBlockBegin
  2
*D19
 70
     1
 10
0.0
 20
0.0
 30
0.0
  3
*D19
  1

  0
LINE
  5
17CC
330
B03
100
AcDbEntity
  8
SUNPOU
100
AcDbLine
 10
96.28209537073177
 20
185.3249848922316
 30
0.0
 11
116.2348404605905
 21
185.3249848922316
 31
0.0
  0
LINE
  5
17CD
330
B03
100
AcDbEntity
  8
SUNPOU
100
AcDbLine
 10
96.28209537073177
 20
197.3249848922316
 30
0.0
 11
116.2348404605905
 21
197.3249848922316
 31
0.0
  0
LINE
  5
17CE
330
B03
100
AcDbEntity
  8
SUNPOU
100
AcDbLine
 10
114.2348404605906
 20
180.3249848922316
 30
0.0
 11
114.2348404605906
 21
175.3249848922316
 31
0.0
  0
LINE
  5
17CF
330
B03
100
AcDbEntity
  8
SUNPOU
100
AcDbLine
 10
114.2348404605906
 20
202.3249848922316
 30
0.0
 11
114.2348404605906
 21
207.3249848922316
 31
0.0
  0
MTEXT
  5
17D0
330
B03
100
AcDbEntity
  8
SUNPOU
100
AcDbMText
 10
110.1322157696317
 20
191.3249848922316
 30
0.0
 40
5.0
 41
0.0
 71
     5
 72
     1
  1
\A1;120
  7
SUNPOU
 11
0.0000000000000001
 21
1.0
 31
0.0
1001
ACAD
1000
MTEXTBEGIN
1070
    73
1070
     1
1070
    44
1040
1.0
1070
    74
1070
     0
1000
MTEXTEND
1000
MTEXTBEGIN
1070
    73
1070
     1
1070
    44
1040
1.0
1070
    74
1070
     0
1000
MTEXTEND
  0
LINE
  5
17D1
330
B03
100
AcDbEntity
  8
SUNPOU
100
AcDbLine
 10
114.2348404605906
 20
185.3249848922316
 30
0.0
 11
114.2348404605906
 21
197.3249848922316
 31
0.0
  0
INSERT
  5
17D2
330
B03
100
AcDbEntity
  8
SUNPOU
100
AcDbBlockReference
  2
_OPEN30
 10
114.2348404605906
 20
185.3249848922316
 30
0.0
 41
5.0
 42
5.0
 43
5.0
 50
90.0
  0
INSERT
  5
17D3
330
B03
100
AcDbEntity
  8
SUNPOU
100
AcDbBlockReference
  2
_OPEN30
 10
114.2348404605906
 20
197.3249848922316
 30
0.0
 41
5.0
 42
5.0
 43
5.0
 50
270.0
  0
POINT
  5
17D4
330
B03
100
AcDbEntity
  8
DEFPOINTS
 62
     0
100
AcDbPoint
 10
93.28209537073176
 20
185.3249848922316
 30
0.0
  0
POINT
  5
17D5
330
B03
100
AcDbEntity
  8
DEFPOINTS
 62
     0
100
AcDbPoint
 10
93.28209537073176
 20
197.3249848922316
 30
0.0
  0
POINT
  5
17D6
330
B03
100
AcDbEntity
  8
DEFPOINTS
 62
     0
100
AcDbPoint
 10
114.2348404605906
 20
197.3249848922316
 30
0.0
  0
ENDBLK
  5
B10
330
B03
100
AcDbEntity
  8
0
100
AcDbBlockEnd
  0
BLOCK
  5
B27
330
B1D
100
AcDbEntity
  8
0
100
AcDbBlockBegin
  2
*D20
 70
     1
 10
0.0
 20
0.0
 30
0.0
  3
*D20
  1

  0
LINE
  5
17C3
330
B1D
100
AcDbEntity
  8
SUNPOU
100
AcDbLine
 10
133.2371910368028
 20
175.3249848922314
 30
0.0
 11
132.2371910368028
 21
175.3249848922314
 31
0.0
  0
LINE
  5
17C4
330
B1D
100
AcDbEntity
  8
SUNPOU
100
AcDbLine
 10
99.62057273698682
 20
191.3249848922316
 30
0.0
 11
132.2371910368028
 21
191.3249848922316
 31
0.0
  0
LINE
  5
17C5
330
B1D
100
AcDbEntity
  8
SUNPOU
100
AcDbLine
 10
130.2371910368028
 20
180.3249848922314
 30
0.0
 11
130.2371910368028
 21
186.3249848922316
 31
0.0
  0
INSERT
  5
17C6
330
B1D
100
AcDbEntity
  8
SUNPOU
100
AcDbBlockReference
  2
_OPEN30
 10
130.2371910368028
 20
175.3249848922314
 30
0.0
 41
5.0
 42
5.0
 43
5.0
 50
270.0
  0
INSERT
  5
17C7
330
B1D
100
AcDbEntity
  8
SUNPOU
100
AcDbBlockReference
  2
_OPEN30
 10
130.2371910368028
 20
191.3249848922316
 30
0.0
 41
5.0
 42
5.0
 43
5.0
 50
90.0
  0
MTEXT
  5
17C8
330
B1D
100
AcDbEntity
  8
SUNPOU
100
AcDbMText
 10
125.7371910368028
 20
183.3249848922316
 30
0.0
 40
5.0
 41
0.0
 71
     5
 72
     1
  1
\A1;160
  7
SUNPOU
 11
0.0000000000000001
 21
1.0
 31
0.0
1001
ACAD
1000
MTEXTBEGIN
1070
    73
1070
     1
1070
    44
1040
1.0
1070
    74
1070
     0
1000
MTEXTEND
1000
MTEXTBEGIN
1070
    73
1070
     1
1070
    44
1040
1.0
1070
    74
1070
     0
1000
MTEXTEND
  0
POINT
  5
17C9
330
B1D
100
AcDbEntity
  8
DEFPOINTS
 62
     0
100
AcDbPoint
 10
130.2371910368028
 20
175.3249848922314
 30
0.0
  0
POINT
  5
17CA
330
B1D
100
AcDbEntity
  8
DEFPOINTS
 62
     0
100
AcDbPoint
 10
96.62057273698682
 20
191.3249848922316
 30
0.0
  0
POINT
  5
17CB
330
B1D
100
AcDbEntity
  8
DEFPOINTS
 62
     0
100
AcDbPoint
 10
130.2371910368028
 20
191.3249848922316
 30
0.0
  0
ENDBLK
  5
B28
330
B1D
100
AcDbEntity
  8
0
100
AcDbBlockEnd
  0
BLOCK
  5
B3D
330
B33
100
AcDbEntity
  8
0
100
AcDbBlockBegin
  2
*D21
 70
     1
 10
0.0
 20
0.0
 30
0.0
  3
*D21
  1

  0
LINE
  5
17BA
330
B33
100
AcDbEntity
  8
SUNPOU
100
AcDbLine
 10
230.2371910368025
 20
97.82498489223128
 30
0.0
 11
230.2371910368025
 21
78.82498489223175
 31
0.0
  0
LINE
  5
17BB
330
B33
100
AcDbEntity
  8
SUNPOU
100
AcDbLine
 10
90.23719103680269
 20
100.8249848922317
 30
0.0
 11
90.23719103680269
 21
78.82498489223175
 31
0.0
  0
LINE
  5
17BC
330
B33
100
AcDbEntity
  8
SUNPOU
100
AcDbLine
 10
225.2371910368025
 20
80.82498489223175
 30
0.0
 11
95.23719103680269
 21
80.82498489223175
 31
0.0
  0
MTEXT
  5
17BD
330
B33
100
AcDbEntity
  8
SUNPOU
100
AcDbMText
 10
160.2371910368025
 20
76.22684515527203
 30
0.0
 40
5.0
 41
0.0
 71
     5
 72
     1
  1
\A1;H
  7
SUNPOU
 11
-1.0
 21
0.0000000000000001
 31
0.0
1001
ACAD
1000
MTEXTBEGIN
1070
    73
1070
     1
1070
    44
1040
1.0
1070
    74
1070
     0
1000
MTEXTEND
1000
MTEXTBEGIN
1070
    73
1070
     1
1070
    44
1040
1.0
1070
    74
1070
     0
1000
MTEXTEND
  0
INSERT
  5
17BE
330
B33
100
AcDbEntity
  8
SUNPOU
100
AcDbBlockReference
  2
_OPEN30
 10
230.2371910368025
 20
80.82498489223175
 30
0.0
 41
5.0
 42
5.0
 43
5.0
  0
INSERT
  5
17BF
330
B33
100
AcDbEntity
  8
SUNPOU
100
AcDbBlockReference
  2
_OPEN30
 10
90.23719103680269
 20
80.82498489223175
 30
0.0
 41
5.0
 42
5.0
 43
5.0
 50
180.0
  0
POINT
  5
17C0
330
B33
100
AcDbEntity
  8
DEFPOINTS
 62
     0
100
AcDbPoint
 10
230.2371910368025
 20
100.8249848922311
 30
0.0
  0
POINT
  5
17C1
330
B33
100
AcDbEntity
  8
DEFPOINTS
 62
     0
100
AcDbPoint
 10
90.23719103680269
 20
103.8249848922317
 30
0.0
  0
POINT
  5
17C2
330
B33
100
AcDbEntity
  8
DEFPOINTS
 62
     0
100
AcDbPoint
 10
90.23719103680269
 20
80.82498489223175
 30
0.0
  0
ENDBLK
  5
B3E
330
B33
100
AcDbEntity
  8
0
100
AcDbBlockEnd
  0
BLOCK
  5
B5D
330
B53
100
AcDbEntity
  8
0
100
AcDbBlockBegin
  2
*D22
 70
     1
 10
0.0
 20
0.0
 30
0.0
  3
*D22
  1

  0
LINE
  5
17B1
330
B53
100
AcDbEntity
  8
SUNPOU
100
AcDbLine
 10
90.23719103680269
 20
100.8249848922317
 30
0.0
 11
90.23719103680269
 21
78.82498489223175
 31
0.0
  0
LINE
  5
17B2
330
B53
100
AcDbEntity
  8
SUNPOU
100
AcDbLine
 10
75.2371910368027
 20
100.8249848922317
 30
0.0
 11
75.2371910368027
 21
78.82498489223175
 31
0.0
  0
LINE
  5
17B3
330
B53
100
AcDbEntity
  8
SUNPOU
100
AcDbLine
 10
85.23719103680269
 20
80.82498489223175
 30
0.0
 11
80.23719103680269
 21
80.82498489223175
 31
0.0
  0
MTEXT
  5
17B4
330
B53
100
AcDbEntity
  8
SUNPOU
100
AcDbMText
 10
82.73719103680269
 20
76.19604988325523
 30
0.0
 40
5.0
 41
0.0
 71
     5
 72
     1
  1
\A1;150
  7
SUNPOU
 11
-1.0
 21
0.0000000000000001
 31
0.0
1001
ACAD
1000
MTEXTBEGIN
1070
    73
1070
     1
1070
    44
1040
1.0
1070
    74
1070
     0
1000
MTEXTEND
1000
MTEXTBEGIN
1070
    73
1070
     1
1070
    44
1040
1.0
1070
    74
1070
     0
1000
MTEXTEND
  0
INSERT
  5
17B5
330
B53
100
AcDbEntity
  8
SUNPOU
100
AcDbBlockReference
  2
_OPEN30
 10
90.23719103680269
 20
80.82498489223175
 30
0.0
 41
5.0
 42
5.0
 43
5.0
  0
INSERT
  5
17B6
330
B53
100
AcDbEntity
  8
SUNPOU
100
AcDbBlockReference
  2
_OPEN30
 10
75.2371910368027
 20
80.82498489223175
 30
0.0
 41
5.0
 42
5.0
 43
5.0
 50
180.0
  0
POINT
  5
17B7
330
B53
100
AcDbEntity
  8
DEFPOINTS
 62
     0
100
AcDbPoint
 10
90.23719103680269
 20
103.8249848922317
 30
0.0
  0
POINT
  5
17B8
330
B53
100
AcDbEntity
  8
DEFPOINTS
 62
     0
100
AcDbPoint
 10
75.2371910368027
 20
103.8249848922317
 30
0.0
  0
POINT
  5
17B9
330
B53
100
AcDbEntity
  8
DEFPOINTS
 62
     0
100
AcDbPoint
 10
75.2371910368027
 20
80.82498489223175
 30
0.0
  0
ENDBLK
  5
B5E
330
B53
100
AcDbEntity
  8
0
100
AcDbBlockEnd
  0
BLOCK
  5
B9B
330
B91
100
AcDbEntity
  8
0
100
AcDbBlockBegin
  2
*D23
 70
     1
 10
0.0
 20
0.0
 30
0.0
  3
*D23
  1

  0
LINE
  5
17A8
330
B91
100
AcDbEntity
  8
SUNPOU
100
AcDbLine
 10
230.2371910368032
 20
259.8249848922311
 30
0.0
 11
230.2371910368032
 21
278.8249848922313
 31
0.0
  0
LINE
  5
17A9
330
B91
100
AcDbEntity
  8
SUNPOU
100
AcDbLine
 10
170.2371910368031
 20
256.8249848922314
 30
0.0
 11
170.2371910368031
 21
278.8249848922313
 31
0.0
  0
LINE
  5
17AA
330
B91
100
AcDbEntity
  8
SUNPOU
100
AcDbLine
 10
225.237191036803
 20
276.8249848922313
 30
0.0
 11
175.2371910368031
 21
276.8249848922313
 31
0.0
  0
MTEXT
  5
17AB
330
B91
100
AcDbEntity
  8
SUNPOU
100
AcDbMText
 10
200.237191036803
 20
272.2428513310067
 30
0.0
 40
5.0
 41
0.0
 71
     5
 72
     1
  1
\A1;600
  7
SUNPOU
 11
-1.0
 21
0.0000000000000001
 31
0.0
1001
ACAD
1000
MTEXTBEGIN
1070
    73
1070
     1
1070
    44
1040
1.0
1070
    74
1070
     0
1000
MTEXTEND
1000
MTEXTBEGIN
1070
    73
1070
     1
1070
    44
1040
1.0
1070
    74
1070
     0
1000
MTEXTEND
  0
INSERT
  5
17AC
330
B91
100
AcDbEntity
  8
SUNPOU
100
AcDbBlockReference
  2
_OPEN30
 10
230.2371910368032
 20
276.8249848922313
 30
0.0
 41
5.0
 42
5.0
 43
5.0
  0
INSERT
  5
17AD
330
B91
100
AcDbEntity
  8
SUNPOU
100
AcDbBlockReference
  2
_OPEN30
 10
170.2371910368031
 20
276.8249848922313
 30
0.0
 41
5.0
 42
5.0
 43
5.0
 50
180.0
  0
POINT
  5
17AE
330
B91
100
AcDbEntity
  8
DEFPOINTS
 62
     0
100
AcDbPoint
 10
230.2371910368032
 20
256.8249848922311
 30
0.0
  0
POINT
  5
17AF
330
B91
100
AcDbEntity
  8
DEFPOINTS
 62
     0
100
AcDbPoint
 10
170.2371910368031
 20
253.8249848922314
 30
0.0
  0
POINT
  5
17B0
330
B91
100
AcDbEntity
  8
DEFPOINTS
 62
     0
100
AcDbPoint
 10
170.2371910368031
 20
276.8249848922313
 30
0.0
  0
ENDBLK
  5
B9C
330
B91
100
AcDbEntity
  8
0
100
AcDbBlockEnd
  0
BLOCK
  5
BD1
330
BC7
100
AcDbEntity
  8
0
100
AcDbBlockBegin
  2
*D24
 70
     1
 10
0.0
 20
0.0
 30
0.0
  3
*D24
  1

  0
LINE
  5
179F
330
BC7
100
AcDbEntity
  8
SUNPOU
100
AcDbLine
 10
233.2371910368026
 20
103.8249848922311
 30
0.0
 11
247.2371910368028
 21
103.8249848922311
 31
0.0
  0
LINE
  5
17A0
330
BC7
100
AcDbEntity
  8
SUNPOU
100
AcDbLine
 10
233.237191036803
 20
253.8249848922311
 30
0.0
 11
247.2371910368028
 21
253.8249848922311
 31
0.0
  0
LINE
  5
17A1
330
BC7
100
AcDbEntity
  8
SUNPOU
100
AcDbLine
 10
245.2371910368028
 20
108.8249848922312
 30
0.0
 11
245.2371910368028
 21
248.8249848922311
 31
0.0
  0
INSERT
  5
17A2
330
BC7
100
AcDbEntity
  8
SUNPOU
100
AcDbBlockReference
  2
_OPEN30
 10
245.2371910368028
 20
103.8249848922311
 30
0.0
 41
5.0
 42
5.0
 43
5.0
 50
270.0
  0
INSERT
  5
17A3
330
BC7
100
AcDbEntity
  8
SUNPOU
100
AcDbBlockReference
  2
_OPEN30
 10
245.2371910368028
 20
253.8249848922311
 30
0.0
 41
5.0
 42
5.0
 43
5.0
 50
90.0
  0
MTEXT
  5
17A4
330
BC7
100
AcDbEntity
  8
SUNPOU
100
AcDbMText
 10
240.7371910368028
 20
178.8249848922313
 30
0.0
 40
5.0
 41
0.0
 71
     5
 72
     1
  1
\A1;W
  7
SUNPOU
 11
0.0000000000000001
 21
1.0
 31
0.0
1001
ACAD
1000
MTEXTBEGIN
1070
    73
1070
     1
1070
    44
1040
1.0
1070
    74
1070
     0
1000
MTEXTEND
1000
MTEXTBEGIN
1070
    73
1070
     1
1070
    44
1040
1.0
1070
    74
1070
     0
1000
MTEXTEND
  0
POINT
  5
17A5
330
BC7
100
AcDbEntity
  8
DEFPOINTS
 62
     0
100
AcDbPoint
 10
230.2371910368025
 20
103.8249848922311
 30
0.0
  0
POINT
  5
17A6
330
BC7
100
AcDbEntity
  8
DEFPOINTS
 62
     0
100
AcDbPoint
 10
230.2371910368031
 20
253.8249848922311
 30
0.0
  0
POINT
  5
17A7
330
BC7
100
AcDbEntity
  8
DEFPOINTS
 62
     0
100
AcDbPoint
 10
245.2371910368028
 20
253.8249848922311
 30
0.0
  0
ENDBLK
  5
BD2
330
BC7
100
AcDbEntity
  8
0
100
AcDbBlockEnd
  0
BLOCK
  5
D2C
330
D23
100
AcDbEntity
  8
0
100
AcDbBlockBegin
  2
*D25
 70
     1
 10
0.0
 20
0.0
 30
0.0
  3
*D25
  1

  0
LINE
  5
1797
330
D23
100
AcDbEntity
  8
SUNPOU
100
AcDbLine
 10
268.5585686238034
 20
309.2650589374728
 30
0.0
 11
265.0230347178708
 21
312.8005928434055
 31
0.0
  0
LINE
  5
1798
330
D23
100
AcDbEntity
  8
SUNPOU
100
AcDbLine
 10
284.1149178099071
 20
293.7087097513684
 30
0.0
 11
287.6504517158398
 21
290.1731758454356
 31
0.0
  0
MTEXT
  5
1799
330
D23
100
AcDbEntity
  8
SUNPOU
100
AcDbMText
 10
285.0689115475265
 20
286.0147918371988
 30
0.0
 40
5.0
 41
0.0
 71
     5
 72
     1
  1
\A1;\U+220512
  7
SUNPOU
 11
-0.7071067811865475
 21
0.7071067811865476
 31
0.0
1001
ACAD
1000
MTEXTBEGIN
1070
    73
1070
     1
1070
    44
1040
1.0
1070
    74
1070
     0
1000
MTEXTEND
1000
MTEXTBEGIN
1070
    73
1070
     1
1070
    44
1040
1.0
1070
    74
1070
     0
1000
MTEXTEND
  0
LINE
  5
179A
330
D23
100
AcDbEntity
  8
SUNPOU
100
AcDbLine
 10
272.0941025297361
 20
305.7295250315399
 30
0.0
 11
280.5793839039744
 21
297.2442436573013
 31
0.0
  0
INSERT
  5
179B
330
D23
100
AcDbEntity
  8
SUNPOU
100
AcDbBlockReference
  2
_OPEN30
 10
272.0941025297361
 20
305.7295250315399
 30
0.0
 41
5.0
 42
5.0
 43
5.0
 50
314.9999999999987
  0
INSERT
  5
179C
330
D23
100
AcDbEntity
  8
SUNPOU
100
AcDbBlockReference
  2
_OPEN30
 10
280.5793839039744
 20
297.2442436573013
 30
0.0
 41
5.0
 42
5.0
 43
5.0
 50
134.9999999999988
  0
POINT
  5
179D
330
D23
100
AcDbEntity
  8
DEFPOINTS
 62
     0
100
AcDbPoint
 10
280.5793839039744
 20
297.2442436573013
 30
0.0
  0
POINT
  5
179E
330
D23
100
AcDbEntity
  8
DEFPOINTS
 62
     0
100
AcDbPoint
 10
272.0941025297361
 20
305.7295250315399
 30
0.0
  0
ENDBLK
  5
D2D
330
D23
100
AcDbEntity
  8
0
100
AcDbBlockEnd
  0
ENDSEC
  0
SECTION
  2
ENTITIES
  0
LINE
  5
1FB
330
A
100
AcDbEntity
  8
03
100
AcDbLine
 10
332.3367432168561
 20
473.5268843444204
 30
0.0
 11
308.3367432168561
 21
473.5268843444204
 31
0.0
  0
LINE
  5
1FC
330
A
100
AcDbEntity
  8
03
100
AcDbLine
 10
270.336743216856
 20
473.5268843444206
 30
0.0
 11
262.336743216856
 21
473.5268843444207
 31
0.0
  0
LINE
  5
1FD
330
A
100
AcDbEntity
  8
03
100
AcDbLine
 10
262.336743216856
 20
473.5268843444207
 30
0.0
 11
262.336743216856
 21
503.5268843444207
 31
0.0
  0
LINE
  5
1FE
330
A
100
AcDbEntity
  8
03
100
AcDbLine
 10
262.336743216856
 20
503.5268843444207
 30
0.0
 11
263.836743216856
 21
503.5268843444207
 31
0.0
  0
LINE
  5
1FF
330
A
100
AcDbEntity
  8
03
100
AcDbLine
 10
330.8367432168561
 20
503.5268843444204
 30
0.0
 11
332.3367432168562
 21
503.5268843444204
 31
0.0
  0
LINE
  5
200
330
A
100
AcDbEntity
  8
03
100
AcDbLine
 10
332.3367432168562
 20
503.5268843444204
 30
0.0
 11
332.3367432168561
 21
473.5268843444204
 31
0.0
  0
LINE
  5
201
330
A
100
AcDbEntity
  8
03
100
AcDbLine
 10
330.836743216856
 20
475.0268843444204
 30
0.0
 11
309.836743216856
 21
475.0268843444204
 31
0.0
  0
LINE
  5
202
330
A
100
AcDbEntity
  8
03
100
AcDbLine
 10
308.336743216856
 20
475.0268843444204
 30
0.0
 11
305.336743216856
 21
475.0268843444204
 31
0.0
  0
LINE
  5
203
330
A
100
AcDbEntity
  8
03
100
AcDbLine
 10
289.336743216856
 20
475.0268843444206
 30
0.0
 11
286.336743216856
 21
475.0268843444206
 31
0.0
  0
LINE
  5
204
330
A
100
AcDbEntity
  8
03
100
AcDbLine
 10
284.836743216856
 20
475.0268843444206
 30
0.0
 11
282.3367432168561
 21
475.0268843444206
 31
0.0
  0
LINE
  5
205
330
A
100
AcDbEntity
  8
03
100
AcDbLine
 10
266.8367432168559
 20
475.0268843444207
 30
0.0
 11
263.836743216856
 21
475.0268843444207
 31
0.0
  0
LINE
  5
206
330
A
100
AcDbEntity
  8
03
100
AcDbLine
 10
263.836743216856
 20
503.5268843444207
 30
0.0
 11
263.836743216856
 21
497.5268843444206
 31
0.0
  0
LINE
  5
207
330
A
100
AcDbEntity
  8
03
100
AcDbLine
 10
263.836743216856
 20
495.5268843444208
 30
0.0
 11
263.836743216856
 21
494.0268843444207
 31
0.0
  0
LINE
  5
208
330
A
100
AcDbEntity
  8
03
100
AcDbLine
 10
263.836743216856
 20
492.5268843444206
 30
0.0
 11
263.836743216856
 21
486.5268843444207
 31
0.0
  0
LINE
  5
209
330
A
100
AcDbEntity
  8
03
100
AcDbLine
 10
263.836743216856
 20
485.5268843444206
 30
0.0
 11
263.836743216856
 21
476.5268843444206
 31
0.0
  0
LINE
  5
20A
330
A
100
AcDbEntity
  8
03
100
AcDbLine
 10
263.836743216856
 20
475.0268843444207
 30
0.0
 11
263.836743216856
 21
473.5268843444207
 31
0.0
  0
LINE
  5
20B
330
A
100
AcDbEntity
  8
03
100
AcDbLine
 10
330.8367432168561
 20
503.5268843444204
 30
0.0
 11
330.8367432168561
 21
496.5268843444205
 31
0.0
  0
LINE
  5
20C
330
A
100
AcDbEntity
  8
03
100
AcDbLine
 10
330.8367432168561
 20
495.0268843444204
 30
0.0
 11
330.836743216856
 21
475.0268843444204
 31
0.0
  0
LINE
  5
20D
330
A
100
AcDbEntity
  8
03
100
AcDbLine
 10
328.3367432168561
 20
502.0268843444204
 30
0.0
 11
322.3367432168561
 21
502.0268843444204
 31
0.0
  0
LINE
  5
20E
330
A
100
AcDbEntity
  8
03
100
AcDbLine
 10
272.336743216856
 20
502.0268843444204
 30
0.0
 11
266.836743216856
 21
502.0268843444206
 31
0.0
  0
LINE
  5
20F
330
A
100
AcDbEntity
  8
03
100
AcDbLine
 10
330.8367432168561
 20
496.5268843444205
 30
0.0
 11
328.3367432168561
 21
496.5268843444205
 31
0.0
  0
LINE
  5
210
330
A
100
AcDbEntity
  8
03
100
AcDbLine
 10
330.8367432168561
 20
495.0268843444204
 30
0.0
 11
326.8367432168561
 21
495.0268843444204
 31
0.0
  0
LINE
  5
211
330
A
100
AcDbEntity
  8
03
100
AcDbLine
 10
328.3367432168561
 20
502.0268843444204
 30
0.0
 11
328.3367432168561
 21
496.5268843444205
 31
0.0
  0
LINE
  5
212
330
A
100
AcDbEntity
  8
03
100
AcDbLine
 10
326.8367432168561
 20
495.0268843444204
 30
0.0
 11
326.8367432168561
 21
500.5268843444205
 31
0.0
  0
LINE
  5
213
330
A
100
AcDbEntity
  8
03
100
AcDbLine
 10
322.3367432168561
 20
502.0268843444204
 30
0.0
 11
322.3367432168561
 21
500.5268843444205
 31
0.0
  0
LINE
  5
214
330
A
100
AcDbEntity
  8
03
100
AcDbLine
 10
322.3367432168561
 20
500.5268843444205
 30
0.0
 11
326.8367432168561
 21
500.5268843444205
 31
0.0
  0
LINE
  5
215
330
A
100
AcDbEntity
  8
03
100
AcDbLine
 10
286.336743216856
 20
473.5268843444206
 30
0.0
 11
286.336743216856
 21
475.0268843444206
 31
0.0
  0
LINE
  5
216
330
A
100
AcDbEntity
  8
03
100
AcDbLine
 10
286.336743216856
 20
477.0268843444206
 30
0.0
 11
286.336743216856
 21
485.5268843444206
 31
0.0
  0
LINE
  5
217
330
A
100
AcDbEntity
  8
03
100
AcDbLine
 10
286.3367432168561
 20
486.5268843444206
 30
0.0
 11
286.3367432168561
 21
495.5268843444206
 31
0.0
  0
LINE
  5
218
330
A
100
AcDbEntity
  8
03
100
AcDbLine
 10
308.3367432168561
 20
473.5268843444204
 30
0.0
 11
308.336743216856
 21
475.0268843444204
 31
0.0
  0
LINE
  5
219
330
A
100
AcDbEntity
  8
03
100
AcDbLine
 10
308.336743216856
 20
477.0268843444204
 30
0.0
 11
308.336743216856
 21
485.5268843444204
 31
0.0
  0
LINE
  5
21A
330
A
100
AcDbEntity
  8
03
100
AcDbLine
 10
308.3367432168561
 20
486.5268843444204
 30
0.0
 11
308.3367432168561
 21
492.5268843444205
 31
0.0
  0
LINE
  5
21B
330
A
100
AcDbEntity
  8
03
100
AcDbLine
 10
308.3367432168561
 20
494.0268843444204
 30
0.0
 11
308.3367432168561
 21
495.5268843444204
 31
0.0
  0
LINE
  5
21C
330
A
100
AcDbEntity
  8
03
100
AcDbLine
 10
289.336743216856
 20
475.0268843444206
 30
0.0
 11
289.336743216856
 21
477.0268843444206
 31
0.0
  0
LINE
  5
21D
330
A
100
AcDbEntity
  8
03
100
AcDbLine
 10
289.336743216856
 20
485.5268843444206
 30
0.0
 11
289.3367432168561
 21
486.5268843444206
 31
0.0
  0
LINE
  5
21E
330
A
100
AcDbEntity
  8
03
100
AcDbLine
 10
305.336743216856
 20
475.0268843444204
 30
0.0
 11
305.336743216856
 21
477.0268843444204
 31
0.0
  0
LINE
  5
21F
330
A
100
AcDbEntity
  8
03
100
AcDbLine
 10
305.336743216856
 20
485.5268843444204
 30
0.0
 11
305.3367432168561
 21
486.5268843444204
 31
0.0
  0
LINE
  5
220
330
A
100
AcDbEntity
  8
03
100
AcDbLine
 10
305.336743216856
 20
477.0268843444204
 30
0.0
 11
308.336743216856
 21
477.0268843444204
 31
0.0
  0
LINE
  5
221
330
A
100
AcDbEntity
  8
03
100
AcDbLine
 10
289.336743216856
 20
477.0268843444206
 30
0.0
 11
286.336743216856
 21
477.0268843444206
 31
0.0
  0
LINE
  5
222
330
A
100
AcDbEntity
  8
03
100
AcDbLine
 10
308.336743216856
 20
485.5268843444204
 30
0.0
 11
305.336743216856
 21
485.5268843444204
 31
0.0
  0
LINE
  5
223
330
A
100
AcDbEntity
  8
03
100
AcDbLine
 10
305.3367432168561
 20
486.5268843444204
 30
0.0
 11
308.3367432168561
 21
486.5268843444204
 31
0.0
  0
LINE
  5
224
330
A
100
AcDbEntity
  8
03
100
AcDbLine
 10
286.336743216856
 20
485.5268843444206
 30
0.0
 11
289.336743216856
 21
485.5268843444206
 31
0.0
  0
LINE
  5
225
330
A
100
AcDbEntity
  8
03
100
AcDbLine
 10
289.3367432168561
 20
486.5268843444206
 30
0.0
 11
286.3367432168561
 21
486.5268843444206
 31
0.0
  0
LINE
  5
226
330
A
100
AcDbEntity
  8
03
100
AcDbLine
 10
309.836743216856
 20
475.0268843444204
 30
0.0
 11
309.8367432168561
 21
497.5268843444204
 31
0.0
  0
LINE
  5
227
330
A
100
AcDbEntity
  8
03
100
AcDbLine
 10
284.836743216856
 20
475.0268843444206
 30
0.0
 11
284.8367432168561
 21
494.0268843444206
 31
0.0
  0
LINE
  5
228
330
A
100
AcDbEntity
  8
03
100
AcDbLine
 10
308.3367432168561
 20
495.5268843444204
 30
0.0
 11
263.836743216856
 21
495.5268843444208
 31
0.0
  0
LINE
  5
229
330
A
100
AcDbEntity
  8
03
100
AcDbLine
 10
263.836743216856
 20
497.5268843444206
 30
0.0
 11
266.836743216856
 21
497.5268843444206
 31
0.0
  0
LINE
  5
22A
330
A
100
AcDbEntity
  8
03
100
AcDbLine
 10
268.336743216856
 20
497.5268843444206
 30
0.0
 11
309.8367432168561
 21
497.5268843444204
 31
0.0
  0
LINE
  5
22B
330
A
100
AcDbEntity
  8
03
100
AcDbLine
 10
308.3367432168561
 20
494.0268843444204
 30
0.0
 11
306.8367432168561
 21
494.0268843444204
 31
0.0
  0
LINE
  5
22C
330
A
100
AcDbEntity
  8
03
100
AcDbLine
 10
308.3367432168561
 20
492.5268843444205
 30
0.0
 11
306.8367432168561
 21
494.0268843444204
 31
0.0
  0
LINE
  5
22D
330
A
100
AcDbEntity
  8
03
100
AcDbLine
 10
263.836743216856
 20
476.5268843444206
 30
0.0
 11
266.8367432168559
 21
476.5268843444206
 31
0.0
  0
LINE
  5
22E
330
A
100
AcDbEntity
  8
03
100
AcDbLine
 10
268.336743216856
 20
478.0268843444207
 30
0.0
 11
263.836743216856
 21
478.0268843444207
 31
0.0
  0
LINE
  5
22F
330
A
100
AcDbEntity
  8
03
100
AcDbLine
 10
266.836743216856
 20
485.5268843444206
 30
0.0
 11
263.836743216856
 21
485.5268843444206
 31
0.0
  0
LINE
  5
230
330
A
100
AcDbEntity
  8
03
100
AcDbLine
 10
263.836743216856
 20
486.5268843444207
 30
0.0
 11
266.836743216856
 21
486.5268843444207
 31
0.0
  0
LINE
  5
231
330
A
100
AcDbEntity
  8
03
100
AcDbLine
 10
266.836743216856
 20
485.5268843444206
 30
0.0
 11
266.836743216856
 21
486.5268843444207
 31
0.0
  0
LINE
  5
232
330
A
100
AcDbEntity
  8
03
100
AcDbLine
 10
266.8367432168559
 20
475.0268843444207
 30
0.0
 11
266.8367432168559
 21
476.5268843444206
 31
0.0
  0
LINE
  5
233
330
A
100
AcDbEntity
  8
03
100
AcDbLine
 10
268.336743216856
 20
478.0268843444207
 30
0.0
 11
268.336743216856
 21
475.0268843444207
 31
0.0
  0
LINE
  5
234
330
A
100
AcDbEntity
  8
03
100
AcDbLine
 10
272.336743216856
 20
502.0268843444204
 30
0.0
 11
272.336743216856
 21
500.5268843444206
 31
0.0
  0
LINE
  5
235
330
A
100
AcDbEntity
  8
03
100
AcDbLine
 10
272.336743216856
 20
500.5268843444206
 30
0.0
 11
268.336743216856
 21
500.5268843444206
 31
0.0
  0
LINE
  5
236
330
A
100
AcDbEntity
  8
03
100
AcDbLine
 10
266.836743216856
 20
502.0268843444206
 30
0.0
 11
266.836743216856
 21
497.5268843444206
 31
0.0
  0
LINE
  5
237
330
A
100
AcDbEntity
  8
03
100
AcDbLine
 10
268.336743216856
 20
497.5268843444206
 30
0.0
 11
268.336743216856
 21
500.5268843444206
 31
0.0
  0
LINE
  5
238
330
A
100
AcDbEntity
  8
03
100
AcDbLine
 10
267.836743216856
 20
494.0268843444206
 30
0.0
 11
263.836743216856
 21
494.0268843444207
 31
0.0
  0
LINE
  5
239
330
A
100
AcDbEntity
  8
03
100
AcDbLine
 10
265.336743216856
 20
494.0268843444207
 30
0.0
 11
263.836743216856
 21
492.5268843444206
 31
0.0
  0
LINE
  5
23A
330
A
100
AcDbEntity
  8
03
100
AcDbLine
 10
284.8367432168561
 20
494.0268843444206
 30
0.0
 11
281.8367432168561
 21
494.0268843444204
 31
0.0
  0
LINE
  5
23B
330
A
100
AcDbEntity
  8
03
100
AcDbLine
 10
280.836743216856
 20
493.0268843444205
 30
0.0
 11
268.836743216856
 21
493.0268843444206
 31
0.0
  0
LINE
  5
23C
330
A
100
AcDbEntity
  8
03
100
AcDbLine
 10
280.836743216856
 20
493.0268843444205
 30
0.0
 11
281.8367432168561
 21
494.0268843444204
 31
0.0
  0
LINE
  5
23D
330
A
100
AcDbEntity
  8
03
100
AcDbLine
 10
267.836743216856
 20
494.0268843444206
 30
0.0
 11
268.836743216856
 21
493.0268843444206
 31
0.0
  0
LINE
  5
23E
330
A
100
AcDbEntity
  8
03
100
AcDbLine
 10
308.3367432168561
 20
473.5268843444204
 30
0.0
 11
286.336743216856
 21
473.5268843444206
 31
0.0
  0
LINE
  5
23F
330
A
100
AcDbEntity
  8
03
100
AcDbLine
 10
304.3367432168559
 20
475.0268843444204
 30
0.0
 11
290.336743216856
 21
475.0268843444206
 31
0.0
  0
LINE
  5
240
330
A
100
AcDbEntity
  8
03
100
AcDbLine
 10
290.336743216856
 20
475.0268843444206
 30
0.0
 11
290.336743216856
 21
482.0268843444206
 31
0.0
  0
LINE
  5
241
330
A
100
AcDbEntity
  8
03
100
AcDbLine
 10
304.3367432168559
 20
475.0268843444204
 30
0.0
 11
304.3367432168559
 21
482.0268843444204
 31
0.0
  0
LINE
  5
242
330
A
100
AcDbEntity
  8
03
100
AcDbLine
 10
304.3367432168559
 20
482.0268843444204
 30
0.0
 11
305.336743216856
 21
482.0268843444204
 31
0.0
  0
LINE
  5
243
330
A
100
AcDbEntity
  8
03
100
AcDbLine
 10
290.336743216856
 20
482.0268843444206
 30
0.0
 11
289.336743216856
 21
482.0268843444206
 31
0.0
  0
LINE
  5
244
330
A
100
AcDbEntity
  8
03
100
AcDbLine
 10
288.836743216856
 20
477.0268843444206
 30
0.0
 11
289.336743216856
 21
482.0268843444206
 31
0.0
  0
LINE
  5
245
330
A
100
AcDbEntity
  8
03
100
AcDbLine
 10
305.836743216856
 20
477.0268843444203
 30
0.0
 11
305.336743216856
 21
482.0268843444204
 31
0.0
  0
LINE
  5
246
330
A
100
AcDbEntity
  8
03
100
AcDbLine
 10
279.336743216856
 20
489.5268843444206
 30
0.0
 11
275.336743216856
 21
489.5268843444206
 31
0.0
  0
LINE
  5
247
330
A
100
AcDbEntity
  8
03
100
AcDbLine
 10
275.336743216856
 20
489.5268843444206
 30
0.0
 11
275.336743216856
 21
493.0268843444205
 31
0.0
  0
LINE
  5
248
330
A
100
AcDbEntity
  8
03
100
AcDbLine
 10
279.336743216856
 20
493.0268843444206
 30
0.0
 11
279.336743216856
 21
489.5268843444206
 31
0.0
  0
ARC
  5
249
330
A
100
AcDbEntity
  8
03
100
AcDbCircle
 10
277.336743216856
 20
496.3668843444207
 30
0.0
 40
4.66
100
AcDbArc
 50
14.58888856369848
 51
165.4111110249411
  0
LINE
  5
24A
330
A
100
AcDbEntity
  8
03
100
AcDbLine
 10
262.3367432168555
 20
321.9868843444206
 30
0.0
 11
262.3367432168555
 21
323.4868843444206
 31
0.0
  0
LINE
  5
24B
330
A
100
AcDbEntity
  8
03
100
AcDbLine
 10
262.3367432168555
 20
323.4868843444206
 30
0.0
 11
270.3367432168553
 21
323.4868843444206
 31
0.0
  0
LINE
  5
24C
330
A
100
AcDbEntity
  8
03
100
AcDbLine
 10
294.3367432168555
 20
323.4868843444206
 30
0.0
 11
294.3367432168555
 21
321.9868843444206
 31
0.0
  0
LINE
  5
24D
330
A
100
AcDbEntity
  8
03
100
AcDbLine
 10
292.8367432168553
 20
263.4868843444205
 30
0.0
 11
286.3367432168553
 21
263.4868843444205
 31
0.0
  0
LINE
  5
24E
330
A
100
AcDbEntity
  8
03
100
AcDbLine
 10
264.3367432168553
 20
263.4868843444206
 30
0.0
 11
262.3367432168553
 21
263.4868843444206
 31
0.0
  0
LINE
  5
24F
330
A
100
AcDbEntity
  8
03
100
AcDbLine
 10
263.3367432168554
 20
321.4868843444206
 30
0.0
 11
263.3367432168553
 21
266.4868843444208
 31
0.0
  0
LINE
  5
250
330
A
100
AcDbEntity
  8
03
100
AcDbLine
 10
292.8367432168553
 20
263.4868843444205
 30
0.0
 11
292.8367432168554
 21
312.4868843444206
 31
0.0
  0
LINE
  5
251
330
A
100
AcDbEntity
  8
03
100
AcDbLine
 10
292.8367432168554
 20
316.4868843444206
 30
0.0
 11
292.8367432168553
 21
318.9868843444206
 31
0.0
  0
LINE
  5
252
330
A
100
AcDbEntity
  8
03
100
AcDbLine
 10
294.3367432168555
 20
321.9868843444206
 30
0.0
 11
291.8367432168555
 21
321.9868843444206
 31
0.0
  0
LINE
  5
253
330
A
100
AcDbEntity
  8
03
100
AcDbLine
 10
270.3367432168553
 20
321.9868843444206
 30
0.0
 11
264.8367432168555
 21
321.9868843444206
 31
0.0
  0
LINE
  5
254
330
A
100
AcDbEntity
  8
03
100
AcDbLine
 10
264.8367432168555
 20
321.9868843444206
 30
0.0
 11
264.8367432168553
 21
280.9868843444206
 31
0.0
  0
LINE
  5
255
330
A
100
AcDbEntity
  8
03
100
AcDbLine
 10
264.8367432168553
 20
279.4868843444206
 30
0.0
 11
264.8367432168553
 21
266.9868843444206
 31
0.0
  0
LINE
  5
256
330
A
100
AcDbEntity
  8
03
100
AcDbLine
 10
264.8367432168553
 20
279.4868843444206
 30
0.0
 11
280.1967432168554
 21
279.4868843444206
 31
0.0
  0
LINE
  5
257
330
A
100
AcDbEntity
  8
03
100
AcDbLine
 10
284.3367432168553
 20
280.9868843444205
 30
0.0
 11
264.8367432168553
 21
280.9868843444206
 31
0.0
  0
LINE
  5
258
330
A
100
AcDbEntity
  8
03
100
AcDbLine
 10
262.3367432168553
 20
266.4868843444208
 30
0.0
 11
263.3367432168553
 21
266.4868843444208
 31
0.0
  0
LINE
  5
259
330
A
100
AcDbEntity
  8
03
100
AcDbLine
 10
264.3367432168553
 20
263.4868843444206
 30
0.0
 11
264.3367432168553
 21
264.9868843444206
 31
0.0
  0
LINE
  5
25A
330
A
100
AcDbEntity
  8
03
100
AcDbLine
 10
286.3367432168553
 20
264.9868843444205
 30
0.0
 11
286.3367432168553
 21
263.4868843444205
 31
0.0
  0
LINE
  5
25B
330
A
100
AcDbEntity
  8
03
100
AcDbLine
 10
264.3367432168553
 20
264.9868843444206
 30
0.0
 11
267.3367432168553
 21
264.9868843444206
 31
0.0
  0
LINE
  5
25C
330
A
100
AcDbEntity
  8
03
100
AcDbLine
 10
283.3367432168553
 20
264.9868843444205
 30
0.0
 11
286.3367432168553
 21
264.9868843444205
 31
0.0
  0
LINE
  5
25D
330
A
100
AcDbEntity
  8
03
100
AcDbLine
 10
267.3367432168553
 20
264.9868843444206
 30
0.0
 11
267.3367432168553
 21
266.9868843444206
 31
0.0
  0
LINE
  5
25E
330
A
100
AcDbEntity
  8
03
100
AcDbLine
 10
283.3367432168553
 20
264.9868843444205
 30
0.0
 11
283.3367432168553
 21
266.9868843444205
 31
0.0
  0
LINE
  5
25F
330
A
100
AcDbEntity
  8
03
100
AcDbLine
 10
283.3367432168553
 20
266.9868843444205
 30
0.0
 11
287.8367432168553
 21
266.9868843444205
 31
0.0
  0
LINE
  5
260
330
A
100
AcDbEntity
  8
03
100
AcDbLine
 10
267.3367432168553
 20
266.9868843444206
 30
0.0
 11
264.8367432168553
 21
266.9868843444206
 31
0.0
  0
LINE
  5
261
330
A
100
AcDbEntity
  8
03
100
AcDbLine
 10
291.3367432168553
 20
264.9868843444205
 30
0.0
 11
287.8367432168553
 21
264.9868843444205
 31
0.0
  0
LINE
  5
262
330
A
100
AcDbEntity
  8
03
100
AcDbLine
 10
287.8367432168553
 20
266.9868843444205
 30
0.0
 11
287.8367432168553
 21
264.9868843444205
 31
0.0
  0
LINE
  5
263
330
A
100
AcDbEntity
  8
03
100
AcDbLine
 10
262.3367432168555
 20
321.9868843444206
 30
0.0
 11
263.3367432168554
 21
321.4868843444206
 31
0.0
  0
ARC
  5
264
330
A
100
AcDbEntity
  8
03
100
AcDbCircle
 10
284.3367432168553
 20
277.4868843444205
 30
0.0
 40
1.759999999999999
100
AcDbArc
 50
315.9222219640681
 51
224.9999998457398
  0
ARC
  5
265
330
A
100
AcDbEntity
  8
03
100
AcDbCircle
 10
288.3367432168554
 20
319.9868843444206
 30
0.0
 40
1.759999999999999
100
AcDbArc
 50
241.7666664932478
 51
178.5999998987595
  0
ARC
  5
266
330
A
100
AcDbEntity
  8
03
100
AcDbCircle
 10
285.8767432168555
 20
320.0468843444206
 30
0.0
 40
0.7
100
AcDbArc
 50
284.8222219996051
 51
358.5999996930796
  0
ARC
  5
267
330
A
100
AcDbEntity
  8
03
100
AcDbCircle
 10
287.1767432168553
 20
317.8268843444207
 30
0.0
 40
0.7
100
AcDbArc
 50
61.76666628756781
 51
134.9999999485797
  0
ARC
  5
268
330
A
100
AcDbEntity
  8
03
100
AcDbCircle
 10
284.3367432168553
 20
277.4868843444205
 30
0.0
 40
3.259999999999998
100
AcDbArc
 50
166.4222221348969
 51
217.7777776317701
  0
ARC
  5
269
330
A
100
AcDbEntity
  8
03
100
AcDbCircle
 10
280.1967432168553
 20
278.4868843444206
 30
0.0
 40
1.0
100
AcDbArc
 50
346.4222219292171
 51
89.99999958863979
  0
ARC
  5
26A
330
A
100
AcDbEntity
  8
03
100
AcDbCircle
 10
288.3367432168554
 20
319.9868843444206
 30
0.0
 40
3.259999999999998
100
AcDbArc
 50
142.2222221625494
 51
179.0999998981881
  0
ARC
  5
26B
330
A
100
AcDbEntity
  8
03
100
AcDbCircle
 10
288.3367432168554
 20
319.9868843444206
 30
0.0
 40
3.259999999999998
100
AcDbArc
 50
241.0333331607524
 51
297.3444442075186
  0
ARC
  5
26C
330
A
100
AcDbEntity
  8
03
100
AcDbCircle
 10
287.0967432168555
 20
317.7468843444206
 30
0.0
 40
0.7
100
AcDbArc
 50
134.9999999485797
 51
241.0333331607524
  0
LINE
  5
26D
330
A
100
AcDbEntity
  8
03
100
AcDbLine
 10
291.3367432168553
 20
275.4868843444205
 30
0.0
 11
288.8367432168553
 21
275.4868843444205
 31
0.0
  0
LINE
  5
26E
330
A
100
AcDbEntity
  8
03
100
AcDbLine
 10
288.3367432168553
 20
275.4868843444205
 30
0.0
 11
285.5967432168553
 21
275.4868843444205
 31
0.0
  0
LINE
  5
26F
330
A
100
AcDbEntity
  8
03
100
AcDbLine
 10
283.0967432168553
 20
275.4868843444205
 30
0.0
 11
281.7567432168553
 21
275.4868843444205
 31
0.0
  0
LINE
  5
270
330
A
100
AcDbEntity
  8
03
100
AcDbLine
 10
287.7967432168551
 20
276.9868843444205
 30
0.0
 11
291.3367432168553
 21
276.9868843444205
 31
0.0
  0
LINE
  5
271
330
A
100
AcDbEntity
  8
03
100
AcDbLine
 10
288.8367432168553
 20
275.4868843444205
 30
0.0
 11
288.8367432168553
 21
273.4868843444205
 31
0.0
  0
LINE
  5
272
330
A
100
AcDbEntity
  8
03
100
AcDbLine
 10
288.8367432168553
 20
273.4868843444205
 30
0.0
 11
288.3367432168553
 21
273.4868843444205
 31
0.0
  0
LINE
  5
273
330
A
100
AcDbEntity
  8
03
100
AcDbLine
 10
288.3367432168553
 20
273.4868843444205
 30
0.0
 11
288.3367432168553
 21
275.4868843444205
 31
0.0
  0
LINE
  5
274
330
A
100
AcDbEntity
  8
03
100
AcDbLine
 10
283.0967432168553
 20
276.2468843444206
 30
0.0
 11
283.0967432168553
 21
275.4868843444205
 31
0.0
  0
LINE
  5
275
330
A
100
AcDbEntity
  8
03
100
AcDbLine
 10
285.5967432168553
 20
275.4868843444205
 30
0.0
 11
285.5967432168553
 21
276.2668843444207
 31
0.0
  0
ARC
  5
276
330
A
100
AcDbEntity
  8
03
100
AcDbCircle
 10
284.3367432168553
 20
277.4868843444205
 30
0.0
 40
3.5
100
AcDbArc
 50
351.7777774786528
 51
89.99999958863979
  0
LINE
  5
277
330
A
100
AcDbEntity
  8
03
100
AcDbLine
 10
286.0567432168555
 20
319.3668843444206
 30
0.0
 11
285.9567432168555
 21
319.3468843444207
 31
0.0
  0
ARC
  5
278
330
A
100
AcDbEntity
  8
03
100
AcDbCircle
 10
285.7767432168555
 20
320.0268843444206
 30
0.0
 40
0.7
100
AcDbArc
 50
179.0999998981881
 51
284.7777775552116
  0
LINE
  5
279
330
A
100
AcDbEntity
  8
03
100
AcDbLine
 10
286.6767432168554
 20
318.3268843444206
 30
0.0
 11
286.5967432168555
 21
318.2468843444206
 31
0.0
  0
LINE
  5
27A
330
A
100
AcDbEntity
  8
03
100
AcDbLine
 10
291.8367432168555
 20
321.9868843444206
 30
0.0
 11
291.8367432168555
 21
318.9868843444206
 31
0.0
  0
LINE
  5
27B
330
A
100
AcDbEntity
  8
03
100
AcDbLine
 10
291.8367432168555
 20
318.9868843444206
 30
0.0
 11
292.8367432168553
 21
318.9868843444206
 31
0.0
  0
LINE
  5
27C
330
A
100
AcDbEntity
  8
03
100
AcDbLine
 10
292.8367432168554
 20
312.4868843444206
 30
0.0
 11
292.3367432168554
 21
312.4868843444206
 31
0.0
  0
LINE
  5
27D
330
A
100
AcDbEntity
  8
03
100
AcDbLine
 10
292.8367432168554
 20
316.4868843444206
 30
0.0
 11
292.3367432168554
 21
316.4868843444206
 31
0.0
  0
LINE
  5
27E
330
A
100
AcDbEntity
  8
03
100
AcDbLine
 10
292.3367432168554
 20
311.4868843444206
 30
0.0
 11
291.3367432168555
 21
311.4868843444206
 31
0.0
  0
LINE
  5
27F
330
A
100
AcDbEntity
  8
03
100
AcDbLine
 10
292.3367432168554
 20
317.4868843444206
 30
0.0
 11
291.3367432168555
 21
317.4868843444206
 31
0.0
  0
LINE
  5
280
330
A
100
AcDbEntity
  8
03
100
AcDbLine
 10
292.3367432168554
 20
317.4868843444206
 30
0.0
 11
292.3367432168554
 21
316.4868843444206
 31
0.0
  0
LINE
  5
281
330
A
100
AcDbEntity
  8
03
100
AcDbLine
 10
292.3367432168554
 20
312.4868843444206
 30
0.0
 11
292.3367432168554
 21
311.4868843444206
 31
0.0
  0
LINE
  5
282
330
A
100
AcDbEntity
  8
03
100
AcDbLine
 10
291.3367432168555
 20
311.4868843444206
 30
0.0
 11
291.3367432168555
 21
317.4868843444206
 31
0.0
  0
LINE
  5
283
330
A
100
AcDbEntity
  8
03
100
AcDbLine
 10
289.8367432168555
 20
317.0868843444206
 30
0.0
 11
289.8367432168553
 21
309.9868843444206
 31
0.0
  0
LINE
  5
284
330
A
100
AcDbEntity
  8
03
100
AcDbLine
 10
289.8367432168553
 20
309.9868843444206
 30
0.0
 11
291.3367432168553
 21
309.9868843444206
 31
0.0
  0
LINE
  5
285
330
A
100
AcDbEntity
  8
03
100
AcDbLine
 10
291.3367432168553
 20
309.9868843444206
 30
0.0
 11
291.3367432168553
 21
276.9868843444205
 31
0.0
  0
LINE
  5
286
330
A
100
AcDbEntity
  8
03
100
AcDbLine
 10
291.3367432168553
 20
275.4868843444205
 30
0.0
 11
291.3367432168553
 21
264.9868843444205
 31
0.0
  0
LINE
  5
287
330
A
100
AcDbEntity
  8
03
100
AcDbLine
 10
262.3367432168553
 20
266.4868843444208
 30
0.0
 11
262.3367432168552
 21
223.4868843444206
 31
0.0
  0
LINE
  5
288
330
A
100
AcDbEntity
  8
03
100
AcDbLine
 10
162.8301886792449
 20
358.1114365809438
 30
0.0
 11
138.8301886792449
 21
358.1114365809439
 31
0.0
  0
LINE
  5
289
330
A
100
AcDbEntity
  8
03
100
AcDbLine
 10
116.8301886792449
 20
358.1114365809439
 30
0.0
 11
92.830188679245
 21
358.1114365809441
 31
0.0
  0
LINE
  5
28A
330
A
100
AcDbEntity
  8
03
100
AcDbLine
 10
92.830188679245
 20
358.1114365809441
 30
0.0
 11
92.83018867924491
 21
328.1114365809441
 31
0.0
  0
LINE
  5
28B
330
A
100
AcDbEntity
  8
03
100
AcDbLine
 10
92.83018867924491
 20
328.1114365809441
 30
0.0
 11
94.33018867924491
 21
328.1114365809441
 31
0.0
  0
LINE
  5
28C
330
A
100
AcDbEntity
  8
03
100
AcDbLine
 10
161.3301886792449
 20
328.1114365809438
 30
0.0
 11
162.8301886792449
 21
328.1114365809437
 31
0.0
  0
LINE
  5
28D
330
A
100
AcDbEntity
  8
03
100
AcDbLine
 10
162.8301886792449
 20
328.1114365809437
 30
0.0
 11
162.8301886792449
 21
358.1114365809438
 31
0.0
  0
LINE
  5
28E
330
A
100
AcDbEntity
  8
03
100
AcDbLine
 10
161.3301886792449
 20
356.6114365809439
 30
0.0
 11
140.330188679245
 21
356.6114365809439
 31
0.0
  0
LINE
  5
28F
330
A
100
AcDbEntity
  8
03
100
AcDbLine
 10
138.8301886792449
 20
356.6114365809439
 30
0.0
 11
135.8301886792449
 21
356.6114365809439
 31
0.0
  0
LINE
  5
290
330
A
100
AcDbEntity
  8
03
100
AcDbLine
 10
119.8301886792449
 20
356.6114365809439
 30
0.0
 11
116.8301886792449
 21
356.6114365809439
 31
0.0
  0
LINE
  5
291
330
A
100
AcDbEntity
  8
03
100
AcDbLine
 10
115.330188679245
 20
356.6114365809439
 30
0.0
 11
98.830188679245
 21
356.6114365809439
 31
0.0
  0
LINE
  5
292
330
A
100
AcDbEntity
  8
03
100
AcDbLine
 10
97.33018867924499
 20
356.6114365809441
 30
0.0
 11
94.330188679245
 21
356.6114365809441
 31
0.0
  0
LINE
  5
293
330
A
100
AcDbEntity
  8
03
100
AcDbLine
 10
94.33018867924491
 20
328.1114365809441
 30
0.0
 11
94.33018867924491
 21
334.1114365809441
 31
0.0
  0
LINE
  5
294
330
A
100
AcDbEntity
  8
03
100
AcDbLine
 10
94.33018867924491
 20
336.1114365809441
 30
0.0
 11
94.33018867924491
 21
337.6114365809441
 31
0.0
  0
LINE
  5
295
330
A
100
AcDbEntity
  8
03
100
AcDbLine
 10
94.33018867924491
 20
339.1114365809441
 30
0.0
 11
94.33018867924507
 21
345.1114365809441
 31
0.0
  0
LINE
  5
296
330
A
100
AcDbEntity
  8
03
100
AcDbLine
 10
94.33018867924507
 20
346.1114365809441
 30
0.0
 11
94.33018867924513
 21
355.1114365809441
 31
0.0
  0
LINE
  5
297
330
A
100
AcDbEntity
  8
03
100
AcDbLine
 10
94.330188679245
 20
356.6114365809441
 30
0.0
 11
94.330188679245
 21
358.1114365809441
 31
0.0
  0
LINE
  5
298
330
A
100
AcDbEntity
  8
03
100
AcDbLine
 10
161.3301886792449
 20
328.1114365809438
 30
0.0
 11
161.330188679245
 21
335.1114365809438
 31
0.0
  0
LINE
  5
299
330
A
100
AcDbEntity
  8
03
100
AcDbLine
 10
161.330188679245
 20
336.6114365809438
 30
0.0
 11
161.3301886792449
 21
356.6114365809439
 31
0.0
  0
LINE
  5
29A
330
A
100
AcDbEntity
  8
03
100
AcDbLine
 10
158.8301886792449
 20
329.6114365809438
 30
0.0
 11
152.8301886792449
 21
329.6114365809438
 31
0.0
  0
LINE
  5
29B
330
A
100
AcDbEntity
  8
03
100
AcDbLine
 10
102.8301886792448
 20
329.6114365809439
 30
0.0
 11
97.33018867924492
 21
329.6114365809441
 31
0.0
  0
LINE
  5
29C
330
A
100
AcDbEntity
  8
03
100
AcDbLine
 10
161.330188679245
 20
335.1114365809438
 30
0.0
 11
158.830188679245
 21
335.1114365809438
 31
0.0
  0
LINE
  5
29D
330
A
100
AcDbEntity
  8
03
100
AcDbLine
 10
161.330188679245
 20
336.6114365809438
 30
0.0
 11
157.3301886792449
 21
336.6114365809438
 31
0.0
  0
LINE
  5
29E
330
A
100
AcDbEntity
  8
03
100
AcDbLine
 10
158.8301886792449
 20
329.6114365809438
 30
0.0
 11
158.830188679245
 21
335.1114365809438
 31
0.0
  0
LINE
  5
29F
330
A
100
AcDbEntity
  8
03
100
AcDbLine
 10
157.3301886792449
 20
336.6114365809438
 30
0.0
 11
157.3301886792449
 21
331.1114365809438
 31
0.0
  0
LINE
  5
2A0
330
A
100
AcDbEntity
  8
03
100
AcDbLine
 10
152.8301886792449
 20
329.6114365809438
 30
0.0
 11
152.8301886792449
 21
331.1114365809438
 31
0.0
  0
LINE
  5
2A1
330
A
100
AcDbEntity
  8
03
100
AcDbLine
 10
152.8301886792449
 20
331.1114365809438
 30
0.0
 11
157.3301886792449
 21
331.1114365809438
 31
0.0
  0
LINE
  5
2A2
330
A
100
AcDbEntity
  8
03
100
AcDbLine
 10
116.8301886792449
 20
358.1114365809439
 30
0.0
 11
116.8301886792449
 21
356.6114365809439
 31
0.0
  0
LINE
  5
2A3
330
A
100
AcDbEntity
  8
03
100
AcDbLine
 10
116.8301886792451
 20
354.6114365809439
 30
0.0
 11
116.8301886792449
 21
346.1114365809439
 31
0.0
  0
LINE
  5
2A4
330
A
100
AcDbEntity
  8
03
100
AcDbLine
 10
116.8301886792449
 20
345.1114365809439
 30
0.0
 11
116.8301886792449
 21
336.1114365809439
 31
0.0
  0
LINE
  5
2A5
330
A
100
AcDbEntity
  8
03
100
AcDbLine
 10
138.8301886792449
 20
358.1114365809439
 30
0.0
 11
138.8301886792449
 21
356.6114365809439
 31
0.0
  0
LINE
  5
2A6
330
A
100
AcDbEntity
  8
03
100
AcDbLine
 10
138.8301886792449
 20
354.6114365809439
 30
0.0
 11
138.8301886792449
 21
346.1114365809439
 31
0.0
  0
LINE
  5
2A7
330
A
100
AcDbEntity
  8
03
100
AcDbLine
 10
138.8301886792449
 20
345.1114365809439
 30
0.0
 11
138.8301886792449
 21
339.1114365809438
 31
0.0
  0
LINE
  5
2A8
330
A
100
AcDbEntity
  8
03
100
AcDbLine
 10
138.8301886792449
 20
337.6114365809438
 30
0.0
 11
138.8301886792449
 21
336.1114365809438
 31
0.0
  0
LINE
  5
2A9
330
A
100
AcDbEntity
  8
03
100
AcDbLine
 10
119.8301886792449
 20
356.6114365809439
 30
0.0
 11
119.8301886792449
 21
354.6114365809439
 31
0.0
  0
LINE
  5
2AA
330
A
100
AcDbEntity
  8
03
100
AcDbLine
 10
119.8301886792449
 20
346.1114365809439
 30
0.0
 11
119.8301886792449
 21
345.1114365809439
 31
0.0
  0
LINE
  5
2AB
330
A
100
AcDbEntity
  8
03
100
AcDbLine
 10
135.8301886792449
 20
356.6114365809439
 30
0.0
 11
135.8301886792449
 21
354.6114365809439
 31
0.0
  0
LINE
  5
2AC
330
A
100
AcDbEntity
  8
03
100
AcDbLine
 10
135.8301886792449
 20
346.1114365809439
 30
0.0
 11
135.8301886792449
 21
345.1114365809439
 31
0.0
  0
LINE
  5
2AD
330
A
100
AcDbEntity
  8
03
100
AcDbLine
 10
135.8301886792449
 20
354.6114365809439
 30
0.0
 11
138.8301886792449
 21
354.6114365809439
 31
0.0
  0
LINE
  5
2AE
330
A
100
AcDbEntity
  8
03
100
AcDbLine
 10
119.8301886792449
 20
354.6114365809439
 30
0.0
 11
116.8301886792451
 21
354.6114365809439
 31
0.0
  0
LINE
  5
2AF
330
A
100
AcDbEntity
  8
03
100
AcDbLine
 10
138.8301886792449
 20
346.1114365809439
 30
0.0
 11
135.8301886792449
 21
346.1114365809439
 31
0.0
  0
LINE
  5
2B0
330
A
100
AcDbEntity
  8
03
100
AcDbLine
 10
135.8301886792449
 20
345.1114365809439
 30
0.0
 11
138.8301886792449
 21
345.1114365809439
 31
0.0
  0
LINE
  5
2B1
330
A
100
AcDbEntity
  8
03
100
AcDbLine
 10
116.8301886792449
 20
346.1114365809439
 30
0.0
 11
119.8301886792449
 21
346.1114365809439
 31
0.0
  0
LINE
  5
2B2
330
A
100
AcDbEntity
  8
03
100
AcDbLine
 10
119.8301886792449
 20
345.1114365809439
 30
0.0
 11
116.8301886792449
 21
345.1114365809439
 31
0.0
  0
LINE
  5
2B3
330
A
100
AcDbEntity
  8
03
100
AcDbLine
 10
140.330188679245
 20
356.6114365809439
 30
0.0
 11
140.3301886792449
 21
334.1114365809438
 31
0.0
  0
LINE
  5
2B4
330
A
100
AcDbEntity
  8
03
100
AcDbLine
 10
115.330188679245
 20
356.6114365809439
 30
0.0
 11
115.3301886792448
 21
337.6114365809439
 31
0.0
  0
LINE
  5
2B5
330
A
100
AcDbEntity
  8
03
100
AcDbLine
 10
138.8301886792449
 20
336.1114365809438
 30
0.0
 11
94.33018867924491
 21
336.1114365809441
 31
0.0
  0
LINE
  5
2B6
330
A
100
AcDbEntity
  8
03
100
AcDbLine
 10
94.33018867924491
 20
334.1114365809441
 30
0.0
 11
97.33018867924492
 21
334.1114365809441
 31
0.0
  0
LINE
  5
2B7
330
A
100
AcDbEntity
  8
03
100
AcDbLine
 10
98.83018867924491
 20
334.1114365809441
 30
0.0
 11
140.3301886792449
 21
334.1114365809438
 31
0.0
  0
LINE
  5
2B8
330
A
100
AcDbEntity
  8
03
100
AcDbLine
 10
138.8301886792449
 20
337.6114365809438
 30
0.0
 11
137.3301886792449
 21
337.6114365809438
 31
0.0
  0
LINE
  5
2B9
330
A
100
AcDbEntity
  8
03
100
AcDbLine
 10
138.8301886792449
 20
339.1114365809438
 30
0.0
 11
137.3301886792449
 21
337.6114365809438
 31
0.0
  0
LINE
  5
2BA
330
A
100
AcDbEntity
  8
03
100
AcDbLine
 10
94.33018867924513
 20
355.1114365809441
 30
0.0
 11
97.33018867924513
 21
355.1114365809441
 31
0.0
  0
LINE
  5
2BB
330
A
100
AcDbEntity
  8
03
100
AcDbLine
 10
98.83018867924512
 20
353.6114365809439
 30
0.0
 11
94.33018867924513
 21
353.6114365809441
 31
0.0
  0
LINE
  5
2BC
330
A
100
AcDbEntity
  8
03
100
AcDbLine
 10
97.33018867924506
 20
346.1114365809441
 30
0.0
 11
94.33018867924507
 21
346.1114365809441
 31
0.0
  0
LINE
  5
2BD
330
A
100
AcDbEntity
  8
03
100
AcDbLine
 10
94.33018867924507
 20
345.1114365809441
 30
0.0
 11
97.33018867924506
 21
345.1114365809441
 31
0.0
  0
LINE
  5
2BE
330
A
100
AcDbEntity
  8
03
100
AcDbLine
 10
97.33018867924506
 20
346.1114365809441
 30
0.0
 11
97.33018867924506
 21
345.1114365809441
 31
0.0
  0
LINE
  5
2BF
330
A
100
AcDbEntity
  8
03
100
AcDbLine
 10
97.33018867924499
 20
356.6114365809441
 30
0.0
 11
97.33018867924513
 21
355.1114365809441
 31
0.0
  0
LINE
  5
2C0
330
A
100
AcDbEntity
  8
03
100
AcDbLine
 10
98.83018867924512
 20
353.6114365809439
 30
0.0
 11
98.830188679245
 21
356.6114365809439
 31
0.0
  0
LINE
  5
2C1
330
A
100
AcDbEntity
  8
03
100
AcDbLine
 10
102.8301886792448
 20
329.6114365809439
 30
0.0
 11
102.8301886792448
 21
331.1114365809439
 31
0.0
  0
LINE
  5
2C2
330
A
100
AcDbEntity
  8
03
100
AcDbLine
 10
102.8301886792448
 20
331.1114365809439
 30
0.0
 11
98.83018867924491
 21
331.1114365809439
 31
0.0
  0
LINE
  5
2C3
330
A
100
AcDbEntity
  8
03
100
AcDbLine
 10
97.33018867924492
 20
329.6114365809441
 30
0.0
 11
97.33018867924492
 21
334.1114365809441
 31
0.0
  0
LINE
  5
2C4
330
A
100
AcDbEntity
  8
03
100
AcDbLine
 10
98.83018867924491
 20
334.1114365809441
 30
0.0
 11
98.83018867924491
 21
331.1114365809439
 31
0.0
  0
LINE
  5
2C5
330
A
100
AcDbEntity
  8
03
100
AcDbLine
 10
98.33018867924492
 20
337.6114365809439
 30
0.0
 11
94.33018867924491
 21
337.6114365809441
 31
0.0
  0
LINE
  5
2C6
330
A
100
AcDbEntity
  8
03
100
AcDbLine
 10
95.83018867924492
 20
337.6114365809441
 30
0.0
 11
94.33018867924491
 21
339.1114365809441
 31
0.0
  0
LINE
  5
2C7
330
A
100
AcDbEntity
  8
03
100
AcDbLine
 10
115.3301886792448
 20
337.6114365809439
 30
0.0
 11
112.3301886792448
 21
337.6114365809439
 31
0.0
  0
LINE
  5
2C8
330
A
100
AcDbEntity
  8
03
100
AcDbLine
 10
111.3301886792448
 20
338.6114365809441
 30
0.0
 11
99.33018867924491
 21
338.6114365809441
 31
0.0
  0
LINE
  5
2C9
330
A
100
AcDbEntity
  8
03
100
AcDbLine
 10
111.3301886792448
 20
338.6114365809441
 30
0.0
 11
112.3301886792448
 21
337.6114365809439
 31
0.0
  0
LINE
  5
2CA
330
A
100
AcDbEntity
  8
03
100
AcDbLine
 10
98.33018867924492
 20
337.6114365809439
 30
0.0
 11
99.33018867924491
 21
338.6114365809441
 31
0.0
  0
LINE
  5
2CB
330
A
100
AcDbEntity
  8
03
100
AcDbLine
 10
138.8301886792449
 20
358.1114365809439
 30
0.0
 11
116.8301886792449
 21
358.1114365809439
 31
0.0
  0
LINE
  5
2CC
330
A
100
AcDbEntity
  8
03
100
AcDbLine
 10
134.830188679245
 20
356.6114365809439
 30
0.0
 11
120.8301886792449
 21
356.6114365809439
 31
0.0
  0
LINE
  5
2CD
330
A
100
AcDbEntity
  8
03
100
AcDbLine
 10
120.8301886792449
 20
356.6114365809439
 30
0.0
 11
120.8301886792449
 21
349.611436580944
 31
0.0
  0
LINE
  5
2CE
330
A
100
AcDbEntity
  8
03
100
AcDbLine
 10
134.830188679245
 20
356.6114365809439
 30
0.0
 11
134.830188679245
 21
349.611436580944
 31
0.0
  0
LINE
  5
2CF
330
A
100
AcDbEntity
  8
03
100
AcDbLine
 10
134.830188679245
 20
349.611436580944
 30
0.0
 11
135.8301886792449
 21
349.611436580944
 31
0.0
  0
LINE
  5
2D0
330
A
100
AcDbEntity
  8
03
100
AcDbLine
 10
120.8301886792449
 20
349.611436580944
 30
0.0
 11
119.8301886792449
 21
349.611436580944
 31
0.0
  0
LINE
  5
2D1
330
A
100
AcDbEntity
  8
03
100
AcDbLine
 10
119.330188679245
 20
354.6114365809439
 30
0.0
 11
119.8301886792449
 21
349.611436580944
 31
0.0
  0
LINE
  5
2D2
330
A
100
AcDbEntity
  8
03
100
AcDbLine
 10
136.330188679245
 20
354.6114365809439
 30
0.0
 11
135.8301886792449
 21
349.611436580944
 31
0.0
  0
LINE
  5
2D3
330
A
100
AcDbEntity
  8
03
100
AcDbLine
 10
109.8301886792449
 20
342.1114365809439
 30
0.0
 11
105.8301886792448
 21
342.1114365809439
 31
0.0
  0
LINE
  5
2D4
330
A
100
AcDbEntity
  8
03
100
AcDbLine
 10
105.8301886792448
 20
342.1114365809439
 30
0.0
 11
105.8301886792448
 21
338.6114365809441
 31
0.0
  0
LINE
  5
2D5
330
A
100
AcDbEntity
  8
03
100
AcDbLine
 10
109.8301886792449
 20
338.6114365809441
 30
0.0
 11
109.8301886792449
 21
342.1114365809439
 31
0.0
  0
ARC
  5
2D6
330
A
100
AcDbEntity
  8
03
100
AcDbCircle
 10
107.8301886792448
 20
335.2914365809441
 30
0.0
 40
4.66
100
AcDbArc
 50
194.5888887693785
 51
345.4111108192611
  0
LINE
  5
2D7
330
A
100
AcDbEntity
  8
03
100
AcDbLine
 10
162.8301886792454
 20
508.1114365809439
 30
0.0
 11
138.8301886792454
 21
508.1114365809439
 31
0.0
  0
LINE
  5
2D8
330
A
100
AcDbEntity
  8
03
100
AcDbLine
 10
116.8301886792454
 20
508.1114365809439
 30
0.0
 11
92.83018867924544
 21
508.1114365809441
 31
0.0
  0
LINE
  5
2D9
330
A
100
AcDbEntity
  8
03
100
AcDbLine
 10
92.830188679245
 20
358.1114365809441
 30
0.0
 11
92.83018867924528
 21
430.6114365809442
 31
0.0
  0
LINE
  5
2DA
330
A
100
AcDbEntity
  8
03
100
AcDbLine
 10
92.83018867924523
 20
435.6114365809442
 30
0.0
 11
92.83018867924551
 21
538.1114365809442
 31
0.0
  0
LINE
  5
2DB
330
A
100
AcDbEntity
  8
03
100
AcDbLine
 10
92.83018867924551
 20
538.1114365809442
 30
0.0
 11
94.33018867924555
 21
538.1114365809442
 31
0.0
  0
LINE
  5
2DC
330
A
100
AcDbEntity
  8
03
100
AcDbLine
 10
161.3301886792456
 20
538.1114365809438
 30
0.0
 11
162.8301886792455
 21
538.1114365809438
 31
0.0
  0
LINE
  5
2DD
330
A
100
AcDbEntity
  8
03
100
AcDbLine
 10
162.8301886792455
 20
538.1114365809438
 30
0.0
 11
162.8301886792454
 21
508.1114365809439
 31
0.0
  0
LINE
  5
2DE
330
A
100
AcDbEntity
  8
03
100
AcDbLine
 10
161.3301886792454
 20
509.6114365809438
 30
0.0
 11
140.3301886792454
 21
509.6114365809439
 31
0.0
  0
LINE
  5
2DF
330
A
100
AcDbEntity
  8
03
100
AcDbLine
 10
138.8301886792454
 20
509.6114365809439
 30
0.0
 11
135.8301886792454
 21
509.6114365809439
 31
0.0
  0
LINE
  5
2E0
330
A
100
AcDbEntity
  8
03
100
AcDbLine
 10
119.8301886792454
 20
509.6114365809439
 30
0.0
 11
116.8301886792454
 21
509.6114365809439
 31
0.0
  0
LINE
  5
2E1
330
A
100
AcDbEntity
  8
03
100
AcDbLine
 10
115.3301886792454
 20
509.6114365809439
 30
0.0
 11
98.83018867924546
 21
509.6114365809442
 31
0.0
  0
LINE
  5
2E2
330
A
100
AcDbEntity
  8
03
100
AcDbLine
 10
97.33018867924544
 20
509.6114365809439
 30
0.0
 11
94.33018867924543
 21
509.6114365809442
 31
0.0
  0
LINE
  5
2E3
330
A
100
AcDbEntity
  8
03
100
AcDbLine
 10
94.33018867924555
 20
538.1114365809442
 30
0.0
 11
94.33018867924555
 21
532.1114365809441
 31
0.0
  0
LINE
  5
2E4
330
A
100
AcDbEntity
  8
03
100
AcDbLine
 10
94.33018867924555
 20
530.1114365809442
 30
0.0
 11
94.33018867924555
 21
528.611436580944
 31
0.0
  0
LINE
  5
2E5
330
A
100
AcDbEntity
  8
03
100
AcDbLine
 10
94.33018867924555
 20
527.1114365809442
 30
0.0
 11
94.3301886792455
 21
521.1114365809442
 31
0.0
  0
LINE
  5
2E6
330
A
100
AcDbEntity
  8
03
100
AcDbLine
 10
94.33018867924534
 20
520.111436580944
 30
0.0
 11
94.33018867924543
 21
511.1114365809442
 31
0.0
  0
LINE
  5
2E7
330
A
100
AcDbEntity
  8
03
100
AcDbLine
 10
94.33018867924543
 20
509.6114365809442
 30
0.0
 11
94.33018867924543
 21
508.1114365809441
 31
0.0
  0
LINE
  5
2E8
330
A
100
AcDbEntity
  8
03
100
AcDbLine
 10
161.3301886792456
 20
538.1114365809438
 30
0.0
 11
161.3301886792454
 21
531.1114365809438
 31
0.0
  0
LINE
  5
2E9
330
A
100
AcDbEntity
  8
03
100
AcDbLine
 10
161.3301886792454
 20
529.6114365809438
 30
0.0
 11
161.3301886792454
 21
509.6114365809438
 31
0.0
  0
LINE
  5
2EA
330
A
100
AcDbEntity
  8
03
100
AcDbLine
 10
158.8301886792455
 20
536.6114365809438
 30
0.0
 11
152.8301886792456
 21
536.611436580944
 31
0.0
  0
LINE
  5
2EB
330
A
100
AcDbEntity
  8
03
100
AcDbLine
 10
102.8301886792454
 20
536.6114365809441
 30
0.0
 11
97.33018867924556
 21
536.6114365809441
 31
0.0
  0
LINE
  5
2EC
330
A
100
AcDbEntity
  8
03
100
AcDbLine
 10
161.3301886792454
 20
531.1114365809438
 30
0.0
 11
158.8301886792454
 21
531.1114365809438
 31
0.0
  0
LINE
  5
2ED
330
A
100
AcDbEntity
  8
03
100
AcDbLine
 10
161.3301886792454
 20
529.6114365809438
 30
0.0
 11
157.3301886792454
 21
529.6114365809438
 31
0.0
  0
LINE
  5
2EE
330
A
100
AcDbEntity
  8
03
100
AcDbLine
 10
158.8301886792455
 20
536.6114365809438
 30
0.0
 11
158.8301886792454
 21
531.1114365809438
 31
0.0
  0
LINE
  5
2EF
330
A
100
AcDbEntity
  8
03
100
AcDbLine
 10
157.3301886792454
 20
529.6114365809438
 30
0.0
 11
157.3301886792456
 21
535.1114365809438
 31
0.0
  0
LINE
  5
2F0
330
A
100
AcDbEntity
  8
03
100
AcDbLine
 10
152.8301886792456
 20
536.611436580944
 30
0.0
 11
152.8301886792456
 21
535.1114365809438
 31
0.0
  0
LINE
  5
2F1
330
A
100
AcDbEntity
  8
03
100
AcDbLine
 10
152.8301886792456
 20
535.1114365809438
 30
0.0
 11
157.3301886792456
 21
535.1114365809438
 31
0.0
  0
LINE
  5
2F2
330
A
100
AcDbEntity
  8
03
100
AcDbLine
 10
116.8301886792454
 20
508.1114365809439
 30
0.0
 11
116.8301886792454
 21
509.6114365809439
 31
0.0
  0
LINE
  5
2F3
330
A
100
AcDbEntity
  8
03
100
AcDbLine
 10
116.8301886792454
 20
511.6114365809441
 30
0.0
 11
116.8301886792453
 21
520.111436580944
 31
0.0
  0
LINE
  5
2F4
330
A
100
AcDbEntity
  8
03
100
AcDbLine
 10
116.8301886792454
 20
521.1114365809439
 30
0.0
 11
116.8301886792455
 21
530.1114365809439
 31
0.0
  0
LINE
  5
2F5
330
A
100
AcDbEntity
  8
03
100
AcDbLine
 10
138.8301886792454
 20
508.1114365809439
 30
0.0
 11
138.8301886792454
 21
509.6114365809439
 31
0.0
  0
LINE
  5
2F6
330
A
100
AcDbEntity
  8
03
100
AcDbLine
 10
138.8301886792454
 20
511.611436580944
 30
0.0
 11
138.8301886792453
 21
520.111436580944
 31
0.0
  0
LINE
  5
2F7
330
A
100
AcDbEntity
  8
03
100
AcDbLine
 10
138.8301886792454
 20
521.1114365809438
 30
0.0
 11
138.8301886792454
 21
527.1114365809438
 31
0.0
  0
LINE
  5
2F8
330
A
100
AcDbEntity
  8
03
100
AcDbLine
 10
138.8301886792454
 20
528.611436580944
 30
0.0
 11
138.8301886792454
 21
530.1114365809438
 31
0.0
  0
LINE
  5
2F9
330
A
100
AcDbEntity
  8
03
100
AcDbLine
 10
119.8301886792454
 20
509.6114365809439
 30
0.0
 11
119.8301886792454
 21
511.6114365809441
 31
0.0
  0
LINE
  5
2FA
330
A
100
AcDbEntity
  8
03
100
AcDbLine
 10
119.8301886792453
 20
520.111436580944
 30
0.0
 11
119.8301886792455
 21
521.1114365809439
 31
0.0
  0
LINE
  5
2FB
330
A
100
AcDbEntity
  8
03
100
AcDbLine
 10
135.8301886792454
 20
509.6114365809439
 30
0.0
 11
135.8301886792454
 21
511.611436580944
 31
0.0
  0
LINE
  5
2FC
330
A
100
AcDbEntity
  8
03
100
AcDbLine
 10
135.8301886792453
 20
520.111436580944
 30
0.0
 11
135.8301886792454
 21
521.1114365809438
 31
0.0
  0
LINE
  5
2FD
330
A
100
AcDbEntity
  8
03
100
AcDbLine
 10
135.8301886792454
 20
511.611436580944
 30
0.0
 11
138.8301886792454
 21
511.611436580944
 31
0.0
  0
LINE
  5
2FE
330
A
100
AcDbEntity
  8
03
100
AcDbLine
 10
119.8301886792454
 20
511.6114365809441
 30
0.0
 11
116.8301886792454
 21
511.6114365809441
 31
0.0
  0
LINE
  5
2FF
330
A
100
AcDbEntity
  8
03
100
AcDbLine
 10
138.8301886792453
 20
520.111436580944
 30
0.0
 11
135.8301886792453
 21
520.111436580944
 31
0.0
  0
LINE
  5
300
330
A
100
AcDbEntity
  8
03
100
AcDbLine
 10
135.8301886792454
 20
521.1114365809438
 30
0.0
 11
138.8301886792454
 21
521.1114365809438
 31
0.0
  0
LINE
  5
301
330
A
100
AcDbEntity
  8
03
100
AcDbLine
 10
116.8301886792453
 20
520.111436580944
 30
0.0
 11
119.8301886792453
 21
520.111436580944
 31
0.0
  0
LINE
  5
302
330
A
100
AcDbEntity
  8
03
100
AcDbLine
 10
119.8301886792455
 20
521.1114365809439
 30
0.0
 11
116.8301886792454
 21
521.1114365809439
 31
0.0
  0
LINE
  5
303
330
A
100
AcDbEntity
  8
03
100
AcDbLine
 10
140.3301886792454
 20
509.6114365809439
 30
0.0
 11
140.3301886792454
 21
532.111436580944
 31
0.0
  0
LINE
  5
304
330
A
100
AcDbEntity
  8
03
100
AcDbLine
 10
115.3301886792454
 20
509.6114365809439
 30
0.0
 11
115.3301886792454
 21
528.611436580944
 31
0.0
  0
LINE
  5
305
330
A
100
AcDbEntity
  8
03
100
AcDbLine
 10
138.8301886792454
 20
530.1114365809438
 30
0.0
 11
94.33018867924555
 21
530.1114365809442
 31
0.0
  0
LINE
  5
306
330
A
100
AcDbEntity
  8
03
100
AcDbLine
 10
94.33018867924555
 20
532.1114365809441
 30
0.0
 11
97.33018867924556
 21
532.1114365809441
 31
0.0
  0
LINE
  5
307
330
A
100
AcDbEntity
  8
03
100
AcDbLine
 10
98.83018867924556
 20
532.1114365809441
 30
0.0
 11
140.3301886792454
 21
532.111436580944
 31
0.0
  0
LINE
  5
308
330
A
100
AcDbEntity
  8
03
100
AcDbLine
 10
138.8301886792454
 20
528.611436580944
 30
0.0
 11
137.3301886792454
 21
528.611436580944
 31
0.0
  0
LINE
  5
309
330
A
100
AcDbEntity
  8
03
100
AcDbLine
 10
138.8301886792454
 20
527.1114365809438
 30
0.0
 11
137.3301886792454
 21
528.611436580944
 31
0.0
  0
LINE
  5
30A
330
A
100
AcDbEntity
  8
03
100
AcDbLine
 10
94.33018867924543
 20
511.1114365809442
 30
0.0
 11
97.33018867924544
 21
511.1114365809441
 31
0.0
  0
LINE
  5
30B
330
A
100
AcDbEntity
  8
03
100
AcDbLine
 10
98.83018867924546
 20
512.611436580944
 30
0.0
 11
94.33018867924543
 21
512.611436580944
 31
0.0
  0
LINE
  5
30C
330
A
100
AcDbEntity
  8
03
100
AcDbLine
 10
97.33018867924535
 20
520.111436580944
 30
0.0
 11
94.33018867924534
 21
520.111436580944
 31
0.0
  0
LINE
  5
30D
330
A
100
AcDbEntity
  8
03
100
AcDbLine
 10
94.3301886792455
 20
521.1114365809442
 30
0.0
 11
97.33018867924549
 21
521.1114365809439
 31
0.0
  0
LINE
  5
30E
330
A
100
AcDbEntity
  8
03
100
AcDbLine
 10
97.33018867924535
 20
520.111436580944
 30
0.0
 11
97.33018867924549
 21
521.1114365809439
 31
0.0
  0
LINE
  5
30F
330
A
100
AcDbEntity
  8
03
100
AcDbLine
 10
97.33018867924544
 20
509.6114365809439
 30
0.0
 11
97.33018867924544
 21
511.1114365809441
 31
0.0
  0
LINE
  5
310
330
A
100
AcDbEntity
  8
03
100
AcDbLine
 10
98.83018867924546
 20
512.611436580944
 30
0.0
 11
98.83018867924546
 21
509.6114365809442
 31
0.0
  0
LINE
  5
311
330
A
100
AcDbEntity
  8
03
100
AcDbLine
 10
102.8301886792454
 20
536.6114365809441
 30
0.0
 11
102.8301886792454
 21
535.1114365809442
 31
0.0
  0
LINE
  5
312
330
A
100
AcDbEntity
  8
03
100
AcDbLine
 10
102.8301886792454
 20
535.1114365809442
 30
0.0
 11
98.83018867924556
 21
535.1114365809442
 31
0.0
  0
LINE
  5
313
330
A
100
AcDbEntity
  8
03
100
AcDbLine
 10
97.33018867924556
 20
536.6114365809441
 30
0.0
 11
97.33018867924556
 21
532.1114365809441
 31
0.0
  0
LINE
  5
314
330
A
100
AcDbEntity
  8
03
100
AcDbLine
 10
98.83018867924556
 20
532.1114365809441
 30
0.0
 11
98.83018867924556
 21
535.1114365809442
 31
0.0
  0
LINE
  5
315
330
A
100
AcDbEntity
  8
03
100
AcDbLine
 10
98.33018867924556
 20
528.611436580944
 30
0.0
 11
94.33018867924555
 21
528.611436580944
 31
0.0
  0
LINE
  5
316
330
A
100
AcDbEntity
  8
03
100
AcDbLine
 10
95.83018867924556
 20
528.611436580944
 30
0.0
 11
94.33018867924555
 21
527.1114365809442
 31
0.0
  0
LINE
  5
317
330
A
100
AcDbEntity
  8
03
100
AcDbLine
 10
115.3301886792454
 20
528.611436580944
 30
0.0
 11
112.3301886792454
 21
528.611436580944
 31
0.0
  0
LINE
  5
318
330
A
100
AcDbEntity
  8
03
100
AcDbLine
 10
111.3301886792454
 20
527.6114365809441
 30
0.0
 11
99.33018867924555
 21
527.6114365809442
 31
0.0
  0
LINE
  5
319
330
A
100
AcDbEntity
  8
03
100
AcDbLine
 10
111.3301886792454
 20
527.6114365809441
 30
0.0
 11
112.3301886792454
 21
528.611436580944
 31
0.0
  0
LINE
  5
31A
330
A
100
AcDbEntity
  8
03
100
AcDbLine
 10
98.33018867924556
 20
528.611436580944
 30
0.0
 11
99.33018867924555
 21
527.6114365809442
 31
0.0
  0
LINE
  5
31B
330
A
100
AcDbEntity
  8
03
100
AcDbLine
 10
138.8301886792454
 20
508.1114365809439
 30
0.0
 11
116.8301886792454
 21
508.1114365809439
 31
0.0
  0
LINE
  5
31C
330
A
100
AcDbEntity
  8
03
100
AcDbLine
 10
134.8301886792454
 20
509.6114365809439
 30
0.0
 11
120.8301886792454
 21
509.6114365809439
 31
0.0
  0
LINE
  5
31D
330
A
100
AcDbEntity
  8
03
100
AcDbLine
 10
120.8301886792454
 20
509.6114365809439
 30
0.0
 11
120.8301886792453
 21
516.6114365809439
 31
0.0
  0
LINE
  5
31E
330
A
100
AcDbEntity
  8
03
100
AcDbLine
 10
134.8301886792454
 20
509.6114365809439
 30
0.0
 11
134.8301886792453
 21
516.6114365809439
 31
0.0
  0
LINE
  5
31F
330
A
100
AcDbEntity
  8
03
100
AcDbLine
 10
134.8301886792453
 20
516.6114365809439
 30
0.0
 11
135.8301886792453
 21
516.6114365809439
 31
0.0
  0
LINE
  5
320
330
A
100
AcDbEntity
  8
03
100
AcDbLine
 10
120.8301886792453
 20
516.6114365809439
 30
0.0
 11
119.8301886792453
 21
516.6114365809439
 31
0.0
  0
LINE
  5
321
330
A
100
AcDbEntity
  8
03
100
AcDbLine
 10
119.3301886792454
 20
511.6114365809441
 30
0.0
 11
119.8301886792453
 21
516.6114365809439
 31
0.0
  0
LINE
  5
322
330
A
100
AcDbEntity
  8
03
100
AcDbLine
 10
136.3301886792454
 20
511.611436580944
 30
0.0
 11
135.8301886792453
 21
516.6114365809439
 31
0.0
  0
LINE
  5
323
330
A
100
AcDbEntity
  8
03
100
AcDbLine
 10
109.8301886792454
 20
524.1114365809441
 30
0.0
 11
105.8301886792454
 21
524.1114365809441
 31
0.0
  0
LINE
  5
324
330
A
100
AcDbEntity
  8
03
100
AcDbLine
 10
105.8301886792454
 20
524.1114365809441
 30
0.0
 11
105.8301886792454
 21
527.6114365809441
 31
0.0
  0
LINE
  5
325
330
A
100
AcDbEntity
  8
03
100
AcDbLine
 10
109.8301886792454
 20
527.6114365809441
 30
0.0
 11
109.8301886792454
 21
524.1114365809441
 31
0.0
  0
ARC
  5
326
330
A
100
AcDbEntity
  8
03
100
AcDbCircle
 10
107.8301886792454
 20
530.9314365809441
 30
0.0
 40
4.66
100
AcDbArc
 50
14.58888856369848
 51
165.4111110249411
  0
LINE
  5
327
330
A
100
AcDbEntity
  8
03
100
AcDbLine
 10
94.83018867924544
 20
508.1114365809441
 30
0.0
 11
94.83018867924526
 21
435.6114365809441
 31
0.0
  0
LINE
  5
328
330
A
100
AcDbEntity
  8
03
100
AcDbLine
 10
94.83018867924528
 20
430.6114365809441
 30
0.0
 11
94.83018867924499
 21
358.1114365809441
 31
0.0
  0
LINE
  5
329
330
A
100
AcDbEntity
  8
03
100
AcDbLine
 10
94.83018867924556
 20
473.1114365809441
 30
0.0
 11
114.8301886792455
 21
473.1114365809441
 31
0.0
  0
LINE
  5
32A
330
A
100
AcDbEntity
  8
03
100
AcDbLine
 10
114.8301886792455
 20
473.1114365809441
 30
0.0
 11
114.8301886792454
 21
498.1114365809441
 31
0.0
  0
LINE
  5
32B
330
A
100
AcDbEntity
  8
03
100
AcDbLine
 10
114.8301886792454
 20
498.1114365809441
 30
0.0
 11
94.83018867924544
 21
498.1114365809442
 31
0.0
  0
LINE
  5
32C
330
A
100
AcDbEntity
  8
03
100
AcDbLine
 10
157.8301886792454
 20
508.1114365809439
 30
0.0
 11
157.8301886792454
 21
504.1114365809439
 31
0.0
  0
LINE
  5
32D
330
A
100
AcDbEntity
  8
03
100
AcDbLine
 10
157.8301886792454
 20
504.1114365809439
 30
0.0
 11
98.83018867924546
 21
504.1114365809441
 31
0.0
  0
LINE
  5
32E
330
A
100
AcDbEntity
  8
03
100
AcDbLine
 10
98.83018867924546
 20
504.1114365809441
 30
0.0
 11
98.83018867924546
 21
498.1114365809442
 31
0.0
  0
LINE
  5
32F
330
A
100
AcDbEntity
  8
03
100
AcDbLine
 10
94.83018867924556
 20
473.1114365809441
 30
0.0
 11
94.83018867924544
 21
504.1114365809441
 31
0.0
  0
LINE
  5
330
330
A
100
AcDbEntity
  8
03
100
AcDbLine
 10
98.83018867924546
 20
508.1114365809441
 30
0.0
 11
157.8301886792454
 21
508.1114365809439
 31
0.0
  0
ARC
  5
331
330
A
100
AcDbEntity
  8
03
100
AcDbCircle
 10
98.83018867924546
 20
504.1114365809441
 30
0.0
 40
4.0
100
AcDbArc
 50
89.99999999999982
 51
179.9999998971598
  0
LINE
  5
332
330
A
100
AcDbEntity
  8
03
100
AcDbLine
 10
140.8301886792454
 20
509.6114365809439
 30
0.0
 11
140.8301886792454
 21
513.6114365809438
 31
0.0
  0
LINE
  5
333
330
A
100
AcDbEntity
  8
03
100
AcDbLine
 10
140.8301886792454
 20
513.6114365809438
 30
0.0
 11
153.8301886792454
 21
513.6114365809438
 31
0.0
  0
LINE
  5
334
330
A
100
AcDbEntity
  8
03
100
AcDbLine
 10
153.8301886792454
 20
513.6114365809438
 30
0.0
 11
153.8301886792454
 21
509.6114365809439
 31
0.0
  0
LINE
  5
335
330
A
100
AcDbEntity
  8
03
100
AcDbLine
 10
153.8301886792454
 20
509.6114365809439
 30
0.0
 11
140.8301886792454
 21
509.6114365809439
 31
0.0
  0
LINE
  5
336
330
A
100
AcDbEntity
  8
03
100
AcDbLine
 10
94.83018867924544
 20
490.6114365809441
 30
0.0
 11
94.83018867924556
 21
475.6114365809439
 31
0.0
  0
LINE
  5
337
330
A
100
AcDbEntity
  8
03
100
AcDbLine
 10
114.8301886792454
 20
479.1114365809439
 30
0.0
 11
118.6301886792454
 21
479.1114365809439
 31
0.0
  0
LINE
  5
338
330
A
100
AcDbEntity
  8
03
100
AcDbLine
 10
114.8301886792454
 20
487.111436580944
 30
0.0
 11
118.6301886792454
 21
487.111436580944
 31
0.0
  0
LINE
  5
339
330
A
100
AcDbEntity
  8
03
100
AcDbLine
 10
118.6301886792454
 20
479.1114365809439
 30
0.0
 11
119.8301886792454
 21
480.3114365809439
 31
0.0
  0
LINE
  5
33A
330
A
100
AcDbEntity
  8
03
100
AcDbLine
 10
118.6301886792454
 20
487.111436580944
 30
0.0
 11
119.8301886792454
 21
485.9114365809439
 31
0.0
  0
LINE
  5
33B
330
A
100
AcDbEntity
  8
03
100
AcDbLine
 10
119.8301886792454
 20
485.9114365809439
 30
0.0
 11
119.8301886792454
 21
480.3114365809439
 31
0.0
  0
LINE
  5
33C
330
A
100
AcDbEntity
  8
03
100
AcDbLine
 10
138.8301886792454
 20
502.5114365809439
 30
0.0
 11
155.8301886792454
 21
502.5114365809438
 31
0.0
  0
LINE
  5
33D
330
A
100
AcDbEntity
  8
03
100
AcDbLine
 10
155.8301886792454
 20
502.5114365809438
 30
0.0
 11
155.8301886792454
 21
504.1114365809439
 31
0.0
  0
LINE
  5
33E
330
A
100
AcDbEntity
  8
03
100
AcDbLine
 10
138.8301886792454
 20
504.1114365809439
 30
0.0
 11
138.8301886792454
 21
502.5114365809439
 31
0.0
  0
LINE
  5
33F
330
A
100
AcDbEntity
  8
03
100
AcDbLine
 10
139.6301886792454
 20
500.5114365809439
 30
0.0
 11
139.6301886792454
 21
502.5114365809439
 31
0.0
  0
LINE
  5
340
330
A
100
AcDbEntity
  8
03
100
AcDbLine
 10
139.6301886792454
 20
500.5114365809439
 30
0.0
 11
155.0301886792454
 21
500.5114365809438
 31
0.0
  0
LINE
  5
341
330
A
100
AcDbEntity
  8
03
100
AcDbLine
 10
155.0301886792454
 20
500.5114365809438
 30
0.0
 11
155.0301886792454
 21
502.5114365809438
 31
0.0
  0
LINE
  5
342
330
A
100
AcDbEntity
  8
03
100
AcDbLine
 10
139.8301886792454
 20
500.5114365809439
 30
0.0
 11
154.8301886792454
 21
500.5114365809438
 31
0.0
  0
LINE
  5
343
330
A
100
AcDbEntity
  8
03
100
AcDbLine
 10
154.8301886792454
 20
500.5114365809438
 30
0.0
 11
154.8301886792454
 21
495.7114365809438
 31
0.0
  0
LINE
  5
344
330
A
100
AcDbEntity
  8
03
100
AcDbLine
 10
139.8301886792454
 20
500.5114365809439
 30
0.0
 11
139.8301886792454
 21
495.711436580944
 31
0.0
  0
LINE
  5
345
330
A
100
AcDbEntity
  8
03
100
AcDbLine
 10
154.8301886792454
 20
495.7114365809438
 30
0.0
 11
153.6301886792454
 21
495.0114365809438
 31
0.0
  0
LINE
  5
346
330
A
100
AcDbEntity
  8
03
100
AcDbLine
 10
139.8301886792454
 20
495.711436580944
 30
0.0
 11
141.0301886792454
 21
495.0114365809438
 31
0.0
  0
LINE
  5
347
330
A
100
AcDbEntity
  8
03
100
AcDbLine
 10
141.0301886792454
 20
495.0114365809438
 30
0.0
 11
153.6301886792454
 21
495.0114365809438
 31
0.0
  0
ARC
  5
348
330
A
100
AcDbEntity
  8
03
100
AcDbCircle
 10
147.3301886792454
 20
507.6314365809438
 30
0.0
 40
12.41999999999999
100
AcDbArc
 50
251.9999998148878
 51
287.9999997737519
  0
ARC
  5
349
330
A
100
AcDbEntity
  8
03
100
AcDbCircle
 10
152.9501886792454
 20
498.531436580944
 30
0.0
 40
3.319999999999998
100
AcDbArc
 50
235.9999998331705
 51
303.9999997554691
  0
ARC
  5
34A
330
A
100
AcDbEntity
  8
03
100
AcDbCircle
 10
141.7101886792454
 20
498.531436580944
 30
0.0
 40
3.319999999999998
100
AcDbArc
 50
235.9999998331705
 51
303.9999997554691
  0
LINE
  5
34B
330
A
100
AcDbEntity
  8
03
100
AcDbLine
 10
151.0901886792454
 20
500.5114365809439
 30
0.0
 11
151.0901886792454
 21
495.7114365809438
 31
0.0
  0
LINE
  5
34C
330
A
100
AcDbEntity
  8
03
100
AcDbLine
 10
143.5701886792454
 20
500.5114365809439
 30
0.0
 11
143.5701886792454
 21
495.711436580944
 31
0.0
  0
LINE
  5
34D
330
A
100
AcDbEntity
  8
03
100
AcDbLine
 10
151.3301886792454
 20
513.6114365809438
 30
0.0
 11
151.3301886792455
 21
524.3114365809439
 31
0.0
  0
LINE
  5
34E
330
A
100
AcDbEntity
  8
03
100
AcDbLine
 10
143.3301886792454
 20
513.6114365809438
 30
0.0
 11
143.3301886792454
 21
524.3114365809439
 31
0.0
  0
LINE
  5
34F
330
A
100
AcDbEntity
  8
03
100
AcDbLine
 10
151.3301886792455
 20
524.3114365809439
 30
0.0
 11
150.1301886792455
 21
525.5114365809439
 31
0.0
  0
LINE
  5
350
330
A
100
AcDbEntity
  8
03
100
AcDbLine
 10
143.3301886792454
 20
524.3114365809439
 30
0.0
 11
144.5301886792455
 21
525.5114365809439
 31
0.0
  0
LINE
  5
351
330
A
100
AcDbEntity
  8
03
100
AcDbLine
 10
144.5301886792455
 20
525.5114365809439
 30
0.0
 11
150.1301886792455
 21
525.5114365809439
 31
0.0
  0
LINE
  5
352
330
A
100
AcDbEntity
  8
03
100
AcDbLine
 10
143.3301886792454
 20
524.3114365809439
 30
0.0
 11
151.3301886792455
 21
524.3114365809439
 31
0.0
  0
LINE
  5
353
330
A
100
AcDbEntity
  8
03
100
AcDbLine
 10
94.83018867924521
 20
393.1114365809439
 30
0.0
 11
114.8301886792451
 21
393.1114365809439
 31
0.0
  0
LINE
  5
354
330
A
100
AcDbEntity
  8
03
100
AcDbLine
 10
114.8301886792451
 20
393.1114365809439
 30
0.0
 11
114.8301886792449
 21
368.1114365809439
 31
0.0
  0
LINE
  5
355
330
A
100
AcDbEntity
  8
03
100
AcDbLine
 10
114.8301886792449
 20
368.1114365809439
 30
0.0
 11
94.83018867924499
 21
368.1114365809439
 31
0.0
  0
LINE
  5
356
330
A
100
AcDbEntity
  8
03
100
AcDbLine
 10
157.830188679245
 20
358.1114365809439
 30
0.0
 11
157.830188679245
 21
362.1114365809438
 31
0.0
  0
LINE
  5
357
330
A
100
AcDbEntity
  8
03
100
AcDbLine
 10
157.830188679245
 20
362.1114365809438
 30
0.0
 11
98.830188679245
 21
362.111436580944
 31
0.0
  0
LINE
  5
358
330
A
100
AcDbEntity
  8
03
100
AcDbLine
 10
98.830188679245
 20
362.111436580944
 30
0.0
 11
98.830188679245
 21
368.1114365809439
 31
0.0
  0
LINE
  5
359
330
A
100
AcDbEntity
  8
03
100
AcDbLine
 10
94.83018867924521
 20
393.1114365809439
 30
0.0
 11
94.83018867924499
 21
362.111436580944
 31
0.0
  0
LINE
  5
35A
330
A
100
AcDbEntity
  8
03
100
AcDbLine
 10
98.830188679245
 20
358.1114365809439
 30
0.0
 11
157.830188679245
 21
358.1114365809439
 31
0.0
  0
ARC
  5
35B
330
A
100
AcDbEntity
  8
03
100
AcDbCircle
 10
98.830188679245
 20
362.111436580944
 30
0.0
 40
4.0
100
AcDbArc
 50
179.9999998971598
 51
269.9999997943198
  0
LINE
  5
35C
330
A
100
AcDbEntity
  8
03
100
AcDbLine
 10
140.8301886792449
 20
356.6114365809439
 30
0.0
 11
140.8301886792449
 21
352.6114365809439
 31
0.0
  0
LINE
  5
35D
330
A
100
AcDbEntity
  8
03
100
AcDbLine
 10
140.8301886792449
 20
352.6114365809439
 30
0.0
 11
153.8301886792449
 21
352.6114365809439
 31
0.0
  0
LINE
  5
35E
330
A
100
AcDbEntity
  8
03
100
AcDbLine
 10
153.8301886792449
 20
352.6114365809439
 30
0.0
 11
153.8301886792449
 21
356.6114365809439
 31
0.0
  0
LINE
  5
35F
330
A
100
AcDbEntity
  8
03
100
AcDbLine
 10
153.8301886792449
 20
356.6114365809439
 30
0.0
 11
140.8301886792449
 21
356.6114365809439
 31
0.0
  0
LINE
  5
360
330
A
100
AcDbEntity
  8
03
100
AcDbLine
 10
94.83018867924521
 20
375.6114365809441
 30
0.0
 11
94.83018867924521
 21
390.6114365809441
 31
0.0
  0
LINE
  5
361
330
A
100
AcDbEntity
  8
03
100
AcDbLine
 10
114.8301886792451
 20
387.111436580944
 30
0.0
 11
118.6301886792451
 21
387.111436580944
 31
0.0
  0
LINE
  5
362
330
A
100
AcDbEntity
  8
03
100
AcDbLine
 10
114.8301886792451
 20
379.1114365809439
 30
0.0
 11
118.6301886792451
 21
379.1114365809439
 31
0.0
  0
LINE
  5
363
330
A
100
AcDbEntity
  8
03
100
AcDbLine
 10
118.6301886792451
 20
387.111436580944
 30
0.0
 11
119.8301886792451
 21
385.9114365809439
 31
0.0
  0
LINE
  5
364
330
A
100
AcDbEntity
  8
03
100
AcDbLine
 10
118.6301886792451
 20
379.1114365809439
 30
0.0
 11
119.8301886792451
 21
380.3114365809439
 31
0.0
  0
LINE
  5
365
330
A
100
AcDbEntity
  8
03
100
AcDbLine
 10
119.8301886792451
 20
380.3114365809439
 30
0.0
 11
119.8301886792451
 21
385.9114365809439
 31
0.0
  0
LINE
  5
366
330
A
100
AcDbEntity
  8
03
100
AcDbLine
 10
138.8301886792449
 20
363.711436580944
 30
0.0
 11
155.830188679245
 21
363.7114365809438
 31
0.0
  0
LINE
  5
367
330
A
100
AcDbEntity
  8
03
100
AcDbLine
 10
155.830188679245
 20
363.7114365809438
 30
0.0
 11
155.830188679245
 21
362.1114365809439
 31
0.0
  0
LINE
  5
368
330
A
100
AcDbEntity
  8
03
100
AcDbLine
 10
138.8301886792449
 20
362.111436580944
 30
0.0
 11
138.8301886792449
 21
363.711436580944
 31
0.0
  0
LINE
  5
369
330
A
100
AcDbEntity
  8
03
100
AcDbLine
 10
139.630188679245
 20
365.711436580944
 30
0.0
 11
139.630188679245
 21
363.711436580944
 31
0.0
  0
LINE
  5
36A
330
A
100
AcDbEntity
  8
03
100
AcDbLine
 10
139.630188679245
 20
365.711436580944
 30
0.0
 11
155.0301886792449
 21
365.7114365809438
 31
0.0
  0
LINE
  5
36B
330
A
100
AcDbEntity
  8
03
100
AcDbLine
 10
155.0301886792449
 20
365.7114365809438
 30
0.0
 11
155.0301886792451
 21
363.7114365809438
 31
0.0
  0
LINE
  5
36C
330
A
100
AcDbEntity
  8
03
100
AcDbLine
 10
139.8301886792449
 20
365.711436580944
 30
0.0
 11
154.830188679245
 21
365.7114365809438
 31
0.0
  0
LINE
  5
36D
330
A
100
AcDbEntity
  8
03
100
AcDbLine
 10
154.830188679245
 20
365.7114365809438
 30
0.0
 11
154.830188679245
 21
370.5114365809439
 31
0.0
  0
LINE
  5
36E
330
A
100
AcDbEntity
  8
03
100
AcDbLine
 10
139.8301886792449
 20
365.711436580944
 30
0.0
 11
139.830188679245
 21
370.511436580944
 31
0.0
  0
LINE
  5
36F
330
A
100
AcDbEntity
  8
03
100
AcDbLine
 10
154.830188679245
 20
370.5114365809439
 30
0.0
 11
153.630188679245
 21
371.211436580944
 31
0.0
  0
LINE
  5
370
330
A
100
AcDbEntity
  8
03
100
AcDbLine
 10
139.830188679245
 20
370.511436580944
 30
0.0
 11
141.0301886792451
 21
371.211436580944
 31
0.0
  0
LINE
  5
371
330
A
100
AcDbEntity
  8
03
100
AcDbLine
 10
141.0301886792451
 20
371.211436580944
 30
0.0
 11
153.630188679245
 21
371.211436580944
 31
0.0
  0
ARC
  5
372
330
A
100
AcDbEntity
  8
03
100
AcDbCircle
 10
147.330188679245
 20
358.5914365809439
 30
0.0
 40
12.41999999999999
100
AcDbArc
 50
71.99999960920783
 51
107.9999999794318
  0
ARC
  5
373
330
A
100
AcDbEntity
  8
03
100
AcDbCircle
 10
152.950188679245
 20
367.6914365809439
 30
0.0
 40
3.319999999999998
100
AcDbArc
 50
55.99999962749047
 51
123.9999999611491
  0
ARC
  5
374
330
A
100
AcDbEntity
  8
03
100
AcDbCircle
 10
141.7101886792449
 20
367.6914365809439
 30
0.0
 40
3.319999999999998
100
AcDbArc
 50
55.99999962749047
 51
123.9999999611491
  0
LINE
  5
375
330
A
100
AcDbEntity
  8
03
100
AcDbLine
 10
151.0901886792449
 20
365.711436580944
 30
0.0
 11
151.0901886792451
 21
370.5114365809439
 31
0.0
  0
LINE
  5
376
330
A
100
AcDbEntity
  8
03
100
AcDbLine
 10
143.570188679245
 20
365.711436580944
 30
0.0
 11
143.570188679245
 21
370.5114365809439
 31
0.0
  0
LINE
  5
377
330
A
100
AcDbEntity
  8
03
100
AcDbLine
 10
151.3301886792449
 20
352.6114365809439
 30
0.0
 11
151.3301886792449
 21
341.9114365809438
 31
0.0
  0
LINE
  5
378
330
A
100
AcDbEntity
  8
03
100
AcDbLine
 10
143.330188679245
 20
352.6114365809439
 30
0.0
 11
143.3301886792449
 21
341.911436580944
 31
0.0
  0
LINE
  5
379
330
A
100
AcDbEntity
  8
03
100
AcDbLine
 10
151.3301886792449
 20
341.9114365809438
 30
0.0
 11
150.1301886792449
 21
340.7114365809438
 31
0.0
  0
LINE
  5
37A
330
A
100
AcDbEntity
  8
03
100
AcDbLine
 10
143.3301886792449
 20
341.911436580944
 30
0.0
 11
144.5301886792448
 21
340.7114365809438
 31
0.0
  0
LINE
  5
37B
330
A
100
AcDbEntity
  8
03
100
AcDbLine
 10
144.5301886792448
 20
340.7114365809438
 30
0.0
 11
150.1301886792449
 21
340.7114365809438
 31
0.0
  0
LINE
  5
37C
330
A
100
AcDbEntity
  8
03
100
AcDbLine
 10
143.3301886792449
 20
341.911436580944
 30
0.0
 11
151.3301886792449
 21
341.9114365809438
 31
0.0
  0
LINE
  5
37D
330
A
100
AcDbEntity
  8
03
100
AcDbLine
 10
162.8301886792449
 20
358.1114365809438
 30
0.0
 11
162.8301886792451
 21
430.6114365809438
 31
0.0
  0
LINE
  5
37E
330
A
100
AcDbEntity
  8
03
100
AcDbLine
 10
160.830188679245
 20
358.1114365809439
 30
0.0
 11
160.8301886792451
 21
430.6114365809438
 31
0.0
  0
LINE
  5
37F
330
A
100
AcDbEntity
  8
03
100
AcDbLine
 10
162.8301886792454
 20
508.1114365809439
 30
0.0
 11
162.8301886792453
 21
435.6114365809438
 31
0.0
  0
LINE
  5
380
330
A
100
AcDbEntity
  8
03
100
AcDbLine
 10
160.8301886792454
 20
508.1114365809439
 30
0.0
 11
160.8301886792453
 21
435.6114365809438
 31
0.0
  0
LINE
  5
381
330
A
100
AcDbEntity
  8
03
100
AcDbLine
 10
332.3367432168552
 20
223.4868843444206
 30
0.0
 11
332.3367432168556
 21
363.4868843444204
 31
0.0
  0
LINE
  5
382
330
A
100
AcDbEntity
  8
03
100
AcDbLine
 10
332.3367432168556
 20
368.4868843444204
 30
0.0
 11
332.336743216856
 21
473.5268843444204
 31
0.0
  0
LINE
  5
383
330
A
100
AcDbEntity
  8
03
100
AcDbLine
 10
262.3367432168553
 20
218.4868843444208
 30
0.0
 11
262.3367432168552
 21
178.4868843444214
 31
0.0
  0
LINE
  5
384
330
A
100
AcDbEntity
  8
03
100
AcDbLine
 10
264.3367432168552
 20
223.4868843444208
 30
0.0
 11
264.3367432168552
 21
263.4868843444206
 31
0.0
  0
LINE
  5
385
330
A
100
AcDbEntity
  8
03
100
AcDbLine
 10
263.8367432168549
 20
218.4868843444208
 30
0.0
 11
263.8367432168549
 21
173.9868843444208
 31
0.0
  0
LINE
  5
386
330
A
100
AcDbEntity
  8
03
100
AcDbLine
 10
286.3367432168555
 20
264.9868843444205
 30
0.0
 11
286.3367432168555
 21
222.1468841918326
 31
0.0
  0
LINE
  5
387
330
A
100
AcDbEntity
  8
03
100
AcDbLine
 10
294.3367432168555
 20
218.4868843444208
 30
0.0
 11
294.3367432168555
 21
178.4868843444213
 31
0.0
  0
LINE
  5
388
330
A
100
AcDbEntity
  8
03
100
AcDbLine
 10
294.3367432168555
 20
223.4868843444208
 30
0.0
 11
294.3367432168555
 21
269.4868843444205
 31
0.0
  0
LINE
  5
389
330
A
100
AcDbEntity
  8
03
100
AcDbLine
 10
294.3367432168555
 20
316.4868843444206
 30
0.0
 11
294.3367432168555
 21
321.9868843444206
 31
0.0
  0
LINE
  5
38A
330
A
100
AcDbEntity
  8
03
100
AcDbLine
 10
294.3367432168555
 20
313.4868843444206
 30
0.0
 11
294.3367432168555
 21
315.4868843444206
 31
0.0
  0
LINE
  5
38B
330
A
100
AcDbEntity
  8
03
100
AcDbLine
 10
294.3367432168555
 20
273.4868843444205
 30
0.0
 11
294.3367432168555
 21
312.4868843444206
 31
0.0
  0
LINE
  5
38C
330
A
100
AcDbEntity
  8
03
100
AcDbLine
 10
294.3367432168555
 20
270.4868843444205
 30
0.0
 11
294.3367432168555
 21
272.4868843444205
 31
0.0
  0
LINE
  5
38D
330
A
100
AcDbEntity
  8
06
100
AcDbLine
 10
297.3367432168554
 20
273.4868843444205
 30
0.0
 11
297.8367432168555
 21
273.4868843444205
 31
0.0
  0
LINE
  5
38E
330
A
100
AcDbEntity
  8
06
100
AcDbLine
 10
297.3367432168554
 20
269.4868843444205
 30
0.0
 11
297.8367432168555
 21
269.4868843444205
 31
0.0
  0
LINE
  5
38F
330
A
100
AcDbEntity
  8
03
100
AcDbLine
 10
294.3367432168555
 20
270.4868843444205
 30
0.0
 11
294.3367432168555
 21
272.4868843444205
 31
0.0
  0
LINE
  5
390
330
A
100
AcDbEntity
  8
03
100
AcDbLine
 10
332.3367432168552
 20
178.4868843444214
 30
0.0
 11
308.3367432168552
 21
178.4868843444214
 31
0.0
  0
LINE
  5
391
330
A
100
AcDbEntity
  8
03
100
AcDbLine
 10
308.3367432168552
 20
178.4868843444214
 30
0.0
 11
285.8367432168552
 21
178.4868843444214
 31
0.0
  0
LINE
  5
392
330
A
100
AcDbEntity
  8
03
100
AcDbLine
 10
262.3367432168552
 20
178.4868843444214
 30
0.0
 11
262.3367432168552
 21
148.4868843444214
 31
0.0
  0
LINE
  5
393
330
A
100
AcDbEntity
  8
03
100
AcDbLine
 10
262.3367432168552
 20
148.4868843444214
 30
0.0
 11
263.8367432168552
 21
148.4868843444214
 31
0.0
  0
LINE
  5
394
330
A
100
AcDbEntity
  8
03
100
AcDbLine
 10
330.8367432168552
 20
148.4868843444214
 30
0.0
 11
332.3367432168552
 21
148.4868843444214
 31
0.0
  0
LINE
  5
395
330
A
100
AcDbEntity
  8
03
100
AcDbLine
 10
332.3367432168552
 20
148.4868843444214
 30
0.0
 11
332.3367432168552
 21
218.4868843444208
 31
0.0
  0
LINE
  5
396
330
A
100
AcDbEntity
  8
03
100
AcDbLine
 10
330.8367432168552
 20
176.9868843444214
 30
0.0
 11
309.8367432168552
 21
176.9868843444214
 31
0.0
  0
LINE
  5
397
330
A
100
AcDbEntity
  8
03
100
AcDbLine
 10
308.3367432168552
 20
176.9868843444214
 30
0.0
 11
305.3367432168552
 21
176.9868843444214
 31
0.0
  0
LINE
  5
398
330
A
100
AcDbEntity
  8
03
100
AcDbLine
 10
282.8367432168552
 20
176.9868843444214
 30
0.0
 11
285.8367432168552
 21
176.9868843444214
 31
0.0
  0
LINE
  5
399
330
A
100
AcDbEntity
  8
03
100
AcDbLine
 10
287.3367432168553
 20
176.9868843444214
 30
0.0
 11
303.8367432168552
 21
176.9868843444214
 31
0.0
  0
LINE
  5
39A
330
A
100
AcDbEntity
  8
03
100
AcDbLine
 10
266.8367432168551
 20
176.9868843444214
 30
0.0
 11
263.8367432168552
 21
176.9868843444214
 31
0.0
  0
LINE
  5
39B
330
A
100
AcDbEntity
  8
03
100
AcDbLine
 10
263.8367432168552
 20
148.4868843444214
 30
0.0
 11
263.8367432168552
 21
154.4868843444214
 31
0.0
  0
LINE
  5
39C
330
A
100
AcDbEntity
  8
03
100
AcDbLine
 10
263.8367432168552
 20
156.4868843444214
 30
0.0
 11
263.8367432168552
 21
157.9868843444214
 31
0.0
  0
LINE
  5
39D
330
A
100
AcDbEntity
  8
03
100
AcDbLine
 10
263.8367432168552
 20
159.4868843444214
 30
0.0
 11
263.8367432168552
 21
165.4868843444214
 31
0.0
  0
LINE
  5
39E
330
A
100
AcDbEntity
  8
03
100
AcDbLine
 10
263.8367432168552
 20
166.4868843444214
 30
0.0
 11
263.8367432168552
 21
175.4868843444214
 31
0.0
  0
LINE
  5
39F
330
A
100
AcDbEntity
  8
03
100
AcDbLine
 10
330.8367432168552
 20
148.4868843444214
 30
0.0
 11
330.8367432168552
 21
155.4868843444214
 31
0.0
  0
LINE
  5
3A0
330
A
100
AcDbEntity
  8
03
100
AcDbLine
 10
330.8367432168552
 20
156.9868843444214
 30
0.0
 11
330.8367432168552
 21
176.9868843444214
 31
0.0
  0
LINE
  5
3A1
330
A
100
AcDbEntity
  8
03
100
AcDbLine
 10
328.3367432168552
 20
149.9868843444214
 30
0.0
 11
322.3367432168552
 21
149.9868843444214
 31
0.0
  0
LINE
  5
3A2
330
A
100
AcDbEntity
  8
03
100
AcDbLine
 10
272.3367432168552
 20
149.9868843444214
 30
0.0
 11
266.8367432168551
 21
149.9868843444214
 31
0.0
  0
LINE
  5
3A3
330
A
100
AcDbEntity
  8
03
100
AcDbLine
 10
330.8367432168552
 20
155.4868843444214
 30
0.0
 11
328.3367432168552
 21
155.4868843444214
 31
0.0
  0
LINE
  5
3A4
330
A
100
AcDbEntity
  8
03
100
AcDbLine
 10
330.8367432168552
 20
156.9868843444214
 30
0.0
 11
326.8367432168552
 21
156.9868843444214
 31
0.0
  0
LINE
  5
3A5
330
A
100
AcDbEntity
  8
03
100
AcDbLine
 10
328.3367432168552
 20
149.9868843444214
 30
0.0
 11
328.3367432168552
 21
155.4868843444214
 31
0.0
  0
LINE
  5
3A6
330
A
100
AcDbEntity
  8
03
100
AcDbLine
 10
326.8367432168552
 20
156.9868843444214
 30
0.0
 11
326.8367432168552
 21
151.4868843444214
 31
0.0
  0
LINE
  5
3A7
330
A
100
AcDbEntity
  8
03
100
AcDbLine
 10
322.3367432168552
 20
149.9868843444214
 30
0.0
 11
322.3367432168552
 21
151.4868843444214
 31
0.0
  0
LINE
  5
3A8
330
A
100
AcDbEntity
  8
03
100
AcDbLine
 10
322.3367432168552
 20
151.4868843444214
 30
0.0
 11
326.8367432168552
 21
151.4868843444214
 31
0.0
  0
LINE
  5
3A9
330
A
100
AcDbEntity
  8
03
100
AcDbLine
 10
285.8367432168552
 20
174.9868843444214
 30
0.0
 11
285.8367432168552
 21
166.4868843444214
 31
0.0
  0
LINE
  5
3AA
330
A
100
AcDbEntity
  8
03
100
AcDbLine
 10
285.8367432168552
 20
165.4868843444214
 30
0.0
 11
285.8367432168552
 21
156.4868843444214
 31
0.0
  0
LINE
  5
3AB
330
A
100
AcDbEntity
  8
03
100
AcDbLine
 10
308.3367432168552
 20
178.4868843444214
 30
0.0
 11
308.3367432168552
 21
176.9868843444214
 31
0.0
  0
LINE
  5
3AC
330
A
100
AcDbEntity
  8
03
100
AcDbLine
 10
308.3367432168552
 20
174.9868843444214
 30
0.0
 11
308.3367432168552
 21
166.4868843444214
 31
0.0
  0
LINE
  5
3AD
330
A
100
AcDbEntity
  8
03
100
AcDbLine
 10
308.3367432168552
 20
165.4868843444214
 30
0.0
 11
308.3367432168552
 21
159.4868843444214
 31
0.0
  0
LINE
  5
3AE
330
A
100
AcDbEntity
  8
03
100
AcDbLine
 10
308.3367432168552
 20
157.9868843444214
 30
0.0
 11
308.3367432168552
 21
156.4868843444214
 31
0.0
  0
LINE
  5
3AF
330
A
100
AcDbEntity
  8
03
100
AcDbLine
 10
282.8367432168552
 20
176.9868843444214
 30
0.0
 11
282.8367432168552
 21
174.9868843444214
 31
0.0
  0
LINE
  5
3B0
330
A
100
AcDbEntity
  8
03
100
AcDbLine
 10
282.8367432168552
 20
166.4868843444214
 30
0.0
 11
282.8367432168552
 21
165.4868843444214
 31
0.0
  0
LINE
  5
3B1
330
A
100
AcDbEntity
  8
03
100
AcDbLine
 10
305.3367432168552
 20
176.9868843444214
 30
0.0
 11
305.3367432168552
 21
174.9868843444214
 31
0.0
  0
LINE
  5
3B2
330
A
100
AcDbEntity
  8
03
100
AcDbLine
 10
305.3367432168552
 20
166.4868843444214
 30
0.0
 11
305.3367432168552
 21
165.4868843444214
 31
0.0
  0
LINE
  5
3B3
330
A
100
AcDbEntity
  8
03
100
AcDbLine
 10
305.3367432168552
 20
174.9868843444214
 30
0.0
 11
308.3367432168552
 21
174.9868843444214
 31
0.0
  0
LINE
  5
3B4
330
A
100
AcDbEntity
  8
03
100
AcDbLine
 10
282.8367432168552
 20
174.9868843444214
 30
0.0
 11
285.8367432168552
 21
174.9868843444214
 31
0.0
  0
LINE
  5
3B5
330
A
100
AcDbEntity
  8
03
100
AcDbLine
 10
308.3367432168552
 20
166.4868843444214
 30
0.0
 11
305.3367432168552
 21
166.4868843444214
 31
0.0
  0
LINE
  5
3B6
330
A
100
AcDbEntity
  8
03
100
AcDbLine
 10
305.3367432168552
 20
165.4868843444214
 30
0.0
 11
308.3367432168552
 21
165.4868843444214
 31
0.0
  0
LINE
  5
3B7
330
A
100
AcDbEntity
  8
03
100
AcDbLine
 10
285.8367432168552
 20
166.4868843444214
 30
0.0
 11
282.8367432168552
 21
166.4868843444214
 31
0.0
  0
LINE
  5
3B8
330
A
100
AcDbEntity
  8
03
100
AcDbLine
 10
282.8367432168552
 20
165.4868843444214
 30
0.0
 11
285.8367432168552
 21
165.4868843444214
 31
0.0
  0
LINE
  5
3B9
330
A
100
AcDbEntity
  8
03
100
AcDbLine
 10
309.8367432168552
 20
176.9868843444214
 30
0.0
 11
309.8367432168552
 21
154.4868843444214
 31
0.0
  0
LINE
  5
3BA
330
A
100
AcDbEntity
  8
03
100
AcDbLine
 10
287.3367432168553
 20
176.9868843444214
 30
0.0
 11
287.3367432168553
 21
157.9868843444214
 31
0.0
  0
LINE
  5
3BB
330
A
100
AcDbEntity
  8
03
100
AcDbLine
 10
308.3367432168552
 20
156.4868843444214
 30
0.0
 11
263.8367432168552
 21
156.4868843444214
 31
0.0
  0
LINE
  5
3BC
330
A
100
AcDbEntity
  8
03
100
AcDbLine
 10
263.8367432168552
 20
154.4868843444214
 30
0.0
 11
266.8367432168551
 21
154.4868843444214
 31
0.0
  0
LINE
  5
3BD
330
A
100
AcDbEntity
  8
03
100
AcDbLine
 10
268.3367432168552
 20
154.4868843444214
 30
0.0
 11
309.8367432168552
 21
154.4868843444214
 31
0.0
  0
LINE
  5
3BE
330
A
100
AcDbEntity
  8
03
100
AcDbLine
 10
308.3367432168552
 20
157.9868843444214
 30
0.0
 11
306.8367432168552
 21
157.9868843444214
 31
0.0
  0
LINE
  5
3BF
330
A
100
AcDbEntity
  8
03
100
AcDbLine
 10
308.3367432168552
 20
159.4868843444214
 30
0.0
 11
306.8367432168552
 21
157.9868843444214
 31
0.0
  0
LINE
  5
3C0
330
A
100
AcDbEntity
  8
03
100
AcDbLine
 10
263.8367432168552
 20
175.4868843444214
 30
0.0
 11
266.8367432168551
 21
175.4868843444214
 31
0.0
  0
LINE
  5
3C1
330
A
100
AcDbEntity
  8
03
100
AcDbLine
 10
303.8367432168552
 20
173.9868843444214
 30
0.0
 11
308.3367432168552
 21
173.9868843444214
 31
0.0
  0
LINE
  5
3C2
330
A
100
AcDbEntity
  8
03
100
AcDbLine
 10
266.8367432168551
 20
166.4868843444214
 30
0.0
 11
263.8367432168552
 21
166.4868843444214
 31
0.0
  0
LINE
  5
3C3
330
A
100
AcDbEntity
  8
03
100
AcDbLine
 10
263.8367432168552
 20
165.4868843444214
 30
0.0
 11
266.8367432168551
 21
165.4868843444214
 31
0.0
  0
LINE
  5
3C4
330
A
100
AcDbEntity
  8
03
100
AcDbLine
 10
266.8367432168551
 20
166.4868843444214
 30
0.0
 11
266.8367432168551
 21
165.4868843444214
 31
0.0
  0
LINE
  5
3C5
330
A
100
AcDbEntity
  8
03
100
AcDbLine
 10
266.8367432168551
 20
176.9868843444214
 30
0.0
 11
266.8367432168551
 21
175.4868843444214
 31
0.0
  0
LINE
  5
3C6
330
A
100
AcDbEntity
  8
03
100
AcDbLine
 10
303.8367432168552
 20
173.9868843444214
 30
0.0
 11
303.8367432168552
 21
176.9868843444214
 31
0.0
  0
LINE
  5
3C7
330
A
100
AcDbEntity
  8
03
100
AcDbLine
 10
272.3367432168552
 20
149.9868843444214
 30
0.0
 11
272.3367432168552
 21
151.4868843444214
 31
0.0
  0
LINE
  5
3C8
330
A
100
AcDbEntity
  8
03
100
AcDbLine
 10
272.3367432168552
 20
151.4868843444214
 30
0.0
 11
268.3367432168552
 21
151.4868843444214
 31
0.0
  0
LINE
  5
3C9
330
A
100
AcDbEntity
  8
03
100
AcDbLine
 10
266.8367432168551
 20
149.9868843444214
 30
0.0
 11
266.8367432168551
 21
154.4868843444214
 31
0.0
  0
LINE
  5
3CA
330
A
100
AcDbEntity
  8
03
100
AcDbLine
 10
268.3367432168552
 20
154.4868843444214
 30
0.0
 11
268.3367432168552
 21
151.4868843444214
 31
0.0
  0
LINE
  5
3CB
330
A
100
AcDbEntity
  8
03
100
AcDbLine
 10
304.3367432168551
 20
157.9868843444214
 30
0.0
 11
308.3367432168552
 21
157.9868843444214
 31
0.0
  0
LINE
  5
3CC
330
A
100
AcDbEntity
  8
03
100
AcDbLine
 10
265.3367432168552
 20
157.9868843444214
 30
0.0
 11
263.8367432168552
 21
159.4868843444214
 31
0.0
  0
LINE
  5
3CD
330
A
100
AcDbEntity
  8
03
100
AcDbLine
 10
287.3367432168553
 20
157.9868843444214
 30
0.0
 11
290.3367432168552
 21
157.9868843444214
 31
0.0
  0
LINE
  5
3CE
330
A
100
AcDbEntity
  8
03
100
AcDbLine
 10
291.3367432168552
 20
158.9868843444214
 30
0.0
 11
303.3367432168552
 21
158.9868843444214
 31
0.0
  0
LINE
  5
3CF
330
A
100
AcDbEntity
  8
03
100
AcDbLine
 10
291.3367432168552
 20
158.9868843444214
 30
0.0
 11
290.3367432168552
 21
157.9868843444214
 31
0.0
  0
LINE
  5
3D0
330
A
100
AcDbEntity
  8
03
100
AcDbLine
 10
304.3367432168551
 20
157.9868843444214
 30
0.0
 11
303.3367432168552
 21
158.9868843444214
 31
0.0
  0
LINE
  5
3D1
330
A
100
AcDbEntity
  8
03
100
AcDbLine
 10
299.3367432168552
 20
162.4868843444214
 30
0.0
 11
295.3367432168552
 21
162.4868843444214
 31
0.0
  0
LINE
  5
3D2
330
A
100
AcDbEntity
  8
03
100
AcDbLine
 10
295.3367432168552
 20
162.4868843444214
 30
0.0
 11
295.3367432168552
 21
158.9868843444214
 31
0.0
  0
LINE
  5
3D3
330
A
100
AcDbEntity
  8
03
100
AcDbLine
 10
299.3367432168552
 20
158.9868843444214
 30
0.0
 11
299.3367432168552
 21
162.4868843444214
 31
0.0
  0
ARC
  5
3D4
330
A
100
AcDbEntity
  8
03
100
AcDbCircle
 10
297.3367432168552
 20
155.6668843444217
 30
0.0
 40
4.66
100
AcDbArc
 50
194.5888887693786
 51
345.4111108192613
  0
LINE
  5
3D5
330
A
100
AcDbEntity
  8
03
100
AcDbLine
 10
323.3367432168552
 20
176.9868843444214
 30
0.0
 11
310.3367432168552
 21
176.9868843444214
 31
0.0
  0
LINE
  5
3D6
330
A
100
AcDbEntity
  8
03
100
AcDbLine
 10
263.8367432168552
 20
178.4868843444214
 30
0.0
 11
262.3367432168552
 21
178.4868843444214
 31
0.0
  0
LINE
  5
3D7
330
A
100
AcDbEntity
  8
03
100
AcDbLine
 10
263.8367432168552
 20
157.9868843444214
 30
0.0
 11
265.3367432168552
 21
157.9868843444214
 31
0.0
  0
LINE
  5
3D8
330
A
100
AcDbEntity
  8
CHUSIN
100
AcDbLine
 10
297.3367432168561
 20
470.5798207330357
 30
0.0
 11
297.3367432168561
 21
499.7178892003641
 31
0.0
  0
LINE
  5
3D9
330
A
100
AcDbEntity
  8
CHUSIN
100
AcDbLine
 10
277.336743216856
 20
502.3668843444205
 30
0.0
 11
277.336743216856
 21
487.9068843444207
 31
0.0
  0
LINE
  5
3DA
330
A
100
AcDbEntity
  8
CHUSIN
100
AcDbLine
 10
275.3367432168553
 20
285.4868843444206
 30
0.0
 11
275.3367432168548
 21
164.1268843444206
 31
0.0
  0
LINE
  5
3DB
330
A
100
AcDbEntity
  8
CHUSIN
 48
0.9
100
AcDbLine
 10
288.3567432168553
 20
277.4868843444205
 30
0.0
 11
280.3167432168553
 21
277.4868843444206
 31
0.0
  0
LINE
  5
3DC
330
A
100
AcDbEntity
  8
CHUSIN
 48
0.8
100
AcDbLine
 10
288.3367432168554
 20
323.0668843444206
 30
0.0
 11
288.3367432168554
 21
315.8068843444206
 31
0.0
  0
LINE
  5
3DD
330
A
100
AcDbEntity
  8
CHUSIN
 48
0.9
100
AcDbLine
 10
284.3367432168553
 20
281.8268843444207
 30
0.0
 11
284.3367432168553
 21
274.1068843444205
 31
0.0
  0
LINE
  5
3DE
330
A
100
AcDbEntity
  8
CHUSIN
 48
0.8
100
AcDbLine
 10
284.1767432168554
 20
319.9868843444206
 30
0.0
 11
291.2567432168555
 21
319.9868843444206
 31
0.0
  0
LINE
  5
3DF
330
A
100
AcDbEntity
  8
CHUSIN
100
AcDbLine
 10
276.336743216856
 20
468.3068843444206
 30
0.0
 11
276.336743216856
 21
494.5868843444206
 31
0.0
  0
LINE
  5
3E0
330
A
100
AcDbEntity
  8
CHUSIN
100
AcDbLine
 10
276.3367432168553
 20
328.7068843444207
 30
0.0
 11
276.3367432168553
 21
294.1443955160301
 31
0.0
  0
LINE
  5
3E1
330
A
100
AcDbEntity
  8
CHUSIN
100
AcDbLine
 10
107.8301886792448
 20
329.271436580944
 30
0.0
 11
107.8301886792448
 21
343.7514365809439
 31
0.0
  0
LINE
  5
3E2
330
A
100
AcDbEntity
  8
CHUSIN
100
AcDbLine
 10
127.8301886792448
 20
328.1114365809439
 30
0.0
 11
127.8301886792454
 21
538.1114365809438
 31
0.0
  0
LINE
  5
3E3
330
A
100
AcDbEntity
  8
CHUSIN
100
AcDbLine
 10
107.8301886792454
 20
536.9514365809441
 30
0.0
 11
107.8301886792454
 21
522.4714365809441
 31
0.0
  0
LINE
  5
3E4
330
A
100
AcDbEntity
  8
CHUSIN
100
AcDbLine
 10
147.3301886792454
 20
527.4314365809439
 30
0.0
 11
147.3301886792454
 21
491.5114365809438
 31
0.0
  0
LINE
  5
3E5
330
A
100
AcDbEntity
  8
CHUSIN
100
AcDbLine
 10
90.53018867924549
 20
483.1114365809441
 30
0.0
 11
123.8501886792454
 21
483.1114365809439
 31
0.0
  0
LINE
  5
3E6
330
A
100
AcDbEntity
  8
CHUSIN
100
AcDbLine
 10
147.3301886792449
 20
338.7914365809438
 30
0.0
 11
147.330188679245
 21
374.7114365809439
 31
0.0
  0
LINE
  5
3E7
330
A
100
AcDbEntity
  8
CHUSIN
100
AcDbLine
 10
90.53018867924519
 20
383.1114365809442
 30
0.0
 11
123.850188679245
 21
383.1114365809439
 31
0.0
  0
LINE
  5
3E8
330
A
100
AcDbEntity
  8
CHUSIN
100
AcDbLine
 10
297.3367432168552
 20
185.8548614649736
 30
0.0
 11
297.3367432168552
 21
143.5668843444213
 31
0.0
  0
LINE
  5
3E9
330
A
100
AcDbEntity
  8
CHUSIN
100
AcDbLine
 10
284.6392977711515
 20
301.4868843444206
 30
0.0
 11
266.3367432168553
 21
301.4868843444206
 31
0.0
  0
LINE
  5
3EA
330
A
100
AcDbEntity
  8
KAKURE
100
AcDbLine
 10
275.336743216856
 20
493.0268843444205
 30
0.0
 11
275.336743216856
 21
497.5268843444204
 31
0.0
  0
LINE
  5
3EB
330
A
100
AcDbEntity
  8
KAKURE
100
AcDbLine
 10
279.336743216856
 20
497.5268843444206
 30
0.0
 11
279.336743216856
 21
493.0268843444206
 31
0.0
  0
LINE
  5
3EC
330
A
100
AcDbEntity
  8
KAKURE
100
AcDbLine
 10
278.836743216856
 20
493.0268843444206
 30
0.0
 11
278.836743216856
 21
497.5268843444206
 31
0.0
  0
LINE
  5
3ED
330
A
100
AcDbEntity
  8
KAKURE
100
AcDbLine
 10
275.836743216856
 20
497.5268843444204
 30
0.0
 11
275.836743216856
 21
493.0268843444205
 31
0.0
  0
LINE
  5
3EE
330
A
100
AcDbEntity
  8
KAKURE
100
AcDbLine
 10
105.8301886792448
 20
338.6114365809441
 30
0.0
 11
105.8301886792448
 21
334.1114365809441
 31
0.0
  0
LINE
  5
3EF
330
A
100
AcDbEntity
  8
KAKURE
100
AcDbLine
 10
109.8301886792449
 20
334.1114365809441
 30
0.0
 11
109.8301886792449
 21
338.6114365809441
 31
0.0
  0
LINE
  5
3F0
330
A
100
AcDbEntity
  8
KAKURE
100
AcDbLine
 10
109.3301886792449
 20
338.6114365809441
 30
0.0
 11
109.3301886792449
 21
334.1114365809441
 31
0.0
  0
LINE
  5
3F1
330
A
100
AcDbEntity
  8
KAKURE
100
AcDbLine
 10
106.3301886792449
 20
334.1114365809441
 30
0.0
 11
106.3301886792449
 21
338.6114365809441
 31
0.0
  0
LINE
  5
3F2
330
A
100
AcDbEntity
  8
KAKURE
100
AcDbLine
 10
105.8301886792454
 20
527.6114365809441
 30
0.0
 11
105.8301886792454
 21
532.1114365809441
 31
0.0
  0
LINE
  5
3F3
330
A
100
AcDbEntity
  8
KAKURE
100
AcDbLine
 10
109.8301886792454
 20
532.1114365809441
 30
0.0
 11
109.8301886792454
 21
527.6114365809441
 31
0.0
  0
LINE
  5
3F4
330
A
100
AcDbEntity
  8
KAKURE
100
AcDbLine
 10
109.3301886792454
 20
527.6114365809441
 30
0.0
 11
109.3301886792454
 21
532.1114365809441
 31
0.0
  0
LINE
  5
3F5
330
A
100
AcDbEntity
  8
KAKURE
100
AcDbLine
 10
106.3301886792455
 20
532.1114365809441
 30
0.0
 11
106.3301886792455
 21
527.6114365809441
 31
0.0
  0
LINE
  5
3F6
330
A
100
AcDbEntity
  8
KAKURE
100
AcDbLine
 10
98.83018867924546
 20
498.1114365809442
 30
0.0
 11
98.83018867924556
 21
473.1114365809441
 31
0.0
  0
LINE
  5
3F7
330
A
100
AcDbEntity
  8
KAKURE
100
AcDbLine
 10
98.83018867924546
 20
479.1114365809439
 30
0.0
 11
114.8301886792454
 21
479.1114365809439
 31
0.0
  0
LINE
  5
3F8
330
A
100
AcDbEntity
  8
KAKURE
100
AcDbLine
 10
98.83018867924546
 20
487.111436580944
 30
0.0
 11
114.8301886792454
 21
487.111436580944
 31
0.0
  0
LINE
  5
3F9
330
A
100
AcDbEntity
  8
KAKURE
100
AcDbLine
 10
98.83018867924546
 20
479.8514365809441
 30
0.0
 11
114.8301886792454
 21
479.8514365809439
 31
0.0
  0
LINE
  5
3FA
330
A
100
AcDbEntity
  8
KAKURE
100
AcDbLine
 10
98.83018867924546
 20
486.3714365809441
 30
0.0
 11
114.8301886792454
 21
486.3714365809441
 31
0.0
  0
LINE
  5
3FB
330
A
100
AcDbEntity
  8
KAKURE
100
AcDbLine
 10
151.3301886792454
 20
504.1114365809439
 30
0.0
 11
151.3301886792454
 21
513.6114365809438
 31
0.0
  0
LINE
  5
3FC
330
A
100
AcDbEntity
  8
KAKURE
100
AcDbLine
 10
143.3301886792454
 20
504.1114365809439
 30
0.0
 11
143.3301886792454
 21
513.6114365809438
 31
0.0
  0
LINE
  5
3FD
330
A
100
AcDbEntity
  8
KAKURE
100
AcDbLine
 10
150.5901886792454
 20
504.1114365809439
 30
0.0
 11
150.5901886792455
 21
513.6114365809438
 31
0.0
  0
LINE
  5
3FE
330
A
100
AcDbEntity
  8
KAKURE
100
AcDbLine
 10
144.0701886792454
 20
504.1114365809439
 30
0.0
 11
144.0701886792455
 21
513.6114365809438
 31
0.0
  0
LINE
  5
3FF
330
A
100
AcDbEntity
  8
KAKURE
100
AcDbLine
 10
98.830188679245
 20
368.1114365809439
 30
0.0
 11
98.83018867924521
 21
393.1114365809441
 31
0.0
  0
LINE
  5
400
330
A
100
AcDbEntity
  8
KAKURE
100
AcDbLine
 10
98.83018867924521
 20
387.1114365809441
 30
0.0
 11
114.8301886792451
 21
387.111436580944
 31
0.0
  0
LINE
  5
401
330
A
100
AcDbEntity
  8
KAKURE
100
AcDbLine
 10
98.83018867924521
 20
379.1114365809441
 30
0.0
 11
114.8301886792451
 21
379.1114365809439
 31
0.0
  0
LINE
  5
402
330
A
100
AcDbEntity
  8
KAKURE
100
AcDbLine
 10
98.83018867924521
 20
386.3714365809441
 30
0.0
 11
114.8301886792451
 21
386.3714365809439
 31
0.0
  0
LINE
  5
403
330
A
100
AcDbEntity
  8
KAKURE
100
AcDbLine
 10
98.83018867924521
 20
379.851436580944
 30
0.0
 11
114.8301886792451
 21
379.851436580944
 31
0.0
  0
LINE
  5
404
330
A
100
AcDbEntity
  8
KAKURE
100
AcDbLine
 10
151.3301886792449
 20
362.111436580944
 30
0.0
 11
151.3301886792449
 21
352.6114365809439
 31
0.0
  0
LINE
  5
405
330
A
100
AcDbEntity
  8
KAKURE
100
AcDbLine
 10
143.330188679245
 20
362.111436580944
 30
0.0
 11
143.330188679245
 21
352.6114365809439
 31
0.0
  0
LINE
  5
406
330
A
100
AcDbEntity
  8
KAKURE
100
AcDbLine
 10
150.5901886792449
 20
362.111436580944
 30
0.0
 11
150.5901886792449
 21
352.6114365809439
 31
0.0
  0
LINE
  5
407
330
A
100
AcDbEntity
  8
KAKURE
100
AcDbLine
 10
144.070188679245
 20
362.1114365809439
 30
0.0
 11
144.070188679245
 21
352.6114365809439
 31
0.0
  0
LINE
  5
408
330
A
100
AcDbEntity
  8
KAKURE
100
AcDbLine
 10
89.23719103680305
 20
175.3249848922316
 30
0.0
 11
89.23719103680323
 21
253.8249848922316
 31
0.0
  0
LINE
  5
409
330
A
100
AcDbEntity
  8
KAKURE
100
AcDbLine
 10
295.3367432168552
 20
158.9868843444214
 30
0.0
 11
295.3367432168552
 21
154.4868843444214
 31
0.0
  0
LINE
  5
40A
330
A
100
AcDbEntity
  8
KAKURE
100
AcDbLine
 10
299.3367432168552
 20
154.4868843444214
 30
0.0
 11
299.3367432168552
 21
158.9868843444214
 31
0.0
  0
LINE
  5
40B
330
A
100
AcDbEntity
  8
KAKURE
100
AcDbLine
 10
298.8367432168552
 20
158.9868843444214
 30
0.0
 11
298.8367432168552
 21
154.4868843444214
 31
0.0
  0
LINE
  5
40C
330
A
100
AcDbEntity
  8
KAKURE
100
AcDbLine
 10
295.8367432168552
 20
154.4868843444214
 30
0.0
 11
295.8367432168552
 21
158.9868843444214
 31
0.0
  0
LINE
  5
40D
330
A
100
AcDbEntity
  8
03
100
AcDbLine
 10
278.836743216856
 20
489.5268843444206
 30
0.0
 11
278.836743216856
 21
493.0268843444206
 31
0.0
  0
LINE
  5
40E
330
A
100
AcDbEntity
  8
03
100
AcDbLine
 10
275.836743216856
 20
493.0268843444205
 30
0.0
 11
275.836743216856
 21
489.5268843444206
 31
0.0
  0
LINE
  5
40F
330
A
100
AcDbEntity
  8
SAISEN
100
AcDbLine
 10
255.3367432168557
 20
368.4868843444208
 30
0.0
 11
339.3367432168556
 21
368.4868843444204
 31
0.0
  0
LINE
  5
410
330
A
100
AcDbEntity
  8
SAISEN
100
AcDbLine
 10
252.3367432168551
 20
223.4868843444208
 30
0.0
 11
342.3367432168552
 21
223.4868843444205
 31
0.0
  0
LINE
  5
411
330
A
100
AcDbEntity
  8
SAISEN
100
AcDbLine
 10
252.3367432168551
 20
218.4868843444208
 30
0.0
 11
342.3367432168552
 21
218.4868843444204
 31
0.0
  0
LINE
  5
412
330
A
100
AcDbEntity
  8
SAISEN
100
AcDbLine
 10
255.3367432168555
 20
363.4868843444206
 30
0.0
 11
339.3367432168556
 21
363.4868843444204
 31
0.0
  0
LINE
  5
413
330
A
100
AcDbEntity
  8
03
100
AcDbLine
 10
272.8367432168553
 20
272.4668843444206
 30
0.0
 11
272.8367432168552
 21
223.4868843444206
 31
0.0
  0
LINE
  5
414
330
A
100
AcDbEntity
  8
03
100
AcDbLine
 10
277.6167432168552
 20
272.4668843444205
 30
0.0
 11
277.6167432168552
 21
223.4868843444206
 31
0.0
  0
LINE
  5
415
330
A
100
AcDbEntity
  8
03
100
AcDbLine
 10
277.7967432168553
 20
272.4668843444205
 30
0.0
 11
272.7967432168552
 21
272.4668843444206
 31
0.0
  0
LINE
  5
416
330
A
100
AcDbEntity
  8
03
100
AcDbLine
 10
286.3367432168553
 20
264.9868843444205
 30
0.0
 11
286.3367432168553
 21
263.4868843444205
 31
0.0
  0
LINE
  5
417
330
A
100
AcDbEntity
  8
03
100
AcDbLine
 10
286.3367432168553
 20
263.4868843444205
 30
0.0
 11
277.7967432168553
 21
263.4868843444206
 31
0.0
  0
LINE
  5
418
330
A
100
AcDbEntity
  8
03
100
AcDbLine
 10
264.3367432168553
 20
263.4868843444206
 30
0.0
 11
272.7967432168552
 21
263.4868843444206
 31
0.0
  0
LINE
  5
419
330
A
100
AcDbEntity
  8
03
100
AcDbLine
 10
286.3367432168553
 20
264.9868843444205
 30
0.0
 11
283.3367432168553
 21
264.9868843444205
 31
0.0
  0
LINE
  5
41A
330
A
100
AcDbEntity
  8
03
100
AcDbLine
 10
264.3367432168553
 20
264.9868843444206
 30
0.0
 11
264.3367432168553
 21
263.4868843444206
 31
0.0
  0
LINE
  5
41B
330
A
100
AcDbEntity
  8
03
100
AcDbLine
 10
267.3367432168553
 20
266.9868843444206
 30
0.0
 11
267.3367432168553
 21
264.9868843444206
 31
0.0
  0
LINE
  5
41C
330
A
100
AcDbEntity
  8
03
100
AcDbLine
 10
283.3367432168553
 20
266.9868843444205
 30
0.0
 11
283.3367432168553
 21
264.9868843444205
 31
0.0
  0
LINE
  5
41D
330
A
100
AcDbEntity
  8
03
100
AcDbLine
 10
267.3367432168553
 20
264.9868843444206
 30
0.0
 11
264.3367432168553
 21
264.9868843444206
 31
0.0
  0
LINE
  5
41E
330
A
100
AcDbEntity
  8
03
100
AcDbLine
 10
267.3367432168553
 20
266.9868843444206
 30
0.0
 11
266.8367432168553
 21
266.9868843444206
 31
0.0
  0
LINE
  5
41F
330
A
100
AcDbEntity
  8
03
100
AcDbLine
 10
283.3367432168553
 20
266.9868843444205
 30
0.0
 11
283.8367432168553
 21
266.9868843444205
 31
0.0
  0
LINE
  5
420
330
A
100
AcDbEntity
  8
03
100
AcDbLine
 10
277.7967432168553
 20
272.4668843444205
 30
0.0
 11
278.8367432168553
 21
272.4668843444205
 31
0.0
  0
LINE
  5
421
330
A
100
AcDbEntity
  8
03
100
AcDbLine
 10
272.7967432168552
 20
272.4668843444206
 30
0.0
 11
271.8367432168553
 21
272.4668843444205
 31
0.0
  0
LINE
  5
422
330
A
100
AcDbEntity
  8
03
100
AcDbLine
 10
283.8367432168553
 20
267.4668843444205
 30
0.0
 11
283.8367432168553
 21
266.9868843444205
 31
0.0
  0
ARC
  5
423
330
A
100
AcDbEntity
  8
03
100
AcDbCircle
 10
278.8367432168553
 20
267.4668843444205
 30
0.0
 40
5.0
100
AcDbArc
 50
359.9999996914799
 51
89.99999958863979
  0
LINE
  5
424
330
A
100
AcDbEntity
  8
03
100
AcDbLine
 10
266.8367432168553
 20
267.4668843444206
 30
0.0
 11
266.8367432168553
 21
266.9868843444206
 31
0.0
  0
ARC
  5
425
330
A
100
AcDbEntity
  8
03
100
AcDbCircle
 10
271.8367432168553
 20
267.4668843444205
 30
0.0
 40
5.0
100
AcDbArc
 50
89.99999999999982
 51
179.9999998971598
  0
ARC
  5
426
330
A
100
AcDbEntity
  8
03
100
AcDbCircle
 10
275.3367432168553
 20
267.9868843444205
 30
0.0
 40
4.0
100
AcDbArc
 50
129.3333332883881
 51
142.3222221624351
  0
ARC
  5
427
330
A
100
AcDbEntity
  8
03
100
AcDbCircle
 10
275.3367432168553
 20
267.9868843444205
 30
0.0
 40
4.0
100
AcDbArc
 50
155.7444443693203
 51
230.6666665059314
  0
ARC
  5
428
330
A
100
AcDbEntity
  8
03
100
AcDbCircle
 10
275.3367432168553
 20
267.9868843444205
 30
0.0
 40
4.0
100
AcDbArc
 50
307.8999997510126
 51
24.25555521931937
  0
ARC
  5
429
330
A
100
AcDbEntity
  8
03
100
AcDbCircle
 10
275.3367432168553
 20
267.9868843444205
 30
0.0
 40
4.0
100
AcDbArc
 50
37.67777742620443
 51
52.09999963194685
  0
LINE
  5
42A
330
A
100
AcDbEntity
  8
03
100
AcDbLine
 10
278.4967432168552
 20
270.4268843444207
 30
0.0
 11
277.7967432168553
 21
270.0268843444206
 31
0.0
  0
LINE
  5
42B
330
A
100
AcDbEntity
  8
03
100
AcDbLine
 10
278.9767432168553
 20
269.6268843444207
 30
0.0
 11
277.7767432168553
 21
268.9468843444207
 31
0.0
  0
LINE
  5
42C
330
A
100
AcDbEntity
  8
03
100
AcDbLine
 10
272.1767432168553
 20
270.4268843444207
 30
0.0
 11
272.7967432168552
 21
270.0668843444207
 31
0.0
  0
LINE
  5
42D
330
A
100
AcDbEntity
  8
03
100
AcDbLine
 10
271.6967432168553
 20
269.6268843444207
 30
0.0
 11
272.7767432168553
 21
269.0068843444207
 31
0.0
  0
LINE
  5
439
330
A
100
AcDbEntity
  8
03
100
AcDbLine
 10
279.1367432168553
 20
272.4668843444205
 30
0.0
 11
277.7967432168553
 21
271.1268843444207
 31
0.0
  0
LINE
  5
43E
330
A
100
AcDbEntity
  8
03
100
AcDbLine
 10
273.6367432168553
 20
271.6668843444206
 30
0.0
 11
276.8167432168553
 21
271.6668843444206
 31
0.0
  0
LINE
  5
43F
330
A
100
AcDbEntity
  8
03
100
AcDbLine
 10
276.8167432168553
 20
271.6668843444206
 30
0.0
 11
276.816743216855
 21
223.4868843444206
 31
0.0
  0
LINE
  5
440
330
A
100
AcDbEntity
  8
03
100
AcDbLine
 10
273.6367432168553
 20
271.6668843444206
 30
0.0
 11
273.6367432168551
 21
223.4868843444206
 31
0.0
  0
LINE
  5
441
330
A
100
AcDbEntity
  8
06
100
AcDbLine
 10
318.6167432168554
 20
321.4868843444205
 30
0.0
 11
318.6167432168556
 21
363.4868843444204
 31
0.0
  0
LINE
  5
442
330
A
100
AcDbEntity
  8
06
100
AcDbLine
 10
318.6167432168556
 20
368.4868843444204
 30
0.0
 11
318.6167432168558
 21
409.9868843444204
 31
0.0
  0
ARC
  5
443
330
A
100
AcDbEntity
  8
06
100
AcDbCircle
 10
317.6167432168554
 20
322.4868843444204
 30
0.0
 40
1.0
100
AcDbArc
 50
359.9999996914799
 51
89.99999958863979
  0
LINE
  5
444
330
A
100
AcDbEntity
  8
06
100
AcDbLine
 10
317.6167432168554
 20
323.4868843444205
 30
0.0
 11
314.8567432168555
 21
323.4868843444205
 31
0.0
  0
LINE
  5
445
330
A
100
AcDbEntity
  8
06
100
AcDbLine
 10
308.8567432168555
 20
323.4868843444206
 30
0.0
 11
306.0967432168554
 21
323.4868843444206
 31
0.0
  0
ARC
  5
446
330
A
100
AcDbEntity
  8
06
100
AcDbCircle
 10
306.0967432168554
 20
322.4868843444206
 30
0.0
 40
1.0
100
AcDbArc
 50
89.99999999999982
 51
179.9999998971598
  0
LINE
  5
447
330
A
100
AcDbEntity
  8
06
100
AcDbLine
 10
305.0967432168558
 20
409.9868843444204
 30
0.0
 11
305.0967432168556
 21
368.4868843444204
 31
0.0
  0
LINE
  5
448
330
A
100
AcDbEntity
  8
06
100
AcDbLine
 10
305.0967432168556
 20
363.4868843444206
 30
0.0
 11
305.0967432168555
 21
321.4868843444206
 31
0.0
  0
LINE
  5
449
330
A
100
AcDbEntity
  8
06
100
AcDbLine
 10
306.8567432168555
 20
319.9668843444206
 30
0.0
 11
308.0967432168553
 21
312.9668843444206
 31
0.0
  0
LINE
  5
44A
330
A
100
AcDbEntity
  8
06
100
AcDbLine
 10
308.0967432168553
 20
312.9668843444206
 30
0.0
 11
315.6167432168554
 21
312.9668843444205
 31
0.0
  0
LINE
  5
44B
330
A
100
AcDbEntity
  8
06
100
AcDbLine
 10
315.6167432168554
 20
312.9668843444205
 30
0.0
 11
316.8567432168554
 21
319.9668843444205
 31
0.0
  0
LINE
  5
44C
330
A
100
AcDbEntity
  8
06
100
AcDbLine
 10
314.8567432168555
 20
314.4868843444206
 30
0.0
 11
308.8567432168555
 21
314.4868843444206
 31
0.0
  0
LINE
  5
44D
330
A
100
AcDbEntity
  8
06
100
AcDbLine
 10
308.8567432168555
 20
314.4868843444206
 30
0.0
 11
308.8567432168557
 21
363.4868843444206
 31
0.0
  0
LINE
  5
44E
330
A
100
AcDbEntity
  8
06
100
AcDbLine
 10
308.8567432168556
 20
368.4868843444204
 30
0.0
 11
308.8567432168558
 21
416.9868843444204
 31
0.0
  0
LINE
  5
44F
330
A
100
AcDbEntity
  8
06
100
AcDbLine
 10
314.8567432168555
 20
314.4868843444206
 30
0.0
 11
314.8567432168556
 21
363.4868843444206
 31
0.0
  0
LINE
  5
450
330
A
100
AcDbEntity
  8
06
100
AcDbLine
 10
314.8567432168556
 20
368.4868843444204
 30
0.0
 11
314.8567432168558
 21
416.9868843444204
 31
0.0
  0
LINE
  5
451
330
A
100
AcDbEntity
  8
06
100
AcDbLine
 10
310.2567432168555
 20
314.4868843444206
 30
0.0
 11
310.2567432168557
 21
363.4868843444206
 31
0.0
  0
LINE
  5
452
330
A
100
AcDbEntity
  8
06
100
AcDbLine
 10
310.2567432168557
 20
368.4868843444204
 30
0.0
 11
310.2567432168559
 21
416.9868843444204
 31
0.0
  0
LINE
  5
453
330
A
100
AcDbEntity
  8
06
100
AcDbLine
 10
313.4567432168557
 20
416.9868843444204
 30
0.0
 11
313.4567432168556
 21
368.4868843444204
 31
0.0
  0
LINE
  5
454
330
A
100
AcDbEntity
  8
06
100
AcDbLine
 10
313.4567432168556
 20
363.4868843444206
 30
0.0
 11
313.4567432168555
 21
314.4868843444206
 31
0.0
  0
ARC
  5
455
330
A
100
AcDbEntity
  8
06
100
AcDbCircle
 10
317.6167432168556
 20
409.0268843444206
 30
0.0
 40
1.0
100
AcDbArc
 50
269.9999997943198
 51
359.9999996914799
  0
LINE
  5
456
330
A
100
AcDbEntity
  8
06
100
AcDbLine
 10
317.6167432168556
 20
408.0268843444206
 30
0.0
 11
314.8567432168557
 21
408.0268843444206
 31
0.0
  0
LINE
  5
457
330
A
100
AcDbEntity
  8
06
100
AcDbLine
 10
308.8567432168557
 20
408.0268843444206
 30
0.0
 11
306.0967432168557
 21
408.0268843444206
 31
0.0
  0
ARC
  5
458
330
A
100
AcDbEntity
  8
06
100
AcDbCircle
 10
306.0967432168557
 20
409.0268843444206
 30
0.0
 40
1.0
100
AcDbArc
 50
179.9999998971598
 51
269.9999997943198
  0
LINE
  5
459
330
A
100
AcDbEntity
  8
06
100
AcDbLine
 10
306.8567432168558
 20
411.5068843444205
 30
0.0
 11
308.0967432168558
 21
418.5068843444206
 31
0.0
  0
LINE
  5
45A
330
A
100
AcDbEntity
  8
06
100
AcDbLine
 10
308.0967432168558
 20
418.5068843444206
 30
0.0
 11
315.6167432168558
 21
418.5068843444206
 31
0.0
  0
LINE
  5
45B
330
A
100
AcDbEntity
  8
06
100
AcDbLine
 10
315.6167432168558
 20
418.5068843444206
 30
0.0
 11
316.8567432168558
 21
411.5068843444205
 31
0.0
  0
LINE
  5
45C
330
A
100
AcDbEntity
  8
06
100
AcDbLine
 10
314.8567432168558
 20
417.0268843444206
 30
0.0
 11
308.8567432168558
 21
417.0268843444206
 31
0.0
  0
LINE
  5
470
330
A
100
AcDbEntity
  8
03
100
AcDbLine
 10
109.3301886792449
 20
342.1114365809439
 30
0.0
 11
109.3301886792449
 21
338.6114365809441
 31
0.0
  0
LINE
  5
471
330
A
100
AcDbEntity
  8
03
100
AcDbLine
 10
106.3301886792449
 20
338.6114365809441
 30
0.0
 11
106.3301886792449
 21
342.1114365809439
 31
0.0
  0
LINE
  5
472
330
A
100
AcDbEntity
  8
03
100
AcDbLine
 10
109.3301886792454
 20
524.1114365809441
 30
0.0
 11
109.3301886792454
 21
527.6114365809441
 31
0.0
  0
LINE
  5
473
330
A
100
AcDbEntity
  8
03
100
AcDbLine
 10
106.3301886792455
 20
527.6114365809441
 30
0.0
 11
106.3301886792455
 21
524.1114365809441
 31
0.0
  0
LINE
  5
474
330
A
100
AcDbEntity
  8
03
100
AcDbLine
 10
118.6301886792454
 20
487.111436580944
 30
0.0
 11
118.6301886792454
 21
479.1114365809439
 31
0.0
  0
LINE
  5
475
330
A
100
AcDbEntity
  8
03
100
AcDbLine
 10
114.8301886792454
 20
479.8514365809441
 30
0.0
 11
119.3901886792454
 21
479.8514365809439
 31
0.0
  0
LINE
  5
476
330
A
100
AcDbEntity
  8
03
100
AcDbLine
 10
114.8301886792454
 20
486.3714365809441
 30
0.0
 11
119.3901886792454
 21
486.3714365809439
 31
0.0
  0
LINE
  5
477
330
A
100
AcDbEntity
  8
03
100
AcDbLine
 10
150.5901886792455
 20
513.6114365809438
 30
0.0
 11
150.5901886792455
 21
525.0714365809439
 31
0.0
  0
LINE
  5
478
330
A
100
AcDbEntity
  8
03
100
AcDbLine
 10
144.0701886792455
 20
513.6114365809438
 30
0.0
 11
144.0701886792455
 21
525.0714365809439
 31
0.0
  0
LINE
  5
479
330
A
100
AcDbEntity
  8
03
100
AcDbLine
 10
118.6301886792451
 20
379.1114365809439
 30
0.0
 11
118.6301886792451
 21
387.111436580944
 31
0.0
  0
LINE
  5
47A
330
A
100
AcDbEntity
  8
03
100
AcDbLine
 10
114.8301886792451
 20
386.3714365809439
 30
0.0
 11
119.3901886792452
 21
386.3714365809439
 31
0.0
  0
LINE
  5
47B
330
A
100
AcDbEntity
  8
03
100
AcDbLine
 10
114.8301886792451
 20
379.851436580944
 30
0.0
 11
119.390188679245
 21
379.851436580944
 31
0.0
  0
LINE
  5
47C
330
A
100
AcDbEntity
  8
03
100
AcDbLine
 10
150.5901886792449
 20
352.6114365809439
 30
0.0
 11
150.5901886792448
 21
341.1514365809438
 31
0.0
  0
LINE
  5
47D
330
A
100
AcDbEntity
  8
03
100
AcDbLine
 10
144.070188679245
 20
352.6114365809439
 30
0.0
 11
144.0701886792449
 21
341.1514365809438
 31
0.0
  0
LINE
  5
47E
330
A
100
AcDbEntity
  8
SAISEN
100
AcDbLine
 10
85.83018867924527
 20
430.6114365809441
 30
0.0
 11
169.8301886792453
 21
430.6114365809438
 31
0.0
  0
LINE
  5
47F
330
A
100
AcDbEntity
  8
SAISEN
100
AcDbLine
 10
85.83018867924527
 20
435.6114365809441
 30
0.0
 11
169.8301886792453
 21
435.6114365809438
 31
0.0
  0
LINE
  5
480
330
A
100
AcDbEntity
  8
03
100
AcDbLine
 10
52.2371910368027
 20
103.8249848922319
 30
0.0
 11
230.2371910368025
 21
103.8249848922311
 31
0.0
  0
LINE
  5
481
330
A
100
AcDbEntity
  8
03
100
AcDbLine
 10
52.23719103680322
 20
253.8249848922318
 30
0.0
 11
230.2371910368031
 21
253.8249848922311
 31
0.0
  0
LINE
  5
482
330
A
100
AcDbEntity
  8
03
100
AcDbLine
 10
90.23719103680269
 20
103.8249848922317
 30
0.0
 11
90.23719103680326
 21
253.8249848922315
 31
0.0
  0
LINE
  5
483
330
A
100
AcDbEntity
  8
03
100
AcDbLine
 10
75.2371910368027
 20
103.8249848922317
 30
0.0
 11
75.23719103680327
 21
253.8249848922316
 31
0.0
  0
LINE
  5
484
330
A
100
AcDbEntity
  8
03
100
AcDbLine
 10
55.2371910368027
 20
103.8249848922319
 30
0.0
 11
55.23719103680328
 21
253.8249848922318
 31
0.0
  0
LINE
  5
485
330
A
100
AcDbEntity
  8
SAISEN
100
AcDbLine
 10
230.2371910368025
 20
77.00802771894058
 30
0.0
 11
230.2371910368032
 21
281.5566297162181
 31
0.0
  0
LINE
  5
486
330
A
100
AcDbEntity
  8
06
100
AcDbLine
 10
89.23719103680305
 20
175.3249848922316
 30
0.0
 11
230.2371910368028
 21
175.3249848922311
 31
0.0
  0
LINE
  5
487
330
A
100
AcDbEntity
  8
06
100
AcDbLine
 10
89.23719103680305
 20
182.3249848922316
 30
0.0
 11
121.2489715780646
 21
182.3249848922314
 31
0.0
  0
LINE
  5
488
330
A
100
AcDbEntity
  8
06
100
AcDbLine
 10
129.1859922604852
 20
182.3249848922314
 30
0.0
 11
230.2371910368028
 21
182.3249848922311
 31
0.0
  0
LINE
  5
489
330
A
100
AcDbEntity
  8
06
100
AcDbLine
 10
89.23719103680323
 20
246.8249848922316
 30
0.0
 11
121.2489715780647
 21
246.8249848922316
 31
0.0
  0
LINE
  5
48A
330
A
100
AcDbEntity
  8
06
100
AcDbLine
 10
129.1859922604853
 20
246.8249848922314
 30
0.0
 11
229.237191036803
 21
246.8249848922311
 31
0.0
  0
LINE
  5
48B
330
A
100
AcDbEntity
  8
06
100
AcDbLine
 10
229.2371910368029
 20
175.3249848922311
 30
0.0
 11
229.237191036803
 21
253.8249848922311
 31
0.0
  0
LINE
  5
48C
330
A
100
AcDbEntity
  8
06
100
AcDbLine
 10
98.23719103680305
 20
182.3249848922316
 30
0.0
 11
98.23719103680321
 21
246.8249848922316
 31
0.0
  0
LINE
  5
48D
330
A
100
AcDbEntity
  8
06
100
AcDbLine
 10
217.2371910368029
 20
182.3249848922313
 30
0.0
 11
217.2371910368031
 21
246.8249848922313
 31
0.0
  0
LINE
  5
48E
330
A
100
AcDbEntity
  8
03
100
AcDbLine
 10
217.2371910368026
 20
103.8249848922311
 30
0.0
 11
217.2371910368029
 21
175.3249848922313
 31
0.0
  0
LINE
  5
48F
330
A
100
AcDbEntity
  8
03
100
AcDbLine
 10
52.2371910368027
 20
100.8249848922319
 30
0.0
 11
230.2371910368025
 21
100.8249848922311
 31
0.0
  0
LINE
  5
490
330
A
100
AcDbEntity
  8
03
100
AcDbLine
 10
52.23719103680322
 20
256.8249848922318
 30
0.0
 11
230.2371910368032
 21
256.8249848922311
 31
0.0
  0
LINE
  5
491
330
A
100
AcDbEntity
  8
03
100
AcDbLine
 10
52.2371910368027
 20
100.8249848922319
 30
0.0
 11
52.23719103680322
 21
256.8249848922318
 31
0.0
  0
LINE
  5
492
330
A
100
AcDbEntity
  8
03
100
AcDbLine
 10
272.8367432168549
 20
169.506884344421
 30
0.0
 11
272.8367432168552
 21
218.486884344421
 31
0.0
  0
LINE
  5
493
330
A
100
AcDbEntity
  8
03
100
AcDbLine
 10
277.616743216855
 20
169.506884344421
 30
0.0
 11
277.6167432168552
 21
218.486884344421
 31
0.0
  0
LINE
  5
494
330
A
100
AcDbEntity
  8
03
100
AcDbLine
 10
276.8167432168549
 20
170.306884344421
 30
0.0
 11
276.816743216855
 21
218.486884344421
 31
0.0
  0
LINE
  5
495
330
A
100
AcDbEntity
  8
03
100
AcDbLine
 10
273.6367432168549
 20
170.306884344421
 30
0.0
 11
273.6367432168551
 21
218.486884344421
 31
0.0
  0
LINE
  5
496
330
A
100
AcDbEntity
  8
SAISEN
100
AcDbLine
 10
66.37875214408229
 20
376.4399129548181
 30
0.0
 11
66.37875214408234
 21
466.7795944731031
 31
0.0
  0
ARC
  5
4A3
330
A
100
AcDbEntity
  8
03
100
AcDbCircle
 10
291.8367432168555
 20
311.9868843444206
 30
0.0
 40
0.5
100
AcDbArc
 50
179.9999999999998
 51
359.9999999999997
  0
LINE
  5
4A5
330
A
100
AcDbEntity
  8
03
100
AcDbLine
 10
292.3367432168554
 20
312.4868843444206
 30
0.0
 11
296.8367432168554
 21
312.4868843444206
 31
0.0
  0
LINE
  5
4A6
330
A
100
AcDbEntity
  8
03
100
AcDbLine
 10
292.3367432168554
 20
313.4868843444206
 30
0.0
 11
296.8367432168554
 21
313.4868843444206
 31
0.0
  0
LINE
  5
4AB
330
A
100
AcDbEntity
  8
03
100
AcDbLine
 10
292.3367432168554
 20
313.4868843444206
 30
0.0
 11
292.3367432168554
 21
315.4868843444206
 31
0.0
  0
LINE
  5
4AC
330
A
100
AcDbEntity
  8
03
100
AcDbLine
 10
292.3367432168554
 20
315.4868843444206
 30
0.0
 11
296.8367432168554
 21
315.4868843444206
 31
0.0
  0
ARC
  5
4AD
330
A
100
AcDbEntity
  8
03
100
AcDbCircle
 10
296.8367432168554
 20
312.9868843444207
 30
0.0
 40
0.5
100
AcDbArc
 50
269.9999999999997
 51
90.0
  0
ARC
  5
4B1
330
A
100
AcDbEntity
  8
03
100
AcDbCircle
 10
296.8367432168554
 20
315.9868843444206
 30
0.0
 40
0.5
100
AcDbArc
 50
269.9999999999997
 51
90.0
  0
LINE
  5
4B5
330
A
100
AcDbEntity
  8
03
100
AcDbLine
 10
292.3367432168554
 20
316.4868843444206
 30
0.0
 11
296.8367432168554
 21
316.4868843444206
 31
0.0
  0
ARC
  5
4B6
330
A
100
AcDbEntity
  8
03
100
AcDbCircle
 10
291.8367432168555
 20
316.9868843444206
 30
0.0
 40
0.5
100
AcDbArc
 50
359.9999999999997
 51
179.9999999999999
  0
LINE
  5
4B8
330
A
100
AcDbEntity
  8
06
100
AcDbLine
 10
293.3367432168555
 20
273.4868843444205
 30
0.0
 11
297.8367432168555
 21
273.4868843444205
 31
0.0
  0
LINE
  5
4B9
330
A
100
AcDbEntity
  8
06
100
AcDbLine
 10
293.3367432168555
 20
269.4868843444205
 30
0.0
 11
297.8367432168555
 21
269.4868843444205
 31
0.0
  0
LINE
  5
4BA
330
A
100
AcDbEntity
  8
06
100
AcDbLine
 10
293.3367432168555
 20
270.4868843444205
 30
0.0
 11
297.8367432168555
 21
270.4868843444205
 31
0.0
  0
LINE
  5
4BB
330
A
100
AcDbEntity
  8
06
100
AcDbLine
 10
293.3367432168555
 20
272.4868843444205
 30
0.0
 11
297.8367432168555
 21
272.4868843444205
 31
0.0
  0
LINE
  5
4BC
330
A
100
AcDbEntity
  8
06
100
AcDbLine
 10
297.8367432168555
 20
270.4868843444205
 30
0.0
 11
297.8367432168555
 21
272.4868843444205
 31
0.0
  0
ARC
  5
4BD
330
A
100
AcDbEntity
  8
06
100
AcDbCircle
 10
293.3367432168555
 20
272.9868843444205
 30
0.0
 40
0.5
100
AcDbArc
 50
90.0
 51
269.9999999999997
  0
ARC
  5
4BE
330
A
100
AcDbEntity
  8
06
100
AcDbCircle
 10
293.3367432168555
 20
269.9868843444205
 30
0.0
 40
0.5
100
AcDbArc
 50
90.0
 51
269.9999999999997
  0
ARC
  5
4BF
330
A
100
AcDbEntity
  8
06
100
AcDbCircle
 10
298.3367432168554
 20
268.9868843444205
 30
0.0
 40
0.5
100
AcDbArc
 50
179.9999999999998
 51
359.9999999999997
  0
ARC
  5
4C0
330
A
100
AcDbEntity
  8
06
100
AcDbCircle
 10
298.3367432168554
 20
273.9868843444205
 30
0.0
 40
0.5
100
AcDbArc
 50
359.9999999999997
 51
179.9999999999999
  0
LINE
  5
4CE
330
A
100
AcDbEntity
  8
03
100
AcDbLine
 10
285.8367432168552
 20
178.4868843444214
 30
0.0
 11
285.8367432168553
 21
218.486884344421
 31
0.0
  0
LINE
  5
4CF
330
A
100
AcDbEntity
  8
03
100
AcDbLine
 10
286.3367432168555
 20
223.4868843444208
 30
0.0
 11
286.3367432168553
 21
263.4868843444205
 31
0.0
  0
LINE
  5
4D0
330
A
100
AcDbEntity
  8
03
100
AcDbLine
 10
298.8367432168552
 20
162.4868843444214
 30
0.0
 11
298.8367432168552
 21
158.9868843444214
 31
0.0
  0
LINE
  5
4D1
330
A
100
AcDbEntity
  8
03
100
AcDbLine
 10
295.8367432168552
 20
158.9868843444214
 30
0.0
 11
295.8367432168552
 21
162.4868843444214
 31
0.0
  0
LINE
  5
4D2
330
A
100
AcDbEntity
  8
03
100
AcDbLine
 10
277.2967432168552
 20
169.5068843444214
 30
0.0
 11
272.2967432168551
 21
169.5068843444214
 31
0.0
  0
LINE
  5
4D3
330
A
100
AcDbEntity
  8
03
100
AcDbLine
 10
285.8367432168552
 20
176.9868843444214
 30
0.0
 11
285.8367432168552
 21
178.4868843444214
 31
0.0
  0
LINE
  5
4D4
330
A
100
AcDbEntity
  8
03
100
AcDbLine
 10
285.8367432168552
 20
178.4868843444214
 30
0.0
 11
277.7967432168551
 21
178.4868843444214
 31
0.0
  0
LINE
  5
4D5
330
A
100
AcDbEntity
  8
03
100
AcDbLine
 10
263.8367432168552
 20
178.4868843444214
 30
0.0
 11
272.8367432168552
 21
178.4868843444214
 31
0.0
  0
LINE
  5
4D6
330
A
100
AcDbEntity
  8
03
100
AcDbLine
 10
285.8367432168552
 20
176.9868843444214
 30
0.0
 11
282.8367432168552
 21
176.9868843444214
 31
0.0
  0
LINE
  5
4D7
330
A
100
AcDbEntity
  8
03
100
AcDbLine
 10
263.8367432168552
 20
176.9868843444214
 30
0.0
 11
263.8367432168552
 21
178.4868843444214
 31
0.0
  0
LINE
  5
4D8
330
A
100
AcDbEntity
  8
03
100
AcDbLine
 10
266.8367432168551
 20
174.9868843444214
 30
0.0
 11
266.8367432168551
 21
176.9868843444214
 31
0.0
  0
LINE
  5
4D9
330
A
100
AcDbEntity
  8
03
100
AcDbLine
 10
282.8367432168552
 20
174.9868843444214
 30
0.0
 11
282.8367432168552
 21
176.9868843444214
 31
0.0
  0
LINE
  5
4DA
330
A
100
AcDbEntity
  8
03
100
AcDbLine
 10
266.8367432168551
 20
176.9868843444214
 30
0.0
 11
263.8367432168552
 21
176.9868843444214
 31
0.0
  0
LINE
  5
4DB
330
A
100
AcDbEntity
  8
03
100
AcDbLine
 10
266.8367432168551
 20
174.9868843444214
 30
0.0
 11
266.3367432168552
 21
174.9868843444214
 31
0.0
  0
LINE
  5
4DC
330
A
100
AcDbEntity
  8
03
100
AcDbLine
 10
282.8367432168552
 20
174.9868843444214
 30
0.0
 11
283.3367432168552
 21
174.9868843444214
 31
0.0
  0
LINE
  5
4DD
330
A
100
AcDbEntity
  8
03
100
AcDbLine
 10
277.2967432168552
 20
169.5068843444214
 30
0.0
 11
278.3367432168552
 21
169.5068843444214
 31
0.0
  0
LINE
  5
4DE
330
A
100
AcDbEntity
  8
03
100
AcDbLine
 10
272.2967432168551
 20
169.5068843444214
 30
0.0
 11
271.3367432168552
 21
169.5068843444214
 31
0.0
  0
LINE
  5
4DF
330
A
100
AcDbEntity
  8
03
100
AcDbLine
 10
283.3367432168552
 20
174.5068843444213
 30
0.0
 11
283.3367432168552
 21
174.9868843444214
 31
0.0
  0
ARC
  5
4E0
330
A
100
AcDbEntity
  8
03
100
AcDbCircle
 10
278.3367432168552
 20
174.5068843444213
 30
0.0
 40
5.0
100
AcDbArc
 50
270.0000004113594
 51
0.0000003085193701
  0
LINE
  5
4E1
330
A
100
AcDbEntity
  8
03
100
AcDbLine
 10
266.3367432168552
 20
174.5068843444213
 30
0.0
 11
266.3367432168552
 21
174.9868843444214
 31
0.0
  0
ARC
  5
4E2
330
A
100
AcDbEntity
  8
03
100
AcDbCircle
 10
271.3367432168552
 20
174.5068843444213
 30
0.0
 40
5.0
100
AcDbArc
 50
180.0000001028396
 51
269.9999999999997
  0
ARC
  5
4E3
330
A
100
AcDbEntity
  8
03
100
AcDbCircle
 10
275.3720670951295
 20
173.9868843444214
 30
0.0
 40
4.0
100
AcDbArc
 50
217.6777778375643
 51
230.6666667116113
  0
ARC
  5
4E4
330
A
100
AcDbEntity
  8
03
100
AcDbCircle
 10
275.3720670951295
 20
173.9868843444214
 30
0.0
 40
4.0
100
AcDbArc
 50
129.3333334940681
 51
204.2555556306791
  0
ARC
  5
4E5
330
A
100
AcDbEntity
  8
03
100
AcDbCircle
 10
275.3717432168552
 20
173.9868843444214
 30
0.0
 40
4.0
100
AcDbArc
 50
335.7444447806798
 51
52.10000024898643
  0
ARC
  5
4E6
330
A
100
AcDbEntity
  8
03
100
AcDbCircle
 10
275.3717432168552
 20
173.9868843444214
 30
0.0
 40
4.0
100
AcDbArc
 50
307.9000003680523
 51
322.3222225737946
  0
LINE
  5
4E7
330
A
100
AcDbEntity
  8
03
100
AcDbLine
 10
278.5317432168552
 20
171.5468843444213
 30
0.0
 11
277.8317432168551
 21
171.9468843444214
 31
0.0
  0
LINE
  5
4E8
330
A
100
AcDbEntity
  8
03
100
AcDbLine
 10
279.0117432168552
 20
172.346884344421
 30
0.0
 11
277.8117432168552
 21
173.0268843444213
 31
0.0
  0
LINE
  5
4E9
330
A
100
AcDbEntity
  8
03
100
AcDbLine
 10
272.2120670951293
 20
171.5468843444213
 30
0.0
 11
272.8320670951295
 21
171.9068843444214
 31
0.0
  0
LINE
  5
4EA
330
A
100
AcDbEntity
  8
03
100
AcDbLine
 10
271.7320670951293
 20
172.346884344421
 30
0.0
 11
272.8120670951295
 21
172.9668843444214
 31
0.0
  0
LINE
  5
4FB
330
A
100
AcDbEntity
  8
03
100
AcDbLine
 10
273.6367432168552
 20
170.3068843444214
 30
0.0
 11
276.8167432168552
 21
170.3068843444214
 31
0.0
  0
CIRCLE
  5
4FC
330
A
100
AcDbEntity
  8
03
100
AcDbCircle
 10
276.3367432168553
 20
301.4868843444206
 30
0.0
 40
6.0
  0
LINE
  5
4FD
330
A
100
AcDbEntity
  8
06
100
AcDbLine
 10
324.8567432168556
 20
363.4868843444204
 30
0.0
 11
324.8567432168554
 21
321.4868843444205
 31
0.0
  0
LINE
  5
4FE
330
A
100
AcDbEntity
  8
06
100
AcDbLine
 10
298.8567432168555
 20
321.4868843444206
 30
0.0
 11
298.8567432168557
 21
363.4868843444206
 31
0.0
  0
LINE
  5
4FF
330
A
100
AcDbEntity
  8
06
100
AcDbLine
 10
297.3367432168558
 20
408.0268843444206
 30
0.0
 11
297.336743216856
 21
462.8268843444214
 31
0.0
  0
LINE
  5
500
330
A
100
AcDbEntity
  8
06
100
AcDbLine
 10
298.8567432168558
 20
457.0268843444204
 30
0.0
 11
324.8567432168558
 21
457.0268843444204
 31
0.0
  0
LINE
  5
501
330
A
100
AcDbEntity
  8
06
100
AcDbLine
 10
324.8567432168558
 20
457.0268843444204
 30
0.0
 11
324.8567432168558
 21
462.9520709127383
 31
0.0
  0
LINE
  5
502
330
A
100
AcDbEntity
  8
06
100
AcDbLine
 10
326.3367432168558
 20
463.2268843444203
 30
0.0
 11
326.3367432168557
 21
408.0268843444204
 31
0.0
  0
LINE
  5
503
330
A
100
AcDbEntity
  8
06
100
AcDbLine
 10
326.3367432168557
 20
408.0268843444204
 30
0.0
 11
324.8567432168556
 21
408.0268843444204
 31
0.0
  0
LINE
  5
504
330
A
100
AcDbEntity
  8
06
100
AcDbLine
 10
324.8567432168556
 20
368.4868843444204
 30
0.0
 11
324.8567432168558
 21
409.9868843444204
 31
0.0
  0
LINE
  5
505
330
A
100
AcDbEntity
  8
06
100
AcDbLine
 10
324.8567432168558
 20
410.0268843444204
 30
0.0
 11
316.3367432168559
 21
410.0268843444204
 31
0.0
  0
LINE
  5
506
330
A
100
AcDbEntity
  8
06
100
AcDbLine
 10
316.3367432168559
 20
410.0268843444204
 30
0.0
 11
316.3367432168559
 21
411.5068843444205
 31
0.0
  0
LINE
  5
507
330
A
100
AcDbEntity
  8
06
100
AcDbLine
 10
316.3367432168559
 20
411.5068843444205
 30
0.0
 11
324.8567432168558
 21
411.5068843444205
 31
0.0
  0
LINE
  5
508
330
A
100
AcDbEntity
  8
06
100
AcDbLine
 10
324.8567432168558
 20
411.5068843444205
 30
0.0
 11
324.8567432168558
 21
423.0268843444204
 31
0.0
  0
LINE
  5
509
330
A
100
AcDbEntity
  8
06
100
AcDbLine
 10
324.8567432168558
 20
423.0268843444204
 30
0.0
 11
298.8567432168558
 21
423.0268843444206
 31
0.0
  0
LINE
  5
50A
330
A
100
AcDbEntity
  8
06
100
AcDbLine
 10
297.3367432168558
 20
408.0268843444206
 30
0.0
 11
298.8567432168557
 21
408.0268843444206
 31
0.0
  0
LINE
  5
50B
330
A
100
AcDbEntity
  8
06
100
AcDbLine
 10
298.8567432168556
 20
368.4868843444206
 30
0.0
 11
298.8567432168558
 21
409.9868843444204
 31
0.0
  0
LINE
  5
50C
330
A
100
AcDbEntity
  8
06
100
AcDbLine
 10
298.8567432168558
 20
410.0268843444206
 30
0.0
 11
307.3367432168558
 21
410.0268843444204
 31
0.0
  0
LINE
  5
50D
330
A
100
AcDbEntity
  8
06
100
AcDbLine
 10
307.3367432168558
 20
410.0268843444204
 30
0.0
 11
307.3367432168558
 21
411.5068843444205
 31
0.0
  0
LINE
  5
50E
330
A
100
AcDbEntity
  8
06
100
AcDbLine
 10
307.3367432168558
 20
411.5068843444205
 30
0.0
 11
298.8567432168558
 21
411.5068843444205
 31
0.0
  0
LINE
  5
50F
330
A
100
AcDbEntity
  8
06
100
AcDbLine
 10
298.8567432168558
 20
411.5068843444205
 30
0.0
 11
298.8567432168558
 21
423.0268843444206
 31
0.0
  0
LINE
  5
510
330
A
100
AcDbEntity
  8
06
100
AcDbLine
 10
298.8567432168558
 20
424.5068843444204
 30
0.0
 11
324.8567432168558
 21
424.5068843444204
 31
0.0
  0
LINE
  5
511
330
A
100
AcDbEntity
  8
06
100
AcDbLine
 10
298.8567432168558
 20
455.5068843444204
 30
0.0
 11
298.8567432168558
 21
424.5068843444204
 31
0.0
  0
LINE
  5
512
330
A
100
AcDbEntity
  8
06
100
AcDbLine
 10
298.8567432168558
 20
455.5068843444204
 30
0.0
 11
324.8567432168558
 21
455.5068843444204
 31
0.0
  0
LINE
  5
513
330
A
100
AcDbEntity
  8
06
100
AcDbLine
 10
324.8567432168558
 20
455.5068843444204
 30
0.0
 11
324.8567432168558
 21
424.5068843444204
 31
0.0
  0
LINE
  5
514
330
A
100
AcDbEntity
  8
06
100
AcDbLine
 10
298.8567432168558
 20
457.0268843444204
 30
0.0
 11
298.8567432168561
 21
462.9520709127417
 31
0.0
  0
LINE
  5
515
330
A
100
AcDbEntity
  8
06
100
AcDbLine
 10
297.3367432168554
 20
269.4868843444205
 30
0.0
 11
297.3367432168554
 21
268.4868843444202
 31
0.0
  0
LINE
  5
516
330
A
100
AcDbEntity
  8
06
100
AcDbLine
 10
297.8367432168555
 20
274.4868843444205
 30
0.0
 11
298.8367432168555
 21
274.4868843444205
 31
0.0
  0
LINE
  5
517
330
A
100
AcDbEntity
  8
06
100
AcDbLine
 10
297.8367432168555
 20
268.4868843444205
 30
0.0
 11
298.8367432168555
 21
268.4868843444205
 31
0.0
  0
LINE
  5
518
330
A
100
AcDbEntity
  8
06
100
AcDbLine
 10
297.8367432168555
 20
268.4868843444205
 30
0.0
 11
297.8367432168555
 21
269.4868843444205
 31
0.0
  0
LINE
  5
519
330
A
100
AcDbEntity
  8
06
100
AcDbLine
 10
297.8367432168555
 20
273.4868843444205
 30
0.0
 11
297.8367432168555
 21
274.4868843444205
 31
0.0
  0
LINE
  5
51A
330
A
100
AcDbEntity
  8
06
100
AcDbLine
 10
298.8367432168555
 20
274.4868843444205
 30
0.0
 11
298.8367432168555
 21
268.4868843444205
 31
0.0
  0
LINE
  5
51B
330
A
100
AcDbEntity
  8
06
100
AcDbLine
 10
298.8367432168555
 20
275.9868843444205
 30
0.0
 11
324.8367432168555
 21
275.9868843444205
 31
0.0
  0
LINE
  5
51C
330
A
100
AcDbEntity
  8
06
100
AcDbLine
 10
298.8367432168555
 20
306.4868843444206
 30
0.0
 11
298.8367432168555
 21
275.9868843444205
 31
0.0
  0
LINE
  5
51D
330
A
100
AcDbEntity
  8
06
100
AcDbLine
 10
297.3367432168554
 20
323.4868843444206
 30
0.0
 11
297.3367432168554
 21
273.4868843444205
 31
0.0
  0
LINE
  5
51E
330
A
100
AcDbEntity
  8
06
100
AcDbLine
 10
297.8367432168555
 20
263.4868843444205
 30
0.0
 11
297.3367432168554
 21
268.4868843444205
 31
0.0
  0
LINE
  5
51F
330
A
100
AcDbEntity
  8
06
100
AcDbLine
 10
299.1942245600236
 20
264.9868843444205
 30
0.0
 11
298.9867432168557
 21
267.0616977760993
 31
0.0
  0
LINE
  5
520
330
A
100
AcDbEntity
  8
06
100
AcDbLine
 10
298.9867432168557
 20
267.0616977760993
 30
0.0
 11
300.3367432168555
 21
267.0616977760993
 31
0.0
  0
LINE
  5
521
330
A
100
AcDbEntity
  8
06
100
AcDbLine
 10
300.3367432168555
 20
267.0616977760993
 30
0.0
 11
300.3367432168555
 21
274.4868843444205
 31
0.0
  0
LINE
  5
522
330
A
100
AcDbEntity
  8
06
100
AcDbLine
 10
300.3367432168555
 20
274.4868843444205
 30
0.0
 11
324.8367432168555
 21
274.4868843444205
 31
0.0
  0
LINE
  5
523
330
A
100
AcDbEntity
  8
06
100
AcDbLine
 10
324.8367432168555
 20
274.4868843444205
 30
0.0
 11
324.8367432168555
 21
268.5616977761016
 31
0.0
  0
LINE
  5
524
330
A
100
AcDbEntity
  8
06
100
AcDbLine
 10
324.4792618736871
 20
264.9868843444205
 30
0.0
 11
324.8367432168553
 21
268.5616977761016
 31
0.0
  0
LINE
  5
525
330
A
100
AcDbEntity
  8
06
100
AcDbLine
 10
325.8367432168554
 20
263.4868843444205
 30
0.0
 11
326.3367432168554
 21
268.486884344421
 31
0.0
  0
LINE
  5
526
330
A
100
AcDbEntity
  8
06
100
AcDbLine
 10
326.3367432168554
 20
323.4868843444206
 30
0.0
 11
326.3367432168554
 21
268.486884344421
 31
0.0
  0
LINE
  5
527
330
A
100
AcDbEntity
  8
06
100
AcDbLine
 10
324.8367432168555
 20
306.4868843444206
 30
0.0
 11
324.8367432168555
 21
275.9868843444205
 31
0.0
  0
LINE
  5
528
330
A
100
AcDbEntity
  8
06
100
AcDbLine
 10
298.8367432168555
 20
306.4868843444206
 30
0.0
 11
324.8367432168555
 21
306.4868843444206
 31
0.0
  0
LINE
  5
529
330
A
100
AcDbEntity
  8
06
100
AcDbLine
 10
298.8367432168555
 20
308.4868843444206
 30
0.0
 11
324.8367432168555
 21
308.4868843444206
 31
0.0
  0
LINE
  5
52A
330
A
100
AcDbEntity
  8
06
100
AcDbLine
 10
298.8367432168555
 20
319.9868843444206
 30
0.0
 11
298.8367432168555
 21
308.4868843444206
 31
0.0
  0
LINE
  5
52B
330
A
100
AcDbEntity
  8
06
100
AcDbLine
 10
297.3367432168554
 20
323.4868843444206
 30
0.0
 11
298.8367432168555
 21
323.4868843444206
 31
0.0
  0
LINE
  5
52C
330
A
100
AcDbEntity
  8
06
100
AcDbLine
 10
298.8367432168555
 20
321.4868843444206
 30
0.0
 11
306.8367432168555
 21
321.4868843444206
 31
0.0
  0
LINE
  5
52D
330
A
100
AcDbEntity
  8
06
100
AcDbLine
 10
298.8367432168555
 20
319.9868843444206
 30
0.0
 11
306.8367432168555
 21
319.9868843444206
 31
0.0
  0
LINE
  5
52E
330
A
100
AcDbEntity
  8
06
100
AcDbLine
 10
306.8367432168555
 20
321.4868843444206
 30
0.0
 11
306.8367432168555
 21
319.9868843444206
 31
0.0
  0
LINE
  5
52F
330
A
100
AcDbEntity
  8
06
100
AcDbLine
 10
316.8367432168555
 20
319.9868843444206
 30
0.0
 11
324.8367432168555
 21
319.9868843444206
 31
0.0
  0
LINE
  5
530
330
A
100
AcDbEntity
  8
06
100
AcDbLine
 10
316.8367432168555
 20
321.4868843444206
 30
0.0
 11
316.8367432168555
 21
319.9868843444206
 31
0.0
  0
LINE
  5
531
330
A
100
AcDbEntity
  8
06
100
AcDbLine
 10
316.8367432168555
 20
321.4868843444206
 30
0.0
 11
324.9860469022065
 21
321.4868843444206
 31
0.0
  0
LINE
  5
532
330
A
100
AcDbEntity
  8
06
100
AcDbLine
 10
324.8367432168555
 20
319.9868843444206
 30
0.0
 11
324.8367432168555
 21
308.4868843444206
 31
0.0
  0
LINE
  5
533
330
A
100
AcDbEntity
  8
06
100
AcDbLine
 10
324.8367432168555
 20
323.4868843444206
 30
0.0
 11
326.3367432168554
 21
323.4868843444206
 31
0.0
  0
LINE
  5
534
330
A
100
AcDbEntity
  8
06
100
AcDbLine
 10
297.8567432168558
 20
468.0268843444205
 30
0.0
 11
297.336743216856
 21
462.8268843444211
 31
0.0
  0
LINE
  5
535
330
A
100
AcDbEntity
  8
06
100
AcDbLine
 10
325.8567432168558
 20
468.0268843444205
 30
0.0
 11
326.3367432168558
 21
463.2268843444204
 31
0.0
  0
LINE
  5
536
330
A
100
AcDbEntity
  8
06
100
AcDbLine
 10
299.214224560024
 20
466.5268843444204
 30
0.0
 11
298.8567432168561
 21
462.9520709127417
 31
0.0
  0
LINE
  5
537
330
A
100
AcDbEntity
  8
06
100
AcDbLine
 10
324.4992618736876
 20
466.5268843444204
 30
0.0
 11
324.8567432168558
 21
462.9520709127383
 31
0.0
  0
LINE
  5
538
330
A
100
AcDbEntity
  8
CHUSIN
100
AcDbLine
 10
311.8567432168553
 20
252.0634346917796
 30
0.0
 11
311.856743216856
 21
478.3946283679513
 31
0.0
  0
LINE
  5
539
330
A
100
AcDbEntity
  8
CHUSIN
100
AcDbLine
 10
82.15383748321455
 20
228.8249848922316
 30
0.0
 11
96.62057273698692
 21
228.8249848922316
 31
0.0
  0
LINE
  5
53A
330
A
100
AcDbEntity
  8
CHUSIN
 48
0.7
100
AcDbLine
 10
86.60514063822146
 20
222.8249848922316
 30
0.0
 11
93.28209537073176
 21
222.8249848922316
 31
0.0
  0
LINE
  5
53B
330
A
100
AcDbEntity
  8
CHUSIN
 48
0.7
100
AcDbLine
 10
86.60514063822146
 20
234.8249848922316
 30
0.0
 11
93.28209537073176
 21
234.8249848922316
 31
0.0
  0
LINE
  5
53C
330
A
100
AcDbEntity
  8
CHUSIN
100
AcDbLine
 10
82.15383748321452
 20
191.3249848922316
 30
0.0
 11
96.62057273698682
 21
191.3249848922316
 31
0.0
  0
LINE
  5
53D
330
A
100
AcDbEntity
  8
CHUSIN
 48
0.7
100
AcDbLine
 10
86.60514063822137
 20
185.3249848922316
 30
0.0
 11
93.28209537073169
 21
185.3249848922316
 31
0.0
  0
LINE
  5
53E
330
A
100
AcDbEntity
  8
CHUSIN
 48
0.7
100
AcDbLine
 10
86.60514063822125
 20
197.3249848922316
 30
0.0
 11
93.28209537073156
 21
197.3249848922316
 31
0.0
  0
LINE
  5
53F
330
A
100
AcDbEntity
  8
CHUSIN
100
AcDbLine
 10
82.73719103680329
 20
233.8246644244091
 30
0.0
 11
82.73719103680326
 21
268.4571159689121
 31
0.0
  0
LINE
  5
540
330
A
100
AcDbEntity
  8
CHUSIN
100
AcDbLine
 10
82.73719103680329
 20
268.4571159689121
 30
0.0
 11
119.729329401583
 21
268.4571159689121
 31
0.0
  0
LINE
  5
541
330
A
100
AcDbEntity
  8
CHUSIN
100
AcDbLine
 10
50.73719103680332
 20
271.4571159689119
 30
0.0
 11
119.729329401583
 21
271.4571159689122
 31
0.0
  0
LINE
  5
542
330
A
100
AcDbEntity
  8
SAISEN
100
AcDbLine
 10
147.7424321269497
 20
197.5206808567786
 30
0.0
 11
156.7424321269496
 21
197.5206808567786
 31
0.0
  0
LINE
  5
543
330
A
100
AcDbEntity
  8
SAISEN
100
AcDbLine
 10
147.7424321269497
 20
197.5206808567786
 30
0.0
 11
147.7424321269497
 21
194.5206808567786
 31
0.0
  0
LINE
  5
544
330
A
100
AcDbEntity
  8
SAISEN
100
AcDbLine
 10
156.7424321269496
 20
197.5206808567786
 30
0.0
 11
156.7424321269496
 21
194.5206808567786
 31
0.0
  0
LINE
  5
545
330
A
100
AcDbEntity
  8
SAISEN
100
AcDbLine
 10
147.7424321269497
 20
194.5206808567786
 30
0.0
 11
143.2424321269496
 21
194.5206808567786
 31
0.0
  0
LINE
  5
546
330
A
100
AcDbEntity
  8
SAISEN
100
AcDbLine
 10
156.7424321269496
 20
194.5206808567786
 30
0.0
 11
161.2424321269497
 21
194.5206808567786
 31
0.0
  0
LINE
  5
547
330
A
100
AcDbEntity
  8
SAISEN
100
AcDbLine
 10
143.2424321269496
 20
194.5206808567788
 30
0.0
 11
152.2424321269497
 21
192.5206808567788
 31
0.0
  0
LINE
  5
548
330
A
100
AcDbEntity
  8
SAISEN
100
AcDbLine
 10
161.2424321269497
 20
194.5206808567786
 30
0.0
 11
152.2424321269497
 21
192.5206808567788
 31
0.0
  0
LINE
  5
574
330
A
100
AcDbEntity
  8
SAISEN
100
AcDbLine
 10
119.729329401583
 20
267.4542747136367
 30
0.0
 11
119.729329401583
 21
272.4571159689121
 31
0.0
  0
LINE
  5
575
330
A
100
AcDbEntity
  8
SAISEN
100
AcDbLine
 10
129.7293294015831
 20
267.454274713637
 30
0.0
 11
129.7293294015831
 21
272.4571159689122
 31
0.0
  0
LINE
  5
576
330
A
100
AcDbEntity
  8
SAISEN
100
AcDbLine
 10
119.729329401583
 20
267.4542747136367
 30
0.0
 11
129.7293294015831
 21
267.454274713637
 31
0.0
  0
LINE
  5
577
330
A
100
AcDbEntity
  8
SAISEN
100
AcDbLine
 10
119.729329401583
 20
272.4571159689121
 30
0.0
 11
129.7293294015831
 21
272.4571159689122
 31
0.0
  0
LINE
  5
579
330
A
100
AcDbEntity
  8
SAISEN
100
AcDbLine
 10
184.1170073375261
 20
148.1411065601287
 30
0.0
 11
201.9348389743014
 21
130.3232749233537
 31
0.0
  0
LINE
  5
57A
330
A
100
AcDbEntity
  8
SAISEN
100
AcDbLine
 10
190.0008331723772
 20
140.2572807252778
 30
0.0
 11
193.2479465316237
 21
137.0101673660313
 31
0.0
  0
LINE
  5
57B
330
A
100
AcDbEntity
  8
SAISEN
100
AcDbLine
 10
192.0008331723772
 20
142.2572807252778
 30
0.0
 11
195.2479465316238
 21
139.0101673660313
 31
0.0
  0
LINE
  5
57C
330
A
100
AcDbEntity
  8
SAISEN
100
AcDbLine
 10
110.4486373165618
 20
148.1411065601288
 30
0.0
 11
128.266468953337
 21
130.3232749233537
 31
0.0
  0
LINE
  5
57D
330
A
100
AcDbEntity
  8
SAISEN
100
AcDbLine
 10
117.1094826609857
 20
139.4802612157048
 30
0.0
 11
121.024275631017
 21
135.5654682456735
 31
0.0
  0
LINE
  5
57E
330
A
100
AcDbEntity
  8
SAISEN
100
AcDbLine
 10
119.1094826609857
 20
141.4802612157048
 30
0.0
 11
123.024275631017
 21
137.5654682456736
 31
0.0
  0
LINE
  5
57F
330
A
100
AcDbEntity
  8
SAISEN
100
AcDbLine
 10
184.1170073375261
 20
222.3549098150136
 30
0.0
 11
201.9348389743014
 21
204.5370781782384
 31
0.0
  0
LINE
  5
580
330
A
100
AcDbEntity
  8
SAISEN
100
AcDbLine
 10
190.0008331723772
 20
214.4710839801625
 30
0.0
 11
193.2479465316237
 21
211.2239706209161
 31
0.0
  0
LINE
  5
581
330
A
100
AcDbEntity
  8
SAISEN
100
AcDbLine
 10
192.0008331723772
 20
216.4710839801625
 30
0.0
 11
195.2479465316238
 21
213.2239706209161
 31
0.0
  0
LINE
  5
582
330
A
100
AcDbEntity
  8
SAISEN
100
AcDbLine
 10
60.09201032436934
 20
221.0606312969741
 30
0.0
 11
71.76788419383422
 21
209.384757427509
 31
0.0
  0
LINE
  5
583
330
A
100
AcDbEntity
  8
SAISEN
100
AcDbLine
 10
64.07137239211806
 20
215.0812692292253
 30
0.0
 11
66.45692284611289
 21
212.6957187752306
 31
0.0
  0
LINE
  5
584
330
A
100
AcDbEntity
  8
SAISEN
100
AcDbLine
 10
66.07137239211803
 20
217.0812692292253
 30
0.0
 11
68.45692284611281
 21
214.6957187752304
 31
0.0
  0
LINE
  5
585
330
A
100
AcDbEntity
  8
SAISEN
100
AcDbLine
 10
60.09201032436934
 20
148.9407061338407
 30
0.0
 11
71.76788419383425
 21
137.2648322643757
 31
0.0
  0
LINE
  5
586
330
A
100
AcDbEntity
  8
SAISEN
100
AcDbLine
 10
64.07137239211809
 20
142.9613440660919
 30
0.0
 11
66.45692284611292
 21
140.5757936120972
 31
0.0
  0
LINE
  5
587
330
A
100
AcDbEntity
  8
SAISEN
100
AcDbLine
 10
66.07137239211806
 20
144.9613440660919
 30
0.0
 11
68.45692284611286
 21
142.5757936120971
 31
0.0
  0
LINE
  5
5E8
330
A
100
AcDbEntity
  8
SOUZOU
100
AcDbLine
 10
170.2371910368029
 20
182.3249848922314
 30
0.0
 11
170.2371910368031
 21
253.8249848922314
 31
0.0
  0
TEXT
  5
5FD
330
A
100
AcDbEntity
  8
MOJI
100
AcDbText
 10
168.5371910368029
 20
196.8080557980261
 30
0.0
 40
5.0
  1
補助光電スイッチ
 50
89.99999999999982
 41
0.8
  7
0_8
 11
166.0371910368029
 21
196.8080557980261
 31
0.0
100
AcDbText
 73
     2
  0
TEXT
  5
602
330
A
100
AcDbEntity
  8
MOJI
100
AcDbText
 10
65.17875214408229
 20
378.9399129548181
 30
0.0
 40
6.0
  1
コーナーブラケット取付よこ断面図
 50
89.99999999999996
 41
0.75
  7
0_8
 11
62.1787521440823
 21
378.9399129548181
 31
0.0
100
AcDbText
 73
     2
  0
TEXT
  5
606
330
A
100
AcDbEntity
  8
MOJI
100
AcDbText
 10
215.5371910368026
 20
112.3073675552272
 30
0.0
 40
5.0
  1
ＦＩＸ
 50
89.99999999999982
 41
0.8
  7
0_8
 11
213.0371910368026
 21
112.3073675552272
 31
0.0
100
AcDbText
 73
     2
  0
TEXT
  5
618
330
A
100
AcDbEntity
  8
MOJI
100
AcDbText
 10
139.4128320316574
 20
263.7647000523059
 30
0.0
 40
5.0
  1
電源スイッチ
 50
90.00000000000005
 41
0.8
  7
0_8
 11
136.9128320316574
 21
263.7647000523059
 31
0.0
100
AcDbText
 73
     2
  0
TEXT
  5
619
330
A
100
AcDbEntity
  8
MOJI
100
AcDbText
 10
149.1383894930639
 20
263.7647000523059
 30
0.0
 40
5.0
  1
（電気工事）
 50
90.00000000000005
 41
0.8
  7
0_8
 11
146.6383894930638
 21
263.7647000523059
 31
0.0
100
AcDbText
 73
     2
  0
LINE
  5
621
330
A
100
AcDbEntity
  8
04
100
AcDbLine
 10
270.3367432168553
 20
325.4868843444207
 30
0.0
 11
268.8367432168553
 21
324.4868843444206
 31
0.0
  0
LINE
  5
622
330
A
100
AcDbEntity
  8
04
100
AcDbLine
 10
282.3367432168554
 20
325.4868843444207
 30
0.0
 11
283.8367432168553
 21
324.4868843444206
 31
0.0
  0
LINE
  5
623
330
A
100
AcDbEntity
  8
04
100
AcDbLine
 10
282.3367432168554
 20
309.4868843444206
 30
0.0
 11
270.3367432168553
 21
309.4868843444206
 31
0.0
  0
LINE
  5
624
330
A
100
AcDbEntity
  8
04
100
AcDbLine
 10
268.8367432168553
 20
323.4868843444206
 30
0.0
 11
268.8367432168553
 21
324.4868843444208
 31
0.0
  0
LINE
  5
625
330
A
100
AcDbEntity
  8
04
100
AcDbLine
 10
270.3367432168553
 20
325.4868843444207
 30
0.0
 11
282.3367432168554
 21
325.4868843444207
 31
0.0
  0
LINE
  5
626
330
A
100
AcDbEntity
  8
04
100
AcDbLine
 10
283.8367432168553
 20
324.4868843444208
 30
0.0
 11
283.8367432168553
 21
323.4868843444206
 31
0.0
  0
LINE
  5
627
330
A
100
AcDbEntity
  8
04
100
AcDbLine
 10
268.8367432168553
 20
323.4868843444206
 30
0.0
 11
283.8367432168553
 21
323.4868843444206
 31
0.0
  0
LINE
  5
629
330
A
100
AcDbEntity
  8
04
100
AcDbLine
 10
270.3367432168553
 20
309.4868843444206
 30
0.0
 11
270.3367432168553
 21
316.4868843444206
 31
0.0
  0
LINE
  5
62A
330
A
100
AcDbEntity
  8
04
100
AcDbLine
 10
282.3367432168554
 20
316.4868843444206
 30
0.0
 11
282.3367432168554
 21
309.4868843444206
 31
0.0
  0
LINE
  5
62B
330
A
100
AcDbEntity
  8
04
100
AcDbLine
 10
268.8367432168553
 20
322.4868843444206
 30
0.0
 11
268.8367432168553
 21
319.9868843444206
 31
0.0
  0
LINE
  5
631
330
A
100
AcDbEntity
  8
04
100
AcDbLine
 10
270.3367432168553
 20
316.4868843444206
 30
0.0
 11
268.8367432168553
 21
319.9868843444206
 31
0.0
  0
LINE
  5
637
330
A
100
AcDbEntity
  8
04
100
AcDbLine
 10
283.8367432168553
 20
322.4868843444206
 30
0.0
 11
283.8367432168553
 21
319.9868843444206
 31
0.0
  0
LINE
  5
63A
330
A
100
AcDbEntity
  8
04
100
AcDbLine
 10
282.3367432168554
 20
316.4868843444206
 30
0.0
 11
283.8367432168553
 21
319.9868843444206
 31
0.0
  0
LINE
  5
63D
330
A
100
AcDbEntity
  8
04
100
AcDbLine
 10
271.3367432168553
 20
323.4868843444206
 30
0.0
 11
271.3367432168553
 21
318.4868843444206
 31
0.0
  0
LINE
  5
63E
330
A
100
AcDbEntity
  8
04
100
AcDbLine
 10
281.3367432168553
 20
323.4868843444206
 30
0.0
 11
281.3367432168553
 21
318.4868843444206
 31
0.0
  0
LINE
  5
63F
330
A
100
AcDbEntity
  8
04
100
AcDbLine
 10
271.3367432168553
 20
318.4868843444206
 30
0.0
 11
268.8367432168553
 21
322.4868843444206
 31
0.0
  0
LINE
  5
640
330
A
100
AcDbEntity
  8
04
100
AcDbLine
 10
281.3367432168553
 20
318.4868843444206
 30
0.0
 11
283.8367432168553
 21
322.4868843444206
 31
0.0
  0
LINE
  5
641
330
A
100
AcDbEntity
  8
04
100
AcDbLine
 10
275.0867432168553
 20
309.4868843444206
 30
0.0
 11
275.0867432168553
 21
303.4868843444206
 31
0.0
  0
LINE
  5
642
330
A
100
AcDbEntity
  8
04
100
AcDbLine
 10
277.5867432168555
 20
303.4868843444206
 30
0.0
 11
277.5867432168555
 21
309.4868843444206
 31
0.0
  0
LINE
  5
643
330
A
100
AcDbEntity
  8
04
100
AcDbLine
 10
270.3367432168553
 20
471.5268843444206
 30
0.0
 11
268.8367432168555
 21
472.5268843444206
 31
0.0
  0
LINE
  5
644
330
A
100
AcDbEntity
  8
04
100
AcDbLine
 10
282.3367432168554
 20
471.5268843444206
 30
0.0
 11
283.8367432168555
 21
472.5268843444206
 31
0.0
  0
LINE
  5
645
330
A
100
AcDbEntity
  8
04
100
AcDbLine
 10
282.3367432168554
 20
487.5268843444207
 30
0.0
 11
270.3367432168553
 21
487.5268843444207
 31
0.0
  0
LINE
  5
646
330
A
100
AcDbEntity
  8
04
100
AcDbLine
 10
268.8367432168555
 20
473.5268843444207
 30
0.0
 11
268.8367432168555
 21
472.5268843444206
 31
0.0
  0
LINE
  5
647
330
A
100
AcDbEntity
  8
04
100
AcDbLine
 10
270.3367432168553
 20
471.5268843444206
 30
0.0
 11
282.3367432168554
 21
471.5268843444206
 31
0.0
  0
LINE
  5
648
330
A
100
AcDbEntity
  8
04
100
AcDbLine
 10
283.8367432168555
 20
472.5268843444206
 30
0.0
 11
283.8367432168555
 21
473.5268843444207
 31
0.0
  0
LINE
  5
649
330
A
100
AcDbEntity
  8
04
100
AcDbLine
 10
268.8367432168555
 20
473.5268843444207
 30
0.0
 11
283.8367432168555
 21
473.5268843444207
 31
0.0
  0
LINE
  5
64B
330
A
100
AcDbEntity
  8
04
100
AcDbLine
 10
270.3367432168553
 20
487.5268843444207
 30
0.0
 11
270.3367432168553
 21
480.5268843444206
 31
0.0
  0
LINE
  5
64C
330
A
100
AcDbEntity
  8
04
100
AcDbLine
 10
282.3367432168554
 20
480.5268843444206
 30
0.0
 11
282.3367432168554
 21
487.5268843444207
 31
0.0
  0
LINE
  5
64D
330
A
100
AcDbEntity
  8
04
100
AcDbLine
 10
268.8367432168555
 20
474.5268843444207
 30
0.0
 11
268.8367432168555
 21
477.0268843444206
 31
0.0
  0
LINE
  5
653
330
A
100
AcDbEntity
  8
04
100
AcDbLine
 10
270.3367432168553
 20
480.5268843444206
 30
0.0
 11
268.8367432168555
 21
477.0268843444206
 31
0.0
  0
LINE
  5
659
330
A
100
AcDbEntity
  8
04
100
AcDbLine
 10
283.8367432168555
 20
474.5268843444207
 30
0.0
 11
283.8367432168555
 21
477.0268843444206
 31
0.0
  0
LINE
  5
65C
330
A
100
AcDbEntity
  8
04
100
AcDbLine
 10
282.3367432168554
 20
480.5268843444206
 30
0.0
 11
283.8367432168555
 21
477.0268843444206
 31
0.0
  0
LINE
  5
65F
330
A
100
AcDbEntity
  8
04
100
AcDbLine
 10
271.3367432168555
 20
473.5268843444207
 30
0.0
 11
271.3367432168555
 21
478.5268843444207
 31
0.0
  0
LINE
  5
660
330
A
100
AcDbEntity
  8
04
100
AcDbLine
 10
281.3367432168555
 20
473.5268843444207
 30
0.0
 11
281.3367432168555
 21
478.5268843444207
 31
0.0
  0
LINE
  5
661
330
A
100
AcDbEntity
  8
04
100
AcDbLine
 10
271.3367432168555
 20
478.5268843444207
 30
0.0
 11
268.8367432168555
 21
474.5268843444207
 31
0.0
  0
LINE
  5
662
330
A
100
AcDbEntity
  8
04
100
AcDbLine
 10
281.3367432168555
 20
478.5268843444207
 30
0.0
 11
283.8367432168555
 21
474.5268843444207
 31
0.0
  0
LINE
  5
663
330
A
100
AcDbEntity
  8
04
100
AcDbLine
 10
275.0867432168555
 20
487.5268843444207
 30
0.0
 11
275.0867432168555
 21
493.5268843444206
 31
0.0
  0
LINE
  5
664
330
A
100
AcDbEntity
  8
04
100
AcDbLine
 10
277.5867432168555
 20
493.5268843444206
 30
0.0
 11
277.5867432168555
 21
487.5268843444207
 31
0.0
  0
LINE
  5
6B6
330
A
100
AcDbEntity
  8
06
100
AcDbLine
 10
305.3567432168558
 20
468.0268843444205
 30
0.0
 11
305.3567432168558
 21
466.5268843444204
 31
0.0
  0
LINE
  5
6B7
330
A
100
AcDbEntity
  8
06
100
AcDbLine
 10
318.3567432168558
 20
468.0268843444205
 30
0.0
 11
318.3567432168558
 21
466.5268843444204
 31
0.0
  0
LINE
  5
6B8
330
A
100
AcDbEntity
  8
06
100
AcDbLine
 10
297.8567432168558
 20
468.0268843444205
 30
0.0
 11
305.3567432168558
 21
468.0268843444205
 31
0.0
  0
LINE
  5
6B9
330
A
100
AcDbEntity
  8
06
100
AcDbLine
 10
299.214224560024
 20
466.5268843444204
 30
0.0
 11
305.3567432168558
 21
466.5268843444204
 31
0.0
  0
LINE
  5
6BA
330
A
100
AcDbEntity
  8
06
100
AcDbLine
 10
318.3567432168558
 20
468.0268843444205
 30
0.0
 11
325.8567432168558
 21
468.0268843444205
 31
0.0
  0
LINE
  5
6BB
330
A
100
AcDbEntity
  8
06
100
AcDbLine
 10
318.3567432168558
 20
466.5268843444204
 30
0.0
 11
324.4992618736876
 21
466.5268843444204
 31
0.0
  0
ARC
  5
6BC
330
A
100
AcDbEntity
  8
06
100
AcDbCircle
 10
311.8567432168558
 20
464.5268843444204
 30
0.0
 40
9.0
100
AcDbArc
 50
37.6698869643292
 51
142.3301130356704
  0
ARC
  5
6BD
330
A
100
AcDbEntity
  8
06
100
AcDbCircle
 10
311.8567432168558
 20
461.0268843444204
 30
0.0
 40
7.0
100
AcDbArc
 50
29.99999999999714
 51
150.0000000000024
  0
LINE
  5
6BE
330
A
100
AcDbEntity
  8
06
100
AcDbLine
 10
300.8567432168558
 20
469.0268843444204
 30
0.0
 11
300.8567432168558
 21
468.0268843444205
 31
0.0
  0
ARC
  5
6BF
330
A
100
AcDbEntity
  8
06
100
AcDbCircle
 10
301.8567432168558
 20
469.0268843444204
 30
0.0
 40
1.0
100
AcDbArc
 50
90.0
 51
179.9999999999998
  0
LINE
  5
6C0
330
A
100
AcDbEntity
  8
06
100
AcDbLine
 10
300.8567432168558
 20
466.52688434442
 30
0.0
 11
300.8567432168558
 21
465.5268843444204
 31
0.0
  0
ARC
  5
6C1
330
A
100
AcDbEntity
  8
06
100
AcDbCircle
 10
301.8567432168558
 20
465.5268843444204
 30
0.0
 40
1.0
100
AcDbArc
 50
179.9999999999998
 51
269.9999999999997
  0
LINE
  5
6C2
330
A
100
AcDbEntity
  8
06
100
AcDbLine
 10
322.856743216856
 20
469.0268843444204
 30
0.0
 11
322.8567432168558
 21
468.0268843444205
 31
0.0
  0
ARC
  5
6C3
330
A
100
AcDbEntity
  8
06
100
AcDbCircle
 10
321.8567432168561
 20
469.0268843444204
 30
0.0
 40
1.0
100
AcDbArc
 50
359.9999999999997
 51
89.99999999999998
  0
LINE
  5
6C4
330
A
100
AcDbEntity
  8
06
100
AcDbLine
 10
322.8567432168558
 20
466.5268843444208
 30
0.0
 11
322.8567432168554
 21
465.5268843444204
 31
0.0
  0
ARC
  5
6C5
330
A
100
AcDbEntity
  8
06
100
AcDbCircle
 10
321.8567432168554
 20
465.5268843444204
 30
0.0
 40
1.0
100
AcDbArc
 50
269.9999999999997
 51
359.9999999999997
  0
LINE
  5
6C6
330
A
100
AcDbEntity
  8
06
100
AcDbLine
 10
301.8567432168558
 20
464.52688434442
 30
0.0
 11
305.7945653903646
 21
464.5268843444204
 31
0.0
  0
LINE
  5
6C7
330
A
100
AcDbEntity
  8
06
100
AcDbLine
 10
317.9189210433472
 20
464.5268843444204
 30
0.0
 11
321.8567432168554
 21
464.52688434442
 31
0.0
  0
LINE
  5
6C8
330
A
100
AcDbEntity
  8
06
100
AcDbLine
 10
321.8567432168561
 20
470.0268843444204
 30
0.0
 11
318.9806466412433
 21
470.0268843444204
 31
0.0
  0
LINE
  5
6C9
330
A
100
AcDbEntity
  8
06
100
AcDbLine
 10
304.7328397924683
 20
470.0268843444204
 30
0.0
 11
301.8567432168558
 21
470.0268843444204
 31
0.0
  0
LINE
  5
6CA
330
A
100
AcDbEntity
  8
06
100
AcDbLine
 10
311.1067432168558
 20
471.9916505054575
 30
0.0
 11
311.1067432168558
 21
469.4892901227198
 31
0.0
  0
LINE
  5
6CB
330
A
100
AcDbEntity
  8
06
100
AcDbLine
 10
312.6067432168558
 20
469.4892901227198
 30
0.0
 11
312.6067432168558
 21
471.9916505054575
 31
0.0
  0
ARC
  5
6CC
330
A
100
AcDbEntity
  8
06
100
AcDbCircle
 10
311.8567432168558
 20
464.0268843444204
 30
0.0
 40
8.0
100
AcDbArc
 50
47.53296462869122
 51
84.62062100888756
  0
ARC
  5
6CD
330
A
100
AcDbEntity
  8
06
100
AcDbCircle
 10
311.8567432168558
 20
462.0268843444204
 30
0.0
 40
7.5
100
AcDbArc
 50
58.63302222536575
 51
84.26082952273281
  0
LINE
  5
6CE
330
A
100
AcDbEntity
  8
06
100
AcDbLine
 10
307.9528611848338
 20
468.4307663764425
 30
0.0
 11
306.4554159391271
 21
469.9282116221493
 31
0.0
  0
LINE
  5
6CF
330
A
100
AcDbEntity
  8
06
100
AcDbLine
 10
315.7606252488779
 20
468.4307663764425
 30
0.0
 11
317.2580704945846
 21
469.9282116221493
 31
0.0
  0
ARC
  5
6D0
330
A
100
AcDbEntity
  8
06
100
AcDbCircle
 10
311.8567432168558
 20
464.0268843444204
 30
0.0
 40
8.0
100
AcDbArc
 50
95.37937899111206
 51
132.4670353713083
  0
ARC
  5
6D1
330
A
100
AcDbEntity
  8
06
100
AcDbCircle
 10
311.8567432168558
 20
462.0268843444204
 30
0.0
 40
7.5
100
AcDbArc
 50
95.73917047726677
 51
121.366977774634
  0
LINE
  5
6E0
330
A
100
AcDbEntity
  8
06
100
AcDbLine
 10
317.8551594923149
 20
464.6350697867596
 30
0.0
 11
317.9633449346539
 21
464.5268843444204
 31
0.0
  0
ARC
  5
6E9
330
A
100
AcDbEntity
  8
06
100
AcDbCircle
 10
311.8567432168553
 20
270.4868843444205
 30
0.0
 40
7.0
100
AcDbArc
 50
209.9999999999973
 51
330.0000000000021
  0
LINE
  5
6EA
330
A
100
AcDbEntity
  8
06
100
AcDbLine
 10
300.8567432168553
 20
262.4868843444205
 30
0.0
 11
300.8567432168553
 21
263.4868843444205
 31
0.0
  0
ARC
  5
6EB
330
A
100
AcDbEntity
  8
06
100
AcDbCircle
 10
301.8567432168552
 20
262.4868843444205
 30
0.0
 40
1.0
100
AcDbArc
 50
179.9999999999998
 51
269.9999999999997
  0
LINE
  5
6EC
330
A
100
AcDbEntity
  8
06
100
AcDbLine
 10
300.8567432168553
 20
264.986884344421
 30
0.0
 11
300.8567432168553
 21
265.986884344421
 31
0.0
  0
ARC
  5
6ED
330
A
100
AcDbEntity
  8
06
100
AcDbCircle
 10
301.8567432168552
 20
265.986884344421
 30
0.0
 40
1.0
100
AcDbArc
 50
90.00000000000005
 51
179.9999999999998
  0
LINE
  5
6EE
330
A
100
AcDbEntity
  8
06
100
AcDbLine
 10
322.8567432168554
 20
262.4868843444205
 30
0.0
 11
322.8567432168553
 21
263.4868843444205
 31
0.0
  0
ARC
  5
6EF
330
A
100
AcDbEntity
  8
06
100
AcDbCircle
 10
321.8567432168554
 20
262.4868843444205
 30
0.0
 40
1.0
100
AcDbArc
 50
269.9999999999997
 51
359.9999999999997
  0
LINE
  5
6F0
330
A
100
AcDbEntity
  8
06
100
AcDbLine
 10
322.8567432168553
 20
264.9868843444202
 30
0.0
 11
322.8567432168548
 21
265.986884344421
 31
0.0
  0
ARC
  5
6F1
330
A
100
AcDbEntity
  8
06
100
AcDbCircle
 10
321.8567432168548
 20
265.986884344421
 30
0.0
 40
1.0
100
AcDbArc
 50
359.9999999999997
 51
89.99999999999998
  0
LINE
  5
6F2
330
A
100
AcDbEntity
  8
06
100
AcDbLine
 10
301.8567432168552
 20
266.9868843444205
 30
0.0
 11
305.7945653903639
 21
266.9868843444205
 31
0.0
  0
LINE
  5
6F3
330
A
100
AcDbEntity
  8
06
100
AcDbLine
 10
317.9189210433466
 20
266.9868843444205
 30
0.0
 11
321.8567432168548
 21
266.9868843444205
 31
0.0
  0
LINE
  5
6F4
330
A
100
AcDbEntity
  8
06
100
AcDbLine
 10
321.8567432168554
 20
261.4868843444205
 30
0.0
 11
318.9806466412428
 21
261.4868843444205
 31
0.0
  0
LINE
  5
6F5
330
A
100
AcDbEntity
  8
06
100
AcDbLine
 10
304.7328397924678
 20
261.4868843444205
 30
0.0
 11
301.8567432168552
 21
261.4868843444205
 31
0.0
  0
LINE
  5
6F6
330
A
100
AcDbEntity
  8
06
100
AcDbLine
 10
311.1067432168553
 20
259.5221181833835
 30
0.0
 11
311.1067432168553
 21
262.0244785661208
 31
0.0
  0
LINE
  5
6F7
330
A
100
AcDbEntity
  8
06
100
AcDbLine
 10
312.6067432168553
 20
262.0244785661208
 30
0.0
 11
312.6067432168553
 21
259.5221181833835
 31
0.0
  0
ARC
  5
6F8
330
A
100
AcDbEntity
  8
06
100
AcDbCircle
 10
311.8567432168553
 20
267.4868843444205
 30
0.0
 40
8.0
100
AcDbArc
 50
275.3793789911118
 51
312.4670353713081
  0
ARC
  5
6F9
330
A
100
AcDbEntity
  8
06
100
AcDbCircle
 10
311.8567432168553
 20
269.4868843444205
 30
0.0
 40
7.5
100
AcDbArc
 50
275.7391704772665
 51
301.3669777746336
  0
LINE
  5
6FA
330
A
100
AcDbEntity
  8
06
100
AcDbLine
 10
307.9528611848331
 20
263.0830023123986
 30
0.0
 11
306.4554159391267
 21
261.5855570666918
 31
0.0
  0
LINE
  5
6FB
330
A
100
AcDbEntity
  8
06
100
AcDbLine
 10
315.7606252488773
 20
263.0830023123986
 30
0.0
 11
317.2580704945838
 21
261.5855570666918
 31
0.0
  0
ARC
  5
6FC
330
A
100
AcDbEntity
  8
06
100
AcDbCircle
 10
311.8567432168553
 20
267.4868843444205
 30
0.0
 40
8.0
100
AcDbArc
 50
227.5329646286914
 51
264.6206210088876
  0
ARC
  5
6FD
330
A
100
AcDbEntity
  8
06
100
AcDbCircle
 10
311.8567432168553
 20
269.4868843444205
 30
0.0
 40
7.5
100
AcDbArc
 50
238.6330222253656
 51
264.2608295227328
  0
ARC
  5
712
330
A
100
AcDbEntity
  8
06
100
AcDbCircle
 10
311.8567432168553
 20
266.9868843444205
 30
0.0
 40
9.0
100
AcDbArc
 50
217.6698869643294
 51
322.3301130356702
  0
LINE
  5
717
330
A
100
AcDbEntity
  8
06
100
AcDbLine
 10
297.8567432168552
 20
263.4868843444205
 30
0.0
 11
305.3567432168553
 21
263.4868843444205
 31
0.0
  0
LINE
  5
718
330
A
100
AcDbEntity
  8
06
100
AcDbLine
 10
299.2142245600234
 20
264.9868843444205
 30
0.0
 11
305.3567432168553
 21
264.9868843444205
 31
0.0
  0
LINE
  5
719
330
A
100
AcDbEntity
  8
06
100
AcDbLine
 10
305.3567432168553
 20
263.4868843444205
 30
0.0
 11
305.3567432168553
 21
264.9868843444205
 31
0.0
  0
LINE
  5
71A
330
A
100
AcDbEntity
  8
06
100
AcDbLine
 10
318.3567432168552
 20
263.4868843444205
 30
0.0
 11
318.3567432168552
 21
264.9868843444205
 31
0.0
  0
LINE
  5
71B
330
A
100
AcDbEntity
  8
06
100
AcDbLine
 10
318.3567432168552
 20
263.4868843444205
 30
0.0
 11
325.8567432168553
 21
263.4868843444205
 31
0.0
  0
LINE
  5
71C
330
A
100
AcDbEntity
  8
06
100
AcDbLine
 10
318.3567432168552
 20
264.9868843444205
 30
0.0
 11
324.4992618736869
 21
264.9868843444205
 31
0.0
  0
POLYLINE
  5
757
330
A
100
AcDbEntity
  8
DEFPOINTS
100
AcDb2dPolyline
 66
     1
 10
0.0
 20
0.0
 30
0.0
 70
     1
  0
VERTEX
  5
1978
330
757
100
AcDbEntity
  8
DEFPOINTS
100
AcDbVertex
100
AcDb2dVertex
 10
0.0
 20
0.0
 30
0.0
  0
VERTEX
  5
1979
330
757
100
AcDbEntity
  8
DEFPOINTS
100
AcDbVertex
100
AcDb2dVertex
 10
420.0
 20
0.0
 30
0.0
  0
VERTEX
  5
197A
330
757
100
AcDbEntity
  8
DEFPOINTS
100
AcDbVertex
100
AcDb2dVertex
 10
420.0
 20
594.0
 30
0.0
  0
VERTEX
  5
197B
330
757
100
AcDbEntity
  8
DEFPOINTS
100
AcDbVertex
100
AcDb2dVertex
 10
0.0
 20
594.0
 30
0.0
  0
SEQEND
  5
197C
330
757
100
AcDbEntity
  8
DEFPOINTS
  0
DIMENSION
  5
7A1
330
A
100
AcDbEntity
  8
SUNPOU
100
AcDbDimension
  2
*D1
 10
332.3367432168562
 20
523.5268843444205
 30
0.0
 11
297.3367432168561
 21
518.999682808487
 31
0.0
 70
   160
 53
180.0
  3
SUNPOU_2
100
AcDbAlignedDimension
 13
262.336743216856
 23
503.5268843444207
 33
0.0
 14
332.3367432168562
 24
503.5268843444206
 34
0.0
100
AcDbRotatedDimension
  0
DIMENSION
  5
7BB
330
A
100
AcDbEntity
  8
SUNPOU
100
AcDbDimension
  2
*D2
 10
276.336743216856
 20
458.6337423969742
 30
0.0
 11
269.336743216856
 21
454.6442881700991
 31
0.0
 70
   160
 53
180.0
  3
SUNPOU_2
100
AcDbAlignedDimension
 13
262.336743216856
 23
473.5268843444207
 33
0.0
 14
276.336743216856
 24
468.3068843444206
 34
0.0
100
AcDbRotatedDimension
  0
DIMENSION
  5
7D5
330
A
100
AcDbEntity
  8
SUNPOU
100
AcDbDimension
  2
*D3
 10
294.3367432168556
 20
447.8181721910408
 30
0.0
 11
278.3367432168558
 21
443.2785332216055
 31
0.0
 70
   160
 53
180.0
  3
SUNPOU_2
100
AcDbAlignedDimension
 13
262.336743216856
 23
473.5268843444207
 33
0.0
 14
294.3367432168556
 24
447.8181721910408
 34
0.0
100
AcDbRotatedDimension
  0
DIMENSION
  5
7F1
330
A
100
AcDbEntity
  8
SUNPOU
100
AcDbDimension
  2
*D4
 10
326.3367432168558
 20
447.8181721910408
 30
0.0
 11
316.9393883365946
 21
443.2795249479801
 31
0.0
 70
   160
 53
180.0
  3
SUNPOU_2
100
AcDbAlignedDimension
 13
297.3367432168558
 23
447.8181721910408
 33
0.0
 14
326.3367432168558
 24
447.6626179228476
 34
0.0
100
AcDbRotatedDimension
  0
DIMENSION
  5
7FE
330
A
100
AcDbEntity
  8
SUNPOU
100
AcDbDimension
  2
*D5
 10
332.3367432168558
 20
447.8181721910408
 30
0.0
 11
329.3367432168559
 21
443.8120190665098
 31
0.0
 70
   160
 53
180.0
  3
SUNPOU_2
100
AcDbAlignedDimension
 13
326.3367432168558
 23
447.6626179228476
 33
0.0
 14
332.3367432168558
 24
447.6626179228476
 34
0.0
100
AcDbRotatedDimension
  0
DIMENSION
  5
8CC
330
A
100
AcDbEntity
  8
SUNPOU
100
AcDbDimension
  2
*D6
 10
275.3367432168553
 20
249.8873998191514
 30
0.0
 11
268.8367432168553
 21
245.9093604691161
 31
0.0
 70
   160
 53
180.0
  3
SUNPOU_2
100
AcDbAlignedDimension
 13
262.3367432168553
 23
249.8873998191514
 33
0.0
 14
275.3367432168553
 24
249.8873998191514
 34
0.0
100
AcDbRotatedDimension
  0
DIMENSION
  5
8F4
330
A
100
AcDbEntity
  8
SUNPOU
100
AcDbDimension
  2
*D7
 10
162.8301886792449
 20
308.1114365809438
 30
0.0
 11
127.8301886792448
 21
303.254410617402
 31
0.0
 70
   160
 53
180.0
  3
SUNPOU_2
100
AcDbAlignedDimension
 13
92.83018867924491
 23
328.1114365809441
 33
0.0
 14
162.8301886792449
 24
328.1114365809437
 34
0.0
100
AcDbRotatedDimension
  0
DIMENSION
  5
92A
330
A
100
AcDbEntity
  8
SUNPOU
100
AcDbDimension
  2
*D8
 10
247.3367432168553
 20
323.4868843444206
 30
0.0
 11
242.8367432168553
 21
293.4868843444208
 31
0.0
 70
    32
  3
SUNPOU_2
100
AcDbAlignedDimension
 13
262.3367432168553
 23
263.4868843444206
 33
0.0
 14
262.3367432168555
 24
323.4868843444206
 34
0.0
 50
90.0
100
AcDbRotatedDimension
  0
DIMENSION
  5
937
330
A
100
AcDbEntity
  8
SUNPOU
100
AcDbDimension
  2
*D9
 10
347.3367432168556
 20
323.4868843444206
 30
0.0
 11
342.8367432168554
 21
293.4868843444206
 31
0.0
 70
    32
  3
SUNPOU_2
100
AcDbAlignedDimension
 13
325.8367432168554
 23
263.4868843444205
 33
0.0
 14
326.3367432168554
 24
323.4868843444206
 34
0.0
 50
90.0
100
AcDbRotatedDimension
  0
DIMENSION
  5
944
330
A
100
AcDbEntity
  8
SUNPOU
100
AcDbDimension
  2
*D10
 10
377.3367432168555
 20
178.4868843444214
 30
0.0
 11
372.8367432168555
 21
163.4868843444214
 31
0.0
 70
    32
  3
SUNPOU_2
100
AcDbAlignedDimension
 13
332.3367432168552
 23
148.4868843444214
 33
0.0
 14
332.3367432168552
 24
178.4868843444214
 34
0.0
 50
90.0
100
AcDbRotatedDimension
  0
DIMENSION
  5
951
330
A
100
AcDbEntity
  8
SUNPOU
100
AcDbDimension
  2
*D11
 10
377.3367432168555
 20
473.5268843444204
 30
0.0
 11
372.8367432168555
 21
326.0068843444209
 31
0.0
 70
    32
  1
{\Ftxt.shx|c0;W}
  3
SUNPOU_2
100
AcDbAlignedDimension
 13
332.3367432168552
 23
178.4868843444214
 33
0.0
 14
332.3367432168561
 24
473.5268843444204
 34
0.0
 50
90.0
100
AcDbRotatedDimension
  0
DIMENSION
  5
95E
330
A
100
AcDbEntity
  8
SUNPOU
100
AcDbDimension
  2
*D12
 10
377.3367432168555
 20
503.5268843444204
 30
0.0
 11
372.8367432168556
 21
488.5268843444205
 31
0.0
 70
    32
  3
SUNPOU_2
100
AcDbAlignedDimension
 13
332.3367432168561
 23
473.5268843444204
 33
0.0
 14
332.3367432168561
 24
503.5268843444204
 34
0.0
 50
90.0
100
AcDbRotatedDimension
  0
DIMENSION
  5
A12
330
A
100
AcDbEntity
  8
SUNPOU
100
AcDbDimension
  2
*D13
 10
297.3367432168558
 20
447.8181721910408
 30
0.0
 11
295.8367432168557
 21
443.8147005043941
 31
0.0
 70
   160
 53
180.0
  3
SUNPOU_2
100
AcDbAlignedDimension
 13
294.3367432168555
 23
323.4868843444206
 33
0.0
 14
297.3367432168558
 24
447.8181721910408
 34
0.0
100
AcDbRotatedDimension
  0
DIMENSION
  5
A4B
330
A
100
AcDbEntity
  8
SUNPOU
100
AcDbDimension
  2
*D14
 10
347.3367432168557
 20
468.0268843444205
 30
0.0
 11
342.8367432168556
 21
438.0268843444206
 31
0.0
 70
    32
  3
SUNPOU_2
100
AcDbAlignedDimension
 13
326.3367432168557
 23
408.0268843444204
 33
0.0
 14
325.8567432168558
 24
468.0268843444205
 34
0.0
 50
90.0
100
AcDbRotatedDimension
  0
DIMENSION
  5
A58
330
A
100
AcDbEntity
  8
SUNPOU
100
AcDbDimension
  2
*D15
 10
362.3367432168557
 20
468.0268843444205
 30
0.0
 11
357.8367432168556
 21
365.7568843444205
 31
0.0
 70
    32
  1
DW
  3
SUNPOU_2
100
AcDbAlignedDimension
 13
325.8367432168554
 23
263.4868843444205
 33
0.0
 14
325.8567432168558
 24
468.0268843444205
 34
0.0
 50
90.0
100
AcDbRotatedDimension
  0
DIMENSION
  5
A65
330
A
100
AcDbEntity
  8
SUNPOU
100
AcDbDimension
  2
*D16
 10
362.3367432168557
 20
473.5268843444204
 30
0.0
 11
358.301185182926
 21
483.7083318500603
 31
0.0
 70
   160
  3
SUNPOU_2
100
AcDbAlignedDimension
 13
325.8567432168558
 23
468.0268843444205
 33
0.0
 14
332.336743216856
 24
473.5268843444204
 34
0.0
 50
90.0
100
AcDbRotatedDimension
  0
DIMENSION
  5
ABE
330
A
100
AcDbEntity
  8
SUNPOU
100
AcDbDimension
  2
*D17
 10
114.2348404605906
 20
234.8249848922316
 30
0.0
 11
110.1322157696317
 21
228.8249848922316
 31
0.0
 70
   160
  3
SUNPOU_2_10
100
AcDbAlignedDimension
 13
93.28209537073176
 23
222.8249848922316
 33
0.0
 14
93.28209537073176
 24
234.8249848922316
 34
0.0
 50
90.0
100
AcDbRotatedDimension
  0
DIMENSION
  5
AE5
330
A
100
AcDbEntity
  8
SUNPOU
100
AcDbDimension
  2
*D18
 10
130.237191036803
 20
253.8249848922314
 30
0.0
 11
125.737191036803
 21
241.3249848922315
 31
0.0
 70
    32
  3
SUNPOU_2_10
100
AcDbAlignedDimension
 13
96.62057273698692
 23
228.8249848922316
 33
0.0
 14
130.237191036803
 24
253.8249848922314
 34
0.0
 50
90.0
100
AcDbRotatedDimension
  0
DIMENSION
  5
B02
330
A
100
AcDbEntity
  8
SUNPOU
100
AcDbDimension
  2
*D19
 10
114.2348404605906
 20
197.3249848922316
 30
0.0
 11
110.1322157696317
 21
191.3249848922316
 31
0.0
 70
   160
  3
SUNPOU_2_10
100
AcDbAlignedDimension
 13
93.28209537073176
 23
185.3249848922316
 33
0.0
 14
93.28209537073176
 24
197.3249848922316
 34
0.0
 50
90.0
100
AcDbRotatedDimension
  0
DIMENSION
  5
B1C
330
A
100
AcDbEntity
  8
SUNPOU
100
AcDbDimension
  2
*D20
 10
130.2371910368028
 20
191.3249848922316
 30
0.0
 11
125.7371910368028
 21
183.3249848922316
 31
0.0
 70
    32
  3
SUNPOU_2_10
100
AcDbAlignedDimension
 13
130.2371910368028
 23
175.3249848922314
 33
0.0
 14
96.62057273698682
 24
191.3249848922316
 34
0.0
 50
90.0
100
AcDbRotatedDimension
  0
DIMENSION
  5
B32
330
A
100
AcDbEntity
  8
SUNPOU
100
AcDbDimension
  2
*D21
 10
90.23719103680269
 20
80.82498489223175
 30
0.0
 11
160.2371910368025
 21
76.22684515527203
 31
0.0
 70
   160
  1
H
 53
180.0
  3
SUNPOU_2_10
100
AcDbAlignedDimension
 13
230.2371910368025
 23
100.8249848922311
 33
0.0
 14
90.23719103680269
 24
103.8249848922317
 34
0.0
100
AcDbRotatedDimension
  0
DIMENSION
  5
B52
330
A
100
AcDbEntity
  8
SUNPOU
100
AcDbDimension
  2
*D22
 10
75.2371910368027
 20
80.82498489223175
 30
0.0
 11
82.73719103680269
 21
76.19604988325523
 31
0.0
 70
   160
 53
180.0
  3
SUNPOU_2_10
100
AcDbAlignedDimension
 13
90.23719103680269
 23
103.8249848922317
 33
0.0
 14
75.2371910368027
 24
103.8249848922317
 34
0.0
100
AcDbRotatedDimension
  0
DIMENSION
  5
B90
330
A
100
AcDbEntity
  8
SUNPOU
100
AcDbDimension
  2
*D23
 10
170.2371910368031
 20
276.8249848922313
 30
0.0
 11
200.237191036803
 21
272.2428513310067
 31
0.0
 70
   160
 53
180.0
  3
SUNPOU_2_10
100
AcDbAlignedDimension
 13
230.2371910368032
 23
256.8249848922311
 33
0.0
 14
170.2371910368031
 24
253.8249848922314
 34
0.0
100
AcDbRotatedDimension
  0
DIMENSION
  5
BC6
330
A
100
AcDbEntity
  8
SUNPOU
100
AcDbDimension
  2
*D24
 10
245.2371910368028
 20
253.8249848922311
 30
0.0
 11
240.7371910368028
 21
178.8249848922313
 31
0.0
 70
    32
  1
W
  3
SUNPOU_2_10
100
AcDbAlignedDimension
 13
230.2371910368025
 23
103.8249848922311
 33
0.0
 14
230.2371910368031
 24
253.8249848922311
 34
0.0
 50
90.0
100
AcDbRotatedDimension
  0
LEADER
  5
BF1
330
A
100
AcDbEntity
  8
HIKIDASI
100
AcDbLeader
  3
SUNPOU_2_10
 73
     0
 74
     0
 75
     1
 40
5.0
 41
41.33333333333331
 76
     3
 10
120.280398322851
 20
362.1114365809439
 30
0.0
 10
183.3086129600151
 20
398.6432838358816
 30
0.0
 10
183.3086129600151
 20
403.6432838358816
 30
0.0
340
BF2
211
0.0000000000000001
221
1.0
231
0.0
1001
ACAD
1000
DSTYLE
1002
{
1070
     5
1000
OPEN30
1070
    77
1070
     1
1070
   147
1040
1.0
1070
   342
1005
736
1002
}
1000
LEANOF
1010
0.0
1020
0.0
1030
0.0
1000
LEANOF
1010
0.0
1020
0.0
1030
0.0
  0
MTEXT
  5
BF2
330
A
100
AcDbEntity
  8
HIKIDASI
100
AcDbMText
 10
181.3086129600151
 20
405.6432838358817
 30
0.0
 40
5.0
 41
0.0
 71
     7
 72
     1
  1
コーナーブラケット
  7
SUNPOU
 11
0.0000000000000001
 21
1.0
 31
0.0
1001
ACAD
1000
MTEXTBEGIN
1070
    73
1070
     1
1070
    44
1040
1.0
1070
    74
1070
     0
1000
MTEXTEND
1000
MTEXTBEGIN
1070
    73
1070
     1
1070
    44
1040
1.0
1070
    74
1070
     0
1000
MTEXTEND
  0
LEADER
  5
BF4
330
A
100
AcDbEntity
  8
HIKIDASI
100
AcDbLeader
  3
SUNPOU_2_10
 73
     0
 74
     0
 75
     1
 40
5.0
 41
51.19999999999997
 76
     3
 10
153.8301886792449
 20
355.1586231786743
 30
0.0
 10
200.1572327044022
 20
382.0370061367172
 30
0.0
 10
200.1572327044022
 20
387.0370061367172
 30
0.0
340
BF5
211
0.0000000000000001
221
1.0
231
0.0
1001
ACAD
1000
DSTYLE
1002
{
1070
     5
1000
OPEN30
1070
    77
1070
     1
1070
   147
1040
1.0
1070
   342
1005
736
1002
}
1000
LEANOF
1010
0.0
1020
0.0
1030
0.0
1000
LEANOF
1010
0.0
1020
0.0
1030
0.0
  0
MTEXT
  5
BF5
330
A
100
AcDbEntity
  8
HIKIDASI
100
AcDbMText
 10
198.1572327044023
 20
389.0370061367173
 30
0.0
 40
5.0
 41
0.0
 71
     7
 72
     1
  1
コーナーブラケット裏板
  7
SUNPOU
 11
0.0000000000000001
 21
1.0
 31
0.0
1001
ACAD
1000
MTEXTBEGIN
1070
    73
1070
     1
1070
    44
1040
1.0
1070
    74
1070
     0
1000
MTEXTEND
1000
MTEXTBEGIN
1070
    73
1070
     1
1070
    44
1040
1.0
1070
    74
1070
     0
1000
MTEXTEND
  0
LEADER
  5
BFD
330
A
100
AcDbEntity
  8
HIKIDASI
100
AcDbLeader
  3
SUNPOU_2_10
 73
     0
 74
     0
 75
     1
 40
5.0
 41
58.13333333333335
 76
     3
 10
276.3367432168553
 20
325.4868843444207
 30
0.0
 10
240.8339657575604
 20
360.6002085909573
 30
0.0
 10
240.8339657575604
 20
365.6002085909573
 30
0.0
340
BFE
211
0.0000000000000001
221
1.0
231
0.0
1001
ACAD
1000
DSTYLE
1002
{
1070
     5
1000
OPEN30
1070
    77
1070
     1
1070
   147
1040
1.0
1070
   342
1005
736
1002
}
1000
LEANOF
1010
0.0
1020
0.0
1030
0.0
1000
LEANOF
1010
0.0
1020
0.0
1030
0.0
  0
MTEXT
  5
BFE
330
A
100
AcDbEntity
  8
HIKIDASI
100
AcDbMText
 10
238.8339657575604
 20
367.6002085909573
 30
0.0
 40
5.0
 41
0.0
 71
     7
 72
     1
  1
補助光電スイッチ（φ12）
  7
SUNPOU
 11
0.0000000000000001
 21
1.0
 31
0.0
1001
ACAD
1000
MTEXTBEGIN
1070
    73
1070
     1
1070
    44
1040
1.0
1070
    74
1070
     0
1000
MTEXTEND
1000
MTEXTBEGIN
1070
    73
1070
     1
1070
    44
1040
1.0
1070
    74
1070
     0
1000
MTEXTEND
  0
MTEXT
  5
C02
330
A
100
AcDbEntity
  8
HIKIDASI
100
AcDbMText
 10
238.8339657575604
 20
430.6668752576239
 30
0.0
 40
5.0
 41
0.0
 71
     9
 72
     1
  1
\A1;
  7
SUNPOU
1001
ACAD
1000
MTEXTBEGIN
1070
    73
1070
     1
1070
    44
1040
1.0
1070
    74
1070
     0
1000
MTEXTEND
1000
MTEXTBEGIN
1070
    73
1070
     1
1070
    44
1040
1.0
1070
    74
1070
     0
1000
MTEXTEND
  0
LEADER
  5
C03
330
A
100
AcDbEntity
  8
HIKIDASI
100
AcDbLeader
  3
SUNPOU_2_10
 76
     2
 10
276.336743216856
 20
471.5268843444206
 30
0.0
 10
240.8339657575604
 20
425.7335419242905
 30
0.0
1001
ACAD
1000
DSTYLE
1002
{
1070
     5
1000
OPEN30
1070
    77
1070
     1
1070
   147
1040
1.0
1070
   342
1005
736
1002
}
1000
LEANOF
1010
0.0
1020
0.0
1030
0.0
1000
LEANOF
1010
0.0
1020
0.0
1030
0.0
  0
DIMENSION
  5
D22
330
A
100
AcDbEntity
  8
SUNPOU
100
AcDbDimension
  2
*D25
 10
272.0941025297361
 20
305.7295250315399
 30
0.0
 11
285.0689115475265
 21
286.0147918371988
 31
0.0
 70
   163
 53
135.0
  3
SUNPOU_2
100
AcDbDiametricDimension
 15
280.5793839039744
 25
297.2442436573013
 35
0.0
 40
0.0
  0
TEXT
  5
DBE
330
A
100
AcDbEntity
  8
MOJI
100
AcDbText
 10
227.1228145715208
 20
260.6626339895691
 30
0.0
 40
5.0
  1
Ｆ.Ｌ
 50
90.0
 41
0.8
  7
0_8
 11
224.6228145715207
 21
260.6626339895691
 31
0.0
100
AcDbText
 73
     2
  0
POLYLINE
  5
DC5
330
A
100
AcDbEntity
  8
SAISEN
100
AcDb2dPolyline
 66
     1
 10
0.0
 20
0.0
 30
0.0
 70
     1
  0
VERTEX
  5
197D
330
DC5
100
AcDbEntity
  8
SAISEN
100
AcDbVertex
100
AcDb2dVertex
 10
227.5715408805033
 20
323.4868843444206
 30
0.0
  0
VERTEX
  5
197E
330
DC5
100
AcDbEntity
  8
SAISEN
100
AcDbVertex
100
AcDb2dVertex
 10
237.5715408805032
 20
323.4868843444206
 30
0.0
  0
VERTEX
  5
197F
330
DC5
100
AcDbEntity
  8
SAISEN
100
AcDbVertex
100
AcDb2dVertex
 10
237.5715408805032
 20
353.4868843444208
 30
0.0
  0
VERTEX
  5
1980
330
DC5
100
AcDbEntity
  8
SAISEN
100
AcDbVertex
100
AcDb2dVertex
 10
227.5715408805033
 20
353.4868843444208
 30
0.0
  0
SEQEND
  5
1981
330
DC5
100
AcDbEntity
  8
SAISEN
  0
MTEXT
  5
DC7
330
A
100
AcDbEntity
  8
MOJI
100
AcDbMText
 10
232.5715408805033
 20
338.4868843444206
 30
0.0
 40
6.0
 41
30.0
 71
     5
 72
     1
  1
外　部
  7
0_8
 11
0.0000000000000001
 21
1.0
 31
0.0
1001
ACAD
1000
MTEXTBEGIN
1070
    73
1070
     1
1070
    44
1040
1.0
1070
    74
1070
     0
1000
MTEXTEND
1000
MTEXTBEGIN
1070
    73
1070
     1
1070
    44
1040
1.0
1070
    74
1070
     0
1000
MTEXTEND
  0
MTEXT
  5
DC8
330
A
100
AcDbEntity
  8
MOJI
100
AcDbMText
 10
390.3086096817227
 20
338.4868843444198
 30
0.0
 40
6.0
 41
30.0
 71
     5
 72
     1
  1
内　部
  7
0_8
 11
0.0000000000000001
 21
1.0
 31
0.0
1001
ACAD
1000
MTEXTBEGIN
1070
    73
1070
     1
1070
    44
1040
1.0
1070
    74
1070
     0
1000
MTEXTEND
1000
MTEXTBEGIN
1070
    73
1070
     1
1070
    44
1040
1.0
1070
    74
1070
     0
1000
MTEXTEND
  0
POLYLINE
  5
DC9
330
A
100
AcDbEntity
  8
SAISEN
100
AcDb2dPolyline
 66
     1
 10
0.0
 20
0.0
 30
0.0
 70
     1
  0
VERTEX
  5
1982
330
DC9
100
AcDbEntity
  8
SAISEN
100
AcDbVertex
100
AcDb2dVertex
 10
385.3086096817227
 20
323.4868843444199
 30
0.0
  0
VERTEX
  5
1983
330
DC9
100
AcDbEntity
  8
SAISEN
100
AcDbVertex
100
AcDb2dVertex
 10
395.3086096817227
 20
323.4868843444199
 30
0.0
  0
VERTEX
  5
1984
330
DC9
100
AcDbEntity
  8
SAISEN
100
AcDbVertex
100
AcDb2dVertex
 10
395.3086096817227
 20
353.48688434442
 30
0.0
  0
VERTEX
  5
1985
330
DC9
100
AcDbEntity
  8
SAISEN
100
AcDbVertex
100
AcDb2dVertex
 10
385.3086096817227
 20
353.48688434442
 30
0.0
  0
SEQEND
  5
1986
330
DC9
100
AcDbEntity
  8
SAISEN
  0
POLYLINE
  5
DCC
330
A
100
AcDbEntity
  8
SAISEN
100
AcDb2dPolyline
 66
     1
 10
0.0
 20
0.0
 30
0.0
 70
     1
  0
VERTEX
  5
1987
330
DCC
100
AcDbEntity
  8
SAISEN
100
AcDbVertex
100
AcDb2dVertex
 10
42.23719103680307
 20
190.6799495492086
 30
0.0
  0
VERTEX
  5
1988
330
DCC
100
AcDbEntity
  8
SAISEN
100
AcDbVertex
100
AcDb2dVertex
 10
32.23719103680307
 20
190.6799495492086
 30
0.0
  0
VERTEX
  5
1989
330
DCC
100
AcDbEntity
  8
SAISEN
100
AcDbVertex
100
AcDb2dVertex
 10
32.23719103680307
 20
155.6799495492087
 30
0.0
  0
VERTEX
  5
198A
330
DCC
100
AcDbEntity
  8
SAISEN
100
AcDbVertex
100
AcDb2dVertex
 10
42.23719103680307
 20
155.6799495492087
 30
0.0
  0
SEQEND
  5
198B
330
DCC
100
AcDbEntity
  8
SAISEN
  0
MTEXT
  5
DCD
330
A
100
AcDbEntity
  8
MOJI
100
AcDbMText
 10
37.23719103680307
 20
173.1799495492087
 30
0.0
 40
6.0
 41
35.0
 71
     5
 72
     1
  1
内　観　図
  7
0_8
 11
0.0000000000000001
 21
1.0
 31
0.0
1001
ACAD
1000
MTEXTBEGIN
1070
    73
1070
     1
1070
    44
1040
1.0
1070
    74
1070
     0
1000
MTEXTEND
1000
MTEXTBEGIN
1070
    73
1070
     1
1070
    44
1040
1.0
1070
    74
1070
     0
1000
MTEXTEND
  0
LINE
  5
FA4
330
A
100
AcDbEntity
  8
03
100
AcDbLine
 10
272.7967432168552
 20
263.4868843444206
 30
0.0
 11
272.8367432168553
 21
263.4868843444206
 31
0.0
  0
LINE
  5
FA5
330
A
100
AcDbEntity
  8
03
100
AcDbLine
 10
277.7967432168553
 20
263.4868843444206
 30
0.0
 11
277.6167432168552
 21
263.4868843444206
 31
0.0
  0
LEADER
  5
1181
330
A
100
AcDbEntity
  8
HIKIDASI
100
AcDbLeader
  3
SUNPOU_2_10
 73
     0
 74
     0
 75
     1
 40
13.33333333333333
 41
38.93333333333334
 76
     3
 10
60.73719103680332
 20
271.457115968912
 30
0.0
 10
48.65537039967648
 20
283.3720486690941
 30
0.0
 10
48.65537039967648
 20
288.3720486690941
 30
0.0
340
1182
211
0.0000000000000001
221
1.0
231
0.0
213
-8.349844429519635
223
0.0
233
0.0
1001
ACAD
1000
DSTYLE
1002
{
1070
     5
1000
OPEN30
1070
    77
1070
     1
1070
   147
1040
1.0
1070
   342
1005
736
1002
}
1000
LEANOF
1010
-8.349844429519635
1020
0.0
1030
0.0
1000
LEANOF
1010
-8.349844429519635
1020
0.0
1030
0.0
  0
MTEXT
  5
1182
330
A
100
AcDbEntity
  8
HIKIDASI
100
AcDbMText
 10
55.00521482919612
 20
290.3720486690941
 30
0.0
 40
5.0
 41
0.0
 71
     7
 72
     1
  1
電源AC100V5A\P電気工事
  7
SUNPOU
 11
0.0000000000000001
 21
1.0
 31
0.0
1001
ACAD
1000
MTEXTBEGIN
1070
    73
1070
     1
1070
    44
1040
1.0
1070
    74
1070
     0
1000
MTEXTEND
1000
MTEXTBEGIN
1070
    73
1070
     1
1070
    44
1040
1.0
1070
    74
1070
     0
1000
MTEXTEND
  0
LINE
  5
140B
330
A
100
AcDbEntity
  8
03
100
AcDbLine
 10
270.336743216856
 20
473.5268843444207
 30
0.0
 11
270.336743216856
 21
475.0268843444206
 31
0.0
  0
LINE
  5
140C
330
A
100
AcDbEntity
  8
03
100
AcDbLine
 10
282.3367432168561
 20
473.5268843444207
 30
0.0
 11
282.3367432168561
 21
475.0268843444206
 31
0.0
  0
LINE
  5
140D
330
A
100
AcDbEntity
  8
03
100
AcDbLine
 10
270.336743216856
 20
475.0268843444206
 30
0.0
 11
268.336743216856
 21
475.0268843444207
 31
0.0
  0
LINE
  5
140E
330
A
100
AcDbEntity
  8
03
100
AcDbLine
 10
282.3367432168561
 20
473.5268843444207
 30
0.0
 11
286.336743216856
 21
473.5268843444206
 31
0.0
  0
LINE
  5
140F
330
A
100
AcDbEntity
  8
03
100
AcDbLine
 10
270.3367432168553
 20
323.4868843444206
 30
0.0
 11
270.3367432168553
 21
321.9868843444206
 31
0.0
  0
LINE
  5
1410
330
A
100
AcDbEntity
  8
03
100
AcDbLine
 10
282.3367432168554
 20
323.4868843444206
 30
0.0
 11
282.3367432168554
 21
321.9868843444206
 31
0.0
  0
LINE
  5
1411
330
A
100
AcDbEntity
  8
03
100
AcDbLine
 10
282.3367432168554
 20
323.4868843444206
 30
0.0
 11
294.3367432168555
 21
323.4868843444206
 31
0.0
  0
LINE
  5
1412
330
A
100
AcDbEntity
  8
03
100
AcDbLine
 10
282.3367432168554
 20
321.9868843444206
 30
0.0
 11
294.3367432168555
 21
321.9868843444206
 31
0.0
  0
MTEXT
  5
146B
330
A
100
AcDbEntity
  8
HIKIDASI
100
AcDbMText
 10
89.3551190286662
 20
165.2121623079466
 30
0.0
 40
5.0
 41
0.0
 71
     9
 72
     1
  1
{\Ftxt.shx|c0;4-M8}タップ{\Ftxt.shx|c0;\P}（サッシ工事）{\Ftxt.shx|c0;}
  7
SUNPOU
 11
0.0000000000000001
 21
1.0
 31
0.0
1001
ACAD
1000
MTEXTBEGIN
1070
    73
1070
     1
1070
    44
1040
1.0
1070
    74
1070
     0
1000
MTEXTEND
1000
MTEXTBEGIN
1070
    73
1070
     1
1070
    44
1040
1.0
1070
    74
1070
     0
1000
MTEXTEND
  0
LEADER
  5
146C
330
A
100
AcDbEntity
  8
HIKIDASI
100
AcDbLeader
  3
SUNPOU_2_10
 73
     0
 75
     1
 40
13.33333333333333
 41
29.86666666666666
 76
     3
 10
90.23719103680296
 20
185.3249848922316
 30
0.0
 10
83.00527459914656
 20
172.2121623079466
 30
0.0
 10
83.00527459914656
 20
167.2121623079466
 30
0.0
340
146B
211
0.0000000000000001
221
1.0
231
0.0
213
-8.349844429519635
223
0.0
233
0.0
1001
ACAD
1000
DSTYLE
1002
{
1070
     5
1000
OPEN30
1070
    77
1070
     1
1070
   147
1040
1.0
1070
   342
1005
736
1002
}
1000
LEANOF
1010
-8.349844429519635
1020
0.0
1030
0.0
1000
LEANOF
1010
-8.349844429519635
1020
0.0
1030
0.0
  0
TEXT
  5
1487
330
A
100
AcDbEntity
  8
MOJI
100
AcDbText
 10
388.0488190392131
 20
61.2715132061159
 30
0.0
 40
8.0
  1
Ｓ
 41
0.8
  7
0_8
 11
388.0488190392131
 21
69.2715132061159
 31
0.0
100
AcDbText
 73
     3
  0
CIRCLE
  5
1488
330
A
100
AcDbEntity
  8
SAISEN
100
AcDbCircle
 10
391.0976380784293
 20
65.54302641223159
 30
0.0
 40
5.0
  0
LINE
  5
1896
330
A
100
AcDbEntity
  8
06
100
AcDbLine
 10
89.23719103680328
 20
253.8249848922316
 30
0.0
 11
230.2371910368031
 21
253.8249848922311
 31
0.0
  0
MTEXT
  5
1923
330
A
100
AcDbEntity
  8
MOJI
100
AcDbMText
 10
255.0
 20
44.00000000000005
 30
0.0
 40
7.0
 41
60.0
 71
     5
 72
     1
  1
片引き又は両引き
  7
0_80
1001
ACAD
1000
MTEXTBEGIN
1070
    73
1070
     1
1070
    44
1040
1.0
1070
    74
1070
     0
1000
MTEXTEND
1000
MTEXTBEGIN
1070
    73
1070
     1
1070
    44
1040
1.0
1070
    74
1070
     0
1000
MTEXTEND
  0
MTEXT
  5
1924
330
A
100
AcDbEntity
  8
MOJI
100
AcDbMText
 10
359.9999999999971
 20
44.00000000000005
 30
0.0
 40
7.0
 41
49.99999999999994
 71
     5
 72
     1
  1
姿図　　　　\Pよこ断面図　
  7
0_80
1001
ACAD
1000
MTEXTBEGIN
1070
    73
1070
     1
1070
    44
1040
1.0
1070
    74
1070
     0
1000
MTEXTEND
1000
MTEXTBEGIN
1070
    73
1070
     1
1070
    44
1040
1.0
1070
    74
1070
     0
1000
MTEXTEND
  0
MTEXT
  5
1925
330
A
100
AcDbEntity
  8
MOJI
100
AcDbMText
 10
309.9999999999969
 20
44.00000000000005
 30
0.0
 40
7.0
 41
50.0
 71
     5
 72
     1
  1
図番１－１
  7
0_80
1001
ACAD
1000
MTEXTBEGIN
1070
    73
1070
     1
1070
    44
1040
1.0
1070
    74
1070
     0
1000
MTEXTEND
1000
MTEXTBEGIN
1070
    73
1070
     1
1070
    44
1040
1.0
1070
    74
1070
     0
1000
MTEXTEND
  0
POLYLINE
  5
1926
330
A
100
AcDbEntity
  8
SAISEN
100
AcDb2dPolyline
 66
     1
 10
0.0
 20
0.0
 30
0.0
 70
     1
  0
VERTEX
  5
198C
330
1926
100
AcDbEntity
  8
SAISEN
100
AcDbVertex
100
AcDb2dVertex
 10
34.99999999999707
 20
32.0
 30
0.0
  0
VERTEX
  5
198D
330
1926
100
AcDbEntity
  8
SAISEN
100
AcDbVertex
100
AcDb2dVertex
 10
384.999999999997
 20
32.0
 30
0.0
  0
VERTEX
  5
198E
330
1926
100
AcDbEntity
  8
SAISEN
100
AcDbVertex
100
AcDb2dVertex
 10
384.999999999997
 20
57.00000000000017
 30
0.0
  0
VERTEX
  5
198F
330
1926
100
AcDbEntity
  8
SAISEN
100
AcDbVertex
100
AcDb2dVertex
 10
34.99999999999707
 20
57.00000000000017
 30
0.0
  0
SEQEND
  5
1990
330
1926
100
AcDbEntity
  8
SAISEN
  0
MTEXT
  5
1927
330
A
100
AcDbEntity
  8
MOJI
100
AcDbMText
 10
184.9999999999969
 20
44.50000000000011
 30
0.0
 40
7.0
 41
80.0
 71
     5
 72
     1
  1
ＳＯＴ－Ｔ６０ＫＮＢ
  7
0_8
1001
ACAD
1000
MTEXTBEGIN
1070
    73
1070
     1
1070
    44
1040
1.0
1070
    74
1070
     0
1000
MTEXTEND
1000
MTEXTBEGIN
1070
    73
1070
     1
1070
    44
1040
1.0
1070
    74
1070
     0
1000
MTEXTEND
  0
MTEXT
  5
1928
330
A
100
AcDbEntity
  8
MOJI
100
AcDbMText
 10
89.99999999999706
 20
44.50000000000011
 30
0.0
 40
7.0
 41
110.0
 71
     5
 72
     1
  1
アルミフロント７０ｍｍ納り
  7
0_8
1001
ACAD
1000
MTEXTBEGIN
1070
    73
1070
     1
1070
    44
1040
1.0
1070
    74
1070
     0
1000
MTEXTEND
1000
MTEXTBEGIN
1070
    73
1070
     1
1070
    44
1040
1.0
1070
    74
1070
     0
1000
MTEXTEND
  0
LINE
  5
1929
330
A
100
AcDbEntity
  8
SAISEN
100
AcDbLine
 10
284.9999999999969
 20
57.00000000000017
 30
0.0
 11
284.9999999999969
 21
32.0
 31
0.0
  0
LINE
  5
192A
330
A
100
AcDbEntity
  8
SAISEN
100
AcDbLine
 10
224.9999999999969
 20
57.00000000000017
 30
0.0
 11
224.9999999999969
 21
32.0
 31
0.0
  0
LINE
  5
192B
330
A
100
AcDbEntity
  8
SAISEN
100
AcDbLine
 10
144.999999999997
 20
57.00000000000017
 30
0.0
 11
144.999999999997
 21
32.0
 31
0.0
  0
VIEWPORT
  5
ECC
102
{ACAD_XDICTIONARY
360
1967
102
}
330
B
100
AcDbEntity
 67
     1
  8
0
100
AcDbViewport
 10
198.0508299538853
 20
285.1874487354478
 30
0.0
 40
1030.552740959996
 41
600.505867435068
 68
     1
 69
     1
1001
ACAD
1000
MVIEW
1002
{
1070
    16
1010
0.0
1020
0.0
1030
0.0
1010
0.0
1020
0.0
1030
1.0
1040
0.0
1040
600.505867435068
1040
198.0508299538853
1040
285.1874487354478
1040
50.0
1040
0.0
1040
0.0
1070
     0
1070
   100
1070
     1
1070
     1
1070
     0
1070
     0
1070
     0
1070
     0
1040
0.0
1040
0.0
1040
0.0
1040
10.0
1040
10.0
1040
10.0
1040
10.0
1070
     0
1002
{
1002
}
1002
}
  0
VIEWPORT
  5
1950
102
{ACAD_XDICTIONARY
360
196D
102
}
330
B
100
AcDbEntity
 67
     1
  8
DEFPOINTS
100
AcDbViewport
 10
198.0508309076477
 20
285.1874477816852
 30
0.0
 40
396.4883172119752
 41
570.409736121624
 68
     2
 69
     2
1001
ACAD
1000
MVIEW
1002
{
1070
    16
1010
0.0
1020
0.0
1030
0.0
1010
0.0
1020
0.0
1030
1.0
1040
0.0
1040
570.409736121624
1040
210.0
1040
297.0
1040
50.0
1040
0.0
1040
0.0
1070
     0
1070
   100
1070
     1
1070
     1
1070
     0
1070
     0
1070
     0
1070
     0
1040
0.0
1040
0.0
1040
0.0
1040
1.0
1040
1.0
1040
0.0
1040
0.0
1070
     0
1002
{
1002
}
1002
}
  0
ENDSEC
  0
SECTION
  2
OBJECTS
  0
DICTIONARY
  5
19
330
0
100
AcDbDictionary
  3
ACAD_COLOR
350
672
  3
ACAD_GROUP
350
1A
  3
ACAD_LAYOUT
350
673
  3
ACAD_MATERIAL
350
671
  3
ACAD_MLINESTYLE
350
1B
  3
ACAD_PLOTSETTINGS
350
674
  3
ACADDIM
350
BF0
  3
ASE_INDEX_DICTIONARY
350
192C
1001
ACAD
1000
TREAT_AS_HARD
1070
     0
1000
TREAT_AS_HARD
1070
     0
  0
DICTIONARY
  5
1913
330
2
100
AcDbDictionary
  3
ACAD_LAYERSTATES
350
1914
1001
ACAD
1000
TREAT_AS_HARD
1070
     1
  0
DICTIONARY
  5
18E4
330
A
100
AcDbDictionary
  3
ACAD_LAYOUTSELFREF
350
1975
1001
ACAD
1000
TREAT_AS_HARD
1070
     1
  0
DICTIONARY
  5
18E6
330
B
100
AcDbDictionary
  3
ACAD_LAYOUTSELFREF
350
1976
1001
ACAD
1000
TREAT_AS_HARD
1070
     1
  0
DICTIONARY
  5
1967
330
ECC
100
AcDbDictionary
  3
ACAD_XREC_ROUNDTRIP
350
1968
1001
ACAD
1000
TREAT_AS_HARD
1070
     1
  0
DICTIONARY
  5
196D
330
1950
100
AcDbDictionary
  3
ACAD_XREC_ROUNDTRIP
350
196E
1001
ACAD
1000
TREAT_AS_HARD
1070
     1
  0
DICTIONARY
  5
672
102
{ACAD_REACTORS
330
19
102
}
330
19
100
AcDbDictionary
1001
ACAD
1000
TREAT_AS_HARD
1070
     0
1000
TREAT_AS_HARD
1070
     0
  0
DICTIONARY
  5
1A
102
{ACAD_REACTORS
330
19
102
}
330
19
100
AcDbDictionary
  3
DAGROUP58D
350
58D
  3
DAGROUP593
350
593
  3
DAGROUP599
350
599
  3
DAGROUP59F
350
59F
  3
DAGROUP5A5
350
5A5
  3
DAGROUP5AB
350
5AB
  3
DAGROUP5B1
350
5B1
  3
DAGROUP5B7
350
5B7
  3
DAGROUP5BD
350
5BD
  3
DAGROUP5C3
350
5C3
  3
DAGROUP5C9
350
5C9
  3
DAGROUP5CF
350
5CF
  3
DAGROUP5D5
350
5D5
  3
DAGROUP5DB
350
5DB
  3
DAGROUP5E1
350
5E1
  3
DAGROUP5E7
350
5E7
  3
DAGROUP5EC
350
5EC
  3
DAGROUP5F0
350
5F0
  3
DAGROUP5F4
350
5F4
  3
DAGROUP5F8
350
5F8
  3
DAGROUP5FC
350
5FC
1001
ACAD
1000
TREAT_AS_HARD
1070
     0
1000
TREAT_AS_HARD
1070
     0
  0
DICTIONARY
  5
673
102
{ACAD_REACTORS
330
19
102
}
330
19
100
AcDbDictionary
1001
ACAD
1000
TREAT_AS_HARD
1070
     0
1000
TREAT_AS_HARD
1070
     0
  0
DICTIONARY
  5
671
102
{ACAD_REACTORS
330
19
102
}
330
19
100
AcDbDictionary
1001
ACAD
1000
TREAT_AS_HARD
1070
     0
1000
TREAT_AS_HARD
1070
     0
  0
DICTIONARY
  5
1B
102
{ACAD_REACTORS
330
19
102
}
330
19
100
AcDbDictionary
  3
STANDARD
350
1C
1001
ACAD
1000
TREAT_AS_HARD
1070
     0
1000
TREAT_AS_HARD
1070
     0
  0
DICTIONARY
  5
674
102
{ACAD_REACTORS
330
19
102
}
330
19
100
AcDbDictionary
1001
ACAD
1000
TREAT_AS_HARD
1070
     0
1000
TREAT_AS_HARD
1070
     0
  0
XRECORD
  5
BF0
102
{ACAD_REACTORS
330
19
102
}
330
19
100
AcDbXrecord
 90
   990106
  3

 60
     0
 61
     0
 62
     1
 63
     3
 64
     1
 65
     0
 66
     0
 67
     3
 68
     1
 69
     0
 70
     0
 71
     0
 72
     0
 40
0.0
170
     2
340
C02
  0
DICTIONARY
  5
192C
102
{ACAD_REACTORS
330
19
102
}
330
19
100
AcDbDictionary
  3
ASEBLOCKHIERARCHYINDEXRECORD
350
192D
1001
DCO15
1040
1508667166.671
1001
ACAD
1000
TREAT_AS_HARD
1070
     0
  0
DICTIONARY
  5
1914
102
{ACAD_REACTORS
330
1913
102
}
330
1913
100
AcDbDictionary
1001
ACAD
1000
TREAT_AS_HARD
1070
     0
  0
XRECORD
  5
1975
102
{ACAD_REACTORS
330
18E4
102
}
330
18E4
100
AcDbXrecord
340
A
  0
XRECORD
  5
1976
102
{ACAD_REACTORS
330
18E6
102
}
330
18E6
100
AcDbXrecord
340
B
  0
XRECORD
  5
1968
102
{ACAD_REACTORS
330
1967
102
}
330
1967
100
AcDbXrecord
102
SHADEPLOT
 70
     0
  0
XRECORD
  5
196E
102
{ACAD_REACTORS
330
196D
102
}
330
196D
100
AcDbXrecord
102
SHADEPLOT
 70
     0
  0
GROUP
  5
58D
102
{ACAD_REACTORS
330
1A
102
}
330
1A
100
AcDbGroup
300

 70
     0
 71
     1
  0
GROUP
  5
593
102
{ACAD_REACTORS
330
1A
102
}
330
1A
100
AcDbGroup
300

 70
     0
 71
     1
  0
GROUP
  5
599
102
{ACAD_REACTORS
330
1A
102
}
330
1A
100
AcDbGroup
300

 70
     0
 71
     1
  0
GROUP
  5
59F
102
{ACAD_REACTORS
330
1A
102
}
330
1A
100
AcDbGroup
300

 70
     0
 71
     1
  0
GROUP
  5
5A5
102
{ACAD_REACTORS
330
1A
102
}
330
1A
100
AcDbGroup
300

 70
     0
 71
     1
  0
GROUP
  5
5AB
102
{ACAD_REACTORS
330
1A
102
}
330
1A
100
AcDbGroup
300

 70
     0
 71
     1
  0
GROUP
  5
5B1
102
{ACAD_REACTORS
330
1A
102
}
330
1A
100
AcDbGroup
300

 70
     0
 71
     1
  0
GROUP
  5
5B7
102
{ACAD_REACTORS
330
1A
102
}
330
1A
100
AcDbGroup
300

 70
     0
 71
     1
  0
GROUP
  5
5BD
102
{ACAD_REACTORS
330
1A
102
}
330
1A
100
AcDbGroup
300

 70
     0
 71
     1
  0
GROUP
  5
5C3
102
{ACAD_REACTORS
330
1A
102
}
330
1A
100
AcDbGroup
300

 70
     0
 71
     1
  0
GROUP
  5
5C9
102
{ACAD_REACTORS
330
1A
102
}
330
1A
100
AcDbGroup
300

 70
     0
 71
     1
  0
GROUP
  5
5CF
102
{ACAD_REACTORS
330
1A
102
}
330
1A
100
AcDbGroup
300

 70
     0
 71
     1
  0
GROUP
  5
5D5
102
{ACAD_REACTORS
330
1A
102
}
330
1A
100
AcDbGroup
300

 70
     0
 71
     1
  0
GROUP
  5
5DB
102
{ACAD_REACTORS
330
1A
102
}
330
1A
100
AcDbGroup
300

 70
     0
 71
     1
  0
GROUP
  5
5E1
102
{ACAD_REACTORS
330
1A
102
}
330
1A
100
AcDbGroup
300

 70
     0
 71
     1
  0
GROUP
  5
5E7
102
{ACAD_REACTORS
330
1A
102
}
330
1A
100
AcDbGroup
300

 70
     0
 71
     1
  0
GROUP
  5
5EC
102
{ACAD_REACTORS
330
1A
102
}
330
1A
100
AcDbGroup
300

 70
     0
 71
     1
  0
GROUP
  5
5F0
102
{ACAD_REACTORS
330
1A
102
}
330
1A
100
AcDbGroup
300

 70
     0
 71
     1
  0
GROUP
  5
5F4
102
{ACAD_REACTORS
330
1A
102
}
330
1A
100
AcDbGroup
300

 70
     0
 71
     1
  0
GROUP
  5
5F8
102
{ACAD_REACTORS
330
1A
102
}
330
1A
100
AcDbGroup
300

 70
     0
 71
     1
  0
GROUP
  5
5FC
102
{ACAD_REACTORS
330
1A
102
}
330
1A
100
AcDbGroup
300

 70
     0
 71
     1
  0
MLINESTYLE
  5
1C
102
{ACAD_REACTORS
330
1B
102
}
330
1B
100
AcDbMlineStyle
  2
STANDARD
 70
     0
  3

 62
     0
 51
90.00000000000019
 52
90.00000000000019
 71
     2
 49
0.5
 62
   256
  6
BYLAYER
 49
-0.5
 62
   256
  6
BYLAYER
  0
XRECORD
  5
192D
102
{ACAD_REACTORS
330
192C
102
}
330
192C
100
AcDbXrecord
330
1880
330
1881
330
1878
330
1877
330
186C
330
186D
330
1863
330
1864
330
185A
330
185B
330
1850
330
184F
330
1844
330
1845
330
183A
330
183B
330
1831
330
1832
330
1828
330
1829
330
1820
330
181F
330
1816
330
1817
330
180E
330
180F
330
1802
330
1803
330
17F9
330
17FA
330
17F1
330
17F2
330
17E6
330
17E7
330
17DA
330
17DB
330
17D2
330
17D3
330
17C6
330
17C7
330
17BE
330
17BF
330
17B5
330
17B6
330
17AC
330
17AD
330
17A2
330
17A3
330
179B
330
179C
  0
ENDSEC
  0
EOF
