  0
SECTION
  2
HEADER
  9
$ACADVER
  1
AC1012
  9
$DWGCODEPAGE
  3
dos932
  9
$INSBASE
 10
0.0
 20
0.0
 30
0.0
  9
$EXTMIN
 10
0.0
 20
0.0
 30
0.0
  9
$EXTMAX
 10
420.0
 20
594.0
 30
0.0
  9
$LIMMIN
 10
0.0
 20
0.0
  9
$LIMMAX
 10
420.0
 20
594.0
  9
$ORTHOMODE
 70
     1
  9
$REGENMODE
 70
     1
  9
$FILLMODE
 70
     1
  9
$QTEXTMODE
 70
     0
  9
$MIRRTEXT
 70
     1
  9
$DRAGMODE
 70
     2
  9
$LTSCALE
 40
0.3
  9
$OSMODE
 70
    37
  9
$ATTMODE
 70
     1
  9
$TEXTSIZE
 40
2.5
  9
$TRACEWID
 40
0.05
  9
$TEXTSTYLE
  7
0_9
  9
$CLAYER
  8
DEFPOINTS
  9
$CELTYPE
  6
BYLAYER
  9
$CECOLOR
 62
   256
  9
$CELTSCALE
 40
1.0
  9
$DELOBJ
 70
     1
  9
$DISPSILH
 70
     0
  9
$DIMSCALE
 40
2.0
  9
$DIMASZ
 40
2.5
  9
$DIMEXO
 40
1.5
  9
$DIMDLI
 40
0.0
  9
$DIMRND
 40
0.0
  9
$DIMDLE
 40
0.0
  9
$DIMEXE
 40
1.0
  9
$DIMTP
 40
0.0
  9
$DIMTM
 40
0.0
  9
$DIMTXT
 40
2.5
  9
$DIMCEN
 40
0.0
  9
$DIMTSZ
 40
0.0
  9
$DIMTOL
 70
     0
  9
$DIMLIM
 70
     0
  9
$DIMTIH
 70
     0
  9
$DIMTOH
 70
     0
  9
$DIMSE1
 70
     0
  9
$DIMSE2
 70
     0
  9
$DIMTAD
 70
     1
  9
$DIMZIN
 70
     8
  9
$DIMBLK
  1
OPEN30
  9
$DIMASO
 70
     1
  9
$DIMSHO
 70
     1
  9
$DIMPOST
  1

  9
$DIMAPOST
  1

  9
$DIMALT
 70
     0
  9
$DIMALTD
 70
     2
  9
$DIMALTF
 40
25.4
  9
$DIMLFAC
 40
1.0
  9
$DIMTOFL
 70
     1
  9
$DIMTVP
 40
0.0
  9
$DIMTIX
 70
     0
  9
$DIMSOXD
 70
     0
  9
$DIMSAH
 70
     0
  9
$DIMBLK1
  1

  9
$DIMBLK2
  1

  9
$DIMSTYLE
  2
SUNPOU_2
  9
$DIMCLRD
 70
   256
  9
$DIMCLRE
 70
   256
  9
$DIMCLRT
 70
   256
  9
$DIMTFAC
 40
1.0
  9
$DIMGAP
 40
1.0
  9
$DIMJUST
 70
     0
  9
$DIMSD1
 70
     0
  9
$DIMSD2
 70
     0
  9
$DIMTOLJ
 70
     1
  9
$DIMTZIN
 70
     0
  9
$DIMALTZ
 70
     0
  9
$DIMALTTZ
 70
     0
  9
$DIMFIT
 70
     3
  9
$DIMUPT
 70
     0
  9
$DIMUNIT
 70
     2
  9
$DIMDEC
 70
     1
  9
$DIMTDEC
 70
     1
  9
$DIMALTU
 70
     2
  9
$DIMALTTD
 70
     2
  9
$DIMTXSTY
  7
SUNPOU
  9
$DIMAUNIT
 70
     0
  9
$LUNITS
 70
     2
  9
$LUPREC
 70
     4
  9
$SKETCHINC
 40
0.1
  9
$FILLETRAD
 40
0.0
  9
$AUNITS
 70
     0
  9
$AUPREC
 70
     0
  9
$MENU
  1
acad
  9
$ELEVATION
 40
0.0
  9
$PELEVATION
 40
0.0
  9
$THICKNESS
 40
0.0
  9
$LIMCHECK
 70
     0
  9
$BLIPMODE
 70
     0
  9
$CHAMFERA
 40
0.0
  9
$CHAMFERB
 40
0.0
  9
$CHAMFERC
 40
0.0
  9
$CHAMFERD
 40
0.0
  9
$SKPOLY
 70
     0
  9
$TDCREATE
 40
2444972.375000000
  9
$TDUPDATE
 40
2453266.406461227
  9
$TDINDWG
 40
0.7510195602
  9
$TDUSRTIMER
 40
0.7510195602
  9
$USRTIMER
 70
     1
  9
$ANGBASE
 50
0.0
  9
$ANGDIR
 70
     0
  9
$PDMODE
 70
     0
  9
$PDSIZE
 40
1.0
  9
$PLINEWID
 40
0.0
  9
$COORDS
 70
     1
  9
$SPLFRAME
 70
     0
  9
$SPLINETYPE
 70
     6
  9
$SPLINESEGS
 70
     8
  9
$ATTDIA
 70
     0
  9
$ATTREQ
 70
     1
  9
$HANDLING
 70
-16383
  9
$HANDSEED
  5
2E9C
  9
$SURFTAB1
 70
     6
  9
$SURFTAB2
 70
     6
  9
$SURFTYPE
 70
     6
  9
$SURFU
 70
     6
  9
$SURFV
 70
     6
  9
$UCSNAME
  2

  9
$UCSORG
 10
0.0
 20
0.0
 30
0.0
  9
$UCSXDIR
 10
1.0
 20
0.0
 30
0.0
  9
$UCSYDIR
 10
0.0
 20
1.0
 30
0.0
  9
$PUCSNAME
  2

  9
$PUCSORG
 10
0.0
 20
0.0
 30
0.0
  9
$PUCSXDIR
 10
1.0
 20
0.0
 30
0.0
  9
$PUCSYDIR
 10
0.0
 20
1.0
 30
0.0
  9
$USERI1
 70
     0
  9
$USERI2
 70
     0
  9
$USERI3
 70
     0
  9
$USERI4
 70
     0
  9
$USERI5
 70
     0
  9
$USERR1
 40
0.0
  9
$USERR2
 40
0.0
  9
$USERR3
 40
0.0
  9
$USERR4
 40
0.0
  9
$USERR5
 40
0.0
  9
$WORLDVIEW
 70
     1
  9
$SHADEDGE
 70
     3
  9
$SHADEDIF
 70
    70
  9
$TILEMODE
 70
     1
  9
$MAXACTVP
 70
    16
  9
$PINSBASE
 10
0.0
 20
0.0
 30
0.0
  9
$PLIMCHECK
 70
     0
  9
$PEXTMIN
 10
0.0554636438765783
 20
-0.137974633789554
 30
-0.0015258207003583
  9
$PEXTMAX
 10
396.574919004792
 20
570.2717614878345
 30
0.0000000349246037
  9
$PLIMMIN
 10
-11.68090240707622
 20
-11.88655654864419
  9
$PLIMMAX
 10
408.3045843571833
 20
582.020345310214
  9
$UNITMODE
 70
     0
  9
$VISRETAIN
 70
     0
  9
$PLINEGEN
 70
     1
  9
$PSLTSCALE
 70
     0
  9
$TREEDEPTH
 70
  3020
  9
$PICKSTYLE
 70
     1
  9
$CMLSTYLE
  2
STANDARD
  9
$CMLJUST
 70
     0
  9
$CMLSCALE
 40
1.0
  9
$SAVEIMAGES
 70
     1
  0
ENDSEC
  0
SECTION
  2
CLASSES
  0
CLASS
  1
LWPOLYLINE
  2
AcDbPolyline
  3
AutoCAD 2000
 90
    32768
280
     0
281
     1
  0
CLASS
  1
IMAGE
  2
AcDbRasterImage
  3
ISM
 90
    32895
280
     0
281
     1
  0
CLASS
  1
OLE2FRAME
  2
AcDbOle2Frame
  3
AutoCAD 2000
 90
    32768
280
     0
281
     1
  0
CLASS
  1
HATCH
  2
AcDbHatch
  3
AutoCAD 2000
 90
    32768
280
     0
281
     1
  0
CLASS
  1
DICTIONARYVAR
  2
AcDbDictionaryVar
  3
AutoCAD 2000
 90
    32768
280
     0
281
     0
  0
CLASS
  1
RASTERVARIABLES
  2
AcDbRasterVariables
  3
ISM
 90
    32768
280
     0
281
     0
  0
CLASS
  1
IMAGEDEF
  2
AcDbRasterImageDef
  3
ISM
 90
    32768
280
     0
281
     0
  0
CLASS
  1
IMAGEDEF_REACTOR
  2
AcDbRasterImageDefReactor
  3
ISM
 90
    32769
280
     0
281
     0
  0
CLASS
  1
IDBUFFER
  2
AcDbIdBuffer
  3
AutoCAD 2000
 90
    32768
280
     0
281
     0
  0
CLASS
  1
SPATIAL_FILTER
  2
AcDbSpatialFilter
  3
AutoCAD 2000
 90
    32768
280
     0
281
     0
  0
CLASS
  1
XRECORD
  2
AcDbXrecord
  3
AutoCAD 2000
 90
    32768
280
     0
281
     0
  0
CLASS
  1
SORTENTSTABLE
  2
AcDbSortentsTable
  3
AutoCAD 2000
 90
    32768
280
     0
281
     0
  0
CLASS
  1
LAYER_INDEX
  2
AcDbLayerIndex
  3
AutoCAD 2000
 90
    32768
280
     0
281
     0
  0
CLASS
  1
SPATIAL_INDEX
  2
AcDbSpatialIndex
  3
AutoCAD 2000
 90
    32768
280
     0
281
     0
  0
CLASS
  1
OBJECT_PTR
  2
CAseDLPNTableRecord
  3
ASE-LPNTableRecord
 90
    32769
280
     0
281
     0
  0
CLASS
  1
ACDBDICTIONARYWDFLT
  2
AcDbDictionaryWithDefault
  3
AutoCAD 2000
 90
    32768
280
     0
281
     0
  0
CLASS
  1
ACDBPLACEHOLDER
  2
AcDbPlaceHolder
  3
AutoCAD 2000
 90
    32768
280
     0
281
     0
  0
CLASS
  1
LAYOUT
  2
AcDbLayout
  3
AutoCAD 2000
 90
    32768
280
     0
281
     0
  0
CLASS
  1
LONG_TRANSACTION
  2
AcDbLongTransaction
  3
AutoCAD 2000
 90
    32768
280
     0
281
     0
  0
CLASS
  1
LWPOLYLINE
  2
AcDbPolyline
  3
AutoCAD 2000
 90
    32768
280
     0
281
     1
  0
CLASS
  1
HATCH
  2
AcDbHatch
  3
AutoCAD 2000
 90
    32768
280
     0
281
     1
  0
CLASS
  1
XRECORD
  2
AcDbXrecord
  3
AutoCAD 2000
 90
    32768
280
     0
281
     0
  0
CLASS
  1
LONG_TRANSACTION
  2
AcDbLongTransaction
  3
AutoCAD 2000
 90
    32768
280
     0
281
     0
  0
CLASS
  1
LWPOLYLINE
  2
AcDbPolyline
  3
AutoCAD 2000
 90
    32768
280
     0
281
     1
  0
CLASS
  1
HATCH
  2
AcDbHatch
  3
AutoCAD 2000
 90
    32768
280
     0
281
     1
  0
CLASS
  1
XRECORD
  2
AcDbXrecord
  3
AutoCAD 2000
 90
    32768
280
     0
281
     0
  0
ENDSEC
  0
SECTION
  2
TABLES
  0
TABLE
  2
VPORT
  5
7
330
0
100
AcDbSymbolTable
 70
     2
  0
VPORT
  5
2E6C
330
7
100
AcDbSymbolTableRecord
100
AcDbViewportTableRecord
  2
*ACTIVE
 70
     0
 10
0.0
 20
0.0
 11
1.0
 21
1.0
 12
229.3124482139083
 22
297.0000107191083
 13
0.0
 23
0.0
 14
1.0
 24
1.0
 15
0.0
 25
0.0
 16
0.0
 26
0.0
 36
1.0
 17
0.0
 27
0.0
 37
0.0
 40
600.9288569678481
 41
1.780442804428044
 42
50.0
 43
0.0
 44
0.0
 50
0.0
 51
0.0
 71
     0
 72
   100
 73
     1
 74
     1
 75
     0
 76
     0
 77
     0
 78
     0
  0
ENDTAB
  0
TABLE
  2
LTYPE
  5
4
330
0
100
AcDbSymbolTable
 70
     3
  0
LTYPE
  5
11
330
4
100
AcDbSymbolTableRecord
100
AcDbLinetypeTableRecord
  2
BYBLOCK
 70
     0
  3

 72
    65
 73
     0
 40
0.0
  0
LTYPE
  5
12
330
4
100
AcDbSymbolTableRecord
100
AcDbLinetypeTableRecord
  2
BYLAYER
 70
     0
  3

 72
    65
 73
     0
 40
0.0
  0
LTYPE
  5
13
330
4
100
AcDbSymbolTableRecord
100
AcDbLinetypeTableRecord
  2
CONTINUOUS
 70
     0
  3
Solid line
 72
    65
 73
     0
 40
0.0
  0
LTYPE
  5
21
330
4
100
AcDbSymbolTableRecord
100
AcDbLinetypeTableRecord
  2
DASHED2
 70
     0
  3
Dashed (.5x) _ _ _ _ _ _ _ _ _ _ _ _ _ _ _ _ _
 72
    65
 73
     2
 40
9.524999999999996
 49
6.349999999999998
 74
     0
 49
-3.174999999999998
 74
     0
  0
LTYPE
  5
651
330
4
100
AcDbSymbolTableRecord
100
AcDbLinetypeTableRecord
  2
CENTER2
 70
     0
  3
Center (.5x) ___ _ ___ _ ___ _ ___ _ ___ _ ___
 72
    65
 73
     4
 40
28.57499999999999
 49
19.05
 74
     0
 49
-3.174999999999998
 74
     0
 49
3.174999999999998
 74
     0
 49
-3.174999999999998
 74
     0
  0
ENDTAB
  0
TABLE
  2
LAYER
  5
2
102
{ACAD_XDICTIONARY
360
2E15
102
}
330
0
100
AcDbSymbolTable
 70
    12
  0
LAYER
  5
14
330
2
100
AcDbSymbolTableRecord
100
AcDbLayerTableRecord
  2
0
 70
     0
 62
     7
  6
CONTINUOUS
  0
LAYER
  5
653
330
2
100
AcDbSymbolTableRecord
100
AcDbLayerTableRecord
  2
DEFPOINTS
 70
     0
 62
     7
  6
CONTINUOUS
  0
LAYER
  5
656
330
2
100
AcDbSymbolTableRecord
100
AcDbLayerTableRecord
  2
03
 70
     0
 62
     3
  6
CONTINUOUS
  0
LAYER
  5
65B
330
2
100
AcDbSymbolTableRecord
100
AcDbLayerTableRecord
  2
CHUSIN
 70
     0
 62
     6
  6
CENTER2
  0
LAYER
  5
65C
330
2
100
AcDbSymbolTableRecord
100
AcDbLayerTableRecord
  2
HIKIDASI
 70
     0
 62
     6
  6
CONTINUOUS
  0
LAYER
  5
65D
330
2
100
AcDbSymbolTableRecord
100
AcDbLayerTableRecord
  2
KAKURE
 70
     0
 62
     6
  6
DASHED2
  0
LAYER
  5
65E
330
2
100
AcDbSymbolTableRecord
100
AcDbLayerTableRecord
  2
MOJI
 70
     0
 62
     3
  6
CONTINUOUS
  0
LAYER
  5
660
330
2
100
AcDbSymbolTableRecord
100
AcDbLayerTableRecord
  2
SUNPOU
 70
     0
 62
     6
  6
CONTINUOUS
  0
LAYER
  5
116A
330
2
100
AcDbSymbolTableRecord
100
AcDbLayerTableRecord
  2
SAISEN
 70
     0
 62
     3
  6
CONTINUOUS
  0
LAYER
  5
253C
330
2
100
AcDbSymbolTableRecord
100
AcDbLayerTableRecord
  2
02
 70
     0
 62
     2
  6
CONTINUOUS
  0
LAYER
  5
2B14
330
2
100
AcDbSymbolTableRecord
100
AcDbLayerTableRecord
  2
06
 70
     0
 62
     6
  6
CONTINUOUS
  0
LAYER
  5
2B15
330
2
100
AcDbSymbolTableRecord
100
AcDbLayerTableRecord
  2
04
 70
     0
 62
     4
  6
CONTINUOUS
  0
ENDTAB
  0
TABLE
  2
STYLE
  5
3
330
0
100
AcDbSymbolTable
 70
     5
  0
STYLE
  5
17
330
3
100
AcDbSymbolTableRecord
100
AcDbTextStyleTableRecord
  2
STANDARD
 70
     4
 40
0.0
 41
0.9
 50
0.0
 71
     0
 42
7.0
  3
txt.shx
  4
bigfont.shx
  0
STYLE
  5
671
330
3
100
AcDbSymbolTableRecord
100
AcDbTextStyleTableRecord
  2
0_8
 70
     0
 40
0.0
 41
0.8
 50
0.0
 71
     0
 42
7.0
  3
txt.shx
  4
extfont.shx
  0
STYLE
  5
675
330
3
100
AcDbSymbolTableRecord
100
AcDbTextStyleTableRecord
  2
0_9
 70
     0
 40
0.0
 41
0.9
 50
0.0
 71
     0
 42
2.5
  3
txt.shx
  4
extfont.shx
  0
STYLE
  5
67D
330
3
100
AcDbSymbolTableRecord
100
AcDbTextStyleTableRecord
  2
SUNPOU
 70
     0
 40
0.0
 41
0.8
 50
0.0
 71
     0
 42
0.2
  3
txt.shx
  4
extfont.shx
  0
STYLE
  5
2E13
330
3
100
AcDbSymbolTableRecord
100
AcDbTextStyleTableRecord
  2
0_80
 70
     0
 40
0.0
 41
0.8
 50
0.0
 71
     0
 42
7.0
  3
txt.shx
  4
extfont.shx
  0
ENDTAB
  0
TABLE
  2
VIEW
  5
5
330
0
100
AcDbSymbolTable
 70
     2
  0
VIEW
  5
137
330
5
100
AcDbSymbolTableRecord
100
AcDbViewTableRecord
  2
QQQQ
 70
     0
 40
618.7999999999998
 10
-6.0
 20
-1.0
 41
419.8999999999999
 11
0.0
 21
0.0
 31
1.0
 12
100.0
 22
100.0
 32
0.0
 42
50.0
 43
0.0
 44
0.0
 50
0.0
 71
     0
  0
VIEW
  5
16B5
330
5
100
AcDbSymbolTableRecord
100
AcDbViewTableRecord
  2
OLE1
 70
     0
 40
168.4219471024021
 10
248.9974035324634
 20
495.7742233673631
 41
289.0358090347346
 11
0.0
 21
0.0
 31
1.0
 12
0.0
 22
0.0
 32
0.0
 42
50.0
 43
0.0
 44
0.0
 50
0.0
 71
     0
  0
ENDTAB
  0
TABLE
  2
UCS
  5
6
330
0
100
AcDbSymbolTable
 70
     0
  0
ENDTAB
  0
TABLE
  2
APPID
  5
8
330
0
100
AcDbSymbolTable
 70
     3
  0
APPID
  5
16
330
8
100
AcDbSymbolTableRecord
100
AcDbRegAppTableRecord
  2
ACAD
 70
     0
  0
APPID
  5
560
330
8
100
AcDbSymbolTableRecord
100
AcDbRegAppTableRecord
  2
DCO15
 70
     0
  0
APPID
  5
2DAD
330
8
100
AcDbSymbolTableRecord
100
AcDbRegAppTableRecord
  2
CONTENTBLOCKICON
 70
     0
  0
ENDTAB
  0
TABLE
  2
DIMSTYLE
  5
9
330
0
100
AcDbSymbolTable
 70
     2
  0
DIMSTYLE
105
68C
102
{ACAD_REACTORS
330
6D7
330
6E4
330
6F3
330
714
330
723
330
73F
330
75B
330
769
330
792
330
79F
330
7AC
330
7BB
330
7C8
330
7E4
330
7F3
330
800
330
80D
330
81A
330
829
330
909
330
918
330
776
330
783
330
6CD
330
6D5
330
10DA
330
11EF
330
11FE
330
120B
102
}
330
9
100
AcDbSymbolTableRecord
100
AcDbDimStyleTableRecord
  2
SUNPOU_2
 70
     0
  3

  4

  5
OPEN30
  6

  7

 40
2.0
 41
2.5
 42
1.5
 43
0.0
 44
1.0
 45
0.0
 46
0.0
 47
0.0
 48
0.0
140
2.5
141
0.0
142
0.0
143
25.4
144
1.0
145
0.0
146
1.0
147
1.0
 71
     0
 72
     0
 73
     0
 74
     0
 75
     0
 76
     0
 77
     1
 78
     8
170
     0
171
     2
172
     1
173
     0
174
     0
175
     0
176
   256
177
   256
178
   256
270
     2
271
     1
272
     1
273
     2
274
     2
340
67D
275
     0
280
     0
281
     0
282
     0
283
     1
284
     0
285
     0
286
     0
287
     3
288
     0
  0
DIMSTYLE
105
159D
330
9
100
AcDbSymbolTableRecord
100
AcDbDimStyleTableRecord
  2
STANDARD
 70
     0
  3

  4

  5

  6

  7

 40
1.0
 41
0.18
 42
0.0625
 43
0.38
 44
0.18
 45
0.0
 46
0.0
 47
0.0
 48
0.0
140
0.18
141
0.09
142
0.0
143
25.4
144
1.0
145
0.0
146
1.0
147
0.09
 71
     0
 72
     0
 73
     1
 74
     1
 75
     0
 76
     0
 77
     0
 78
     0
170
     0
171
     2
172
     0
173
     0
174
     0
175
     0
176
     0
177
     0
178
     0
270
     2
271
     4
272
     4
273
     2
274
     2
340
17
275
     0
280
     0
281
     0
282
     0
283
     1
284
     0
285
     0
286
     0
287
     3
288
     0
  0
ENDTAB
  0
TABLE
  2
BLOCK_RECORD
  5
1
330
0
100
AcDbSymbolTable
 70
    30
  0
BLOCK_RECORD
  5
A
102
{ACAD_XDICTIONARY
360
2DA9
102
}
330
1
100
AcDbSymbolTableRecord
100
AcDbBlockTableRecord
  2
*MODEL_SPACE
  0
BLOCK_RECORD
  5
B
102
{ACAD_XDICTIONARY
360
2DAB
102
}
330
1
100
AcDbSymbolTableRecord
100
AcDbBlockTableRecord
  2
*PAPER_SPACE
  0
BLOCK_RECORD
  5
686
330
1
100
AcDbSymbolTableRecord
100
AcDbBlockTableRecord
  2
_OPEN30
1001
CONTENTBLOCKICON
1071
        0
1004
2800000020000000200000000100080000000000000400000000000000000000000000000000000000000000000080000080000000808000800000008000800080800000C0C0C000C0DCC000F0CAA6000020400000206000002080000020A0000020C0000020E00000400000004020000040400000406000004080000040A0
1004
000040C0000040E00000600000006020000060400000606000006080000060A0000060C0000060E00000800000008020000080400000806000008080000080A0000080C0000080E00000A0000000A0200000A0400000A0600000A0800000A0A00000A0C00000A0E00000C0000000C0200000C0400000C0600000C0800000C0
1004
A00000C0C00000C0E00000E0000000E0200000E0400000E0600000E0800000E0A00000E0C00000E0E00040000000400020004000400040006000400080004000A0004000C0004000E00040200000402020004020400040206000402080004020A0004020C0004020E000404000004040200040404000404060004040800040
1004
40A0004040C0004040E00040600000406020004060400040606000406080004060A0004060C0004060E00040800000408020004080400040806000408080004080A0004080C0004080E00040A0000040A0200040A0400040A0600040A0800040A0A00040A0C00040A0E00040C0000040C0200040C0400040C0600040C08000
1004
40C0A00040C0C00040C0E00040E0000040E0200040E0400040E0600040E0800040E0A00040E0C00040E0E00080000000800020008000400080006000800080008000A0008000C0008000E00080200000802020008020400080206000802080008020A0008020C0008020E00080400000804020008040400080406000804080
1004
008040A0008040C0008040E00080600000806020008060400080606000806080008060A0008060C0008060E00080800000808020008080400080806000808080008080A0008080C0008080E00080A0000080A0200080A0400080A0600080A0800080A0A00080A0C00080A0E00080C0000080C0200080C0400080C0600080C0
1004
800080C0A00080C0C00080C0E00080E0000080E0200080E0400080E0600080E0800080E0A00080E0C00080E0E000C0000000C0002000C0004000C0006000C0008000C000A000C000C000C000E000C0200000C0202000C0204000C0206000C0208000C020A000C020C000C020E000C0400000C0402000C0404000C0406000C0
1004
408000C040A000C040C000C040E000C0600000C0602000C0604000C0606000C0608000C060A000C060C000C060E000C0800000C0802000C0804000C0806000C0808000C080A000C080C000C080E000C0A00000C0A02000C0A04000C0A06000C0A08000C0A0A000C0A0C000C0A0E000C0C00000C0C02000C0C04000C0C06000
1004
C0C08000C0C0A000F0FBFF00A4A0A000808080000000FF0000FF000000FFFF00FF000000FF00FF00FFFF0000FFFFFF0000000000000000000000000000000000000000000000000000000000000000000000000000000000000000000000000000000000000000000000000000000000000000000000000000000000000000
1004
00000000000000000000000000000000000000000000000000000000000000000000000000000000000000000000000000000000000000000000000000000000000000000000000000000000000000000000000000000000000000000000000000000000000000000000000000000000000000000000000000000000000000
1004
000000000000000000000000000000000000000000000000000000000000000000000000000000000000000000000000000000FFFF0000000000000000000000000000000000000000000000000000000000000000FFFFFFFF0000000000000000000000000000000000000000000000000000000000000000FFFFFFFF0000
1004
000000000000000000000000000000000000000000000000000000000000FFFFFF0000000000000000000000000000000000000000000000000000000000000000FFFFFFFF0000000000000000000000000000000000000000000000000000000000000000FFFFFF0000000000000000000000000000000000000000000000
1004
000000000000000000FFFFFFFF0000000000000000000000000000000000000000000000000000000000000000FFFFFFFF00000000FFFFFFFFFFFFFFFFFFFFFFFFFFFFFFFFFFFFFFFFFFFFFFFFFFFFFFFFFFFF00000000000000000000000000000000000000000000000000FFFFFFFF000000000000000000000000000000
1004
000000000000000000FFFFFFFF000000000000000000000000000000000000000000000000FFFFFFFF000000000000000000000000000000000000000000000000FFFFFFFF000000000000000000000000000000000000000000000000FFFFFFFF000000000000000000000000000000000000000000000000FFFFFFFF0000
1004
0000000000000000000000000000000000000000000000FFFFFF0000000000000000000000000000000000000000000000000000000000000000000000000000000000000000000000000000000000000000000000000000000000000000000000000000000000000000000000000000000000000000000000000000000000
1004
00000000000000000000000000000000000000000000000000000000000000000000000000000000000000000000000000000000000000000000000000000000000000000000000000000000000000000000000000000000000000000000000000000000000000000000000000000000000000000000000000000000000000
1004
0000000000000000000000000000000000000000000000000000000000000000000000000000000000000000000000000000000000000000
  0
BLOCK_RECORD
  5
6D8
330
1
100
AcDbSymbolTableRecord
100
AcDbBlockTableRecord
  2
*D1
  0
BLOCK_RECORD
  5
6E5
330
1
100
AcDbSymbolTableRecord
100
AcDbBlockTableRecord
  2
*D2
  0
BLOCK_RECORD
  5
6F4
330
1
100
AcDbSymbolTableRecord
100
AcDbBlockTableRecord
  2
*D3
  0
BLOCK_RECORD
  5
715
330
1
100
AcDbSymbolTableRecord
100
AcDbBlockTableRecord
  2
*D4
  0
BLOCK_RECORD
  5
724
330
1
100
AcDbSymbolTableRecord
100
AcDbBlockTableRecord
  2
*D5
  0
BLOCK_RECORD
  5
740
330
1
100
AcDbSymbolTableRecord
100
AcDbBlockTableRecord
  2
*D6
  0
BLOCK_RECORD
  5
75C
330
1
100
AcDbSymbolTableRecord
100
AcDbBlockTableRecord
  2
*D7
  0
BLOCK_RECORD
  5
76A
330
1
100
AcDbSymbolTableRecord
100
AcDbBlockTableRecord
  2
*D8
  0
BLOCK_RECORD
  5
777
330
1
100
AcDbSymbolTableRecord
100
AcDbBlockTableRecord
  2
*D9
  0
BLOCK_RECORD
  5
784
330
1
100
AcDbSymbolTableRecord
100
AcDbBlockTableRecord
  2
*D10
  0
BLOCK_RECORD
  5
793
330
1
100
AcDbSymbolTableRecord
100
AcDbBlockTableRecord
  2
*D11
  0
BLOCK_RECORD
  5
7A0
330
1
100
AcDbSymbolTableRecord
100
AcDbBlockTableRecord
  2
*D12
  0
BLOCK_RECORD
  5
7AD
330
1
100
AcDbSymbolTableRecord
100
AcDbBlockTableRecord
  2
*D13
  0
BLOCK_RECORD
  5
7BC
330
1
100
AcDbSymbolTableRecord
100
AcDbBlockTableRecord
  2
*D14
  0
BLOCK_RECORD
  5
7C9
330
1
100
AcDbSymbolTableRecord
100
AcDbBlockTableRecord
  2
*D15
  0
BLOCK_RECORD
  5
7E5
330
1
100
AcDbSymbolTableRecord
100
AcDbBlockTableRecord
  2
*D16
  0
BLOCK_RECORD
  5
7F4
330
1
100
AcDbSymbolTableRecord
100
AcDbBlockTableRecord
  2
*D17
  0
BLOCK_RECORD
  5
801
330
1
100
AcDbSymbolTableRecord
100
AcDbBlockTableRecord
  2
*D18
  0
BLOCK_RECORD
  5
80E
330
1
100
AcDbSymbolTableRecord
100
AcDbBlockTableRecord
  2
*D19
  0
BLOCK_RECORD
  5
81B
330
1
100
AcDbSymbolTableRecord
100
AcDbBlockTableRecord
  2
*D20
  0
BLOCK_RECORD
  5
82A
330
1
100
AcDbSymbolTableRecord
100
AcDbBlockTableRecord
  2
*D21
  0
BLOCK_RECORD
  5
90A
330
1
100
AcDbSymbolTableRecord
100
AcDbBlockTableRecord
  2
*D22
  0
BLOCK_RECORD
  5
919
330
1
100
AcDbSymbolTableRecord
100
AcDbBlockTableRecord
  2
*D23
  0
BLOCK_RECORD
  5
C1A
330
1
100
AcDbSymbolTableRecord
100
AcDbBlockTableRecord
  2
_DOTSMALL
1001
CONTENTBLOCKICON
1071
        0
1004
2800000020000000200000000100080000000000000400000000000000000000000000000000000000000000000080000080000000808000800000008000800080800000C0C0C000C0DCC000F0CAA6000020400000206000002080000020A0000020C0000020E00000400000004020000040400000406000004080000040A0
1004
000040C0000040E00000600000006020000060400000606000006080000060A0000060C0000060E00000800000008020000080400000806000008080000080A0000080C0000080E00000A0000000A0200000A0400000A0600000A0800000A0A00000A0C00000A0E00000C0000000C0200000C0400000C0600000C0800000C0
1004
A00000C0C00000C0E00000E0000000E0200000E0400000E0600000E0800000E0A00000E0C00000E0E00040000000400020004000400040006000400080004000A0004000C0004000E00040200000402020004020400040206000402080004020A0004020C0004020E000404000004040200040404000404060004040800040
1004
40A0004040C0004040E00040600000406020004060400040606000406080004060A0004060C0004060E00040800000408020004080400040806000408080004080A0004080C0004080E00040A0000040A0200040A0400040A0600040A0800040A0A00040A0C00040A0E00040C0000040C0200040C0400040C0600040C08000
1004
40C0A00040C0C00040C0E00040E0000040E0200040E0400040E0600040E0800040E0A00040E0C00040E0E00080000000800020008000400080006000800080008000A0008000C0008000E00080200000802020008020400080206000802080008020A0008020C0008020E00080400000804020008040400080406000804080
1004
008040A0008040C0008040E00080600000806020008060400080606000806080008060A0008060C0008060E00080800000808020008080400080806000808080008080A0008080C0008080E00080A0000080A0200080A0400080A0600080A0800080A0A00080A0C00080A0E00080C0000080C0200080C0400080C0600080C0
1004
800080C0A00080C0C00080C0E00080E0000080E0200080E0400080E0600080E0800080E0A00080E0C00080E0E000C0000000C0002000C0004000C0006000C0008000C000A000C000C000C000E000C0200000C0202000C0204000C0206000C0208000C020A000C020C000C020E000C0400000C0402000C0404000C0406000C0
1004
408000C040A000C040C000C040E000C0600000C0602000C0604000C0606000C0608000C060A000C060C000C060E000C0800000C0802000C0804000C0806000C0808000C080A000C080C000C080E000C0A00000C0A02000C0A04000C0A06000C0A08000C0A0A000C0A0C000C0A0E000C0C00000C0C02000C0C04000C0C06000
1004
C0C08000C0C0A000F0FBFF00A4A0A000808080000000FF0000FF000000FFFF00FF000000FF00FF00FFFF0000FFFFFF00000000FFFF000000FF0000000000000000000000000000FF000000FFFF00000000000000FFFF0000FF0000000000000000000000000000FF0000FFFF00000000000000000000FFFFFF000000000000
1004
0000000000000000FFFFFF0000000000000000000000000000FFFF000000000000000000000000FFFF00000000000000000000000000000000FF00FFFF0000000000000000FFFF00FF00000000000000000000000000000000FF0000FFFF000000000000FFFF0000FF00000000000000000000000000000000FF00000000FF
1004
FF0000FFFF00000000FF00000000000000000000000000000000FF000000000000FFFF000000000000FF00000000000000000000000000000000FF00000000FFFFFFFFFFFF00000000FF00000000000000000000000000000000FF000000FFFF00000000FFFF000000FF00000000000000000000000000000000FF00FFFF00
1004
00000000000000FFFF00FF00000000000000000000000000000000FFFFFF00000000000000000000FFFFFF000000000000000000000000000000FFFF0000000000000000000000000000FFFF000000000000000000000000FFFF00FF0000000000000000000000000000FF00FFFF0000000000000000FFFF000000FF000000
1004
0000000000000000000000FF000000FFFF000000FFFFFFFF00000000FF0000000000000000000000000000FF00000000FFFFFFFFFFFFFFFF00000000FF0000000000000000000000000000FF00000000FFFFFFFF000000FFFF000000FF0000000000000000000000000000FF000000FFFF0000000000000000FFFF00FF0000
1004
000000000000000000000000FF00FFFF000000000000000000000000FFFF0000000000000000000000000000FFFF000000000000000000000000000000FFFFFF00000000000000000000FFFFFF00000000000000000000000000000000FF00FFFF0000000000000000FFFF00FF00000000000000000000000000000000FF00
1004
0000FFFF00000000FFFF000000FF00000000000000000000000000000000FF00000000FFFFFFFFFFFF00000000FF00000000000000000000000000000000FF000000000000FFFF000000000000FF00000000000000000000000000000000FF00000000FFFF0000FFFF00000000FF00000000000000000000000000000000FF
1004
0000FFFF000000000000FFFF0000FF00000000000000000000000000000000FF00FFFF0000000000000000FFFF00FF00000000000000000000000000000000FFFF000000000000000000000000FFFF0000000000000000000000000000FFFFFF0000000000000000000000000000FFFFFF00000000000000000000FFFF0000
1004
FF0000000000000000000000000000FF0000FFFF00000000000000FFFF000000FF0000000000000000000000000000FF000000FFFF000000
  0
BLOCK_RECORD
  5
C36
330
1
100
AcDbSymbolTableRecord
100
AcDbBlockTableRecord
  2
_NONE
  0
BLOCK_RECORD
  5
10DB
330
1
100
AcDbSymbolTableRecord
100
AcDbBlockTableRecord
  2
*D26
  0
BLOCK_RECORD
  5
11F0
330
1
100
AcDbSymbolTableRecord
100
AcDbBlockTableRecord
  2
*D27
  0
BLOCK_RECORD
  5
11FF
330
1
100
AcDbSymbolTableRecord
100
AcDbBlockTableRecord
  2
*D28
  0
BLOCK_RECORD
  5
120C
330
1
100
AcDbSymbolTableRecord
100
AcDbBlockTableRecord
  2
*D29
  0
ENDTAB
  0
ENDSEC
  0
SECTION
  2
BLOCKS
  0
BLOCK
  5
D
330
A
100
AcDbEntity
  8
0
100
AcDbBlockBegin
  2
*MODEL_SPACE
 70
     0
 10
0.0
 20
0.0
 30
0.0
  3
*MODEL_SPACE
  1

  0
ENDBLK
  5
E
330
A
100
AcDbEntity
  8
0
100
AcDbBlockEnd
  0
BLOCK
  5
F
330
B
100
AcDbEntity
 67
     1
  8
0
100
AcDbBlockBegin
  2
*PAPER_SPACE
 70
     0
 10
0.0
 20
0.0
 30
0.0
  3
*PAPER_SPACE
  1

  0
ENDBLK
  5
10
330
B
100
AcDbEntity
 67
     1
  8
0
100
AcDbBlockEnd
  0
BLOCK
  5
687
330
686
100
AcDbEntity
  8
0
100
AcDbBlockBegin
  2
_OPEN30
 70
     0
 10
0.0
 20
0.0
 30
0.0
  3
_OPEN30
  1

  0
LINE
  5
688
330
686
100
AcDbEntity
  8
0
  6
BYBLOCK
 62
     0
100
AcDbLine
 10
-1.0
 20
0.26794919
 30
0.0
 11
0.0
 21
0.0
 31
0.0
  0
LINE
  5
689
330
686
100
AcDbEntity
  8
0
  6
BYBLOCK
 62
     0
100
AcDbLine
 10
0.0
 20
0.0
 30
0.0
 11
-1.0
 21
-0.26794919
 31
0.0
  0
LINE
  5
68A
330
686
100
AcDbEntity
  8
0
  6
BYBLOCK
 62
     0
100
AcDbLine
 10
0.0
 20
0.0
 30
0.0
 11
-1.0
 21
0.0
 31
0.0
  0
ENDBLK
  5
68B
330
686
100
AcDbEntity
  8
0
100
AcDbBlockEnd
  0
BLOCK
  5
6E2
330
6D8
100
AcDbEntity
  8
0
100
AcDbBlockBegin
  2
*D1
 70
     1
 10
0.0
 20
0.0
 30
0.0
  3
*D1
  1

  0
LINE
  5
2CF9
330
6D8
100
AcDbEntity
  8
SUNPOU
100
AcDbLine
 10
198.1000000008973
 20
555.717644150024
 30
0.0
 11
198.1000000008973
 21
571.6850704440872
 31
0.0
  0
LINE
  5
2CFA
330
6D8
100
AcDbEntity
  8
SUNPOU
100
AcDbLine
 10
304.1000000008973
 20
556.7192391291268
 30
0.0
 11
304.1000000008973
 21
571.6850704440872
 31
0.0
  0
LINE
  5
2CFB
330
6D8
100
AcDbEntity
  8
SUNPOU
100
AcDbLine
 10
203.1000000008973
 20
569.6850704440873
 30
0.0
 11
299.1000000008973
 21
569.6850704440873
 31
0.0
  0
INSERT
  5
2CFC
330
6D8
100
AcDbEntity
  8
SUNPOU
100
AcDbBlockReference
  2
_OPEN30
 10
198.1000000008973
 20
569.6850704440873
 30
0.0
 41
5.0
 42
5.0
 43
5.0
 50
180.0
  0
INSERT
  5
2CFD
330
6D8
100
AcDbEntity
  8
SUNPOU
100
AcDbBlockReference
  2
_OPEN30
 10
304.1000000008973
 20
569.6850704440873
 30
0.0
 41
5.0
 42
5.0
 43
5.0
  0
MTEXT
  5
2CFE
330
6D8
100
AcDbEntity
  8
SUNPOU
100
AcDbMText
 10
251.1000000008974
 20
574.1850704440873
 30
0.0
 40
5.0
 41
0.0
 71
     5
 72
     1
  1
\A1;106
  7
SUNPOU
1001
ACAD
1000
MTEXTBEGIN
1070
    73
1070
     1
1070
    44
1040
1.0
1070
    74
1070
     0
1000
MTEXTEND
1000
MTEXTBEGIN
1070
    73
1070
     1
1070
    44
1040
1.0
1070
    74
1070
     0
1000
MTEXTEND
  0
POINT
  5
2CFF
330
6D8
100
AcDbEntity
  8
DEFPOINTS
 62
     0
100
AcDbPoint
 10
198.1000000008973
 20
552.717644150024
 30
0.0
  0
POINT
  5
2D00
330
6D8
100
AcDbEntity
  8
DEFPOINTS
 62
     0
100
AcDbPoint
 10
304.1000000008973
 20
553.7192391291267
 30
0.0
  0
POINT
  5
2D01
330
6D8
100
AcDbEntity
  8
DEFPOINTS
 62
     0
100
AcDbPoint
 10
304.1000000008973
 20
569.6850704440873
 30
0.0
  0
ENDBLK
  5
6E3
330
6D8
100
AcDbEntity
  8
0
100
AcDbBlockEnd
  0
BLOCK
  5
6F1
330
6E5
100
AcDbEntity
  8
0
100
AcDbBlockBegin
  2
*D2
 70
     1
 10
0.0
 20
0.0
 30
0.0
  3
*D2
  1

  0
LINE
  5
2CEE
330
6E5
100
AcDbEntity
  8
SUNPOU
100
AcDbLine
 10
198.1000000008974
 20
404.7176657607018
 30
0.0
 11
198.1000000008974
 21
395.3533236783123
 31
0.0
  0
LINE
  5
2CEF
330
6E5
100
AcDbEntity
  8
SUNPOU
100
AcDbLine
 10
203.0999999991025
 20
409.7176657607018
 30
0.0
 11
203.0999999991025
 21
395.3533236783123
 31
0.0
  0
LINE
  5
2CF0
330
6E5
100
AcDbEntity
  8
SUNPOU
100
AcDbLine
 10
193.1000000008974
 20
397.3533236783124
 30
0.0
 11
188.1000000008974
 21
397.3533236783124
 31
0.0
  0
LINE
  5
2CF1
330
6E5
100
AcDbEntity
  8
SUNPOU
100
AcDbLine
 10
208.0999999991025
 20
397.3533236783124
 30
0.0
 11
213.0999999991025
 21
397.3533236783124
 31
0.0
  0
MTEXT
  5
2CF2
330
6E5
100
AcDbEntity
  8
SUNPOU
100
AcDbMText
 10
190.6131701105381
 20
401.3539983216957
 30
0.0
 40
5.0
 41
0.0
 71
     5
 72
     1
  1
\A1;5
  7
SUNPOU
1001
ACAD
1000
MTEXTBEGIN
1070
    73
1070
     1
1070
    44
1040
1.0
1070
    74
1070
     0
1000
MTEXTEND
1000
MTEXTBEGIN
1070
    73
1070
     1
1070
    44
1040
1.0
1070
    74
1070
     0
1000
MTEXTEND
  0
LINE
  5
2CF3
330
6E5
100
AcDbEntity
  8
SUNPOU
100
AcDbLine
 10
198.1000000008974
 20
397.3533236783124
 30
0.0
 11
203.0999999991025
 21
397.3533236783124
 31
0.0
  0
INSERT
  5
2CF4
330
6E5
100
AcDbEntity
  8
SUNPOU
100
AcDbBlockReference
  2
_OPEN30
 10
198.1000000008974
 20
397.3533236783124
 30
0.0
 41
5.0
 42
5.0
 43
5.0
  0
INSERT
  5
2CF5
330
6E5
100
AcDbEntity
  8
SUNPOU
100
AcDbBlockReference
  2
_OPEN30
 10
203.0999999991025
 20
397.3533236783124
 30
0.0
 41
5.0
 42
5.0
 43
5.0
 50
180.0
  0
POINT
  5
2CF6
330
6E5
100
AcDbEntity
  8
DEFPOINTS
 62
     0
100
AcDbPoint
 10
198.1000000008974
 20
407.7176657607018
 30
0.0
  0
POINT
  5
2CF7
330
6E5
100
AcDbEntity
  8
DEFPOINTS
 62
     0
100
AcDbPoint
 10
203.0999999991025
 20
412.7176657607018
 30
0.0
  0
POINT
  5
2CF8
330
6E5
100
AcDbEntity
  8
DEFPOINTS
 62
     0
100
AcDbPoint
 10
203.0999999991025
 20
397.3533236783124
 30
0.0
  0
ENDBLK
  5
6F2
330
6E5
100
AcDbEntity
  8
0
100
AcDbBlockEnd
  0
BLOCK
  5
6FE
330
6F4
100
AcDbEntity
  8
0
100
AcDbBlockBegin
  2
*D3
 70
     1
 10
0.0
 20
0.0
 30
0.0
  3
*D3
  1

  0
LINE
  5
2CE5
330
6F4
100
AcDbEntity
  8
SUNPOU
100
AcDbLine
 10
203.0999999991025
 20
409.7176657607018
 30
0.0
 11
203.0999999991025
 21
395.3533236783123
 31
0.0
  0
LINE
  5
2CE6
330
6F4
100
AcDbEntity
  8
SUNPOU
100
AcDbLine
 10
243.1000000008974
 20
409.7176657607018
 30
0.0
 11
243.1000000008974
 21
395.3533236783123
 31
0.0
  0
LINE
  5
2CE7
330
6F4
100
AcDbEntity
  8
SUNPOU
100
AcDbLine
 10
208.0999999991025
 20
397.3533236783124
 30
0.0
 11
238.1000000008973
 21
397.3533236783124
 31
0.0
  0
MTEXT
  5
2CE8
330
6F4
100
AcDbEntity
  8
SUNPOU
100
AcDbMText
 10
217.5483552501487
 20
401.8533236783124
 30
0.0
 40
5.0
 41
0.0
 71
     5
 72
     1
  1
\A1;40
  7
SUNPOU
1001
ACAD
1000
MTEXTBEGIN
1070
    73
1070
     1
1070
    44
1040
1.0
1070
    74
1070
     0
1000
MTEXTEND
1000
MTEXTBEGIN
1070
    73
1070
     1
1070
    44
1040
1.0
1070
    74
1070
     0
1000
MTEXTEND
  0
INSERT
  5
2CE9
330
6F4
100
AcDbEntity
  8
SUNPOU
100
AcDbBlockReference
  2
_OPEN30
 10
203.0999999991025
 20
397.3533236783124
 30
0.0
 41
5.0
 42
5.0
 43
5.0
 50
180.0
  0
INSERT
  5
2CEA
330
6F4
100
AcDbEntity
  8
SUNPOU
100
AcDbBlockReference
  2
_OPEN30
 10
243.1000000008974
 20
397.3533236783124
 30
0.0
 41
5.0
 42
5.0
 43
5.0
  0
POINT
  5
2CEB
330
6F4
100
AcDbEntity
  8
DEFPOINTS
 62
     0
100
AcDbPoint
 10
203.0999999991025
 20
412.7176657607018
 30
0.0
  0
POINT
  5
2CEC
330
6F4
100
AcDbEntity
  8
DEFPOINTS
 62
     0
100
AcDbPoint
 10
243.1000000008974
 20
412.7176657607018
 30
0.0
  0
POINT
  5
2CED
330
6F4
100
AcDbEntity
  8
DEFPOINTS
 62
     0
100
AcDbPoint
 10
243.1000000008974
 20
397.3533236783124
 30
0.0
  0
ENDBLK
  5
6FF
330
6F4
100
AcDbEntity
  8
0
100
AcDbBlockEnd
  0
BLOCK
  5
721
330
715
100
AcDbEntity
  8
0
100
AcDbBlockBegin
  2
*D4
 70
     1
 10
0.0
 20
0.0
 30
0.0
  3
*D4
  1

  0
LINE
  5
2CDA
330
715
100
AcDbEntity
  8
SUNPOU
100
AcDbLine
 10
243.1000000008974
 20
409.7176657607018
 30
0.0
 11
243.1000000008974
 21
395.3533236783123
 31
0.0
  0
LINE
  5
2CDB
330
715
100
AcDbEntity
  8
SUNPOU
100
AcDbLine
 10
248.1000000008974
 20
404.7176657607018
 30
0.0
 11
248.1000000008974
 21
395.3533236783123
 31
0.0
  0
LINE
  5
2CDC
330
715
100
AcDbEntity
  8
SUNPOU
100
AcDbLine
 10
238.1000000008973
 20
397.3533236783124
 30
0.0
 11
233.1000000008974
 21
397.3533236783124
 31
0.0
  0
LINE
  5
2CDD
330
715
100
AcDbEntity
  8
SUNPOU
100
AcDbLine
 10
253.1000000008976
 20
397.3533236783124
 30
0.0
 11
258.1000000008974
 21
397.3533236783124
 31
0.0
  0
MTEXT
  5
2CDE
330
715
100
AcDbEntity
  8
SUNPOU
100
AcDbMText
 10
255.7537164638665
 20
401.3331995575438
 30
0.0
 40
5.0
 41
0.0
 71
     5
 72
     1
  1
\A1;5
  7
SUNPOU
1001
ACAD
1000
MTEXTBEGIN
1070
    73
1070
     1
1070
    44
1040
1.0
1070
    74
1070
     0
1000
MTEXTEND
1000
MTEXTBEGIN
1070
    73
1070
     1
1070
    44
1040
1.0
1070
    74
1070
     0
1000
MTEXTEND
  0
LINE
  5
2CDF
330
715
100
AcDbEntity
  8
SUNPOU
100
AcDbLine
 10
243.1000000008974
 20
397.3533236783124
 30
0.0
 11
248.1000000008974
 21
397.3533236783124
 31
0.0
  0
INSERT
  5
2CE0
330
715
100
AcDbEntity
  8
SUNPOU
100
AcDbBlockReference
  2
_OPEN30
 10
243.1000000008974
 20
397.3533236783124
 30
0.0
 41
5.0
 42
5.0
 43
5.0
  0
INSERT
  5
2CE1
330
715
100
AcDbEntity
  8
SUNPOU
100
AcDbBlockReference
  2
_OPEN30
 10
248.1000000008974
 20
397.3533236783124
 30
0.0
 41
5.0
 42
5.0
 43
5.0
 50
180.0
  0
POINT
  5
2CE2
330
715
100
AcDbEntity
  8
DEFPOINTS
 62
     0
100
AcDbPoint
 10
243.1000000008974
 20
412.7176657607018
 30
0.0
  0
POINT
  5
2CE3
330
715
100
AcDbEntity
  8
DEFPOINTS
 62
     0
100
AcDbPoint
 10
248.1000000008974
 20
407.7176657607016
 30
0.0
  0
POINT
  5
2CE4
330
715
100
AcDbEntity
  8
DEFPOINTS
 62
     0
100
AcDbPoint
 10
248.1000000008974
 20
397.3533236783124
 30
0.0
  0
ENDBLK
  5
722
330
715
100
AcDbEntity
  8
0
100
AcDbBlockEnd
  0
BLOCK
  5
72E
330
724
100
AcDbEntity
  8
0
100
AcDbBlockBegin
  2
*D5
 70
     1
 10
0.0
 20
0.0
 30
0.0
  3
*D5
  1

  0
LINE
  5
2CD1
330
724
100
AcDbEntity
  8
SUNPOU
100
AcDbLine
 10
128.1000000008974
 20
404.7176657607018
 30
0.0
 11
128.1000000008974
 21
384.5417436719584
 31
0.0
  0
LINE
  5
2CD2
330
724
100
AcDbEntity
  8
SUNPOU
100
AcDbLine
 10
198.1000000008974
 20
404.7176657607018
 30
0.0
 11
198.1000000008974
 21
384.5417436719584
 31
0.0
  0
LINE
  5
2CD3
330
724
100
AcDbEntity
  8
SUNPOU
100
AcDbLine
 10
133.1000000008974
 20
386.5417436719584
 30
0.0
 11
193.1000000008974
 21
386.5417436719584
 31
0.0
  0
MTEXT
  5
2CD4
330
724
100
AcDbEntity
  8
SUNPOU
100
AcDbMText
 10
157.7266101838104
 20
391.0417436719584
 30
0.0
 40
5.0
 41
0.0
 71
     5
 72
     1
  1
\A1;70
  7
SUNPOU
1001
ACAD
1000
MTEXTBEGIN
1070
    73
1070
     1
1070
    44
1040
1.0
1070
    74
1070
     0
1000
MTEXTEND
1000
MTEXTBEGIN
1070
    73
1070
     1
1070
    44
1040
1.0
1070
    74
1070
     0
1000
MTEXTEND
  0
INSERT
  5
2CD5
330
724
100
AcDbEntity
  8
SUNPOU
100
AcDbBlockReference
  2
_OPEN30
 10
128.1000000008974
 20
386.5417436719584
 30
0.0
 41
5.0
 42
5.0
 43
5.0
 50
180.0
  0
INSERT
  5
2CD6
330
724
100
AcDbEntity
  8
SUNPOU
100
AcDbBlockReference
  2
_OPEN30
 10
198.1000000008974
 20
386.5417436719584
 30
0.0
 41
5.0
 42
5.0
 43
5.0
  0
POINT
  5
2CD7
330
724
100
AcDbEntity
  8
DEFPOINTS
 62
     0
100
AcDbPoint
 10
128.1000000008974
 20
407.7176657607018
 30
0.0
  0
POINT
  5
2CD8
330
724
100
AcDbEntity
  8
DEFPOINTS
 62
     0
100
AcDbPoint
 10
198.1000000008974
 20
407.7176657607018
 30
0.0
  0
POINT
  5
2CD9
330
724
100
AcDbEntity
  8
DEFPOINTS
 62
     0
100
AcDbPoint
 10
198.1000000008974
 20
386.5417436719584
 30
0.0
  0
ENDBLK
  5
72F
330
724
100
AcDbEntity
  8
0
100
AcDbBlockEnd
  0
BLOCK
  5
74A
330
740
100
AcDbEntity
  8
0
100
AcDbBlockBegin
  2
*D6
 70
     1
 10
0.0
 20
0.0
 30
0.0
  3
*D6
  1

  0
LINE
  5
2CC8
330
740
100
AcDbEntity
  8
SUNPOU
100
AcDbLine
 10
198.1000000008974
 20
404.7176657607018
 30
0.0
 11
198.1000000008974
 21
384.5417436719584
 31
0.0
  0
LINE
  5
2CC9
330
740
100
AcDbEntity
  8
SUNPOU
100
AcDbLine
 10
248.1000000008974
 20
404.7190721398964
 30
0.0
 11
248.1000000008974
 21
384.5417436719584
 31
0.0
  0
LINE
  5
2CCA
330
740
100
AcDbEntity
  8
SUNPOU
100
AcDbLine
 10
203.1000000008974
 20
386.5417436719584
 30
0.0
 11
243.1000000008975
 21
386.5417436719584
 31
0.0
  0
MTEXT
  5
2CCB
330
740
100
AcDbEntity
  8
SUNPOU
100
AcDbMText
 10
218.0395320309529
 20
391.0417436719584
 30
0.0
 40
5.0
 41
0.0
 71
     5
 72
     1
  1
\A1;50
  7
SUNPOU
1001
ACAD
1000
MTEXTBEGIN
1070
    73
1070
     1
1070
    44
1040
1.0
1070
    74
1070
     0
1000
MTEXTEND
1000
MTEXTBEGIN
1070
    73
1070
     1
1070
    44
1040
1.0
1070
    74
1070
     0
1000
MTEXTEND
  0
INSERT
  5
2CCC
330
740
100
AcDbEntity
  8
SUNPOU
100
AcDbBlockReference
  2
_OPEN30
 10
198.1000000008974
 20
386.5417436719584
 30
0.0
 41
5.0
 42
5.0
 43
5.0
 50
180.0
  0
INSERT
  5
2CCD
330
740
100
AcDbEntity
  8
SUNPOU
100
AcDbBlockReference
  2
_OPEN30
 10
248.1000000008974
 20
386.5417436719584
 30
0.0
 41
5.0
 42
5.0
 43
5.0
  0
POINT
  5
2CCE
330
740
100
AcDbEntity
  8
DEFPOINTS
 62
     0
100
AcDbPoint
 10
198.1000000008974
 20
407.7176657607018
 30
0.0
  0
POINT
  5
2CCF
330
740
100
AcDbEntity
  8
DEFPOINTS
 62
     0
100
AcDbPoint
 10
248.1000000008974
 20
407.7190721398964
 30
0.0
  0
POINT
  5
2CD0
330
740
100
AcDbEntity
  8
DEFPOINTS
 62
     0
100
AcDbPoint
 10
248.1000000008974
 20
386.5417436719584
 30
0.0
  0
ENDBLK
  5
74B
330
740
100
AcDbEntity
  8
0
100
AcDbBlockEnd
  0
BLOCK
  5
766
330
75C
100
AcDbEntity
  8
0
100
AcDbBlockBegin
  2
*D7
 70
     1
 10
0.0
 20
0.0
 30
0.0
  3
*D7
  1

  0
LINE
  5
2CBF
330
75C
100
AcDbEntity
  8
SUNPOU
100
AcDbLine
 10
248.1000000008974
 20
404.7190721398964
 30
0.0
 11
248.1000000008974
 21
384.5417436719584
 31
0.0
  0
LINE
  5
2CC0
330
75C
100
AcDbEntity
  8
SUNPOU
100
AcDbLine
 10
304.1000000008973
 20
407.7190721398964
 30
0.0
 11
304.1000000008973
 21
384.5417436719584
 31
0.0
  0
LINE
  5
2CC1
330
75C
100
AcDbEntity
  8
SUNPOU
100
AcDbLine
 10
253.1000000008976
 20
386.5417436719584
 30
0.0
 11
299.1000000008973
 21
386.5417436719584
 31
0.0
  0
INSERT
  5
2CC2
330
75C
100
AcDbEntity
  8
SUNPOU
100
AcDbBlockReference
  2
_OPEN30
 10
248.1000000008974
 20
386.5417436719584
 30
0.0
 41
5.0
 42
5.0
 43
5.0
 50
180.0
  0
INSERT
  5
2CC3
330
75C
100
AcDbEntity
  8
SUNPOU
100
AcDbBlockReference
  2
_OPEN30
 10
304.1000000008973
 20
386.5417436719584
 30
0.0
 41
5.0
 42
5.0
 43
5.0
  0
MTEXT
  5
2CC4
330
75C
100
AcDbEntity
  8
SUNPOU
100
AcDbMText
 10
276.1000000008974
 20
391.0417436719584
 30
0.0
 40
5.0
 41
0.0
 71
     5
 72
     1
  1
\A1;56
  7
SUNPOU
1001
ACAD
1000
MTEXTBEGIN
1070
    73
1070
     1
1070
    44
1040
1.0
1070
    74
1070
     0
1000
MTEXTEND
1000
MTEXTBEGIN
1070
    73
1070
     1
1070
    44
1040
1.0
1070
    74
1070
     0
1000
MTEXTEND
  0
POINT
  5
2CC5
330
75C
100
AcDbEntity
  8
DEFPOINTS
 62
     0
100
AcDbPoint
 10
248.1000000008974
 20
407.7190721398964
 30
0.0
  0
POINT
  5
2CC6
330
75C
100
AcDbEntity
  8
DEFPOINTS
 62
     0
100
AcDbPoint
 10
304.1000000008973
 20
410.7190721398963
 30
0.0
  0
POINT
  5
2CC7
330
75C
100
AcDbEntity
  8
DEFPOINTS
 62
     0
100
AcDbPoint
 10
304.1000000008973
 20
386.5417436719584
 30
0.0
  0
ENDBLK
  5
767
330
75C
100
AcDbEntity
  8
0
100
AcDbBlockEnd
  0
BLOCK
  5
774
330
76A
100
AcDbEntity
  8
0
100
AcDbBlockBegin
  2
*D8
 70
     1
 10
0.0
 20
0.0
 30
0.0
  3
*D8
  1

  0
LINE
  5
2CB6
330
76A
100
AcDbEntity
  8
SUNPOU
100
AcDbLine
 10
128.1000000008974
 20
404.7176657607018
 30
0.0
 11
128.1000000008974
 21
372.7472927559361
 31
0.0
  0
LINE
  5
2CB7
330
76A
100
AcDbEntity
  8
SUNPOU
100
AcDbLine
 10
304.1000000008973
 20
405.7190721398963
 30
0.0
 11
304.1000000008973
 21
372.7472927559361
 31
0.0
  0
LINE
  5
2CB8
330
76A
100
AcDbEntity
  8
SUNPOU
100
AcDbLine
 10
133.1000000008974
 20
374.7472927559361
 30
0.0
 11
299.1000000008973
 21
374.7472927559361
 31
0.0
  0
INSERT
  5
2CB9
330
76A
100
AcDbEntity
  8
SUNPOU
100
AcDbBlockReference
  2
_OPEN30
 10
128.1000000008974
 20
374.7472927559361
 30
0.0
 41
5.0
 42
5.0
 43
5.0
 50
180.0
  0
INSERT
  5
2CBA
330
76A
100
AcDbEntity
  8
SUNPOU
100
AcDbBlockReference
  2
_OPEN30
 10
304.1000000008973
 20
374.7472927559361
 30
0.0
 41
5.0
 42
5.0
 43
5.0
  0
MTEXT
  5
2CBB
330
76A
100
AcDbEntity
  8
SUNPOU
100
AcDbMText
 10
216.1000000008974
 20
379.2472927559362
 30
0.0
 40
5.0
 41
0.0
 71
     5
 72
     1
  1
\A1;176
  7
SUNPOU
1001
ACAD
1000
MTEXTBEGIN
1070
    73
1070
     1
1070
    44
1040
1.0
1070
    74
1070
     0
1000
MTEXTEND
1000
MTEXTBEGIN
1070
    73
1070
     1
1070
    44
1040
1.0
1070
    74
1070
     0
1000
MTEXTEND
  0
POINT
  5
2CBC
330
76A
100
AcDbEntity
  8
DEFPOINTS
 62
     0
100
AcDbPoint
 10
128.1000000008974
 20
407.7176657607018
 30
0.0
  0
POINT
  5
2CBD
330
76A
100
AcDbEntity
  8
DEFPOINTS
 62
     0
100
AcDbPoint
 10
304.1000000008973
 20
408.7190721398965
 30
0.0
  0
POINT
  5
2CBE
330
76A
100
AcDbEntity
  8
DEFPOINTS
 62
     0
100
AcDbPoint
 10
304.1000000008973
 20
374.7472927559361
 30
0.0
  0
ENDBLK
  5
775
330
76A
100
AcDbEntity
  8
0
100
AcDbBlockEnd
  0
BLOCK
  5
781
330
777
100
AcDbEntity
  8
0
100
AcDbBlockBegin
  2
*D9
 70
     1
 10
0.0
 20
0.0
 30
0.0
  3
*D9
  1

  0
LINE
  5
2CAD
330
777
100
AcDbEntity
  8
SUNPOU
100
AcDbLine
 10
214.6000000008974
 20
232.7176657607018
 30
0.0
 11
214.6000000008974
 21
220.1679837997057
 31
0.0
  0
LINE
  5
2CAE
330
777
100
AcDbEntity
  8
SUNPOU
100
AcDbLine
 10
231.6000000008973
 20
232.7176657607018
 30
0.0
 11
231.6000000008973
 21
220.1679837997057
 31
0.0
  0
LINE
  5
2CAF
330
777
100
AcDbEntity
  8
SUNPOU
100
AcDbLine
 10
219.6000000008975
 20
222.1679837997057
 30
0.0
 11
226.6000000008975
 21
222.1679837997057
 31
0.0
  0
INSERT
  5
2CB0
330
777
100
AcDbEntity
  8
SUNPOU
100
AcDbBlockReference
  2
_OPEN30
 10
214.6000000008974
 20
222.1679837997057
 30
0.0
 41
5.0
 42
5.0
 43
5.0
 50
180.0
  0
INSERT
  5
2CB1
330
777
100
AcDbEntity
  8
SUNPOU
100
AcDbBlockReference
  2
_OPEN30
 10
231.6000000008973
 20
222.1679837997057
 30
0.0
 41
5.0
 42
5.0
 43
5.0
  0
MTEXT
  5
2CB2
330
777
100
AcDbEntity
  8
SUNPOU
100
AcDbMText
 10
223.1000000008974
 20
226.6679837997056
 30
0.0
 40
5.0
 41
0.0
 71
     5
 72
     1
  1
\A1;17
  7
SUNPOU
1001
ACAD
1000
MTEXTBEGIN
1070
    73
1070
     1
1070
    44
1040
1.0
1070
    74
1070
     0
1000
MTEXTEND
1000
MTEXTBEGIN
1070
    73
1070
     1
1070
    44
1040
1.0
1070
    74
1070
     0
1000
MTEXTEND
  0
POINT
  5
2CB3
330
777
100
AcDbEntity
  8
DEFPOINTS
 62
     0
100
AcDbPoint
 10
214.6000000008974
 20
235.7176657607018
 30
0.0
  0
POINT
  5
2CB4
330
777
100
AcDbEntity
  8
DEFPOINTS
 62
     0
100
AcDbPoint
 10
231.6000000008973
 20
235.7176657607018
 30
0.0
  0
POINT
  5
2CB5
330
777
100
AcDbEntity
  8
DEFPOINTS
 62
     0
100
AcDbPoint
 10
231.6000000008973
 20
222.1679837997057
 30
0.0
  0
ENDBLK
  5
782
330
777
100
AcDbEntity
  8
0
100
AcDbBlockEnd
  0
BLOCK
  5
790
330
784
100
AcDbEntity
  8
0
100
AcDbBlockBegin
  2
*D10
 70
     1
 10
0.0
 20
0.0
 30
0.0
  3
*D10
  1

  0
LINE
  5
2CA2
330
784
100
AcDbEntity
  8
SUNPOU
100
AcDbLine
 10
198.0999999973075
 20
211.7176657607018
 30
0.0
 11
198.0999999973075
 21
201.9451352243883
 31
0.0
  0
LINE
  5
2CA3
330
784
100
AcDbEntity
  8
SUNPOU
100
AcDbLine
 10
203.0999999973075
 20
211.7176657607018
 30
0.0
 11
203.0999999973075
 21
201.9451352243883
 31
0.0
  0
LINE
  5
2CA4
330
784
100
AcDbEntity
  8
SUNPOU
100
AcDbLine
 10
193.0999999973075
 20
203.9451352243883
 30
0.0
 11
188.0999999973075
 21
203.9451352243883
 31
0.0
  0
LINE
  5
2CA5
330
784
100
AcDbEntity
  8
SUNPOU
100
AcDbLine
 10
208.0999999973075
 20
203.9451352243883
 30
0.0
 11
213.0999999973075
 21
203.9451352243883
 31
0.0
  0
MTEXT
  5
2CA6
330
784
100
AcDbEntity
  8
SUNPOU
100
AcDbMText
 10
190.5885325789504
 20
208.4537186417255
 30
0.0
 40
5.0
 41
0.0
 71
     5
 72
     1
  1
\A1;5
  7
SUNPOU
1001
ACAD
1000
MTEXTBEGIN
1070
    73
1070
     1
1070
    44
1040
1.0
1070
    74
1070
     0
1000
MTEXTEND
1000
MTEXTBEGIN
1070
    73
1070
     1
1070
    44
1040
1.0
1070
    74
1070
     0
1000
MTEXTEND
  0
LINE
  5
2CA7
330
784
100
AcDbEntity
  8
SUNPOU
100
AcDbLine
 10
198.0999999973075
 20
203.9451352243883
 30
0.0
 11
203.0999999973075
 21
203.9451352243883
 31
0.0
  0
INSERT
  5
2CA8
330
784
100
AcDbEntity
  8
SUNPOU
100
AcDbBlockReference
  2
_OPEN30
 10
198.0999999973075
 20
203.9451352243883
 30
0.0
 41
5.0
 42
5.0
 43
5.0
  0
INSERT
  5
2CA9
330
784
100
AcDbEntity
  8
SUNPOU
100
AcDbBlockReference
  2
_OPEN30
 10
203.0999999973075
 20
203.9451352243883
 30
0.0
 41
5.0
 42
5.0
 43
5.0
 50
180.0
  0
POINT
  5
2CAA
330
784
100
AcDbEntity
  8
DEFPOINTS
 62
     0
100
AcDbPoint
 10
198.0999999973075
 20
214.7176657607018
 30
0.0
  0
POINT
  5
2CAB
330
784
100
AcDbEntity
  8
DEFPOINTS
 62
     0
100
AcDbPoint
 10
203.0999999973075
 20
214.7176657607018
 30
0.0
  0
POINT
  5
2CAC
330
784
100
AcDbEntity
  8
DEFPOINTS
 62
     0
100
AcDbPoint
 10
203.0999999973075
 20
203.9451352243883
 30
0.0
  0
ENDBLK
  5
791
330
784
100
AcDbEntity
  8
0
100
AcDbBlockEnd
  0
BLOCK
  5
79D
330
793
100
AcDbEntity
  8
0
100
AcDbBlockBegin
  2
*D11
 70
     1
 10
0.0
 20
0.0
 30
0.0
  3
*D11
  1

  0
LINE
  5
2C99
330
793
100
AcDbEntity
  8
SUNPOU
100
AcDbLine
 10
203.0999999973075
 20
211.7176657607018
 30
0.0
 11
203.0999999973075
 21
201.9451352243883
 31
0.0
  0
LINE
  5
2C9A
330
793
100
AcDbEntity
  8
SUNPOU
100
AcDbLine
 10
231.0999999973075
 20
211.7176657607018
 30
0.0
 11
231.0999999973075
 21
201.9451352243883
 31
0.0
  0
LINE
  5
2C9B
330
793
100
AcDbEntity
  8
SUNPOU
100
AcDbLine
 10
208.0999999973075
 20
203.9451352243883
 30
0.0
 11
226.0999999973075
 21
203.9451352243883
 31
0.0
  0
MTEXT
  5
2C9C
330
793
100
AcDbEntity
  8
SUNPOU
100
AcDbMText
 10
221.439792637075
 20
208.4451352243883
 30
0.0
 40
5.0
 41
0.0
 71
     5
 72
     1
  1
\A1;28
  7
SUNPOU
1001
ACAD
1000
MTEXTBEGIN
1070
    73
1070
     1
1070
    44
1040
1.0
1070
    74
1070
     0
1000
MTEXTEND
1000
MTEXTBEGIN
1070
    73
1070
     1
1070
    44
1040
1.0
1070
    74
1070
     0
1000
MTEXTEND
  0
INSERT
  5
2C9D
330
793
100
AcDbEntity
  8
SUNPOU
100
AcDbBlockReference
  2
_OPEN30
 10
203.0999999973075
 20
203.9451352243883
 30
0.0
 41
5.0
 42
5.0
 43
5.0
 50
180.0
  0
INSERT
  5
2C9E
330
793
100
AcDbEntity
  8
SUNPOU
100
AcDbBlockReference
  2
_OPEN30
 10
231.0999999973075
 20
203.9451352243883
 30
0.0
 41
5.0
 42
5.0
 43
5.0
  0
POINT
  5
2C9F
330
793
100
AcDbEntity
  8
DEFPOINTS
 62
     0
100
AcDbPoint
 10
203.0999999973075
 20
214.7176657607018
 30
0.0
  0
POINT
  5
2CA0
330
793
100
AcDbEntity
  8
DEFPOINTS
 62
     0
100
AcDbPoint
 10
231.0999999973075
 20
214.7176657607018
 30
0.0
  0
POINT
  5
2CA1
330
793
100
AcDbEntity
  8
DEFPOINTS
 62
     0
100
AcDbPoint
 10
231.0999999973075
 20
203.9451352243883
 30
0.0
  0
ENDBLK
  5
79E
330
793
100
AcDbEntity
  8
0
100
AcDbBlockEnd
  0
BLOCK
  5
7AA
330
7A0
100
AcDbEntity
  8
0
100
AcDbBlockBegin
  2
*D12
 70
     1
 10
0.0
 20
0.0
 30
0.0
  3
*D12
  1

  0
LINE
  5
2C90
330
7A0
100
AcDbEntity
  8
SUNPOU
100
AcDbLine
 10
208.5999999973076
 20
164.7176657607018
 30
0.0
 11
208.5999999973076
 21
153.0165436816036
 31
0.0
  0
LINE
  5
2C91
330
7A0
100
AcDbEntity
  8
SUNPOU
100
AcDbLine
 10
225.5999999973076
 20
164.7176657607018
 30
0.0
 11
225.5999999973076
 21
153.0165436816036
 31
0.0
  0
LINE
  5
2C92
330
7A0
100
AcDbEntity
  8
SUNPOU
100
AcDbLine
 10
213.5999999973076
 20
155.0165436816036
 30
0.0
 11
220.5999999973077
 21
155.0165436816036
 31
0.0
  0
INSERT
  5
2C93
330
7A0
100
AcDbEntity
  8
SUNPOU
100
AcDbBlockReference
  2
_OPEN30
 10
208.5999999973076
 20
155.0165436816036
 30
0.0
 41
5.0
 42
5.0
 43
5.0
 50
180.0
  0
INSERT
  5
2C94
330
7A0
100
AcDbEntity
  8
SUNPOU
100
AcDbBlockReference
  2
_OPEN30
 10
225.5999999973076
 20
155.0165436816036
 30
0.0
 41
5.0
 42
5.0
 43
5.0
  0
MTEXT
  5
2C95
330
7A0
100
AcDbEntity
  8
SUNPOU
100
AcDbMText
 10
217.0999999973076
 20
159.5165436816035
 30
0.0
 40
5.0
 41
0.0
 71
     5
 72
     1
  1
\A1;17
  7
SUNPOU
1001
ACAD
1000
MTEXTBEGIN
1070
    73
1070
     1
1070
    44
1040
1.0
1070
    74
1070
     0
1000
MTEXTEND
1000
MTEXTBEGIN
1070
    73
1070
     1
1070
    44
1040
1.0
1070
    74
1070
     0
1000
MTEXTEND
  0
POINT
  5
2C96
330
7A0
100
AcDbEntity
  8
DEFPOINTS
 62
     0
100
AcDbPoint
 10
208.5999999973076
 20
167.7176657607018
 30
0.0
  0
POINT
  5
2C97
330
7A0
100
AcDbEntity
  8
DEFPOINTS
 62
     0
100
AcDbPoint
 10
225.5999999973076
 20
167.7176657607018
 30
0.0
  0
POINT
  5
2C98
330
7A0
100
AcDbEntity
  8
DEFPOINTS
 62
     0
100
AcDbPoint
 10
225.5999999973076
 20
155.0165436816036
 30
0.0
  0
ENDBLK
  5
7AB
330
7A0
100
AcDbEntity
  8
0
100
AcDbBlockEnd
  0
BLOCK
  5
7B9
330
7AD
100
AcDbEntity
  8
0
100
AcDbBlockBegin
  2
*D13
 70
     1
 10
0.0
 20
0.0
 30
0.0
  3
*D13
  1

  0
LINE
  5
2C85
330
7AD
100
AcDbEntity
  8
SUNPOU
100
AcDbLine
 10
125.1000000008974
 20
407.7176657607019
 30
0.0
 11
105.0834933080978
 21
407.7176657607019
 31
0.0
  0
LINE
  5
2C86
330
7AD
100
AcDbEntity
  8
SUNPOU
100
AcDbLine
 10
190.8000000008975
 20
417.7176446438768
 30
0.0
 11
105.0834933080978
 21
417.7176446438768
 31
0.0
  0
LINE
  5
2C87
330
7AD
100
AcDbEntity
  8
SUNPOU
100
AcDbLine
 10
107.0834933080978
 20
402.7176657607019
 30
0.0
 11
107.0834933080978
 21
397.7176657607019
 31
0.0
  0
LINE
  5
2C88
330
7AD
100
AcDbEntity
  8
SUNPOU
100
AcDbLine
 10
107.0834933080978
 20
422.717644643877
 30
0.0
 11
107.0834933080978
 21
427.717644643877
 31
0.0
  0
LINE
  5
2C89
330
7AD
100
AcDbEntity
  8
SUNPOU
100
AcDbLine
 10
107.0834933080978
 20
407.7176657607019
 30
0.0
 11
107.0834933080978
 21
417.7176446438768
 31
0.0
  0
INSERT
  5
2C8A
330
7AD
100
AcDbEntity
  8
SUNPOU
100
AcDbBlockReference
  2
_OPEN30
 10
107.0834933080978
 20
407.7176657607019
 30
0.0
 41
5.0
 42
5.0
 43
5.0
 50
90.0
  0
INSERT
  5
2C8B
330
7AD
100
AcDbEntity
  8
SUNPOU
100
AcDbBlockReference
  2
_OPEN30
 10
107.0834933080978
 20
417.7176446438768
 30
0.0
 41
5.0
 42
5.0
 43
5.0
 50
270.0
  0
MTEXT
  5
2C8C
330
7AD
100
AcDbEntity
  8
SUNPOU
100
AcDbMText
 10
102.5834933080977
 20
412.7176552022893
 30
0.0
 40
5.0
 41
0.0
 71
     5
 72
     1
  1
\A1;10
  7
SUNPOU
 11
0.0000000000000001
 21
1.0
 31
0.0
1001
ACAD
1000
MTEXTBEGIN
1070
    73
1070
     1
1070
    44
1040
1.0
1070
    74
1070
     0
1000
MTEXTEND
1000
MTEXTBEGIN
1070
    73
1070
     1
1070
    44
1040
1.0
1070
    74
1070
     0
1000
MTEXTEND
  0
POINT
  5
2C8D
330
7AD
100
AcDbEntity
  8
DEFPOINTS
 62
     0
100
AcDbPoint
 10
128.1000000008974
 20
407.7176657607018
 30
0.0
  0
POINT
  5
2C8E
330
7AD
100
AcDbEntity
  8
DEFPOINTS
 62
     0
100
AcDbPoint
 10
193.8000000008974
 20
417.7176446438768
 30
0.0
  0
POINT
  5
2C8F
330
7AD
100
AcDbEntity
  8
DEFPOINTS
 62
     0
100
AcDbPoint
 10
107.0834933080978
 20
417.7176446438768
 30
0.0
  0
ENDBLK
  5
7BA
330
7AD
100
AcDbEntity
  8
0
100
AcDbBlockEnd
  0
BLOCK
  5
7C6
330
7BC
100
AcDbEntity
  8
0
100
AcDbBlockBegin
  2
*D14
 70
     1
 10
0.0
 20
0.0
 30
0.0
  3
*D14
  1

  0
LINE
  5
2C7C
330
7BC
100
AcDbEntity
  8
SUNPOU
100
AcDbLine
 10
190.8000000008975
 20
417.7176446438768
 30
0.0
 11
105.0834933080978
 21
417.7176446438768
 31
0.0
  0
LINE
  5
2C7D
330
7BC
100
AcDbEntity
  8
SUNPOU
100
AcDbLine
 10
125.1000000008974
 20
557.7176657607018
 30
0.0
 11
105.0834933080979
 21
557.7176657607018
 31
0.0
  0
LINE
  5
2C7E
330
7BC
100
AcDbEntity
  8
SUNPOU
100
AcDbLine
 10
107.0834933080978
 20
422.717644643877
 30
0.0
 11
107.0834933080979
 21
552.7176657607018
 31
0.0
  0
INSERT
  5
2C7F
330
7BC
100
AcDbEntity
  8
SUNPOU
100
AcDbBlockReference
  2
_OPEN30
 10
107.0834933080978
 20
417.7176446438768
 30
0.0
 41
5.0
 42
5.0
 43
5.0
 50
270.0
  0
INSERT
  5
2C80
330
7BC
100
AcDbEntity
  8
SUNPOU
100
AcDbBlockReference
  2
_OPEN30
 10
107.0834933080979
 20
557.7176657607018
 30
0.0
 41
5.0
 42
5.0
 43
5.0
 50
90.0
  0
MTEXT
  5
2C81
330
7BC
100
AcDbEntity
  8
SUNPOU
100
AcDbMText
 10
102.5834933080977
 20
487.7176552022893
 30
0.0
 40
5.0
 41
0.0
 71
     5
 72
     1
  1
\A1;直付け台板＝140
  7
SUNPOU
 11
0.0000000000000001
 21
1.0
 31
0.0
1001
ACAD
1000
MTEXTBEGIN
1070
    73
1070
     1
1070
    44
1040
1.0
1070
    74
1070
     0
1000
MTEXTEND
1000
MTEXTBEGIN
1070
    73
1070
     1
1070
    44
1040
1.0
1070
    74
1070
     0
1000
MTEXTEND
  0
POINT
  5
2C82
330
7BC
100
AcDbEntity
  8
DEFPOINTS
 62
     0
100
AcDbPoint
 10
193.8000000008974
 20
417.7176446438768
 30
0.0
  0
POINT
  5
2C83
330
7BC
100
AcDbEntity
  8
DEFPOINTS
 62
     0
100
AcDbPoint
 10
128.1000000008974
 20
557.7176657607018
 30
0.0
  0
POINT
  5
2C84
330
7BC
100
AcDbEntity
  8
DEFPOINTS
 62
     0
100
AcDbPoint
 10
107.0834933080979
 20
557.7176657607018
 30
0.0
  0
ENDBLK
  5
7C7
330
7BC
100
AcDbEntity
  8
0
100
AcDbBlockEnd
  0
BLOCK
  5
7D3
330
7C9
100
AcDbEntity
  8
0
100
AcDbBlockBegin
  2
*D15
 70
     1
 10
0.0
 20
0.0
 30
0.0
  3
*D15
  1

  0
LINE
  5
2C73
330
7C9
100
AcDbEntity
  8
SUNPOU
100
AcDbLine
 10
234.6000000008975
 20
235.7176657607018
 30
0.0
 11
261.8413305316664
 21
235.7176657607018
 31
0.0
  0
LINE
  5
2C74
330
7C9
100
AcDbEntity
  8
SUNPOU
100
AcDbLine
 10
244.3500000008974
 20
260.7176657607016
 30
0.0
 11
261.8413305316664
 21
260.7176657607016
 31
0.0
  0
LINE
  5
2C75
330
7C9
100
AcDbEntity
  8
SUNPOU
100
AcDbLine
 10
259.8413305316664
 20
240.7176657607016
 30
0.0
 11
259.8413305316664
 21
255.7176657607016
 31
0.0
  0
INSERT
  5
2C76
330
7C9
100
AcDbEntity
  8
SUNPOU
100
AcDbBlockReference
  2
_OPEN30
 10
259.8413305316664
 20
235.7176657607018
 30
0.0
 41
5.0
 42
5.0
 43
5.0
 50
270.0
  0
INSERT
  5
2C77
330
7C9
100
AcDbEntity
  8
SUNPOU
100
AcDbBlockReference
  2
_OPEN30
 10
259.8413305316664
 20
260.7176657607016
 30
0.0
 41
5.0
 42
5.0
 43
5.0
 50
90.0
  0
MTEXT
  5
2C78
330
7C9
100
AcDbEntity
  8
SUNPOU
100
AcDbMText
 10
255.3413305316664
 20
248.2176657607018
 30
0.0
 40
5.0
 41
0.0
 71
     5
 72
     1
  1
\A1;25
  7
SUNPOU
 11
0.0000000000000001
 21
1.0
 31
0.0
1001
ACAD
1000
MTEXTBEGIN
1070
    73
1070
     1
1070
    44
1040
1.0
1070
    74
1070
     0
1000
MTEXTEND
1000
MTEXTBEGIN
1070
    73
1070
     1
1070
    44
1040
1.0
1070
    74
1070
     0
1000
MTEXTEND
  0
POINT
  5
2C79
330
7C9
100
AcDbEntity
  8
DEFPOINTS
 62
     0
100
AcDbPoint
 10
231.6000000008973
 20
235.7176657607018
 30
0.0
  0
POINT
  5
2C7A
330
7C9
100
AcDbEntity
  8
DEFPOINTS
 62
     0
100
AcDbPoint
 10
241.3500000008975
 20
260.7176657607016
 30
0.0
  0
POINT
  5
2C7B
330
7C9
100
AcDbEntity
  8
DEFPOINTS
 62
     0
100
AcDbPoint
 10
259.8413305316664
 20
260.7176657607016
 30
0.0
  0
ENDBLK
  5
7D4
330
7C9
100
AcDbEntity
  8
0
100
AcDbBlockEnd
  0
BLOCK
  5
7F1
330
7E5
100
AcDbEntity
  8
0
100
AcDbBlockBegin
  2
*D16
 70
     1
 10
0.0
 20
0.0
 30
0.0
  3
*D16
  1

  0
LINE
  5
2C68
330
7E5
100
AcDbEntity
  8
SUNPOU
100
AcDbLine
 10
245.1000000008975
 20
257.7176657607018
 30
0.0
 11
339.4985703695859
 21
257.7176657607018
 31
0.0
  0
LINE
  5
2C69
330
7E5
100
AcDbEntity
  8
SUNPOU
100
AcDbLine
 10
246.0999999991025
 20
267.7176657607018
 30
0.0
 11
339.4985703695859
 21
267.7176657607018
 31
0.0
  0
LINE
  5
2C6A
330
7E5
100
AcDbEntity
  8
SUNPOU
100
AcDbLine
 10
337.4985703695859
 20
252.7176657607018
 30
0.0
 11
337.4985703695859
 21
247.7176657607018
 31
0.0
  0
LINE
  5
2C6B
330
7E5
100
AcDbEntity
  8
SUNPOU
100
AcDbLine
 10
337.4985703695859
 20
272.7176657607018
 30
0.0
 11
337.4985703695859
 21
277.7176657607018
 31
0.0
  0
LINE
  5
2C6C
330
7E5
100
AcDbEntity
  8
SUNPOU
100
AcDbLine
 10
337.4985703695859
 20
257.7176657607018
 30
0.0
 11
337.4985703695859
 21
267.7176657607018
 31
0.0
  0
INSERT
  5
2C6D
330
7E5
100
AcDbEntity
  8
SUNPOU
100
AcDbBlockReference
  2
_OPEN30
 10
337.4985703695859
 20
257.7176657607018
 30
0.0
 41
5.0
 42
5.0
 43
5.0
 50
90.0
  0
INSERT
  5
2C6E
330
7E5
100
AcDbEntity
  8
SUNPOU
100
AcDbBlockReference
  2
_OPEN30
 10
337.4985703695859
 20
267.7176657607018
 30
0.0
 41
5.0
 42
5.0
 43
5.0
 50
270.0
  0
MTEXT
  5
2C6F
330
7E5
100
AcDbEntity
  8
SUNPOU
100
AcDbMText
 10
332.9985703695858
 20
262.7176657607019
 30
0.0
 40
5.0
 41
0.0
 71
     5
 72
     1
  1
\A1;10
  7
SUNPOU
 11
0.0000000000000001
 21
1.0
 31
0.0
1001
ACAD
1000
MTEXTBEGIN
1070
    73
1070
     1
1070
    44
1040
1.0
1070
    74
1070
     0
1000
MTEXTEND
1000
MTEXTBEGIN
1070
    73
1070
     1
1070
    44
1040
1.0
1070
    74
1070
     0
1000
MTEXTEND
  0
POINT
  5
2C70
330
7E5
100
AcDbEntity
  8
DEFPOINTS
 62
     0
100
AcDbPoint
 10
242.1000000008974
 20
257.7176657607018
 30
0.0
  0
POINT
  5
2C71
330
7E5
100
AcDbEntity
  8
DEFPOINTS
 62
     0
100
AcDbPoint
 10
243.0999999991025
 20
267.7176657607018
 30
0.0
  0
POINT
  5
2C72
330
7E5
100
AcDbEntity
  8
DEFPOINTS
 62
     0
100
AcDbPoint
 10
337.4985703695859
 20
267.7176657607018
 30
0.0
  0
ENDBLK
  5
7F2
330
7E5
100
AcDbEntity
  8
0
100
AcDbBlockEnd
  0
BLOCK
  5
7FE
330
7F4
100
AcDbEntity
  8
0
100
AcDbBlockBegin
  2
*D17
 70
     1
 10
0.0
 20
0.0
 30
0.0
  3
*D17
  1

  0
LINE
  5
2C5F
330
7F4
100
AcDbEntity
  8
SUNPOU
100
AcDbLine
 10
246.0999999991025
 20
267.7176657607018
 30
0.0
 11
339.4985703695859
 21
267.7176657607018
 31
0.0
  0
LINE
  5
2C60
330
7F4
100
AcDbEntity
  8
SUNPOU
100
AcDbLine
 10
246.1000000008974
 20
412.7176657607018
 30
0.0
 11
339.4985703695859
 21
412.7176657607018
 31
0.0
  0
LINE
  5
2C61
330
7F4
100
AcDbEntity
  8
SUNPOU
100
AcDbLine
 10
337.4985703695859
 20
272.7176657607018
 30
0.0
 11
337.4985703695859
 21
407.7176657607018
 31
0.0
  0
INSERT
  5
2C62
330
7F4
100
AcDbEntity
  8
SUNPOU
100
AcDbBlockReference
  2
_OPEN30
 10
337.4985703695859
 20
267.7176657607018
 30
0.0
 41
5.0
 42
5.0
 43
5.0
 50
270.0
  0
INSERT
  5
2C63
330
7F4
100
AcDbEntity
  8
SUNPOU
100
AcDbBlockReference
  2
_OPEN30
 10
337.4985703695859
 20
412.7176657607018
 30
0.0
 41
5.0
 42
5.0
 43
5.0
 50
90.0
  0
MTEXT
  5
2C64
330
7F4
100
AcDbEntity
  8
SUNPOU
100
AcDbMText
 10
332.9985703695858
 20
340.2176657607018
 30
0.0
 40
5.0
 41
0.0
 71
     5
 72
     1
  1
\A1;DH
  7
SUNPOU
 11
0.0000000000000001
 21
1.0
 31
0.0
1001
ACAD
1000
MTEXTBEGIN
1070
    73
1070
     1
1070
    44
1040
1.0
1070
    74
1070
     0
1000
MTEXTEND
1000
MTEXTBEGIN
1070
    73
1070
     1
1070
    44
1040
1.0
1070
    74
1070
     0
1000
MTEXTEND
  0
POINT
  5
2C65
330
7F4
100
AcDbEntity
  8
DEFPOINTS
 62
     0
100
AcDbPoint
 10
243.0999999991025
 20
267.7176657607018
 30
0.0
  0
POINT
  5
2C66
330
7F4
100
AcDbEntity
  8
DEFPOINTS
 62
     0
100
AcDbPoint
 10
243.1000000008974
 20
412.7176657607018
 30
0.0
  0
POINT
  5
2C67
330
7F4
100
AcDbEntity
  8
DEFPOINTS
 62
     0
100
AcDbPoint
 10
337.4985703695859
 20
412.7176657607018
 30
0.0
  0
ENDBLK
  5
7FF
330
7F4
100
AcDbEntity
  8
0
100
AcDbBlockEnd
  0
BLOCK
  5
80B
330
801
100
AcDbEntity
  8
0
100
AcDbBlockBegin
  2
*D18
 70
     1
 10
0.0
 20
0.0
 30
0.0
  3
*D18
  1

  0
LINE
  5
2C56
330
801
100
AcDbEntity
  8
SUNPOU
100
AcDbLine
 10
245.1000000008975
 20
257.7176657607018
 30
0.0
 11
357.835010060362
 21
257.7176657607018
 31
0.0
  0
LINE
  5
2C57
330
801
100
AcDbEntity
  8
SUNPOU
100
AcDbLine
 10
304.1000000008973
 20
407.7190721398964
 30
0.0
 11
357.835010060362
 21
407.7190721398964
 31
0.0
  0
LINE
  5
2C58
330
801
100
AcDbEntity
  8
SUNPOU
100
AcDbLine
 10
355.835010060362
 20
262.7176657607018
 30
0.0
 11
355.835010060362
 21
402.7190721398964
 31
0.0
  0
INSERT
  5
2C59
330
801
100
AcDbEntity
  8
SUNPOU
100
AcDbBlockReference
  2
_OPEN30
 10
355.835010060362
 20
257.7176657607018
 30
0.0
 41
5.0
 42
5.0
 43
5.0
 50
270.0
  0
INSERT
  5
2C5A
330
801
100
AcDbEntity
  8
SUNPOU
100
AcDbBlockReference
  2
_OPEN30
 10
355.835010060362
 20
407.7190721398964
 30
0.0
 41
5.0
 42
5.0
 43
5.0
 50
90.0
  0
MTEXT
  5
2C5B
330
801
100
AcDbEntity
  8
SUNPOU
100
AcDbMText
 10
351.335010060362
 20
332.7183689502991
 30
0.0
 40
5.0
 41
0.0
 71
     5
 72
     1
  1
\A1;H
  7
SUNPOU
 11
0.0000000000000001
 21
1.0
 31
0.0
1001
ACAD
1000
MTEXTBEGIN
1070
    73
1070
     1
1070
    44
1040
1.0
1070
    74
1070
     0
1000
MTEXTEND
1000
MTEXTBEGIN
1070
    73
1070
     1
1070
    44
1040
1.0
1070
    74
1070
     0
1000
MTEXTEND
  0
POINT
  5
2C5C
330
801
100
AcDbEntity
  8
DEFPOINTS
 62
     0
100
AcDbPoint
 10
242.1000000008974
 20
257.7176657607018
 30
0.0
  0
POINT
  5
2C5D
330
801
100
AcDbEntity
  8
DEFPOINTS
 62
     0
100
AcDbPoint
 10
301.1000000008973
 20
407.7190721398964
 30
0.0
  0
POINT
  5
2C5E
330
801
100
AcDbEntity
  8
DEFPOINTS
 62
     0
100
AcDbPoint
 10
355.835010060362
 20
407.7190721398964
 30
0.0
  0
ENDBLK
  5
80C
330
801
100
AcDbEntity
  8
0
100
AcDbBlockEnd
  0
BLOCK
  5
818
330
80E
100
AcDbEntity
  8
0
100
AcDbBlockBegin
  2
*D19
 70
     1
 10
0.0
 20
0.0
 30
0.0
  3
*D19
  1

  0
LINE
  5
2C4D
330
80E
100
AcDbEntity
  8
SUNPOU
100
AcDbLine
 10
304.1000000008973
 20
407.7190721398964
 30
0.0
 11
357.8350100603621
 21
407.7190721398964
 31
0.0
  0
LINE
  5
2C4E
330
80E
100
AcDbEntity
  8
SUNPOU
100
AcDbLine
 10
302.328476408471
 20
557.7191665231414
 30
0.0
 11
357.8350100603621
 21
557.7191665231414
 31
0.0
  0
LINE
  5
2C4F
330
80E
100
AcDbEntity
  8
SUNPOU
100
AcDbLine
 10
355.8350100603621
 20
412.7190721398965
 30
0.0
 11
355.8350100603621
 21
552.7191665231414
 31
0.0
  0
INSERT
  5
2C50
330
80E
100
AcDbEntity
  8
SUNPOU
100
AcDbBlockReference
  2
_OPEN30
 10
355.8350100603621
 20
407.7190721398964
 30
0.0
 41
5.0
 42
5.0
 43
5.0
 50
270.0
  0
INSERT
  5
2C51
330
80E
100
AcDbEntity
  8
SUNPOU
100
AcDbBlockReference
  2
_OPEN30
 10
355.8350100603621
 20
557.7191665231414
 30
0.0
 41
5.0
 42
5.0
 43
5.0
 50
90.0
  0
MTEXT
  5
2C52
330
80E
100
AcDbEntity
  8
SUNPOU
100
AcDbMText
 10
351.335010060362
 20
482.7191193315191
 30
0.0
 40
5.0
 41
0.0
 71
     5
 72
     1
  1
\A1;150
  7
SUNPOU
 11
0.0000000000000001
 21
1.0
 31
0.0
1001
ACAD
1000
MTEXTBEGIN
1070
    73
1070
     1
1070
    44
1040
1.0
1070
    74
1070
     0
1000
MTEXTEND
1000
MTEXTBEGIN
1070
    73
1070
     1
1070
    44
1040
1.0
1070
    74
1070
     0
1000
MTEXTEND
  0
POINT
  5
2C53
330
80E
100
AcDbEntity
  8
DEFPOINTS
 62
     0
100
AcDbPoint
 10
301.1000000008973
 20
407.7190721398964
 30
0.0
  0
POINT
  5
2C54
330
80E
100
AcDbEntity
  8
DEFPOINTS
 62
     0
100
AcDbPoint
 10
299.3284764084709
 20
557.7191665231414
 30
0.0
  0
POINT
  5
2C55
330
80E
100
AcDbEntity
  8
DEFPOINTS
 62
     0
100
AcDbPoint
 10
355.8350100603621
 20
557.7191665231414
 30
0.0
  0
ENDBLK
  5
819
330
80E
100
AcDbEntity
  8
0
100
AcDbBlockEnd
  0
BLOCK
  5
827
330
81B
100
AcDbEntity
  8
0
100
AcDbBlockBegin
  2
*D20
 70
     1
 10
0.0
 20
0.0
 30
0.0
  3
*D20
  1

  0
LINE
  5
2DB3
330
81B
100
AcDbEntity
  8
SUNPOU
100
AcDbLine
 10
245.1000000008975
 20
257.7176657607018
 30
0.0
 11
273.3979611742477
 21
257.7176657607018
 31
0.0
  0
LINE
  5
2DB4
330
81B
100
AcDbEntity
  8
SUNPOU
100
AcDbLine
 10
244.3500000008974
 20
260.7176657607016
 30
0.0
 11
273.3979611742477
 21
260.7176657607016
 31
0.0
  0
LINE
  5
2DB5
330
81B
100
AcDbEntity
  8
SUNPOU
100
AcDbLine
 10
271.3979611742477
 20
252.7176657607018
 30
0.0
 11
271.3979611742477
 21
247.7176657607018
 31
0.0
  0
LINE
  5
2DB6
330
81B
100
AcDbEntity
  8
SUNPOU
100
AcDbLine
 10
271.3979611742477
 20
260.7176657607016
 30
0.0
 11
271.3979611742477
 21
265.7176657607016
 31
0.0
  0
MTEXT
  5
2DB7
330
81B
100
AcDbEntity
  8
SUNPOU
100
AcDbMText
 10
267.3791268200607
 20
249.8620778953088
 30
0.0
 40
5.0
 41
0.0
 71
     5
 72
     1
  1
\A1;3
  7
SUNPOU
 11
0.0000000000000001
 21
1.0
 31
0.0
1001
ACAD
1000
MTEXTBEGIN
1070
    73
1070
     1
1070
    44
1040
1.0
1070
    74
1070
     0
1000
MTEXTEND
1000
MTEXTBEGIN
1070
    73
1070
     1
1070
    44
1040
1.0
1070
    74
1070
     0
1000
MTEXTEND
  0
LINE
  5
2DB8
330
81B
100
AcDbEntity
  8
SUNPOU
100
AcDbLine
 10
271.3979611742477
 20
257.7176657607018
 30
0.0
 11
271.3979611742477
 21
260.7176657607016
 31
0.0
  0
INSERT
  5
2DB9
330
81B
100
AcDbEntity
  8
SUNPOU
100
AcDbBlockReference
  2
_OPEN30
 10
271.3979611742477
 20
257.7176657607018
 30
0.0
 41
5.0
 42
5.0
 43
5.0
 50
90.0
  0
INSERT
  5
2DBA
330
81B
100
AcDbEntity
  8
SUNPOU
100
AcDbBlockReference
  2
_DOTSMALL
 10
271.3979611742477
 20
260.7176657607016
 30
0.0
 41
5.0
 42
5.0
 43
5.0
 50
270.0
  0
POINT
  5
2DBB
330
81B
100
AcDbEntity
  8
DEFPOINTS
 62
     0
100
AcDbPoint
 10
242.1000000008974
 20
257.7176657607018
 30
0.0
  0
POINT
  5
2DBC
330
81B
100
AcDbEntity
  8
DEFPOINTS
 62
     0
100
AcDbPoint
 10
241.3500000008975
 20
260.7176657607016
 30
0.0
  0
POINT
  5
2DBD
330
81B
100
AcDbEntity
  8
DEFPOINTS
 62
     0
100
AcDbPoint
 10
271.3979611742477
 20
260.7176657607016
 30
0.0
  0
ENDBLK
  5
828
330
81B
100
AcDbEntity
  8
0
100
AcDbBlockEnd
  0
BLOCK
  5
836
330
82A
100
AcDbEntity
  8
0
100
AcDbBlockBegin
  2
*D21
 70
     1
 10
0.0
 20
0.0
 30
0.0
  3
*D21
  1

  0
LINE
  5
2DBE
330
82A
100
AcDbEntity
  8
SUNPOU
100
AcDbLine
 10
244.3500000008974
 20
260.7176657607016
 30
0.0
 11
273.3979611742477
 21
260.7176657607016
 31
0.0
  0
LINE
  5
2DBF
330
82A
100
AcDbEntity
  8
SUNPOU
100
AcDbLine
 10
246.0999999991025
 20
267.7176657607018
 30
0.0
 11
273.3979611742477
 21
267.7176657607018
 31
0.0
  0
LINE
  5
2DC0
330
82A
100
AcDbEntity
  8
SUNPOU
100
AcDbLine
 10
271.3979611742477
 20
260.7176657607016
 30
0.0
 11
271.3979611742477
 21
255.7176657607016
 31
0.0
  0
LINE
  5
2DC1
330
82A
100
AcDbEntity
  8
SUNPOU
100
AcDbLine
 10
271.3979611742477
 20
272.7176657607018
 30
0.0
 11
271.3979611742477
 21
277.7176657607018
 31
0.0
  0
LINE
  5
2DC2
330
82A
100
AcDbEntity
  8
SUNPOU
100
AcDbLine
 10
271.3979611742477
 20
260.7176657607016
 30
0.0
 11
271.3979611742477
 21
267.7176657607018
 31
0.0
  0
INSERT
  5
2DC3
330
82A
100
AcDbEntity
  8
SUNPOU
100
AcDbBlockReference
  2
_OPEN30
 10
271.3979611742477
 20
267.7176657607018
 30
0.0
 41
5.0
 42
5.0
 43
5.0
 50
270.0
  0
MTEXT
  5
2DC4
330
82A
100
AcDbEntity
  8
SUNPOU
100
AcDbMText
 10
266.8979611742475
 20
264.2176657607018
 30
0.0
 40
5.0
 41
0.0
 71
     5
 72
     1
  1
\A1;7
  7
SUNPOU
 11
0.0000000000000001
 21
1.0
 31
0.0
1001
ACAD
1000
MTEXTBEGIN
1070
    73
1070
     1
1070
    44
1040
1.0
1070
    74
1070
     0
1000
MTEXTEND
1000
MTEXTBEGIN
1070
    73
1070
     1
1070
    44
1040
1.0
1070
    74
1070
     0
1000
MTEXTEND
  0
POINT
  5
2DC5
330
82A
100
AcDbEntity
  8
DEFPOINTS
 62
     0
100
AcDbPoint
 10
241.3500000008975
 20
260.7176657607016
 30
0.0
  0
POINT
  5
2DC6
330
82A
100
AcDbEntity
  8
DEFPOINTS
 62
     0
100
AcDbPoint
 10
243.0999999991025
 20
267.7176657607018
 30
0.0
  0
POINT
  5
2DC7
330
82A
100
AcDbEntity
  8
DEFPOINTS
 62
     0
100
AcDbPoint
 10
271.3979611742477
 20
267.7176657607018
 30
0.0
  0
ENDBLK
  5
837
330
82A
100
AcDbEntity
  8
0
100
AcDbBlockEnd
  0
BLOCK
  5
916
330
90A
100
AcDbEntity
  8
0
100
AcDbBlockBegin
  2
*D22
 70
     1
 10
0.0
 20
0.0
 30
0.0
  3
*D22
  1

  0
LINE
  5
2DC8
330
90A
100
AcDbEntity
  8
SUNPOU
100
AcDbLine
 10
304.1000000008973
 20
407.7190721398964
 30
0.0
 11
319.5017844923793
 21
407.7190721398964
 31
0.0
  0
LINE
  5
2DC9
330
90A
100
AcDbEntity
  8
SUNPOU
100
AcDbLine
 10
246.1000000008974
 20
412.7176657607018
 30
0.0
 11
319.5017844923793
 21
412.7176657607018
 31
0.0
  0
LINE
  5
2DCA
330
90A
100
AcDbEntity
  8
SUNPOU
100
AcDbLine
 10
317.5017844923793
 20
402.7190721398964
 30
0.0
 11
317.5017844923793
 21
397.7190721398964
 31
0.0
  0
LINE
  5
2DCB
330
90A
100
AcDbEntity
  8
SUNPOU
100
AcDbLine
 10
317.5017844923793
 20
412.7176657607018
 30
0.0
 11
317.5017844923793
 21
417.7176657607018
 31
0.0
  0
MTEXT
  5
2DCC
330
90A
100
AcDbEntity
  8
SUNPOU
100
AcDbMText
 10
313.4242678049736
 20
400.345655523917
 30
0.0
 40
5.0
 41
0.0
 71
     5
 72
     1
  1
\A1;5
  7
SUNPOU
 11
0.0000000000000001
 21
1.0
 31
0.0
1001
ACAD
1000
MTEXTBEGIN
1070
    73
1070
     1
1070
    44
1040
1.0
1070
    74
1070
     0
1000
MTEXTEND
1000
MTEXTBEGIN
1070
    73
1070
     1
1070
    44
1040
1.0
1070
    74
1070
     0
1000
MTEXTEND
  0
LINE
  5
2DCD
330
90A
100
AcDbEntity
  8
SUNPOU
100
AcDbLine
 10
317.5017844923793
 20
407.7190721398964
 30
0.0
 11
317.5017844923793
 21
412.7176657607018
 31
0.0
  0
INSERT
  5
2DCE
330
90A
100
AcDbEntity
  8
SUNPOU
100
AcDbBlockReference
  2
_OPEN30
 10
317.5017844923793
 20
407.7190721398964
 30
0.0
 41
5.0
 42
5.0
 43
5.0
 50
90.0
  0
INSERT
  5
2DCF
330
90A
100
AcDbEntity
  8
SUNPOU
100
AcDbBlockReference
  2
_DOTSMALL
 10
317.5017844923793
 20
412.7176657607018
 30
0.0
 41
5.0
 42
5.0
 43
5.0
 50
270.0
  0
POINT
  5
2DD0
330
90A
100
AcDbEntity
  8
DEFPOINTS
 62
     0
100
AcDbPoint
 10
301.1000000008973
 20
407.7190721398964
 30
0.0
  0
POINT
  5
2DD1
330
90A
100
AcDbEntity
  8
DEFPOINTS
 62
     0
100
AcDbPoint
 10
243.1000000008974
 20
412.7176657607018
 30
0.0
  0
POINT
  5
2DD2
330
90A
100
AcDbEntity
  8
DEFPOINTS
 62
     0
100
AcDbPoint
 10
317.5017844923793
 20
412.7176657607018
 30
0.0
  0
ENDBLK
  5
917
330
90A
100
AcDbEntity
  8
0
100
AcDbBlockEnd
  0
BLOCK
  5
925
330
919
100
AcDbEntity
  8
0
100
AcDbBlockBegin
  2
*D23
 70
     1
 10
0.0
 20
0.0
 30
0.0
  3
*D23
  1

  0
LINE
  5
2DD3
330
919
100
AcDbEntity
  8
SUNPOU
100
AcDbLine
 10
246.1000000008974
 20
412.7176657607018
 30
0.0
 11
319.5017844923793
 21
412.7176657607018
 31
0.0
  0
LINE
  5
2DD4
330
919
100
AcDbEntity
  8
SUNPOU
100
AcDbLine
 10
240.0999999991025
 20
417.7180234121196
 30
0.0
 11
319.5017844923793
 21
417.7180234121196
 31
0.0
  0
LINE
  5
2DD5
330
919
100
AcDbEntity
  8
SUNPOU
100
AcDbLine
 10
317.5017844923793
 20
412.7176657607018
 30
0.0
 11
317.5017844923793
 21
407.7176657607018
 31
0.0
  0
LINE
  5
2DD6
330
919
100
AcDbEntity
  8
SUNPOU
100
AcDbLine
 10
317.5017844923793
 20
422.7180234121195
 30
0.0
 11
317.5017844923793
 21
427.7180234121195
 31
0.0
  0
MTEXT
  5
2DD7
330
919
100
AcDbEntity
  8
SUNPOU
100
AcDbMText
 10
313.4889106255123
 20
424.9779018833621
 30
0.0
 40
5.0
 41
0.0
 71
     5
 72
     1
  1
\A1;5
  7
SUNPOU
 11
0.0000000000000001
 21
1.0
 31
0.0
1001
ACAD
1000
MTEXTBEGIN
1070
    73
1070
     1
1070
    44
1040
1.0
1070
    74
1070
     0
1000
MTEXTEND
1000
MTEXTBEGIN
1070
    73
1070
     1
1070
    44
1040
1.0
1070
    74
1070
     0
1000
MTEXTEND
  0
LINE
  5
2DD8
330
919
100
AcDbEntity
  8
SUNPOU
100
AcDbLine
 10
317.5017844923793
 20
412.7176657607018
 30
0.0
 11
317.5017844923793
 21
417.7180234121196
 31
0.0
  0
INSERT
  5
2DD9
330
919
100
AcDbEntity
  8
SUNPOU
100
AcDbBlockReference
  2
_OPEN30
 10
317.5017844923793
 20
417.7180234121196
 30
0.0
 41
5.0
 42
5.0
 43
5.0
 50
270.0
  0
POINT
  5
2DDA
330
919
100
AcDbEntity
  8
DEFPOINTS
 62
     0
100
AcDbPoint
 10
243.1000000008974
 20
412.7176657607018
 30
0.0
  0
POINT
  5
2DDB
330
919
100
AcDbEntity
  8
DEFPOINTS
 62
     0
100
AcDbPoint
 10
237.0999999991025
 20
417.7180234121196
 30
0.0
  0
POINT
  5
2DDC
330
919
100
AcDbEntity
  8
DEFPOINTS
 62
     0
100
AcDbPoint
 10
317.5017844923793
 20
417.7180234121196
 30
0.0
  0
ENDBLK
  5
926
330
919
100
AcDbEntity
  8
0
100
AcDbBlockEnd
  0
BLOCK
  5
C1C
330
C1A
100
AcDbEntity
  8
0
100
AcDbBlockBegin
  2
_DOTSMALL
 70
     0
 10
0.0
 20
0.0
 30
0.0
  3
_DOTSMALL
  1

  0
POLYLINE
  5
C1B
330
C1A
100
AcDbEntity
  8
0
  6
BYBLOCK
 62
     0
100
AcDb2dPolyline
 66
     1
 10
0.0
 20
0.0
 30
0.0
 70
     1
 40
0.5
 41
0.5
  0
VERTEX
  5
2E76
330
C1B
100
AcDbEntity
  8
0
  6
BYBLOCK
 62
     0
100
AcDbVertex
100
AcDb2dVertex
 10
-0.0625
 20
0.0
 30
0.0
 42
1.0
  0
VERTEX
  5
2E77
330
C1B
100
AcDbEntity
  8
0
  6
BYBLOCK
 62
     0
100
AcDbVertex
100
AcDb2dVertex
 10
0.0625
 20
0.0
 30
0.0
 42
1.0
  0
SEQEND
  5
2E78
330
C1B
100
AcDbEntity
  8
0
  6
BYBLOCK
 62
     0
  0
ENDBLK
  5
C1D
330
C1A
100
AcDbEntity
  8
0
100
AcDbBlockEnd
  0
BLOCK
  5
C37
330
C36
100
AcDbEntity
  8
0
100
AcDbBlockBegin
  2
_NONE
 70
     0
 10
0.0
 20
0.0
 30
0.0
  3
_NONE
  1

  0
ENDBLK
  5
C38
330
C36
100
AcDbEntity
  8
0
100
AcDbBlockEnd
  0
BLOCK
  5
10E5
330
10DB
100
AcDbEntity
  8
0
100
AcDbBlockBegin
  2
*D26
 70
     1
 10
0.0
 20
0.0
 30
0.0
  3
*D26
  1

  0
LINE
  5
2C1A
330
10DB
100
AcDbEntity
  8
SUNPOU
100
AcDbLine
 10
104.0834933080978
 20
257.7176657607018
 30
0.0
 11
105.0834933080978
 21
257.7176657607018
 31
0.0
  0
LINE
  5
2C1B
330
10DB
100
AcDbEntity
  8
SUNPOU
100
AcDbLine
 10
142.6300077354935
 20
327.9431429612285
 30
0.0
 11
105.0834933080978
 21
327.9431429612286
 31
0.0
  0
LINE
  5
2C1C
330
10DB
100
AcDbEntity
  8
SUNPOU
100
AcDbLine
 10
107.0834933080978
 20
262.7176657607018
 30
0.0
 11
107.0834933080978
 21
322.9431429612286
 31
0.0
  0
INSERT
  5
2C1D
330
10DB
100
AcDbEntity
  8
SUNPOU
100
AcDbBlockReference
  2
_OPEN30
 10
107.0834933080978
 20
257.7176657607018
 30
0.0
 41
5.0
 42
5.0
 43
5.0
 50
270.0
  0
INSERT
  5
2C1E
330
10DB
100
AcDbEntity
  8
SUNPOU
100
AcDbBlockReference
  2
_OPEN30
 10
107.0834933080978
 20
327.9431429612286
 30
0.0
 41
5.0
 42
5.0
 43
5.0
 50
90.0
  0
MTEXT
  5
2C1F
330
10DB
100
AcDbEntity
  8
SUNPOU
100
AcDbMText
 10
102.5834933080977
 20
292.8304043609652
 30
0.0
 40
5.0
 41
0.0
 71
     5
 72
     1
  1
\A1;600
  7
SUNPOU
 11
0.0000000000000001
 21
1.0
 31
0.0
1001
ACAD
1000
MTEXTBEGIN
1070
    73
1070
     1
1070
    44
1040
1.0
1070
    74
1070
     0
1000
MTEXTEND
1000
MTEXTBEGIN
1070
    73
1070
     1
1070
    44
1040
1.0
1070
    74
1070
     0
1000
MTEXTEND
  0
POINT
  5
2C20
330
10DB
100
AcDbEntity
  8
DEFPOINTS
 62
     0
100
AcDbPoint
 10
107.0834933080978
 20
257.7176657607018
 30
0.0
  0
POINT
  5
2C21
330
10DB
100
AcDbEntity
  8
DEFPOINTS
 62
     0
100
AcDbPoint
 10
145.6300077354935
 20
327.9431429612285
 30
0.0
  0
POINT
  5
2C22
330
10DB
100
AcDbEntity
  8
DEFPOINTS
 62
     0
100
AcDbPoint
 10
107.0834933080978
 20
327.9431429612286
 30
0.0
  0
ENDBLK
  5
10E6
330
10DB
100
AcDbEntity
  8
0
100
AcDbBlockEnd
  0
BLOCK
  5
11FC
330
11F0
100
AcDbEntity
  8
0
100
AcDbBlockBegin
  2
*D27
 70
     1
 10
0.0
 20
0.0
 30
0.0
  3
*D27
  1

  0
LINE
  5
2C0F
330
11F0
100
AcDbEntity
  8
SUNPOU
100
AcDbLine
 10
183.0999999991025
 20
417.7176446438768
 30
0.0
 11
179.1792087575351
 21
417.7176446438768
 31
0.0
  0
LINE
  5
2C10
330
11F0
100
AcDbEntity
  8
SUNPOU
100
AcDbLine
 10
178.179208757535
 20
423.7176657604296
 30
0.0
 11
179.1792087575351
 21
423.7176657604296
 31
0.0
  0
LINE
  5
2C11
330
11F0
100
AcDbEntity
  8
SUNPOU
100
AcDbLine
 10
181.1792087575351
 20
412.7176446438769
 30
0.0
 11
181.1792087575351
 21
407.7176446438769
 31
0.0
  0
LINE
  5
2C12
330
11F0
100
AcDbEntity
  8
SUNPOU
100
AcDbLine
 10
181.1792087575351
 20
428.7176657604296
 30
0.0
 11
181.1792087575351
 21
433.7176657604295
 31
0.0
  0
MTEXT
  5
2C13
330
11F0
100
AcDbEntity
  8
SUNPOU
100
AcDbMText
 10
176.6092328680993
 20
420.7176552021532
 30
0.0
 40
5.0
 41
0.0
 71
     5
 72
     1
  1
\A1;6
  7
SUNPOU
 11
0.0000000000000001
 21
1.0
 31
0.0
1001
ACAD
1000
MTEXTBEGIN
1070
    73
1070
     1
1070
    44
1040
1.0
1070
    74
1070
     0
1000
MTEXTEND
1000
MTEXTBEGIN
1070
    73
1070
     1
1070
    44
1040
1.0
1070
    74
1070
     0
1000
MTEXTEND
  0
LINE
  5
2C14
330
11F0
100
AcDbEntity
  8
SUNPOU
100
AcDbLine
 10
181.1792087575351
 20
417.7176446438768
 30
0.0
 11
181.1792087575351
 21
423.7176657604296
 31
0.0
  0
INSERT
  5
2C15
330
11F0
100
AcDbEntity
  8
SUNPOU
100
AcDbBlockReference
  2
_OPEN30
 10
181.1792087575351
 20
417.7176446438768
 30
0.0
 41
5.0
 42
5.0
 43
5.0
 50
90.0
  0
INSERT
  5
2C16
330
11F0
100
AcDbEntity
  8
SUNPOU
100
AcDbBlockReference
  2
_OPEN30
 10
181.1792087575351
 20
423.7176657604296
 30
0.0
 41
5.0
 42
5.0
 43
5.0
 50
270.0
  0
POINT
  5
2C17
330
11F0
100
AcDbEntity
  8
DEFPOINTS
 62
     0
100
AcDbPoint
 10
186.0999999991025
 20
417.7176446438768
 30
0.0
  0
POINT
  5
2C18
330
11F0
100
AcDbEntity
  8
DEFPOINTS
 62
     0
100
AcDbPoint
 10
181.1792087575351
 20
423.7176657604296
 30
0.0
  0
POINT
  5
2C19
330
11F0
100
AcDbEntity
  8
DEFPOINTS
 62
     0
100
AcDbPoint
 10
181.1792087575351
 20
423.7176657604296
 30
0.0
  0
ENDBLK
  5
11FD
330
11F0
100
AcDbEntity
  8
0
100
AcDbBlockEnd
  0
BLOCK
  5
1209
330
11FF
100
AcDbEntity
  8
0
100
AcDbBlockBegin
  2
*D28
 70
     1
 10
0.0
 20
0.0
 30
0.0
  3
*D28
  1

  0
LINE
  5
2C06
330
11FF
100
AcDbEntity
  8
SUNPOU
100
AcDbLine
 10
180.1792087575351
 20
423.7176657604296
 30
0.0
 11
179.179208757535
 21
423.7176657604296
 31
0.0
  0
LINE
  5
2C07
330
11FF
100
AcDbEntity
  8
SUNPOU
100
AcDbLine
 10
179.5792087593298
 20
460.7180876856387
 30
0.0
 11
179.1792087575351
 21
460.7180876856387
 31
0.0
  0
LINE
  5
2C08
330
11FF
100
AcDbEntity
  8
SUNPOU
100
AcDbLine
 10
181.179208757535
 20
428.7176657604296
 30
0.0
 11
181.1792087575351
 21
455.7180876856389
 31
0.0
  0
INSERT
  5
2C09
330
11FF
100
AcDbEntity
  8
SUNPOU
100
AcDbBlockReference
  2
_OPEN30
 10
181.179208757535
 20
423.7176657604296
 30
0.0
 41
5.0
 42
5.0
 43
5.0
 50
270.0
  0
INSERT
  5
2C0A
330
11FF
100
AcDbEntity
  8
SUNPOU
100
AcDbBlockReference
  2
_OPEN30
 10
181.1792087575351
 20
460.7180876856387
 30
0.0
 41
5.0
 42
5.0
 43
5.0
 50
90.0
  0
MTEXT
  5
2C0B
330
11FF
100
AcDbEntity
  8
SUNPOU
100
AcDbMText
 10
176.679208757535
 20
442.2178767230342
 30
0.0
 40
5.0
 41
0.0
 71
     5
 72
     1
  1
\A1;37
  7
SUNPOU
 11
0.0000000000000001
 21
1.0
 31
0.0
1001
ACAD
1000
MTEXTBEGIN
1070
    73
1070
     1
1070
    44
1040
1.0
1070
    74
1070
     0
1000
MTEXTEND
1000
MTEXTBEGIN
1070
    73
1070
     1
1070
    44
1040
1.0
1070
    74
1070
     0
1000
MTEXTEND
  0
POINT
  5
2C0C
330
11FF
100
AcDbEntity
  8
DEFPOINTS
 62
     0
100
AcDbPoint
 10
183.1792087575351
 20
423.7176657604296
 30
0.0
  0
POINT
  5
2C0D
330
11FF
100
AcDbEntity
  8
DEFPOINTS
 62
     0
100
AcDbPoint
 10
182.5792087593297
 20
460.7180876856387
 30
0.0
  0
POINT
  5
2C0E
330
11FF
100
AcDbEntity
  8
DEFPOINTS
 62
     0
100
AcDbPoint
 10
181.1792087575351
 20
460.7180876856387
 30
0.0
  0
ENDBLK
  5
120A
330
11FF
100
AcDbEntity
  8
0
100
AcDbBlockEnd
  0
BLOCK
  5
1216
330
120C
100
AcDbEntity
  8
0
100
AcDbBlockBegin
  2
*D29
 70
     1
 10
0.0
 20
0.0
 30
0.0
  3
*D29
  1

  0
LINE
  5
2BFD
330
120C
100
AcDbEntity
  8
SUNPOU
100
AcDbLine
 10
184.139016379471
 20
460.7180876856387
 30
0.0
 11
183.1390163794711
 21
460.7180876856387
 31
0.0
  0
LINE
  5
2BFE
330
120C
100
AcDbEntity
  8
SUNPOU
100
AcDbLine
 10
180.179208757535
 20
533.7176448463711
 30
0.0
 11
179.1390163794711
 21
533.7176448463711
 31
0.0
  0
LINE
  5
2BFF
330
120C
100
AcDbEntity
  8
SUNPOU
100
AcDbLine
 10
181.1390163794711
 20
465.7180876856387
 30
0.0
 11
181.1390163794711
 21
528.7176448463712
 31
0.0
  0
MTEXT
  5
2C00
330
120C
100
AcDbEntity
  8
SUNPOU
100
AcDbMText
 10
176.639016379471
 20
510.8646081392411
 30
0.0
 40
5.0
 41
0.0
 71
     5
 72
     1
  1
\A1;73
  7
SUNPOU
 11
0.0000000000000001
 21
1.0
 31
0.0
1001
ACAD
1000
MTEXTBEGIN
1070
    73
1070
     1
1070
    44
1040
1.0
1070
    74
1070
     0
1000
MTEXTEND
1000
MTEXTBEGIN
1070
    73
1070
     1
1070
    44
1040
1.0
1070
    74
1070
     0
1000
MTEXTEND
  0
INSERT
  5
2C01
330
120C
100
AcDbEntity
  8
SUNPOU
100
AcDbBlockReference
  2
_OPEN30
 10
181.1390163794711
 20
460.7180876856387
 30
0.0
 41
5.0
 42
5.0
 43
5.0
 50
270.0
  0
INSERT
  5
2C02
330
120C
100
AcDbEntity
  8
SUNPOU
100
AcDbBlockReference
  2
_OPEN30
 10
181.1390163794711
 20
533.7176448463711
 30
0.0
 41
5.0
 42
5.0
 43
5.0
 50
90.0
  0
POINT
  5
2C03
330
120C
100
AcDbEntity
  8
DEFPOINTS
 62
     0
100
AcDbPoint
 10
181.139016379471
 20
460.7180876856387
 30
0.0
  0
POINT
  5
2C04
330
120C
100
AcDbEntity
  8
DEFPOINTS
 62
     0
100
AcDbPoint
 10
183.179208757535
 20
533.7176448463711
 30
0.0
  0
POINT
  5
2C05
330
120C
100
AcDbEntity
  8
DEFPOINTS
 62
     0
100
AcDbPoint
 10
181.1390163794711
 20
533.7176448463711
 30
0.0
  0
ENDBLK
  5
1217
330
120C
100
AcDbEntity
  8
0
100
AcDbBlockEnd
  0
ENDSEC
  0
SECTION
  2
ENTITIES
  0
LINE
  5
26D
330
A
100
AcDbEntity
  8
03
100
AcDbLine
 10
128.1000000008974
 20
407.7176657607018
 30
0.0
 11
128.1000000008974
 21
557.7176657607018
 31
0.0
  0
LINE
  5
26E
330
A
100
AcDbEntity
  8
03
100
AcDbLine
 10
198.1000000008974
 20
557.7176657607018
 30
0.0
 11
198.1000000008974
 21
417.7176657607018
 31
0.0
  0
LINE
  5
26F
330
A
100
AcDbEntity
  8
03
100
AcDbLine
 10
196.1000000008974
 20
554.1176657607016
 30
0.0
 11
196.1000000008974
 21
411.3176657607017
 31
0.0
  0
LINE
  5
270
330
A
100
AcDbEntity
  8
03
100
AcDbLine
 10
155.7000000008974
 20
424.7176657607018
 30
0.0
 11
170.5000000008975
 21
424.7176657607018
 31
0.0
  0
LINE
  5
271
330
A
100
AcDbEntity
  8
03
100
AcDbLine
 10
194.5000000008974
 20
409.7176657607018
 30
0.0
 11
175.7000000008974
 21
409.7176657607018
 31
0.0
  0
LINE
  5
272
330
A
100
AcDbEntity
  8
03
100
AcDbLine
 10
198.1000000008974
 20
407.7176657607018
 30
0.0
 11
128.1000000008974
 21
407.7176657607018
 31
0.0
  0
LINE
  5
274
330
A
100
AcDbEntity
  8
03
100
AcDbLine
 10
128.1000000008974
 20
534.7176657607018
 30
0.0
 11
170.5000000008975
 21
534.7176657607018
 31
0.0
  0
LINE
  5
275
330
A
100
AcDbEntity
  8
03
100
AcDbLine
 10
128.1000000008974
 20
557.7176657607018
 30
0.0
 11
154.1000000008974
 21
557.7176657607018
 31
0.0
  0
LINE
  5
276
330
A
100
AcDbEntity
  8
03
100
AcDbLine
 10
172.1000000008974
 20
557.7176657607018
 30
0.0
 11
198.1000000008974
 21
557.7176657607018
 31
0.0
  0
LINE
  5
277
330
A
100
AcDbEntity
  8
03
100
AcDbLine
 10
175.7000000008974
 20
555.7176657607018
 30
0.0
 11
194.5000000008974
 21
555.7176657607018
 31
0.0
  0
LINE
  5
278
330
A
100
AcDbEntity
  8
03
100
AcDbLine
 10
172.1000000008974
 20
407.7176657607018
 30
0.0
 11
172.1000000008974
 21
423.1176657607019
 31
0.0
  0
LINE
  5
279
330
A
100
AcDbEntity
  8
03
100
AcDbLine
 10
172.1000000008974
 20
536.3176657607018
 30
0.0
 11
172.1000000008974
 21
557.7176657607018
 31
0.0
  0
LINE
  5
27A
330
A
100
AcDbEntity
  8
03
100
AcDbLine
 10
154.1000000008974
 20
407.7176657607018
 30
0.0
 11
154.1000000008974
 21
423.1176657607019
 31
0.0
  0
LINE
  5
27B
330
A
100
AcDbEntity
  8
03
100
AcDbLine
 10
154.1000000008974
 20
534.7176657607018
 30
0.0
 11
154.1000000008974
 21
557.7176657607018
 31
0.0
  0
LINE
  5
27C
330
A
100
AcDbEntity
  8
03
100
AcDbLine
 10
128.1000000008974
 20
537.7176657607018
 30
0.0
 11
131.1000000008974
 21
537.7176657607018
 31
0.0
  0
LINE
  5
27D
330
A
100
AcDbEntity
  8
03
100
AcDbLine
 10
132.1000000008974
 20
537.7176657607018
 30
0.0
 11
128.1000000008974
 21
537.7176657607018
 31
0.0
  0
ARC
  5
27E
330
A
100
AcDbEntity
  8
03
100
AcDbCircle
 10
170.5000000008975
 20
536.3176657607018
 30
0.0
 40
1.6
100
AcDbArc
 50
270.0
 51
0.0
  0
ARC
  5
27F
330
A
100
AcDbEntity
  8
03
100
AcDbCircle
 10
194.5000000008974
 20
554.1176657607016
 30
0.0
 40
1.6
100
AcDbArc
 50
0.0
 51
90.0
  0
ARC
  5
280
330
A
100
AcDbEntity
  8
03
100
AcDbCircle
 10
155.7000000008974
 20
423.1176657607019
 30
0.0
 40
1.6
100
AcDbArc
 50
90.0
 51
180.0
  0
ARC
  5
281
330
A
100
AcDbEntity
  8
03
100
AcDbCircle
 10
170.5000000008975
 20
423.1176657607019
 30
0.0
 40
1.6
100
AcDbArc
 50
0.0
 51
90.0
  0
ARC
  5
282
330
A
100
AcDbEntity
  8
03
100
AcDbCircle
 10
194.5000000008974
 20
411.3176657607017
 30
0.0
 40
1.6
100
AcDbArc
 50
270.0
 51
0.0
  0
LINE
  5
283
330
A
100
AcDbEntity
  8
03
100
AcDbLine
 10
203.1000000008974
 20
412.7176657607018
 30
0.0
 11
243.1000000008974
 21
412.7176657607018
 31
0.0
  0
LINE
  5
284
330
A
100
AcDbEntity
  8
SAISEN
100
AcDbLine
 10
49.49209138840071
 20
257.7176657607018
 30
0.0
 11
198.1000000008974
 21
257.7176657607018
 31
0.0
  0
LINE
  5
285
330
A
100
AcDbEntity
  8
SAISEN
100
AcDbLine
 10
242.1000000008974
 20
257.7176657607018
 30
0.0
 11
374.1564147627416
 21
257.7176657607018
 31
0.0
  0
LINE
  5
286
330
A
100
AcDbEntity
  8
03
100
AcDbLine
 10
203.0999999991025
 20
267.7176657607018
 30
0.0
 11
243.0999999991025
 21
267.7176657607018
 31
0.0
  0
LINE
  5
287
330
A
100
AcDbEntity
  8
03
100
AcDbLine
 10
215.6000000008974
 20
267.7176657607018
 30
0.0
 11
215.6000000008975
 21
242.7176657607018
 31
0.0
  0
LINE
  5
288
330
A
100
AcDbEntity
  8
03
100
AcDbLine
 10
230.6000000008975
 20
267.7176657607018
 30
0.0
 11
230.6000000008974
 21
242.7176657607018
 31
0.0
  0
LINE
  5
289
330
A
100
AcDbEntity
  8
03
100
AcDbLine
 10
230.6000000008975
 20
267.7176657607018
 30
0.0
 11
215.6000000008975
 21
242.7176657607018
 31
0.0
  0
LINE
  5
28A
330
A
100
AcDbEntity
  8
03
100
AcDbLine
 10
215.6000000008974
 20
267.7176657607018
 30
0.0
 11
230.6000000008974
 21
242.7176657607018
 31
0.0
  0
LINE
  5
28B
330
A
100
AcDbEntity
  8
03
100
AcDbLine
 10
215.6000000008975
 20
242.7176657607018
 30
0.0
 11
230.6000000008975
 21
242.7176657607018
 31
0.0
  0
LINE
  5
28C
330
A
100
AcDbEntity
  8
03
100
AcDbLine
 10
215.6000000008974
 20
267.7176657607018
 30
0.0
 11
230.6000000008975
 21
267.7176657607018
 31
0.0
  0
LINE
  5
28D
330
A
100
AcDbEntity
  8
03
100
AcDbLine
 10
231.6000000008974
 20
259.9676657607019
 30
0.0
 11
231.6000000008973
 21
235.7176657607018
 31
0.0
  0
LINE
  5
28E
330
A
100
AcDbEntity
  8
03
100
AcDbLine
 10
242.1000000008974
 20
259.9676657607016
 30
0.0
 11
242.1000000008974
 21
250.7176657607018
 31
0.0
  0
LINE
  5
28F
330
A
100
AcDbEntity
  8
03
100
AcDbLine
 10
214.6000000008974
 20
259.9676657607018
 30
0.0
 11
214.6000000008974
 21
235.7176657607018
 31
0.0
  0
LINE
  5
290
330
A
100
AcDbEntity
  8
03
100
AcDbLine
 10
198.1000000008974
 20
259.9676657607018
 30
0.0
 11
198.1000000008974
 21
250.7176657607018
 31
0.0
  0
LINE
  5
291
330
A
100
AcDbEntity
  8
03
100
AcDbLine
 10
241.3500000008975
 20
260.7176657607016
 30
0.0
 11
232.3500000008975
 21
260.7176657607018
 31
0.0
  0
ARC
  5
292
330
A
100
AcDbEntity
  8
03
100
AcDbCircle
 10
232.3500000008975
 20
259.9676657607019
 30
0.0
 40
0.75
100
AcDbArc
 50
89.99999999999884
 51
179.9999999999999
  0
ARC
  5
293
330
A
100
AcDbEntity
  8
03
100
AcDbCircle
 10
241.3500000008975
 20
259.9676657607016
 30
0.0
 40
0.75
100
AcDbArc
 50
0.0
 51
89.9999999999996
  0
LINE
  5
294
330
A
100
AcDbEntity
  8
03
100
AcDbLine
 10
213.8500000008975
 20
260.7176657607018
 30
0.0
 11
198.8500000008975
 21
260.7176657607018
 31
0.0
  0
ARC
  5
295
330
A
100
AcDbEntity
  8
03
100
AcDbCircle
 10
213.8500000008975
 20
259.9676657607018
 30
0.0
 40
0.75
100
AcDbArc
 50
0.0
 51
90.0
  0
ARC
  5
296
330
A
100
AcDbEntity
  8
03
100
AcDbCircle
 10
198.8500000008975
 20
259.9676657607018
 30
0.0
 40
0.75
100
AcDbArc
 50
89.99999999999998
 51
179.9999999999999
  0
LINE
  5
297
330
A
100
AcDbEntity
  8
03
100
AcDbLine
 10
231.6000000008973
 20
235.7176657607018
 30
0.0
 11
214.6000000008974
 21
235.7176657607018
 31
0.0
  0
LINE
  5
298
330
A
100
AcDbEntity
  8
03
100
AcDbLine
 10
238.3000000008975
 20
234.2176657607018
 30
0.0
 11
201.9000000008974
 21
234.2176657607018
 31
0.0
  0
LINE
  5
299
330
A
100
AcDbEntity
  8
03
100
AcDbLine
 10
240.6000000008975
 20
259.2176657607018
 30
0.0
 11
240.6000000008975
 21
232.9176657607018
 31
0.0
  0
LINE
  5
29A
330
A
100
AcDbEntity
  8
03
100
AcDbLine
 10
199.6000000008974
 20
259.2176657607018
 30
0.0
 11
199.6000000008974
 21
232.9176657607018
 31
0.0
  0
LINE
  5
29B
330
A
100
AcDbEntity
  8
03
100
AcDbLine
 10
213.1000000008973
 20
259.2176657607018
 30
0.0
 11
213.1000000008973
 21
234.9676657607018
 31
0.0
  0
ARC
  5
29C
330
A
100
AcDbEntity
  8
03
100
AcDbCircle
 10
213.8500000008974
 20
234.9676657607018
 30
0.0
 40
0.75
100
AcDbArc
 50
179.9999999999999
 51
270.0
  0
LINE
  5
29D
330
A
100
AcDbEntity
  8
03
100
AcDbLine
 10
233.1000000008975
 20
259.2176657607018
 30
0.0
 11
233.1000000008974
 21
234.9676657607019
 31
0.0
  0
ARC
  5
29E
330
A
100
AcDbEntity
  8
03
100
AcDbCircle
 10
232.3500000008974
 20
234.9676657607019
 30
0.0
 40
0.75
100
AcDbArc
 50
270.0000000000001
 51
0.0
  0
LINE
  5
29F
330
A
100
AcDbEntity
  8
03
100
AcDbLine
 10
242.1000000008974
 20
250.7176657607018
 30
0.0
 11
240.6000000008974
 21
250.7176657607018
 31
0.0
  0
LINE
  5
2A0
330
A
100
AcDbEntity
  8
03
100
AcDbLine
 10
199.6000000008974
 20
250.7176657607018
 30
0.0
 11
198.1000000008974
 21
250.7176657607018
 31
0.0
  0
LINE
  5
2A1
330
A
100
AcDbEntity
  8
03
100
AcDbLine
 10
240.6000000008975
 20
259.2176657607018
 30
0.0
 11
233.1000000008975
 21
259.2176657607018
 31
0.0
  0
LINE
  5
2A2
330
A
100
AcDbEntity
  8
03
100
AcDbLine
 10
213.1000000008973
 20
259.2176657607018
 30
0.0
 11
199.6000000008974
 21
259.2176657607018
 31
0.0
  0
LINE
  5
2A3
330
A
100
AcDbEntity
  8
03
100
AcDbLine
 10
239.6000000008974
 20
231.9176657607018
 30
0.0
 11
200.6000000008973
 21
231.9176657607018
 31
0.0
  0
ARC
  5
2A4
330
A
100
AcDbEntity
  8
03
100
AcDbCircle
 10
200.6000000008973
 20
232.9176657607018
 30
0.0
 40
1.0
100
AcDbArc
 50
179.9999999999999
 51
270.0
  0
ARC
  5
2A5
330
A
100
AcDbEntity
  8
03
100
AcDbCircle
 10
239.6000000008974
 20
232.9176657607018
 30
0.0
 40
1.0
100
AcDbArc
 50
270.0
 51
0.0
  0
LINE
  5
2A6
330
A
100
AcDbEntity
  8
03
100
AcDbLine
 10
238.3000000008975
 20
259.2176657607018
 30
0.0
 11
238.3000000008975
 21
234.2176657607018
 31
0.0
  0
LINE
  5
2A7
330
A
100
AcDbEntity
  8
03
100
AcDbLine
 10
201.9000000008974
 20
259.2176657607018
 30
0.0
 11
201.9000000008974
 21
234.2176657607018
 31
0.0
  0
LINE
  5
2A8
330
A
100
AcDbEntity
  8
03
100
AcDbLine
 10
235.367974100918
 20
260.7176657607016
 30
0.0
 11
236.867974100918
 21
259.2176657607016
 31
0.0
  0
LINE
  5
2A9
330
A
100
AcDbEntity
  8
03
100
AcDbLine
 10
208.2112934828797
 20
260.7176657607018
 30
0.0
 11
209.7112934828795
 21
259.2176657607018
 31
0.0
  0
LINE
  5
2AA
330
A
100
AcDbEntity
  8
03
100
AcDbLine
 10
219.7615702306765
 20
235.7176657607016
 30
0.0
 11
221.2615702306765
 21
234.2176657607018
 31
0.0
  0
LINE
  5
2AB
330
A
100
AcDbEntity
  8
03
100
AcDbLine
 10
231.6000000008974
 20
248.3726760273528
 30
0.0
 11
233.1000000008975
 21
246.8726760273529
 31
0.0
  0
LINE
  5
2AC
330
A
100
AcDbEntity
  8
03
100
AcDbLine
 10
213.1000000008974
 20
248.2024581024516
 30
0.0
 11
214.6000000008974
 21
246.7024581024515
 31
0.0
  0
LINE
  5
2AD
330
A
100
AcDbEntity
  8
03
100
AcDbLine
 10
198.1000000008974
 20
254.9072531300268
 30
0.0
 11
199.6000000008974
 21
253.407253130027
 31
0.0
  0
LINE
  5
2AE
330
A
100
AcDbEntity
  8
03
100
AcDbLine
 10
240.6000000008975
 20
255.2482605467186
 30
0.0
 11
242.1000000008974
 21
253.7482605467185
 31
0.0
  0
LINE
  5
2AF
330
A
100
AcDbEntity
  8
03
100
AcDbLine
 10
240.6000000008975
 20
246.3438867129596
 30
0.0
 11
238.3000000008975
 21
248.6438867129595
 31
0.0
  0
LINE
  5
2B0
330
A
100
AcDbEntity
  8
03
100
AcDbLine
 10
240.6000000008975
 20
244.3438867129596
 30
0.0
 11
238.3000000008975
 21
246.6438867129595
 31
0.0
  0
LINE
  5
2B1
330
A
100
AcDbEntity
  8
03
100
AcDbLine
 10
228.9008953589785
 20
234.2176657607018
 30
0.0
 11
231.2008953589784
 21
231.9176657607018
 31
0.0
  0
LINE
  5
2B2
330
A
100
AcDbEntity
  8
03
100
AcDbLine
 10
209.3820311647635
 20
234.2176657607018
 30
0.0
 11
211.6820311647634
 21
231.9176657607018
 31
0.0
  0
LINE
  5
2B3
330
A
100
AcDbEntity
  8
03
100
AcDbLine
 10
199.6000000008974
 20
245.777734580837
 30
0.0
 11
201.9000000008974
 21
243.4777345808369
 31
0.0
  0
LINE
  5
2B4
330
A
100
AcDbEntity
  8
03
100
AcDbLine
 10
226.9008953589785
 20
234.2176657607018
 30
0.0
 11
229.2008953589784
 21
231.9176657607018
 31
0.0
  0
LINE
  5
2B5
330
A
100
AcDbEntity
  8
03
100
AcDbLine
 10
207.3820311647636
 20
234.2176657607018
 30
0.0
 11
209.6820311647634
 21
231.9176657607019
 31
0.0
  0
LINE
  5
2B6
330
A
100
AcDbEntity
  8
03
100
AcDbLine
 10
199.6000000008974
 20
247.7777345808369
 30
0.0
 11
201.9000000008974
 21
245.4777345808369
 31
0.0
  0
LINE
  5
2B7
330
A
100
AcDbEntity
  8
03
100
AcDbLine
 10
208.5999999973075
 20
191.9676657607018
 30
0.0
 11
208.5999999973076
 21
167.7176657607018
 31
0.0
  0
LINE
  5
2B8
330
A
100
AcDbEntity
  8
03
100
AcDbLine
 10
198.0999999973075
 20
191.9676657607016
 30
0.0
 11
198.0999999973077
 21
182.7176657607018
 31
0.0
  0
LINE
  5
2B9
330
A
100
AcDbEntity
  8
03
100
AcDbLine
 10
225.5999999973075
 20
191.9676657607018
 30
0.0
 11
225.5999999973076
 21
167.7176657607018
 31
0.0
  0
LINE
  5
2BA
330
A
100
AcDbEntity
  8
03
100
AcDbLine
 10
242.0999999973076
 20
191.9676657607018
 30
0.0
 11
242.0999999973076
 21
182.7176657607018
 31
0.0
  0
LINE
  5
2BB
330
A
100
AcDbEntity
  8
03
100
AcDbLine
 10
198.8499999973075
 20
192.7176657607016
 30
0.0
 11
207.8499999973075
 21
192.7176657607019
 31
0.0
  0
ARC
  5
2BC
330
A
100
AcDbEntity
  8
03
100
AcDbCircle
 10
207.8499999973077
 20
191.9676657607018
 30
0.0
 40
0.75
100
AcDbArc
 50
0.0000000000000325
 51
90.00000000000119
  0
ARC
  5
2BD
330
A
100
AcDbEntity
  8
03
100
AcDbCircle
 10
198.8499999973075
 20
191.9676657607016
 30
0.0
 40
0.75
100
AcDbArc
 50
90.00000000000044
 51
180.0
  0
LINE
  5
2BE
330
A
100
AcDbEntity
  8
03
100
AcDbLine
 10
226.3499999973075
 20
192.7176657607018
 30
0.0
 11
241.3499999973077
 21
192.7176657607018
 31
0.0
  0
ARC
  5
2BF
330
A
100
AcDbEntity
  8
03
100
AcDbCircle
 10
226.3499999973075
 20
191.9676657607018
 30
0.0
 40
0.75
100
AcDbArc
 50
90.00000000000005
 51
180.0
  0
ARC
  5
2C0
330
A
100
AcDbEntity
  8
03
100
AcDbCircle
 10
241.3499999973077
 20
191.9676657607018
 30
0.0
 40
0.75
100
AcDbArc
 50
0.0000000000000325
 51
90.00000000000005
  0
LINE
  5
2C1
330
A
100
AcDbEntity
  8
03
100
AcDbLine
 10
208.5999999973076
 20
167.7176657607018
 30
0.0
 11
225.5999999973076
 21
167.7176657607018
 31
0.0
  0
LINE
  5
2C2
330
A
100
AcDbEntity
  8
03
100
AcDbLine
 10
201.8999999973077
 20
166.2176657607018
 30
0.0
 11
238.2999999973077
 21
166.2176657607018
 31
0.0
  0
LINE
  5
2C3
330
A
100
AcDbEntity
  8
03
100
AcDbLine
 10
199.5999999973075
 20
191.2176657607018
 30
0.0
 11
199.5999999973076
 21
164.9176657607018
 31
0.0
  0
LINE
  5
2C4
330
A
100
AcDbEntity
  8
03
100
AcDbLine
 10
240.5999999973076
 20
191.2176657607018
 30
0.0
 11
240.5999999973076
 21
164.9176657607018
 31
0.0
  0
LINE
  5
2C5
330
A
100
AcDbEntity
  8
03
100
AcDbLine
 10
227.0999999973076
 20
191.2176657607018
 30
0.0
 11
227.0999999973076
 21
166.9676657607018
 31
0.0
  0
ARC
  5
2C6
330
A
100
AcDbEntity
  8
03
100
AcDbCircle
 10
226.3499999973077
 20
166.9676657607018
 30
0.0
 40
0.75
100
AcDbArc
 50
269.9999999999998
 51
0.0000000000000799
  0
LINE
  5
2C7
330
A
100
AcDbEntity
  8
03
100
AcDbLine
 10
207.0999999973076
 20
191.2176657607018
 30
0.0
 11
207.0999999973076
 21
166.9676657607018
 31
0.0
  0
ARC
  5
2C8
330
A
100
AcDbEntity
  8
03
100
AcDbCircle
 10
207.8499999973077
 20
166.9676657607018
 30
0.0
 40
0.75
100
AcDbArc
 50
180.0
 51
269.9999999999997
  0
LINE
  5
2C9
330
A
100
AcDbEntity
  8
03
100
AcDbLine
 10
198.0999999973077
 20
182.7176657607018
 30
0.0
 11
199.5999999973076
 21
182.7176657607018
 31
0.0
  0
LINE
  5
2CA
330
A
100
AcDbEntity
  8
03
100
AcDbLine
 10
240.5999999973076
 20
182.7176657607018
 30
0.0
 11
242.0999999973076
 21
182.7176657607018
 31
0.0
  0
LINE
  5
2CB
330
A
100
AcDbEntity
  8
03
100
AcDbLine
 10
199.5999999973075
 20
191.2176657607018
 30
0.0
 11
207.0999999973076
 21
191.2176657607018
 31
0.0
  0
LINE
  5
2CC
330
A
100
AcDbEntity
  8
03
100
AcDbLine
 10
227.0999999973076
 20
191.2176657607018
 30
0.0
 11
240.5999999973076
 21
191.2176657607018
 31
0.0
  0
LINE
  5
2CD
330
A
100
AcDbEntity
  8
03
100
AcDbLine
 10
200.5999999973076
 20
163.9176657607018
 30
0.0
 11
239.5999999973076
 21
163.9176657607018
 31
0.0
  0
ARC
  5
2CE
330
A
100
AcDbEntity
  8
03
100
AcDbCircle
 10
239.5999999973076
 20
164.9176657607018
 30
0.0
 40
1.0
100
AcDbArc
 50
269.9999999999999
 51
0.0000000000000799
  0
ARC
  5
2CF
330
A
100
AcDbEntity
  8
03
100
AcDbCircle
 10
200.5999999973076
 20
164.9176657607018
 30
0.0
 40
1.0
100
AcDbArc
 50
180.0
 51
269.9999999999999
  0
LINE
  5
2D0
330
A
100
AcDbEntity
  8
03
100
AcDbLine
 10
201.8999999973077
 20
191.2176657607018
 30
0.0
 11
201.8999999973077
 21
166.2176657607018
 31
0.0
  0
LINE
  5
2D1
330
A
100
AcDbEntity
  8
03
100
AcDbLine
 10
238.2999999973077
 20
191.2176657607018
 30
0.0
 11
238.2999999973077
 21
166.2176657607018
 31
0.0
  0
LINE
  5
2D2
330
A
100
AcDbEntity
  8
03
100
AcDbLine
 10
204.8320258972871
 20
192.7176657607016
 30
0.0
 11
203.332025897287
 21
191.2176657607016
 31
0.0
  0
LINE
  5
2D3
330
A
100
AcDbEntity
  8
03
100
AcDbLine
 10
231.9887065153253
 20
192.7176657607018
 30
0.0
 11
230.4887065153256
 21
191.2176657607018
 31
0.0
  0
LINE
  5
2D4
330
A
100
AcDbEntity
  8
03
100
AcDbLine
 10
220.4384297675286
 20
167.7176657607017
 30
0.0
 11
218.9384297675286
 21
166.2176657607018
 31
0.0
  0
LINE
  5
2D5
330
A
100
AcDbEntity
  8
03
100
AcDbLine
 10
208.5999999973075
 20
180.3726760273528
 30
0.0
 11
207.0999999973075
 21
178.8726760273529
 31
0.0
  0
LINE
  5
2D6
330
A
100
AcDbEntity
  8
03
100
AcDbLine
 10
227.0999999973075
 20
180.2024581024516
 30
0.0
 11
225.5999999973075
 21
178.7024581024516
 31
0.0
  0
LINE
  5
2D7
330
A
100
AcDbEntity
  8
03
100
AcDbLine
 10
242.0999999973076
 20
186.9072531300266
 30
0.0
 11
240.5999999973076
 21
185.407253130027
 31
0.0
  0
LINE
  5
2D8
330
A
100
AcDbEntity
  8
03
100
AcDbLine
 10
199.5999999973075
 20
187.2482605467184
 30
0.0
 11
198.0999999973077
 21
185.7482605467184
 31
0.0
  0
LINE
  5
2D9
330
A
100
AcDbEntity
  8
03
100
AcDbLine
 10
199.5999999973075
 20
178.3438867129595
 30
0.0
 11
201.8999999973075
 21
180.6438867129595
 31
0.0
  0
LINE
  5
2DA
330
A
100
AcDbEntity
  8
03
100
AcDbLine
 10
199.5999999973075
 20
176.3438867129595
 30
0.0
 11
201.8999999973075
 21
178.6438867129595
 31
0.0
  0
LINE
  5
2DB
330
A
100
AcDbEntity
  8
03
100
AcDbLine
 10
211.2991046392266
 20
166.2176657607018
 30
0.0
 11
208.9991046392265
 21
163.9176657607018
 31
0.0
  0
LINE
  5
2DC
330
A
100
AcDbEntity
  8
03
100
AcDbLine
 10
230.8179688334415
 20
166.2176657607018
 30
0.0
 11
228.5179688334415
 21
163.9176657607018
 31
0.0
  0
LINE
  5
2DD
330
A
100
AcDbEntity
  8
03
100
AcDbLine
 10
240.5999999973076
 20
177.7777345808369
 30
0.0
 11
238.2999999973077
 21
175.477734580837
 31
0.0
  0
LINE
  5
2DE
330
A
100
AcDbEntity
  8
03
100
AcDbLine
 10
213.2991046392266
 20
166.2176657607018
 30
0.0
 11
210.9991046392265
 21
163.9176657607018
 31
0.0
  0
LINE
  5
2DF
330
A
100
AcDbEntity
  8
03
100
AcDbLine
 10
232.8179688334415
 20
166.2176657607018
 30
0.0
 11
230.5179688334415
 21
163.9176657607018
 31
0.0
  0
LINE
  5
2E0
330
A
100
AcDbEntity
  8
03
100
AcDbLine
 10
240.5999999973076
 20
179.7777345808369
 30
0.0
 11
238.2999999973077
 21
177.4777345808369
 31
0.0
  0
LINE
  5
2E1
330
A
100
AcDbEntity
  8
03
100
AcDbLine
 10
209.5999999973075
 20
199.7176657607018
 30
0.0
 11
209.5999999973075
 21
174.7176657607018
 31
0.0
  0
LINE
  5
2E2
330
A
100
AcDbEntity
  8
03
100
AcDbLine
 10
224.5999999973075
 20
199.7176657607018
 30
0.0
 11
224.5999999973075
 21
174.7176657607018
 31
0.0
  0
LINE
  5
2E3
330
A
100
AcDbEntity
  8
03
100
AcDbLine
 10
224.5999999973075
 20
199.7176657607018
 30
0.0
 11
209.5999999973075
 21
174.7176657607018
 31
0.0
  0
LINE
  5
2E4
330
A
100
AcDbEntity
  8
03
100
AcDbLine
 10
209.5999999973075
 20
199.7176657607018
 30
0.0
 11
224.5999999973075
 21
174.7176657607018
 31
0.0
  0
LINE
  5
2E5
330
A
100
AcDbEntity
  8
03
100
AcDbLine
 10
209.5999999973075
 20
174.7176657607018
 30
0.0
 11
224.5999999973075
 21
174.7176657607018
 31
0.0
  0
LINE
  5
2E6
330
A
100
AcDbEntity
  8
03
100
AcDbLine
 10
209.5999999973075
 20
199.7176657607018
 30
0.0
 11
224.5999999973075
 21
199.7176657607018
 31
0.0
  0
LINE
  5
2E7
330
A
100
AcDbEntity
  8
SAISEN
100
AcDbLine
 10
49.49209138840071
 20
189.7176657607018
 30
0.0
 11
198.1000000008974
 21
189.7176657607018
 31
0.0
  0
LINE
  5
2E8
330
A
100
AcDbEntity
  8
03
100
AcDbLine
 10
128.1000000008974
 20
189.7176657607018
 30
0.0
 11
128.1000000008974
 21
214.7176657607018
 31
0.0
  0
LINE
  5
2E9
330
A
100
AcDbEntity
  8
03
100
AcDbLine
 10
198.0999999973075
 20
189.7176657607018
 30
0.0
 11
198.0999999973075
 21
214.7176657607018
 31
0.0
  0
LINE
  5
2EA
330
A
100
AcDbEntity
  8
03
100
AcDbLine
 10
203.0999999973075
 20
199.7176657607018
 30
0.0
 11
203.0999999973075
 21
214.7176657607018
 31
0.0
  0
LINE
  5
2EB
330
A
100
AcDbEntity
  8
03
100
AcDbLine
 10
231.0999999973075
 20
199.7176657607018
 30
0.0
 11
231.0999999973075
 21
214.7176657607018
 31
0.0
  0
LINE
  5
2EC
330
A
100
AcDbEntity
  8
03
100
AcDbLine
 10
203.0999999973075
 20
199.7176657607018
 30
0.0
 11
231.0999999973075
 21
199.7176657607018
 31
0.0
  0
LINE
  5
2ED
330
A
100
AcDbEntity
  8
03
100
AcDbLine
 10
209.0999999991026
 20
417.2176555283043
 30
0.0
 11
237.0999999991025
 21
417.2176555283043
 31
0.0
  0
LINE
  5
2EE
330
A
100
AcDbEntity
  8
03
100
AcDbLine
 10
237.0999999991025
 20
412.7176555283043
 30
0.0
 11
209.0999999991026
 21
412.7176555283043
 31
0.0
  0
LINE
  5
2EF
330
A
100
AcDbEntity
  8
03
100
AcDbLine
 10
209.0999999991026
 20
412.7176555283043
 30
0.0
 11
209.0999999991026
 21
417.7180234121196
 31
0.0
  0
LINE
  5
2F0
330
A
100
AcDbEntity
  8
03
100
AcDbLine
 10
237.0999999991025
 20
417.7180234121196
 30
0.0
 11
237.0999999991025
 21
412.7176555283043
 31
0.0
  0
LINE
  5
2F1
330
A
100
AcDbEntity
  8
03
100
AcDbLine
 10
209.0999999991026
 20
416.2176555283044
 30
0.0
 11
237.0999999991025
 21
416.2176555283044
 31
0.0
  0
LINE
  5
2F2
330
A
100
AcDbEntity
  8
03
100
AcDbLine
 10
209.0999999991026
 20
415.2176555283045
 30
0.0
 11
237.0999999991025
 21
415.2176555283045
 31
0.0
  0
LINE
  5
2F3
330
A
100
AcDbEntity
  8
03
100
AcDbLine
 10
209.0999999991026
 20
414.2176555283043
 30
0.0
 11
237.0999999991025
 21
414.2176555283043
 31
0.0
  0
LINE
  5
2F4
330
A
100
AcDbEntity
  8
03
100
AcDbLine
 10
198.1000000008974
 20
350.4431429612286
 30
0.0
 11
198.1000000008974
 21
557.7176657607018
 31
0.0
  0
LINE
  5
2F5
330
A
100
AcDbEntity
  8
03
100
AcDbLine
 10
128.1000000008974
 20
350.4431429612286
 30
0.0
 11
128.1000000008974
 21
407.7176657607018
 31
0.0
  0
LINE
  5
2F6
330
A
100
AcDbEntity
  8
03
100
AcDbLine
 10
203.0999999991025
 20
350.4431429612286
 30
0.0
 11
203.0999999991025
 21
412.7176657607018
 31
0.0
  0
LINE
  5
2F7
330
A
100
AcDbEntity
  8
03
100
AcDbLine
 10
243.0999999991025
 20
350.4431429612286
 30
0.0
 11
243.0999999991025
 21
412.7176657607018
 31
0.0
  0
LINE
  5
2F8
330
A
100
AcDbEntity
  8
SAISEN
100
AcDbLine
 10
108.615492767338
 20
350.4431429612286
 30
0.0
 11
253.0463701500607
 21
350.4431429612286
 31
0.0
  0
LINE
  5
2F9
330
A
100
AcDbEntity
  8
SAISEN
100
AcDbLine
 10
108.615492767338
 20
345.4431429612286
 30
0.0
 11
253.0463701500607
 21
345.4431429612286
 31
0.0
  0
LINE
  5
2FA
330
A
100
AcDbEntity
  8
SAISEN
100
AcDbLine
 10
108.615492767338
 20
310.4431429612286
 30
0.0
 11
253.0463701500607
 21
310.4431429612286
 31
0.0
  0
LINE
  5
2FB
330
A
100
AcDbEntity
  8
SAISEN
100
AcDbLine
 10
108.615492767338
 20
305.4431429612286
 30
0.0
 11
253.0463701500607
 21
305.4431429612286
 31
0.0
  0
LINE
  5
2FC
330
A
100
AcDbEntity
  8
03
100
AcDbLine
 10
128.1000000008974
 20
257.7176657607018
 30
0.0
 11
128.1000000008974
 21
305.4431429612286
 31
0.0
  0
LINE
  5
2FD
330
A
100
AcDbEntity
  8
03
100
AcDbLine
 10
128.1000000008974
 20
310.4431429612286
 30
0.0
 11
128.1000000008974
 21
345.4431429612286
 31
0.0
  0
LINE
  5
2FE
330
A
100
AcDbEntity
  8
03
100
AcDbLine
 10
198.1000000008974
 20
257.7176657607018
 30
0.0
 11
198.1000000008974
 21
305.4431429612286
 31
0.0
  0
LINE
  5
2FF
330
A
100
AcDbEntity
  8
03
100
AcDbLine
 10
198.1000000008974
 20
310.4431429612286
 30
0.0
 11
198.1000000008974
 21
345.4431429612286
 31
0.0
  0
LINE
  5
300
330
A
100
AcDbEntity
  8
03
100
AcDbLine
 10
203.0999999991025
 20
267.7176657607018
 30
0.0
 11
203.0999999991025
 21
305.4431429612286
 31
0.0
  0
LINE
  5
301
330
A
100
AcDbEntity
  8
03
100
AcDbLine
 10
203.0999999991025
 20
310.4431429612286
 30
0.0
 11
203.0999999991025
 21
345.4431429612286
 31
0.0
  0
LINE
  5
302
330
A
100
AcDbEntity
  8
03
100
AcDbLine
 10
243.0999999991025
 20
267.7176657607018
 30
0.0
 11
243.0999999991025
 21
305.4431429612286
 31
0.0
  0
LINE
  5
303
330
A
100
AcDbEntity
  8
03
100
AcDbLine
 10
243.0999999991025
 20
310.4431429612286
 30
0.0
 11
243.0999999991025
 21
345.4431429612286
 31
0.0
  0
CIRCLE
  5
304
330
A
100
AcDbEntity
  8
03
100
AcDbCircle
 10
163.1000000008974
 20
327.9431429612285
 30
0.0
 40
6.0
  0
LINE
  5
305
330
A
100
AcDbEntity
  8
SAISEN
100
AcDbLine
 10
242.1000000008974
 20
189.7176657607018
 30
0.0
 11
374.1564147627416
 21
189.7176657607018
 31
0.0
  0
LINE
  5
309
330
A
100
AcDbEntity
  8
03
100
AcDbLine
 10
132.1000000008974
 20
537.7176657607018
 30
0.0
 11
128.1000000008974
 21
534.7176657607018
 31
0.0
  0
LINE
  5
336
330
A
100
AcDbEntity
  8
SAISEN
100
AcDbLine
 10
238.6367005658209
 20
203.0635133816693
 30
0.0
 11
309.1220665338181
 21
203.0635133816693
 31
0.0
  0
LINE
  5
337
330
A
100
AcDbEntity
  8
KAKURE
100
AcDbLine
 10
128.1000000008974
 20
239.7176657607018
 30
0.0
 11
128.1000000008974
 21
257.7176657607018
 31
0.0
  0
LINE
  5
338
330
A
100
AcDbEntity
  8
KAKURE
100
AcDbLine
 10
128.1000000008974
 20
239.7176657607018
 30
0.0
 11
198.1000000008974
 21
239.7176657607018
 31
0.0
  0
LINE
  5
339
330
A
100
AcDbEntity
  8
KAKURE
100
AcDbLine
 10
198.1000000008974
 20
239.7176657607018
 30
0.0
 11
198.1000000008974
 21
257.7176657607018
 31
0.0
  0
LINE
  5
33A
330
A
100
AcDbEntity
  8
KAKURE
100
AcDbLine
 10
128.1000000008974
 20
171.7176657607017
 30
0.0
 11
198.1000000008974
 21
171.7176657607017
 31
0.0
  0
LINE
  5
33B
330
A
100
AcDbEntity
  8
KAKURE
100
AcDbLine
 10
128.1000000008974
 20
171.7176657607017
 30
0.0
 11
128.1000000008974
 21
189.7176657607018
 31
0.0
  0
LINE
  5
33C
330
A
100
AcDbEntity
  8
KAKURE
100
AcDbLine
 10
198.1000000008974
 20
171.7176657607017
 30
0.0
 11
198.1000000008974
 21
189.7176657607018
 31
0.0
  0
LINE
  5
34B
330
A
100
AcDbEntity
  8
CHUSIN
100
AcDbLine
 10
223.0999999991025
 20
230.2731499184175
 30
0.0
 11
223.0999999991025
 21
345.4431429612286
 31
0.0
  0
LINE
  5
34C
330
A
100
AcDbEntity
  8
CHUSIN
100
AcDbLine
 10
223.0999999991025
 20
330.4431429612286
 30
0.0
 11
223.0999999991025
 21
432.2676657604223
 31
0.0
  0
LINE
  5
34D
330
A
100
AcDbEntity
  8
CHUSIN
100
AcDbLine
 10
180.5699922663013
 20
327.9431429612285
 30
0.0
 11
145.6300077354935
 21
327.9431429612285
 31
0.0
  0
LINE
  5
34E
330
A
100
AcDbEntity
  8
CHUSIN
100
AcDbLine
 10
204.0999999991025
 20
423.7176657604296
 30
0.0
 11
183.1792087575351
 21
423.7176657604296
 31
0.0
  0
LINE
  5
34F
330
A
100
AcDbEntity
  8
CHUSIN
100
AcDbLine
 10
182.5792087593297
 20
460.7180876856387
 30
0.0
 11
204.5000000008974
 21
460.7180876856387
 31
0.0
  0
LINE
  5
350
330
A
100
AcDbEntity
  8
CHUSIN
100
AcDbLine
 10
204.6000000008973
 20
533.7176448463714
 30
0.0
 11
182.6792087593299
 21
533.7176448463714
 31
0.0
  0
LINE
  5
351
330
A
100
AcDbEntity
  8
CHUSIN
100
AcDbLine
 10
217.0999999973076
 20
214.7176657607018
 30
0.0
 11
217.0999999973076
 21
162.5485379760176
 31
0.0
  0
LINE
  5
352
330
A
100
AcDbEntity
  8
CHUSIN
100
AcDbLine
 10
163.1000000008974
 20
566.2456942941304
 30
0.0
 11
163.1000000008975
 21
231.5342267841947
 31
0.0
  0
LINE
  5
353
330
A
100
AcDbEntity
  8
CHUSIN
100
AcDbLine
 10
163.1000000008975
 20
214.7176657607018
 30
0.0
 11
163.1000000008975
 21
161.2895858617368
 31
0.0
  0
TEXT
  5
36A
330
A
100
AcDbEntity
  8
MOJI
100
AcDbText
 10
52.50131228359958
 20
262.2176657607018
 30
0.0
 40
5.0
  1
Ｆ.Ｌ
 41
0.8
  7
0_8
 72
     1
 11
57.16797895026624
 21
264.7176657607018
 31
0.0
100
AcDbText
 73
     2
  0
TEXT
  5
36B
330
A
100
AcDbEntity
  8
MOJI
100
AcDbText
 10
52.50131228359958
 20
193.2176657607018
 30
0.0
 40
5.0
  1
Ｆ.Ｌ
 41
0.8
  7
0_8
 72
     1
 11
57.16797895026624
 21
195.7176657607018
 31
0.0
100
AcDbText
 73
     2
  0
TEXT
  5
38F
330
A
100
AcDbEntity
  8
MOJI
100
AcDbText
 10
244.0967005658209
 20
205.0635133816692
 30
0.0
 40
6.0
  1
強化ガラス戸使用の場合
 41
0.8
  7
0_8
 72
     1
 11
275.1367005658209
 21
208.0635133816691
 31
0.0
100
AcDbText
 73
     2
  0
LINE
  5
391
330
A
100
AcDbEntity
  8
02
100
AcDbLine
 10
193.8000000008974
 20
547.7176657607018
 30
0.0
 11
196.1000000008974
 21
547.7176657607018
 31
0.0
  0
LINE
  5
392
330
A
100
AcDbEntity
  8
02
100
AcDbLine
 10
196.1000000008974
 20
417.7176657607018
 30
0.0
 11
193.8000000008974
 21
417.7176657607018
 31
0.0
  0
LINE
  5
393
330
A
100
AcDbEntity
  8
02
100
AcDbLine
 10
193.8000000008974
 20
417.7176657607018
 30
0.0
 11
193.8000000008974
 21
547.7176657607018
 31
0.0
  0
LINE
  5
394
330
A
100
AcDbEntity
  8
02
100
AcDbLine
 10
196.1000000008974
 20
547.7176657607018
 30
0.0
 11
196.1000000008974
 21
417.7176657607018
 31
0.0
  0
LINE
  5
395
330
A
100
AcDbEntity
  8
02
100
AcDbLine
 10
196.1000000008974
 20
536.2904417167616
 30
0.0
 11
193.8000000008974
 21
533.9904417167616
 31
0.0
  0
LINE
  5
396
330
A
100
AcDbEntity
  8
02
100
AcDbLine
 10
196.1000000008974
 20
534.2904417167614
 30
0.0
 11
193.8000000008974
 21
531.9904417167617
 31
0.0
  0
LINE
  5
397
330
A
100
AcDbEntity
  8
02
100
AcDbLine
 10
196.1000000008974
 20
489.7904626326146
 30
0.0
 11
193.8000000008974
 21
487.4904626326146
 31
0.0
  0
LINE
  5
398
330
A
100
AcDbEntity
  8
02
100
AcDbLine
 10
196.1000000008974
 20
487.7904626326146
 30
0.0
 11
193.8000000008974
 21
485.4904626326145
 31
0.0
  0
LINE
  5
399
330
A
100
AcDbEntity
  8
02
100
AcDbLine
 10
196.1000000008974
 20
439.7904626326146
 30
0.0
 11
193.8000000008974
 21
437.4904626326146
 31
0.0
  0
LINE
  5
39A
330
A
100
AcDbEntity
  8
02
100
AcDbLine
 10
196.1000000008974
 20
437.7904626326146
 30
0.0
 11
193.8000000008974
 21
435.4904626326145
 31
0.0
  0
LINE
  5
42C
330
A
100
AcDbEntity
  8
CHUSIN
100
AcDbLine
 10
198.8000000008973
 20
531.2176448463714
 30
0.0
 11
186.6000000008973
 21
531.2176448463714
 31
0.0
  0
LINE
  5
42D
330
A
100
AcDbEntity
  8
CHUSIN
100
AcDbLine
 10
198.8000000008973
 20
536.2176448463713
 30
0.0
 11
186.6000000008973
 21
536.2176448463713
 31
0.0
  0
LINE
  5
42E
330
A
100
AcDbEntity
  8
CHUSIN
 48
0.5
100
AcDbLine
 10
186.6000000008973
 20
531.2176448463714
 30
0.0
 11
186.6000000008973
 21
536.2176448463713
 31
0.0
  0
LINE
  5
42F
330
A
100
AcDbEntity
  8
CHUSIN
100
AcDbLine
 10
198.5000000008973
 20
458.2180876856388
 30
0.0
 11
186.3000000008973
 21
458.2180876856388
 31
0.0
  0
LINE
  5
430
330
A
100
AcDbEntity
  8
CHUSIN
100
AcDbLine
 10
198.5000000008973
 20
463.2180876856388
 30
0.0
 11
186.3000000008973
 21
463.2180876856388
 31
0.0
  0
LINE
  5
431
330
A
100
AcDbEntity
  8
CHUSIN
 48
0.5
100
AcDbLine
 10
186.3000000008973
 20
458.2180876856388
 30
0.0
 11
186.3000000008973
 21
463.2180876856388
 31
0.0
  0
LINE
  5
432
330
A
100
AcDbEntity
  8
CHUSIN
100
AcDbLine
 10
198.2999999991026
 20
421.2176657604295
 30
0.0
 11
186.0999999991025
 21
421.2176657604295
 31
0.0
  0
LINE
  5
433
330
A
100
AcDbEntity
  8
CHUSIN
100
AcDbLine
 10
198.2999999991026
 20
426.2176657604296
 30
0.0
 11
186.0999999991025
 21
426.2176657604296
 31
0.0
  0
LINE
  5
434
330
A
100
AcDbEntity
  8
CHUSIN
 48
0.5
100
AcDbLine
 10
186.0999999991025
 20
421.2176657604295
 30
0.0
 11
186.0999999991025
 21
426.2176657604296
 31
0.0
  0
POLYLINE
  5
691
330
A
100
AcDbEntity
  8
DEFPOINTS
100
AcDb2dPolyline
 66
     1
 10
0.0
 20
0.0
 30
0.0
 70
     1
  0
VERTEX
  5
2E70
330
691
100
AcDbEntity
  8
DEFPOINTS
100
AcDbVertex
100
AcDb2dVertex
 10
0.0
 20
0.0
 30
0.0
  0
VERTEX
  5
2E71
330
691
100
AcDbEntity
  8
DEFPOINTS
100
AcDbVertex
100
AcDb2dVertex
 10
420.0
 20
0.0
 30
0.0
  0
VERTEX
  5
2E72
330
691
100
AcDbEntity
  8
DEFPOINTS
100
AcDbVertex
100
AcDb2dVertex
 10
420.0
 20
594.0
 30
0.0
  0
VERTEX
  5
2E73
330
691
100
AcDbEntity
  8
DEFPOINTS
100
AcDbVertex
100
AcDb2dVertex
 10
0.0
 20
594.0
 30
0.0
  0
SEQEND
  5
2E74
330
691
100
AcDbEntity
  8
DEFPOINTS
  0
TEXT
  5
6AB
330
A
100
AcDbEntity
  8
MOJI
100
AcDbText
 10
35.0
 20
45.49399882926982
 30
0.0
 40
6.0
  1
※　台板専用の戸車を使用する為、質量制限をしています。
 41
0.8
  7
0_8
 11
35.0
 21
51.49399882926982
 31
0.0
100
AcDbText
 73
     3
  0
TEXT
  5
6AC
330
A
100
AcDbEntity
  8
MOJI
100
AcDbText
 10
35.0
 20
54.49399882926985
 30
0.0
 40
6.0
  1
※　伝達機構は◎印が標準、○印はオーダーです。
 41
0.8
  7
0_8
 11
35.0
 21
60.49399882926985
 31
0.0
100
AcDbText
 73
     3
  0
LEADER
  5
6CD
330
A
100
AcDbEntity
  8
HIKIDASI
100
AcDbLeader
  3
SUNPOU_2
 73
     0
 75
     1
 40
21.66666666666666
 41
32.26666666666666
 76
     3
 10
194.8000540759766
 20
472.5711366810791
 30
0.0
 10
170.2336454529975
 20
493.2580194025205
 30
0.0
 10
165.2336454529975
 20
493.2580194025205
 30
0.0
340
6CE
213
0.1336454521001258
223
16.88876198068533
233
0.0
1001
ACAD
1000
DSTYLE
1002
{
1070
     5
1000
OPEN30
1070
    77
1070
     1
1070
   147
1040
1.0
1070
   342
1005
686
1002
}
1000
LEANOF
1010
0.1336454521001258
1020
16.88876198068533
1030
0.0
1000
LEANOF
1010
0.1336454521001258
1020
16.88876198068533
1030
0.0
  0
MTEXT
  5
6CE
330
A
100
AcDbEntity
  8
HIKIDASI
100
AcDbMText
 10
163.1000000008974
 20
478.3692574218352
 30
0.0
 40
5.0
 41
0.0
 71
     9
 72
     1
  1
補強板スチール\P2.3t（通し）\P（サッシ工事）
  7
SUNPOU
1001
ACAD
1000
MTEXTBEGIN
1070
    73
1070
     1
1070
    44
1040
1.0
1070
    74
1070
     0
1000
MTEXTEND
1000
MTEXTBEGIN
1070
    73
1070
     1
1070
    44
1040
1.0
1070
    74
1070
     0
1000
MTEXTEND
  0
LEADER
  5
6D5
330
A
100
AcDbEntity
  8
HIKIDASI
100
AcDbLeader
  3
SUNPOU_2
 73
     0
 74
     0
 75
     1
 40
13.33333333333333
 41
50.93333333333333
 76
     3
 10
241.3500000008975
 20
260.7176657607016
 30
0.0
 10
258.2900286479225
 20
289.9970521143329
 30
0.0
 10
263.2900286479225
 20
289.9970521143329
 30
0.0
340
6D6
213
0.0
223
8.389191395483692
233
0.0
1001
ACAD
1000
DSTYLE
1002
{
1070
     5
1000
OPEN30
1070
    77
1070
     1
1070
   147
1040
1.0
1070
   342
1005
686
1002
}
1000
LEANOF
1010
0.0
1020
8.389191395483692
1030
0.0
1000
LEANOF
1010
0.0
1020
8.389191395483692
1030
0.0
  0
MTEXT
  5
6D6
330
A
100
AcDbEntity
  8
HIKIDASI
100
AcDbMText
 10
265.2900286479225
 20
283.6078607188492
 30
0.0
 40
5.0
 41
0.0
 71
     7
 72
     1
  1
ステンレスガイドレール\P（サッシ工事）
  7
SUNPOU
1001
ACAD
1000
MTEXTBEGIN
1070
    73
1070
     1
1070
    44
1040
1.0
1070
    74
1070
     0
1000
MTEXTEND
1000
MTEXTBEGIN
1070
    73
1070
     1
1070
    44
1040
1.0
1070
    74
1070
     0
1000
MTEXTEND
  0
DIMENSION
  5
6D7
330
A
100
AcDbEntity
  8
SUNPOU
100
AcDbDimension
  2
*D1
 10
304.1000000008973
 20
569.6850704440873
 30
0.0
 11
251.1000000008974
 21
574.1850704440873
 31
0.0
 70
    32
  3
SUNPOU_2
100
AcDbAlignedDimension
 13
198.1000000008973
 23
552.717644150024
 33
0.0
 14
304.1000000008973
 24
553.7192391291267
 34
0.0
100
AcDbRotatedDimension
  0
DIMENSION
  5
6E4
330
A
100
AcDbEntity
  8
SUNPOU
100
AcDbDimension
  2
*D2
 10
203.0999999991025
 20
397.3533236783124
 30
0.0
 11
190.6131701105381
 21
401.3539983216957
 31
0.0
 70
   160
  3
SUNPOU_2
100
AcDbAlignedDimension
 13
198.1000000008974
 23
407.7176657607018
 33
0.0
 14
203.0999999991025
 24
412.7176657607018
 34
0.0
100
AcDbRotatedDimension
  0
DIMENSION
  5
6F3
330
A
100
AcDbEntity
  8
SUNPOU
100
AcDbDimension
  2
*D3
 10
243.1000000008974
 20
397.3533236783124
 30
0.0
 11
217.5483552501487
 21
401.8533236783124
 31
0.0
 70
   160
  3
SUNPOU_2
100
AcDbAlignedDimension
 13
203.0999999991025
 23
412.7176657607018
 33
0.0
 14
243.1000000008974
 24
412.7176657607018
 34
0.0
100
AcDbRotatedDimension
  0
DIMENSION
  5
714
330
A
100
AcDbEntity
  8
SUNPOU
100
AcDbDimension
  2
*D4
 10
248.1000000008974
 20
397.3533236783124
 30
0.0
 11
255.7537164638665
 21
401.3331995575438
 31
0.0
 70
   160
  3
SUNPOU_2
100
AcDbAlignedDimension
 13
243.1000000008974
 23
412.7176657607018
 33
0.0
 14
248.1000000008974
 24
407.7176657607016
 34
0.0
100
AcDbRotatedDimension
  0
DIMENSION
  5
723
330
A
100
AcDbEntity
  8
SUNPOU
100
AcDbDimension
  2
*D5
 10
198.1000000008974
 20
386.5417436719584
 30
0.0
 11
157.7266101838104
 21
391.0417436719584
 31
0.0
 70
   160
  3
SUNPOU_2
100
AcDbAlignedDimension
 13
128.1000000008974
 23
407.7176657607018
 33
0.0
 14
198.1000000008974
 24
407.7176657607018
 34
0.0
100
AcDbRotatedDimension
  0
DIMENSION
  5
73F
330
A
100
AcDbEntity
  8
SUNPOU
100
AcDbDimension
  2
*D6
 10
248.1000000008974
 20
386.5417436719584
 30
0.0
 11
218.0395320309529
 21
391.0417436719584
 31
0.0
 70
   160
  3
SUNPOU_2
100
AcDbAlignedDimension
 13
198.1000000008974
 23
407.7176657607018
 33
0.0
 14
248.1000000008974
 24
407.7190721398964
 34
0.0
100
AcDbRotatedDimension
  0
DIMENSION
  5
75B
330
A
100
AcDbEntity
  8
SUNPOU
100
AcDbDimension
  2
*D7
 10
304.1000000008973
 20
386.5417436719584
 30
0.0
 11
276.1000000008974
 21
391.0417436719584
 31
0.0
 70
    32
  3
SUNPOU_2
100
AcDbAlignedDimension
 13
248.1000000008974
 23
407.7190721398964
 33
0.0
 14
304.1000000008973
 24
410.7190721398963
 34
0.0
100
AcDbRotatedDimension
  0
DIMENSION
  5
769
330
A
100
AcDbEntity
  8
SUNPOU
100
AcDbDimension
  2
*D8
 10
304.1000000008973
 20
374.7472927559361
 30
0.0
 11
216.1000000008974
 21
379.2472927559362
 31
0.0
 70
    32
  3
SUNPOU_2
100
AcDbAlignedDimension
 13
128.1000000008974
 23
407.7176657607018
 33
0.0
 14
304.1000000008973
 24
408.7190721398965
 34
0.0
100
AcDbRotatedDimension
  0
DIMENSION
  5
776
330
A
100
AcDbEntity
  8
SUNPOU
100
AcDbDimension
  2
*D9
 10
231.6000000008973
 20
222.1679837997057
 30
0.0
 11
223.1000000008974
 21
226.6679837997056
 31
0.0
 70
    32
  3
SUNPOU_2
100
AcDbAlignedDimension
 13
214.6000000008974
 23
235.7176657607018
 33
0.0
 14
231.6000000008973
 24
235.7176657607018
 34
0.0
100
AcDbRotatedDimension
  0
DIMENSION
  5
783
330
A
100
AcDbEntity
  8
SUNPOU
100
AcDbDimension
  2
*D10
 10
203.0999999973075
 20
203.9451352243883
 30
0.0
 11
190.5885325789504
 21
208.4537186417255
 31
0.0
 70
   160
  3
SUNPOU_2
100
AcDbAlignedDimension
 13
198.0999999973075
 23
214.7176657607018
 33
0.0
 14
203.0999999973075
 24
214.7176657607018
 34
0.0
100
AcDbRotatedDimension
  0
DIMENSION
  5
792
330
A
100
AcDbEntity
  8
SUNPOU
100
AcDbDimension
  2
*D11
 10
231.0999999973075
 20
203.9451352243883
 30
0.0
 11
221.439792637075
 21
208.4451352243883
 31
0.0
 70
   160
  3
SUNPOU_2
100
AcDbAlignedDimension
 13
203.0999999973075
 23
214.7176657607018
 33
0.0
 14
231.0999999973075
 24
214.7176657607018
 34
0.0
100
AcDbRotatedDimension
  0
DIMENSION
  5
79F
330
A
100
AcDbEntity
  8
SUNPOU
100
AcDbDimension
  2
*D12
 10
225.5999999973076
 20
155.0165436816036
 30
0.0
 11
217.0999999973076
 21
159.5165436816035
 31
0.0
 70
    32
  3
SUNPOU_2
100
AcDbAlignedDimension
 13
208.5999999973076
 23
167.7176657607018
 33
0.0
 14
225.5999999973076
 24
167.7176657607018
 34
0.0
100
AcDbRotatedDimension
  0
DIMENSION
  5
7AC
330
A
100
AcDbEntity
  8
SUNPOU
100
AcDbDimension
  2
*D13
 10
107.0834933080978
 20
417.7176446438768
 30
0.0
 11
102.5834933080977
 21
412.7176552022893
 31
0.0
 70
    32
  3
SUNPOU_2
100
AcDbAlignedDimension
 13
128.1000000008974
 23
407.7176657607018
 33
0.0
 14
193.8000000008974
 24
417.7176446438768
 34
0.0
 50
90.0
100
AcDbRotatedDimension
  0
DIMENSION
  5
7BB
330
A
100
AcDbEntity
  8
SUNPOU
100
AcDbDimension
  2
*D14
 10
107.0834933080979
 20
557.7176657607018
 30
0.0
 11
102.5834933080977
 21
487.7176552022893
 31
0.0
 70
    32
  1
直付け台板＝<>
  3
SUNPOU_2
100
AcDbAlignedDimension
 13
193.8000000008974
 23
417.7176446438768
 33
0.0
 14
128.1000000008974
 24
557.7176657607018
 34
0.0
 50
90.0
100
AcDbRotatedDimension
  0
DIMENSION
  5
7C8
330
A
100
AcDbEntity
  8
SUNPOU
100
AcDbDimension
  2
*D15
 10
259.8413305316664
 20
260.7176657607016
 30
0.0
 11
255.3413305316664
 21
248.2176657607018
 31
0.0
 70
    32
  3
SUNPOU_2
100
AcDbAlignedDimension
 13
231.6000000008973
 23
235.7176657607018
 33
0.0
 14
241.3500000008975
 24
260.7176657607016
 34
0.0
 50
90.0
100
AcDbRotatedDimension
  0
DIMENSION
  5
7E4
330
A
100
AcDbEntity
  8
SUNPOU
100
AcDbDimension
  2
*D16
 10
337.4985703695859
 20
267.7176657607018
 30
0.0
 11
332.9985703695858
 21
262.7176657607019
 31
0.0
 70
    32
  3
SUNPOU_2
100
AcDbAlignedDimension
 13
242.1000000008974
 23
257.7176657607018
 33
0.0
 14
243.0999999991025
 24
267.7176657607018
 34
0.0
 50
90.0
100
AcDbRotatedDimension
  0
DIMENSION
  5
7F3
330
A
100
AcDbEntity
  8
SUNPOU
100
AcDbDimension
  2
*D17
 10
337.4985703695859
 20
412.7176657607018
 30
0.0
 11
332.9985703695858
 21
340.2176657607018
 31
0.0
 70
    32
  1
DH
  3
SUNPOU_2
100
AcDbAlignedDimension
 13
243.0999999991025
 23
267.7176657607018
 33
0.0
 14
243.1000000008974
 24
412.7176657607018
 34
0.0
 50
90.0
100
AcDbRotatedDimension
  0
DIMENSION
  5
800
330
A
100
AcDbEntity
  8
SUNPOU
100
AcDbDimension
  2
*D18
 10
355.835010060362
 20
407.7190721398964
 30
0.0
 11
351.335010060362
 21
332.7183689502991
 31
0.0
 70
    32
  1
H
  3
SUNPOU_2
100
AcDbAlignedDimension
 13
242.1000000008974
 23
257.7176657607018
 33
0.0
 14
301.1000000008973
 24
407.7190721398964
 34
0.0
 50
90.0
100
AcDbRotatedDimension
  0
DIMENSION
  5
80D
330
A
100
AcDbEntity
  8
SUNPOU
100
AcDbDimension
  2
*D19
 10
355.8350100603621
 20
557.7191665231414
 30
0.0
 11
351.335010060362
 21
482.7191193315191
 31
0.0
 70
    32
  3
SUNPOU_2
100
AcDbAlignedDimension
 13
301.1000000008973
 23
407.7190721398964
 33
0.0
 14
299.3284764084709
 24
557.7191665231414
 34
0.0
 50
90.0
100
AcDbRotatedDimension
  0
DIMENSION
  5
81A
330
A
100
AcDbEntity
  8
SUNPOU
100
AcDbDimension
  2
*D20
 10
271.3979611742477
 20
260.7176657607016
 30
0.0
 11
267.3791268200607
 21
249.8620778953088
 31
0.0
 70
   160
  3
SUNPOU_2
100
AcDbAlignedDimension
 13
242.1000000008974
 23
257.7176657607018
 33
0.0
 14
241.3500000008975
 24
260.7176657607016
 34
0.0
 50
90.0
100
AcDbRotatedDimension
1001
ACAD
1000
DSTYLE
1002
{
1070
     7
1000
DOTSMALL
1070
     5
1000

1070
   173
1070
     1
1070
     6
1000
OPEN30
1002
}
  0
DIMENSION
  5
829
330
A
100
AcDbEntity
  8
SUNPOU
100
AcDbDimension
  2
*D21
 10
271.3979611742477
 20
267.7176657607018
 30
0.0
 11
266.8979611742475
 21
264.2176657607018
 31
0.0
 70
    32
  3
SUNPOU_2
100
AcDbAlignedDimension
 13
241.3500000008975
 23
260.7176657607016
 33
0.0
 14
243.0999999991025
 24
267.7176657607018
 34
0.0
 50
90.0
100
AcDbRotatedDimension
1001
ACAD
1000
DSTYLE
1002
{
1070
     6
1000
NONE
1070
     5
1000

1070
   173
1070
     1
1070
     7
1000
OPEN30
1002
}
  0
DIMENSION
  5
909
330
A
100
AcDbEntity
  8
SUNPOU
100
AcDbDimension
  2
*D22
 10
317.5017844923793
 20
412.7176657607018
 30
0.0
 11
313.4242678049736
 21
400.345655523917
 31
0.0
 70
   160
  3
SUNPOU_2
100
AcDbAlignedDimension
 13
301.1000000008973
 23
407.7190721398964
 33
0.0
 14
243.1000000008974
 24
412.7176657607018
 34
0.0
 50
90.0
100
AcDbRotatedDimension
1001
ACAD
1000
DSTYLE
1002
{
1070
     7
1000
DOTSMALL
1070
     5
1000

1070
   173
1070
     1
1070
     6
1000
OPEN30
1002
}
  0
DIMENSION
  5
918
330
A
100
AcDbEntity
  8
SUNPOU
100
AcDbDimension
  2
*D23
 10
317.5017844923793
 20
417.7180234121196
 30
0.0
 11
313.4889106255123
 21
424.9779018833621
 31
0.0
 70
   160
  3
SUNPOU_2
100
AcDbAlignedDimension
 13
243.1000000008974
 23
412.7176657607018
 33
0.0
 14
237.0999999991025
 24
417.7180234121196
 34
0.0
 50
90.0
100
AcDbRotatedDimension
1001
ACAD
1000
DSTYLE
1002
{
1070
     6
1000
NONE
1070
     5
1000

1070
   173
1070
     1
1070
     7
1000
OPEN30
1002
}
  0
POLYLINE
  5
CCC
330
A
100
AcDbEntity
  8
SAISEN
100
AcDb2dPolyline
 66
     1
 10
0.0
 20
0.0
 30
0.0
 70
     1
  0
VERTEX
  5
2E79
330
CCC
100
AcDbEntity
  8
SAISEN
100
AcDbVertex
100
AcDb2dVertex
 10
63.73114235500882
 20
292.3871851404903
 30
0.0
  0
VERTEX
  5
2E7A
330
CCC
100
AcDbEntity
  8
SAISEN
100
AcDbVertex
100
AcDb2dVertex
 10
73.73114235500882
 20
292.3871851404903
 30
0.0
  0
VERTEX
  5
2E7B
330
CCC
100
AcDbEntity
  8
SAISEN
100
AcDbVertex
100
AcDb2dVertex
 10
73.73114235500882
 20
322.3871851404903
 30
0.0
  0
VERTEX
  5
2E7C
330
CCC
100
AcDbEntity
  8
SAISEN
100
AcDbVertex
100
AcDb2dVertex
 10
63.73114235500882
 20
322.3871851404903
 30
0.0
  0
SEQEND
  5
2E7D
330
CCC
100
AcDbEntity
  8
SAISEN
  0
MTEXT
  5
CCD
330
A
100
AcDbEntity
  8
MOJI
100
AcDbMText
 10
68.73114235500882
 20
307.3871851404903
 30
0.0
 40
6.0
 41
10.0
 71
     5
 72
     1
  1
外\P\P部
  7
0_8
1001
ACAD
1000
MTEXTBEGIN
1070
    73
1070
     1
1070
    44
1040
1.0
1070
    74
1070
     0
1000
MTEXTEND
1000
MTEXTBEGIN
1070
    73
1070
     1
1070
    44
1040
1.0
1070
    74
1070
     0
1000
MTEXTEND
  0
POLYLINE
  5
CCE
330
A
100
AcDbEntity
  8
SAISEN
100
AcDb2dPolyline
 66
     1
 10
0.0
 20
0.0
 30
0.0
 70
     1
  0
VERTEX
  5
2E7E
330
CCE
100
AcDbEntity
  8
SAISEN
100
AcDbVertex
100
AcDb2dVertex
 10
379.3711423550087
 20
292.3871851404903
 30
0.0
  0
VERTEX
  5
2E7F
330
CCE
100
AcDbEntity
  8
SAISEN
100
AcDbVertex
100
AcDb2dVertex
 10
389.3711423550087
 20
292.3871851404903
 30
0.0
  0
VERTEX
  5
2E80
330
CCE
100
AcDbEntity
  8
SAISEN
100
AcDbVertex
100
AcDb2dVertex
 10
389.3711423550087
 20
322.3871851404903
 30
0.0
  0
VERTEX
  5
2E81
330
CCE
100
AcDbEntity
  8
SAISEN
100
AcDbVertex
100
AcDb2dVertex
 10
379.3711423550087
 20
322.3871851404903
 30
0.0
  0
SEQEND
  5
2E82
330
CCE
100
AcDbEntity
  8
SAISEN
  0
MTEXT
  5
CCF
330
A
100
AcDbEntity
  8
MOJI
100
AcDbMText
 10
384.3711423550087
 20
307.3871851404903
 30
0.0
 40
6.0
 41
10.0
 71
     5
 72
     1
  1
内\P\P部
  7
0_8
1001
ACAD
1000
MTEXTBEGIN
1070
    73
1070
     1
1070
    44
1040
1.0
1070
    74
1070
     0
1000
MTEXTEND
1000
MTEXTBEGIN
1070
    73
1070
     1
1070
    44
1040
1.0
1070
    74
1070
     0
1000
MTEXTEND
  0
DIMENSION
  5
10DA
330
A
100
AcDbEntity
  8
SUNPOU
100
AcDbDimension
  2
*D26
 10
107.0834933080978
 20
327.9431429612286
 30
0.0
 11
102.5834933080977
 21
292.8304043609652
 31
0.0
 70
    32
  1
600
  3
SUNPOU_2
100
AcDbAlignedDimension
 13
107.0834933080978
 23
257.7176657607018
 33
0.0
 14
145.6300077354935
 24
327.9431429612285
 34
0.0
 50
90.0
100
AcDbRotatedDimension
  0
DIMENSION
  5
11EF
330
A
100
AcDbEntity
  8
SUNPOU
100
AcDbDimension
  2
*D27
 10
181.1792087575351
 20
423.7176657604296
 30
0.0
 11
176.6092328680993
 21
420.7176552021532
 31
0.0
 70
   160
  3
SUNPOU_2
100
AcDbAlignedDimension
 13
186.0999999991025
 23
417.7176446438768
 33
0.0
 14
181.1792087575351
 24
423.7176657604296
 34
0.0
 50
90.0
100
AcDbRotatedDimension
  0
DIMENSION
  5
11FE
330
A
100
AcDbEntity
  8
SUNPOU
100
AcDbDimension
  2
*D28
 10
181.1792087575351
 20
460.7180876856387
 30
0.0
 11
176.679208757535
 21
442.2178767230342
 31
0.0
 70
    32
  3
SUNPOU_2
100
AcDbAlignedDimension
 13
183.1792087575351
 23
423.7176657604296
 33
0.0
 14
182.5792087593297
 24
460.7180876856387
 34
0.0
 50
90.0
100
AcDbRotatedDimension
  0
DIMENSION
  5
120B
330
A
100
AcDbEntity
  8
SUNPOU
100
AcDbDimension
  2
*D29
 10
181.1390163794711
 20
533.7176448463711
 30
0.0
 11
176.639016379471
 21
510.8646081392411
 31
0.0
 70
   160
  3
SUNPOU_2
100
AcDbAlignedDimension
 13
181.139016379471
 23
460.7180876856387
 33
0.0
 14
183.179208757535
 24
533.7176448463711
 34
0.0
 50
90.0
100
AcDbRotatedDimension
  0
MTEXT
  5
1297
102
{ACAD_REACTORS
330
1298
102
}
330
A
100
AcDbEntity
  8
HIKIDASI
100
AcDbMText
 10
97.56340461267608
 20
347.8517288441518
 30
0.0
 40
5.0
 41
0.0
 71
     9
 72
     1
  1
補助光電スイッチ\P取付穴φ12\P（サッシ工事）
  7
SUNPOU
1001
ACAD
1000
MTEXTBEGIN
1070
    73
1070
     1
1070
    44
1040
1.0
1070
    74
1070
     0
1000
MTEXTEND
1000
MTEXTBEGIN
1070
    73
1070
     1
1070
    44
1040
1.0
1070
    74
1070
     0
1000
MTEXTEND
  0
LEADER
  5
1298
330
A
100
AcDbEntity
  8
HIKIDASI
100
AcDbLeader
  3
SUNPOU_2
 73
     0
 75
     1
 40
21.66666666666666
 41
37.06666666666665
 76
     3
 10
158.857359313778
 20
332.1857836483478
 30
0.0
 10
105.9485339010806
 20
362.6145236394163
 30
0.0
 10
100.9485339010807
 20
362.6145236394163
 30
0.0
213
0.0
223
16.76279479526441
233
0.0
1001
ACAD
1000
DSTYLE
1002
{
1070
     5
1000
OPEN30
1070
    77
1070
     1
1070
   147
1040
1.0
1070
   342
1005
686
1002
}
1000
LEANOF
1010
0.0
1020
16.76279479526441
1030
0.0
1000
LEANOF
1010
0.0
1020
16.76279479526441
1030
0.0
  0
MTEXT
  5
24E1
330
A
100
AcDbEntity
  8
HIKIDASI
100
AcDbMText
 10
266.9052898631743
 20
307.140230948469
 30
0.0
 40
5.0
 41
0.0
 71
     7
 72
     1
  1
振れ止め\P(サッシ工事)
  7
SUNPOU
1001
ACAD
1000
MTEXTBEGIN
1070
    73
1070
     1
1070
    44
1040
1.0
1070
    74
1070
     0
1000
MTEXTEND
1000
MTEXTBEGIN
1070
    73
1070
     1
1070
    44
1040
1.0
1070
    74
1070
     0
1000
MTEXTEND
  0
LEADER
  5
24E2
330
A
100
AcDbEntity
  8
HIKIDASI
100
AcDbLeader
  3
SUNPOU_2
 73
     0
 74
     0
 75
     1
 40
13.33333333333333
 41
28.0
 76
     3
 10
226.0680523719266
 20
255.3544240500894
 30
0.0
 10
260.6591029353356
 20
313.7563537897785
 30
0.0
 10
265.6591029353356
 20
313.7563537897785
 30
0.0
340
24E1
213
0.7538130721613358
223
8.616122841309531
233
0.0
1001
ACAD
1000
DSTYLE
1002
{
1070
     5
1000
OPEN30
1070
    77
1070
     1
1070
   147
1040
1.0
1070
   342
1005
686
1002
}
1000
LEANOF
1010
0.7538130721613358
1020
8.616122841309531
1030
0.0
1000
LEANOF
1010
0.7538130721613358
1020
8.616122841309531
1030
0.0
  0
CIRCLE
  5
24FE
330
A
100
AcDbEntity
  8
SAISEN
100
AcDbCircle
 10
391.0976380784321
 20
51.32180036849206
 30
0.0
 40
5.0
  0
TEXT
  5
24FF
330
A
100
AcDbEntity
  8
MOJI
100
AcDbText
 10
388.0488190392161
 20
47.05028716237635
 30
0.0
 40
8.0
  1
Ｓ
 41
0.8
  7
0_8
 11
388.0488190392161
 21
55.05028716237635
 31
0.0
100
AcDbText
 73
     3
  0
LINE
  5
279D
330
A
100
AcDbEntity
  8
CHUSIN
100
AcDbLine
 10
223.1000281145135
 20
433.3924988868898
 30
0.0
 11
223.0999759213769
 21
404.2945826652911
 31
0.0
  0
LINE
  5
27BE
330
A
100
AcDbEntity
  8
KAKURE
100
AcDbLine
 10
234.6000054283158
 20
422.2180405173951
 30
0.0
 11
234.6000054283158
 21
417.7180405173951
 31
0.0
  0
LINE
  5
29A8
330
A
100
AcDbEntity
  8
CHUSIN
100
AcDbLine
 10
226.1001283489092
 20
482.9529384629945
 30
0.0
 11
226.1001253454529
 21
441.5356361457143
 31
0.0
  0
LINE
  5
29A9
330
A
100
AcDbEntity
  8
CHUSIN
100
AcDbLine
 10
256.1000241652428
 20
459.7179957931411
 30
0.0
 11
216.5591814670919
 21
459.7179957926413
 31
0.0
  0
LINE
  5
29AD
330
A
100
AcDbEntity
  8
CHUSIN
100
AcDbLine
 10
199.724241881273
 20
518.2166075437902
 30
0.0
 11
291.2977914764264
 21
518.2166075437902
 31
0.0
  0
LINE
  5
29AE
330
A
100
AcDbEntity
  8
CHUSIN
100
AcDbLine
 10
223.1000281145135
 20
433.3924980242859
 30
0.0
 11
223.0999759213769
 21
404.2945818026872
 31
0.0
  0
LINE
  5
29B6
330
A
100
AcDbEntity
  8
CHUSIN
100
AcDbLine
 10
288.8904758676906
 20
518.2175140018821
 30
0.0
 11
193.600046775886
 21
518.2176533141682
 31
0.0
  0
LINE
  5
2A53
330
A
100
AcDbEntity
  8
CHUSIN
100
AcDbLine
 10
203.5080183760392
 20
423.7176472024071
 30
0.0
 11
194.8434879696205
 21
423.7176472024071
 31
0.0
  0
LINE
  5
2A5A
330
A
100
AcDbEntity
  8
CHUSIN
100
AcDbLine
 10
223.1000281145135
 20
433.3924980242858
 30
0.0
 11
223.0999759213769
 21
404.2945818026872
 31
0.0
  0
LINE
  5
2A5E
330
A
100
AcDbEntity
  8
CHUSIN
100
AcDbLine
 10
269.3196078049603
 20
492.7520509020427
 30
0.0
 11
283.2596529117163
 21
492.7520076646341
 31
0.0
  0
LINE
  5
2A5F
330
A
100
AcDbEntity
  8
CHUSIN
100
AcDbLine
 10
276.1002804605293
 20
548.2707478735181
 30
0.0
 11
276.1002804605293
 21
489.0261182213925
 31
0.0
  0
LINE
  5
2A60
330
A
100
AcDbEntity
  8
CHUSIN
100
AcDbLine
 10
268.3499621011356
 20
543.6826333159891
 30
0.0
 11
283.1178073890559
 21
543.6826333159891
 31
0.0
  0
LINE
  5
2A61
330
A
100
AcDbEntity
  8
CHUSIN
100
AcDbLine
 10
276.1000632685588
 20
547.861793214941
 30
0.0
 11
276.0999738079684
 21
486.7239961175068
 31
0.0
  0
LINE
  5
2A63
330
A
100
AcDbEntity
  8
04
100
AcDbLine
 10
266.8998848283765
 20
474.4181107601932
 30
0.0
 11
245.7999761912862
 21
474.4181107601932
 31
0.0
  0
LINE
  5
2A64
330
A
100
AcDbEntity
  8
06
100
AcDbLine
 10
205.8000506657581
 20
486.2175850369966
 30
0.0
 11
255.9983060702766
 21
486.2175850451296
 31
0.0
  0
LINE
  5
2A65
330
A
100
AcDbEntity
  8
06
100
AcDbLine
 10
212.8001214274178
 20
550.2175850399143
 30
0.0
 11
255.9591516390269
 21
550.2175850399143
 31
0.0
  0
LINE
  5
2A66
330
A
100
AcDbEntity
  8
04
100
AcDbLine
 10
242.5975501153772
 20
472.7184985794933
 30
0.0
 11
247.1000054283156
 21
472.7184985794933
 31
0.0
  0
ARC
  5
2A68
330
A
100
AcDbEntity
  8
04
100
AcDbCircle
 10
240.5999579780599
 20
424.2180740531822
 30
0.0
 40
6.500047450285477
100
AcDbArc
 50
270.0004182583903
 51
359.9998267516995
  0
LINE
  5
2A69
330
A
100
AcDbEntity
  8
04
100
AcDbLine
 10
242.6000341144091
 20
435.7182515421628
 30
0.0
 11
242.5975501154455
 21
449.9027903719966
 31
0.0
  0
ARC
  5
2A6A
330
A
100
AcDbEntity
  8
04
100
AcDbCircle
 10
226.100125119371
 20
438.4249063543689
 30
0.0
 40
6.296649666418708
100
AcDbArc
 50
28.97778809341201
 51
151.0222119065908
  0
LINE
  5
2A6B
330
A
100
AcDbEntity
  8
04
100
AcDbLine
 10
218.10013700666
 20
441.2181038292698
 30
0.0
 11
218.100137079177
 21
478.2178894164426
 31
0.0
  0
LINE
  5
2A6C
330
A
100
AcDbEntity
  8
04
100
AcDbLine
 10
234.1001370064982
 20
478.2178722526625
 30
0.0
 11
234.100137079177
 21
441.2181022972394
 31
0.0
  0
LINE
  5
2A6D
330
A
100
AcDbEntity
  8
04
100
AcDbLine
 10
240.6000054283158
 20
417.7180266030699
 30
0.0
 11
207.1000054283156
 21
417.7180248778621
 31
0.0
  0
LINE
  5
2A6E
330
A
100
AcDbEntity
  8
04
100
AcDbLine
 10
207.1000054283156
 20
422.2180402732598
 30
0.0
 11
214.100063332228
 21
422.2180513226405
 31
0.0
  0
LINE
  5
2A6F
330
A
100
AcDbEntity
  8
04
100
AcDbLine
 10
207.1000054283156
 20
417.7180248778621
 30
0.0
 11
207.1000054283156
 21
422.2180402732598
 31
0.0
  0
LINE
  5
2A70
330
A
100
AcDbEntity
  8
04
100
AcDbLine
 10
227.1000392908974
 20
436.7181135365433
 30
0.0
 11
237.1000456509475
 21
436.7182173979006
 31
0.0
  0
LINE
  5
2A71
330
A
100
AcDbEntity
  8
04
100
AcDbLine
 10
214.1000633271417
 20
422.2194322875068
 30
0.0
 11
234.6000054283158
 21
422.2194322875068
 31
0.0
  0
LINE
  5
2A72
330
A
100
AcDbEntity
  8
04
100
AcDbLine
 10
216.8000544693348
 20
430.9190485405991
 30
0.0
 11
224.6000455812633
 21
430.9190494342991
 31
0.0
  0
LINE
  5
2A73
330
A
100
AcDbEntity
  8
04
100
AcDbLine
 10
215.5945122835088
 20
425.4179266095228
 30
0.0
 11
215.5944530546503
 21
430.2230925686225
 31
0.0
  0
LINE
  5
2A74
330
A
100
AcDbEntity
  8
04
100
AcDbLine
 10
215.4000567908777
 20
423.8181206755099
 30
0.0
 11
215.4000594608483
 21
425.4179264725938
 31
0.0
  0
LINE
  5
2A75
330
A
100
AcDbEntity
  8
04
100
AcDbLine
 10
215.4000594608483
 20
425.4179264725938
 30
0.0
 11
215.5945122835088
 21
425.4179266095228
 31
0.0
  0
LINE
  5
2A76
330
A
100
AcDbEntity
  8
04
100
AcDbLine
 10
214.100063332228
 20
422.2180513226405
 30
0.0
 11
214.1000598214912
 21
423.8181228451193
 31
0.0
  0
LINE
  5
2A77
330
A
100
AcDbEntity
  8
04
100
AcDbLine
 10
214.1000598214912
 20
423.8181228451193
 30
0.0
 11
215.4000567908777
 21
423.8181206755099
 31
0.0
  0
LINE
  5
2A78
330
A
100
AcDbEntity
  8
04
100
AcDbLine
 10
215.5944530546503
 20
430.2230925686225
 30
0.0
 11
216.8000544693348
 21
430.9190485405991
 31
0.0
  0
LINE
  5
2A79
330
A
100
AcDbEntity
  8
04
100
AcDbLine
 10
220.1564006913816
 20
441.2181038252397
 30
0.0
 11
218.10013700666
 21
441.2181038292698
 31
0.0
  0
ARC
  5
2A7A
330
A
100
AcDbEntity
  8
04
100
AcDbCircle
 10
220.1550759674591
 20
441.7172886895175
 30
0.0
 40
0.4991866220338867
100
AcDbArc
 50
269.9450282766985
 51
331.0222119065923
  0
ARC
  5
2A7B
330
A
100
AcDbEntity
  8
04
100
AcDbCircle
 10
220.1532695317563
 20
441.7203447719034
 30
0.0
 40
0.5022507069844014
100
AcDbArc
 50
270.3571988872269
 51
330.8170627248666
  0
LINE
  5
2A7C
330
A
100
AcDbEntity
  8
04
100
AcDbLine
 10
224.6000455812633
 20
430.9190494342991
 30
0.0
 11
224.6000452032545
 21
434.2182168445479
 31
0.0
  0
LINE
  5
2A7D
330
A
100
AcDbEntity
  8
04
100
AcDbLine
 10
226.1000438133449
 20
435.2182352600078
 30
0.0
 11
227.1000395526113
 21
435.2182354344972
 31
0.0
  0
LINE
  5
2A7E
330
A
100
AcDbEntity
  8
04
100
AcDbLine
 10
226.1000453025468
 20
434.2182173662433
 30
0.0
 11
226.1000438133449
 21
435.2182352600078
 31
0.0
  0
LINE
  5
2A7F
330
A
100
AcDbEntity
  8
04
100
AcDbLine
 10
224.6000452032545
 20
434.2182168445479
 30
0.0
 11
226.1000453025468
 21
434.2182173662433
 31
0.0
  0
LINE
  5
2A80
330
A
100
AcDbEntity
  8
04
100
AcDbLine
 10
227.1000395526113
 20
435.2182354344972
 30
0.0
 11
227.1000392908974
 21
436.7181135365433
 31
0.0
  0
LINE
  5
2A81
330
A
100
AcDbEntity
  8
04
100
AcDbLine
 10
240.5999293214402
 20
422.2179682436673
 30
0.0
 11
234.6000054283158
 21
422.2179682436673
 31
0.0
  0
LINE
  5
2A82
330
A
100
AcDbEntity
  8
04
100
AcDbLine
 10
237.1000570073543
 20
435.718189083954
 30
0.0
 11
242.6000341144091
 21
435.7182515421628
 31
0.0
  0
LINE
  5
2A83
330
A
100
AcDbEntity
  8
04
100
AcDbLine
 10
234.100137079177
 20
441.2181022972394
 30
0.0
 11
232.0451734348912
 21
441.2181025274231
 31
0.0
  0
LINE
  5
2A84
330
A
100
AcDbEntity
  8
04
100
AcDbLine
 10
234.100137079177
 20
441.2181022972394
 30
0.0
 11
232.0469666801215
 21
441.2181022972394
 31
0.0
  0
ARC
  5
2A85
330
A
100
AcDbEntity
  8
04
100
AcDbCircle
 10
232.0451734908067
 20
441.7172882572879
 30
0.0
 40
0.499185729864738
100
AcDbArc
 50
208.977788093412
 51
269.999993582092
  0
ARC
  5
2A86
330
A
100
AcDbEntity
  8
04
100
AcDbCircle
 10
232.0469666801215
 20
441.720336938035
 30
0.0
 40
0.5022346407956775
100
AcDbArc
 50
209.1829372751331
 51
270.0
  0
LINE
  5
2A87
330
A
100
AcDbEntity
  8
04
100
AcDbLine
 10
237.1000456509475
 20
436.7182173979006
 30
0.0
 11
237.1000570073543
 21
435.718189083954
 31
0.0
  0
LINE
  5
2A88
330
A
100
AcDbEntity
  8
04
100
AcDbLine
 10
242.6000341144091
 20
435.7182515421628
 30
0.0
 11
242.5999309488442
 21
424.2179682436666
 31
0.0
  0
ARC
  5
2A89
330
A
100
AcDbEntity
  8
04
100
AcDbCircle
 10
240.5999309488441
 20
424.2179682436666
 30
0.0
 40
1.999999999999986
100
AcDbArc
 50
269.9999533783079
 51
0.0
  0
LINE
  5
2A8A
330
A
100
AcDbEntity
  8
02
100
AcDbLine
 10
205.800242681953
 20
549.2178926063761
 30
0.0
 11
205.7987329028247
 21
484.2173591105255
 31
0.0
  0
ARC
  5
2A8B
330
A
100
AcDbEntity
  8
04
100
AcDbCircle
 10
226.100125119371
 20
481.0179965533325
 30
0.0
 40
6.300000000000512
100
AcDbArc
 50
209.0327598167089
 51
330.9672401832874
  0
LINE
  5
2A8C
330
A
100
AcDbEntity
  8
04
100
AcDbLine
 10
218.100137079177
 20
478.2178894164426
 30
0.0
 11
220.1545970291344
 21
478.2178911416504
 31
0.0
  0
ARC
  5
2A8D
330
A
100
AcDbEntity
  8
04
100
AcDbCircle
 10
220.1545970291344
 20
477.7178911416504
 30
0.0
 40
0.5000000000000853
100
AcDbArc
 50
29.03275981670899
 51
90.0
  0
ARC
  5
2A8E
330
A
100
AcDbEntity
  8
04
100
AcDbCircle
 10
220.1545974490013
 20
477.7178934816133
 30
0.0
 40
0.4999976600374
100
AcDbArc
 50
29.03237586609951
 51
90.00004811343478
  0
LINE
  5
2A8F
330
A
100
AcDbEntity
  8
04
100
AcDbLine
 10
242.5975501154455
 20
469.5327851385086
 30
0.0
 11
242.597550116826
 21
449.9027903719966
 31
0.0
  0
LINE
  5
2A90
330
A
100
AcDbEntity
  8
04
100
AcDbLine
 10
240.1000344648028
 20
447.2178058155363
 30
0.0
 11
235.6000155503811
 21
447.2178187928141
 31
0.0
  0
LINE
  5
2A91
330
A
100
AcDbEntity
  8
04
100
AcDbLine
 10
235.6000179672801
 20
450.2179272437891
 30
0.0
 11
234.10013700666
 21
450.2179272437891
 31
0.0
  0
LINE
  5
2A92
330
A
100
AcDbEntity
  8
04
100
AcDbLine
 10
235.6000155503811
 20
447.2178187928141
 30
0.0
 11
235.6000179672801
 21
450.2179272437891
 31
0.0
  0
LINE
  5
2A93
330
A
100
AcDbEntity
  8
04
100
AcDbLine
 10
242.5975501154455
 20
449.9027903719966
 30
0.0
 11
240.1000344648028
 21
449.9027903718209
 31
0.0
  0
LINE
  5
2A94
330
A
100
AcDbEntity
  8
04
100
AcDbLine
 10
240.1000344648028
 20
449.9027903718209
 30
0.0
 11
240.1000344648028
 21
447.2178058155363
 31
0.0
  0
LINE
  5
2A95
330
A
100
AcDbEntity
  8
04
100
AcDbLine
 10
235.6000790635149
 20
472.2177953019992
 30
0.0
 11
240.1000344648028
 21
472.2177951995259
 31
0.0
  0
LINE
  5
2A96
330
A
100
AcDbEntity
  8
04
100
AcDbLine
 10
234.1000608561008
 20
469.2180336848706
 30
0.0
 11
235.6000789952041
 21
469.2180336851306
 31
0.0
  0
LINE
  5
2A97
330
A
100
AcDbEntity
  8
04
100
AcDbLine
 10
235.6000789952041
 20
469.2180336851306
 30
0.0
 11
235.6000790635149
 21
472.2177953019992
 31
0.0
  0
LINE
  5
2A98
330
A
100
AcDbEntity
  8
04
100
AcDbLine
 10
232.0444304988052
 20
478.2178896466263
 30
0.0
 11
234.1001370064982
 21
478.2178722526625
 31
0.0
  0
ARC
  5
2A99
330
A
100
AcDbEntity
  8
04
100
AcDbCircle
 10
232.045653209608
 20
477.7178911416501
 30
0.0
 40
0.5000000000003249
100
AcDbArc
 50
90.00000000002769
 51
150.967240183291
  0
ARC
  5
2A9A
330
A
100
AcDbEntity
  8
04
100
AcDbCircle
 10
232.0456496878497
 20
477.7178971076215
 30
0.0
 40
0.4999940254468359
100
AcDbArc
 50
90.13971058122585
 51
150.9676420788401
  0
ARC
  5
2A9B
330
A
100
AcDbEntity
  8
04
100
AcDbCircle
 10
245.7998844648028
 20
471.2181044808049
 30
0.0
 40
3.2
100
AcDbArc
 50
90.0
 51
180.0
  0
LINE
  5
2A9C
330
A
100
AcDbEntity
  8
04
100
AcDbLine
 10
240.1000391031708
 20
469.5327808240532
 30
0.0
 11
242.5975501154455
 21
469.5327851385086
 31
0.0
  0
LINE
  5
2A9D
330
A
100
AcDbEntity
  8
04
100
AcDbLine
 10
240.1000344648028
 20
472.2177951995259
 30
0.0
 11
240.1000391031708
 21
469.5327808240532
 31
0.0
  0
LINE
  5
2A9E
330
A
100
AcDbEntity
  8
04
100
AcDbLine
 10
242.5975501154455
 20
469.5327851385086
 30
0.0
 11
242.5975501153772
 21
472.7184985794933
 31
0.0
  0
LINE
  5
2AA0
330
A
100
AcDbEntity
  8
04
100
AcDbLine
 10
247.1000054283156
 20
443.71800494594
 30
0.0
 11
247.1000931855027
 21
440.2182103922993
 31
0.0
  0
LINE
  5
2AA1
330
A
100
AcDbEntity
  8
04
100
AcDbLine
 10
252.60004966582
 20
435.8370448029468
 30
0.0
 11
256.9850508650679
 21
435.8370910945523
 31
0.0
  0
LINE
  5
2AA2
330
A
100
AcDbEntity
  8
04
100
AcDbLine
 10
256.9851418892235
 20
426.5994610223469
 30
0.0
 11
252.6001391913835
 21
426.599407209356
 31
0.0
  0
LINE
  5
2AA3
330
A
100
AcDbEntity
  8
04
100
AcDbLine
 10
247.1000931855027
 20
440.2182103922993
 30
0.0
 11
247.1000054283158
 21
424.2180543986428
 31
0.0
  0
LINE
  5
2AA4
330
A
100
AcDbEntity
  8
04
100
AcDbLine
 10
251.6000290908357
 20
422.2181333367928
 30
0.0
 11
247.099784969642
 21
422.2182103949381
 31
0.0
  0
LINE
  5
2AA5
330
A
100
AcDbEntity
  8
04
100
AcDbLine
 10
247.099784969642
 20
422.2182103949381
 30
0.0
 11
247.1000054283158
 21
424.2180543986428
 31
0.0
  0
LINE
  5
2AA6
330
A
100
AcDbEntity
  8
04
100
AcDbLine
 10
251.6000975848546
 20
426.218227092542
 30
0.0
 11
251.6000290908357
 21
422.2181333367928
 31
0.0
  0
LINE
  5
2AA7
330
A
100
AcDbEntity
  8
04
100
AcDbLine
 10
252.6001391913835
 20
426.599407209356
 30
0.0
 11
252.6001389604076
 21
426.6182284985663
 31
0.0
  0
LINE
  5
2AA8
330
A
100
AcDbEntity
  8
04
100
AcDbLine
 10
252.6001389604076
 20
426.6182284985663
 30
0.0
 11
252.6001438692466
 21
426.218227092542
 31
0.0
  0
LINE
  5
2AA9
330
A
100
AcDbEntity
  8
04
100
AcDbLine
 10
251.6000975848546
 20
426.218227092542
 30
0.0
 11
251.6000975848546
 21
426.218227092542
 31
0.0
  0
LINE
  5
2AAA
330
A
100
AcDbEntity
  8
04
100
AcDbLine
 10
252.6001438692466
 20
426.218227092542
 30
0.0
 11
251.6000975848546
 21
426.218227092542
 31
0.0
  0
LINE
  5
2AAB
330
A
100
AcDbEntity
  8
04
100
AcDbLine
 10
247.1000931855027
 20
440.2182103922993
 30
0.0
 11
251.6000868469236
 21
440.2181333384426
 31
0.0
  0
LINE
  5
2AAC
330
A
100
AcDbEntity
  8
04
100
AcDbLine
 10
251.6000868469236
 20
440.2181333384426
 30
0.0
 11
251.6002699492048
 21
436.2182053995357
 31
0.0
  0
LINE
  5
2AAD
330
A
100
AcDbEntity
  8
04
100
AcDbLine
 10
252.6000476117491
 20
436.2182149129187
 30
0.0
 11
252.60004966582
 21
435.8370448029468
 31
0.0
  0
LINE
  5
2AAE
330
A
100
AcDbEntity
  8
04
100
AcDbLine
 10
251.6002699492048
 20
436.2182053995357
 30
0.0
 11
252.6000476117491
 21
436.2182149129187
 31
0.0
  0
LINE
  5
2AAF
330
A
100
AcDbEntity
  8
04
100
AcDbLine
 10
257.4000586931047
 20
435.11827260914
 30
0.0
 11
257.4001316500623
 21
427.3183180322392
 31
0.0
  0
LINE
  5
2AB0
330
A
100
AcDbEntity
  8
04
100
AcDbLine
 10
257.4001316500623
 20
427.3183180322392
 30
0.0
 11
256.9851418892235
 21
426.5994610223469
 31
0.0
  0
LINE
  5
2AB1
330
A
100
AcDbEntity
  8
04
100
AcDbLine
 10
256.9850508650679
 20
435.8370910945523
 30
0.0
 11
257.4000586931047
 21
435.11827260914
 31
0.0
  0
LINE
  5
2AB2
330
A
100
AcDbEntity
  8
06
100
AcDbLine
 10
284.1000198912607
 20
540.1675394501628
 30
0.0
 11
284.1000198912607
 21
496.2669166245843
 31
0.0
  0
LINE
  5
2AB3
330
A
100
AcDbEntity
  8
06
100
AcDbLine
 10
268.1000198912606
 20
540.1675394501628
 30
0.0
 11
268.1000078059213
 21
525.718023017986
 31
0.0
  0
LINE
  5
2AB4
330
A
100
AcDbEntity
  8
06
100
AcDbLine
 10
286.1000198912606
 20
490.7175394501628
 30
0.0
 11
286.1000198912606
 21
545.7175394501628
 31
0.0
  0
LINE
  5
2AB5
330
A
100
AcDbEntity
  8
06
100
AcDbLine
 10
266.2120870963013
 20
491.0281223042858
 30
0.0
 11
266.2120870963012
 21
545.4069565960398
 31
0.0
  0
LINE
  5
2AB6
330
A
100
AcDbEntity
  8
06
100
AcDbLine
 10
261.3000770722718
 20
554.217408364097
 30
0.0
 11
261.3000770722718
 21
482.2175634312848
 31
0.0
  0
LINE
  5
2AB7
330
A
100
AcDbEntity
  8
06
100
AcDbLine
 10
264.299904172739
 20
553.2176227610269
 30
0.0
 11
264.299904172739
 21
483.2177219404265
 31
0.0
  0
LINE
  5
2AB8
330
A
100
AcDbEntity
  8
06
100
AcDbLine
 10
270.0998300251363
 20
496.2670104906714
 30
0.0
 11
284.1000198912607
 21
496.2669166245843
 31
0.0
  0
POLYLINE
  5
2AB9
330
A
100
AcDbEntity
  8
06
100
AcDb2dPolyline
 66
     1
 10
0.0
 20
0.0
 30
0.0
 70
     1
  0
VERTEX
  5
2E83
330
2AB9
100
AcDbEntity
  8
06
100
AcDbVertex
100
AcDb2dVertex
 10
270.0998300251363
 20
491.1920464283837
 30
0.0
  0
VERTEX
  5
2E84
330
2AB9
100
AcDbEntity
  8
06
100
AcDbVertex
100
AcDb2dVertex
 10
282.1002804605613
 20
491.1920464283837
 30
0.0
  0
VERTEX
  5
2E85
330
2AB9
100
AcDbEntity
  8
06
100
AcDbVertex
100
AcDb2dVertex
 10
282.1002804605613
 20
496.2670104906714
 30
0.0
  0
VERTEX
  5
2E86
330
2AB9
100
AcDbEntity
  8
06
100
AcDbVertex
100
AcDb2dVertex
 10
270.0998300251363
 20
496.2670104906714
 30
0.0
  0
SEQEND
  5
2E87
330
2AB9
100
AcDbEntity
  8
06
  0
LINE
  5
2ABA
330
A
100
AcDbEntity
  8
06
100
AcDbLine
 10
270.0998600964085
 20
476.1920497450339
 30
0.0
 11
285.0998848284268
 21
476.1919890168037
 31
0.0
  0
LINE
  5
2ABB
330
A
100
AcDbEntity
  8
06
100
AcDbLine
 10
285.0998848284268
 20
491.1925768742628
 30
0.0
 11
270.0998860847525
 21
491.1925647902053
 31
0.0
  0
LINE
  5
2ABC
330
A
100
AcDbEntity
  8
04
100
AcDbLine
 10
270.0998848284267
 20
525.7180254916992
 30
0.0
 11
270.0998848283774
 21
474.4181107601901
 31
0.0
  0
LINE
  5
2ABD
330
A
100
AcDbEntity
  8
04
100
AcDbLine
 10
266.8998848283765
 20
525.7180229137667
 30
0.0
 11
266.8998848283765
 21
474.4181107601932
 31
0.0
  0
LINE
  5
2ABE
330
A
100
AcDbEntity
  8
04
100
AcDbLine
 10
254.0999964755894
 20
471.2181107601931
 30
0.0
 11
266.8998848283765
 21
471.2181107601931
 31
0.0
  0
LINE
  5
2ABF
330
A
100
AcDbEntity
  8
06
100
AcDbLine
 10
264.299904172739
 20
483.2177219404265
 30
0.0
 11
261.3000158061719
 21
483.217599875295
 31
0.0
  0
LINE
  5
2AC0
330
A
100
AcDbEntity
  8
04
100
AcDbLine
 10
247.1000054283156
 20
471.7110500684321
 30
0.0
 11
247.1000054283156
 21
443.71800494594
 31
0.0
  0
LINE
  5
2AC1
330
A
100
AcDbEntity
  8
04
100
AcDbLine
 10
254.0999958570238
 20
471.7110588522257
 30
0.0
 11
254.1000037537105
 21
465.4180224899179
 31
0.0
  0
LINE
  5
2AC2
330
A
100
AcDbEntity
  8
04
100
AcDbLine
 10
254.1000037537105
 20
465.4180224899179
 30
0.0
 11
256.1000126518115
 21
465.4180224900171
 31
0.0
  0
LINE
  5
2AC3
330
A
100
AcDbEntity
  8
04
100
AcDbLine
 10
256.1000169288852
 20
450.0180181263456
 30
0.0
 11
254.1000230781127
 21
450.0179985503875
 31
0.0
  0
LINE
  5
2AC4
330
A
100
AcDbEntity
  8
04
100
AcDbLine
 10
254.1000309835296
 20
443.71800494594
 30
0.0
 11
247.1000054283156
 21
443.71800494594
 31
0.0
  0
LINE
  5
2AC5
330
A
100
AcDbEntity
  8
04
100
AcDbLine
 10
254.1000230781127
 20
450.0179985503875
 30
0.0
 11
254.1000309835296
 21
443.71800494594
 31
0.0
  0
LINE
  5
2AC6
330
A
100
AcDbEntity
  8
04
100
AcDbLine
 10
261.6000671488591
 20
464.0180290053202
 30
0.0
 11
261.600014829629
 21
451.4180157441646
 31
0.0
  0
LINE
  5
2AC7
330
A
100
AcDbEntity
  8
04
100
AcDbLine
 10
260.9039874572776
 20
450.2124465568673
 30
0.0
 11
256.100015025818
 21
450.212446556948
 31
0.0
  0
LINE
  5
2AC8
330
A
100
AcDbEntity
  8
04
100
AcDbLine
 10
256.100015025818
 20
450.212446556948
 30
0.0
 11
256.1000169288852
 21
450.0180181263456
 31
0.0
  0
LINE
  5
2AC9
330
A
100
AcDbEntity
  8
04
100
AcDbLine
 10
261.600014829629
 20
451.4180157441646
 30
0.0
 11
260.9039874572776
 21
450.2124465568673
 31
0.0
  0
LINE
  5
2ACA
330
A
100
AcDbEntity
  8
04
100
AcDbLine
 10
256.100011247451
 20
465.2235599567167
 30
0.0
 11
260.9039803312329
 21
465.2235599567188
 31
0.0
  0
LINE
  5
2ACB
330
A
100
AcDbEntity
  8
04
100
AcDbLine
 10
256.1000126518115
 20
465.4180224900171
 30
0.0
 11
256.100011247451
 21
465.2235599567167
 31
0.0
  0
LINE
  5
2ACC
330
A
100
AcDbEntity
  8
04
100
AcDbLine
 10
260.9039803312329
 20
465.2235599567188
 30
0.0
 11
261.6000671488591
 21
464.0180290053202
 31
0.0
  0
LINE
  5
2ACD
330
A
100
AcDbEntity
  8
04
100
AcDbLine
 10
247.1000054283156
 20
471.7110500684321
 30
0.0
 11
254.0999958570238
 21
471.7110588522257
 31
0.0
  0
LINE
  5
2ACE
330
A
100
AcDbEntity
  8
04
100
AcDbLine
 10
247.1000054283156
 20
472.7184985794933
 30
0.0
 11
247.1000054283156
 21
471.7110500684321
 31
0.0
  0
LINE
  5
2ACF
330
A
100
AcDbEntity
  8
06
100
AcDbLine
 10
261.3000770722718
 20
482.2175634312848
 30
0.0
 11
257.2999305266038
 21
482.2175488886918
 31
0.0
  0
LINE
  5
2AD0
330
A
100
AcDbEntity
  8
06
100
AcDbLine
 10
255.9590571487333
 20
485.9016017331896
 30
0.0
 11
257.2999756773088
 21
482.2174248370209
 31
0.0
  0
LINE
  5
2AD1
330
A
100
AcDbEntity
  8
06
100
AcDbLine
 10
255.9590571487333
 20
485.9016017331896
 30
0.0
 11
257.2999756773088
 21
482.2174248370209
 31
0.0
  0
ARC
  5
2AD2
330
A
100
AcDbEntity
  8
04
100
AcDbCircle
 10
266.8998848283765
 20
474.4181107601932
 30
0.0
 40
3.2
100
AcDbArc
 50
270.0
 51
359.9999999999446
  0
LINE
  5
2AD3
330
A
100
AcDbEntity
  8
06
100
AcDbLine
 10
266.2120870963013
 20
491.0281223042858
 30
0.0
 11
266.8998848283765
 21
490.8438274574203
 31
0.0
  0
LINE
  5
2AD4
330
A
100
AcDbEntity
  8
06
100
AcDbLine
 10
266.2120870963013
 20
505.2175394501628
 30
0.0
 11
264.299904172739
 21
505.2175394501628
 31
0.0
  0
LINE
  5
2AD5
330
A
100
AcDbEntity
  8
04
100
AcDbLine
 10
270.0998848284269
 20
525.7180246290946
 30
0.0
 11
266.8998848283765
 21
525.7180220511624
 31
0.0
  0
LINE
  5
2AD6
330
A
100
AcDbEntity
  8
06
100
AcDbLine
 10
264.299904172739
 20
531.2175394501629
 30
0.0
 11
266.2120870963013
 21
531.2175394501629
 31
0.0
  0
LINE
  5
2AD7
330
A
100
AcDbEntity
  8
06
100
AcDbLine
 10
285.0998848284268
 20
491.1925768742628
 30
0.0
 11
285.0998848284268
 21
476.1919890168037
 31
0.0
  0
LINE
  5
2AD8
330
A
100
AcDbEntity
  8
06
100
AcDbLine
 10
282.1002804605291
 20
493.4375394501627
 30
0.0
 11
284.1000198912607
 21
493.4375394501627
 31
0.0
  0
LINE
  5
2AD9
330
A
100
AcDbEntity
  8
06
100
AcDbLine
 10
284.1000198912607
 20
496.2669166245843
 30
0.0
 11
284.1000198912607
 21
493.4375394501627
 31
0.0
  0
LINE
  5
2ADA
330
A
100
AcDbEntity
  8
06
100
AcDbLine
 10
286.1000198912606
 20
490.7175394501628
 30
0.0
 11
285.0998848284268
 21
490.7175394501628
 31
0.0
  0
LINE
  5
2ADB
330
A
100
AcDbEntity
  8
06
100
AcDbLine
 10
284.7015558864948
 20
491.1925765533675
 30
0.0
 11
284.1000198912607
 21
493.4375394501627
 31
0.0
  0
POLYLINE
  5
2ADC
330
A
100
AcDbEntity
  8
06
100
AcDb2dPolyline
 66
     1
 10
0.0
 20
0.0
 30
0.0
 70
     1
  0
VERTEX
  5
2E88
330
2ADC
100
AcDbEntity
  8
06
100
AcDbVertex
100
AcDb2dVertex
 10
270.1002804605291
 20
540.1676333162498
 30
0.0
  0
VERTEX
  5
2E89
330
2ADC
100
AcDbEntity
  8
06
100
AcDbVertex
100
AcDb2dVertex
 10
282.1002804605291
 20
540.1676333162498
 30
0.0
  0
VERTEX
  5
2E8A
330
2ADC
100
AcDbEntity
  8
06
100
AcDbVertex
100
AcDb2dVertex
 10
282.1002804605291
 20
545.2426333159893
 30
0.0
  0
VERTEX
  5
2E8B
330
2ADC
100
AcDbEntity
  8
06
100
AcDbVertex
100
AcDb2dVertex
 10
270.1002804605291
 20
545.2426333159893
 30
0.0
  0
SEQEND
  5
2E8C
330
2ADC
100
AcDbEntity
  8
06
  0
POLYLINE
  5
2ADD
330
A
100
AcDbEntity
  8
06
100
AcDb2dPolyline
 66
     1
 10
0.0
 20
0.0
 30
0.0
 70
     1
  0
VERTEX
  5
2E8D
330
2ADD
100
AcDbEntity
  8
06
100
AcDbVertex
100
AcDb2dVertex
 10
270.1002804605291
 20
540.1676333162498
 30
0.0
  0
VERTEX
  5
2E8E
330
2ADD
100
AcDbEntity
  8
06
100
AcDbVertex
100
AcDb2dVertex
 10
282.1002804605291
 20
540.1676333162498
 30
0.0
  0
VERTEX
  5
2E8F
330
2ADD
100
AcDbEntity
  8
06
100
AcDbVertex
100
AcDb2dVertex
 10
282.1002804605291
 20
545.2426333159893
 30
0.0
  0
VERTEX
  5
2E90
330
2ADD
100
AcDbEntity
  8
06
100
AcDbVertex
100
AcDb2dVertex
 10
270.1002804605291
 20
545.2426333159893
 30
0.0
  0
SEQEND
  5
2E91
330
2ADD
100
AcDbEntity
  8
06
  0
LINE
  5
2ADE
330
A
100
AcDbEntity
  8
06
100
AcDbLine
 10
268.1000198912606
 20
540.1675394501628
 30
0.0
 11
284.1000198912607
 21
540.1675394501628
 31
0.0
  0
LINE
  5
2ADF
330
A
100
AcDbEntity
  8
06
100
AcDbLine
 10
264.3000687872882
 20
553.2174551708734
 30
0.0
 11
261.3000641304437
 21
553.2175772415095
 31
0.0
  0
LINE
  5
2AE0
330
A
100
AcDbEntity
  8
06
100
AcDbLine
 10
257.3000563052025
 20
554.2177048278083
 30
0.0
 11
261.3000095949221
 21
554.2177103764389
 31
0.0
  0
LINE
  5
2AE1
330
A
100
AcDbEntity
  8
06
100
AcDbLine
 10
255.9591516390269
 20
550.5335225603005
 30
0.0
 11
257.3000809399506
 21
554.217695535673
 31
0.0
  0
LINE
  5
2AE2
330
A
100
AcDbEntity
  8
06
100
AcDbLine
 10
255.9591516390269
 20
550.5335225603005
 30
0.0
 11
257.3000809399506
 21
554.217695535673
 31
0.0
  0
LINE
  5
2AE3
330
A
100
AcDbEntity
  8
06
100
AcDbLine
 10
266.2120870963013
 20
545.4069565960398
 30
0.0
 11
267.3711980878481
 21
545.7175394501628
 31
0.0
  0
LINE
  5
2AE4
330
A
100
AcDbEntity
  8
06
100
AcDbLine
 10
268.1000198912606
 20
540.1675394501628
 30
0.0
 11
268.1000198912606
 21
542.997539450163
 31
0.0
  0
LINE
  5
2AE5
330
A
100
AcDbEntity
  8
06
100
AcDbLine
 10
268.1000198912606
 20
542.9975394501629
 30
0.0
 11
270.1002804605291
 21
542.9975394501629
 31
0.0
  0
LINE
  5
2AE6
330
A
100
AcDbEntity
  8
06
100
AcDbLine
 10
268.1000198912606
 20
542.997539450163
 30
0.0
 11
267.3711980878481
 21
545.7175394501628
 31
0.0
  0
LINE
  5
2AE7
330
A
100
AcDbEntity
  8
06
100
AcDbLine
 10
282.1002804605291
 20
542.9975394501629
 30
0.0
 11
284.1000198912607
 21
542.9975394501629
 31
0.0
  0
LINE
  5
2AE8
330
A
100
AcDbEntity
  8
06
100
AcDbLine
 10
284.1000198912607
 20
540.1675394501628
 30
0.0
 11
284.1000198912607
 21
542.9975394501626
 31
0.0
  0
LINE
  5
2AE9
330
A
100
AcDbEntity
  8
06
100
AcDbLine
 10
284.8288416946735
 20
545.7175394501628
 30
0.0
 11
286.1000198912606
 21
545.7175394501628
 31
0.0
  0
LINE
  5
2AEA
330
A
100
AcDbEntity
  8
06
100
AcDbLine
 10
284.8288416946733
 20
545.7175394501628
 30
0.0
 11
284.1000198912607
 21
542.9975394501626
 31
0.0
  0
LINE
  5
2B16
330
A
100
AcDbEntity
  8
02
100
AcDbLine
 10
301.3001092355177
 20
550.9192417502609
 30
0.0
 11
301.3001092355177
 21
553.7192425502609
 31
0.0
  0
ARC
  5
2B17
330
A
100
AcDbEntity
  8
02
100
AcDbCircle
 10
302.8001092355177
 20
553.7192425502609
 30
0.0
 40
1.5
100
AcDbArc
 50
90.0
 51
180.0
  0
LINE
  5
2B18
330
A
100
AcDbEntity
  8
02
100
AcDbLine
 10
302.8001092355177
 20
555.2192425502608
 30
0.0
 11
303.2001092355177
 21
555.2192425502611
 31
0.0
  0
ARC
  5
2B19
330
A
100
AcDbEntity
  8
02
100
AcDbCircle
 10
303.2001092355177
 20
554.3192425502611
 30
0.0
 40
0.899999999999977
100
AcDbArc
 50
359.9999999999926
 51
90.0
  0
LINE
  5
2B1A
330
A
100
AcDbEntity
  8
02
100
AcDbLine
 10
304.1001092355178
 20
554.319242550261
 30
0.0
 11
304.1001092355178
 21
553.7192425502609
 31
0.0
  0
LINE
  5
2B1B
330
A
100
AcDbEntity
  8
02
100
AcDbLine
 10
304.1001092355178
 20
553.7192425502609
 30
0.0
 11
302.8001092355178
 21
553.7192425502609
 31
0.0
  0
LINE
  5
2B1C
330
A
100
AcDbEntity
  8
02
100
AcDbLine
 10
302.8001092355178
 20
553.7192425502609
 30
0.0
 11
302.8001092355177
 21
552.2551409351232
 31
0.0
  0
ARC
  5
2B1D
330
A
100
AcDbEntity
  8
02
100
AcDbCircle
 10
304.8001092355172
 20
552.255140935123
 30
0.0
 40
1.99999999999943
100
AcDbArc
 50
179.9999999999934
 51
210.0000000000022
  0
LINE
  5
2B1E
330
A
100
AcDbEntity
  8
02
100
AcDbLine
 10
303.0680584279488
 20
551.2551409351232
 30
0.0
 11
303.8321600432149
 21
549.9316781153368
 31
0.0
  0
ARC
  5
2B1F
330
A
100
AcDbEntity
  8
02
100
AcDbCircle
 10
302.1001092356462
 20
548.9316781153367
 30
0.0
 40
2.00000000000008
100
AcDbArc
 50
0.0000000000032569
 51
30.00000000000618
  0
LINE
  5
2B20
330
A
100
AcDbEntity
  8
02
100
AcDbLine
 10
304.1001092356462
 20
548.9316781153368
 30
0.0
 11
304.1001092355178
 21
410.7190755610306
 31
0.0
  0
ARC
  5
2B21
330
A
100
AcDbEntity
  8
02
100
AcDbCircle
 10
301.100109235515
 20
410.7190755610335
 30
0.0
 40
3.000000000002842
100
AcDbArc
 50
270.0000000000541
 51
359.9999999999468
  0
LINE
  5
2B22
330
A
100
AcDbEntity
  8
02
100
AcDbLine
 10
301.1001092355178
 20
407.7190755610306
 30
0.0
 11
248.1001092355179
 21
407.7190755610306
 31
0.0
  0
LINE
  5
2B23
330
A
100
AcDbEntity
  8
02
100
AcDbLine
 10
248.1001092355179
 20
407.7190755610306
 30
0.0
 11
248.1001092355179
 21
414.2190755610306
 31
0.0
  0
LINE
  5
2B24
330
A
100
AcDbEntity
  8
02
100
AcDbLine
 10
248.1001092355179
 20
414.2190755610306
 30
0.0
 11
252.6001092399745
 21
414.2190755610306
 31
0.0
  0
ARC
  5
2B25
330
A
100
AcDbEntity
  8
02
100
AcDbCircle
 10
252.6001092399745
 20
413.7190755610306
 30
0.0
 40
0.5
100
AcDbArc
 50
0.0
 51
90.0
  0
LINE
  5
2B26
330
A
100
AcDbEntity
  8
02
100
AcDbLine
 10
253.1001092399745
 20
413.7190755610306
 30
0.0
 11
253.1001092399745
 21
412.373776101983
 31
0.0
  0
LINE
  5
2B27
330
A
100
AcDbEntity
  8
02
100
AcDbLine
 10
253.1001092399745
 20
412.373776101983
 30
0.0
 11
252.2259422964635
 21
411.8690755818303
 31
0.0
  0
ARC
  5
2B28
330
A
100
AcDbEntity
  8
02
100
AcDbCircle
 10
251.1001092466642
 20
411.2190756026298
 30
0.0
 40
1.300000011146545
100
AcDbArc
 50
29.99999865782877
 51
329.9999981665616
  0
LINE
  5
2B29
330
A
100
AcDbEntity
  8
02
100
AcDbLine
 10
252.2259422604375
 20
410.5690755610305
 30
0.0
 11
253.1001092399745
 21
410.0643750200783
 31
0.0
  0
LINE
  5
2B2A
330
A
100
AcDbEntity
  8
02
100
AcDbLine
 10
253.1001092399745
 20
410.0643750200783
 30
0.0
 11
253.1001092399745
 21
409.5190755610306
 31
0.0
  0
LINE
  5
2B2B
330
A
100
AcDbEntity
  8
02
100
AcDbLine
 10
253.1001092399745
 20
409.5190755610306
 30
0.0
 11
257.6001092311694
 21
409.5190755610306
 31
0.0
  0
LINE
  5
2B2C
330
A
100
AcDbEntity
  8
02
100
AcDbLine
 10
257.6001092311694
 20
409.5190755610306
 30
0.0
 11
257.6001092311694
 21
409.7190755610306
 31
0.0
  0
LINE
  5
2B2D
330
A
100
AcDbEntity
  8
02
100
AcDbLine
 10
257.6001092311694
 20
409.7190755610306
 30
0.0
 11
263.8501092355177
 21
409.7190755610306
 31
0.0
  0
LINE
  5
2B2E
330
A
100
AcDbEntity
  8
02
100
AcDbLine
 10
263.8501092355177
 20
409.7190755610306
 30
0.0
 11
263.8501092355177
 21
412.7190755610306
 31
0.0
  0
LINE
  5
2B2F
330
A
100
AcDbEntity
  8
02
100
AcDbLine
 10
263.8501092355177
 20
412.7190755610306
 30
0.0
 11
261.5501092355177
 21
412.7190755610304
 31
0.0
  0
ARC
  5
2B30
330
A
100
AcDbEntity
  8
02
100
AcDbCircle
 10
261.5501092355177
 20
413.5190755610306
 30
0.0
 40
0.8000000000000111
100
AcDbArc
 50
90.0
 51
270.0
  0
LINE
  5
2B31
330
A
100
AcDbEntity
  8
02
100
AcDbLine
 10
261.5501092355177
 20
414.3190755610306
 30
0.0
 11
268.4501092355178
 21
414.3190755610306
 31
0.0
  0
ARC
  5
2B32
330
A
100
AcDbEntity
  8
02
100
AcDbCircle
 10
268.4501092355178
 20
413.5190755610306
 30
0.0
 40
0.8000000000000111
100
AcDbArc
 50
270.0
 51
90.0
  0
LINE
  5
2B33
330
A
100
AcDbEntity
  8
02
100
AcDbLine
 10
268.4501092355178
 20
412.7190755610306
 30
0.0
 11
266.3501092311694
 21
412.7190755610306
 31
0.0
  0
LINE
  5
2B34
330
A
100
AcDbEntity
  8
02
100
AcDbLine
 10
266.3501092311694
 20
412.7190755610306
 30
0.0
 11
266.3501092311694
 21
409.7190755610304
 31
0.0
  0
LINE
  5
2B35
330
A
100
AcDbEntity
  8
02
100
AcDbLine
 10
266.3501092311694
 20
409.7190755610304
 30
0.0
 11
272.6001092311694
 21
409.7190755610304
 31
0.0
  0
LINE
  5
2B36
330
A
100
AcDbEntity
  8
02
100
AcDbLine
 10
272.6001092311694
 20
409.7190755610304
 30
0.0
 11
272.6001092311694
 21
409.5190755610306
 31
0.0
  0
LINE
  5
2B37
330
A
100
AcDbEntity
  8
02
100
AcDbLine
 10
272.6001092311694
 20
409.5190755610306
 30
0.0
 11
301.1001092355178
 21
409.5190755610306
 31
0.0
  0
ARC
  5
2B38
330
A
100
AcDbEntity
  8
02
100
AcDbCircle
 10
301.1001092355178
 20
410.7190755610306
 30
0.0
 40
1.200000000000044
100
AcDbArc
 50
270.0
 51
0.0
  0
LINE
  5
2B39
330
A
100
AcDbEntity
  8
02
100
AcDbLine
 10
302.3001092355178
 20
410.7190755610306
 30
0.0
 11
302.3001092355177
 21
439.2190755610307
 31
0.0
  0
ARC
  5
2B3A
330
A
100
AcDbEntity
  8
02
100
AcDbCircle
 10
301.8001092355177
 20
439.2190755610307
 30
0.0
 40
0.5
100
AcDbArc
 50
0.0
 51
90.0
  0
LINE
  5
2B3B
330
A
100
AcDbEntity
  8
02
100
AcDbLine
 10
301.8001092355177
 20
439.7190755610306
 30
0.0
 11
299.1001092310611
 21
439.7190755610306
 31
0.0
  0
ARC
  5
2B3C
330
A
100
AcDbEntity
  8
02
100
AcDbCircle
 10
299.1001092310611
 20
440.2190755610306
 30
0.0
 40
0.5
100
AcDbArc
 50
180.0
 51
270.0
  0
LINE
  5
2B3D
330
A
100
AcDbEntity
  8
02
100
AcDbLine
 10
298.6001092310612
 20
440.2190755610306
 30
0.0
 11
298.6001092310612
 21
441.5643750200782
 31
0.0
  0
LINE
  5
2B3E
330
A
100
AcDbEntity
  8
02
100
AcDbLine
 10
298.6001092310612
 20
441.5643750200782
 30
0.0
 11
299.4742762105981
 21
442.0690755610307
 31
0.0
  0
ARC
  5
2B3F
330
A
100
AcDbEntity
  8
02
100
AcDbCircle
 10
300.600109221654
 20
442.7190756127715
 30
0.0
 40
1.300000013864014
100
AcDbArc
 50
210.0000022804096
 51
150.0000016693804
  0
LINE
  5
2B40
330
A
100
AcDbEntity
  8
02
100
AcDbLine
 10
299.4742761657892
 20
443.3690755869011
 30
0.0
 11
298.6001092222783
 21
443.8737761070536
 31
0.0
  0
LINE
  5
2B41
330
A
100
AcDbEntity
  8
02
100
AcDbLine
 10
298.6001092222783
 20
443.8737761070536
 30
0.0
 11
298.6001092355178
 21
445.2190755610306
 31
0.0
  0
ARC
  5
2B42
330
A
100
AcDbEntity
  8
02
100
AcDbCircle
 10
299.1001092404383
 20
445.2190755561098
 30
0.0
 40
0.5000000049206506
100
AcDbArc
 50
90.00000056386502
 51
179.9999994361349
  0
LINE
  5
2B43
330
A
100
AcDbEntity
  8
02
100
AcDbLine
 10
299.1001092355178
 20
445.7190755610306
 30
0.0
 11
301.8001092354704
 21
445.7190755610306
 31
0.0
  0
ARC
  5
2B44
330
A
100
AcDbEntity
  8
02
100
AcDbCircle
 10
301.8001092354704
 20
446.2190755610313
 30
0.0
 40
0.5000000000006822
100
AcDbArc
 50
270.0
 51
0.0
  0
LINE
  5
2B45
330
A
100
AcDbEntity
  8
02
100
AcDbLine
 10
302.3001092354711
 20
446.2190755610313
 30
0.0
 11
302.3001092354711
 21
475.4190755610306
 31
0.0
  0
LINE
  5
2B46
330
A
100
AcDbEntity
  8
02
100
AcDbLine
 10
302.3001092354711
 20
475.4190755610306
 30
0.0
 11
297.5001092355178
 21
475.4190755610306
 31
0.0
  0
LINE
  5
2B47
330
A
100
AcDbEntity
  8
02
100
AcDbLine
 10
297.5001092355178
 20
475.4190755610306
 30
0.0
 11
297.5001092355178
 21
480.2190755610306
 31
0.0
  0
LINE
  5
2B48
330
A
100
AcDbEntity
  8
02
100
AcDbLine
 10
297.5001092355178
 20
480.2190755610306
 30
0.0
 11
299.3001092355177
 21
480.2190755610306
 31
0.0
  0
LINE
  5
2B49
330
A
100
AcDbEntity
  8
02
100
AcDbLine
 10
299.3001092355177
 20
480.2190755610306
 30
0.0
 11
299.3001092355177
 21
477.2190755610306
 31
0.0
  0
LINE
  5
2B4A
330
A
100
AcDbEntity
  8
02
100
AcDbLine
 10
299.3001092355177
 20
477.2190755610306
 30
0.0
 11
302.3001092354327
 21
477.2190755610306
 31
0.0
  0
LINE
  5
2B4B
330
A
100
AcDbEntity
  8
02
100
AcDbLine
 10
302.3001092354327
 20
477.2190755610306
 30
0.0
 11
302.3001092354327
 21
488.2190755610306
 31
0.0
  0
LINE
  5
2B4C
330
A
100
AcDbEntity
  8
02
100
AcDbLine
 10
302.3001092354327
 20
488.2190755610306
 30
0.0
 11
299.3001092355177
 21
488.2190755610306
 31
0.0
  0
LINE
  5
2B4D
330
A
100
AcDbEntity
  8
02
100
AcDbLine
 10
299.3001092355177
 20
488.2190755610306
 30
0.0
 11
299.3001092355177
 21
485.2190755610306
 31
0.0
  0
LINE
  5
2B4E
330
A
100
AcDbEntity
  8
02
100
AcDbLine
 10
299.3001092355177
 20
485.2190755610306
 30
0.0
 11
297.5001092355178
 21
485.2190755610306
 31
0.0
  0
LINE
  5
2B4F
330
A
100
AcDbEntity
  8
02
100
AcDbLine
 10
297.5001092355178
 20
485.2190755610306
 30
0.0
 11
297.5001092355178
 21
490.0190755610307
 31
0.0
  0
LINE
  5
2B50
330
A
100
AcDbEntity
  8
02
100
AcDbLine
 10
297.5001092355178
 20
490.0190755610307
 30
0.0
 11
302.3001092354327
 21
490.0190755610307
 31
0.0
  0
LINE
  5
2B51
330
A
100
AcDbEntity
  8
02
100
AcDbLine
 10
302.3001092354327
 20
490.0190755610307
 30
0.0
 11
302.3001092354824
 21
519.2192267616433
 31
0.0
  0
ARC
  5
2B52
330
A
100
AcDbEntity
  8
02
100
AcDbCircle
 10
301.8001092354823
 20
519.2192267616442
 30
0.0
 40
0.500000000000057
100
AcDbArc
 50
359.9999999998958
 51
89.99999999999348
  0
LINE
  5
2B53
330
A
100
AcDbEntity
  8
02
100
AcDbLine
 10
301.8001092354824
 20
519.7192267616442
 30
0.0
 11
299.1001092310611
 21
519.7192267616442
 31
0.0
  0
ARC
  5
2B54
330
A
100
AcDbEntity
  8
02
100
AcDbCircle
 10
299.1001092310611
 20
520.2192267616442
 30
0.0
 40
0.5
100
AcDbArc
 50
180.0
 51
270.0
  0
LINE
  5
2B55
330
A
100
AcDbEntity
  8
02
100
AcDbLine
 10
298.6001092310612
 20
520.2192267616442
 30
0.0
 11
298.6001092310612
 21
521.5645262206918
 31
0.0
  0
LINE
  5
2B56
330
A
100
AcDbEntity
  8
02
100
AcDbLine
 10
298.6001092310612
 20
521.5645262206918
 30
0.0
 11
299.4742761745719
 21
522.0692267408447
 31
0.0
  0
ARC
  5
2B57
330
A
100
AcDbEntity
  8
02
100
AcDbCircle
 10
300.6001092243713
 20
522.7192267200448
 30
0.0
 40
1.300000011146449
100
AcDbArc
 50
209.999998657834
 51
149.9999981665669
  0
LINE
  5
2B58
330
A
100
AcDbEntity
  8
02
100
AcDbLine
 10
299.4742762105981
 20
523.3692267616442
 30
0.0
 11
298.6001092355178
 21
523.8739273000232
 31
0.0
  0
LINE
  5
2B59
330
A
100
AcDbEntity
  8
02
100
AcDbLine
 10
298.6001092355178
 20
523.8739273000232
 30
0.0
 11
298.6001092355178
 21
525.2192267616442
 31
0.0
  0
ARC
  5
2B5A
330
A
100
AcDbEntity
  8
02
100
AcDbCircle
 10
299.1001092355178
 20
525.2192267616442
 30
0.0
 40
0.5
100
AcDbArc
 50
90.0
 51
180.0
  0
LINE
  5
2B5B
330
A
100
AcDbEntity
  8
02
100
AcDbLine
 10
299.1001092355178
 20
525.7192267616442
 30
0.0
 11
301.8001092355178
 21
525.7192267616442
 31
0.0
  0
ARC
  5
2B5C
330
A
100
AcDbEntity
  8
02
100
AcDbCircle
 10
301.8001092355178
 20
526.2192267616216
 30
0.0
 40
0.49999999997749
100
AcDbArc
 50
270.0
 51
0.0000000024882624
  0
LINE
  5
2B5D
330
A
100
AcDbEntity
  8
02
100
AcDbLine
 10
302.3001092354955
 20
526.2192267616434
 30
0.0
 11
302.3001092356461
 21
539.5192709443866
 31
0.0
  0
LINE
  5
2B5E
330
A
100
AcDbEntity
  8
02
100
AcDbLine
 10
302.3001092356461
 20
539.5192709443866
 30
0.0
 11
299.5001092356461
 21
540.5383876003319
 31
0.0
  0
LINE
  5
2B5F
330
A
100
AcDbEntity
  8
02
100
AcDbLine
 10
299.5001092356461
 20
540.5383876003319
 30
0.0
 11
299.5001092356461
 21
543.7001543469627
 31
0.0
  0
LINE
  5
2B60
330
A
100
AcDbEntity
  8
02
100
AcDbLine
 10
299.5001092356461
 20
543.7001543469627
 30
0.0
 11
302.3001092354994
 21
544.7192710028547
 31
0.0
  0
LINE
  5
2B61
330
A
100
AcDbEntity
  8
02
100
AcDbLine
 10
302.3001092354994
 20
544.7192710028547
 30
0.0
 11
302.3001092354994
 21
548.2192417502561
 31
0.0
  0
ARC
  5
2B62
330
A
100
AcDbEntity
  8
02
100
AcDbCircle
 10
301.1001088386718
 20
548.2192417502561
 30
0.0
 40
1.20000039682759
100
AcDbArc
 50
0.0
 51
169.8356520526749
  0
ARC
  5
2B63
330
A
100
AcDbEntity
  8
02
100
AcDbCircle
 10
299.4267889203053
 20
548.5192447502602
 30
0.0
 40
0.4999999999997717
100
AcDbArc
 50
269.999999999987
 51
349.8356486559661
  0
LINE
  5
2B64
330
A
100
AcDbEntity
  8
02
100
AcDbLine
 10
299.4267889203051
 20
548.0192447502604
 30
0.0
 11
299.1636175370132
 21
548.0192447502608
 31
0.0
  0
ARC
  5
2B65
330
A
100
AcDbEntity
  8
02
100
AcDbCircle
 10
299.1636175370146
 20
548.7192447502621
 30
0.0
 40
0.7000000000011825
100
AcDbArc
 50
165.5223990519415
 51
269.9999999998883
  0
ARC
  5
2B66
330
A
100
AcDbEntity
  8
02
100
AcDbCircle
 10
301.1088367614934
 20
548.2169880917671
 30
0.0
 40
2.70901457990961
100
AcDbArc
 50
85.95120985455839
 51
165.5223990519315
  0
LINE
  5
2B67
330
A
100
AcDbEntity
  8
02
100
AcDbLine
 10
201.1001092355177
 20
417.7176480650111
 30
0.0
 11
198.1001092355178
 21
417.7176480650111
 31
0.0
  0
LINE
  5
2B68
330
A
100
AcDbEntity
  8
02
100
AcDbLine
 10
198.1001092355178
 20
417.7176480650111
 30
0.0
 11
198.1001092355177
 21
552.7176475711581
 31
0.0
  0
ARC
  5
2B69
330
A
100
AcDbEntity
  8
02
100
AcDbCircle
 10
200.1001092355175
 20
552.7176475711581
 30
0.0
 40
2.0
100
AcDbArc
 50
90.0
 51
180.0
  0
LINE
  5
2B6A
330
A
100
AcDbEntity
  8
02
100
AcDbLine
 10
200.1001092355175
 20
554.7176475711581
 30
0.0
 11
205.100116503297
 21
554.7177493201726
 31
0.0
  0
LINE
  5
2B6B
330
A
100
AcDbEntity
  8
02
100
AcDbLine
 10
205.100116503297
 20
554.7177493201726
 30
0.0
 11
207.5143784470257
 21
557.1320185316807
 31
0.0
  0
ARC
  5
2B6C
330
A
100
AcDbEntity
  8
02
100
AcDbCircle
 10
208.9286000033387
 20
555.7178012326601
 30
0.0
 40
2.00000829478016
100
AcDbArc
 50
90.00109124304696
 51
135.0000862401125
  0
LINE
  5
2B6D
330
A
100
AcDbEntity
  8
02
100
AcDbLine
 10
208.9285619116125
 20
557.7178095270775
 30
0.0
 11
299.3285856430913
 21
557.7191699442757
 31
0.0
  0
ARC
  5
2B6E
330
A
100
AcDbEntity
  8
02
100
AcDbCircle
 10
299.3286082066795
 20
556.2198145166803
 30
0.0
 40
1.499355427765223
100
AcDbArc
 50
69.47100159724772
 51
90.00086223609555
  0
LINE
  5
2B6F
330
A
100
AcDbEntity
  8
02
100
AcDbLine
 10
299.8544042711912
 20
557.6239531128712
 30
0.0
 11
302.3403215166256
 21
556.6935285069127
 31
0.0
  0
ARC
  5
2B70
330
A
100
AcDbEntity
  8
02
100
AcDbCircle
 10
302.2001696441357
 20
556.3190694109566
 30
0.0
 40
0.3998276652591841
100
AcDbArc
 50
269.9913433732418
 51
69.48022130467406
  0
LINE
  5
2B71
330
A
100
AcDbEntity
  8
02
100
AcDbLine
 10
302.2001092355178
 20
555.9192417502608
 30
0.0
 11
294.4386095744098
 21
555.9192417502608
 31
0.0
  0
ARC
  5
2B72
330
A
100
AcDbEntity
  8
02
100
AcDbCircle
 10
294.4386095744098
 20
555.4192417502608
 30
0.0
 40
0.5
100
AcDbArc
 50
90.0
 51
165.0000000000054
  0
LINE
  5
2B73
330
A
100
AcDbEntity
  8
02
100
AcDbLine
 10
293.9556466612653
 20
555.5486512728122
 30
0.0
 11
293.8317614606118
 21
555.0863054096686
 31
0.0
  0
ARC
  5
2B74
330
A
100
AcDbEntity
  8
02
100
AcDbCircle
 10
292.9624282169518
 20
555.319242550261
 30
0.0
 40
0.9000000000000268
100
AcDbArc
 50
270.0000000000071
 51
344.999999999991
  0
LINE
  5
2B75
330
A
100
AcDbEntity
  8
02
100
AcDbLine
 10
292.9624282169518
 20
554.4192425502608
 30
0.0
 11
292.1001082355177
 21
554.4192425502608
 31
0.0
  0
LINE
  5
2B76
330
A
100
AcDbEntity
  8
02
100
AcDbLine
 10
292.1001082355177
 20
554.4192425502608
 30
0.0
 11
292.4007954578901
 21
555.5414225413414
 31
0.0
  0
ARC
  5
2B77
330
A
100
AcDbEntity
  8
02
100
AcDbCircle
 10
292.1110177100033
 20
555.6190682548722
 30
0.0
 40
0.3000000000000737
100
AcDbArc
 50
344.9999999999868
 51
89.99999999998914
  0
LINE
  5
2B78
330
A
100
AcDbEntity
  8
02
100
AcDbLine
 10
292.1110177100033
 20
555.9190682548723
 30
0.0
 11
290.3001082355178
 21
555.9190682548723
 31
0.0
  0
ARC
  5
2B79
330
A
100
AcDbEntity
  8
02
100
AcDbCircle
 10
290.3001082355178
 20
555.1190682548722
 30
0.0
 40
0.8000000000000682
100
AcDbArc
 50
90.00000000000813
 51
180.0000000000081
  0
ARC
  5
2B7A
330
A
100
AcDbEntity
  8
02
100
AcDbCircle
 10
294.1346746369936
 20
555.1190682548723
 30
0.0
 40
4.634566401475865
100
AcDbArc
 50
180.0000000000026
 51
232.9064645389609
  0
LINE
  5
2B7B
330
A
100
AcDbEntity
  8
02
100
AcDbLine
 10
291.3394842434949
 20
551.4222971781377
 30
0.0
 11
299.4504660339978
 21
545.9105103768551
 31
0.0
  0
ARC
  5
2B7C
330
A
100
AcDbEntity
  8
02
100
AcDbCircle
 10
299.9001086991451
 20
546.5721911712562
 30
0.0
 40
0.8000000000000216
100
AcDbArc
 50
235.8020814316656
 51
0.0
  0
LINE
  5
2B7D
330
A
100
AcDbEntity
  8
02
100
AcDbLine
 10
300.7001086991451
 20
546.5721911712562
 30
0.0
 11
300.7001085367318
 21
547.0878708645779
 31
0.0
  0
ARC
  5
2B7E
330
A
100
AcDbEntity
  8
02
100
AcDbCircle
 10
301.1001089819153
 20
548.2192418260466
 30
0.0
 40
1.200000253584033
100
AcDbArc
 50
359.9999963812778
 51
250.528761100909
  0
LINE
  5
2B7F
330
A
100
AcDbEntity
  8
02
100
AcDbLine
 10
302.3001092354994
 20
548.2192417502561
 30
0.0
 11
302.3001084355178
 21
546.519241750261
 31
0.0
  0
ARC
  5
2B80
330
A
100
AcDbEntity
  8
02
100
AcDbCircle
 10
299.8001078061213
 20
546.5192429267049
 30
0.0
 40
2.5000006293967
100
AcDbArc
 50
236.2935092907486
 51
359.9999730378986
  0
LINE
  5
2B81
330
A
100
AcDbEntity
  8
02
100
AcDbLine
 10
298.4127607788847
 20
544.4395142489678
 30
0.0
 11
290.3277882469136
 21
549.933515390735
 31
0.0
  0
ARC
  5
2B82
330
A
100
AcDbEntity
  8
02
100
AcDbCircle
 10
293.6999891944182
 20
554.8960465823634
 30
0.0
 40
5.99987125347163
100
AcDbArc
 50
188.4609374029999
 51
235.8026203703746
  0
ARC
  5
2B83
330
A
100
AcDbEntity
  8
02
100
AcDbCircle
 10
285.7872068744772
 20
553.7189879791104
 30
0.0
 40
1.999978182502893
100
AcDbArc
 50
8.460937403001548
 51
90.00140117480984
  0
LINE
  5
2B84
330
A
100
AcDbEntity
  8
02
100
AcDbLine
 10
285.7871579647831
 20
555.7189661610153
 30
0.0
 11
209.6357139899606
 21
555.7178201686828
 31
0.0
  0
LINE
  5
2B85
330
A
100
AcDbEntity
  8
02
100
AcDbLine
 10
209.6357139899606
 20
555.7178201686828
 30
0.0
 11
208.1001127688533
 21
554.1822189475754
 31
0.0
  0
LINE
  5
2B86
330
A
100
AcDbEntity
  8
02
100
AcDbLine
 10
208.1001127688533
 20
554.1822189475754
 30
0.0
 11
208.1001127688533
 21
551.2178084289526
 31
0.0
  0
LINE
  5
2B87
330
A
100
AcDbEntity
  8
02
100
AcDbLine
 10
208.1001127688533
 20
551.2178084289526
 30
0.0
 11
207.1001809428353
 21
549.2178328046072
 31
0.0
  0
LINE
  5
2B88
330
A
100
AcDbEntity
  8
02
100
AcDbLine
 10
207.1001809428353
 20
549.2178328046072
 30
0.0
 11
205.800242681953
 21
549.2178926063761
 31
0.0
  0
LINE
  5
2B89
330
A
100
AcDbEntity
  8
02
100
AcDbLine
 10
205.800242681953
 20
549.2178926063761
 30
0.0
 11
205.7997683100915
 21
551.7170850024426
 31
0.0
  0
LINE
  5
2B8A
330
A
100
AcDbEntity
  8
02
100
AcDbLine
 10
205.7997683100915
 20
551.7170850024426
 30
0.0
 11
201.6001092355176
 21
551.7170850024426
 31
0.0
  0
LINE
  5
2B8B
330
A
100
AcDbEntity
  8
02
100
AcDbLine
 10
201.6001092355176
 20
551.7170850024426
 30
0.0
 11
201.6001104223365
 21
481.7173029362609
 31
0.0
  0
LINE
  5
2B8C
330
A
100
AcDbEntity
  8
02
100
AcDbLine
 10
201.6001104223365
 20
481.7173029362609
 30
0.0
 11
205.8002933409918
 21
481.7173112847153
 31
0.0
  0
LINE
  5
2B8D
330
A
100
AcDbEntity
  8
02
100
AcDbLine
 10
205.8002933409918
 20
481.7173112847153
 30
0.0
 11
205.800169807587
 21
484.2173597652383
 31
0.0
  0
LINE
  5
2B8E
330
A
100
AcDbEntity
  8
02
100
AcDbLine
 10
205.800169807587
 20
484.2173597652383
 30
0.0
 11
207.1002455770396
 21
484.2179521331768
 31
0.0
  0
LINE
  5
2B8F
330
A
100
AcDbEntity
  8
02
100
AcDbLine
 10
207.1002455770396
 20
484.2179521331768
 30
0.0
 11
208.1000889220129
 21
482.2181692032565
 31
0.0
  0
LINE
  5
2B90
330
A
100
AcDbEntity
  8
02
100
AcDbLine
 10
208.1000889220129
 20
482.2181692032565
 30
0.0
 11
208.100092119568
 21
477.8180430751498
 31
0.0
  0
LINE
  5
2B91
330
A
100
AcDbEntity
  8
02
100
AcDbLine
 10
208.100092119568
 20
477.8180430751498
 30
0.0
 11
205.6000891023193
 21
477.8180430751498
 31
0.0
  0
LINE
  5
2B92
330
A
100
AcDbEntity
  8
02
100
AcDbLine
 10
205.6000891023193
 20
477.8180430751498
 30
0.0
 11
205.6000891023193
 21
479.2682029606321
 31
0.0
  0
LINE
  5
2B93
330
A
100
AcDbEntity
  8
02
100
AcDbLine
 10
205.6000891023193
 20
479.2682029606321
 30
0.0
 11
201.4000733843408
 21
479.2682029606321
 31
0.0
  0
LINE
  5
2B94
330
A
100
AcDbEntity
  8
02
100
AcDbLine
 10
201.4000733843408
 20
479.2682029606321
 30
0.0
 11
201.4000733843408
 21
471.1184715473778
 31
0.0
  0
LINE
  5
2B95
330
A
100
AcDbEntity
  8
02
100
AcDbLine
 10
201.4000733843408
 20
471.1184715473778
 30
0.0
 11
205.600021394876
 21
471.1184715473778
 31
0.0
  0
LINE
  5
2B96
330
A
100
AcDbEntity
  8
02
100
AcDbLine
 10
205.600021394876
 20
471.1184715473778
 30
0.0
 11
205.600021394876
 21
472.6182029513632
 31
0.0
  0
LINE
  5
2B97
330
A
100
AcDbEntity
  8
02
100
AcDbLine
 10
205.600021394876
 20
472.6182029513632
 30
0.0
 11
208.1000889400118
 21
472.6179680362169
 31
0.0
  0
LINE
  5
2B98
330
A
100
AcDbEntity
  8
02
100
AcDbLine
 10
208.1000889400118
 20
472.6179680362169
 30
0.0
 11
208.099801073819
 21
468.1167482470417
 31
0.0
  0
LINE
  5
2B99
330
A
100
AcDbEntity
  8
02
100
AcDbLine
 10
208.099801073819
 20
468.1167482470417
 30
0.0
 11
206.1001092355178
 21
468.1167482470414
 31
0.0
  0
LINE
  5
2B9A
330
A
100
AcDbEntity
  8
02
100
AcDbLine
 10
206.1001092355178
 20
468.1167482470414
 30
0.0
 11
206.1001092355178
 21
469.1179944933505
 31
0.0
  0
LINE
  5
2B9B
330
A
100
AcDbEntity
  8
02
100
AcDbLine
 10
206.1001092355178
 20
469.1179944933505
 30
0.0
 11
204.1001092355173
 21
469.1179944933505
 31
0.0
  0
LINE
  5
2B9C
330
A
100
AcDbEntity
  8
02
100
AcDbLine
 10
204.1001092355173
 20
469.1179944933505
 30
0.0
 11
204.1001092355173
 21
468.1179944933504
 31
0.0
  0
LINE
  5
2B9D
330
A
100
AcDbEntity
  8
02
100
AcDbLine
 10
204.1001092355173
 20
468.1179944933504
 30
0.0
 11
201.3001092355176
 21
468.1179944933506
 31
0.0
  0
LINE
  5
2B9E
330
A
100
AcDbEntity
  8
02
100
AcDbLine
 10
201.3001092355176
 20
468.1179944933506
 30
0.0
 11
201.3001092355174
 21
461.0180911067728
 31
0.0
  0
LINE
  5
2B9F
330
A
100
AcDbEntity
  8
02
100
AcDbLine
 10
201.3001092355174
 20
461.0180911067728
 30
0.0
 11
201.3001092355174
 21
461.0180911067728
 31
0.0
  0
LINE
  5
2BA0
330
A
100
AcDbEntity
  8
02
100
AcDbLine
 10
201.3001092355174
 20
461.0180911067728
 30
0.0
 11
201.3001092355175
 21
460.4180911067733
 31
0.0
  0
LINE
  5
2BA1
330
A
100
AcDbEntity
  8
02
100
AcDbLine
 10
201.3001092355175
 20
460.4180911067733
 30
0.0
 11
201.3001092355175
 21
443.2179801246746
 31
0.0
  0
ARC
  5
2BA2
330
A
100
AcDbEntity
  8
02
100
AcDbCircle
 10
204.3001092355175
 20
443.2179801246746
 30
0.0
 40
3.0
100
AcDbArc
 50
180.0
 51
270.0
  0
LINE
  5
2BA3
330
A
100
AcDbEntity
  8
02
100
AcDbLine
 10
204.3001092355175
 20
440.2179801246748
 30
0.0
 11
209.3000807101601
 21
440.2179801246748
 31
0.0
  0
ARC
  5
2BA4
330
A
100
AcDbEntity
  8
02
100
AcDbCircle
 10
209.3000807101601
 20
443.2179801246746
 30
0.0
 40
3.0
100
AcDbArc
 50
270.0
 51
0.0
  0
LINE
  5
2BA5
330
A
100
AcDbEntity
  8
02
100
AcDbLine
 10
212.30008071016
 20
443.2179801246746
 30
0.0
 11
212.30008071016
 21
450.6176145387962
 31
0.0
  0
ARC
  5
2BA6
330
A
100
AcDbEntity
  8
02
100
AcDbCircle
 10
211.80008071016
 20
450.6176145387962
 30
0.0
 40
0.5
100
AcDbArc
 50
0.0
 51
90.0
  0
LINE
  5
2BA7
330
A
100
AcDbEntity
  8
02
100
AcDbLine
 10
211.80008071016
 20
451.1176145387962
 30
0.0
 11
211.3000807101596
 21
451.1176145387962
 31
0.0
  0
ARC
  5
2BA8
330
A
100
AcDbEntity
  8
02
100
AcDbCircle
 10
211.3000807101596
 20
451.6176145387963
 30
0.0
 40
0.5
100
AcDbArc
 50
180.0
 51
270.0
  0
LINE
  5
2BA9
330
A
100
AcDbEntity
  8
02
100
AcDbLine
 10
210.8000807101596
 20
451.6176145387963
 30
0.0
 11
210.8000807101596
 21
453.1179801246747
 31
0.0
  0
LINE
  5
2BAA
330
A
100
AcDbEntity
  8
02
100
AcDbLine
 10
210.8000807101596
 20
453.1179801246747
 30
0.0
 11
213.8000807101601
 21
453.1176145387964
 31
0.0
  0
ARC
  5
2BAB
330
A
100
AcDbEntity
  8
02
100
AcDbCircle
 10
213.7999588333485
 20
452.1174926619847
 30
0.0
 40
1.00012188423755
100
AcDbArc
 50
0.0069821759182269
 51
89.99301782407362
  0
LINE
  5
2BAC
330
A
100
AcDbEntity
  8
02
100
AcDbLine
 10
214.8000807101601
 20
452.1176145387963
 30
0.0
 11
214.8000807101602
 21
442.7176480650111
 31
0.0
  0
ARC
  5
2BAD
330
A
100
AcDbEntity
  8
02
100
AcDbCircle
 10
217.8000807101601
 20
442.7176480650111
 30
0.0
 40
3.000000000000028
100
AcDbArc
 50
180.0
 51
269.9999999999993
  0
LINE
  5
2BAE
330
A
100
AcDbEntity
  8
02
100
AcDbLine
 10
217.8000807101601
 20
439.7176480650111
 30
0.0
 11
219.3918171985528
 21
439.7176480650111
 31
0.0
  0
ARC
  5
2BAF
330
A
100
AcDbEntity
  8
02
100
AcDbCircle
 10
219.3918171985528
 20
440.7176480650112
 30
0.0
 40
1.0
100
AcDbArc
 50
270.0
 51
343.4014297066841
  0
ARC
  5
2BB0
330
A
100
AcDbEntity
  8
02
100
AcDbCircle
 10
226.100125119371
 20
438.7179968855583
 30
0.0
 40
5.999999999999992
100
AcDbArc
 50
354.2603722950762
 51
163.4014297066853
  0
ARC
  5
2BB1
330
A
100
AcDbEntity
  8
02
100
AcDbCircle
 10
231.0750583146818
 20
438.2179571849384
 30
0.0
 40
0.9999999999999593
100
AcDbArc
 50
269.9999999999966
 51
354.2603722950748
  0
LINE
  5
2BB2
330
A
100
AcDbEntity
  8
02
100
AcDbLine
 10
231.0750583146818
 20
437.2179571849384
 30
0.0
 11
224.807215799177
 21
437.2179571849384
 31
0.0
  0
ARC
  5
2BB3
330
A
100
AcDbEntity
  8
02
100
AcDbCircle
 10
224.807215799177
 20
436.7179571849386
 30
0.0
 40
0.4999999999998296
100
AcDbArc
 50
89.99999999999348
 51
135.0000000000069
  0
LINE
  5
2BB4
330
A
100
AcDbEntity
  8
02
100
AcDbLine
 10
224.4536624085838
 20
437.0715105755317
 30
0.0
 11
223.2465594939508
 21
435.8644076608988
 31
0.0
  0
ARC
  5
2BB5
330
A
100
AcDbEntity
  8
02
100
AcDbCircle
 10
222.8930061033576
 20
436.217961051492
 30
0.0
 40
0.4999999999999036
100
AcDbArc
 50
269.9997661359137
 51
314.9999999999976
  0
LINE
  5
2BB6
330
A
100
AcDbEntity
  8
02
100
AcDbLine
 10
222.8930040625083
 20
435.7179610514962
 30
0.0
 11
213.6000983798772
 21
435.7180041244965
 31
0.0
  0
LINE
  5
2BB7
330
A
100
AcDbEntity
  8
02
100
AcDbLine
 10
213.6000983798772
 20
435.7180041244965
 30
0.0
 11
201.1001092355177
 21
429.7176480650112
 31
0.0
  0
LINE
  5
2BB8
330
A
100
AcDbEntity
  8
02
100
AcDbLine
 10
201.1001092355177
 20
429.7176480650112
 30
0.0
 11
201.1001092355177
 21
424.0176480650111
 31
0.0
  0
LINE
  5
2BB9
330
A
100
AcDbEntity
  8
02
100
AcDbLine
 10
201.1001092355177
 20
424.0176480650111
 30
0.0
 11
201.1001092355177
 21
424.0176480650111
 31
0.0
  0
LINE
  5
2BBA
330
A
100
AcDbEntity
  8
02
100
AcDbLine
 10
201.1001092355177
 20
424.0176480650111
 30
0.0
 11
201.1001092355177
 21
423.4176480650112
 31
0.0
  0
LINE
  5
2BBB
330
A
100
AcDbEntity
  8
02
100
AcDbLine
 10
201.1001092355177
 20
423.4176480650112
 30
0.0
 11
201.1001092355177
 21
417.7176480650111
 31
0.0
  0
TEXT
  5
2D45
330
A
100
AcDbEntity
  8
MOJI
100
AcDbText
 10
108.765
 20
84.17934290467664
 30
0.0
 40
6.0
  1
SOV-160KLDM
 41
0.8
  7
0_8
 11
108.765
 21
90.17934290467664
 31
0.0
100
AcDbText
 73
     3
  0
TEXT
  5
2D46
330
A
100
AcDbEntity
  8
MOJI
100
AcDbText
 10
108.765
 20
75.35434290467666
 30
0.0
 40
6.0
  1
SOV-200KLDM
 41
0.8
  7
0_8
 11
108.765
 21
81.35434290467665
 31
0.0
100
AcDbText
 73
     3
  0
TEXT
  5
2D47
330
A
100
AcDbEntity
  8
MOJI
100
AcDbText
 10
108.765
 20
66.52934290467662
 30
0.0
 40
6.0
  1
SOV-200KNB
 41
0.8
  7
0_8
 11
108.765
 21
72.52934290467663
 31
0.0
100
AcDbText
 73
     3
  0
TEXT
  5
2D48
330
A
100
AcDbEntity
  8
MOJI
100
AcDbText
 10
108.765
 20
101.8293429046766
 30
0.0
 40
6.0
  1
SOV-100KLDM
 41
0.8
  7
0_8
 11
108.765
 21
107.8293429046766
 31
0.0
100
AcDbText
 73
     3
  0
TEXT
  5
2D49
330
A
100
AcDbEntity
  8
MOJI
100
AcDbText
 10
108.765
 20
93.00434290467665
 30
0.0
 40
6.0
  1
SOV-150KLTM
 41
0.8
  7
0_8
 11
108.765
 21
99.00434290467664
 31
0.0
100
AcDbText
 73
     3
  0
TEXT
  5
2D4A
330
A
100
AcDbEntity
  8
MOJI
100
AcDbText
 10
108.765
 20
119.5043429046765
 30
0.0
 40
6.0
  1
SOV-60KLTM
 41
0.8
  7
0_8
 11
108.765
 21
125.5043429046766
 31
0.0
100
AcDbText
 73
     3
  0
TEXT
  5
2D4B
330
A
100
AcDbEntity
  8
MOJI
100
AcDbText
 10
130.7232204896155
 20
132.5463732756001
 30
0.0
 40
6.0
  1
使用機種
 41
0.8
  7
0_8
 11
130.7232204896155
 21
138.5463732756001
 31
0.0
100
AcDbText
 73
     3
  0
TEXT
  5
2D4C
330
A
100
AcDbEntity
  8
MOJI
100
AcDbText
 10
184.7582816256626
 20
137.6338949440724
 30
0.0
 40
6.0
  1
最大ドア質量（kg）
 41
0.8
  7
0_8
 11
184.7582816256626
 21
143.6338949440725
 31
0.0
100
AcDbText
 73
     3
  0
TEXT
  5
2D4D
330
A
100
AcDbEntity
  8
MOJI
100
AcDbText
 10
184.7582816256626
 20
128.8088949440725
 30
0.0
 40
6.0
  1
片引き
 41
0.8
  7
0_8
 11
184.7582816256626
 21
134.8088949440725
 31
0.0
100
AcDbText
 73
     3
  0
TEXT
  5
2D4E
330
A
100
AcDbEntity
  8
MOJI
100
AcDbText
 10
219.8080510112069
 20
128.8088949440725
 30
0.0
 40
6.0
  1
引分け
 41
0.8
  7
0_8
 11
219.8080510112069
 21
134.8088949440725
 31
0.0
100
AcDbText
 73
     3
  0
TEXT
  5
2D4F
330
A
100
AcDbEntity
  8
MOJI
100
AcDbText
 10
182.6122665520595
 20
119.5043429046765
 30
0.0
 40
6.0
  1
６５×１
 41
0.8
  7
0_8
 11
182.6122665520595
 21
125.5043429046766
 31
0.0
100
AcDbText
 73
     3
  0
TEXT
  5
2D50
330
A
100
AcDbEntity
  8
MOJI
100
AcDbText
 10
217.8276249999998
 20
119.5043429046765
 30
0.0
 40
6.0
  1
３０×２
 41
0.8
  7
0_8
 11
217.8276249999998
 21
125.5043429046766
 31
0.0
100
AcDbText
 73
     3
  0
TEXT
  5
2D51
330
A
100
AcDbEntity
  8
MOJI
100
AcDbText
 10
182.6122665520595
 20
101.8293429046766
 30
0.0
 40
6.0
  1
７５×１
 41
0.8
  7
0_8
 11
182.6122665520595
 21
107.8293429046766
 31
0.0
100
AcDbText
 73
     3
  0
TEXT
  5
2D52
330
A
100
AcDbEntity
  8
MOJI
100
AcDbText
 10
217.8276249999998
 20
101.8293429046766
 30
0.0
 40
6.0
  1
５０×２
 41
0.8
  7
0_8
 11
217.8276249999998
 21
107.8293429046766
 31
0.0
100
AcDbText
 73
     3
  0
TEXT
  5
2D53
330
A
100
AcDbEntity
  8
MOJI
100
AcDbText
 10
217.8276249999998
 20
93.00434290467665
 30
0.0
 40
6.0
  1
７５×２
 41
0.8
  7
0_8
 11
217.8276249999998
 21
99.00434290467664
 31
0.0
100
AcDbText
 73
     3
  0
TEXT
  5
2D54
330
A
100
AcDbEntity
  8
MOJI
100
AcDbText
 10
217.8276249999998
 20
84.17934290467664
 30
0.0
 40
6.0
  1
７５×２
 41
0.8
  7
0_8
 11
217.8276249999998
 21
90.17934290467664
 31
0.0
100
AcDbText
 73
     3
  0
TEXT
  5
2D55
330
A
100
AcDbEntity
  8
MOJI
100
AcDbText
 10
217.8276249999998
 20
75.35434290467666
 30
0.0
 40
6.0
  1
７５×２
 41
0.8
  7
0_8
 11
217.8276249999998
 21
81.35434290467665
 31
0.0
100
AcDbText
 73
     3
  0
TEXT
  5
2D56
330
A
100
AcDbEntity
  8
MOJI
100
AcDbText
 10
217.8276249999998
 20
66.52934290467662
 30
0.0
 40
6.0
  1
７５×２
 41
0.8
  7
0_8
 11
217.8276249999998
 21
72.52934290467663
 31
0.0
100
AcDbText
 73
     3
  0
TEXT
  5
2D57
330
A
100
AcDbEntity
  8
MOJI
100
AcDbText
 10
182.6122665520595
 20
93.00434290467665
 30
0.0
 40
6.0
  1
７５×１
 41
0.8
  7
0_8
 11
182.6122665520595
 21
99.00434290467664
 31
0.0
100
AcDbText
 73
     3
  0
TEXT
  5
2D58
330
A
100
AcDbEntity
  8
MOJI
100
AcDbText
 10
182.6122665520595
 20
84.17934290467664
 30
0.0
 40
6.0
  1
７５×１
 41
0.8
  7
0_8
 11
182.6122665520595
 21
90.17934290467664
 31
0.0
100
AcDbText
 73
     3
  0
TEXT
  5
2D59
330
A
100
AcDbEntity
  8
MOJI
100
AcDbText
 10
182.6122665520595
 20
75.35434290467666
 30
0.0
 40
6.0
  1
７５×１
 41
0.8
  7
0_8
 11
182.6122665520595
 21
81.35434290467665
 31
0.0
100
AcDbText
 73
     3
  0
TEXT
  5
2D5A
330
A
100
AcDbEntity
  8
MOJI
100
AcDbText
 10
182.6122665520595
 20
66.52934290467662
 30
0.0
 40
6.0
  1
７５×１
 41
0.8
  7
0_8
 11
182.6122665520595
 21
72.52934290467663
 31
0.0
100
AcDbText
 73
     3
  0
TEXT
  5
2D5B
330
A
100
AcDbEntity
  8
MOJI
100
AcDbText
 10
271.9465600945531
 20
137.6338949440724
 30
0.0
 40
6.0
  1
伝達機構
 41
0.8
  7
0_8
 11
271.9465600945531
 21
143.6338949440725
 31
0.0
100
AcDbText
 73
     3
  0
TEXT
  5
2D5C
330
A
100
AcDbEntity
  8
MOJI
100
AcDbText
 10
252.3775
 20
128.8088949440725
 30
0.0
 40
6.0
  1
Ｖベルト
 41
0.8
  7
0_8
 11
252.3775
 21
134.8088949440725
 31
0.0
100
AcDbText
 73
     3
  0
TEXT
  5
2D5D
330
A
100
AcDbEntity
  8
MOJI
100
AcDbText
 10
283.7439108577863
 20
128.8088949440725
 30
0.0
 40
6.0
  1
歯付きベルト
 41
0.75
  7
0_8
 11
283.7439108577863
 21
134.8088949440725
 31
0.0
100
AcDbText
 73
     3
  0
CIRCLE
  5
2D5E
330
A
100
AcDbEntity
  8
SAISEN
100
AcDbCircle
 10
297.0479553410318
 20
113.0401978238551
 30
0.0
 40
2.647499999999999
  0
CIRCLE
  5
2D5F
330
A
100
AcDbEntity
  8
SAISEN
100
AcDbCircle
 10
297.0479553410318
 20
104.215197823855
 30
0.0
 40
2.647499999999999
  0
CIRCLE
  5
2D60
330
A
100
AcDbEntity
  8
SAISEN
100
AcDbCircle
 10
297.0479553410318
 20
95.39019782385514
 30
0.0
 40
2.647499999999999
  0
CIRCLE
  5
2D61
330
A
100
AcDbEntity
  8
SAISEN
100
AcDbCircle
 10
297.0479553410318
 20
86.56519782385519
 30
0.0
 40
2.647499999999999
  0
CIRCLE
  5
2D62
330
A
100
AcDbEntity
  8
SAISEN
100
AcDbCircle
 10
297.0479553410318
 20
77.74019782385519
 30
0.0
 40
2.647499999999999
  0
CIRCLE
  5
2D63
330
A
100
AcDbEntity
  8
SAISEN
100
AcDbCircle
 10
262.3479553410317
 20
77.74019782385519
 30
0.0
 40
2.647499999999999
  0
CIRCLE
  5
2D64
330
A
100
AcDbEntity
  8
SAISEN
100
AcDbCircle
 10
262.3479553410317
 20
86.56519782385519
 30
0.0
 40
2.647499999999999
  0
CIRCLE
  5
2D65
330
A
100
AcDbEntity
  8
SAISEN
100
AcDbCircle
 10
262.3479553410317
 20
95.39019782385514
 30
0.0
 40
2.647499999999999
  0
CIRCLE
  5
2D66
330
A
100
AcDbEntity
  8
SAISEN
100
AcDbCircle
 10
262.3479553410317
 20
104.215197823855
 30
0.0
 40
2.647499999999999
  0
CIRCLE
  5
2D67
330
A
100
AcDbEntity
  8
SAISEN
100
AcDbCircle
 10
262.3479553410317
 20
113.0401978238551
 30
0.0
 40
2.647499999999999
  0
CIRCLE
  5
2D68
330
A
100
AcDbEntity
  8
SAISEN
100
AcDbCircle
 10
297.0479553410318
 20
113.0401978238551
 30
0.0
 40
1.764999999999998
  0
CIRCLE
  5
2D69
330
A
100
AcDbEntity
  8
SAISEN
100
AcDbCircle
 10
297.0479553410318
 20
104.215197823855
 30
0.0
 40
1.764999999999998
  0
CIRCLE
  5
2D6A
330
A
100
AcDbEntity
  8
SAISEN
100
AcDbCircle
 10
297.0479553410318
 20
95.39019782385514
 30
0.0
 40
1.764999999999998
  0
CIRCLE
  5
2D6B
330
A
100
AcDbEntity
  8
SAISEN
100
AcDbCircle
 10
297.0479553410318
 20
86.56519782385519
 30
0.0
 40
1.764999999999998
  0
CIRCLE
  5
2D6C
330
A
100
AcDbEntity
  8
SAISEN
100
AcDbCircle
 10
297.0479553410318
 20
77.74019782385519
 30
0.0
 40
1.764999999999998
  0
POLYLINE
  5
2D6D
330
A
100
AcDbEntity
  8
SAISEN
100
AcDb2dPolyline
 66
     1
 10
0.0
 20
0.0
 30
0.0
 70
     1
  0
VERTEX
  5
2E92
330
2D6D
100
AcDbEntity
  8
SAISEN
100
AcDbVertex
100
AcDb2dVertex
 10
104.9999999999998
 20
64.86639494407251
 30
0.0
  0
VERTEX
  5
2E93
330
2D6D
100
AcDbEntity
  8
SAISEN
100
AcDbVertex
100
AcDb2dVertex
 10
315.0
 20
64.86639494407251
 30
0.0
  0
VERTEX
  5
2E94
330
2D6D
100
AcDbEntity
  8
SAISEN
100
AcDbVertex
100
AcDb2dVertex
 10
315.0
 20
144.5163949440724
 30
0.0
  0
VERTEX
  5
2E95
330
2D6D
100
AcDbEntity
  8
SAISEN
100
AcDbVertex
100
AcDb2dVertex
 10
104.9999999999998
 20
144.5163949440724
 30
0.0
  0
SEQEND
  5
2E96
330
2D6D
100
AcDbEntity
  8
SAISEN
  0
LINE
  5
2D6E
330
A
100
AcDbEntity
  8
SAISEN
100
AcDbLine
 10
104.9999999999998
 20
126.8163949440725
 30
0.0
 11
315.0
 21
126.8163949440725
 31
0.0
  0
LINE
  5
2D6F
330
A
100
AcDbEntity
  8
SAISEN
100
AcDbLine
 10
104.9999999999998
 20
109.1163949440725
 30
0.0
 11
315.0
 21
109.1163949440725
 31
0.0
  0
LINE
  5
2D70
330
A
100
AcDbEntity
  8
SAISEN
100
AcDbLine
 10
104.9999999999998
 20
100.2663949440724
 30
0.0
 11
315.0
 21
100.2663949440724
 31
0.0
  0
LINE
  5
2D71
330
A
100
AcDbEntity
  8
SAISEN
100
AcDbLine
 10
104.9999999999998
 20
91.4163949440725
 30
0.0
 11
315.0
 21
91.4163949440725
 31
0.0
  0
LINE
  5
2D72
330
A
100
AcDbEntity
  8
SAISEN
100
AcDbLine
 10
104.9999999999998
 20
82.5663949440725
 30
0.0
 11
315.0
 21
82.5663949440725
 31
0.0
  0
LINE
  5
2D73
330
A
100
AcDbEntity
  8
SAISEN
100
AcDbLine
 10
104.9999999999998
 20
73.71639494407253
 30
0.0
 11
315.0
 21
73.71639494407253
 31
0.0
  0
LINE
  5
2D74
330
A
100
AcDbEntity
  8
SAISEN
100
AcDbLine
 10
175.0
 20
144.5163949440724
 30
0.0
 11
175.0
 21
64.86639494407251
 31
0.0
  0
LINE
  5
2D75
330
A
100
AcDbEntity
  8
SAISEN
100
AcDbLine
 10
175.0
 20
135.6663949440724
 30
0.0
 11
315.0
 21
135.6663949440724
 31
0.0
  0
LINE
  5
2D76
330
A
100
AcDbEntity
  8
SAISEN
100
AcDbLine
 10
209.9999999999999
 20
135.6663949440724
 30
0.0
 11
209.9999999999999
 21
64.86639494407251
 31
0.0
  0
LINE
  5
2D77
330
A
100
AcDbEntity
  8
SAISEN
100
AcDbLine
 10
244.9999999999997
 20
64.86639494407251
 30
0.0
 11
244.9999999999997
 21
144.5163949440724
 31
0.0
  0
LINE
  5
2D78
330
A
100
AcDbEntity
  8
SAISEN
100
AcDbLine
 10
280.0
 20
64.86639494407251
 30
0.0
 11
280.0
 21
135.6663949440724
 31
0.0
  0
LINE
  5
2D79
330
A
100
AcDbEntity
  8
SAISEN
100
AcDbLine
 10
244.9999999999997
 20
64.86639494407251
 30
0.0
 11
280.0
 21
73.71639494407253
 31
0.0
  0
CIRCLE
  5
2D7A
330
A
100
AcDbEntity
  8
SAISEN
100
AcDbCircle
 10
297.0479553410318
 20
68.89019782385521
 30
0.0
 40
1.764999999999998
  0
CIRCLE
  5
2D7B
330
A
100
AcDbEntity
  8
SAISEN
100
AcDbCircle
 10
297.0479553410318
 20
68.89019782385521
 30
0.0
 40
2.647499999999999
  0
TEXT
  5
2D7C
330
A
100
AcDbEntity
  8
MOJI
100
AcDbText
 10
316.85
 20
93.4163949440725
 30
0.0
 40
7.0
  1
☆本図
 41
0.8
  7
0_8
 11
316.85
 21
100.4163949440724
 31
0.0
100
AcDbText
 73
     3
  0
LINE
  5
2D7D
330
A
100
AcDbEntity
  8
SAISEN
100
AcDbLine
 10
104.9999999999998
 20
117.9663949440724
 30
0.0
 11
315.0
 21
117.9663949440724
 31
0.0
  0
TEXT
  5
2D7E
330
A
100
AcDbEntity
  8
MOJI
100
AcDbText
 10
108.765
 20
110.6793429046765
 30
0.0
 40
6.0
  1
SOV-70KLDM
 41
0.8
  7
0_8
 11
108.765
 21
116.6793429046765
 31
0.0
100
AcDbText
 73
     3
  0
TEXT
  5
2D7F
330
A
100
AcDbEntity
  8
MOJI
100
AcDbText
 10
182.6122665520595
 20
110.6793429046765
 30
0.0
 40
6.0
  1
７０×１
 41
0.8
  7
0_8
 11
182.6122665520595
 21
116.6793429046765
 31
0.0
100
AcDbText
 73
     3
  0
TEXT
  5
2D80
330
A
100
AcDbEntity
  8
MOJI
100
AcDbText
 10
217.8276249999998
 20
110.6793429046765
 30
0.0
 40
6.0
  1
３５×２
 41
0.8
  7
0_8
 11
217.8276249999998
 21
116.6793429046765
 31
0.0
100
AcDbText
 73
     3
  0
CIRCLE
  5
2D81
330
A
100
AcDbEntity
  8
SAISEN
100
AcDbCircle
 10
262.3479553410317
 20
121.890197823855
 30
0.0
 40
2.647499999999999
  0
CIRCLE
  5
2D82
330
A
100
AcDbEntity
  8
SAISEN
100
AcDbCircle
 10
297.0479553410318
 20
121.890197823855
 30
0.0
 40
1.764999999999998
  0
CIRCLE
  5
2D83
330
A
100
AcDbEntity
  8
SAISEN
100
AcDbCircle
 10
297.0479553410318
 20
121.890197823855
 30
0.0
 40
2.647499999999999
  0
MTEXT
  5
2E25
330
A
100
AcDbEntity
  8
MOJI
100
AcDbMText
 10
255.000000000003
 20
29.77877395626052
 30
0.0
 40
7.0
 41
60.0
 71
     5
 72
     1
  1
片引き又は両引き
  7
0_80
1001
ACAD
1000
MTEXTBEGIN
1070
    73
1070
     1
1070
    44
1040
1.0
1070
    74
1070
     0
1000
MTEXTEND
1000
MTEXTBEGIN
1070
    73
1070
     1
1070
    44
1040
1.0
1070
    74
1070
     0
1000
MTEXTEND
  0
MTEXT
  5
2E26
330
A
100
AcDbEntity
  8
MOJI
100
AcDbMText
 10
309.9999999999999
 20
29.77877395626052
 30
0.0
 40
7.0
 41
50.0
 71
     5
 72
     1
  1
図番１－５
  7
0_80
1001
ACAD
1000
MTEXTBEGIN
1070
    73
1070
     1
1070
    44
1040
1.0
1070
    74
1070
     0
1000
MTEXTEND
1000
MTEXTBEGIN
1070
    73
1070
     1
1070
    44
1040
1.0
1070
    74
1070
     0
1000
MTEXTEND
  0
MTEXT
  5
2E27
330
A
100
AcDbEntity
  8
MOJI
100
AcDbMText
 10
360.0
 20
29.77877395626052
 30
0.0
 40
7.0
 41
49.99999999999994
 71
     5
 72
     1
  1
たて断面図　
  7
0_80
1001
ACAD
1000
MTEXTBEGIN
1070
    73
1070
     1
1070
    44
1040
1.0
1070
    74
1070
     0
1000
MTEXTEND
1000
MTEXTBEGIN
1070
    73
1070
     1
1070
    44
1040
1.0
1070
    74
1070
     0
1000
MTEXTEND
  0
LINE
  5
2E28
330
A
100
AcDbEntity
  8
SAISEN
100
AcDbLine
 10
145.0
 20
42.77877395626063
 30
0.0
 11
145.0
 21
17.77877395626046
 31
0.0
  0
LINE
  5
2E29
330
A
100
AcDbEntity
  8
SAISEN
100
AcDbLine
 10
225.0
 20
42.77877395626063
 30
0.0
 11
225.0
 21
17.77877395626046
 31
0.0
  0
LINE
  5
2E2A
330
A
100
AcDbEntity
  8
SAISEN
100
AcDbLine
 10
285.0
 20
42.77877395626063
 30
0.0
 11
285.0
 21
17.77877395626046
 31
0.0
  0
MTEXT
  5
2E2B
330
A
100
AcDbEntity
  8
MOJI
100
AcDbMText
 10
90.0
 20
30.27877395626057
 30
0.0
 40
7.0
 41
110.0
 71
     5
 72
     1
  1
アルミユニット直付け台板納り
  7
0_8
1001
ACAD
1000
MTEXTBEGIN
1070
    73
1070
     1
1070
    44
1040
1.0
1070
    74
1070
     0
1000
MTEXTEND
1000
MTEXTBEGIN
1070
    73
1070
     1
1070
    44
1040
1.0
1070
    74
1070
     0
1000
MTEXTEND
  0
MTEXT
  5
2E2C
330
A
100
AcDbEntity
  8
MOJI
100
AcDbMText
 10
185.0
 20
30.27877395626057
 30
0.0
 40
7.0
 41
80.0
 71
     5
 72
     1
  1
Ｄ３台板
  7
0_8
1001
ACAD
1000
MTEXTBEGIN
1070
    73
1070
     1
1070
    44
1040
1.0
1070
    74
1070
     0
1000
MTEXTEND
1000
MTEXTBEGIN
1070
    73
1070
     1
1070
    44
1040
1.0
1070
    74
1070
     0
1000
MTEXTEND
  0
POLYLINE
  5
2E2D
330
A
100
AcDbEntity
  8
SAISEN
100
AcDb2dPolyline
 66
     1
 10
0.0
 20
0.0
 30
0.0
 70
     1
  0
VERTEX
  5
2E97
330
2E2D
100
AcDbEntity
  8
SAISEN
100
AcDbVertex
100
AcDb2dVertex
 10
35.00000000000003
 20
17.77877395626046
 30
0.0
  0
VERTEX
  5
2E98
330
2E2D
100
AcDbEntity
  8
SAISEN
100
AcDbVertex
100
AcDb2dVertex
 10
385.0
 20
17.77877395626046
 30
0.0
  0
VERTEX
  5
2E99
330
2E2D
100
AcDbEntity
  8
SAISEN
100
AcDbVertex
100
AcDb2dVertex
 10
385.0
 20
42.77877395626063
 30
0.0
  0
VERTEX
  5
2E9A
330
2E2D
100
AcDbEntity
  8
SAISEN
100
AcDbVertex
100
AcDb2dVertex
 10
35.00000000000003
 20
42.77877395626063
 30
0.0
  0
SEQEND
  5
2E9B
330
2E2D
100
AcDbEntity
  8
SAISEN
  0
VIEWPORT
  5
A3A
102
{ACAD_XDICTIONARY
360
2E5F
102
}
330
B
100
AcDbEntity
 67
     1
  8
0
100
AcDbViewport
 10
198.3118409750536
 20
285.066894380785
 30
0.0
 40
1030.552740959996
 41
600.5058674350679
 68
     1
 69
     1
1001
ACAD
1000
MVIEW
1002
{
1070
    16
1010
0.0
1020
0.0
1030
0.0
1010
0.0
1020
0.0
1030
1.0
1040
0.0
1040
600.5058674350679
1040
198.3118409750536
1040
285.066894380785
1040
50.0
1040
0.0
1040
0.0
1070
     0
1070
   100
1070
     1
1070
     1
1070
     0
1070
     0
1070
     0
1070
     0
1040
0.0
1040
0.0
1040
0.0
1040
10.0
1040
10.0
1040
10.0
1040
10.0
1070
     0
1002
{
1002
}
1002
}
  0
VIEWPORT
  5
2E47
102
{ACAD_XDICTIONARY
360
2E65
102
}
330
B
100
AcDbEntity
 67
     1
  8
DEFPOINTS
100
AcDbViewport
 10
198.311841928816
 20
285.0668934270224
 30
0.0
 40
396.4883172119752
 41
570.409736121624
 68
     2
 69
     2
1001
ACAD
1000
MVIEW
1002
{
1070
    16
1010
0.0
1020
0.0
1030
0.0
1010
0.0
1020
0.0
1030
1.0
1040
0.0
1040
570.409736121624
1040
210.0
1040
297.0
1040
50.0
1040
0.0
1040
0.0
1070
     0
1070
   100
1070
     1
1070
     1
1070
     0
1070
     0
1070
     0
1070
     0
1040
0.0
1040
0.0
1040
0.0
1040
1.0
1040
1.0
1040
0.0
1040
0.0
1070
     0
1002
{
1002
}
1002
}
  0
ENDSEC
  0
SECTION
  2
OBJECTS
  0
DICTIONARY
  5
19
330
0
100
AcDbDictionary
  3
ACAD_COLOR
350
556
  3
ACAD_GROUP
350
1A
  3
ACAD_LAYOUT
350
557
  3
ACAD_MATERIAL
350
555
  3
ACAD_MLINESTYLE
350
1B
  3
ACAD_PLOTSETTINGS
350
558
  3
ACADDIM
350
6D3
  3
ASE_INDEX_DICTIONARY
350
2E2E
  3
DWGPROPS
350
2E5B
1001
ACAD
1000
TREAT_AS_HARD
1070
     0
1000
TREAT_AS_HARD
1070
     0
  0
DICTIONARY
  5
2E15
330
2
100
AcDbDictionary
  3
ACAD_LAYERSTATES
350
2E16
1001
ACAD
1000
TREAT_AS_HARD
1070
     1
  0
DICTIONARY
  5
2DA9
330
A
100
AcDbDictionary
  3
ACAD_LAYOUTSELFREF
350
2E6D
1001
ACAD
1000
TREAT_AS_HARD
1070
     1
  0
DICTIONARY
  5
2DAB
330
B
100
AcDbDictionary
  3
ACAD_LAYOUTSELFREF
350
2E6E
1001
ACAD
1000
TREAT_AS_HARD
1070
     1
  0
DICTIONARY
  5
2E5F
330
A3A
100
AcDbDictionary
  3
ACAD_XREC_ROUNDTRIP
350
2E60
1001
ACAD
1000
TREAT_AS_HARD
1070
     1
  0
DICTIONARY
  5
2E65
330
2E47
100
AcDbDictionary
  3
ACAD_XREC_ROUNDTRIP
350
2E66
1001
ACAD
1000
TREAT_AS_HARD
1070
     1
  0
DICTIONARY
  5
556
102
{ACAD_REACTORS
330
19
102
}
330
19
100
AcDbDictionary
1001
ACAD
1000
TREAT_AS_HARD
1070
     0
1000
TREAT_AS_HARD
1070
     0
  0
DICTIONARY
  5
1A
102
{ACAD_REACTORS
330
19
102
}
330
19
100
AcDbDictionary
  3
DAGROUP340
350
340
1001
ACAD
1000
TREAT_AS_HARD
1070
     0
1000
TREAT_AS_HARD
1070
     0
  0
DICTIONARY
  5
557
102
{ACAD_REACTORS
330
19
102
}
330
19
100
AcDbDictionary
1001
ACAD
1000
TREAT_AS_HARD
1070
     0
1000
TREAT_AS_HARD
1070
     0
  0
DICTIONARY
  5
555
102
{ACAD_REACTORS
330
19
102
}
330
19
100
AcDbDictionary
1001
ACAD
1000
TREAT_AS_HARD
1070
     0
1000
TREAT_AS_HARD
1070
     0
  0
DICTIONARY
  5
1B
102
{ACAD_REACTORS
330
19
102
}
330
19
100
AcDbDictionary
  3
STANDARD
350
1C
1001
ACAD
1000
TREAT_AS_HARD
1070
     0
1000
TREAT_AS_HARD
1070
     0
  0
DICTIONARY
  5
558
102
{ACAD_REACTORS
330
19
102
}
330
19
100
AcDbDictionary
1001
ACAD
1000
TREAT_AS_HARD
1070
     0
1000
TREAT_AS_HARD
1070
     0
  0
XRECORD
  5
6D3
102
{ACAD_REACTORS
330
19
102
}
330
19
100
AcDbXrecord
 90
   990106
  3

 60
     0
 61
     0
 62
     4
 63
     4
 64
     1
 65
     0
 66
     0
 67
     3
 68
     1
 69
     0
 70
     0
 71
     0
 72
     0
 40
0.0
170
     2
340
6D6
  0
DICTIONARY
  5
2E2E
102
{ACAD_REACTORS
330
19
102
}
330
19
100
AcDbDictionary
  3
ASEBLOCKHIERARCHYINDEXRECORD
350
2E2F
1001
DCO15
1040
1508667287.343
1001
ACAD
1000
TREAT_AS_HARD
1070
     0
  0
XRECORD
  5
2E5B
102
{ACAD_REACTORS
330
19
102
}
330
19
100
AcDbXrecord
  1
DWGPROPS COOKIE
  2

  3

  4

  6

  7

  8
watanabe
  9

300
=
301
=
302
=
303
=
304
=
305
=
306
=
307
=
308
=
309
=
 40
0.7414257407407408
 41
2444972.375
 42
2453265.75511537
  1

 90
        0
  0
DICTIONARY
  5
2E16
102
{ACAD_REACTORS
330
2E15
102
}
330
2E15
100
AcDbDictionary
1001
ACAD
1000
TREAT_AS_HARD
1070
     0
  0
XRECORD
  5
2E6D
102
{ACAD_REACTORS
330
2DA9
102
}
330
2DA9
100
AcDbXrecord
340
A
  0
XRECORD
  5
2E6E
102
{ACAD_REACTORS
330
2DAB
102
}
330
2DAB
100
AcDbXrecord
340
B
  0
XRECORD
  5
2E60
102
{ACAD_REACTORS
330
2E5F
102
}
330
2E5F
100
AcDbXrecord
102
SHADEPLOT
 70
     0
  0
XRECORD
  5
2E66
102
{ACAD_REACTORS
330
2E65
102
}
330
2E65
100
AcDbXrecord
102
SHADEPLOT
 70
     0
  0
GROUP
  5
340
102
{ACAD_REACTORS
330
1A
102
}
330
1A
100
AcDbGroup
300

 70
     0
 71
     1
  0
MLINESTYLE
  5
1C
102
{ACAD_REACTORS
330
1B
102
}
330
1B
100
AcDbMlineStyle
  2
STANDARD
 70
     0
  3

 62
     0
 51
90.00000000000019
 52
90.00000000000019
 71
     2
 49
0.5
 62
   256
  6
BYLAYER
 49
-0.5
 62
   256
  6
BYLAYER
  0
XRECORD
  5
2E2F
102
{ACAD_REACTORS
330
2E2E
102
}
330
2E2E
100
AcDbXrecord
330
2CFC
330
2CFD
330
2CF4
330
2CF5
330
2CE9
330
2CEA
330
2CE0
330
2CE1
330
2CD5
330
2CD6
330
2CCC
330
2CCD
330
2CC2
330
2CC3
330
2CB9
330
2CBA
330
2CB0
330
2CB1
330
2CA8
330
2CA9
330
2C9D
330
2C9E
330
2C93
330
2C94
330
2C8A
330
2C8B
330
2C7F
330
2C80
330
2C76
330
2C77
330
2C6D
330
2C6E
330
2C62
330
2C63
330
2C59
330
2C5A
330
2C50
330
2C51
330
2DB9
330
2DBA
330
2DC3
330
2DCE
330
2DCF
330
2DD9
330
2C1D
330
2C1E
330
2C15
330
2C16
330
2C09
330
2C0A
330
2C01
330
2C02
  0
ENDSEC
  0
EOF
