  0
SECTION
  2
HEADER
  9
$ACADVER
  1
AC1012
  9
$DWGCODEPAGE
  3
dos932
  9
$INSBASE
 10
0.0
 20
0.0
 30
0.0
  9
$EXTMIN
 10
-0.0128164049386896
 20
-0.0024091564146147
 30
-0.0015258207003583
  9
$EXTMAX
 10
420.0128183607161
 20
594.021180815088
 30
0.0000000349246037
  9
$LIMMIN
 10
0.0
 20
0.0
  9
$LIMMAX
 10
420.0
 20
594.0
  9
$ORTHOMODE
 70
     0
  9
$REGENMODE
 70
     1
  9
$FILLMODE
 70
     1
  9
$QTEXTMODE
 70
     0
  9
$MIRRTEXT
 70
     1
  9
$DRAGMODE
 70
     2
  9
$LTSCALE
 40
0.3
  9
$OSMODE
 70
  3071
  9
$ATTMODE
 70
     1
  9
$TEXTSIZE
 40
6.0
  9
$TRACEWID
 40
0.05
  9
$TEXTSTYLE
  7
0_80
  9
$CLAYER
  8
DEFPOINTS
  9
$CELTYPE
  6
BYLAYER
  9
$CECOLOR
 62
   256
  9
$CELTSCALE
 40
2.0
  9
$DELOBJ
 70
     1
  9
$DISPSILH
 70
     0
  9
$DIMSCALE
 40
2.0
  9
$DIMASZ
 40
2.5
  9
$DIMEXO
 40
1.5
  9
$DIMDLI
 40
0.0
  9
$DIMRND
 40
0.0
  9
$DIMDLE
 40
0.0
  9
$DIMEXE
 40
1.0
  9
$DIMTP
 40
0.0
  9
$DIMTM
 40
0.0
  9
$DIMTXT
 40
2.5
  9
$DIMCEN
 40
0.0
  9
$DIMTSZ
 40
0.0
  9
$DIMTOL
 70
     0
  9
$DIMLIM
 70
     0
  9
$DIMTIH
 70
     0
  9
$DIMTOH
 70
     0
  9
$DIMSE1
 70
     0
  9
$DIMSE2
 70
     0
  9
$DIMTAD
 70
     1
  9
$DIMZIN
 70
     8
  9
$DIMBLK
  1
OPEN30
  9
$DIMASO
 70
     1
  9
$DIMSHO
 70
     1
  9
$DIMPOST
  1

  9
$DIMAPOST
  1

  9
$DIMALT
 70
     0
  9
$DIMALTD
 70
     2
  9
$DIMALTF
 40
25.4
  9
$DIMLFAC
 40
1.0
  9
$DIMTOFL
 70
     1
  9
$DIMTVP
 40
0.0
  9
$DIMTIX
 70
     1
  9
$DIMSOXD
 70
     0
  9
$DIMSAH
 70
     0
  9
$DIMBLK1
  1

  9
$DIMBLK2
  1

  9
$DIMSTYLE
  2
SUNPOU_2
  9
$DIMCLRD
 70
   256
  9
$DIMCLRE
 70
   256
  9
$DIMCLRT
 70
   256
  9
$DIMTFAC
 40
1.0
  9
$DIMGAP
 40
1.0
  9
$DIMJUST
 70
     0
  9
$DIMSD1
 70
     0
  9
$DIMSD2
 70
     0
  9
$DIMTOLJ
 70
     1
  9
$DIMTZIN
 70
     0
  9
$DIMALTZ
 70
     0
  9
$DIMALTTZ
 70
     0
  9
$DIMFIT
 70
     5
  9
$DIMUPT
 70
     0
  9
$DIMUNIT
 70
     2
  9
$DIMDEC
 70
     1
  9
$DIMTDEC
 70
     1
  9
$DIMALTU
 70
     2
  9
$DIMALTTD
 70
     2
  9
$DIMTXSTY
  7
SUNPOU
  9
$DIMAUNIT
 70
     0
  9
$LUNITS
 70
     2
  9
$LUPREC
 70
     4
  9
$SKETCHINC
 40
0.1
  9
$FILLETRAD
 40
0.0
  9
$AUNITS
 70
     0
  9
$AUPREC
 70
     0
  9
$MENU
  1
acad
  9
$ELEVATION
 40
0.0
  9
$PELEVATION
 40
0.0
  9
$THICKNESS
 40
0.0
  9
$LIMCHECK
 70
     0
  9
$BLIPMODE
 70
     0
  9
$CHAMFERA
 40
0.0
  9
$CHAMFERB
 40
0.0
  9
$CHAMFERC
 40
0.0
  9
$CHAMFERD
 40
0.0
  9
$SKPOLY
 70
     0
  9
$TDCREATE
 40
2444972.375000000
  9
$TDUPDATE
 40
2454040.416861713
  9
$TDINDWG
 40
0.2039865741
  9
$TDUSRTIMER
 40
0.2039865741
  9
$USRTIMER
 70
     1
  9
$ANGBASE
 50
0.0
  9
$ANGDIR
 70
     0
  9
$PDMODE
 70
     0
  9
$PDSIZE
 40
1.0
  9
$PLINEWID
 40
0.0
  9
$COORDS
 70
     0
  9
$SPLFRAME
 70
     0
  9
$SPLINETYPE
 70
     6
  9
$SPLINESEGS
 70
     8
  9
$ATTDIA
 70
     0
  9
$ATTREQ
 70
     1
  9
$HANDLING
 70
     1
  9
$HANDSEED
  5
1C30
  9
$SURFTAB1
 70
     6
  9
$SURFTAB2
 70
     6
  9
$SURFTYPE
 70
     6
  9
$SURFU
 70
     6
  9
$SURFV
 70
     6
  9
$UCSNAME
  2

  9
$UCSORG
 10
0.0
 20
0.0
 30
0.0
  9
$UCSXDIR
 10
1.0
 20
0.0
 30
0.0
  9
$UCSYDIR
 10
0.0
 20
1.0
 30
0.0
  9
$PUCSNAME
  2

  9
$PUCSORG
 10
0.0
 20
0.0
 30
0.0
  9
$PUCSXDIR
 10
1.0
 20
0.0
 30
0.0
  9
$PUCSYDIR
 10
0.0
 20
1.0
 30
0.0
  9
$USERI1
 70
     0
  9
$USERI2
 70
     0
  9
$USERI3
 70
     0
  9
$USERI4
 70
     0
  9
$USERI5
 70
     0
  9
$USERR1
 40
0.0
  9
$USERR2
 40
0.0
  9
$USERR3
 40
0.0
  9
$USERR4
 40
0.0
  9
$USERR5
 40
0.0
  9
$WORLDVIEW
 70
     1
  9
$SHADEDGE
 70
     3
  9
$SHADEDIF
 70
    70
  9
$TILEMODE
 70
     1
  9
$MAXACTVP
 70
    16
  9
$PINSBASE
 10
0.0
 20
0.0
 30
0.0
  9
$PLIMCHECK
 70
     0
  9
$PEXTMIN
 10
-4.955187014978605
 20
-4.808446718815275
 30
-0.0000000349181948
  9
$PEXTMAX
 10
401.0448129850214
 20
575.1915532811847
 30
0.0000000814935747
  9
$PLIMMIN
 10
-10.95518701497861
 20
-10.80844671881528
  9
$PLIMMAX
 10
408.9914682584589
 20
583.0435430272784
  9
$UNITMODE
 70
     0
  9
$VISRETAIN
 70
     0
  9
$PLINEGEN
 70
     1
  9
$PSLTSCALE
 70
     0
  9
$TREEDEPTH
 70
  3020
  9
$PICKSTYLE
 70
     1
  9
$CMLSTYLE
  2
STANDARD
  9
$CMLJUST
 70
     0
  9
$CMLSCALE
 40
1.0
  9
$SAVEIMAGES
 70
     1
  0
ENDSEC
  0
SECTION
  2
CLASSES
  0
CLASS
  1
LWPOLYLINE
  2
AcDbPolyline
  3
AutoCAD 2000
 90
    32768
280
     0
281
     1
  0
CLASS
  1
IMAGE
  2
AcDbRasterImage
  3
ISM
 90
    32895
280
     0
281
     1
  0
CLASS
  1
OLE2FRAME
  2
AcDbOle2Frame
  3
AutoCAD 2000
 90
    32768
280
     0
281
     1
  0
CLASS
  1
HATCH
  2
AcDbHatch
  3
AutoCAD 2000
 90
    32768
280
     0
281
     1
  0
CLASS
  1
DICTIONARYVAR
  2
AcDbDictionaryVar
  3
AutoCAD 2000
 90
    32768
280
     0
281
     0
  0
CLASS
  1
RASTERVARIABLES
  2
AcDbRasterVariables
  3
ISM
 90
    32768
280
     0
281
     0
  0
CLASS
  1
IMAGEDEF
  2
AcDbRasterImageDef
  3
ISM
 90
    32768
280
     0
281
     0
  0
CLASS
  1
IMAGEDEF_REACTOR
  2
AcDbRasterImageDefReactor
  3
ISM
 90
    32769
280
     0
281
     0
  0
CLASS
  1
IDBUFFER
  2
AcDbIdBuffer
  3
AutoCAD 2000
 90
    32768
280
     0
281
     0
  0
CLASS
  1
SPATIAL_FILTER
  2
AcDbSpatialFilter
  3
AutoCAD 2000
 90
    32768
280
     0
281
     0
  0
CLASS
  1
XRECORD
  2
AcDbXrecord
  3
AutoCAD 2000
 90
    32768
280
     0
281
     0
  0
CLASS
  1
SORTENTSTABLE
  2
AcDbSortentsTable
  3
AutoCAD 2000
 90
    32768
280
     0
281
     0
  0
CLASS
  1
LAYER_INDEX
  2
AcDbLayerIndex
  3
AutoCAD 2000
 90
    32768
280
     0
281
     0
  0
CLASS
  1
SPATIAL_INDEX
  2
AcDbSpatialIndex
  3
AutoCAD 2000
 90
    32768
280
     0
281
     0
  0
CLASS
  1
OBJECT_PTR
  2
CAseDLPNTableRecord
  3
ASE-LPNTableRecord
 90
    32769
280
     0
281
     0
  0
CLASS
  1
LAYOUT
  2
AcDbLayout
  3
AutoCAD 2000
 90
    32768
280
     0
281
     0
  0
CLASS
  1
PLOTSETTINGS
  2
AcDbPlotSettings
  3
AutoCAD 2000
 90
    32768
280
     0
281
     0
  0
CLASS
  1
ACDBDICTIONARYWDFLT
  2
AcDbDictionaryWithDefault
  3
AutoCAD 2000
 90
    32768
280
     0
281
     0
  0
CLASS
  1
ACDBPLACEHOLDER
  2
AcDbPlaceHolder
  3
AutoCAD 2000
 90
    32768
280
     0
281
     0
  0
CLASS
  1
VBA_PROJECT
  2
AcDbVbaProject
  3
acad
 90
    32768
280
     0
281
     0
  0
CLASS
  1
WIPEOUT
  2
AcDbWipeout
  3
"WipeOut|Product Desc: Object Enabler for WipeOut entity^I^I^I^I^I^I|Company: Autodesk, Inc.^I^I^I^I^I^I|WEB Address: www.autodesk.com"
 90
    32895
280
     0
281
     1
  0
CLASS
  1
WIPEOUTVARIABLES
  2
AcDbWipeoutVariables
  3
"WipeOut|Product Desc:     WipeOut Dbx Application|Company:          Autodesk, Inc.|WEB Address:      www.autodesk.com"
 90
    32768
280
     0
281
     0
  0
CLASS
  1
RTEXT
  2
RText
  3
RText|AutoCAD Express Tool|expresstools@autodesk.com
 90
    32768
280
     0
281
     1
  0
CLASS
  1
ARCALIGNEDTEXT
  2
AcDbArcAlignedText
  3
ATEXT|AutoCAD Express Tool|expresstools@autodesk.com
 90
    32768
280
     0
281
     1
  0
CLASS
  1
LONG_TRANSACTION
  2
AcDbLongTransaction
  3
AutoCAD 2000
 90
    32768
280
     0
281
     0
  0
CLASS
  1
LWPOLYLINE
  2
AcDbPolyline
  3
AutoCAD 2000
 90
    32768
280
     0
281
     1
  0
CLASS
  1
HATCH
  2
AcDbHatch
  3
AutoCAD 2000
 90
    32768
280
     0
281
     1
  0
CLASS
  1
XRECORD
  2
AcDbXrecord
  3
AutoCAD 2000
 90
    32768
280
     0
281
     0
  0
CLASS
  1
LONG_TRANSACTION
  2
AcDbLongTransaction
  3
AutoCAD 2000
 90
    32768
280
     0
281
     0
  0
CLASS
  1
LWPOLYLINE
  2
AcDbPolyline
  3
AutoCAD 2000
 90
    32768
280
     0
281
     1
  0
CLASS
  1
HATCH
  2
AcDbHatch
  3
AutoCAD 2000
 90
    32768
280
     0
281
     1
  0
CLASS
  1
XRECORD
  2
AcDbXrecord
  3
AutoCAD 2000
 90
    32768
280
     0
281
     0
  0
CLASS
  1
LONG_TRANSACTION
  2
AcDbLongTransaction
  3
AutoCAD 2000
 90
    32768
280
     0
281
     0
  0
CLASS
  1
LWPOLYLINE
  2
AcDbPolyline
  3
AutoCAD 2000
 90
    32768
280
     0
281
     1
  0
CLASS
  1
HATCH
  2
AcDbHatch
  3
AutoCAD 2000
 90
    32768
280
     0
281
     1
  0
CLASS
  1
XRECORD
  2
AcDbXrecord
  3
AutoCAD 2000
 90
    32768
280
     0
281
     0
  0
ENDSEC
  0
SECTION
  2
TABLES
  0
TABLE
  2
VPORT
  5
7
330
0
100
AcDbSymbolTable
 70
     2
  0
VPORT
  5
1C0E
330
7
100
AcDbSymbolTableRecord
100
AcDbViewportTableRecord
  2
*ACTIVE
 70
     0
 10
0.0
 20
0.0
 11
1.0
 21
1.0
 12
210.0000009778887
 22
297.0093858293367
 13
0.0
 23
0.0
 14
1.0
 24
1.0
 15
0.0
 25
0.0
 16
0.0
 26
0.0
 36
1.0
 17
0.0
 27
0.0
 37
0.0
 40
598.3333137197844
 41
1.458837772397094
 42
50.0
 43
0.0
 44
0.0
 50
0.0
 51
0.0
 71
     0
 72
   100
 73
     1
 74
     1
 75
     0
 76
     0
 77
     0
 78
     0
  0
ENDTAB
  0
TABLE
  2
LTYPE
  5
4
330
0
100
AcDbSymbolTable
 70
     3
  0
LTYPE
  5
11
330
4
100
AcDbSymbolTableRecord
100
AcDbLinetypeTableRecord
  2
BYBLOCK
 70
     0
  3

 72
    65
 73
     0
 40
0.0
  0
LTYPE
  5
12
330
4
100
AcDbSymbolTableRecord
100
AcDbLinetypeTableRecord
  2
BYLAYER
 70
     0
  3

 72
    65
 73
     0
 40
0.0
  0
LTYPE
  5
13
330
4
100
AcDbSymbolTableRecord
100
AcDbLinetypeTableRecord
  2
CONTINUOUS
 70
     0
  3
Solid line
 72
    65
 73
     0
 40
0.0
  0
LTYPE
  5
A4E
330
4
100
AcDbSymbolTableRecord
100
AcDbLinetypeTableRecord
  2
CENTER2
 70
     0
  3
Center (.5x) ___ _ ___ _ ___ _ ___ _ ___ _ ___
 72
    65
 73
     4
 40
28.57499999999999
 49
19.05
 74
     0
 49
-3.174999999999998
 74
     0
 49
3.174999999999998
 74
     0
 49
-3.174999999999998
 74
     0
  0
LTYPE
  5
A4F
330
4
100
AcDbSymbolTableRecord
100
AcDbLinetypeTableRecord
  2
PHANTOM2
 70
     0
  3
Phantom (.5x) ___ _ _ ___ _ _ ___ _ _ ___ _ _
 72
    65
 73
     6
 40
31.75
 49
15.875
 74
     0
 49
-3.174999999999998
 74
     0
 49
3.174999999999998
 74
     0
 49
-3.174999999999998
 74
     0
 49
3.174999999999998
 74
     0
 49
-3.174999999999998
 74
     0
  0
ENDTAB
  0
TABLE
  2
LAYER
  5
2
102
{ACAD_XDICTIONARY
360
1815
102
}
330
0
100
AcDbSymbolTable
 70
    11
  0
LAYER
  5
14
330
2
100
AcDbSymbolTableRecord
100
AcDbLayerTableRecord
  2
0
 70
     0
 62
     7
  6
CONTINUOUS
  0
LAYER
  5
503
330
2
100
AcDbSymbolTableRecord
100
AcDbLayerTableRecord
  2
DEFPOINTS
 70
     0
 62
     7
  6
CONTINUOUS
  0
LAYER
  5
A50
330
2
100
AcDbSymbolTableRecord
100
AcDbLayerTableRecord
  2
02
 70
     0
 62
     2
  6
CONTINUOUS
  0
LAYER
  5
A51
330
2
100
AcDbSymbolTableRecord
100
AcDbLayerTableRecord
  2
03
 70
     0
 62
     3
  6
CONTINUOUS
  0
LAYER
  5
A52
330
2
100
AcDbSymbolTableRecord
100
AcDbLayerTableRecord
  2
04
 70
     0
 62
     4
  6
CONTINUOUS
  0
LAYER
  5
A53
330
2
100
AcDbSymbolTableRecord
100
AcDbLayerTableRecord
  2
06
 70
     0
 62
     6
  6
CONTINUOUS
  0
LAYER
  5
A55
330
2
100
AcDbSymbolTableRecord
100
AcDbLayerTableRecord
  2
CHUSIN
 70
     0
 62
     6
  6
CENTER2
  0
LAYER
  5
A58
330
2
100
AcDbSymbolTableRecord
100
AcDbLayerTableRecord
  2
MOJI
 70
     0
 62
     3
  6
CONTINUOUS
  0
LAYER
  5
A59
330
2
100
AcDbSymbolTableRecord
100
AcDbLayerTableRecord
  2
SOUZOU
 70
     0
 62
     6
  6
PHANTOM2
  0
LAYER
  5
A5A
330
2
100
AcDbSymbolTableRecord
100
AcDbLayerTableRecord
  2
SUNPOU
 70
     0
 62
     6
  6
CONTINUOUS
  0
LAYER
  5
A5B
330
2
100
AcDbSymbolTableRecord
100
AcDbLayerTableRecord
  2
SAISEN
 70
     0
 62
     3
  6
CONTINUOUS
  0
ENDTAB
  0
TABLE
  2
STYLE
  5
3
330
0
100
AcDbSymbolTable
 70
     4
  0
STYLE
  5
17
330
3
100
AcDbSymbolTableRecord
100
AcDbTextStyleTableRecord
  2
STANDARD
 70
     0
 40
0.0
 41
0.9
 50
0.0
 71
     0
 42
7.0
  3
txt.shx
  4
bigfont.shx
  0
STYLE
  5
A66
330
3
100
AcDbSymbolTableRecord
100
AcDbTextStyleTableRecord
  2
SUNPOU
 70
     0
 40
0.0
 41
0.8
 50
0.0
 71
     0
 42
3.5
  3
txt.shx
  4
extfont.shx
  0
STYLE
  5
A6D
330
3
100
AcDbSymbolTableRecord
100
AcDbTextStyleTableRecord
  2
0_80
 70
     0
 40
0.0
 41
0.8
 50
0.0
 71
     0
 42
6.0
  3
txt.shx
  4
extfont.shx
  0
STYLE
  5
1BFB
330
3
100
AcDbSymbolTableRecord
100
AcDbTextStyleTableRecord
  2
0_8
 70
     0
 40
0.0
 41
0.8
 50
0.0
 71
     0
 42
6.0
  3
txt.shx
  4
extfont.shx
  0
ENDTAB
  0
TABLE
  2
VIEW
  5
5
330
0
100
AcDbSymbolTable
 70
     2
  0
VIEW
  5
3D
330
5
100
AcDbSymbolTableRecord
100
AcDbViewTableRecord
  2
QQQQ
 70
     0
 40
682.2269999999997
 10
-5.525000000000003
 20
-0.3000000000000114
 41
462.93975
 11
0.0
 21
0.0
 31
1.0
 12
100.0
 22
100.0
 32
0.0
 42
50.0
 43
0.0
 44
0.0
 50
0.0
 71
     0
  0
VIEW
  5
10F1
330
5
100
AcDbSymbolTableRecord
100
AcDbViewTableRecord
  2
OLE1
 70
     0
 40
57.62463199359913
 10
149.8312212072885
 20
237.9071080341899
 41
74.19572282663783
 11
0.0
 21
0.0
 31
1.0
 12
0.0
 22
0.0
 32
0.0
 42
50.0
 43
0.0
 44
0.0
 50
0.0
 71
     0
  0
ENDTAB
  0
TABLE
  2
UCS
  5
6
330
0
100
AcDbSymbolTable
 70
     0
  0
ENDTAB
  0
TABLE
  2
APPID
  5
8
330
0
100
AcDbSymbolTable
 70
     3
  0
APPID
  5
16
330
8
100
AcDbSymbolTableRecord
100
AcDbRegAppTableRecord
  2
ACAD
 70
     0
  0
APPID
  5
17BC
330
8
100
AcDbSymbolTableRecord
100
AcDbRegAppTableRecord
  2
DCO15
 70
     0
  0
APPID
  5
17E5
330
8
100
AcDbSymbolTableRecord
100
AcDbRegAppTableRecord
  2
CONTENTBLOCKICON
 70
     0
  0
ENDTAB
  0
TABLE
  2
DIMSTYLE
  5
9
330
0
100
AcDbSymbolTable
 70
     3
  0
DIMSTYLE
105
A67
102
{ACAD_REACTORS
330
A99
330
AA6
330
AB5
330
AC4
330
AD3
330
A7F
330
B14
330
B39
330
B48
330
B60
330
B92
330
B6D
330
B7A
330
B9F
102
}
330
9
100
AcDbSymbolTableRecord
100
AcDbDimStyleTableRecord
  2
SUNPOU_2
 70
     0
  3

  4

  5
OPEN30
  6

  7

 40
2.0
 41
2.5
 42
1.5
 43
0.0
 44
1.0
 45
0.0
 46
0.0
 47
0.0
 48
0.0
140
2.5
141
0.0
142
0.0
143
25.4
144
1.0
145
0.0
146
1.0
147
1.0
 71
     0
 72
     0
 73
     0
 74
     0
 75
     0
 76
     0
 77
     1
 78
     8
170
     0
171
     2
172
     1
173
     0
174
     1
175
     0
176
   256
177
   256
178
   256
270
     2
271
     1
272
     1
273
     2
274
     2
340
A66
275
     0
280
     0
281
     0
282
     0
283
     1
284
     0
285
     0
286
     0
287
     5
288
     0
  0
DIMSTYLE
105
A76
102
{ACAD_REACTORS
330
C1E
330
C2D
330
C3C
330
C56
330
C7B
330
C8A
330
C97
330
CC9
330
CD8
330
CBC
330
CAD
102
}
330
9
100
AcDbSymbolTableRecord
100
AcDbDimStyleTableRecord
  2
SUNPOU_2_10
 70
     0
  3

  4

  5
OPEN30
  6

  7

 40
2.0
 41
2.5
 42
1.5
 43
0.0
 44
1.0
 45
0.0
 46
0.0
 47
0.0
 48
0.0
140
2.5
141
0.0
142
0.0
143
25.4
144
10.0
145
0.0
146
1.0
147
1.0
 71
     0
 72
     0
 73
     0
 74
     0
 75
     0
 76
     0
 77
     1
 78
     8
170
     0
171
     2
172
     1
173
     0
174
     1
175
     0
176
   256
177
   256
178
   256
270
     2
271
     1
272
     1
273
     2
274
     2
340
A66
275
     0
280
     0
281
     0
282
     0
283
     1
284
     0
285
     0
286
     0
287
     5
288
     0
  0
DIMSTYLE
105
D8B
330
9
100
AcDbSymbolTableRecord
100
AcDbDimStyleTableRecord
  2
STANDARD
 70
     0
  3

  4

  5

  6

  7

 40
1.0
 41
0.18
 42
0.0625
 43
0.38
 44
0.18
 45
0.0
 46
0.0
 47
0.0
 48
0.0
140
0.18
141
0.09
142
0.0
143
25.4
144
1.0
145
0.0
146
1.0
147
0.09
 71
     0
 72
     0
 73
     1
 74
     1
 75
     0
 76
     0
 77
     0
 78
     0
170
     0
171
     2
172
     0
173
     0
174
     0
175
     0
176
     0
177
     0
178
     0
270
     2
271
     4
272
     4
273
     2
274
     2
340
17
275
     0
280
     0
281
     0
282
     0
283
     1
284
     0
285
     0
286
     0
287
     3
288
     0
  0
ENDTAB
  0
TABLE
  2
BLOCK_RECORD
  5
1
330
0
100
AcDbSymbolTable
 70
    26
  0
BLOCK_RECORD
  5
A
102
{ACAD_XDICTIONARY
360
17E1
102
}
330
1
100
AcDbSymbolTableRecord
100
AcDbBlockTableRecord
  2
*MODEL_SPACE
  0
BLOCK_RECORD
  5
B
102
{ACAD_XDICTIONARY
360
17E3
102
}
330
1
100
AcDbSymbolTableRecord
100
AcDbBlockTableRecord
  2
*PAPER_SPACE
  0
BLOCK_RECORD
  5
A60
330
1
100
AcDbSymbolTableRecord
100
AcDbBlockTableRecord
  2
_OPEN30
1001
CONTENTBLOCKICON
1071
        0
1004
2800000020000000200000000100080000000000000400000000000000000000000000000000000000000000000080000080000000808000800000008000800080800000C0C0C000C0DCC000F0CAA6000020400000206000002080000020A0000020C0000020E00000400000004020000040400000406000004080000040A0
1004
000040C0000040E00000600000006020000060400000606000006080000060A0000060C0000060E00000800000008020000080400000806000008080000080A0000080C0000080E00000A0000000A0200000A0400000A0600000A0800000A0A00000A0C00000A0E00000C0000000C0200000C0400000C0600000C0800000C0
1004
A00000C0C00000C0E00000E0000000E0200000E0400000E0600000E0800000E0A00000E0C00000E0E00040000000400020004000400040006000400080004000A0004000C0004000E00040200000402020004020400040206000402080004020A0004020C0004020E000404000004040200040404000404060004040800040
1004
40A0004040C0004040E00040600000406020004060400040606000406080004060A0004060C0004060E00040800000408020004080400040806000408080004080A0004080C0004080E00040A0000040A0200040A0400040A0600040A0800040A0A00040A0C00040A0E00040C0000040C0200040C0400040C0600040C08000
1004
40C0A00040C0C00040C0E00040E0000040E0200040E0400040E0600040E0800040E0A00040E0C00040E0E00080000000800020008000400080006000800080008000A0008000C0008000E00080200000802020008020400080206000802080008020A0008020C0008020E00080400000804020008040400080406000804080
1004
008040A0008040C0008040E00080600000806020008060400080606000806080008060A0008060C0008060E00080800000808020008080400080806000808080008080A0008080C0008080E00080A0000080A0200080A0400080A0600080A0800080A0A00080A0C00080A0E00080C0000080C0200080C0400080C0600080C0
1004
800080C0A00080C0C00080C0E00080E0000080E0200080E0400080E0600080E0800080E0A00080E0C00080E0E000C0000000C0002000C0004000C0006000C0008000C000A000C000C000C000E000C0200000C0202000C0204000C0206000C0208000C020A000C020C000C020E000C0400000C0402000C0404000C0406000C0
1004
408000C040A000C040C000C040E000C0600000C0602000C0604000C0606000C0608000C060A000C060C000C060E000C0800000C0802000C0804000C0806000C0808000C080A000C080C000C080E000C0A00000C0A02000C0A04000C0A06000C0A08000C0A0A000C0A0C000C0A0E000C0C00000C0C02000C0C04000C0C06000
1004
C0C08000C0C0A000F0FBFF00A4A0A000808080000000FF0000FF000000FFFF00FF000000FF00FF00FFFF0000FFFFFF0000000000000000000000000000000000000000000000000000000000000000000000000000000000000000000000000000000000000000000000000000000000000000000000000000000000000000
1004
00000000000000000000000000000000000000000000000000000000000000000000000000000000000000000000000000000000000000000000000000000000000000000000000000000000000000000000000000000000000000000000000000000000000000000000000000000000000000000000000000000000000000
1004
000000000000000000000000000000000000000000000000000000000000000000000000000000000000000000000000000000FFFF0000000000000000000000000000000000000000000000000000000000000000FFFFFFFF0000000000000000000000000000000000000000000000000000000000000000FFFFFFFF0000
1004
000000000000000000000000000000000000000000000000000000000000FFFFFF0000000000000000000000000000000000000000000000000000000000000000FFFFFFFF0000000000000000000000000000000000000000000000000000000000000000FFFFFF0000000000000000000000000000000000000000000000
1004
000000000000000000FFFFFFFF0000000000000000000000000000000000000000000000000000000000000000FFFFFFFF00000000FFFFFFFFFFFFFFFFFFFFFFFFFFFFFFFFFFFFFFFFFFFFFFFFFFFFFFFFFFFF00000000000000000000000000000000000000000000000000FFFFFFFF000000000000000000000000000000
1004
000000000000000000FFFFFFFF000000000000000000000000000000000000000000000000FFFFFFFF000000000000000000000000000000000000000000000000FFFFFFFF000000000000000000000000000000000000000000000000FFFFFFFF000000000000000000000000000000000000000000000000FFFFFFFF0000
1004
0000000000000000000000000000000000000000000000FFFFFF0000000000000000000000000000000000000000000000000000000000000000000000000000000000000000000000000000000000000000000000000000000000000000000000000000000000000000000000000000000000000000000000000000000000
1004
00000000000000000000000000000000000000000000000000000000000000000000000000000000000000000000000000000000000000000000000000000000000000000000000000000000000000000000000000000000000000000000000000000000000000000000000000000000000000000000000000000000000000
1004
0000000000000000000000000000000000000000000000000000000000000000000000000000000000000000000000000000000000000000
  0
BLOCK_RECORD
  5
A80
330
1
100
AcDbSymbolTableRecord
100
AcDbBlockTableRecord
  2
*D1
  0
BLOCK_RECORD
  5
A9A
330
1
100
AcDbSymbolTableRecord
100
AcDbBlockTableRecord
  2
*D2
  0
BLOCK_RECORD
  5
AA7
330
1
100
AcDbSymbolTableRecord
100
AcDbBlockTableRecord
  2
*D3
  0
BLOCK_RECORD
  5
AB6
330
1
100
AcDbSymbolTableRecord
100
AcDbBlockTableRecord
  2
*D4
  0
BLOCK_RECORD
  5
AC5
330
1
100
AcDbSymbolTableRecord
100
AcDbBlockTableRecord
  2
*D5
  0
BLOCK_RECORD
  5
AD4
330
1
100
AcDbSymbolTableRecord
100
AcDbBlockTableRecord
  2
*D6
  0
BLOCK_RECORD
  5
B15
330
1
100
AcDbSymbolTableRecord
100
AcDbBlockTableRecord
  2
*D7
  0
BLOCK_RECORD
  5
B3A
330
1
100
AcDbSymbolTableRecord
100
AcDbBlockTableRecord
  2
*D8
  0
BLOCK_RECORD
  5
B49
330
1
100
AcDbSymbolTableRecord
100
AcDbBlockTableRecord
  2
*D9
  0
BLOCK_RECORD
  5
B61
330
1
100
AcDbSymbolTableRecord
100
AcDbBlockTableRecord
  2
*D10
  0
BLOCK_RECORD
  5
B6E
330
1
100
AcDbSymbolTableRecord
100
AcDbBlockTableRecord
  2
*D11
  0
BLOCK_RECORD
  5
B7B
330
1
100
AcDbSymbolTableRecord
100
AcDbBlockTableRecord
  2
*D12
  0
BLOCK_RECORD
  5
B93
330
1
100
AcDbSymbolTableRecord
100
AcDbBlockTableRecord
  2
*D13
  0
BLOCK_RECORD
  5
BA0
330
1
100
AcDbSymbolTableRecord
100
AcDbBlockTableRecord
  2
*D14
  0
BLOCK_RECORD
  5
C1F
330
1
100
AcDbSymbolTableRecord
100
AcDbBlockTableRecord
  2
*D15
  0
BLOCK_RECORD
  5
C2E
330
1
100
AcDbSymbolTableRecord
100
AcDbBlockTableRecord
  2
*D16
  0
BLOCK_RECORD
  5
C3D
330
1
100
AcDbSymbolTableRecord
100
AcDbBlockTableRecord
  2
*D17
  0
BLOCK_RECORD
  5
C57
330
1
100
AcDbSymbolTableRecord
100
AcDbBlockTableRecord
  2
*D18
  0
BLOCK_RECORD
  5
C7C
330
1
100
AcDbSymbolTableRecord
100
AcDbBlockTableRecord
  2
*D19
  0
BLOCK_RECORD
  5
C8B
330
1
100
AcDbSymbolTableRecord
100
AcDbBlockTableRecord
  2
*D20
  0
BLOCK_RECORD
  5
C98
330
1
100
AcDbSymbolTableRecord
100
AcDbBlockTableRecord
  2
*D21
  0
BLOCK_RECORD
  5
CAE
330
1
100
AcDbSymbolTableRecord
100
AcDbBlockTableRecord
  2
*D22
  0
BLOCK_RECORD
  5
CBD
330
1
100
AcDbSymbolTableRecord
100
AcDbBlockTableRecord
  2
*D23
  0
BLOCK_RECORD
  5
CCA
330
1
100
AcDbSymbolTableRecord
100
AcDbBlockTableRecord
  2
*D24
  0
BLOCK_RECORD
  5
CD9
330
1
100
AcDbSymbolTableRecord
100
AcDbBlockTableRecord
  2
*D25
  0
ENDTAB
  0
ENDSEC
  0
SECTION
  2
BLOCKS
  0
BLOCK
  5
D
330
A
100
AcDbEntity
  8
0
100
AcDbBlockBegin
  2
*MODEL_SPACE
 70
     0
 10
0.0
 20
0.0
 30
0.0
  3
*MODEL_SPACE
  1

  0
ENDBLK
  5
E
330
A
100
AcDbEntity
  8
0
100
AcDbBlockEnd
  0
BLOCK
  5
F
330
B
100
AcDbEntity
 67
     1
  8
0
100
AcDbBlockBegin
  2
*PAPER_SPACE
 70
     0
 10
0.0
 20
0.0
 30
0.0
  3
*PAPER_SPACE
  1

  0
ENDBLK
  5
10
330
B
100
AcDbEntity
 67
     1
  8
0
100
AcDbBlockEnd
  0
BLOCK
  5
A64
330
A60
100
AcDbEntity
  8
0
100
AcDbBlockBegin
  2
_OPEN30
 70
     0
 10
0.0
 20
0.0
 30
0.0
  3
_OPEN30
  1

  0
LINE
  5
A61
330
A60
100
AcDbEntity
  8
0
  6
BYBLOCK
 62
     0
100
AcDbLine
 10
-1.0
 20
0.26794919
 30
0.0
 11
0.0
 21
0.0
 31
0.0
  0
LINE
  5
A62
330
A60
100
AcDbEntity
  8
0
  6
BYBLOCK
 62
     0
100
AcDbLine
 10
0.0
 20
0.0
 30
0.0
 11
-1.0
 21
-0.26794919
 31
0.0
  0
LINE
  5
A63
330
A60
100
AcDbEntity
  8
0
  6
BYBLOCK
 62
     0
100
AcDbLine
 10
0.0
 20
0.0
 30
0.0
 11
-1.0
 21
0.0
 31
0.0
  0
ENDBLK
  5
A65
330
A60
100
AcDbEntity
  8
0
100
AcDbBlockEnd
  0
BLOCK
  5
A8C
330
A80
100
AcDbEntity
  8
0
100
AcDbBlockBegin
  2
*D1
 70
     1
 10
0.0
 20
0.0
 30
0.0
  3
*D1
  1

  0
LINE
  5
1A9C
330
A80
100
AcDbEntity
  8
SUNPOU
 48
2.0
100
AcDbLine
 10
233.6791021150709
 20
439.0600404165992
 30
0.0
 11
233.6791021150709
 21
462.7437446846603
 31
0.0
  0
LINE
  5
1A9D
330
A80
100
AcDbEntity
  8
SUNPOU
 48
2.0
100
AcDbLine
 10
238.6791021150709
 20
444.3100404165996
 30
0.0
 11
238.6791021150709
 21
462.7437446846603
 31
0.0
  0
LINE
  5
1A9E
330
A80
100
AcDbEntity
  8
SUNPOU
 48
2.0
100
AcDbLine
 10
228.6791021150709
 20
460.7437446846603
 30
0.0
 11
223.6791021150709
 21
460.7437446846603
 31
0.0
  0
LINE
  5
1A9F
330
A80
100
AcDbEntity
  8
SUNPOU
 48
2.0
100
AcDbLine
 10
243.6791021150709
 20
460.7437446846603
 30
0.0
 11
248.6791021150709
 21
460.7437446846603
 31
0.0
  0
MTEXT
  5
1AA0
330
A80
100
AcDbEntity
  8
SUNPOU
 48
2.0
100
AcDbMText
 10
220.3457687817375
 20
456.2437446846603
 30
0.0
 40
5.0
 41
0.0
 71
     5
 72
     1
  1
\A1;5
  7
SUNPOU
 11
-1.0
 21
0.0000000000000001
 31
0.0
1001
ACAD
1000
MTEXTBEGIN
1070
    73
1070
     1
1070
    44
1040
1.0
1070
    74
1070
     0
1000
MTEXTEND
  0
LINE
  5
1AA1
330
A80
100
AcDbEntity
  8
SUNPOU
 48
2.0
100
AcDbLine
 10
233.6791021150709
 20
460.7437446846603
 30
0.0
 11
238.6791021150709
 21
460.7437446846603
 31
0.0
  0
INSERT
  5
1AA2
330
A80
100
AcDbEntity
  8
SUNPOU
 48
2.0
100
AcDbBlockReference
  2
_OPEN30
 10
233.6791021150709
 20
460.7437446846603
 30
0.0
 41
5.0
 42
5.0
 43
5.0
  0
INSERT
  5
1AA3
330
A80
100
AcDbEntity
  8
SUNPOU
 48
2.0
100
AcDbBlockReference
  2
_OPEN30
 10
238.6791021150709
 20
460.7437446846603
 30
0.0
 41
5.0
 42
5.0
 43
5.0
 50
180.0
  0
POINT
  5
1AA4
330
A80
100
AcDbEntity
  8
DEFPOINTS
 62
     0
 48
2.0
100
AcDbPoint
 10
233.6791021150709
 20
436.0600404165992
 30
0.0
  0
POINT
  5
1AA5
330
A80
100
AcDbEntity
  8
DEFPOINTS
 62
     0
 48
2.0
100
AcDbPoint
 10
238.6791021150709
 20
441.3100404165996
 30
0.0
  0
POINT
  5
1AA6
330
A80
100
AcDbEntity
  8
DEFPOINTS
 62
     0
 48
2.0
100
AcDbPoint
 10
238.6791021150709
 20
460.7437446846603
 30
0.0
  0
ENDBLK
  5
A8D
330
A80
100
AcDbEntity
  8
0
100
AcDbBlockEnd
  0
BLOCK
  5
AA4
330
A9A
100
AcDbEntity
  8
0
100
AcDbBlockBegin
  2
*D2
 70
     1
 10
0.0
 20
0.0
 30
0.0
  3
*D2
  1

  0
LINE
  5
1AA7
330
A9A
100
AcDbEntity
  8
SUNPOU
 48
2.0
100
AcDbLine
 10
238.6791021150709
 20
444.3100404165996
 30
0.0
 11
238.6791021150709
 21
462.7437446846603
 31
0.0
  0
LINE
  5
1AA8
330
A9A
100
AcDbEntity
  8
SUNPOU
 48
2.0
100
AcDbLine
 10
270.6791021150709
 20
443.5600404165996
 30
0.0
 11
270.6791021150709
 21
462.7437446846603
 31
0.0
  0
LINE
  5
1AA9
330
A9A
100
AcDbEntity
  8
SUNPOU
 48
2.0
100
AcDbLine
 10
243.6791021150709
 20
460.7437446846603
 30
0.0
 11
265.6791021150709
 21
460.7437446846603
 31
0.0
  0
MTEXT
  5
1AAA
330
A9A
100
AcDbEntity
  8
SUNPOU
 48
2.0
100
AcDbMText
 10
254.6791021150708
 20
456.2437446846603
 30
0.0
 40
5.0
 41
0.0
 71
     5
 72
     1
  1
\A1;32
  7
SUNPOU
 11
-1.0
 21
0.0000000000000001
 31
0.0
1001
ACAD
1000
MTEXTBEGIN
1070
    73
1070
     1
1070
    44
1040
1.0
1070
    74
1070
     0
1000
MTEXTEND
  0
INSERT
  5
1AAB
330
A9A
100
AcDbEntity
  8
SUNPOU
 48
2.0
100
AcDbBlockReference
  2
_OPEN30
 10
238.6791021150709
 20
460.7437446846603
 30
0.0
 41
5.0
 42
5.0
 43
5.0
 50
180.0
  0
INSERT
  5
1AAC
330
A9A
100
AcDbEntity
  8
SUNPOU
 48
2.0
100
AcDbBlockReference
  2
_OPEN30
 10
270.6791021150709
 20
460.7437446846603
 30
0.0
 41
5.0
 42
5.0
 43
5.0
  0
POINT
  5
1AAD
330
A9A
100
AcDbEntity
  8
DEFPOINTS
 62
     0
 48
2.0
100
AcDbPoint
 10
238.6791021150709
 20
441.3100404165996
 30
0.0
  0
POINT
  5
1AAE
330
A9A
100
AcDbEntity
  8
DEFPOINTS
 62
     0
 48
2.0
100
AcDbPoint
 10
270.6791021150709
 20
440.5600404165996
 30
0.0
  0
POINT
  5
1AAF
330
A9A
100
AcDbEntity
  8
DEFPOINTS
 62
     0
 48
2.0
100
AcDbPoint
 10
270.6791021150709
 20
460.7437446846603
 30
0.0
  0
ENDBLK
  5
AA5
330
A9A
100
AcDbEntity
  8
0
100
AcDbBlockEnd
  0
BLOCK
  5
AB3
330
AA7
100
AcDbEntity
  8
0
100
AcDbBlockBegin
  2
*D3
 70
     1
 10
0.0
 20
0.0
 30
0.0
  3
*D3
  1

  0
LINE
  5
1983
330
AA7
100
AcDbEntity
  8
SUNPOU
 48
2.0
100
AcDbLine
 10
237.6791021150709
 20
344.5600404165996
 30
0.0
 11
227.9594180127598
 21
344.5600404165996
 31
0.0
  0
LINE
  5
1984
330
AA7
100
AcDbEntity
  8
SUNPOU
 48
2.0
100
AcDbLine
 10
237.6791021150706
 20
349.5600404165996
 30
0.0
 11
227.9594180127598
 21
349.5600404165996
 31
0.0
  0
LINE
  5
1985
330
AA7
100
AcDbEntity
  8
SUNPOU
 48
2.0
100
AcDbLine
 10
229.9594180127598
 20
339.5600404165996
 30
0.0
 11
229.9594180127598
 21
334.5600404165996
 31
0.0
  0
LINE
  5
1986
330
AA7
100
AcDbEntity
  8
SUNPOU
 48
2.0
100
AcDbLine
 10
229.9594180127598
 20
354.5600404165996
 30
0.0
 11
229.9594180127598
 21
359.5600404165996
 31
0.0
  0
LINE
  5
1987
330
AA7
100
AcDbEntity
  8
SUNPOU
 48
2.0
100
AcDbLine
 10
229.9594180127598
 20
344.5600404165996
 30
0.0
 11
229.9594180127598
 21
349.5600404165996
 31
0.0
  0
INSERT
  5
1988
330
AA7
100
AcDbEntity
  8
SUNPOU
 48
2.0
100
AcDbBlockReference
  2
_OPEN30
 10
229.9594180127598
 20
344.5600404165996
 30
0.0
 41
5.0
 42
5.0
 43
5.0
 50
90.0
  0
INSERT
  5
1989
330
AA7
100
AcDbEntity
  8
SUNPOU
 48
2.0
100
AcDbBlockReference
  2
_OPEN30
 10
229.9594180127598
 20
349.5600404165996
 30
0.0
 41
5.0
 42
5.0
 43
5.0
 50
270.0
  0
MTEXT
  5
198A
330
AA7
100
AcDbEntity
  8
SUNPOU
 48
2.0
100
AcDbMText
 10
225.4594180127597
 20
347.0600404165996
 30
0.0
 40
5.0
 41
0.0
 71
     5
 72
     1
  1
\A1;5
  7
SUNPOU
 11
0.0000000000000001
 21
1.0
 31
0.0
1001
ACAD
1000
MTEXTBEGIN
1070
    73
1070
     1
1070
    44
1040
1.0
1070
    74
1070
     0
1000
MTEXTEND
  0
POINT
  5
198B
330
AA7
100
AcDbEntity
  8
DEFPOINTS
 62
     0
 48
2.0
100
AcDbPoint
 10
240.679102115071
 20
344.5600404165996
 30
0.0
  0
POINT
  5
198C
330
AA7
100
AcDbEntity
  8
DEFPOINTS
 62
     0
 48
2.0
100
AcDbPoint
 10
240.6791021150707
 20
349.5600404165996
 30
0.0
  0
POINT
  5
198D
330
AA7
100
AcDbEntity
  8
DEFPOINTS
 62
     0
 48
2.0
100
AcDbPoint
 10
229.9594180127598
 20
349.5600404165996
 30
0.0
  0
ENDBLK
  5
AB4
330
AA7
100
AcDbEntity
  8
0
100
AcDbBlockEnd
  0
BLOCK
  5
AC2
330
AB6
100
AcDbEntity
  8
0
100
AcDbBlockBegin
  2
*D4
 70
     1
 10
0.0
 20
0.0
 30
0.0
  3
*D4
  1

  0
LINE
  5
198E
330
AB6
100
AcDbEntity
  8
SUNPOU
 48
2.0
100
AcDbLine
 10
271.6791021150709
 20
349.5600404165996
 30
0.0
 11
285.7174044009691
 21
349.5600404165996
 31
0.0
  0
LINE
  5
198F
330
AB6
100
AcDbEntity
  8
SUNPOU
 48
2.0
100
AcDbLine
 10
273.6791021150709
 20
363.5600404165996
 30
0.0
 11
285.7174044009691
 21
363.5600404165996
 31
0.0
  0
LINE
  5
1990
330
AB6
100
AcDbEntity
  8
SUNPOU
 48
2.0
100
AcDbLine
 10
283.7174044009691
 20
344.5600404165996
 30
0.0
 11
283.7174044009691
 21
339.5600404165996
 31
0.0
  0
LINE
  5
1991
330
AB6
100
AcDbEntity
  8
SUNPOU
 48
2.0
100
AcDbLine
 10
283.7174044009691
 20
368.5600404165996
 30
0.0
 11
283.7174044009691
 21
373.5600404165996
 31
0.0
  0
LINE
  5
1992
330
AB6
100
AcDbEntity
  8
SUNPOU
 48
2.0
100
AcDbLine
 10
283.7174044009691
 20
349.5600404165996
 30
0.0
 11
283.7174044009691
 21
363.5600404165996
 31
0.0
  0
INSERT
  5
1993
330
AB6
100
AcDbEntity
  8
SUNPOU
 48
2.0
100
AcDbBlockReference
  2
_OPEN30
 10
283.7174044009691
 20
349.5600404165996
 30
0.0
 41
5.0
 42
5.0
 43
5.0
 50
90.0
  0
INSERT
  5
1994
330
AB6
100
AcDbEntity
  8
SUNPOU
 48
2.0
100
AcDbBlockReference
  2
_OPEN30
 10
283.7174044009691
 20
363.5600404165996
 30
0.0
 41
5.0
 42
5.0
 43
5.0
 50
270.0
  0
MTEXT
  5
1995
330
AB6
100
AcDbEntity
  8
SUNPOU
 48
2.0
100
AcDbMText
 10
279.217404400969
 20
356.5600404165996
 30
0.0
 40
5.0
 41
0.0
 71
     5
 72
     1
  1
\A1;14
  7
SUNPOU
 11
0.0000000000000001
 21
1.0
 31
0.0
1001
ACAD
1000
MTEXTBEGIN
1070
    73
1070
     1
1070
    44
1040
1.0
1070
    74
1070
     0
1000
MTEXTEND
  0
POINT
  5
1996
330
AB6
100
AcDbEntity
  8
DEFPOINTS
 62
     0
 48
2.0
100
AcDbPoint
 10
268.6791021150709
 20
349.5600404165996
 30
0.0
  0
POINT
  5
1997
330
AB6
100
AcDbEntity
  8
DEFPOINTS
 62
     0
 48
2.0
100
AcDbPoint
 10
270.6791021150709
 20
363.5600404165996
 30
0.0
  0
POINT
  5
1998
330
AB6
100
AcDbEntity
  8
DEFPOINTS
 62
     0
 48
2.0
100
AcDbPoint
 10
283.7174044009691
 20
363.5600404165996
 30
0.0
  0
ENDBLK
  5
AC3
330
AB6
100
AcDbEntity
  8
0
100
AcDbBlockEnd
  0
BLOCK
  5
AD1
330
AC5
100
AcDbEntity
  8
0
100
AcDbBlockBegin
  2
*D5
 70
     1
 10
0.0
 20
0.0
 30
0.0
  3
*D5
  1

  0
LINE
  5
1999
330
AC5
100
AcDbEntity
  8
SUNPOU
 48
2.0
100
AcDbLine
 10
273.6791021150709
 20
428.5703903092612
 30
0.0
 11
285.7174044009691
 21
428.5703903092612
 31
0.0
  0
LINE
  5
199A
330
AC5
100
AcDbEntity
  8
SUNPOU
 48
2.0
100
AcDbLine
 10
271.6791021150708
 20
442.5600404165996
 30
0.0
 11
285.7174044009691
 21
442.5600404165996
 31
0.0
  0
LINE
  5
199B
330
AC5
100
AcDbEntity
  8
SUNPOU
 48
2.0
100
AcDbLine
 10
283.7174044009691
 20
423.5703903092613
 30
0.0
 11
283.7174044009691
 21
418.5703903092613
 31
0.0
  0
LINE
  5
199C
330
AC5
100
AcDbEntity
  8
SUNPOU
 48
2.0
100
AcDbLine
 10
283.7174044009691
 20
447.5600404165996
 30
0.0
 11
283.7174044009691
 21
452.5600404165996
 31
0.0
  0
LINE
  5
199D
330
AC5
100
AcDbEntity
  8
SUNPOU
 48
2.0
100
AcDbLine
 10
283.7174044009691
 20
428.5703903092612
 30
0.0
 11
283.7174044009691
 21
442.5600404165996
 31
0.0
  0
INSERT
  5
199E
330
AC5
100
AcDbEntity
  8
SUNPOU
 48
2.0
100
AcDbBlockReference
  2
_OPEN30
 10
283.7174044009691
 20
428.5703903092612
 30
0.0
 41
5.0
 42
5.0
 43
5.0
 50
90.0
  0
INSERT
  5
199F
330
AC5
100
AcDbEntity
  8
SUNPOU
 48
2.0
100
AcDbBlockReference
  2
_OPEN30
 10
283.7174044009691
 20
442.5600404165996
 30
0.0
 41
5.0
 42
5.0
 43
5.0
 50
270.0
  0
MTEXT
  5
19A0
330
AC5
100
AcDbEntity
  8
SUNPOU
 48
2.0
100
AcDbMText
 10
279.217404400969
 20
435.5652153629305
 30
0.0
 40
5.0
 41
0.0
 71
     5
 72
     1
  1
\A1;14
  7
SUNPOU
 11
0.0000000000000001
 21
1.0
 31
0.0
1001
ACAD
1000
MTEXTBEGIN
1070
    73
1070
     1
1070
    44
1040
1.0
1070
    74
1070
     0
1000
MTEXTEND
  0
POINT
  5
19A1
330
AC5
100
AcDbEntity
  8
DEFPOINTS
 62
     0
 48
2.0
100
AcDbPoint
 10
270.6791021150709
 20
428.5703903092612
 30
0.0
  0
POINT
  5
19A2
330
AC5
100
AcDbEntity
  8
DEFPOINTS
 62
     0
 48
2.0
100
AcDbPoint
 10
268.6791021150708
 20
442.5600404165996
 30
0.0
  0
POINT
  5
19A3
330
AC5
100
AcDbEntity
  8
DEFPOINTS
 62
     0
 48
2.0
100
AcDbPoint
 10
283.7174044009691
 20
442.5600404165996
 30
0.0
  0
ENDBLK
  5
AD2
330
AC5
100
AcDbEntity
  8
0
100
AcDbBlockEnd
  0
BLOCK
  5
ADE
330
AD4
100
AcDbEntity
  8
0
100
AcDbBlockBegin
  2
*D6
 70
     1
 10
0.0
 20
0.0
 30
0.0
  3
*D6
  1

  0
LINE
  5
19A4
330
AD4
100
AcDbEntity
  8
SUNPOU
 48
2.0
100
AcDbLine
 10
271.6791021150709
 20
349.5600404165996
 30
0.0
 11
298.2362921543862
 21
349.5600404165996
 31
0.0
  0
LINE
  5
19A5
330
AD4
100
AcDbEntity
  8
SUNPOU
 48
2.0
100
AcDbLine
 10
271.6791021150709
 20
442.5600404165996
 30
0.0
 11
298.2362921543863
 21
442.5600404165996
 31
0.0
  0
LINE
  5
19A6
330
AD4
100
AcDbEntity
  8
SUNPOU
 48
2.0
100
AcDbLine
 10
296.2362921543862
 20
354.5600404165996
 30
0.0
 11
296.2362921543863
 21
437.5600404165996
 31
0.0
  0
INSERT
  5
19A7
330
AD4
100
AcDbEntity
  8
SUNPOU
 48
2.0
100
AcDbBlockReference
  2
_OPEN30
 10
296.2362921543862
 20
349.5600404165996
 30
0.0
 41
5.0
 42
5.0
 43
5.0
 50
270.0
  0
INSERT
  5
19A8
330
AD4
100
AcDbEntity
  8
SUNPOU
 48
2.0
100
AcDbBlockReference
  2
_OPEN30
 10
296.2362921543863
 20
442.5600404165996
 30
0.0
 41
5.0
 42
5.0
 43
5.0
 50
90.0
  0
MTEXT
  5
19A9
330
AD4
100
AcDbEntity
  8
SUNPOU
 48
2.0
100
AcDbMText
 10
291.7362921543861
 20
396.0600404165997
 30
0.0
 40
5.0
 41
0.0
 71
     5
 72
     1
  1
\A1;DW
  7
SUNPOU
 11
0.0000000000000001
 21
1.0
 31
0.0
1001
ACAD
1000
MTEXTBEGIN
1070
    73
1070
     1
1070
    44
1040
1.0
1070
    74
1070
     0
1000
MTEXTEND
  0
POINT
  5
19AA
330
AD4
100
AcDbEntity
  8
DEFPOINTS
 62
     0
 48
2.0
100
AcDbPoint
 10
268.6791021150709
 20
349.5600404165996
 30
0.0
  0
POINT
  5
19AB
330
AD4
100
AcDbEntity
  8
DEFPOINTS
 62
     0
 48
2.0
100
AcDbPoint
 10
268.6791021150709
 20
442.5600404165996
 30
0.0
  0
POINT
  5
19AC
330
AD4
100
AcDbEntity
  8
DEFPOINTS
 62
     0
 48
2.0
100
AcDbPoint
 10
296.2362921543863
 20
442.5600404165996
 30
0.0
  0
ENDBLK
  5
ADF
330
AD4
100
AcDbEntity
  8
0
100
AcDbBlockEnd
  0
BLOCK
  5
B21
330
B15
100
AcDbEntity
  8
0
100
AcDbBlockBegin
  2
*D7
 70
     1
 10
0.0
 20
0.0
 30
0.0
  3
*D7
  1

  0
LINE
  5
1A7D
330
B15
100
AcDbEntity
  8
SUNPOU
 48
2.0
100
AcDbLine
 10
145.6791021150709
 20
346.5600404165996
 30
0.0
 11
123.367978156752
 21
346.5600404165996
 31
0.0
  0
LINE
  5
1A7E
330
B15
100
AcDbEntity
  8
SUNPOU
 48
2.0
100
AcDbLine
 10
131.6791021150709
 20
349.5600404165996
 30
0.0
 11
123.367978156752
 21
349.5600404165997
 31
0.0
  0
LINE
  5
1A7F
330
B15
100
AcDbEntity
  8
SUNPOU
 48
2.0
100
AcDbLine
 10
125.367978156752
 20
341.5600404165997
 30
0.0
 11
125.367978156752
 21
336.5600404165996
 31
0.0
  0
LINE
  5
1A80
330
B15
100
AcDbEntity
  8
SUNPOU
 48
2.0
100
AcDbLine
 10
125.367978156752
 20
354.5600404165996
 30
0.0
 11
125.367978156752
 21
359.5600404165996
 31
0.0
  0
MTEXT
  5
1A81
330
B15
100
AcDbEntity
  8
SUNPOU
 48
2.0
100
AcDbMText
 10
120.8679781567519
 20
362.893373749933
 30
0.0
 40
5.0
 41
0.0
 71
     5
 72
     1
  1
\A1;3
  7
SUNPOU
 11
0.0000000000000001
 21
1.0
 31
0.0
1001
ACAD
1000
MTEXTBEGIN
1070
    73
1070
     1
1070
    44
1040
1.0
1070
    74
1070
     0
1000
MTEXTEND
  0
LINE
  5
1A82
330
B15
100
AcDbEntity
  8
SUNPOU
 48
2.0
100
AcDbLine
 10
125.367978156752
 20
346.5600404165996
 30
0.0
 11
125.367978156752
 21
349.5600404165997
 31
0.0
  0
INSERT
  5
1A83
330
B15
100
AcDbEntity
  8
SUNPOU
 48
2.0
100
AcDbBlockReference
  2
_OPEN30
 10
125.367978156752
 20
346.5600404165996
 30
0.0
 41
5.0
 42
5.0
 43
5.0
 50
90.0
  0
INSERT
  5
1A84
330
B15
100
AcDbEntity
  8
SUNPOU
 48
2.0
100
AcDbBlockReference
  2
_OPEN30
 10
125.367978156752
 20
349.5600404165997
 30
0.0
 41
5.0
 42
5.0
 43
5.0
 50
270.0
  0
POINT
  5
1A85
330
B15
100
AcDbEntity
  8
DEFPOINTS
 62
     0
 48
2.0
100
AcDbPoint
 10
148.6791021150709
 20
346.5600404165996
 30
0.0
  0
POINT
  5
1A86
330
B15
100
AcDbEntity
  8
DEFPOINTS
 62
     0
 48
2.0
100
AcDbPoint
 10
134.6791021150709
 20
349.5600404165996
 30
0.0
  0
POINT
  5
1A87
330
B15
100
AcDbEntity
  8
DEFPOINTS
 62
     0
 48
2.0
100
AcDbPoint
 10
125.367978156752
 20
349.5600404165997
 30
0.0
  0
ENDBLK
  5
B22
330
B15
100
AcDbEntity
  8
0
100
AcDbBlockEnd
  0
BLOCK
  5
B46
330
B3A
100
AcDbEntity
  8
0
100
AcDbBlockBegin
  2
*D8
 70
     1
 10
0.0
 20
0.0
 30
0.0
  3
*D8
  1

  0
LINE
  5
1AB0
330
B3A
100
AcDbEntity
  8
SUNPOU
 48
2.0
100
AcDbLine
 10
67.92952534681501
 20
215.310192023633
 30
0.0
 11
51.67915491696877
 21
215.3101920236331
 31
0.0
  0
LINE
  5
1AB1
330
B3A
100
AcDbEntity
  8
SUNPOU
 48
2.0
100
AcDbLine
 10
61.42952534681501
 20
220.3101920236333
 30
0.0
 11
51.67915491696877
 21
220.3101920236333
 31
0.0
  0
LINE
  5
1AB2
330
B3A
100
AcDbEntity
  8
SUNPOU
 48
2.0
100
AcDbLine
 10
53.67915491696877
 20
210.3101920236331
 30
0.0
 11
53.67915491696876
 21
205.310192023633
 31
0.0
  0
LINE
  5
1AB3
330
B3A
100
AcDbEntity
  8
SUNPOU
 48
2.0
100
AcDbLine
 10
53.67915491696877
 20
225.3101920236333
 30
0.0
 11
53.67915491696877
 21
230.3101920236333
 31
0.0
  0
MTEXT
  5
1AB4
330
B3A
100
AcDbEntity
  8
SUNPOU
 48
2.0
100
AcDbMText
 10
49.17915491696875
 20
201.9768586902997
 30
0.0
 40
5.0
 41
0.0
 71
     5
 72
     1
  1
\A1;5
  7
SUNPOU
 11
0.0000000000000001
 21
1.0
 31
0.0
1001
ACAD
1000
MTEXTBEGIN
1070
    73
1070
     1
1070
    44
1040
1.0
1070
    74
1070
     0
1000
MTEXTEND
  0
LINE
  5
1AB5
330
B3A
100
AcDbEntity
  8
SUNPOU
 48
2.0
100
AcDbLine
 10
53.67915491696877
 20
215.3101920236331
 30
0.0
 11
53.67915491696877
 21
220.3101920236333
 31
0.0
  0
INSERT
  5
1AB6
330
B3A
100
AcDbEntity
  8
SUNPOU
 48
2.0
100
AcDbBlockReference
  2
_OPEN30
 10
53.67915491696877
 20
215.3101920236331
 30
0.0
 41
5.0
 42
5.0
 43
5.0
 50
90.0
  0
INSERT
  5
1AB7
330
B3A
100
AcDbEntity
  8
SUNPOU
 48
2.0
100
AcDbBlockReference
  2
_OPEN30
 10
53.67915491696877
 20
220.3101920236333
 30
0.0
 41
5.0
 42
5.0
 43
5.0
 50
270.0
  0
POINT
  5
1AB8
330
B3A
100
AcDbEntity
  8
DEFPOINTS
 62
     0
 48
2.0
100
AcDbPoint
 10
70.92952534681501
 20
215.310192023633
 30
0.0
  0
POINT
  5
1AB9
330
B3A
100
AcDbEntity
  8
DEFPOINTS
 62
     0
 48
2.0
100
AcDbPoint
 10
64.42952534681499
 20
220.3101920236333
 30
0.0
  0
POINT
  5
1ABA
330
B3A
100
AcDbEntity
  8
DEFPOINTS
 62
     0
 48
2.0
100
AcDbPoint
 10
53.67915491696877
 20
220.3101920236333
 30
0.0
  0
ENDBLK
  5
B47
330
B3A
100
AcDbEntity
  8
0
100
AcDbBlockEnd
  0
BLOCK
  5
B53
330
B49
100
AcDbEntity
  8
0
100
AcDbBlockBegin
  2
*D9
 70
     1
 10
0.0
 20
0.0
 30
0.0
  3
*D9
  1

  0
LINE
  5
19CE
330
B49
100
AcDbEntity
  8
SUNPOU
 48
2.0
100
AcDbLine
 10
61.42952534681501
 20
220.3101920236333
 30
0.0
 11
51.67915491696877
 21
220.3101920236333
 31
0.0
  0
LINE
  5
19CF
330
B49
100
AcDbEntity
  8
SUNPOU
 48
2.0
100
AcDbLine
 10
61.429525346815
 20
250.3101920236332
 30
0.0
 11
51.67915491696878
 21
250.3101920236332
 31
0.0
  0
LINE
  5
19D0
330
B49
100
AcDbEntity
  8
SUNPOU
 48
2.0
100
AcDbLine
 10
53.67915491696877
 20
225.3101920236333
 30
0.0
 11
53.67915491696878
 21
245.3101920236332
 31
0.0
  0
INSERT
  5
19D1
330
B49
100
AcDbEntity
  8
SUNPOU
 48
2.0
100
AcDbBlockReference
  2
_OPEN30
 10
53.67915491696877
 20
220.3101920236333
 30
0.0
 41
5.0
 42
5.0
 43
5.0
 50
270.0
  0
INSERT
  5
19D2
330
B49
100
AcDbEntity
  8
SUNPOU
 48
2.0
100
AcDbBlockReference
  2
_OPEN30
 10
53.67915491696878
 20
250.3101920236332
 30
0.0
 41
5.0
 42
5.0
 43
5.0
 50
90.0
  0
MTEXT
  5
19D3
330
B49
100
AcDbEntity
  8
SUNPOU
 48
2.0
100
AcDbMText
 10
49.17915491696874
 20
235.3101920236333
 30
0.0
 40
5.0
 41
0.0
 71
     5
 72
     1
  1
\A1;30
  7
SUNPOU
 11
0.0000000000000001
 21
1.0
 31
0.0
1001
ACAD
1000
MTEXTBEGIN
1070
    73
1070
     1
1070
    44
1040
1.0
1070
    74
1070
     0
1000
MTEXTEND
  0
POINT
  5
19D4
330
B49
100
AcDbEntity
  8
DEFPOINTS
 62
     0
 48
2.0
100
AcDbPoint
 10
64.42952534681499
 20
220.3101920236333
 30
0.0
  0
POINT
  5
19D5
330
B49
100
AcDbEntity
  8
DEFPOINTS
 62
     0
 48
2.0
100
AcDbPoint
 10
64.42952534681499
 20
250.3101920236332
 30
0.0
  0
POINT
  5
19D6
330
B49
100
AcDbEntity
  8
DEFPOINTS
 62
     0
 48
2.0
100
AcDbPoint
 10
53.67915491696878
 20
250.3101920236332
 30
0.0
  0
ENDBLK
  5
B54
330
B49
100
AcDbEntity
  8
0
100
AcDbBlockEnd
  0
BLOCK
  5
B6B
330
B61
100
AcDbEntity
  8
0
100
AcDbBlockBegin
  2
*D10
 70
     1
 10
0.0
 20
0.0
 30
0.0
  3
*D10
  1

  0
LINE
  5
1ABB
330
B61
100
AcDbEntity
  8
SUNPOU
 48
2.0
100
AcDbLine
 10
65.92952534681495
 20
253.3101920236334
 30
0.0
 11
65.92952534681495
 21
268.3995275124589
 31
0.0
  0
LINE
  5
1ABC
330
B61
100
AcDbEntity
  8
SUNPOU
 48
2.0
100
AcDbLine
 10
148.9295253468148
 20
248.3101920236334
 30
0.0
 11
148.9295253468148
 21
268.3995275124589
 31
0.0
  0
LINE
  5
1ABD
330
B61
100
AcDbEntity
  8
SUNPOU
 48
2.0
100
AcDbLine
 10
70.92952534681495
 20
266.3995275124589
 30
0.0
 11
143.9295253468148
 21
266.3995275124589
 31
0.0
  0
MTEXT
  5
1ABE
330
B61
100
AcDbEntity
  8
SUNPOU
 48
2.0
100
AcDbMText
 10
107.4295253468148
 20
261.8995275124589
 30
0.0
 40
5.0
 41
0.0
 71
     5
 72
     1
  1
\A1;83
  7
SUNPOU
 11
-1.0
 21
0.0000000000000001
 31
0.0
1001
ACAD
1000
MTEXTBEGIN
1070
    73
1070
     1
1070
    44
1040
1.0
1070
    74
1070
     0
1000
MTEXTEND
  0
INSERT
  5
1ABF
330
B61
100
AcDbEntity
  8
SUNPOU
 48
2.0
100
AcDbBlockReference
  2
_OPEN30
 10
65.92952534681495
 20
266.3995275124589
 30
0.0
 41
5.0
 42
5.0
 43
5.0
 50
180.0
  0
INSERT
  5
1AC0
330
B61
100
AcDbEntity
  8
SUNPOU
 48
2.0
100
AcDbBlockReference
  2
_OPEN30
 10
148.9295253468148
 20
266.3995275124589
 30
0.0
 41
5.0
 42
5.0
 43
5.0
  0
POINT
  5
1AC1
330
B61
100
AcDbEntity
  8
DEFPOINTS
 62
     0
 48
2.0
100
AcDbPoint
 10
65.92952534681495
 20
250.3101920236334
 30
0.0
  0
POINT
  5
1AC2
330
B61
100
AcDbEntity
  8
DEFPOINTS
 62
     0
 48
2.0
100
AcDbPoint
 10
148.9295253468148
 20
245.3101920236334
 30
0.0
  0
POINT
  5
1AC3
330
B61
100
AcDbEntity
  8
DEFPOINTS
 62
     0
 48
2.0
100
AcDbPoint
 10
148.9295253468148
 20
266.3995275124589
 30
0.0
  0
ENDBLK
  5
B6C
330
B61
100
AcDbEntity
  8
0
100
AcDbBlockEnd
  0
BLOCK
  5
B78
330
B6E
100
AcDbEntity
  8
0
100
AcDbBlockBegin
  2
*D11
 70
     1
 10
0.0
 20
0.0
 30
0.0
  3
*D11
  1

  0
LINE
  5
1ACD
330
B6E
100
AcDbEntity
  8
SUNPOU
 48
2.0
100
AcDbLine
 10
253.929525346815
 20
248.3101920236335
 30
0.0
 11
253.929525346815
 21
268.3995275124589
 31
0.0
  0
LINE
  5
1ACE
330
B6E
100
AcDbEntity
  8
SUNPOU
 48
2.0
100
AcDbLine
 10
335.929525346815
 20
255.3101920236339
 30
0.0
 11
335.929525346815
 21
268.3995275124589
 31
0.0
  0
LINE
  5
1ACF
330
B6E
100
AcDbEntity
  8
SUNPOU
 48
2.0
100
AcDbLine
 10
258.929525346815
 20
266.3995275124589
 30
0.0
 11
330.929525346815
 21
266.3995275124589
 31
0.0
  0
MTEXT
  5
1AD0
330
B6E
100
AcDbEntity
  8
SUNPOU
 48
2.0
100
AcDbMText
 10
294.929525346815
 20
261.8995275124589
 30
0.0
 40
5.0
 41
0.0
 71
     5
 72
     1
  1
\A1;82
  7
SUNPOU
 11
-1.0
 21
0.0000000000000001
 31
0.0
1001
ACAD
1000
MTEXTBEGIN
1070
    73
1070
     1
1070
    44
1040
1.0
1070
    74
1070
     0
1000
MTEXTEND
  0
INSERT
  5
1AD1
330
B6E
100
AcDbEntity
  8
SUNPOU
 48
2.0
100
AcDbBlockReference
  2
_OPEN30
 10
253.929525346815
 20
266.3995275124589
 30
0.0
 41
5.0
 42
5.0
 43
5.0
 50
180.0
  0
INSERT
  5
1AD2
330
B6E
100
AcDbEntity
  8
SUNPOU
 48
2.0
100
AcDbBlockReference
  2
_OPEN30
 10
335.929525346815
 20
266.3995275124589
 30
0.0
 41
5.0
 42
5.0
 43
5.0
  0
POINT
  5
1AD3
330
B6E
100
AcDbEntity
  8
DEFPOINTS
 62
     0
 48
2.0
100
AcDbPoint
 10
253.929525346815
 20
245.3101920236334
 30
0.0
  0
POINT
  5
1AD4
330
B6E
100
AcDbEntity
  8
DEFPOINTS
 62
     0
 48
2.0
100
AcDbPoint
 10
335.929525346815
 20
252.3101920236339
 30
0.0
  0
POINT
  5
1AD5
330
B6E
100
AcDbEntity
  8
DEFPOINTS
 62
     0
 48
2.0
100
AcDbPoint
 10
335.929525346815
 20
266.3995275124589
 30
0.0
  0
ENDBLK
  5
B79
330
B6E
100
AcDbEntity
  8
0
100
AcDbBlockEnd
  0
BLOCK
  5
B87
330
B7B
100
AcDbEntity
  8
0
100
AcDbBlockBegin
  2
*D12
 70
     1
 10
0.0
 20
0.0
 30
0.0
  3
*D12
  1

  0
LINE
  5
1ADF
330
B7B
100
AcDbEntity
  8
SUNPOU
 48
2.0
100
AcDbLine
 10
335.929525346815
 20
255.3101920236339
 30
0.0
 11
335.929525346815
 21
268.3995275124589
 31
0.0
  0
LINE
  5
1AE0
330
B7B
100
AcDbEntity
  8
SUNPOU
 48
2.0
100
AcDbLine
 10
343.929525346815
 20
250.0601920236335
 30
0.0
 11
343.929525346815
 21
268.3995275124589
 31
0.0
  0
LINE
  5
1AE1
330
B7B
100
AcDbEntity
  8
SUNPOU
 48
2.0
100
AcDbLine
 10
330.929525346815
 20
266.3995275124589
 30
0.0
 11
325.929525346815
 21
266.3995275124589
 31
0.0
  0
LINE
  5
1AE2
330
B7B
100
AcDbEntity
  8
SUNPOU
 48
2.0
100
AcDbLine
 10
348.929525346815
 20
266.3995275124589
 30
0.0
 11
353.929525346815
 21
266.3995275124589
 31
0.0
  0
MTEXT
  5
1AE3
330
B7B
100
AcDbEntity
  8
SUNPOU
 48
2.0
100
AcDbMText
 10
339.9295253468149
 20
261.8995275124589
 30
0.0
 40
5.0
 41
0.0
 71
     5
 72
     1
  1
\A1;8
  7
SUNPOU
 11
-1.0
 21
0.0000000000000001
 31
0.0
1001
ACAD
1000
MTEXTBEGIN
1070
    73
1070
     1
1070
    44
1040
1.0
1070
    74
1070
     0
1000
MTEXTEND
  0
LINE
  5
1AE4
330
B7B
100
AcDbEntity
  8
SUNPOU
 48
2.0
100
AcDbLine
 10
335.929525346815
 20
266.3995275124589
 30
0.0
 11
343.929525346815
 21
266.3995275124589
 31
0.0
  0
INSERT
  5
1AE5
330
B7B
100
AcDbEntity
  8
SUNPOU
 48
2.0
100
AcDbBlockReference
  2
_OPEN30
 10
335.929525346815
 20
266.3995275124589
 30
0.0
 41
5.0
 42
5.0
 43
5.0
  0
INSERT
  5
1AE6
330
B7B
100
AcDbEntity
  8
SUNPOU
 48
2.0
100
AcDbBlockReference
  2
_OPEN30
 10
343.929525346815
 20
266.3995275124589
 30
0.0
 41
5.0
 42
5.0
 43
5.0
 50
180.0
  0
POINT
  5
1AE7
330
B7B
100
AcDbEntity
  8
DEFPOINTS
 62
     0
 48
2.0
100
AcDbPoint
 10
335.929525346815
 20
252.3101920236339
 30
0.0
  0
POINT
  5
1AE8
330
B7B
100
AcDbEntity
  8
DEFPOINTS
 62
     0
 48
2.0
100
AcDbPoint
 10
343.929525346815
 20
247.0601920236334
 30
0.0
  0
POINT
  5
1AE9
330
B7B
100
AcDbEntity
  8
DEFPOINTS
 62
     0
 48
2.0
100
AcDbPoint
 10
343.929525346815
 20
266.3995275124589
 30
0.0
  0
ENDBLK
  5
B88
330
B7B
100
AcDbEntity
  8
0
100
AcDbBlockEnd
  0
BLOCK
  5
B9D
330
B93
100
AcDbEntity
  8
0
100
AcDbBlockBegin
  2
*D13
 70
     1
 10
0.0
 20
0.0
 30
0.0
  3
*D13
  1

  0
LINE
  5
1AC4
330
B93
100
AcDbEntity
  8
SUNPOU
 48
2.0
100
AcDbLine
 10
65.92952534681495
 20
253.3101920236334
 30
0.0
 11
65.92952534681495
 21
281.4121122599703
 31
0.0
  0
LINE
  5
1AC5
330
B93
100
AcDbEntity
  8
SUNPOU
 48
2.0
100
AcDbLine
 10
335.929525346815
 20
255.3101920236339
 30
0.0
 11
335.929525346815
 21
281.4121122599703
 31
0.0
  0
LINE
  5
1AC6
330
B93
100
AcDbEntity
  8
SUNPOU
 48
2.0
100
AcDbLine
 10
70.92952534681495
 20
279.4121122599703
 30
0.0
 11
330.929525346815
 21
279.4121122599703
 31
0.0
  0
MTEXT
  5
1AC7
330
B93
100
AcDbEntity
  8
SUNPOU
 48
2.0
100
AcDbMText
 10
200.9295253468149
 20
274.9121122599703
 30
0.0
 40
5.0
 41
0.0
 71
     5
 72
     1
  1
\A1;DH
  7
SUNPOU
 11
-1.0
 21
0.0000000000000001
 31
0.0
1001
ACAD
1000
MTEXTBEGIN
1070
    73
1070
     1
1070
    44
1040
1.0
1070
    74
1070
     0
1000
MTEXTEND
  0
INSERT
  5
1AC8
330
B93
100
AcDbEntity
  8
SUNPOU
 48
2.0
100
AcDbBlockReference
  2
_OPEN30
 10
65.92952534681495
 20
279.4121122599703
 30
0.0
 41
5.0
 42
5.0
 43
5.0
 50
180.0
  0
INSERT
  5
1AC9
330
B93
100
AcDbEntity
  8
SUNPOU
 48
2.0
100
AcDbBlockReference
  2
_OPEN30
 10
335.929525346815
 20
279.4121122599703
 30
0.0
 41
5.0
 42
5.0
 43
5.0
  0
POINT
  5
1ACA
330
B93
100
AcDbEntity
  8
DEFPOINTS
 62
     0
 48
2.0
100
AcDbPoint
 10
65.92952534681495
 20
250.3101920236334
 30
0.0
  0
POINT
  5
1ACB
330
B93
100
AcDbEntity
  8
DEFPOINTS
 62
     0
 48
2.0
100
AcDbPoint
 10
335.929525346815
 20
252.3101920236339
 30
0.0
  0
POINT
  5
1ACC
330
B93
100
AcDbEntity
  8
DEFPOINTS
 62
     0
 48
2.0
100
AcDbPoint
 10
335.929525346815
 20
279.4121122599703
 30
0.0
  0
ENDBLK
  5
B9E
330
B93
100
AcDbEntity
  8
0
100
AcDbBlockEnd
  0
BLOCK
  5
BAA
330
BA0
100
AcDbEntity
  8
0
100
AcDbBlockBegin
  2
*D14
 70
     1
 10
0.0
 20
0.0
 30
0.0
  3
*D14
  1

  0
LINE
  5
1AD6
330
BA0
100
AcDbEntity
  8
SUNPOU
 48
2.0
100
AcDbLine
 10
335.929525346815
 20
255.3101920236339
 30
0.0
 11
335.929525346815
 21
281.4121122599703
 31
0.0
  0
LINE
  5
1AD7
330
BA0
100
AcDbEntity
  8
SUNPOU
 48
2.0
100
AcDbLine
 10
360.929525346815
 20
246.8101920236339
 30
0.0
 11
360.929525346815
 21
281.4121122599703
 31
0.0
  0
LINE
  5
1AD8
330
BA0
100
AcDbEntity
  8
SUNPOU
 48
2.0
100
AcDbLine
 10
340.929525346815
 20
279.4121122599703
 30
0.0
 11
355.929525346815
 21
279.4121122599703
 31
0.0
  0
MTEXT
  5
1AD9
330
BA0
100
AcDbEntity
  8
SUNPOU
 48
2.0
100
AcDbMText
 10
348.429525346815
 20
274.9121122599703
 30
0.0
 40
5.0
 41
0.0
 71
     5
 72
     1
  1
\A1;25
  7
SUNPOU
 11
-1.0
 21
0.0000000000000001
 31
0.0
1001
ACAD
1000
MTEXTBEGIN
1070
    73
1070
     1
1070
    44
1040
1.0
1070
    74
1070
     0
1000
MTEXTEND
  0
INSERT
  5
1ADA
330
BA0
100
AcDbEntity
  8
SUNPOU
 48
2.0
100
AcDbBlockReference
  2
_OPEN30
 10
335.929525346815
 20
279.4121122599703
 30
0.0
 41
5.0
 42
5.0
 43
5.0
 50
180.0
  0
INSERT
  5
1ADB
330
BA0
100
AcDbEntity
  8
SUNPOU
 48
2.0
100
AcDbBlockReference
  2
_OPEN30
 10
360.929525346815
 20
279.4121122599703
 30
0.0
 41
5.0
 42
5.0
 43
5.0
  0
POINT
  5
1ADC
330
BA0
100
AcDbEntity
  8
DEFPOINTS
 62
     0
 48
2.0
100
AcDbPoint
 10
335.929525346815
 20
252.3101920236339
 30
0.0
  0
POINT
  5
1ADD
330
BA0
100
AcDbEntity
  8
DEFPOINTS
 62
     0
 48
2.0
100
AcDbPoint
 10
360.929525346815
 20
243.810192023634
 30
0.0
  0
POINT
  5
1ADE
330
BA0
100
AcDbEntity
  8
DEFPOINTS
 62
     0
 48
2.0
100
AcDbPoint
 10
360.929525346815
 20
279.4121122599703
 30
0.0
  0
ENDBLK
  5
BAB
330
BA0
100
AcDbEntity
  8
0
100
AcDbBlockEnd
  0
BLOCK
  5
C2B
330
C1F
100
AcDbEntity
  8
0
100
AcDbBlockBegin
  2
*D15
 70
     1
 10
0.0
 20
0.0
 30
0.0
  3
*D15
  1

  0
LINE
  5
1A0A
330
C1F
100
AcDbEntity
  8
SUNPOU
 48
2.0
100
AcDbLine
 10
56.64945797515909
 20
80.15155096011827
 30
0.0
 11
49.02880577632789
 21
80.15155096011827
 31
0.0
  0
LINE
  5
1A0B
330
C1F
100
AcDbEntity
  8
SUNPOU
 48
2.0
100
AcDbLine
 10
56.64945797515909
 20
92.15155096011827
 30
0.0
 11
49.02880577632789
 21
92.15155096011827
 31
0.0
  0
LINE
  5
1A0C
330
C1F
100
AcDbEntity
  8
SUNPOU
 48
2.0
100
AcDbLine
 10
51.02880577632788
 20
75.15155096011827
 30
0.0
 11
51.02880577632788
 21
70.15155096011827
 31
0.0
  0
LINE
  5
1A0D
330
C1F
100
AcDbEntity
  8
SUNPOU
 48
2.0
100
AcDbLine
 10
51.02880577632788
 20
97.15155096011827
 30
0.0
 11
51.02880577632788
 21
102.1515509601182
 31
0.0
  0
LINE
  5
1A0E
330
C1F
100
AcDbEntity
  8
SUNPOU
 48
2.0
100
AcDbLine
 10
51.02880577632788
 20
80.15155096011827
 30
0.0
 11
51.02880577632788
 21
92.15155096011827
 31
0.0
  0
INSERT
  5
1A0F
330
C1F
100
AcDbEntity
  8
SUNPOU
 48
2.0
100
AcDbBlockReference
  2
_OPEN30
 10
51.02880577632788
 20
80.15155096011827
 30
0.0
 41
5.0
 42
5.0
 43
5.0
 50
90.0
  0
INSERT
  5
1A10
330
C1F
100
AcDbEntity
  8
SUNPOU
 48
2.0
100
AcDbBlockReference
  2
_OPEN30
 10
51.02880577632788
 20
92.15155096011827
 30
0.0
 41
5.0
 42
5.0
 43
5.0
 50
270.0
  0
MTEXT
  5
1A11
330
C1F
100
AcDbEntity
  8
SUNPOU
 48
2.0
100
AcDbMText
 10
46.52880577632787
 20
86.15155096011829
 30
0.0
 40
5.0
 41
0.0
 71
     5
 72
     1
  1
\A1;120
  7
SUNPOU
 11
0.0000000000000001
 21
1.0
 31
0.0
1001
ACAD
1000
MTEXTBEGIN
1070
    73
1070
     1
1070
    44
1040
1.0
1070
    74
1070
     0
1000
MTEXTEND
  0
POINT
  5
1A12
330
C1F
100
AcDbEntity
  8
DEFPOINTS
 62
     0
 48
2.0
100
AcDbPoint
 10
59.64945797515909
 20
80.15155096011827
 30
0.0
  0
POINT
  5
1A13
330
C1F
100
AcDbEntity
  8
DEFPOINTS
 62
     0
 48
2.0
100
AcDbPoint
 10
59.64945797515909
 20
92.15155096011827
 30
0.0
  0
POINT
  5
1A14
330
C1F
100
AcDbEntity
  8
DEFPOINTS
 62
     0
 48
2.0
100
AcDbPoint
 10
51.02880577632788
 20
92.15155096011827
 30
0.0
  0
ENDBLK
  5
C2C
330
C1F
100
AcDbEntity
  8
0
100
AcDbBlockEnd
  0
BLOCK
  5
C3A
330
C2E
100
AcDbEntity
  8
0
100
AcDbBlockBegin
  2
*D16
 70
     1
 10
0.0
 20
0.0
 30
0.0
  3
*D16
  1

  0
LINE
  5
1A15
330
C2E
100
AcDbEntity
  8
SUNPOU
 48
2.0
100
AcDbLine
 10
56.64945797515909
 20
126.5515509601181
 30
0.0
 11
49.02880577632792
 21
126.5515509601181
 31
0.0
  0
LINE
  5
1A16
330
C2E
100
AcDbEntity
  8
SUNPOU
 48
2.0
100
AcDbLine
 10
56.64945797515909
 20
138.5515509601181
 30
0.0
 11
49.02880577632792
 21
138.5515509601181
 31
0.0
  0
LINE
  5
1A17
330
C2E
100
AcDbEntity
  8
SUNPOU
 48
2.0
100
AcDbLine
 10
51.02880577632792
 20
121.5515509601181
 30
0.0
 11
51.02880577632792
 21
116.5515509601181
 31
0.0
  0
LINE
  5
1A18
330
C2E
100
AcDbEntity
  8
SUNPOU
 48
2.0
100
AcDbLine
 10
51.02880577632792
 20
143.5515509601181
 30
0.0
 11
51.02880577632793
 21
148.5515509601181
 31
0.0
  0
LINE
  5
1A19
330
C2E
100
AcDbEntity
  8
SUNPOU
 48
2.0
100
AcDbLine
 10
51.02880577632792
 20
126.5515509601181
 30
0.0
 11
51.02880577632792
 21
138.5515509601181
 31
0.0
  0
INSERT
  5
1A1A
330
C2E
100
AcDbEntity
  8
SUNPOU
 48
2.0
100
AcDbBlockReference
  2
_OPEN30
 10
51.02880577632792
 20
126.5515509601181
 30
0.0
 41
5.0
 42
5.0
 43
5.0
 50
90.0
  0
INSERT
  5
1A1B
330
C2E
100
AcDbEntity
  8
SUNPOU
 48
2.0
100
AcDbBlockReference
  2
_OPEN30
 10
51.02880577632792
 20
138.5515509601181
 30
0.0
 41
5.0
 42
5.0
 43
5.0
 50
270.0
  0
MTEXT
  5
1A1C
330
C2E
100
AcDbEntity
  8
SUNPOU
 48
2.0
100
AcDbMText
 10
46.5288057763279
 20
132.5515509601181
 30
0.0
 40
5.0
 41
0.0
 71
     5
 72
     1
  1
\A1;120
  7
SUNPOU
 11
0.0000000000000001
 21
1.0
 31
0.0
1001
ACAD
1000
MTEXTBEGIN
1070
    73
1070
     1
1070
    44
1040
1.0
1070
    74
1070
     0
1000
MTEXTEND
  0
POINT
  5
1A1D
330
C2E
100
AcDbEntity
  8
DEFPOINTS
 62
     0
 48
2.0
100
AcDbPoint
 10
59.64945797515909
 20
126.5515509601181
 30
0.0
  0
POINT
  5
1A1E
330
C2E
100
AcDbEntity
  8
DEFPOINTS
 62
     0
 48
2.0
100
AcDbPoint
 10
59.64945797515909
 20
138.5515509601181
 30
0.0
  0
POINT
  5
1A1F
330
C2E
100
AcDbEntity
  8
DEFPOINTS
 62
     0
 48
2.0
100
AcDbPoint
 10
51.02880577632792
 20
138.5515509601181
 30
0.0
  0
ENDBLK
  5
C3B
330
C2E
100
AcDbEntity
  8
0
100
AcDbBlockEnd
  0
BLOCK
  5
C49
330
C3D
100
AcDbEntity
  8
0
100
AcDbBlockBegin
  2
*D17
 70
     1
 10
0.0
 20
0.0
 30
0.0
  3
*D17
  1

  0
LINE
  5
1A20
330
C3D
100
AcDbEntity
  8
SUNPOU
 48
2.0
100
AcDbLine
 10
82.93524836335882
 20
63.65155096011822
 30
0.0
 11
83.93524836335881
 21
63.65155096011822
 31
0.0
  0
LINE
  5
1A21
330
C3D
100
AcDbEntity
  8
SUNPOU
 48
2.0
100
AcDbLine
 10
82.93524836335882
 20
65.05155096011825
 30
0.0
 11
83.93524836335881
 21
65.05155096011825
 31
0.0
  0
LINE
  5
1A22
330
C3D
100
AcDbEntity
  8
SUNPOU
 48
2.0
100
AcDbLine
 10
85.9352483633588
 20
58.65155096011822
 30
0.0
 11
85.9352483633588
 21
53.65155096011822
 31
0.0
  0
LINE
  5
1A23
330
C3D
100
AcDbEntity
  8
SUNPOU
 48
2.0
100
AcDbLine
 10
85.9352483633588
 20
70.05155096011825
 30
0.0
 11
85.9352483633588
 21
75.05155096011825
 31
0.0
  0
MTEXT
  5
1A24
330
C3D
100
AcDbEntity
  8
SUNPOU
 48
2.0
100
AcDbMText
 10
81.43524836335878
 20
76.67823210515712
 30
0.0
 40
5.0
 41
0.0
 71
     5
 72
     1
  1
\A1;14
  7
SUNPOU
 11
0.0000000000000001
 21
1.0
 31
0.0
1001
ACAD
1000
MTEXTBEGIN
1070
    73
1070
     1
1070
    44
1040
1.0
1070
    74
1070
     0
1000
MTEXTEND
  0
LINE
  5
1A25
330
C3D
100
AcDbEntity
  8
SUNPOU
 48
2.0
100
AcDbLine
 10
85.9352483633588
 20
63.65155096011822
 30
0.0
 11
85.9352483633588
 21
65.05155096011825
 31
0.0
  0
INSERT
  5
1A26
330
C3D
100
AcDbEntity
  8
SUNPOU
 48
2.0
100
AcDbBlockReference
  2
_OPEN30
 10
85.9352483633588
 20
63.65155096011822
 30
0.0
 41
5.0
 42
5.0
 43
5.0
 50
90.0
  0
INSERT
  5
1A27
330
C3D
100
AcDbEntity
  8
SUNPOU
 48
2.0
100
AcDbBlockReference
  2
_OPEN30
 10
85.9352483633588
 20
65.05155096011825
 30
0.0
 41
5.0
 42
5.0
 43
5.0
 50
270.0
  0
POINT
  5
1A28
330
C3D
100
AcDbEntity
  8
DEFPOINTS
 62
     0
 48
2.0
100
AcDbPoint
 10
85.9352483633588
 20
63.65155096011822
 30
0.0
  0
POINT
  5
1A29
330
C3D
100
AcDbEntity
  8
DEFPOINTS
 62
     0
 48
2.0
100
AcDbPoint
 10
85.9352483633588
 20
65.05155096011825
 30
0.0
  0
POINT
  5
1A2A
330
C3D
100
AcDbEntity
  8
DEFPOINTS
 62
     0
 48
2.0
100
AcDbPoint
 10
85.9352483633588
 20
65.05155096011825
 30
0.0
  0
ENDBLK
  5
C4A
330
C3D
100
AcDbEntity
  8
0
100
AcDbBlockEnd
  0
BLOCK
  5
C63
330
C57
100
AcDbEntity
  8
0
100
AcDbBlockBegin
  2
*D18
 70
     1
 10
0.0
 20
0.0
 30
0.0
  3
*D18
  1

  0
LINE
  5
1A2B
330
C57
100
AcDbEntity
  8
SUNPOU
 48
2.0
100
AcDbLine
 10
82.93524836335887
 20
153.6515509601182
 30
0.0
 11
83.93524836335886
 21
153.6515509601182
 31
0.0
  0
LINE
  5
1A2C
330
C57
100
AcDbEntity
  8
SUNPOU
 48
2.0
100
AcDbLine
 10
82.93524836335887
 20
155.0515509601182
 30
0.0
 11
83.93524836335886
 21
155.0515509601182
 31
0.0
  0
LINE
  5
1A2D
330
C57
100
AcDbEntity
  8
SUNPOU
 48
2.0
100
AcDbLine
 10
85.93524836335886
 20
148.6515509601181
 30
0.0
 11
85.93524836335886
 21
143.6515509601181
 31
0.0
  0
LINE
  5
1A2E
330
C57
100
AcDbEntity
  8
SUNPOU
 48
2.0
100
AcDbLine
 10
85.93524836335888
 20
160.0515509601182
 30
0.0
 11
85.93524836335888
 21
165.0515509601181
 31
0.0
  0
MTEXT
  5
1A2F
330
C57
100
AcDbEntity
  8
SUNPOU
 48
2.0
100
AcDbMText
 10
81.43524836335883
 20
142.757193846885
 30
0.0
 40
5.0
 41
0.0
 71
     5
 72
     1
  1
\A1;14
  7
SUNPOU
 11
0.0000000000000001
 21
1.0
 31
0.0
1001
ACAD
1000
MTEXTBEGIN
1070
    73
1070
     1
1070
    44
1040
1.0
1070
    74
1070
     0
1000
MTEXTEND
  0
LINE
  5
1A30
330
C57
100
AcDbEntity
  8
SUNPOU
 48
2.0
100
AcDbLine
 10
85.93524836335886
 20
153.6515509601182
 30
0.0
 11
85.93524836335886
 21
155.0515509601182
 31
0.0
  0
INSERT
  5
1A31
330
C57
100
AcDbEntity
  8
SUNPOU
 48
2.0
100
AcDbBlockReference
  2
_OPEN30
 10
85.93524836335886
 20
153.6515509601182
 30
0.0
 41
5.0
 42
5.0
 43
5.0
 50
90.0
  0
INSERT
  5
1A32
330
C57
100
AcDbEntity
  8
SUNPOU
 48
2.0
100
AcDbBlockReference
  2
_OPEN30
 10
85.93524836335886
 20
155.0515509601182
 30
0.0
 41
5.0
 42
5.0
 43
5.0
 50
270.0
  0
POINT
  5
1A33
330
C57
100
AcDbEntity
  8
DEFPOINTS
 62
     0
 48
2.0
100
AcDbPoint
 10
85.93524836335886
 20
153.6515509601182
 30
0.0
  0
POINT
  5
1A34
330
C57
100
AcDbEntity
  8
DEFPOINTS
 62
     0
 48
2.0
100
AcDbPoint
 10
85.93524836335886
 20
155.0515509601182
 30
0.0
  0
POINT
  5
1A35
330
C57
100
AcDbEntity
  8
DEFPOINTS
 62
     0
 48
2.0
100
AcDbPoint
 10
85.93524836335886
 20
155.0515509601182
 30
0.0
  0
ENDBLK
  5
C64
330
C57
100
AcDbEntity
  8
0
100
AcDbBlockEnd
  0
BLOCK
  5
C88
330
C7C
100
AcDbEntity
  8
0
100
AcDbBlockBegin
  2
*D19
 70
     1
 10
0.0
 20
0.0
 30
0.0
  3
*D19
  1

  0
LINE
  5
1A36
330
C7C
100
AcDbEntity
  8
SUNPOU
 48
2.0
100
AcDbLine
 10
279.9913902980514
 20
63.65155096011822
 30
0.0
 11
295.3156408002246
 21
63.65155096011822
 31
0.0
  0
LINE
  5
1A37
330
C7C
100
AcDbEntity
  8
SUNPOU
 48
2.0
100
AcDbLine
 10
285.5440453141127
 20
75.6515509601182
 30
0.0
 11
295.3156408002246
 21
75.65155096011818
 31
0.0
  0
LINE
  5
1A38
330
C7C
100
AcDbEntity
  8
SUNPOU
 48
2.0
100
AcDbLine
 10
293.3156408002247
 20
58.65155096011822
 30
0.0
 11
293.3156408002247
 21
53.65155096011822
 31
0.0
  0
LINE
  5
1A39
330
C7C
100
AcDbEntity
  8
SUNPOU
 48
2.0
100
AcDbLine
 10
293.3156408002247
 20
80.65155096011819
 30
0.0
 11
293.3156408002247
 21
85.65155096011819
 31
0.0
  0
LINE
  5
1A3A
330
C7C
100
AcDbEntity
  8
SUNPOU
 48
2.0
100
AcDbLine
 10
293.3156408002247
 20
63.65155096011822
 30
0.0
 11
293.3156408002247
 21
75.65155096011818
 31
0.0
  0
INSERT
  5
1A3B
330
C7C
100
AcDbEntity
  8
SUNPOU
 48
2.0
100
AcDbBlockReference
  2
_OPEN30
 10
293.3156408002247
 20
63.65155096011822
 30
0.0
 41
5.0
 42
5.0
 43
5.0
 50
90.0
  0
INSERT
  5
1A3C
330
C7C
100
AcDbEntity
  8
SUNPOU
 48
2.0
100
AcDbBlockReference
  2
_OPEN30
 10
293.3156408002247
 20
75.65155096011818
 30
0.0
 41
5.0
 42
5.0
 43
5.0
 50
270.0
  0
MTEXT
  5
1A3D
330
C7C
100
AcDbEntity
  8
SUNPOU
 48
2.0
100
AcDbMText
 10
288.8156408002247
 20
69.65155096011826
 30
0.0
 40
5.0
 41
0.0
 71
     5
 72
     1
  1
\A1;120
  7
SUNPOU
 11
0.0000000000000001
 21
1.0
 31
0.0
1001
ACAD
1000
MTEXTBEGIN
1070
    73
1070
     1
1070
    44
1040
1.0
1070
    74
1070
     0
1000
MTEXTEND
  0
POINT
  5
1A3E
330
C7C
100
AcDbEntity
  8
DEFPOINTS
 62
     0
 48
2.0
100
AcDbPoint
 10
276.9913902980515
 20
63.65155096011822
 30
0.0
  0
POINT
  5
1A3F
330
C7C
100
AcDbEntity
  8
DEFPOINTS
 62
     0
 48
2.0
100
AcDbPoint
 10
282.5440453141128
 20
75.6515509601182
 30
0.0
  0
POINT
  5
1A40
330
C7C
100
AcDbEntity
  8
DEFPOINTS
 62
     0
 48
2.0
100
AcDbPoint
 10
293.3156408002247
 20
75.65155096011818
 30
0.0
  0
ENDBLK
  5
C89
330
C7C
100
AcDbEntity
  8
0
100
AcDbBlockEnd
  0
BLOCK
  5
C95
330
C8B
100
AcDbEntity
  8
0
100
AcDbBlockBegin
  2
*D20
 70
     1
 10
0.0
 20
0.0
 30
0.0
  3
*D20
  1

  0
LINE
  5
1A41
330
C8B
100
AcDbEntity
  8
SUNPOU
 48
2.0
100
AcDbLine
 10
285.5440453141127
 20
129.0515509601181
 30
0.0
 11
295.6987064794465
 21
129.0515509601181
 31
0.0
  0
LINE
  5
1A42
330
C8B
100
AcDbEntity
  8
SUNPOU
 48
2.0
100
AcDbLine
 10
279.9913902980516
 20
155.0515509601182
 30
0.0
 11
295.6987064794465
 21
155.0515509601182
 31
0.0
  0
LINE
  5
1A43
330
C8B
100
AcDbEntity
  8
SUNPOU
 48
2.0
100
AcDbLine
 10
293.6987064794465
 20
134.0515509601181
 30
0.0
 11
293.6987064794465
 21
150.0515509601181
 31
0.0
  0
INSERT
  5
1A44
330
C8B
100
AcDbEntity
  8
SUNPOU
 48
2.0
100
AcDbBlockReference
  2
_OPEN30
 10
293.6987064794465
 20
129.0515509601181
 30
0.0
 41
5.0
 42
5.0
 43
5.0
 50
270.0
  0
INSERT
  5
1A45
330
C8B
100
AcDbEntity
  8
SUNPOU
 48
2.0
100
AcDbBlockReference
  2
_OPEN30
 10
293.6987064794465
 20
155.0515509601182
 30
0.0
 41
5.0
 42
5.0
 43
5.0
 50
90.0
  0
MTEXT
  5
1A46
330
C8B
100
AcDbEntity
  8
SUNPOU
 48
2.0
100
AcDbMText
 10
289.1987064794464
 20
142.0515509601181
 30
0.0
 40
5.0
 41
0.0
 71
     5
 72
     1
  1
\A1;260
  7
SUNPOU
 11
0.0000000000000001
 21
1.0
 31
0.0
1001
ACAD
1000
MTEXTBEGIN
1070
    73
1070
     1
1070
    44
1040
1.0
1070
    74
1070
     0
1000
MTEXTEND
  0
POINT
  5
1A47
330
C8B
100
AcDbEntity
  8
DEFPOINTS
 62
     0
 48
2.0
100
AcDbPoint
 10
282.5440453141128
 20
129.0515509601181
 30
0.0
  0
POINT
  5
1A48
330
C8B
100
AcDbEntity
  8
DEFPOINTS
 62
     0
 48
2.0
100
AcDbPoint
 10
276.9913902980515
 20
155.0515509601182
 30
0.0
  0
POINT
  5
1A49
330
C8B
100
AcDbEntity
  8
DEFPOINTS
 62
     0
 48
2.0
100
AcDbPoint
 10
293.6987064794465
 20
155.0515509601182
 30
0.0
  0
ENDBLK
  5
C96
330
C8B
100
AcDbEntity
  8
0
100
AcDbBlockEnd
  0
BLOCK
  5
CA2
330
C98
100
AcDbEntity
  8
0
100
AcDbBlockBegin
  2
*D21
 70
     1
 10
0.0
 20
0.0
 30
0.0
  3
*D21
  1

  0
LINE
  5
1A4A
330
C98
100
AcDbEntity
  8
SUNPOU
 48
2.0
100
AcDbLine
 10
279.9913902980514
 20
63.65155096011822
 30
0.0
 11
307.2060226608412
 21
63.65155096011821
 31
0.0
  0
LINE
  5
1A4B
330
C98
100
AcDbEntity
  8
SUNPOU
 48
2.0
100
AcDbLine
 10
279.9913902980516
 20
155.0515509601182
 30
0.0
 11
307.2060226608413
 21
155.0515509601182
 31
0.0
  0
LINE
  5
1A4C
330
C98
100
AcDbEntity
  8
SUNPOU
 48
2.0
100
AcDbLine
 10
305.2060226608412
 20
68.6515509601182
 30
0.0
 11
305.2060226608413
 21
150.0515509601181
 31
0.0
  0
INSERT
  5
1A4D
330
C98
100
AcDbEntity
  8
SUNPOU
 48
2.0
100
AcDbBlockReference
  2
_OPEN30
 10
305.2060226608412
 20
63.65155096011821
 30
0.0
 41
5.0
 42
5.0
 43
5.0
 50
270.0
  0
INSERT
  5
1A4E
330
C98
100
AcDbEntity
  8
SUNPOU
 48
2.0
100
AcDbBlockReference
  2
_OPEN30
 10
305.2060226608413
 20
155.0515509601182
 30
0.0
 41
5.0
 42
5.0
 43
5.0
 50
90.0
  0
MTEXT
  5
1A4F
330
C98
100
AcDbEntity
  8
SUNPOU
 48
2.0
100
AcDbMText
 10
300.7060226608412
 20
109.3515509601182
 30
0.0
 40
5.0
 41
0.0
 71
     5
 72
     1
  1
\A1;DW
  7
SUNPOU
 11
0.0000000000000001
 21
1.0
 31
0.0
1001
ACAD
1000
MTEXTBEGIN
1070
    73
1070
     1
1070
    44
1040
1.0
1070
    74
1070
     0
1000
MTEXTEND
  0
POINT
  5
1A50
330
C98
100
AcDbEntity
  8
DEFPOINTS
 62
     0
 48
2.0
100
AcDbPoint
 10
276.9913902980515
 20
63.65155096011822
 30
0.0
  0
POINT
  5
1A51
330
C98
100
AcDbEntity
  8
DEFPOINTS
 62
     0
 48
2.0
100
AcDbPoint
 10
276.9913902980515
 20
155.0515509601182
 30
0.0
  0
POINT
  5
1A52
330
C98
100
AcDbEntity
  8
DEFPOINTS
 62
     0
 48
2.0
100
AcDbPoint
 10
305.2060226608413
 20
155.0515509601182
 30
0.0
  0
ENDBLK
  5
CA3
330
C98
100
AcDbEntity
  8
0
100
AcDbBlockEnd
  0
BLOCK
  5
CBA
330
CAE
100
AcDbEntity
  8
0
100
AcDbBlockBegin
  2
*D22
 70
     1
 10
0.0
 20
0.0
 30
0.0
  3
*D22
  1

  0
LINE
  5
1A72
330
CAE
100
AcDbEntity
  8
SUNPOU
 48
2.0
100
AcDbLine
 10
62.79139029805165
 20
158.0515509601181
 30
0.0
 11
62.79139029805165
 21
173.5941990063113
 31
0.0
  0
LINE
  5
1A73
330
CAE
100
AcDbEntity
  8
SUNPOU
 48
2.0
100
AcDbLine
 10
71.09139029805167
 20
156.6515509601181
 30
0.0
 11
71.09139029805167
 21
173.5941990063113
 31
0.0
  0
LINE
  5
1A74
330
CAE
100
AcDbEntity
  8
SUNPOU
 48
2.0
100
AcDbLine
 10
57.79139029805165
 20
171.5941990063113
 30
0.0
 11
52.79139029805165
 21
171.5941990063113
 31
0.0
  0
LINE
  5
1A75
330
CAE
100
AcDbEntity
  8
SUNPOU
 48
2.0
100
AcDbLine
 10
76.09139029805167
 20
171.5941990063113
 30
0.0
 11
81.09139029805168
 21
171.5941990063113
 31
0.0
  0
MTEXT
  5
1A76
330
CAE
100
AcDbEntity
  8
SUNPOU
 48
2.0
100
AcDbMText
 10
66.94139029805166
 20
167.0941990063113
 30
0.0
 40
5.0
 41
0.0
 71
     5
 72
     1
  1
\A1;83
  7
SUNPOU
 11
-1.0
 21
0.0000000000000001
 31
0.0
1001
ACAD
1000
MTEXTBEGIN
1070
    73
1070
     1
1070
    44
1040
1.0
1070
    74
1070
     0
1000
MTEXTEND
  0
LINE
  5
1A77
330
CAE
100
AcDbEntity
  8
SUNPOU
 48
2.0
100
AcDbLine
 10
62.79139029805165
 20
171.5941990063113
 30
0.0
 11
71.09139029805167
 21
171.5941990063113
 31
0.0
  0
INSERT
  5
1A78
330
CAE
100
AcDbEntity
  8
SUNPOU
 48
2.0
100
AcDbBlockReference
  2
_OPEN30
 10
62.79139029805165
 20
171.5941990063113
 30
0.0
 41
5.0
 42
5.0
 43
5.0
  0
INSERT
  5
1A79
330
CAE
100
AcDbEntity
  8
SUNPOU
 48
2.0
100
AcDbBlockReference
  2
_OPEN30
 10
71.09139029805167
 20
171.5941990063113
 30
0.0
 41
5.0
 42
5.0
 43
5.0
 50
180.0
  0
POINT
  5
1A7A
330
CAE
100
AcDbEntity
  8
DEFPOINTS
 62
     0
 48
2.0
100
AcDbPoint
 10
62.79139029805165
 20
155.0515509601182
 30
0.0
  0
POINT
  5
1A7B
330
CAE
100
AcDbEntity
  8
DEFPOINTS
 62
     0
 48
2.0
100
AcDbPoint
 10
71.09139029805167
 20
153.6515509601182
 30
0.0
  0
POINT
  5
1A7C
330
CAE
100
AcDbEntity
  8
DEFPOINTS
 62
     0
 48
2.0
100
AcDbPoint
 10
71.09139029805167
 20
171.5941990063113
 30
0.0
  0
ENDBLK
  5
CBB
330
CAE
100
AcDbEntity
  8
0
100
AcDbBlockEnd
  0
BLOCK
  5
CC7
330
CBD
100
AcDbEntity
  8
0
100
AcDbBlockBegin
  2
*D23
 70
     1
 10
0.0
 20
0.0
 30
0.0
  3
*D23
  1

  0
LINE
  5
1A69
330
CBD
100
AcDbEntity
  8
SUNPOU
 48
2.0
100
AcDbLine
 10
62.79139029805165
 20
158.0515509601181
 30
0.0
 11
62.79139029805165
 21
185.4002954209746
 31
0.0
  0
LINE
  5
1A6A
330
CBD
100
AcDbEntity
  8
SUNPOU
 48
2.0
100
AcDbLine
 10
276.1913902980515
 20
158.0515509601181
 30
0.0
 11
276.1913902980515
 21
185.4002954209746
 31
0.0
  0
LINE
  5
1A6B
330
CBD
100
AcDbEntity
  8
SUNPOU
 48
2.0
100
AcDbLine
 10
67.79139029805165
 20
183.4002954209746
 30
0.0
 11
271.1913902980516
 21
183.4002954209746
 31
0.0
  0
MTEXT
  5
1A6C
330
CBD
100
AcDbEntity
  8
SUNPOU
 48
2.0
100
AcDbMText
 10
169.4913902980514
 20
178.4002954209746
 30
0.0
 40
5.0
 41
0.0
 71
     5
 72
     1
  1
\A1;2134
  7
SUNPOU
 11
-1.0
 21
0.0000000000000001
 31
0.0
1001
ACAD
1000
MTEXTBEGIN
1070
    73
1070
     1
1070
    44
1040
1.0
1070
    74
1070
     0
1000
MTEXTEND
  0
INSERT
  5
1A6D
330
CBD
100
AcDbEntity
  8
SUNPOU
 48
2.0
100
AcDbBlockReference
  2
_OPEN30
 10
62.79139029805165
 20
183.4002954209746
 30
0.0
 41
5.0
 42
5.0
 43
5.0
 50
180.0
  0
INSERT
  5
1A6E
330
CBD
100
AcDbEntity
  8
SUNPOU
 48
2.0
100
AcDbBlockReference
  2
_OPEN30
 10
276.1913902980515
 20
183.4002954209746
 30
0.0
 41
5.0
 42
5.0
 43
5.0
  0
POINT
  5
1A6F
330
CBD
100
AcDbEntity
  8
DEFPOINTS
 62
     0
 48
2.0
100
AcDbPoint
 10
62.79139029805165
 20
155.0515509601182
 30
0.0
  0
POINT
  5
1A70
330
CBD
100
AcDbEntity
  8
DEFPOINTS
 62
     0
 48
2.0
100
AcDbPoint
 10
276.1913902980515
 20
155.0515509601182
 30
0.0
  0
POINT
  5
1A71
330
CBD
100
AcDbEntity
  8
DEFPOINTS
 62
     0
 48
2.0
100
AcDbPoint
 10
276.1913902980515
 20
183.4002954209746
 30
0.0
  0
ENDBLK
  5
CC8
330
CBD
100
AcDbEntity
  8
0
100
AcDbBlockEnd
  0
BLOCK
  5
CD6
330
CCA
100
AcDbEntity
  8
0
100
AcDbBlockBegin
  2
*D24
 70
     1
 10
0.0
 20
0.0
 30
0.0
  3
*D24
  1

  0
LINE
  5
1A53
330
CCA
100
AcDbEntity
  8
SUNPOU
 48
2.0
100
AcDbLine
 10
276.1913902980515
 20
158.0515509601181
 30
0.0
 11
276.1913902980515
 21
185.4002954209746
 31
0.0
  0
LINE
  5
1A54
330
CCA
100
AcDbEntity
  8
SUNPOU
 48
2.0
100
AcDbLine
 10
276.9913902980515
 20
158.0515509601181
 30
0.0
 11
276.9913902980515
 21
185.4002954209746
 31
0.0
  0
LINE
  5
1A55
330
CCA
100
AcDbEntity
  8
SUNPOU
 48
2.0
100
AcDbLine
 10
271.1913902980516
 20
183.4002954209746
 30
0.0
 11
266.1913902980515
 21
183.4002954209746
 31
0.0
  0
LINE
  5
1A56
330
CCA
100
AcDbEntity
  8
SUNPOU
 48
2.0
100
AcDbLine
 10
281.9913902980516
 20
183.4002954209746
 30
0.0
 11
286.9913902980515
 21
183.4002954209746
 31
0.0
  0
MTEXT
  5
1A57
330
CCA
100
AcDbEntity
  8
SUNPOU
 48
2.0
100
AcDbMText
 10
285.4809276497815
 20
178.9002954209748
 30
0.0
 40
5.0
 41
0.0
 71
     5
 72
     1
  1
\A1;8
  7
SUNPOU
 11
-1.0
 21
0.0000000000000001
 31
0.0
1001
ACAD
1000
MTEXTBEGIN
1070
    73
1070
     1
1070
    44
1040
1.0
1070
    74
1070
     0
1000
MTEXTEND
  0
LINE
  5
1A58
330
CCA
100
AcDbEntity
  8
SUNPOU
 48
2.0
100
AcDbLine
 10
276.1913902980515
 20
183.4002954209746
 30
0.0
 11
276.9913902980515
 21
183.4002954209746
 31
0.0
  0
INSERT
  5
1A59
330
CCA
100
AcDbEntity
  8
SUNPOU
 48
2.0
100
AcDbBlockReference
  2
_OPEN30
 10
276.1913902980515
 20
183.4002954209746
 30
0.0
 41
5.0
 42
5.0
 43
5.0
  0
INSERT
  5
1A5A
330
CCA
100
AcDbEntity
  8
SUNPOU
 48
2.0
100
AcDbBlockReference
  2
_OPEN30
 10
276.9913902980515
 20
183.4002954209746
 30
0.0
 41
5.0
 42
5.0
 43
5.0
 50
180.0
  0
POINT
  5
1A5B
330
CCA
100
AcDbEntity
  8
DEFPOINTS
 62
     0
 48
2.0
100
AcDbPoint
 10
276.1913902980515
 20
155.0515509601182
 30
0.0
  0
POINT
  5
1A5C
330
CCA
100
AcDbEntity
  8
DEFPOINTS
 62
     0
 48
2.0
100
AcDbPoint
 10
276.9913902980515
 20
155.0515509601182
 30
0.0
  0
POINT
  5
1A5D
330
CCA
100
AcDbEntity
  8
DEFPOINTS
 62
     0
 48
2.0
100
AcDbPoint
 10
276.9913902980515
 20
183.4002954209746
 30
0.0
  0
ENDBLK
  5
CD7
330
CCA
100
AcDbEntity
  8
0
100
AcDbBlockEnd
  0
BLOCK
  5
CE5
330
CD9
100
AcDbEntity
  8
0
100
AcDbBlockBegin
  2
*D25
 70
     1
 10
0.0
 20
0.0
 30
0.0
  3
*D25
  1

  0
LINE
  5
1A5E
330
CD9
100
AcDbEntity
  8
SUNPOU
 48
2.0
100
AcDbLine
 10
267.9913902980516
 20
156.6515509601181
 30
0.0
 11
267.9913902980516
 21
173.5941990063111
 31
0.0
  0
LINE
  5
1A5F
330
CD9
100
AcDbEntity
  8
SUNPOU
 48
2.0
100
AcDbLine
 10
276.1913902980515
 20
158.0515509601181
 30
0.0
 11
276.1913902980515
 21
173.5941990063111
 31
0.0
  0
LINE
  5
1A60
330
CD9
100
AcDbEntity
  8
SUNPOU
 48
2.0
100
AcDbLine
 10
262.9913902980516
 20
171.594199006311
 30
0.0
 11
257.9913902980516
 21
171.594199006311
 31
0.0
  0
LINE
  5
1A61
330
CD9
100
AcDbEntity
  8
SUNPOU
 48
2.0
100
AcDbLine
 10
281.1913902980516
 20
171.594199006311
 30
0.0
 11
286.1913902980516
 21
171.594199006311
 31
0.0
  0
MTEXT
  5
1A62
330
CD9
100
AcDbEntity
  8
SUNPOU
 48
2.0
100
AcDbMText
 10
272.0913902980516
 20
167.0941990063113
 30
0.0
 40
5.0
 41
0.0
 71
     5
 72
     1
  1
\A1;82
  7
SUNPOU
 11
-1.0
 21
0.0000000000000001
 31
0.0
1001
ACAD
1000
MTEXTBEGIN
1070
    73
1070
     1
1070
    44
1040
1.0
1070
    74
1070
     0
1000
MTEXTEND
  0
LINE
  5
1A63
330
CD9
100
AcDbEntity
  8
SUNPOU
 48
2.0
100
AcDbLine
 10
267.9913902980516
 20
171.594199006311
 30
0.0
 11
276.1913902980515
 21
171.594199006311
 31
0.0
  0
INSERT
  5
1A64
330
CD9
100
AcDbEntity
  8
SUNPOU
 48
2.0
100
AcDbBlockReference
  2
_OPEN30
 10
267.9913902980516
 20
171.594199006311
 30
0.0
 41
5.0
 42
5.0
 43
5.0
  0
INSERT
  5
1A65
330
CD9
100
AcDbEntity
  8
SUNPOU
 48
2.0
100
AcDbBlockReference
  2
_OPEN30
 10
276.1913902980515
 20
171.594199006311
 30
0.0
 41
5.0
 42
5.0
 43
5.0
 50
180.0
  0
POINT
  5
1A66
330
CD9
100
AcDbEntity
  8
DEFPOINTS
 62
     0
 48
2.0
100
AcDbPoint
 10
267.9913902980516
 20
153.6515509601182
 30
0.0
  0
POINT
  5
1A67
330
CD9
100
AcDbEntity
  8
DEFPOINTS
 62
     0
 48
2.0
100
AcDbPoint
 10
276.1913902980515
 20
155.0515509601182
 30
0.0
  0
POINT
  5
1A68
330
CD9
100
AcDbEntity
  8
DEFPOINTS
 62
     0
 48
2.0
100
AcDbPoint
 10
276.1913902980515
 20
171.594199006311
 30
0.0
  0
ENDBLK
  5
CE6
330
CD9
100
AcDbEntity
  8
0
100
AcDbBlockEnd
  0
ENDSEC
  0
SECTION
  2
ENTITIES
  0
CIRCLE
  5
155
330
A
100
AcDbEntity
  8
03
100
AcDbCircle
 10
273.1913902980516
 20
148.751550960118
 30
0.0
 40
1.5
  0
CIRCLE
  5
156
330
A
100
AcDbEntity
  8
03
100
AcDbCircle
 10
273.1913902980516
 20
148.751550960118
 30
0.0
 40
2.0
  0
ARC
  5
25F
330
A
100
AcDbEntity
  8
06
100
AcDbCircle
 10
343.6697251192908
 20
247.0601920236334
 30
0.0
 40
0.2598002275241555
100
AcDbArc
 50
272.2025981617641
 51
87.79740183823584
  0
ARC
  5
262
330
A
100
AcDbEntity
  8
06
100
AcDbCircle
 10
336.429525346815
 20
248.3101920236335
 30
0.0
 40
1.0
100
AcDbArc
 50
0.0
 51
90.0
  0
ARC
  5
273
330
A
100
AcDbEntity
  8
06
100
AcDbCircle
 10
343.6697251192908
 20
225.5601920236335
 30
0.0
 40
0.2598002275241555
100
AcDbArc
 50
272.2025981617641
 51
87.79740183823584
  0
ARC
  5
275
330
A
100
AcDbEntity
  8
06
100
AcDbCircle
 10
336.429525346815
 20
224.3101920236334
 30
0.0
 40
1.0
100
AcDbArc
 50
270.0
 51
0.0
  0
ARC
  5
276
330
A
100
AcDbEntity
  8
04
100
AcDbCircle
 10
97.6791021150708
 20
540.5600404166001
 30
0.0
 40
2.0
100
AcDbArc
 50
90.0
 51
180.0
  0
ARC
  5
277
330
A
100
AcDbEntity
  8
04
100
AcDbCircle
 10
125.6791021150709
 20
540.5600404165993
 30
0.0
 40
2.0
100
AcDbArc
 50
0.0
 51
90.0
  0
ARC
  5
278
330
A
100
AcDbEntity
  8
04
100
AcDbCircle
 10
97.6791021150708
 20
431.5600404165996
 30
0.0
 40
2.0
100
AcDbArc
 50
180.0
 51
270.0
  0
ARC
  5
279
330
A
100
AcDbEntity
  8
04
100
AcDbCircle
 10
125.6791021150708
 20
431.5600404165996
 30
0.0
 40
2.0
100
AcDbArc
 50
270.0
 51
0.0
  0
ARC
  5
27A
330
A
100
AcDbEntity
  8
04
100
AcDbCircle
 10
134.679102115071
 20
440.5600404165996
 30
0.0
 40
2.0
100
AcDbArc
 50
90.0
 51
180.0
  0
ARC
  5
27B
330
A
100
AcDbEntity
  8
04
100
AcDbCircle
 10
162.6791021150708
 20
440.5600404165996
 30
0.0
 40
2.0
100
AcDbArc
 50
0.0
 51
90.0
  0
ARC
  5
27C
330
A
100
AcDbEntity
  8
04
100
AcDbCircle
 10
134.6791021150709
 20
351.5600404165996
 30
0.0
 40
2.0
100
AcDbArc
 50
180.0
 51
270.0
  0
ARC
  5
27D
330
A
100
AcDbEntity
  8
04
100
AcDbCircle
 10
162.6791021150705
 20
351.5600404165996
 30
0.0
 40
2.0
100
AcDbArc
 50
270.0
 51
0.0
  0
ARC
  5
293
330
A
100
AcDbEntity
  8
04
100
AcDbCircle
 10
240.679102115071
 20
440.5600404165996
 30
0.0
 40
2.0
100
AcDbArc
 50
90.0
 51
180.0
  0
ARC
  5
294
330
A
100
AcDbEntity
  8
04
100
AcDbCircle
 10
268.6791021150708
 20
440.5600404165996
 30
0.0
 40
2.0
100
AcDbArc
 50
0.0
 51
90.0
  0
ARC
  5
295
330
A
100
AcDbEntity
  8
04
100
AcDbCircle
 10
240.679102115071
 20
342.5600404165996
 30
0.0
 40
2.0
100
AcDbArc
 50
90.0
 51
180.0
  0
ARC
  5
296
330
A
100
AcDbEntity
  8
04
100
AcDbCircle
 10
240.6791021150707
 20
351.5600404165996
 30
0.0
 40
2.0
100
AcDbArc
 50
180.0
 51
270.0
  0
ARC
  5
297
330
A
100
AcDbEntity
  8
04
100
AcDbCircle
 10
268.6791021150709
 20
351.5600404165996
 30
0.0
 40
2.0
100
AcDbArc
 50
270.0
 51
0.0
  0
ARC
  5
298
330
A
100
AcDbEntity
  8
04
100
AcDbCircle
 10
268.679102115071
 20
342.5600404165996
 30
0.0
 40
2.0
100
AcDbArc
 50
0.0
 51
90.0
  0
ARC
  5
345
330
A
100
AcDbEntity
  8
06
100
AcDbCircle
 10
253.2113054938025
 20
349.127301118718
 30
0.0
 40
0.5000000000000001
100
AcDbArc
 50
15.94539590092151
 51
165.9637565320784
  0
ARC
  5
346
330
A
100
AcDbEntity
  8
06
100
AcDbCircle
 10
246.6791021150709
 20
346.5600404165996
 30
0.0
 40
0.5000000000000001
100
AcDbArc
 50
90.0
 51
180.0
  0
ARC
  5
347
330
A
100
AcDbEntity
  8
06
100
AcDbCircle
 10
262.6791021150709
 20
346.5600404165996
 30
0.0
 40
0.5000000000000001
100
AcDbArc
 50
0.0
 51
90.0
  0
ARC
  5
348
330
A
100
AcDbEntity
  8
06
100
AcDbCircle
 10
248.1791021150709
 20
342.0600404165996
 30
0.0
 40
0.5000000000000001
100
AcDbArc
 50
90.0
 51
180.0
  0
ARC
  5
349
330
A
100
AcDbEntity
  8
06
100
AcDbCircle
 10
261.1791021150709
 20
342.0600404165996
 30
0.0
 40
0.5000000000000001
100
AcDbArc
 50
0.0
 51
90.0
  0
ARC
  5
35B
330
A
100
AcDbEntity
  8
06
100
AcDbCircle
 10
256.1468987363391
 20
344.9927797144809
 30
0.0
 40
0.5000000000000001
100
AcDbArc
 50
195.9453959009215
 51
345.9637565320786
  0
ARC
  5
35C
330
A
100
AcDbEntity
  8
06
100
AcDbCircle
 10
262.6791021150709
 20
347.5600404165996
 30
0.0
 40
0.5000000000000001
100
AcDbArc
 50
270.0
 51
0.0
  0
ARC
  5
35D
330
A
100
AcDbEntity
  8
06
100
AcDbCircle
 10
246.6791021150709
 20
347.5600404165996
 30
0.0
 40
0.5000000000000001
100
AcDbArc
 50
180.0
 51
270.0
  0
ARC
  5
35E
330
A
100
AcDbEntity
  8
06
100
AcDbCircle
 10
261.1791021150709
 20
352.0600404165996
 30
0.0
 40
0.5000000000000001
100
AcDbArc
 50
270.0
 51
0.0
  0
ARC
  5
35F
330
A
100
AcDbEntity
  8
06
100
AcDbCircle
 10
248.1791021150708
 20
352.0600404165996
 30
0.0
 40
0.5000000000000001
100
AcDbArc
 50
180.0
 51
270.0
  0
ARC
  5
369
330
A
100
AcDbEntity
  8
06
100
AcDbCircle
 10
155.1791021150709
 20
352.0600404165996
 30
0.0
 40
0.5000000000000001
100
AcDbArc
 50
270.0
 51
0.0
  0
ARC
  5
36A
330
A
100
AcDbEntity
  8
06
100
AcDbCircle
 10
142.1791021150708
 20
352.0600404165996
 30
0.0
 40
0.5000000000000001
100
AcDbArc
 50
180.0
 51
270.0
  0
ARC
  5
373
330
A
100
AcDbEntity
  8
06
100
AcDbCircle
 10
155.1791021150709
 20
345.0600404165996
 30
0.0
 40
0.5000000000000001
100
AcDbArc
 50
239.3426801049785
 51
59.34268010497859
  0
ARC
  5
376
330
A
100
AcDbEntity
  8
06
100
AcDbCircle
 10
149.6739744910488
 20
347.155009996829
 30
0.0
 40
0.5049245448261008
100
AcDbArc
 50
59.66691682412667
 51
179.4690267870859
  0
ARC
  5
377
330
A
100
AcDbEntity
  8
06
100
AcDbCircle
 10
152.0791021150708
 20
348.0600404165996
 30
0.0
 40
0.5000000000000001
100
AcDbArc
 50
0.0
 51
239.3426801049785
  0
ARC
  5
37A
330
A
100
AcDbEntity
  8
06
100
AcDbCircle
 10
142.1791021150709
 20
345.0600404165996
 30
0.0
 40
0.5000000000000001
100
AcDbArc
 50
120.6573198950215
 51
300.6573198950214
  0
ARC
  5
37B
330
A
100
AcDbEntity
  8
06
100
AcDbCircle
 10
147.6842297390929
 20
347.155009996829
 30
0.0
 40
0.5049245448260617
100
AcDbArc
 50
0.5309732129140437
 51
120.3330831758733
  0
ARC
  5
37C
330
A
100
AcDbEntity
  8
06
100
AcDbCircle
 10
145.2791021150709
 20
348.0600404165996
 30
0.0
 40
0.5000000000000001
100
AcDbArc
 50
300.6573198950214
 51
179.9999999999992
  0
ARC
  5
37D
330
A
100
AcDbEntity
  8
06
100
AcDbCircle
 10
148.6791021150709
 20
347.0600404165996
 30
0.0
 40
0.5000000000000001
100
AcDbArc
 50
168.5041164219842
 51
11.49588357801657
  0
ARC
  5
37E
330
A
100
AcDbEntity
  8
06
100
AcDbCircle
 10
156.6791021150708
 20
348.5600404165996
 30
0.0
 40
0.5000000000000001
100
AcDbArc
 50
270.0
 51
0.0
  0
ARC
  5
37F
330
A
100
AcDbEntity
  8
06
100
AcDbCircle
 10
140.6791021150709
 20
348.5600404165996
 30
0.0
 40
0.5000000000000001
100
AcDbArc
 50
180.0
 51
270.0
  0
ARC
  5
39B
330
A
100
AcDbEntity
  8
06
100
AcDbCircle
 10
128.1791021150709
 20
436.0600404165992
 30
0.0
 40
0.5000000000000001
100
AcDbArc
 50
100.9678517592089
 51
259.0321482407911
  0
ARC
  5
3AC
330
A
100
AcDbEntity
  8
06
100
AcDbCircle
 10
129.9791021150707
 20
435.2600404165995
 30
0.0
 40
0.3000000000000007
100
AcDbArc
 50
71.10610428933234
 51
180.0
  0
ARC
  5
3AD
330
A
100
AcDbEntity
  8
06
100
AcDbCircle
 10
127.485714137408
 20
427.9749174668578
 30
0.0
 40
8.000000000000001
100
AcDbArc
 50
50.77968514854472
 51
71.46693243089379
  0
ARC
  5
3AE
330
A
100
AcDbEntity
  8
06
100
AcDbCircle
 10
132.8602983759135
 20
434.5600404165991
 30
0.0
 40
0.5000000000000001
100
AcDbArc
 50
230.7796851485448
 51
270.0
  0
ARC
  5
3AF
330
A
100
AcDbEntity
  8
06
100
AcDbCircle
 10
129.9791021150707
 20
436.8600404165993
 30
0.0
 40
0.3000000000000007
100
AcDbArc
 50
180.0
 51
288.8938957106676
  0
ARC
  5
3B0
330
A
100
AcDbEntity
  8
06
100
AcDbCircle
 10
127.485714137408
 20
444.1451633663407
 30
0.0
 40
8.000000000000001
100
AcDbArc
 50
288.5330675691061
 51
309.2203148514552
  0
ARC
  5
3B1
330
A
100
AcDbEntity
  8
06
100
AcDbCircle
 10
132.8602983759135
 20
437.5600404165996
 30
0.0
 40
0.5000000000000001
100
AcDbArc
 50
90.0
 51
129.2203148514551
  0
ARC
  5
3B8
330
A
100
AcDbEntity
  8
06
100
AcDbCircle
 10
234.1791021150709
 20
436.0600404165992
 30
0.0
 40
0.5000000000000001
100
AcDbArc
 50
100.9678517592089
 51
259.0321482407911
  0
ARC
  5
3C9
330
A
100
AcDbEntity
  8
06
100
AcDbCircle
 10
235.9791021150706
 20
435.2600404165995
 30
0.0
 40
0.3000000000000007
100
AcDbArc
 50
71.10610428933234
 51
180.0
  0
ARC
  5
3CA
330
A
100
AcDbEntity
  8
06
100
AcDbCircle
 10
233.4857141374079
 20
427.9749174668578
 30
0.0
 40
8.000000000000001
100
AcDbArc
 50
50.77968514854472
 51
71.46693243089379
  0
ARC
  5
3CB
330
A
100
AcDbEntity
  8
06
100
AcDbCircle
 10
238.8602983759135
 20
434.5600404165991
 30
0.0
 40
0.5000000000000001
100
AcDbArc
 50
230.7796851485448
 51
270.0
  0
ARC
  5
3CC
330
A
100
AcDbEntity
  8
06
100
AcDbCircle
 10
235.9791021150706
 20
436.8600404165993
 30
0.0
 40
0.3000000000000007
100
AcDbArc
 50
180.0
 51
288.8938957106676
  0
ARC
  5
3CD
330
A
100
AcDbEntity
  8
06
100
AcDbCircle
 10
233.4857141374079
 20
444.1451633663407
 30
0.0
 40
8.000000000000001
100
AcDbArc
 50
288.5330675691061
 51
309.2203148514552
  0
ARC
  5
3CE
330
A
100
AcDbEntity
  8
06
100
AcDbCircle
 10
238.8602983759135
 20
437.5600404165996
 30
0.0
 40
0.5000000000000001
100
AcDbArc
 50
90.0
 51
129.2203148514551
  0
ARC
  5
40C
330
A
100
AcDbEntity
  8
03
100
AcDbCircle
 10
66.429525346815
 20
222.8101920236334
 30
0.0
 40
0.5
100
AcDbArc
 50
180.0
 51
270.0
  0
ARC
  5
40D
330
A
100
AcDbEntity
  8
03
100
AcDbCircle
 10
66.4295253468149
 20
249.8101920236333
 30
0.0
 40
0.5
100
AcDbArc
 50
90.0
 51
180.0
  0
ARC
  5
40E
330
A
100
AcDbEntity
  8
04
100
AcDbCircle
 10
143.9295253468148
 20
245.3101920236334
 30
0.0
 40
5.0
100
AcDbArc
 50
0.0
 51
90.0
  0
ARC
  5
40F
330
A
100
AcDbEntity
  8
04
100
AcDbCircle
 10
143.9295253468148
 20
227.3101920236335
 30
0.0
 40
5.0
100
AcDbArc
 50
270.0
 51
0.0
  0
ARC
  5
42C
330
A
100
AcDbEntity
  8
04
100
AcDbCircle
 10
258.929525346815
 20
227.3101920236335
 30
0.0
 40
5.0
100
AcDbArc
 50
180.0
 51
270.0
  0
ARC
  5
42D
330
A
100
AcDbEntity
  8
04
100
AcDbCircle
 10
258.929525346815
 20
245.3101920236334
 30
0.0
 40
5.0
100
AcDbArc
 50
90.0
 51
180.0
  0
ARC
  5
42E
330
A
100
AcDbEntity
  8
04
100
AcDbCircle
 10
335.429525346815
 20
249.8101920236337
 30
0.0
 40
0.5
100
AcDbArc
 50
0.0
 51
90.0
  0
ARC
  5
42F
330
A
100
AcDbEntity
  8
04
100
AcDbCircle
 10
335.429525346815
 20
222.8101920236337
 30
0.0
 40
0.5
100
AcDbArc
 50
270.0
 51
0.0
  0
ARC
  5
446
330
A
100
AcDbEntity
  8
04
100
AcDbCircle
 10
96.17910211507105
 20
529.0600404165997
 30
0.0
 40
0.5
100
AcDbArc
 50
180.0
 51
270.0
  0
ARC
  5
447
330
A
100
AcDbEntity
  8
04
100
AcDbCircle
 10
127.1791021150709
 20
529.0600404165997
 30
0.0
 40
0.5
100
AcDbArc
 50
270.0
 51
0.0
  0
ARC
  5
448
330
A
100
AcDbEntity
  8
04
100
AcDbCircle
 10
96.17910211507078
 20
443.0600404165996
 30
0.0
 40
0.5
100
AcDbArc
 50
90.0
 51
180.0
  0
ARC
  5
449
330
A
100
AcDbEntity
  8
04
100
AcDbCircle
 10
127.1791021150707
 20
443.0600404165996
 30
0.0
 40
0.5
100
AcDbArc
 50
0.0
 51
90.0
  0
ARC
  5
44A
330
A
100
AcDbEntity
  8
04
100
AcDbCircle
 10
164.1791021150709
 20
429.0600404165996
 30
0.0
 40
0.5
100
AcDbArc
 50
270.0
 51
0.0
  0
ARC
  5
44B
330
A
100
AcDbEntity
  8
04
100
AcDbCircle
 10
133.179102115071
 20
429.0600404165996
 30
0.0
 40
0.5
100
AcDbArc
 50
180.0
 51
270.0
  0
ARC
  5
44C
330
A
100
AcDbEntity
  8
04
100
AcDbCircle
 10
133.1791021150708
 20
363.0600404165996
 30
0.0
 40
0.5
100
AcDbArc
 50
90.0
 51
180.0
  0
ARC
  5
44D
330
A
100
AcDbEntity
  8
04
100
AcDbCircle
 10
164.1791021150709
 20
363.0600404165993
 30
0.0
 40
0.5
100
AcDbArc
 50
0.0
 51
90.0
  0
ARC
  5
44E
330
A
100
AcDbEntity
  8
04
100
AcDbCircle
 10
270.1791021150709
 20
429.0600404165996
 30
0.0
 40
0.5
100
AcDbArc
 50
270.0
 51
0.0
  0
ARC
  5
44F
330
A
100
AcDbEntity
  8
04
100
AcDbCircle
 10
239.179102115071
 20
429.0600404165996
 30
0.0
 40
0.5
100
AcDbArc
 50
180.0
 51
270.0
  0
LINE
  5
59C
330
A
100
AcDbEntity
  8
SAISEN
100
AcDbLine
 10
178.4305142584106
 20
92.41997738007604
 30
0.0
 11
146.8563854379939
 21
123.9941062004927
 31
0.0
  0
LINE
  5
59D
330
A
100
AcDbEntity
  8
SAISEN
100
AcDbLine
 10
142.516610690923
 20
119.848599573325
 30
0.0
 11
175.0394461135005
 21
87.32576415074731
 31
0.0
  0
LINE
  5
59E
330
A
100
AcDbEntity
  8
SAISEN
100
AcDbLine
 10
140.1379310344827
 20
126.4699199168844
 30
0.0
 11
180.1379310344826
 21
86.46991991688464
 31
0.0
  0
LINE
  5
6DE
330
A
100
AcDbEntity
  8
06
100
AcDbLine
 10
199.5759537423199
 20
215.310192023633
 30
0.0
 11
335.929525346815
 21
215.310192023633
 31
0.0
  0
LINE
  5
6DF
330
A
100
AcDbEntity
  8
06
100
AcDbLine
 10
70.92952534681501
 20
215.310192023633
 30
0.0
 11
194.5759537423199
 21
215.310192023633
 31
0.0
  0
LINE
  5
6E0
330
A
100
AcDbEntity
  8
04
100
AcDbLine
 10
238.6791021150707
 20
363.5600404165996
 30
0.0
 11
240.6791021150709
 21
363.5600404165996
 31
0.0
  0
LINE
  5
6E1
330
A
100
AcDbEntity
  8
04
100
AcDbLine
 10
238.679102115071
 20
330.5600404165996
 30
0.0
 11
240.6791021150709
 21
330.5600404165996
 31
0.0
  0
LINE
  5
6E2
330
A
100
AcDbEntity
  8
04
100
AcDbLine
 10
270.679102115071
 20
330.5600404165996
 30
0.0
 11
268.6791021150709
 21
330.5600404165996
 31
0.0
  0
LINE
  5
6E3
330
A
100
AcDbEntity
  8
04
100
AcDbLine
 10
270.6791021150709
 20
363.5600404165996
 30
0.0
 11
268.6791021150709
 21
363.5600404165996
 31
0.0
  0
LINE
  5
6E4
330
A
100
AcDbEntity
  8
04
100
AcDbLine
 10
268.6791021150709
 20
428.5600404165996
 30
0.0
 11
270.1791021150709
 21
428.5600404165996
 31
0.0
  0
LINE
  5
6E5
330
A
100
AcDbEntity
  8
04
100
AcDbLine
 10
239.179102115071
 20
428.5600404165996
 30
0.0
 11
240.6791021150709
 21
428.5600404165996
 31
0.0
  0
LINE
  5
6E6
330
A
100
AcDbEntity
  8
04
100
AcDbLine
 10
133.1791021150708
 20
363.5600404165996
 30
0.0
 11
134.6791021150709
 21
363.5600404165996
 31
0.0
  0
LINE
  5
6E7
330
A
100
AcDbEntity
  8
04
100
AcDbLine
 10
164.1791021150709
 20
363.5600404165993
 30
0.0
 11
162.6791021150708
 21
363.5600404165993
 31
0.0
  0
LINE
  5
6E8
330
A
100
AcDbEntity
  8
04
100
AcDbLine
 10
162.6791021150709
 20
428.5600404165996
 30
0.0
 11
164.1791021150709
 21
428.5600404165996
 31
0.0
  0
LINE
  5
6E9
330
A
100
AcDbEntity
  8
04
100
AcDbLine
 10
133.179102115071
 20
428.5600404165996
 30
0.0
 11
134.6791021150709
 21
428.5600404165996
 31
0.0
  0
LINE
  5
6EA
330
A
100
AcDbEntity
  8
04
100
AcDbLine
 10
125.6791021150708
 20
443.5600404165996
 30
0.0
 11
127.1791021150707
 21
443.5600404165996
 31
0.0
  0
LINE
  5
6EB
330
A
100
AcDbEntity
  8
04
100
AcDbLine
 10
96.17910211507078
 20
443.5600404165996
 30
0.0
 11
97.67910211507087
 21
443.5600404165996
 31
0.0
  0
LINE
  5
6EC
330
A
100
AcDbEntity
  8
04
100
AcDbLine
 10
125.6791021150709
 20
528.5600404165997
 30
0.0
 11
127.1791021150709
 21
528.5600404165997
 31
0.0
  0
LINE
  5
6ED
330
A
100
AcDbEntity
  8
04
100
AcDbLine
 10
96.17910211507105
 20
528.5600404165997
 30
0.0
 11
97.67910211507093
 21
528.5600404165997
 31
0.0
  0
LINE
  5
6EE
330
A
100
AcDbEntity
  8
02
100
AcDbLine
 10
125.929525346815
 20
239.3101920236335
 30
0.0
 11
125.929525346815
 21
233.3101920236337
 31
0.0
  0
LINE
  5
6EF
330
A
100
AcDbEntity
  8
02
100
AcDbLine
 10
194.5759537423199
 20
239.3101920236335
 30
0.0
 11
125.929525346815
 21
239.3101920236335
 31
0.0
  0
LINE
  5
6F0
330
A
100
AcDbEntity
  8
02
100
AcDbLine
 10
276.929525346815
 20
239.3101920236335
 30
0.0
 11
199.5759537423199
 21
239.3101920236335
 31
0.0
  0
LINE
  5
6F1
330
A
100
AcDbEntity
  8
02
100
AcDbLine
 10
276.929525346815
 20
233.3101920236337
 30
0.0
 11
276.929525346815
 21
239.3101920236335
 31
0.0
  0
LINE
  5
6F2
330
A
100
AcDbEntity
  8
02
100
AcDbLine
 10
199.5759537423199
 20
233.3101920236337
 30
0.0
 11
276.929525346815
 21
233.3101920236337
 31
0.0
  0
LINE
  5
6F3
330
A
100
AcDbEntity
  8
02
100
AcDbLine
 10
125.929525346815
 20
233.3101920236337
 30
0.0
 11
194.5759537423199
 21
233.3101920236337
 31
0.0
  0
LINE
  5
6FF
330
A
100
AcDbEntity
  8
03
100
AcDbLine
 10
335.929525346815
 20
252.3101920236339
 30
0.0
 11
335.929525346815
 21
249.3101920236334
 31
0.0
  0
LINE
  5
708
330
A
100
AcDbEntity
  8
04
100
AcDbLine
 10
258.929525346815
 20
250.3101920236335
 30
0.0
 11
335.429525346815
 21
250.3101920236335
 31
0.0
  0
LINE
  5
709
330
A
100
AcDbEntity
  8
03
100
AcDbLine
 10
253.929525346815
 20
245.3101920236334
 30
0.0
 11
253.929525346815
 21
244.3101920236335
 31
0.0
  0
LINE
  5
70D
330
A
100
AcDbEntity
  8
06
100
AcDbLine
 10
335.929525346815
 20
215.310192023633
 30
0.0
 11
335.929525346815
 21
223.3101920236335
 31
0.0
  0
LINE
  5
70E
330
A
100
AcDbEntity
  8
04
100
AcDbLine
 10
258.929525346815
 20
222.3101920236334
 30
0.0
 11
335.429525346815
 21
222.3101920236334
 31
0.0
  0
LINE
  5
70F
330
A
100
AcDbEntity
  8
04
100
AcDbLine
 10
253.929525346815
 20
227.3101920236335
 30
0.0
 11
253.929525346815
 21
228.3101920236334
 31
0.0
  0
LINE
  5
737
330
A
100
AcDbEntity
  8
04
100
AcDbLine
 10
65.929525346815
 20
222.8101920236334
 30
0.0
 11
65.929525346815
 21
232.0601920236334
 31
0.0
  0
LINE
  5
738
330
A
100
AcDbEntity
  8
04
100
AcDbLine
 10
143.9295253468148
 20
222.3101920236334
 30
0.0
 11
66.429525346815
 21
222.3101920236334
 31
0.0
  0
LINE
  5
739
330
A
100
AcDbEntity
  8
03
100
AcDbLine
 10
148.9295253468148
 20
227.3101920236335
 30
0.0
 11
148.9295253468148
 21
228.3101920236334
 31
0.0
  0
LINE
  5
747
330
A
100
AcDbEntity
  8
04
100
AcDbLine
 10
65.92952534681487
 20
249.8101920236333
 30
0.0
 11
65.92952534681495
 21
240.5601920236334
 31
0.0
  0
LINE
  5
748
330
A
100
AcDbEntity
  8
04
100
AcDbLine
 10
143.9295253468148
 20
250.3101920236335
 30
0.0
 11
66.4295253468149
 21
250.3101920236335
 31
0.0
  0
LINE
  5
749
330
A
100
AcDbEntity
  8
03
100
AcDbLine
 10
148.9295253468148
 20
244.3101920236335
 30
0.0
 11
148.9295253468148
 21
245.3101920236334
 31
0.0
  0
LINE
  5
74A
330
A
100
AcDbEntity
  8
06
100
AcDbLine
 10
235.6791021150709
 20
436.8600404165993
 30
0.0
 11
234.083973024285
 21
436.5509074618229
 31
0.0
  0
LINE
  5
74B
330
A
100
AcDbEntity
  8
06
100
AcDbLine
 10
235.6791021150709
 20
435.2600404165995
 30
0.0
 11
234.083973024285
 21
435.5691733713761
 31
0.0
  0
LINE
  5
74C
330
A
100
AcDbEntity
  8
06
100
AcDbLine
 10
241.1791021150708
 20
439.8600404165994
 30
0.0
 11
241.1791021150708
 21
438.0600404165991
 31
0.0
  0
LINE
  5
74D
330
A
100
AcDbEntity
  8
06
100
AcDbLine
 10
241.1791021150708
 20
439.8600404165994
 30
0.0
 11
243.1791021150706
 21
439.8600404165994
 31
0.0
  0
LINE
  5
74E
330
A
100
AcDbEntity
  8
04
100
AcDbLine
 10
246.6791021150708
 20
433.0600404165996
 30
0.0
 11
246.6791021150708
 21
434.5600404165996
 31
0.0
  0
LINE
  5
74F
330
A
100
AcDbEntity
  8
04
100
AcDbLine
 10
247.6791021150708
 20
433.0600404165996
 30
0.0
 11
246.6791021150708
 21
433.0600404165996
 31
0.0
  0
LINE
  5
750
330
A
100
AcDbEntity
  8
04
100
AcDbLine
 10
254.6791021150709
 20
434.8600404165993
 30
0.0
 11
254.9791021150706
 21
434.5600404165996
 31
0.0
  0
LINE
  5
751
330
A
100
AcDbEntity
  8
04
100
AcDbLine
 10
254.3791021150706
 20
434.5600404165996
 30
0.0
 11
254.6791021150709
 21
434.8600404165993
 31
0.0
  0
LINE
  5
752
330
A
100
AcDbEntity
  8
04
100
AcDbLine
 10
254.9791021150706
 20
434.5600404165996
 30
0.0
 11
262.6791021150709
 21
434.5600404165996
 31
0.0
  0
LINE
  5
753
330
A
100
AcDbEntity
  8
04
100
AcDbLine
 10
246.6791021150708
 20
434.5600404165996
 30
0.0
 11
254.3791021150706
 21
434.5600404165996
 31
0.0
  0
LINE
  5
754
330
A
100
AcDbEntity
  8
04
100
AcDbLine
 10
262.6791021150709
 20
433.0600404165996
 30
0.0
 11
262.6791021150709
 21
434.5600404165996
 31
0.0
  0
LINE
  5
755
330
A
100
AcDbEntity
  8
04
100
AcDbLine
 10
261.6791021150709
 20
433.0600404165996
 30
0.0
 11
262.6791021150709
 21
433.0600404165996
 31
0.0
  0
LINE
  5
756
330
A
100
AcDbEntity
  8
06
100
AcDbLine
 10
241.1791021150708
 20
432.2600404165995
 30
0.0
 11
241.1791021150708
 21
434.0600404165995
 31
0.0
  0
LINE
  5
757
330
A
100
AcDbEntity
  8
06
100
AcDbLine
 10
241.1791021150708
 20
432.2600404165995
 30
0.0
 11
243.1791021150706
 21
432.2600404165995
 31
0.0
  0
LINE
  5
758
330
A
100
AcDbEntity
  8
06
100
AcDbLine
 10
241.1791021150708
 20
434.0600404165995
 30
0.0
 11
238.8602983759135
 21
434.0600404165995
 31
0.0
  0
LINE
  5
759
330
A
100
AcDbEntity
  8
06
100
AcDbLine
 10
243.1791021150709
 20
439.8600404165994
 30
0.0
 11
243.1791021150709
 21
432.2600404165995
 31
0.0
  0
LINE
  5
75A
330
A
100
AcDbEntity
  8
06
100
AcDbLine
 10
241.1791021150708
 20
438.0600404165991
 30
0.0
 11
238.8602983759135
 21
438.0600404165991
 31
0.0
  0
LINE
  5
75B
330
A
100
AcDbEntity
  8
03
100
AcDbLine
 10
268.6791021150709
 20
398.5600404165996
 30
0.0
 11
268.6791021150709
 21
429.5600404165996
 31
0.0
  0
LINE
  5
75C
330
A
100
AcDbEntity
  8
03
100
AcDbLine
 10
240.6791021150709
 20
398.5600404165996
 30
0.0
 11
240.6791021150709
 21
429.5600404165996
 31
0.0
  0
LINE
  5
75D
330
A
100
AcDbEntity
  8
03
100
AcDbLine
 10
360.929525346815
 20
228.8101920236335
 30
0.0
 11
360.929525346815
 21
243.810192023634
 31
0.0
  0
LINE
  5
75E
330
A
100
AcDbEntity
  8
03
100
AcDbLine
 10
337.429525346815
 20
243.810192023634
 30
0.0
 11
360.929525346815
 21
243.810192023634
 31
0.0
  0
LINE
  5
75F
330
A
100
AcDbEntity
  8
03
100
AcDbLine
 10
337.429525346815
 20
228.8101920236335
 30
0.0
 11
360.929525346815
 21
228.8101920236335
 31
0.0
  0
LINE
  5
760
330
A
100
AcDbEntity
  8
06
100
AcDbLine
 10
129.6791021150709
 20
436.8600404165993
 30
0.0
 11
128.083973024285
 21
436.5509074618229
 31
0.0
  0
LINE
  5
761
330
A
100
AcDbEntity
  8
06
100
AcDbLine
 10
129.6791021150709
 20
435.2600404165995
 30
0.0
 11
128.083973024285
 21
435.5691733713761
 31
0.0
  0
LINE
  5
762
330
A
100
AcDbEntity
  8
06
100
AcDbLine
 10
135.1791021150708
 20
439.8600404165994
 30
0.0
 11
135.1791021150708
 21
438.0600404165991
 31
0.0
  0
LINE
  5
763
330
A
100
AcDbEntity
  8
06
100
AcDbLine
 10
135.1791021150708
 20
439.8600404165994
 30
0.0
 11
137.1791021150708
 21
439.8600404165994
 31
0.0
  0
LINE
  5
764
330
A
100
AcDbEntity
  8
04
100
AcDbLine
 10
140.6791021150707
 20
433.0600404165996
 30
0.0
 11
140.6791021150707
 21
434.5600404165996
 31
0.0
  0
LINE
  5
765
330
A
100
AcDbEntity
  8
04
100
AcDbLine
 10
141.6791021150705
 20
433.0600404165996
 30
0.0
 11
140.6791021150707
 21
433.0600404165996
 31
0.0
  0
LINE
  5
766
330
A
100
AcDbEntity
  8
04
100
AcDbLine
 10
148.6791021150709
 20
434.8600404165993
 30
0.0
 11
148.9791021150708
 21
434.5600404165996
 31
0.0
  0
LINE
  5
767
330
A
100
AcDbEntity
  8
04
100
AcDbLine
 10
148.3791021150705
 20
434.5600404165996
 30
0.0
 11
148.6791021150709
 21
434.8600404165993
 31
0.0
  0
LINE
  5
768
330
A
100
AcDbEntity
  8
04
100
AcDbLine
 10
148.9791021150708
 20
434.5600404165996
 30
0.0
 11
156.679102115071
 21
434.5600404165996
 31
0.0
  0
LINE
  5
769
330
A
100
AcDbEntity
  8
04
100
AcDbLine
 10
140.6791021150707
 20
434.5600404165996
 30
0.0
 11
148.3791021150705
 21
434.5600404165996
 31
0.0
  0
LINE
  5
76A
330
A
100
AcDbEntity
  8
04
100
AcDbLine
 10
156.679102115071
 20
433.0600404165996
 30
0.0
 11
156.679102115071
 21
434.5600404165996
 31
0.0
  0
LINE
  5
76B
330
A
100
AcDbEntity
  8
04
100
AcDbLine
 10
155.6791021150709
 20
433.0600404165996
 30
0.0
 11
156.679102115071
 21
433.0600404165996
 31
0.0
  0
LINE
  5
76C
330
A
100
AcDbEntity
  8
06
100
AcDbLine
 10
135.1791021150708
 20
432.2600404165995
 30
0.0
 11
135.1791021150708
 21
434.0600404165995
 31
0.0
  0
LINE
  5
76D
330
A
100
AcDbEntity
  8
06
100
AcDbLine
 10
135.1791021150708
 20
432.2600404165995
 30
0.0
 11
137.1791021150708
 21
432.2600404165995
 31
0.0
  0
LINE
  5
76E
330
A
100
AcDbEntity
  8
06
100
AcDbLine
 10
135.1791021150708
 20
434.0600404165995
 30
0.0
 11
132.8602983759135
 21
434.0600404165995
 31
0.0
  0
LINE
  5
76F
330
A
100
AcDbEntity
  8
06
100
AcDbLine
 10
137.1791021150709
 20
439.8600404165994
 30
0.0
 11
137.1791021150709
 21
432.2600404165995
 31
0.0
  0
LINE
  5
770
330
A
100
AcDbEntity
  8
06
100
AcDbLine
 10
135.1791021150708
 20
438.0600404165991
 30
0.0
 11
132.8602983759135
 21
438.0600404165991
 31
0.0
  0
LINE
  5
771
330
A
100
AcDbEntity
  8
06
100
AcDbLine
 10
111.6791021150708
 20
429.8600404165993
 30
0.0
 11
111.379102115071
 21
429.5600404165996
 31
0.0
  0
LINE
  5
772
330
A
100
AcDbEntity
  8
06
100
AcDbLine
 10
111.9791021150709
 20
429.5600404165991
 30
0.0
 11
111.6791021150708
 21
429.8600404165993
 31
0.0
  0
LINE
  5
773
330
A
100
AcDbEntity
  8
04
100
AcDbLine
 10
111.6791021150708
 20
437.2600404165995
 30
0.0
 11
111.9791021150709
 21
437.5600404165996
 31
0.0
  0
LINE
  5
774
330
A
100
AcDbEntity
  8
04
100
AcDbLine
 10
111.3791021150708
 20
437.5600404165996
 30
0.0
 11
111.6791021150708
 21
437.2600404165995
 31
0.0
  0
LINE
  5
775
330
A
100
AcDbEntity
  8
04
100
AcDbLine
 10
119.679102115071
 20
439.0600404165993
 30
0.0
 11
119.679102115071
 21
437.5600404165991
 31
0.0
  0
LINE
  5
776
330
A
100
AcDbEntity
  8
04
100
AcDbLine
 10
118.679102115071
 20
439.0600404165993
 30
0.0
 11
119.679102115071
 21
439.0600404165993
 31
0.0
  0
LINE
  5
777
330
A
100
AcDbEntity
  8
04
100
AcDbLine
 10
103.6791021150705
 20
439.0600404165993
 30
0.0
 11
103.6791021150705
 21
437.5600404165991
 31
0.0
  0
LINE
  5
778
330
A
100
AcDbEntity
  8
04
100
AcDbLine
 10
104.6791021150705
 20
439.0600404165993
 30
0.0
 11
103.6791021150705
 21
439.0600404165993
 31
0.0
  0
LINE
  5
779
330
A
100
AcDbEntity
  8
04
100
AcDbLine
 10
111.9791021150709
 20
437.5600404165996
 30
0.0
 11
119.679102115071
 21
437.5600404165996
 31
0.0
  0
LINE
  5
77A
330
A
100
AcDbEntity
  8
04
100
AcDbLine
 10
103.6791021150705
 20
437.5600404165991
 30
0.0
 11
111.3791021150708
 21
437.5600404165996
 31
0.0
  0
LINE
  5
77B
330
A
100
AcDbEntity
  8
06
100
AcDbLine
 10
113.1791021150709
 20
431.5600404165996
 30
0.0
 11
113.1791021150709
 21
432.9600404165996
 31
0.0
  0
LINE
  5
77C
330
A
100
AcDbEntity
  8
06
100
AcDbLine
 10
110.1791021150707
 20
431.5600404165996
 30
0.0
 11
110.1791021150707
 21
432.9600404165996
 31
0.0
  0
LINE
  5
77D
330
A
100
AcDbEntity
  8
06
100
AcDbLine
 10
115.1791021150709
 20
431.5600404165996
 30
0.0
 11
113.1791021150709
 21
431.5600404165996
 31
0.0
  0
LINE
  5
77E
330
A
100
AcDbEntity
  8
06
100
AcDbLine
 10
115.1791021150709
 20
432.9600404165996
 30
0.0
 11
115.1791021150709
 21
431.5600404165996
 31
0.0
  0
LINE
  5
77F
330
A
100
AcDbEntity
  8
06
100
AcDbLine
 10
108.1791021150708
 20
431.5600404165996
 30
0.0
 11
110.1791021150707
 21
431.5600404165996
 31
0.0
  0
LINE
  5
780
330
A
100
AcDbEntity
  8
06
100
AcDbLine
 10
108.1791021150708
 20
432.9600404165996
 30
0.0
 11
108.1791021150708
 21
431.5600404165996
 31
0.0
  0
LINE
  5
781
330
A
100
AcDbEntity
  8
06
100
AcDbLine
 10
108.1791021150708
 20
432.9600404165996
 30
0.0
 11
104.6791021150709
 21
432.9600404165996
 31
0.0
  0
LINE
  5
782
330
A
100
AcDbEntity
  8
06
100
AcDbLine
 10
113.1791021150709
 20
432.9600404165996
 30
0.0
 11
110.1791021150707
 21
432.9600404165996
 31
0.0
  0
LINE
  5
783
330
A
100
AcDbEntity
  8
06
100
AcDbLine
 10
118.6791021150709
 20
432.9600404165996
 30
0.0
 11
115.1791021150709
 21
432.9600404165996
 31
0.0
  0
LINE
  5
784
330
A
100
AcDbEntity
  8
06
100
AcDbLine
 10
104.6791021150709
 20
431.2600404165997
 30
0.0
 11
104.6791021150709
 21
432.9600404165996
 31
0.0
  0
LINE
  5
785
330
A
100
AcDbEntity
  8
06
100
AcDbLine
 10
106.4291021150709
 20
431.2600404165997
 30
0.0
 11
104.6791021150709
 21
431.2600404165997
 31
0.0
  0
LINE
  5
786
330
A
100
AcDbEntity
  8
06
100
AcDbLine
 10
106.4291021150709
 20
429.5600404165996
 30
0.0
 11
106.4291021150709
 21
431.2600404165997
 31
0.0
  0
LINE
  5
787
330
A
100
AcDbEntity
  8
06
100
AcDbLine
 10
118.6791021150709
 20
431.2600404165997
 30
0.0
 11
118.6791021150709
 21
432.9600404165996
 31
0.0
  0
LINE
  5
788
330
A
100
AcDbEntity
  8
06
100
AcDbLine
 10
116.9291021150708
 20
431.2600404165997
 30
0.0
 11
118.6791021150709
 21
431.2600404165997
 31
0.0
  0
LINE
  5
789
330
A
100
AcDbEntity
  8
06
100
AcDbLine
 10
116.9291021150708
 20
429.5600404165996
 30
0.0
 11
116.9291021150708
 21
431.2600404165997
 31
0.0
  0
LINE
  5
78A
330
A
100
AcDbEntity
  8
06
100
AcDbLine
 10
111.9791021150709
 20
429.5600404165996
 30
0.0
 11
116.9291021150708
 21
429.5600404165996
 31
0.0
  0
LINE
  5
78B
330
A
100
AcDbEntity
  8
06
100
AcDbLine
 10
106.4291021150707
 20
429.5600404165996
 30
0.0
 11
111.379102115071
 21
429.5600404165996
 31
0.0
  0
LINE
  5
78C
330
A
100
AcDbEntity
  8
06
100
AcDbLine
 10
142.4340532476611
 20
344.6299242462563
 30
0.0
 11
147.4292296789544
 21
347.5908124352081
 31
0.0
  0
LINE
  5
78D
330
A
100
AcDbEntity
  8
06
100
AcDbLine
 10
145.534053247661
 20
347.6299242462563
 30
0.0
 11
141.9241509824803
 21
345.4901565869428
 31
0.0
  0
LINE
  5
78E
330
A
100
AcDbEntity
  8
06
100
AcDbLine
 10
152.5791021150709
 20
348.0600404165996
 30
0.0
 11
156.6791021150708
 21
348.0600404165996
 31
0.0
  0
LINE
  5
78F
330
A
100
AcDbEntity
  8
06
100
AcDbLine
 10
140.6791021150709
 20
348.0600404165996
 30
0.0
 11
144.7791021150709
 21
348.0600404165996
 31
0.0
  0
LINE
  5
790
330
A
100
AcDbEntity
  8
06
100
AcDbLine
 10
154.9241509824805
 20
344.6299242462563
 30
0.0
 11
149.9289745511873
 21
347.5908124352081
 31
0.0
  0
LINE
  5
791
330
A
100
AcDbEntity
  8
06
100
AcDbLine
 10
151.8241509824805
 20
347.6299242462563
 30
0.0
 11
155.4340532476611
 21
345.4901565869428
 31
0.0
  0
LINE
  5
792
330
A
100
AcDbEntity
  8
06
100
AcDbLine
 10
152.1791021150709
 20
349.5600404165996
 30
0.0
 11
145.1791021150709
 21
349.5600404165996
 31
0.0
  0
LINE
  5
793
330
A
100
AcDbEntity
  8
06
100
AcDbLine
 10
152.1791021150709
 20
351.5600404165996
 30
0.0
 11
152.1791021150709
 21
349.5600404165996
 31
0.0
  0
LINE
  5
794
330
A
100
AcDbEntity
  8
06
100
AcDbLine
 10
145.1791021150709
 20
351.5600404165996
 30
0.0
 11
145.1791021150709
 21
349.5600404165996
 31
0.0
  0
LINE
  5
795
330
A
100
AcDbEntity
  8
06
100
AcDbLine
 10
152.1791021150709
 20
351.5600404165996
 30
0.0
 11
145.1791021150709
 21
351.5600404165996
 31
0.0
  0
LINE
  5
796
330
A
100
AcDbEntity
  8
06
100
AcDbLine
 10
140.1791021150709
 20
348.5600404165996
 30
0.0
 11
140.1791021150709
 21
349.5600404165996
 31
0.0
  0
LINE
  5
797
330
A
100
AcDbEntity
  8
06
100
AcDbLine
 10
157.1791021150708
 20
349.5600404165996
 30
0.0
 11
157.1791021150708
 21
348.5600404165996
 31
0.0
  0
LINE
  5
798
330
A
100
AcDbEntity
  8
06
100
AcDbLine
 10
155.6791021150709
 20
353.0600404165996
 30
0.0
 11
141.6791021150705
 21
353.0600404165996
 31
0.0
  0
LINE
  5
799
330
A
100
AcDbEntity
  8
06
100
AcDbLine
 10
155.6791021150709
 20
352.0600404165996
 30
0.0
 11
155.6791021150709
 21
353.0600404165996
 31
0.0
  0
LINE
  5
79A
330
A
100
AcDbEntity
  8
06
100
AcDbLine
 10
153.6791021150709
 20
351.5600404165996
 30
0.0
 11
155.1791021150709
 21
351.5600404165996
 31
0.0
  0
LINE
  5
79B
330
A
100
AcDbEntity
  8
06
100
AcDbLine
 10
153.6791021150709
 20
349.5600404165996
 30
0.0
 11
153.6791021150709
 21
351.5600404165996
 31
0.0
  0
LINE
  5
79C
330
A
100
AcDbEntity
  8
06
100
AcDbLine
 10
157.1791021150708
 20
349.5600404165996
 30
0.0
 11
153.6791021150709
 21
349.5600404165996
 31
0.0
  0
LINE
  5
79D
330
A
100
AcDbEntity
  8
06
100
AcDbLine
 10
141.6791021150705
 20
352.0600404165996
 30
0.0
 11
141.6791021150705
 21
353.0600404165996
 31
0.0
  0
LINE
  5
79E
330
A
100
AcDbEntity
  8
06
100
AcDbLine
 10
143.6791021150708
 20
351.5600404165996
 30
0.0
 11
142.1791021150708
 21
351.5600404165996
 31
0.0
  0
LINE
  5
79F
330
A
100
AcDbEntity
  8
06
100
AcDbLine
 10
143.6791021150708
 20
349.5600404165996
 30
0.0
 11
143.6791021150708
 21
351.5600404165996
 31
0.0
  0
LINE
  5
7A0
330
A
100
AcDbEntity
  8
06
100
AcDbLine
 10
140.1791021150709
 20
349.5600404165996
 30
0.0
 11
143.6791021150708
 21
349.5600404165996
 31
0.0
  0
LINE
  5
7A1
330
A
100
AcDbEntity
  8
06
100
AcDbLine
 10
261.6791021150709
 20
353.0600404165996
 30
0.0
 11
247.6791021150708
 21
353.0600404165996
 31
0.0
  0
LINE
  5
7A2
330
A
100
AcDbEntity
  8
06
100
AcDbLine
 10
261.6791021150709
 20
352.0600404165996
 30
0.0
 11
261.6791021150709
 21
353.0600404165996
 31
0.0
  0
LINE
  5
7A3
330
A
100
AcDbEntity
  8
06
100
AcDbLine
 10
259.6791021150709
 20
351.5600404165996
 30
0.0
 11
261.1791021150709
 21
351.5600404165996
 31
0.0
  0
LINE
  5
7A4
330
A
100
AcDbEntity
  8
06
100
AcDbLine
 10
259.6791021150709
 20
349.5600404165996
 30
0.0
 11
259.6791021150709
 21
351.5600404165996
 31
0.0
  0
LINE
  5
7A5
330
A
100
AcDbEntity
  8
06
100
AcDbLine
 10
263.1791021150708
 20
349.5600404165996
 30
0.0
 11
259.6791021150709
 21
349.5600404165996
 31
0.0
  0
LINE
  5
7A6
330
A
100
AcDbEntity
  8
06
100
AcDbLine
 10
247.6791021150708
 20
352.0600404165996
 30
0.0
 11
247.6791021150708
 21
353.0600404165996
 31
0.0
  0
LINE
  5
7A7
330
A
100
AcDbEntity
  8
06
100
AcDbLine
 10
249.6791021150708
 20
351.5600404165996
 30
0.0
 11
248.1791021150708
 21
351.5600404165996
 31
0.0
  0
LINE
  5
7A8
330
A
100
AcDbEntity
  8
06
100
AcDbLine
 10
249.6791021150708
 20
349.5600404165996
 30
0.0
 11
249.6791021150708
 21
351.5600404165996
 31
0.0
  0
LINE
  5
7A9
330
A
100
AcDbEntity
  8
06
100
AcDbLine
 10
246.1791021150709
 20
349.5600404165996
 30
0.0
 11
249.6791021150708
 21
349.5600404165996
 31
0.0
  0
LINE
  5
7AA
330
A
100
AcDbEntity
  8
06
100
AcDbLine
 10
246.1791021150709
 20
347.5600404165996
 30
0.0
 11
246.1791021150709
 21
349.5600404165996
 31
0.0
  0
LINE
  5
7AB
330
A
100
AcDbEntity
  8
06
100
AcDbLine
 10
254.1791021150709
 20
350.0600404165996
 30
0.0
 11
251.1791021150709
 21
350.0600404165996
 31
0.0
  0
LINE
  5
7AC
330
A
100
AcDbEntity
  8
06
100
AcDbLine
 10
251.1791021150709
 20
347.0600404165996
 30
0.0
 11
251.1791021150709
 21
350.0600404165996
 31
0.0
  0
LINE
  5
7AD
330
A
100
AcDbEntity
  8
06
100
AcDbLine
 10
246.6791021150709
 20
347.0600404165996
 30
0.0
 11
251.1791021150709
 21
347.0600404165996
 31
0.0
  0
LINE
  5
7AE
330
A
100
AcDbEntity
  8
06
100
AcDbLine
 10
255.6661367625185
 20
344.8554191505326
 30
0.0
 11
254.1791021150709
 21
350.0600404165996
 31
0.0
  0
LINE
  5
7AF
330
A
100
AcDbEntity
  8
06
100
AcDbLine
 10
256.6319699864117
 20
344.8715119019628
 30
0.0
 11
257.1791021150709
 21
347.0600404165996
 31
0.0
  0
LINE
  5
7B0
330
A
100
AcDbEntity
  8
06
100
AcDbLine
 10
262.6791021150709
 20
347.0600404165996
 30
0.0
 11
257.1791021150709
 21
347.0600404165996
 31
0.0
  0
LINE
  5
7B1
330
A
100
AcDbEntity
  8
06
100
AcDbLine
 10
263.1791021150709
 20
349.5600404165996
 30
0.0
 11
263.1791021150709
 21
347.5600404165996
 31
0.0
  0
LINE
  5
7B2
330
A
100
AcDbEntity
  8
06
100
AcDbLine
 10
247.6791021150709
 20
341.0600404165997
 30
0.0
 11
261.6791021150709
 21
341.0600404165997
 31
0.0
  0
LINE
  5
7B3
330
A
100
AcDbEntity
  8
06
100
AcDbLine
 10
247.6791021150709
 20
342.0600404165996
 30
0.0
 11
247.6791021150709
 21
341.0600404165997
 31
0.0
  0
LINE
  5
7B4
330
A
100
AcDbEntity
  8
06
100
AcDbLine
 10
249.6791021150709
 20
342.5600404165996
 30
0.0
 11
248.1791021150709
 21
342.5600404165996
 31
0.0
  0
LINE
  5
7B5
330
A
100
AcDbEntity
  8
06
100
AcDbLine
 10
249.6791021150709
 20
344.5600404165996
 30
0.0
 11
249.6791021150709
 21
342.5600404165996
 31
0.0
  0
LINE
  5
7B6
330
A
100
AcDbEntity
  8
06
100
AcDbLine
 10
246.1791021150709
 20
344.5600404165996
 30
0.0
 11
249.6791021150709
 21
344.5600404165996
 31
0.0
  0
LINE
  5
7B7
330
A
100
AcDbEntity
  8
06
100
AcDbLine
 10
261.6791021150709
 20
342.0600404165996
 30
0.0
 11
261.6791021150709
 21
341.0600404165997
 31
0.0
  0
LINE
  5
7B8
330
A
100
AcDbEntity
  8
06
100
AcDbLine
 10
259.6791021150709
 20
342.5600404165996
 30
0.0
 11
261.1791021150709
 21
342.5600404165996
 31
0.0
  0
LINE
  5
7B9
330
A
100
AcDbEntity
  8
06
100
AcDbLine
 10
259.6791021150709
 20
344.5600404165996
 30
0.0
 11
259.6791021150709
 21
342.5600404165996
 31
0.0
  0
LINE
  5
7BA
330
A
100
AcDbEntity
  8
06
100
AcDbLine
 10
263.1791021150709
 20
344.5600404165996
 30
0.0
 11
259.6791021150709
 21
344.5600404165996
 31
0.0
  0
LINE
  5
7BB
330
A
100
AcDbEntity
  8
06
100
AcDbLine
 10
263.1791021150709
 20
346.5600404165996
 30
0.0
 11
263.1791021150709
 21
344.5600404165996
 31
0.0
  0
LINE
  5
7BC
330
A
100
AcDbEntity
  8
06
100
AcDbLine
 10
255.1791021150709
 20
344.0600404165996
 30
0.0
 11
258.1791021150709
 21
344.0600404165996
 31
0.0
  0
LINE
  5
7BD
330
A
100
AcDbEntity
  8
06
100
AcDbLine
 10
258.1791021150709
 20
347.0600404165996
 30
0.0
 11
258.1791021150709
 21
344.0600404165996
 31
0.0
  0
LINE
  5
7BE
330
A
100
AcDbEntity
  8
06
100
AcDbLine
 10
262.6791021150709
 20
347.0600404165996
 30
0.0
 11
258.1791021150709
 21
347.0600404165996
 31
0.0
  0
LINE
  5
7BF
330
A
100
AcDbEntity
  8
06
100
AcDbLine
 10
253.6920674676231
 20
349.2646616826667
 30
0.0
 11
255.1791021150709
 21
344.0600404165996
 31
0.0
  0
LINE
  5
7C0
330
A
100
AcDbEntity
  8
06
100
AcDbLine
 10
252.7262342437301
 20
349.2485689312358
 30
0.0
 11
252.1791021150709
 21
347.0600404165996
 31
0.0
  0
LINE
  5
7C1
330
A
100
AcDbEntity
  8
06
100
AcDbLine
 10
246.6791021150709
 20
347.0600404165996
 30
0.0
 11
252.1791021150709
 21
347.0600404165996
 31
0.0
  0
LINE
  5
7C2
330
A
100
AcDbEntity
  8
06
100
AcDbLine
 10
246.1791021150709
 20
344.5600404165996
 30
0.0
 11
246.1791021150709
 21
346.5600404165996
 31
0.0
  0
LINE
  5
7C3
330
A
100
AcDbEntity
  8
04
100
AcDbLine
 10
148.6791021150709
 20
357.2600404165995
 30
0.0
 11
148.3791021150705
 21
357.5600404165996
 31
0.0
  0
LINE
  5
7C4
330
A
100
AcDbEntity
  8
04
100
AcDbLine
 10
148.9791021150708
 20
357.5600404165996
 30
0.0
 11
148.6791021150709
 21
357.2600404165995
 31
0.0
  0
LINE
  5
7C5
330
A
100
AcDbEntity
  8
04
100
AcDbLine
 10
148.6791021150708
 20
353.3600404165993
 30
0.0
 11
148.9791021150708
 21
353.0600404165996
 31
0.0
  0
LINE
  5
7C6
330
A
100
AcDbEntity
  8
04
100
AcDbLine
 10
148.3791021150705
 20
353.0600404165996
 30
0.0
 11
148.6791021150708
 21
353.3600404165993
 31
0.0
  0
LINE
  5
7C7
330
A
100
AcDbEntity
  8
04
100
AcDbLine
 10
254.6791021150709
 20
357.2600404165995
 30
0.0
 11
254.9791021150706
 21
357.5600404165996
 31
0.0
  0
LINE
  5
7C8
330
A
100
AcDbEntity
  8
04
100
AcDbLine
 10
254.3791021150706
 20
357.5600404165996
 30
0.0
 11
254.6791021150709
 21
357.2600404165995
 31
0.0
  0
LINE
  5
7C9
330
A
100
AcDbEntity
  8
04
100
AcDbLine
 10
254.6791021150709
 20
336.8600404165992
 30
0.0
 11
254.9791021150706
 21
336.5600404165996
 31
0.0
  0
LINE
  5
7CA
330
A
100
AcDbEntity
  8
04
100
AcDbLine
 10
254.3791021150706
 20
336.5600404165996
 30
0.0
 11
254.6791021150709
 21
336.8600404165992
 31
0.0
  0
LINE
  5
7CB
330
A
100
AcDbEntity
  8
04
100
AcDbLine
 10
111.6791021150709
 20
538.2600404165996
 30
0.0
 11
111.3791021150708
 21
538.5600404165999
 31
0.0
  0
LINE
  5
7CC
330
A
100
AcDbEntity
  8
04
100
AcDbLine
 10
111.9791021150709
 20
538.5600404165999
 30
0.0
 11
111.6791021150709
 21
538.2600404165996
 31
0.0
  0
LINE
  5
7CD
330
A
100
AcDbEntity
  8
04
100
AcDbLine
 10
111.6791021150709
 20
534.8600404165996
 30
0.0
 11
111.9791021150709
 21
534.5600404165995
 31
0.0
  0
LINE
  5
7CE
330
A
100
AcDbEntity
  8
04
100
AcDbLine
 10
111.3791021150708
 20
534.5600404165995
 30
0.0
 11
111.6791021150709
 21
534.8600404165996
 31
0.0
  0
LINE
  5
7CF
330
A
100
AcDbEntity
  8
04
100
AcDbLine
 10
156.679102115071
 20
359.0600404165996
 30
0.0
 11
156.679102115071
 21
357.5600404165996
 31
0.0
  0
LINE
  5
7D0
330
A
100
AcDbEntity
  8
04
100
AcDbLine
 10
155.6791021150709
 20
359.0600404165996
 30
0.0
 11
156.679102115071
 21
359.0600404165996
 31
0.0
  0
LINE
  5
7D1
330
A
100
AcDbEntity
  8
04
100
AcDbLine
 10
140.6791021150707
 20
359.0600404165996
 30
0.0
 11
140.6791021150707
 21
357.5600404165996
 31
0.0
  0
LINE
  5
7D2
330
A
100
AcDbEntity
  8
04
100
AcDbLine
 10
141.6791021150705
 20
359.0600404165996
 30
0.0
 11
140.6791021150707
 21
359.0600404165996
 31
0.0
  0
LINE
  5
7D3
330
A
100
AcDbEntity
  8
04
100
AcDbLine
 10
148.9791021150708
 20
357.5600404165996
 30
0.0
 11
156.679102115071
 21
357.5600404165996
 31
0.0
  0
LINE
  5
7D4
330
A
100
AcDbEntity
  8
04
100
AcDbLine
 10
140.6791021150707
 20
357.5600404165996
 30
0.0
 11
148.3791021150705
 21
357.5600404165996
 31
0.0
  0
LINE
  5
7D5
330
A
100
AcDbEntity
  8
04
100
AcDbLine
 10
119.679102115071
 20
533.0600404165992
 30
0.0
 11
119.679102115071
 21
534.5600404165995
 31
0.0
  0
LINE
  5
7D6
330
A
100
AcDbEntity
  8
04
100
AcDbLine
 10
118.679102115071
 20
533.0600404165992
 30
0.0
 11
119.679102115071
 21
533.0600404165992
 31
0.0
  0
LINE
  5
7D7
330
A
100
AcDbEntity
  8
04
100
AcDbLine
 10
103.6791021150708
 20
533.0600404165992
 30
0.0
 11
103.6791021150708
 21
534.5600404165995
 31
0.0
  0
LINE
  5
7D8
330
A
100
AcDbEntity
  8
04
100
AcDbLine
 10
104.6791021150708
 20
533.0600404165992
 30
0.0
 11
103.6791021150708
 21
533.0600404165992
 31
0.0
  0
LINE
  5
7D9
330
A
100
AcDbEntity
  8
04
100
AcDbLine
 10
111.9791021150709
 20
534.5600404165995
 30
0.0
 11
119.679102115071
 21
534.5600404165995
 31
0.0
  0
LINE
  5
7DA
330
A
100
AcDbEntity
  8
04
100
AcDbLine
 10
103.6791021150708
 20
534.5600404165995
 30
0.0
 11
111.3791021150708
 21
534.5600404165995
 31
0.0
  0
LINE
  5
7DB
330
A
100
AcDbEntity
  8
04
100
AcDbLine
 10
262.6791021150709
 20
335.0600404165997
 30
0.0
 11
262.6791021150709
 21
336.5600404165996
 31
0.0
  0
LINE
  5
7DC
330
A
100
AcDbEntity
  8
04
100
AcDbLine
 10
261.6791021150709
 20
335.0600404165997
 30
0.0
 11
262.6791021150709
 21
335.0600404165997
 31
0.0
  0
LINE
  5
7DD
330
A
100
AcDbEntity
  8
04
100
AcDbLine
 10
246.6791021150708
 20
335.0600404165997
 30
0.0
 11
246.6791021150708
 21
336.5600404165996
 31
0.0
  0
LINE
  5
7DE
330
A
100
AcDbEntity
  8
04
100
AcDbLine
 10
247.6791021150708
 20
335.0600404165997
 30
0.0
 11
246.6791021150708
 21
335.0600404165997
 31
0.0
  0
LINE
  5
7DF
330
A
100
AcDbEntity
  8
04
100
AcDbLine
 10
254.9791021150706
 20
336.5600404165996
 30
0.0
 11
262.6791021150709
 21
336.5600404165996
 31
0.0
  0
LINE
  5
7E0
330
A
100
AcDbEntity
  8
04
100
AcDbLine
 10
246.6791021150708
 20
336.5600404165996
 30
0.0
 11
254.3791021150706
 21
336.5600404165996
 31
0.0
  0
LINE
  5
7E1
330
A
100
AcDbEntity
  8
04
100
AcDbLine
 10
262.6791021150709
 20
359.0600404165996
 30
0.0
 11
262.6791021150709
 21
357.5600404165996
 31
0.0
  0
LINE
  5
7E2
330
A
100
AcDbEntity
  8
04
100
AcDbLine
 10
261.6791021150709
 20
359.0600404165996
 30
0.0
 11
262.6791021150709
 21
359.0600404165996
 31
0.0
  0
LINE
  5
7E3
330
A
100
AcDbEntity
  8
04
100
AcDbLine
 10
246.6791021150708
 20
359.0600404165996
 30
0.0
 11
246.6791021150708
 21
357.5600404165996
 31
0.0
  0
LINE
  5
7E4
330
A
100
AcDbEntity
  8
04
100
AcDbLine
 10
247.6791021150708
 20
359.0600404165996
 30
0.0
 11
246.6791021150708
 21
359.0600404165996
 31
0.0
  0
LINE
  5
7E5
330
A
100
AcDbEntity
  8
04
100
AcDbLine
 10
254.9791021150706
 20
357.5600404165996
 30
0.0
 11
262.6791021150709
 21
357.5600404165996
 31
0.0
  0
LINE
  5
7E6
330
A
100
AcDbEntity
  8
04
100
AcDbLine
 10
246.6791021150708
 20
357.5600404165996
 30
0.0
 11
254.3791021150706
 21
357.5600404165996
 31
0.0
  0
LINE
  5
7E7
330
A
100
AcDbEntity
  8
03
100
AcDbLine
 10
240.6791021150709
 20
331.5600404165996
 30
0.0
 11
240.6791021150709
 21
300.5600404165996
 31
0.0
  0
LINE
  5
7E8
330
A
100
AcDbEntity
  8
03
100
AcDbLine
 10
268.6791021150709
 20
331.5600404165996
 30
0.0
 11
268.6791021150709
 21
300.5600404165996
 31
0.0
  0
LINE
  5
7E9
330
A
100
AcDbEntity
  8
03
100
AcDbLine
 10
125.6791021150709
 20
488.5600404165996
 30
0.0
 11
125.6791021150709
 21
529.5600404165993
 31
0.0
  0
LINE
  5
7EA
330
A
100
AcDbEntity
  8
03
100
AcDbLine
 10
125.6791021150709
 20
442.5600404165996
 30
0.0
 11
125.6791021150709
 21
483.5600404165996
 31
0.0
  0
LINE
  5
7EB
330
A
100
AcDbEntity
  8
03
100
AcDbLine
 10
97.67910211507087
 20
488.5600404165996
 30
0.0
 11
97.67910211507093
 21
529.5600404165993
 31
0.0
  0
LINE
  5
7EC
330
A
100
AcDbEntity
  8
03
100
AcDbLine
 10
97.67910211507087
 20
442.5600404165996
 30
0.0
 11
97.67910211507087
 21
483.5600404165996
 31
0.0
  0
LINE
  5
7ED
330
A
100
AcDbEntity
  8
03
100
AcDbLine
 10
162.6791021150709
 20
398.5600404165996
 30
0.0
 11
162.6791021150709
 21
429.5600404165996
 31
0.0
  0
LINE
  5
7EE
330
A
100
AcDbEntity
  8
03
100
AcDbLine
 10
162.6791021150709
 20
362.5600404165996
 30
0.0
 11
162.6791021150709
 21
393.5600404165996
 31
0.0
  0
LINE
  5
7EF
330
A
100
AcDbEntity
  8
03
100
AcDbLine
 10
134.6791021150709
 20
398.5600404165996
 30
0.0
 11
134.6791021150709
 21
429.5600404165996
 31
0.0
  0
LINE
  5
7F0
330
A
100
AcDbEntity
  8
03
100
AcDbLine
 10
134.6791021150709
 20
362.5600404165996
 30
0.0
 11
134.6791021150709
 21
393.5600404165996
 31
0.0
  0
LINE
  5
7F1
330
A
100
AcDbEntity
  8
03
100
AcDbLine
 10
268.6791021150709
 20
362.5600404165996
 30
0.0
 11
268.6791021150709
 21
393.5600404165996
 31
0.0
  0
LINE
  5
7F2
330
A
100
AcDbEntity
  8
03
100
AcDbLine
 10
240.6791021150709
 20
362.5600404165996
 30
0.0
 11
240.6791021150709
 21
393.5600404165996
 31
0.0
  0
LINE
  5
7F3
330
A
100
AcDbEntity
  8
02
100
AcDbLine
 10
251.6791021150709
 20
335.5600404165997
 30
0.0
 11
257.6791021150709
 21
335.5600404165997
 31
0.0
  0
LINE
  5
7F4
330
A
100
AcDbEntity
  8
02
100
AcDbLine
 10
251.6791021150709
 20
300.5600404165996
 30
0.0
 11
251.6791021150709
 21
335.5600404165997
 31
0.0
  0
LINE
  5
7F5
330
A
100
AcDbEntity
  8
02
100
AcDbLine
 10
257.6791021150709
 20
335.5600404165997
 30
0.0
 11
257.6791021150709
 21
300.5600404165996
 31
0.0
  0
LINE
  5
7F6
330
A
100
AcDbEntity
  8
02
100
AcDbLine
 10
257.6791021150709
 20
358.5600404165996
 30
0.0
 11
251.6791021150709
 21
358.5600404165996
 31
0.0
  0
LINE
  5
7F7
330
A
100
AcDbEntity
  8
02
100
AcDbLine
 10
257.6791021150709
 20
393.5600404165996
 30
0.0
 11
257.6791021150709
 21
358.5600404165996
 31
0.0
  0
LINE
  5
7F8
330
A
100
AcDbEntity
  8
02
100
AcDbLine
 10
251.6791021150709
 20
358.5600404165996
 30
0.0
 11
251.6791021150709
 21
393.5600404165996
 31
0.0
  0
LINE
  5
7F9
330
A
100
AcDbEntity
  8
02
100
AcDbLine
 10
251.6791021150709
 20
433.5600404165996
 30
0.0
 11
257.6791021150709
 21
433.5600404165996
 31
0.0
  0
LINE
  5
7FA
330
A
100
AcDbEntity
  8
02
100
AcDbLine
 10
257.6791021150709
 20
433.5600404165996
 30
0.0
 11
257.6791021150709
 21
398.5600404165996
 31
0.0
  0
LINE
  5
7FB
330
A
100
AcDbEntity
  8
02
100
AcDbLine
 10
251.6791021150709
 20
398.5600404165996
 30
0.0
 11
251.6791021150709
 21
433.5600404165996
 31
0.0
  0
LINE
  5
7FC
330
A
100
AcDbEntity
  8
02
100
AcDbLine
 10
145.6791021150709
 20
433.5600404165996
 30
0.0
 11
151.6791021150709
 21
433.5600404165996
 31
0.0
  0
LINE
  5
7FD
330
A
100
AcDbEntity
  8
02
100
AcDbLine
 10
114.6791021150709
 20
438.5600404165996
 30
0.0
 11
108.6791021150709
 21
438.5600404165996
 31
0.0
  0
LINE
  5
7FE
330
A
100
AcDbEntity
  8
02
100
AcDbLine
 10
151.6791021150709
 20
358.5600404165996
 30
0.0
 11
145.6791021150709
 21
358.5600404165996
 31
0.0
  0
LINE
  5
7FF
330
A
100
AcDbEntity
  8
02
100
AcDbLine
 10
151.6791021150709
 20
393.5600404165996
 30
0.0
 11
151.6791021150709
 21
358.5600404165996
 31
0.0
  0
LINE
  5
800
330
A
100
AcDbEntity
  8
02
100
AcDbLine
 10
151.6791021150709
 20
433.5600404165996
 30
0.0
 11
151.6791021150709
 21
398.5600404165996
 31
0.0
  0
LINE
  5
801
330
A
100
AcDbEntity
  8
02
100
AcDbLine
 10
145.6791021150709
 20
398.5600404165996
 30
0.0
 11
145.6791021150709
 21
433.5600404165996
 31
0.0
  0
LINE
  5
802
330
A
100
AcDbEntity
  8
02
100
AcDbLine
 10
145.6791021150709
 20
358.5600404165996
 30
0.0
 11
145.6791021150709
 21
393.5600404165996
 31
0.0
  0
LINE
  5
803
330
A
100
AcDbEntity
  8
02
100
AcDbLine
 10
114.6791021150709
 20
483.5600404165996
 30
0.0
 11
114.6791021150709
 21
438.5600404165996
 31
0.0
  0
LINE
  5
804
330
A
100
AcDbEntity
  8
02
100
AcDbLine
 10
114.6791021150709
 20
533.5600404165997
 30
0.0
 11
114.6791021150709
 21
488.5600404165996
 31
0.0
  0
LINE
  5
805
330
A
100
AcDbEntity
  8
02
100
AcDbLine
 10
108.6791021150709
 20
533.5600404165997
 30
0.0
 11
114.6791021150709
 21
533.5600404165997
 31
0.0
  0
LINE
  5
806
330
A
100
AcDbEntity
  8
02
100
AcDbLine
 10
108.6791021150709
 20
488.5600404165996
 30
0.0
 11
108.6791021150709
 21
533.5600404165997
 31
0.0
  0
LINE
  5
807
330
A
100
AcDbEntity
  8
02
100
AcDbLine
 10
108.6791021150709
 20
438.5600404165996
 30
0.0
 11
108.6791021150709
 21
483.5600404165996
 31
0.0
  0
LINE
  5
80D
330
A
100
AcDbEntity
  8
02
100
AcDbLine
 10
252.6791021150709
 20
335.5600404165997
 30
0.0
 11
252.6791021150709
 21
300.5600404165996
 31
0.0
  0
LINE
  5
80E
330
A
100
AcDbEntity
  8
02
100
AcDbLine
 10
256.6791021150709
 20
335.5600404165997
 30
0.0
 11
256.6791021150709
 21
300.5600404165996
 31
0.0
  0
LINE
  5
80F
330
A
100
AcDbEntity
  8
02
100
AcDbLine
 10
256.6791021150709
 20
358.5600404165996
 30
0.0
 11
256.6791021150709
 21
393.5600404165996
 31
0.0
  0
LINE
  5
810
330
A
100
AcDbEntity
  8
02
100
AcDbLine
 10
252.6791021150709
 20
358.5600404165996
 30
0.0
 11
252.6791021150709
 21
393.5600404165996
 31
0.0
  0
LINE
  5
811
330
A
100
AcDbEntity
  8
SAISEN
100
AcDbLine
 10
270.6791021150709
 20
398.5600404165996
 30
0.0
 11
238.6791021150707
 21
398.5600404165996
 31
0.0
  0
LINE
  5
812
330
A
100
AcDbEntity
  8
02
100
AcDbLine
 10
256.6791021150709
 20
398.5600404165996
 30
0.0
 11
256.6791021150709
 21
433.5600404165996
 31
0.0
  0
LINE
  5
813
330
A
100
AcDbEntity
  8
02
100
AcDbLine
 10
252.6791021150709
 20
398.5600404165996
 30
0.0
 11
252.6791021150709
 21
433.5600404165996
 31
0.0
  0
LINE
  5
819
330
A
100
AcDbEntity
  8
SAISEN
100
AcDbLine
 10
199.5759537423198
 20
257.3101920236338
 30
0.0
 11
199.5759537423199
 21
210.3101920236337
 31
0.0
  0
LINE
  5
81A
330
A
100
AcDbEntity
  8
SAISEN
100
AcDbLine
 10
194.5759537423199
 20
210.3101920236335
 30
0.0
 11
194.5759537423198
 21
257.3101920236338
 31
0.0
  0
LINE
  5
81B
330
A
100
AcDbEntity
  8
02
100
AcDbLine
 10
199.5759537423199
 20
238.3101920236335
 30
0.0
 11
276.929525346815
 21
238.3101920236335
 31
0.0
  0
LINE
  5
81C
330
A
100
AcDbEntity
  8
02
100
AcDbLine
 10
125.929525346815
 20
238.3101920236335
 30
0.0
 11
194.5759537423199
 21
238.3101920236335
 31
0.0
  0
LINE
  5
81D
330
A
100
AcDbEntity
  8
02
100
AcDbLine
 10
199.5759537423199
 20
234.3101920236335
 30
0.0
 11
276.929525346815
 21
234.3101920236335
 31
0.0
  0
LINE
  5
81E
330
A
100
AcDbEntity
  8
02
100
AcDbLine
 10
125.929525346815
 20
234.3101920236335
 30
0.0
 11
194.5759537423199
 21
234.3101920236335
 31
0.0
  0
LINE
  5
81F
330
A
100
AcDbEntity
  8
SAISEN
100
AcDbLine
 10
95.67910211507076
 20
488.5600404165996
 30
0.0
 11
127.6791021150708
 21
488.5600404165996
 31
0.0
  0
LINE
  5
820
330
A
100
AcDbEntity
  8
SAISEN
100
AcDbLine
 10
95.67910211507076
 20
483.5600404165996
 30
0.0
 11
127.6791021150708
 21
483.5600404165996
 31
0.0
  0
LINE
  5
821
330
A
100
AcDbEntity
  8
SAISEN
100
AcDbLine
 10
164.6791021150708
 20
398.5600404165996
 30
0.0
 11
132.6791021150707
 21
398.5600404165996
 31
0.0
  0
LINE
  5
822
330
A
100
AcDbEntity
  8
SAISEN
100
AcDbLine
 10
132.6791021150707
 20
393.5600404165996
 30
0.0
 11
164.6791021150708
 21
393.5600404165996
 31
0.0
  0
LINE
  5
823
330
A
100
AcDbEntity
  8
SAISEN
100
AcDbLine
 10
238.6791021150707
 20
393.5600404165996
 30
0.0
 11
270.6791021150709
 21
393.5600404165996
 31
0.0
  0
LINE
  5
824
330
A
100
AcDbEntity
  8
02
100
AcDbLine
 10
150.6791021150709
 20
398.5600404165996
 30
0.0
 11
150.6791021150709
 21
433.5600404165996
 31
0.0
  0
LINE
  5
825
330
A
100
AcDbEntity
  8
02
100
AcDbLine
 10
150.6791021150709
 20
358.5600404165996
 30
0.0
 11
150.6791021150709
 21
393.5600404165996
 31
0.0
  0
LINE
  5
826
330
A
100
AcDbEntity
  8
02
100
AcDbLine
 10
146.6791021150709
 20
398.5600404165996
 30
0.0
 11
146.6791021150709
 21
433.5600404165996
 31
0.0
  0
LINE
  5
827
330
A
100
AcDbEntity
  8
02
100
AcDbLine
 10
146.6791021150709
 20
358.5600404165996
 30
0.0
 11
146.6791021150709
 21
393.5600404165996
 31
0.0
  0
LINE
  5
828
330
A
100
AcDbEntity
  8
02
100
AcDbLine
 10
113.6791021150709
 20
488.5600404165996
 30
0.0
 11
113.6791021150709
 21
533.5600404165997
 31
0.0
  0
LINE
  5
829
330
A
100
AcDbEntity
  8
02
100
AcDbLine
 10
113.6791021150709
 20
438.5600404165996
 30
0.0
 11
113.6791021150709
 21
483.5600404165996
 31
0.0
  0
LINE
  5
82A
330
A
100
AcDbEntity
  8
02
100
AcDbLine
 10
109.6791021150709
 20
488.5600404165996
 30
0.0
 11
109.6791021150709
 21
533.5600404165997
 31
0.0
  0
LINE
  5
82B
330
A
100
AcDbEntity
  8
02
100
AcDbLine
 10
109.6791021150709
 20
438.5600404165996
 30
0.0
 11
109.6791021150709
 21
483.5600404165996
 31
0.0
  0
LINE
  5
82C
330
A
100
AcDbEntity
  8
SOUZOU
100
AcDbLine
 10
80.17910211507103
 20
346.5600404165996
 30
0.0
 11
80.17910211507103
 21
310.0859798918153
 31
0.0
  0
LINE
  5
82D
330
A
100
AcDbEntity
  8
SOUZOU
100
AcDbLine
 10
180.1791021150709
 20
346.5600404165996
 30
0.0
 11
180.1791021150709
 21
310.0859798918153
 31
0.0
  0
LINE
  5
82E
330
A
100
AcDbEntity
  8
SOUZOU
100
AcDbLine
 10
80.179102115071
 20
542.5600404166001
 30
0.0
 11
80.179102115071
 21
570.571563971734
 31
0.0
  0
LINE
  5
82F
330
A
100
AcDbEntity
  8
SOUZOU
100
AcDbLine
 10
180.1791021150709
 20
542.5600404166001
 30
0.0
 11
180.1791021150709
 21
570.571563971734
 31
0.0
  0
LINE
  5
830
330
A
100
AcDbEntity
  8
SOUZOU
100
AcDbLine
 10
80.17910211507103
 20
346.5600404165996
 30
0.0
 11
180.1791021150709
 21
346.5600404165996
 31
0.0
  0
LINE
  5
831
330
A
100
AcDbEntity
  8
SOUZOU
100
AcDbLine
 10
180.1791021150709
 20
542.5600404166001
 30
0.0
 11
80.179102115071
 21
542.5600404166001
 31
0.0
  0
LINE
  5
834
330
A
100
AcDbEntity
  8
CHUSIN
100
AcDbLine
 10
55.60118168389958
 20
236.3101920236337
 30
0.0
 11
365.8094464234674
 21
236.3101920236339
 31
0.0
  0
LINE
  5
835
330
A
100
AcDbEntity
  8
CHUSIN
100
AcDbLine
 10
232.8618046462469
 20
347.0600404165996
 30
0.0
 11
278.4584142006678
 21
347.0600404165996
 31
0.0
  0
LINE
  5
836
330
A
100
AcDbEntity
  8
CHUSIN
100
AcDbLine
 10
148.6791021150709
 20
339.6563808040263
 30
0.0
 11
148.6791021150709
 21
546.7003276246802
 31
0.0
  0
LINE
  5
837
330
A
100
AcDbEntity
  8
CHUSIN
100
AcDbLine
 10
111.6791021150708
 20
423.5361500095441
 30
0.0
 11
111.6791021150709
 21
546.7003276246802
 31
0.0
  0
LINE
  5
838
330
A
100
AcDbEntity
  8
CHUSIN
100
AcDbLine
 10
254.6791021150709
 20
298.5153817794259
 30
0.0
 11
254.6791021150709
 21
450.7259541476106
 31
0.0
  0
LINE
  5
85C
330
A
100
AcDbEntity
  8
04
100
AcDbLine
 10
238.679102115071
 20
440.5600404165996
 30
0.0
 11
238.6791021150709
 21
438.3100404165996
 31
0.0
  0
LINE
  5
861
330
A
100
AcDbEntity
  8
03
100
AcDbLine
 10
247.6791021150719
 20
398.5600404165996
 30
0.0
 11
247.6791021150708
 21
433.0600404165996
 31
0.0
  0
LINE
  5
862
330
A
100
AcDbEntity
  8
03
100
AcDbLine
 10
261.6791021150709
 20
398.5600404165996
 30
0.0
 11
261.6791021150709
 21
433.0600404165996
 31
0.0
  0
LINE
  5
869
330
A
100
AcDbEntity
  8
04
100
AcDbLine
 10
261.6791021150709
 20
429.5600404165996
 30
0.0
 11
268.6791021150709
 21
429.5600404165996
 31
0.0
  0
LINE
  5
86A
330
A
100
AcDbEntity
  8
04
100
AcDbLine
 10
240.6791021150709
 20
429.5600404165996
 30
0.0
 11
247.6791021150709
 21
429.5600404165996
 31
0.0
  0
LINE
  5
86B
330
A
100
AcDbEntity
  8
04
100
AcDbLine
 10
240.679102115071
 20
442.5600404165996
 30
0.0
 11
268.6791021150708
 21
442.5600404165996
 31
0.0
  0
LINE
  5
86C
330
A
100
AcDbEntity
  8
04
100
AcDbLine
 10
270.6791021150709
 20
429.0600404165996
 30
0.0
 11
270.6791021150709
 21
440.5600404165996
 31
0.0
  0
LINE
  5
86D
330
A
100
AcDbEntity
  8
04
100
AcDbLine
 10
238.6791021150711
 20
429.0600404165996
 30
0.0
 11
238.6791021150709
 21
433.8100404165992
 31
0.0
  0
LINE
  5
86E
330
A
100
AcDbEntity
  8
06
100
AcDbLine
 10
337.429525346815
 20
224.3101920236334
 30
0.0
 11
337.429525346815
 21
225.0601920236335
 31
0.0
  0
LINE
  5
86F
330
A
100
AcDbEntity
  8
06
100
AcDbLine
 10
342.0258216431116
 20
225.8834113968529
 30
0.0
 11
343.6797100531573
 21
225.8198003041588
 31
0.0
  0
LINE
  5
870
330
A
100
AcDbEntity
  8
06
100
AcDbLine
 10
337.429525346815
 20
226.0601920236334
 30
0.0
 11
341.8255253468156
 21
225.8911151005566
 31
0.0
  0
LINE
  5
871
330
A
100
AcDbEntity
  8
06
100
AcDbLine
 10
342.0258216431116
 20
225.2369726504142
 30
0.0
 11
343.6797100531573
 21
225.3005837431083
 31
0.0
  0
LINE
  5
872
330
A
100
AcDbEntity
  8
06
100
AcDbLine
 10
337.429525346815
 20
225.0601920236335
 30
0.0
 11
341.8255253468156
 21
225.2292689467104
 31
0.0
  0
LINE
  5
873
330
A
100
AcDbEntity
  8
06
100
AcDbLine
 10
341.9295253468151
 20
225.7871151005566
 30
0.0
 11
341.8255253468156
 21
225.8911151005566
 31
0.0
  0
LINE
  5
874
330
A
100
AcDbEntity
  8
06
100
AcDbLine
 10
342.0258216431116
 20
225.8834113968529
 30
0.0
 11
341.9295253468151
 21
225.7871151005566
 31
0.0
  0
LINE
  5
875
330
A
100
AcDbEntity
  8
06
100
AcDbLine
 10
341.9295253468151
 20
225.3332689467104
 30
0.0
 11
341.8255253468156
 21
225.2292689467104
 31
0.0
  0
LINE
  5
876
330
A
100
AcDbEntity
  8
06
100
AcDbLine
 10
342.0258216431116
 20
225.2369726504142
 30
0.0
 11
341.9295253468151
 21
225.3332689467104
 31
0.0
  0
LINE
  5
87E
330
A
100
AcDbEntity
  8
06
100
AcDbLine
 10
335.929525346815
 20
223.3101920236335
 30
0.0
 11
336.429525346815
 21
223.3101920236335
 31
0.0
  0
LINE
  5
87F
330
A
100
AcDbEntity
  8
06
100
AcDbLine
 10
337.429525346815
 20
246.5601920236335
 30
0.0
 11
337.429525346815
 21
226.0601920236334
 31
0.0
  0
LINE
  5
880
330
A
100
AcDbEntity
  8
06
100
AcDbLine
 10
337.429525346815
 20
248.3101920236335
 30
0.0
 11
337.429525346815
 21
247.5601920236335
 31
0.0
  0
LINE
  5
881
330
A
100
AcDbEntity
  8
06
100
AcDbLine
 10
342.0258216431116
 20
246.736972650414
 30
0.0
 11
343.6797100531573
 21
246.8005837431083
 31
0.0
  0
LINE
  5
882
330
A
100
AcDbEntity
  8
06
100
AcDbLine
 10
337.429525346815
 20
246.5601920236335
 30
0.0
 11
341.8255253468156
 21
246.7292689467105
 31
0.0
  0
LINE
  5
883
330
A
100
AcDbEntity
  8
06
100
AcDbLine
 10
342.0258216431116
 20
247.3834113968529
 30
0.0
 11
343.6797100531573
 21
247.3198003041588
 31
0.0
  0
LINE
  5
884
330
A
100
AcDbEntity
  8
06
100
AcDbLine
 10
337.429525346815
 20
247.5601920236335
 30
0.0
 11
341.8255253468156
 21
247.3911151005566
 31
0.0
  0
LINE
  5
885
330
A
100
AcDbEntity
  8
06
100
AcDbLine
 10
341.9295253468151
 20
246.8332689467104
 30
0.0
 11
341.8255253468156
 21
246.7292689467105
 31
0.0
  0
LINE
  5
886
330
A
100
AcDbEntity
  8
06
100
AcDbLine
 10
342.0258216431116
 20
246.736972650414
 30
0.0
 11
341.9295253468151
 21
246.8332689467104
 31
0.0
  0
LINE
  5
887
330
A
100
AcDbEntity
  8
06
100
AcDbLine
 10
341.9295253468151
 20
247.2871151005566
 30
0.0
 11
341.8255253468156
 21
247.3911151005566
 31
0.0
  0
LINE
  5
888
330
A
100
AcDbEntity
  8
06
100
AcDbLine
 10
342.0258216431116
 20
247.3834113968529
 30
0.0
 11
341.9295253468151
 21
247.2871151005566
 31
0.0
  0
LINE
  5
891
330
A
100
AcDbEntity
  8
06
100
AcDbLine
 10
335.929525346815
 20
249.3101920236334
 30
0.0
 11
336.429525346815
 21
249.3101920236334
 31
0.0
  0
LINE
  5
892
330
A
100
AcDbEntity
  8
06
100
AcDbLine
 10
65.92952534681495
 20
250.3101920236332
 30
0.0
 11
64.42952534681499
 21
250.3101920236332
 31
0.0
  0
LINE
  5
893
330
A
100
AcDbEntity
  8
06
100
AcDbLine
 10
65.92952534681495
 20
232.1601920236333
 30
0.0
 11
65.92952534681495
 21
220.010192023633
 31
0.0
  0
LINE
  5
894
330
A
100
AcDbEntity
  8
06
100
AcDbLine
 10
65.92952534681495
 20
240.4601920236333
 30
0.0
 11
65.92952534681495
 21
250.3101920236334
 31
0.0
  0
LINE
  5
895
330
A
100
AcDbEntity
  8
06
100
AcDbLine
 10
65.92952534681495
 20
233.1601920236332
 30
0.0
 11
65.92952534681495
 21
239.4601920236333
 31
0.0
  0
LINE
  5
896
330
A
100
AcDbEntity
  8
06
100
AcDbLine
 10
67.42952534681496
 20
233.1601920236332
 30
0.0
 11
65.92952534681495
 21
233.1601920236332
 31
0.0
  0
LINE
  5
897
330
A
100
AcDbEntity
  8
06
100
AcDbLine
 10
67.42952534681496
 20
232.1601920236333
 30
0.0
 11
67.42952534681496
 21
233.1601920236332
 31
0.0
  0
LINE
  5
898
330
A
100
AcDbEntity
  8
06
100
AcDbLine
 10
65.92952534681495
 20
232.1601920236333
 30
0.0
 11
67.42952534681496
 21
232.1601920236333
 31
0.0
  0
LINE
  5
899
330
A
100
AcDbEntity
  8
06
100
AcDbLine
 10
67.42952534681496
 20
239.4601920236333
 30
0.0
 11
65.92952534681495
 21
239.4601920236333
 31
0.0
  0
LINE
  5
89A
330
A
100
AcDbEntity
  8
06
100
AcDbLine
 10
67.42952534681496
 20
240.4601920236333
 30
0.0
 11
67.42952534681496
 21
239.4601920236333
 31
0.0
  0
LINE
  5
89B
330
A
100
AcDbEntity
  8
06
100
AcDbLine
 10
65.92952534681495
 20
240.4601920236333
 30
0.0
 11
67.42952534681496
 21
240.4601920236333
 31
0.0
  0
LINE
  5
89C
330
A
100
AcDbEntity
  8
06
100
AcDbLine
 10
64.42952534681499
 20
250.3101920236332
 30
0.0
 11
64.42952534681499
 21
220.3101920236333
 31
0.0
  0
LINE
  5
89D
330
A
100
AcDbEntity
  8
06
100
AcDbLine
 10
70.92952534681495
 20
215.310192023633
 30
0.0
 11
64.42952534681499
 21
220.310192023633
 31
0.0
  0
LINE
  5
89E
330
A
100
AcDbEntity
  8
06
100
AcDbLine
 10
70.92952534681495
 20
215.310192023633
 30
0.0
 11
65.92952534681495
 21
220.010192023633
 31
0.0
  0
LINE
  5
8A3
330
A
100
AcDbEntity
  8
03
100
AcDbLine
 10
194.5759537423199
 20
252.3101920236335
 30
0.0
 11
65.92952534681495
 21
252.3101920236335
 31
0.0
  0
LINE
  5
8A4
330
A
100
AcDbEntity
  8
03
100
AcDbLine
 10
335.929525346815
 20
252.3101920236339
 30
0.0
 11
199.5759537423199
 21
252.3101920236339
 31
0.0
  0
LINE
  5
8A5
330
A
100
AcDbEntity
  8
03
100
AcDbLine
 10
194.5759537423199
 20
220.3101920236334
 30
0.0
 11
65.92952534681495
 21
220.3101920236337
 31
0.0
  0
LINE
  5
8A6
330
A
100
AcDbEntity
  8
03
100
AcDbLine
 10
335.929525346815
 20
220.3101920236338
 30
0.0
 11
199.5759537423199
 21
220.3101920236338
 31
0.0
  0
LINE
  5
8AA
330
A
100
AcDbEntity
  8
04
100
AcDbLine
 10
132.679102115071
 20
440.5600404165996
 30
0.0
 11
132.6791021150709
 21
438.3100404165996
 31
0.0
  0
LINE
  5
8AF
330
A
100
AcDbEntity
  8
03
100
AcDbLine
 10
141.6791021150719
 20
398.5600404165996
 30
0.0
 11
141.6791021150705
 21
433.0600404165996
 31
0.0
  0
LINE
  5
8B0
330
A
100
AcDbEntity
  8
03
100
AcDbLine
 10
155.6791021150709
 20
398.5600404165996
 30
0.0
 11
155.6791021150709
 21
433.0600404165996
 31
0.0
  0
LINE
  5
8B7
330
A
100
AcDbEntity
  8
04
100
AcDbLine
 10
155.6791021150709
 20
429.5600404165996
 30
0.0
 11
162.6791021150709
 21
429.5600404165996
 31
0.0
  0
LINE
  5
8B8
330
A
100
AcDbEntity
  8
04
100
AcDbLine
 10
134.6791021150709
 20
429.5600404165996
 30
0.0
 11
141.6791021150709
 21
429.5600404165996
 31
0.0
  0
LINE
  5
8B9
330
A
100
AcDbEntity
  8
04
100
AcDbLine
 10
134.679102115071
 20
442.5600404165996
 30
0.0
 11
162.6791021150708
 21
442.5600404165996
 31
0.0
  0
LINE
  5
8BA
330
A
100
AcDbEntity
  8
04
100
AcDbLine
 10
164.6791021150709
 20
429.0600404165996
 30
0.0
 11
164.6791021150709
 21
440.5600404165996
 31
0.0
  0
LINE
  5
8BB
330
A
100
AcDbEntity
  8
04
100
AcDbLine
 10
132.6791021150711
 20
429.0600404165996
 30
0.0
 11
132.6791021150709
 21
433.8100404165992
 31
0.0
  0
LINE
  5
8C6
330
A
100
AcDbEntity
  8
03
100
AcDbLine
 10
118.6791021150708
 20
483.5600404165996
 30
0.0
 11
118.6791021150708
 21
439.0600404165993
 31
0.0
  0
LINE
  5
8C7
330
A
100
AcDbEntity
  8
03
100
AcDbLine
 10
104.6791021150705
 20
483.5600404165996
 30
0.0
 11
104.6791021150705
 21
439.0600404165993
 31
0.0
  0
LINE
  5
8D4
330
A
100
AcDbEntity
  8
04
100
AcDbLine
 10
95.67910211507076
 20
443.0600404165996
 30
0.0
 11
95.67910211507076
 21
431.5600404165996
 31
0.0
  0
LINE
  5
8D9
330
A
100
AcDbEntity
  8
04
100
AcDbLine
 10
118.6791021150708
 20
442.5600404165991
 30
0.0
 11
125.6791021150708
 21
442.5600404165996
 31
0.0
  0
LINE
  5
8DA
330
A
100
AcDbEntity
  8
04
100
AcDbLine
 10
97.67910211507087
 20
442.5600404165996
 30
0.0
 11
104.6791021150705
 21
442.5600404165996
 31
0.0
  0
LINE
  5
8DB
330
A
100
AcDbEntity
  8
04
100
AcDbLine
 10
117.1791021150708
 20
429.5600404165996
 30
0.0
 11
125.6791021150708
 21
429.5600404165996
 31
0.0
  0
LINE
  5
8DC
330
A
100
AcDbEntity
  8
04
100
AcDbLine
 10
97.6791021150708
 20
429.5600404165996
 30
0.0
 11
106.1791021150707
 21
429.5600404165996
 31
0.0
  0
LINE
  5
8DD
330
A
100
AcDbEntity
  8
04
100
AcDbLine
 10
127.6791021150708
 20
443.0600404165996
 30
0.0
 11
127.6791021150708
 21
431.5600404165996
 31
0.0
  0
LINE
  5
8EA
330
A
100
AcDbEntity
  8
03
100
AcDbLine
 10
247.679102115071
 20
300.5600404165996
 30
0.0
 11
247.679102115071
 21
335.0600404165997
 31
0.0
  0
LINE
  5
8EB
330
A
100
AcDbEntity
  8
03
100
AcDbLine
 10
261.6791021150709
 20
300.5600404165996
 30
0.0
 11
261.6791021150709
 21
335.0600404165997
 31
0.0
  0
LINE
  5
8F8
330
A
100
AcDbEntity
  8
04
100
AcDbLine
 10
270.679102115071
 20
330.5600404165996
 30
0.0
 11
270.679102115071
 21
342.5600404165996
 31
0.0
  0
LINE
  5
8FD
330
A
100
AcDbEntity
  8
04
100
AcDbLine
 10
247.679102115071
 20
331.5600404165996
 30
0.0
 11
240.6791021150709
 21
331.5600404165996
 31
0.0
  0
LINE
  5
8FE
330
A
100
AcDbEntity
  8
04
100
AcDbLine
 10
268.6791021150709
 20
331.5600404165996
 30
0.0
 11
261.6791021150709
 21
331.5600404165996
 31
0.0
  0
LINE
  5
8FF
330
A
100
AcDbEntity
  8
04
100
AcDbLine
 10
249.179102115071
 20
344.5600404165996
 30
0.0
 11
240.679102115071
 21
344.5600404165996
 31
0.0
  0
LINE
  5
900
330
A
100
AcDbEntity
  8
04
100
AcDbLine
 10
268.679102115071
 20
344.5600404165996
 30
0.0
 11
260.1791021150709
 21
344.5600404165996
 31
0.0
  0
LINE
  5
901
330
A
100
AcDbEntity
  8
04
100
AcDbLine
 10
238.679102115071
 20
330.5600404165996
 30
0.0
 11
238.679102115071
 21
342.5600404165996
 31
0.0
  0
LINE
  5
90B
330
A
100
AcDbEntity
  8
03
100
AcDbLine
 10
155.6791021150708
 20
393.5600404165996
 30
0.0
 11
155.6791021150708
 21
359.0600404165996
 31
0.0
  0
LINE
  5
90C
330
A
100
AcDbEntity
  8
03
100
AcDbLine
 10
141.6791021150705
 20
393.5600404165996
 30
0.0
 11
141.6791021150705
 21
359.0600404165996
 31
0.0
  0
LINE
  5
919
330
A
100
AcDbEntity
  8
04
100
AcDbLine
 10
132.6791021150709
 20
363.0600404165996
 30
0.0
 11
132.6791021150709
 21
351.5600404165996
 31
0.0
  0
LINE
  5
91E
330
A
100
AcDbEntity
  8
04
100
AcDbLine
 10
155.6791021150708
 20
362.5600404165996
 30
0.0
 11
162.6791021150708
 21
362.5600404165996
 31
0.0
  0
LINE
  5
91F
330
A
100
AcDbEntity
  8
04
100
AcDbLine
 10
134.6791021150709
 20
362.5600404165996
 30
0.0
 11
141.6791021150705
 21
362.5600404165996
 31
0.0
  0
LINE
  5
920
330
A
100
AcDbEntity
  8
04
100
AcDbLine
 10
154.1791021150705
 20
349.5600404165996
 30
0.0
 11
162.6791021150705
 21
349.5600404165996
 31
0.0
  0
LINE
  5
921
330
A
100
AcDbEntity
  8
04
100
AcDbLine
 10
134.6791021150709
 20
349.5600404165996
 30
0.0
 11
143.1791021150705
 21
349.5600404165996
 31
0.0
  0
LINE
  5
922
330
A
100
AcDbEntity
  8
04
100
AcDbLine
 10
164.6791021150709
 20
363.0600404165993
 30
0.0
 11
164.6791021150709
 21
351.5600404165996
 31
0.0
  0
LINE
  5
923
330
A
100
AcDbEntity
  8
04
100
AcDbLine
 10
111.9791021150709
 20
538.5600404165999
 30
0.0
 11
113.1791021150709
 21
538.5600404165995
 31
0.0
  0
LINE
  5
924
330
A
100
AcDbEntity
  8
04
100
AcDbLine
 10
110.1791021150709
 20
538.5600404165999
 30
0.0
 11
111.379102115071
 21
538.5600404165999
 31
0.0
  0
LINE
  5
925
330
A
100
AcDbEntity
  8
04
100
AcDbLine
 10
113.6791021150709
 20
538.0600404165992
 30
0.0
 11
113.1791021150709
 21
538.5600404165995
 31
0.0
  0
LINE
  5
926
330
A
100
AcDbEntity
  8
04
100
AcDbLine
 10
109.6791021150709
 20
538.0600404165999
 30
0.0
 11
110.1791021150709
 21
538.5600404165999
 31
0.0
  0
LINE
  5
927
330
A
100
AcDbEntity
  8
04
100
AcDbLine
 10
109.6791021150709
 20
538.0600404165999
 30
0.0
 11
106.1791021150709
 21
538.0600404165999
 31
0.0
  0
LINE
  5
928
330
A
100
AcDbEntity
  8
04
100
AcDbLine
 10
117.1791021150709
 20
538.0600404165999
 30
0.0
 11
113.6791021150709
 21
538.0600404165992
 31
0.0
  0
LINE
  5
929
330
A
100
AcDbEntity
  8
04
100
AcDbLine
 10
117.1791021150709
 20
538.5600404165999
 30
0.0
 11
117.1791021150709
 21
538.0600404165999
 31
0.0
  0
LINE
  5
92A
330
A
100
AcDbEntity
  8
04
100
AcDbLine
 10
106.1791021150709
 20
538.5600404165999
 30
0.0
 11
106.1791021150709
 21
538.0600404165999
 31
0.0
  0
LINE
  5
92B
330
A
100
AcDbEntity
  8
03
100
AcDbLine
 10
118.6791021150708
 20
488.5600404165996
 30
0.0
 11
118.6791021150709
 21
533.0600404166
 31
0.0
  0
LINE
  5
92C
330
A
100
AcDbEntity
  8
03
100
AcDbLine
 10
104.6791021150708
 20
488.5600404165996
 30
0.0
 11
104.6791021150709
 21
533.0600404166
 31
0.0
  0
LINE
  5
92D
330
A
100
AcDbEntity
  8
04
100
AcDbLine
 10
106.1791021150709
 20
538.5600404165999
 30
0.0
 11
104.1791021150709
 21
538.5600404165999
 31
0.0
  0
LINE
  5
92E
330
A
100
AcDbEntity
  8
04
100
AcDbLine
 10
119.1791021150709
 20
538.5600404165999
 30
0.0
 11
117.1791021150709
 21
538.5600404165999
 31
0.0
  0
LINE
  5
92F
330
A
100
AcDbEntity
  8
04
100
AcDbLine
 10
119.1791021150709
 20
540.5600404165999
 30
0.0
 11
119.1791021150709
 21
538.5600404165999
 31
0.0
  0
LINE
  5
930
330
A
100
AcDbEntity
  8
04
100
AcDbLine
 10
117.1791021150709
 20
540.5600404165999
 30
0.0
 11
119.1791021150709
 21
540.5600404165999
 31
0.0
  0
LINE
  5
931
330
A
100
AcDbEntity
  8
04
100
AcDbLine
 10
117.1791021150709
 20
542.5600404166001
 30
0.0
 11
117.1791021150709
 21
540.5600404165999
 31
0.0
  0
LINE
  5
932
330
A
100
AcDbEntity
  8
04
100
AcDbLine
 10
104.1791021150709
 20
540.5600404165999
 30
0.0
 11
104.1791021150709
 21
538.5600404165999
 31
0.0
  0
LINE
  5
933
330
A
100
AcDbEntity
  8
04
100
AcDbLine
 10
106.1791021150709
 20
540.5600404165999
 30
0.0
 11
104.1791021150709
 21
540.5600404165999
 31
0.0
  0
LINE
  5
934
330
A
100
AcDbEntity
  8
04
100
AcDbLine
 10
106.1791021150709
 20
542.5600404166001
 30
0.0
 11
106.1791021150709
 21
540.5600404165999
 31
0.0
  0
LINE
  5
939
330
A
100
AcDbEntity
  8
04
100
AcDbLine
 10
95.67910211507099
 20
529.0600404165997
 30
0.0
 11
95.67910211507099
 21
540.5600404166001
 31
0.0
  0
LINE
  5
93E
330
A
100
AcDbEntity
  8
04
100
AcDbLine
 10
118.6791021150709
 20
529.5600404166
 30
0.0
 11
125.6791021150709
 21
529.5600404166
 31
0.0
  0
LINE
  5
93F
330
A
100
AcDbEntity
  8
04
100
AcDbLine
 10
97.67910211507093
 20
529.5600404166
 30
0.0
 11
104.6791021150709
 21
529.5600404165996
 31
0.0
  0
LINE
  5
940
330
A
100
AcDbEntity
  8
04
100
AcDbLine
 10
117.1791021150709
 20
542.5600404165995
 30
0.0
 11
125.6791021150709
 21
542.5600404165995
 31
0.0
  0
LINE
  5
941
330
A
100
AcDbEntity
  8
04
100
AcDbLine
 10
97.6791021150708
 20
542.5600404166001
 30
0.0
 11
106.1791021150709
 21
542.5600404166001
 31
0.0
  0
LINE
  5
942
330
A
100
AcDbEntity
  8
04
100
AcDbLine
 10
127.6791021150709
 20
529.0600404165997
 30
0.0
 11
127.6791021150709
 21
540.5600404165993
 31
0.0
  0
LINE
  5
94B
330
A
100
AcDbEntity
  8
03
100
AcDbLine
 10
261.6791021150707
 20
393.5600404165996
 30
0.0
 11
261.6791021150707
 21
359.0600404165996
 31
0.0
  0
LINE
  5
94C
330
A
100
AcDbEntity
  8
03
100
AcDbLine
 10
247.6791021150708
 20
393.5600404165996
 30
0.0
 11
247.6791021150708
 21
359.0600404165996
 31
0.0
  0
LINE
  5
959
330
A
100
AcDbEntity
  8
04
100
AcDbLine
 10
238.6791021150707
 20
363.5600404165996
 30
0.0
 11
238.6791021150707
 21
351.5600404165996
 31
0.0
  0
LINE
  5
95E
330
A
100
AcDbEntity
  8
04
100
AcDbLine
 10
261.6791021150707
 20
362.5600404165996
 30
0.0
 11
268.6791021150709
 21
362.5600404165996
 31
0.0
  0
LINE
  5
95F
330
A
100
AcDbEntity
  8
04
100
AcDbLine
 10
240.6791021150709
 20
362.5600404165996
 30
0.0
 11
247.6791021150708
 21
362.5600404165996
 31
0.0
  0
LINE
  5
960
330
A
100
AcDbEntity
  8
04
100
AcDbLine
 10
260.1791021150708
 20
349.5600404165996
 30
0.0
 11
268.6791021150709
 21
349.5600404165996
 31
0.0
  0
LINE
  5
961
330
A
100
AcDbEntity
  8
04
100
AcDbLine
 10
240.6791021150707
 20
349.5600404165996
 30
0.0
 11
249.1791021150707
 21
349.5600404165996
 31
0.0
  0
LINE
  5
962
330
A
100
AcDbEntity
  8
04
100
AcDbLine
 10
270.6791021150709
 20
363.5600404165996
 30
0.0
 11
270.6791021150709
 21
351.5600404165996
 31
0.0
  0
LINE
  5
972
330
A
100
AcDbEntity
  8
03
100
AcDbLine
 10
278.6913902980515
 20
144.5515509601182
 30
0.0
 11
276.9913902980515
 21
144.5515509601182
 31
0.0
  0
LINE
  5
973
330
A
100
AcDbEntity
  8
03
100
AcDbLine
 10
278.6913902980515
 20
141.5515509601181
 30
0.0
 11
276.9913902980515
 21
141.5515509601181
 31
0.0
  0
LINE
  5
974
330
A
100
AcDbEntity
  8
03
100
AcDbLine
 10
278.6913902980515
 20
141.5515509601181
 30
0.0
 11
278.6913902980515
 21
144.5515509601182
 31
0.0
  0
LINE
  5
975
330
A
100
AcDbEntity
  8
03
100
AcDbLine
 10
278.6913902980515
 20
78.65155096011822
 30
0.0
 11
276.9913902980515
 21
78.65155096011822
 31
0.0
  0
LINE
  5
976
330
A
100
AcDbEntity
  8
03
100
AcDbLine
 10
278.6913902980515
 20
72.6515509601182
 30
0.0
 11
276.9913902980515
 21
72.6515509601182
 31
0.0
  0
LINE
  5
977
330
A
100
AcDbEntity
  8
03
100
AcDbLine
 10
278.6913902980515
 20
72.6515509601182
 30
0.0
 11
278.6913902980515
 21
78.65155096011822
 31
0.0
  0
LINE
  5
978
330
A
100
AcDbEntity
  8
03
100
AcDbLine
 10
278.6913902980515
 20
132.0515509601182
 30
0.0
 11
276.9913902980515
 21
132.0515509601182
 31
0.0
  0
LINE
  5
979
330
A
100
AcDbEntity
  8
03
100
AcDbLine
 10
278.6913902980515
 20
126.0515509601181
 30
0.0
 11
276.9913902980515
 21
126.0515509601181
 31
0.0
  0
LINE
  5
97A
330
A
100
AcDbEntity
  8
03
100
AcDbLine
 10
278.6913902980515
 20
126.0515509601181
 30
0.0
 11
278.6913902980515
 21
132.0515509601182
 31
0.0
  0
LINE
  5
97B
330
A
100
AcDbEntity
  8
04
100
AcDbLine
 10
276.9913902980515
 20
63.65155096011822
 30
0.0
 11
276.9913902980515
 21
155.0515509601182
 31
0.0
  0
LINE
  5
97C
330
A
100
AcDbEntity
  8
04
100
AcDbLine
 10
276.9913902980515
 20
155.0515509601182
 30
0.0
 11
276.1913902980515
 21
155.0515509601182
 31
0.0
  0
LINE
  5
97D
330
A
100
AcDbEntity
  8
04
100
AcDbLine
 10
276.9913902980515
 20
63.65155096011822
 30
0.0
 11
276.1913902980515
 21
63.65155096011822
 31
0.0
  0
LINE
  5
97E
330
A
100
AcDbEntity
  8
CHUSIN
 48
0.5
100
AcDbLine
 10
271.2919840382671
 20
75.6515509601182
 30
0.0
 11
282.5440453141128
 21
75.6515509601182
 31
0.0
  0
LINE
  5
97F
330
A
100
AcDbEntity
  8
CHUSIN
 48
0.5
100
AcDbLine
 10
271.2919840382671
 20
129.0515509601181
 30
0.0
 11
282.5440453141128
 21
129.0515509601181
 31
0.0
  0
LINE
  5
980
330
A
100
AcDbEntity
  8
SOUZOU
 48
0.3
100
AcDbLine
 10
59.64945797515909
 20
80.15155096011827
 30
0.0
 11
65.31165226272881
 21
80.15155096011827
 31
0.0
  0
LINE
  5
981
330
A
100
AcDbEntity
  8
SOUZOU
 48
0.3
100
AcDbLine
 10
59.64945797515909
 20
92.15155096011827
 30
0.0
 11
65.31165226272881
 21
92.15155096011827
 31
0.0
  0
LINE
  5
982
330
A
100
AcDbEntity
  8
SOUZOU
 48
0.5
100
AcDbLine
 10
59.62644184444349
 20
86.15155096011827
 30
0.0
 11
71.09139029805167
 21
86.15155096011827
 31
0.0
  0
LINE
  5
983
330
A
100
AcDbEntity
  8
SOUZOU
 48
0.3
100
AcDbLine
 10
59.64945797515909
 20
138.5515509601181
 30
0.0
 11
65.31165226272881
 21
138.5515509601181
 31
0.0
  0
LINE
  5
984
330
A
100
AcDbEntity
  8
SOUZOU
 48
0.3
100
AcDbLine
 10
59.64945797515909
 20
126.5515509601181
 30
0.0
 11
65.31165226272881
 21
126.5515509601181
 31
0.0
  0
LINE
  5
985
330
A
100
AcDbEntity
  8
SOUZOU
 48
0.5
100
AcDbLine
 10
59.62644184444349
 20
132.5515509601181
 30
0.0
 11
71.09139029805167
 21
132.5515509601181
 31
0.0
  0
LINE
  5
986
330
A
100
AcDbEntity
  8
04
100
AcDbLine
 10
267.9913902980516
 20
65.05155096011825
 30
0.0
 11
267.9913902980516
 21
153.6515509601182
 31
0.0
  0
LINE
  5
987
330
A
100
AcDbEntity
  8
04
100
AcDbLine
 10
71.09139029805167
 20
65.05155096011825
 30
0.0
 11
71.09139029805167
 21
153.6515509601182
 31
0.0
  0
LINE
  5
988
330
A
100
AcDbEntity
  8
04
100
AcDbLine
 10
276.1913902980515
 20
153.6515509601182
 30
0.0
 11
62.79139029805165
 21
153.6515509601182
 31
0.0
  0
LINE
  5
989
330
A
100
AcDbEntity
  8
04
100
AcDbLine
 10
276.1913902980515
 20
65.05155096011825
 30
0.0
 11
62.79139029805165
 21
65.05155096011825
 31
0.0
  0
LINE
  5
98A
330
A
100
AcDbEntity
  8
04
100
AcDbLine
 10
62.79139029805165
 20
155.0515509601182
 30
0.0
 11
62.7913902980516
 21
63.65155096011822
 31
0.0
  0
LINE
  5
98B
330
A
100
AcDbEntity
  8
04
100
AcDbLine
 10
276.1913902980515
 20
155.0515509601182
 30
0.0
 11
62.79139029805165
 21
155.0515509601182
 31
0.0
  0
LINE
  5
98C
330
A
100
AcDbEntity
  8
04
100
AcDbLine
 10
276.1913902980515
 20
63.65155096011822
 30
0.0
 11
276.1913902980515
 21
155.0515509601182
 31
0.0
  0
LINE
  5
98D
330
A
100
AcDbEntity
  8
04
100
AcDbLine
 10
62.7913902980516
 20
63.65155096011822
 30
0.0
 11
276.1913902980515
 21
63.65155096011822
 31
0.0
  0
POLYLINE
  5
A7B
330
A
100
AcDbEntity
  8
DEFPOINTS
100
AcDb2dPolyline
 66
     1
 10
0.0
 20
0.0
 30
0.0
 70
     1
  0
VERTEX
  5
1C12
330
A7B
100
AcDbEntity
  8
DEFPOINTS
 48
2.0
100
AcDbVertex
100
AcDb2dVertex
 10
0.0
 20
0.0
 30
0.0
  0
VERTEX
  5
1C13
330
A7B
100
AcDbEntity
  8
DEFPOINTS
 48
2.0
100
AcDbVertex
100
AcDb2dVertex
 10
420.0
 20
0.0
 30
0.0
  0
VERTEX
  5
1C14
330
A7B
100
AcDbEntity
  8
DEFPOINTS
 48
2.0
100
AcDbVertex
100
AcDb2dVertex
 10
420.0
 20
594.0
 30
0.0
  0
VERTEX
  5
1C15
330
A7B
100
AcDbEntity
  8
DEFPOINTS
 48
2.0
100
AcDbVertex
100
AcDb2dVertex
 10
0.0
 20
594.0
 30
0.0
  0
SEQEND
  5
1C16
330
A7B
100
AcDbEntity
  8
DEFPOINTS
  0
DIMENSION
  5
A7F
330
A
100
AcDbEntity
  8
SUNPOU
100
AcDbDimension
  2
*D1
 10
238.6791021150709
 20
460.7437446846603
 30
0.0
 11
220.3457687817375
 21
456.2437446846603
 31
0.0
 70
   160
 53
180.0
  3
SUNPOU_2
100
AcDbAlignedDimension
 13
233.6791021150709
 23
436.0600404165992
 33
0.0
 14
238.6791021150709
 24
441.3100404165996
 34
0.0
100
AcDbRotatedDimension
  0
DIMENSION
  5
A99
330
A
100
AcDbEntity
  8
SUNPOU
100
AcDbDimension
  2
*D2
 10
270.6791021150709
 20
460.7437446846603
 30
0.0
 11
254.6791021150708
 21
456.2437446846603
 31
0.0
 70
   160
 53
180.0
  3
SUNPOU_2
100
AcDbAlignedDimension
 13
238.6791021150709
 23
441.3100404165996
 33
0.0
 14
270.6791021150709
 24
440.5600404165996
 34
0.0
100
AcDbRotatedDimension
  0
DIMENSION
  5
AA6
330
A
100
AcDbEntity
  8
SUNPOU
100
AcDbDimension
  2
*D3
 10
229.9594180127598
 20
349.5600404165996
 30
0.0
 11
225.4594180127597
 21
347.0600404165996
 31
0.0
 70
    32
  3
SUNPOU_2
100
AcDbAlignedDimension
 13
240.679102115071
 23
344.5600404165996
 33
0.0
 14
240.6791021150707
 24
349.5600404165996
 34
0.0
 50
90.0
100
AcDbRotatedDimension
  0
DIMENSION
  5
AB5
330
A
100
AcDbEntity
  8
SUNPOU
100
AcDbDimension
  2
*D4
 10
283.7174044009691
 20
363.5600404165996
 30
0.0
 11
279.217404400969
 21
356.5600404165996
 31
0.0
 70
    32
  3
SUNPOU_2
100
AcDbAlignedDimension
 13
268.6791021150709
 23
349.5600404165996
 33
0.0
 14
270.6791021150709
 24
363.5600404165996
 34
0.0
 50
90.0
100
AcDbRotatedDimension
  0
DIMENSION
  5
AC4
330
A
100
AcDbEntity
  8
SUNPOU
100
AcDbDimension
  2
*D5
 10
283.7174044009691
 20
442.5600404165996
 30
0.0
 11
279.217404400969
 21
435.5652153629305
 31
0.0
 70
    32
  3
SUNPOU_2
100
AcDbAlignedDimension
 13
270.6791021150709
 23
428.5703903092612
 33
0.0
 14
268.6791021150708
 24
442.5600404165996
 34
0.0
 50
90.0
100
AcDbRotatedDimension
  0
DIMENSION
  5
AD3
330
A
100
AcDbEntity
  8
SUNPOU
100
AcDbDimension
  2
*D6
 10
296.2362921543863
 20
442.5600404165996
 30
0.0
 11
291.7362921543861
 21
396.0600404165997
 31
0.0
 70
    32
  1
DW
  3
SUNPOU_2
100
AcDbAlignedDimension
 13
268.6791021150709
 23
349.5600404165996
 33
0.0
 14
268.6791021150709
 24
442.5600404165996
 34
0.0
 50
90.0
100
AcDbRotatedDimension
  0
DIMENSION
  5
B14
330
A
100
AcDbEntity
  8
SUNPOU
100
AcDbDimension
  2
*D7
 10
125.367978156752
 20
349.5600404165997
 30
0.0
 11
120.8679781567519
 21
362.893373749933
 31
0.0
 70
   160
  3
SUNPOU_2
100
AcDbAlignedDimension
 13
148.6791021150709
 23
346.5600404165996
 33
0.0
 14
134.6791021150709
 24
349.5600404165996
 34
0.0
 50
90.0
100
AcDbRotatedDimension
  0
DIMENSION
  5
B39
330
A
100
AcDbEntity
  8
SUNPOU
100
AcDbDimension
  2
*D8
 10
53.67915491696877
 20
220.3101920236333
 30
0.0
 11
49.17915491696875
 21
201.9768586902997
 31
0.0
 70
   160
  3
SUNPOU_2
100
AcDbAlignedDimension
 13
70.92952534681501
 23
215.310192023633
 33
0.0
 14
64.42952534681499
 24
220.3101920236333
 34
0.0
 50
90.0
100
AcDbRotatedDimension
  0
DIMENSION
  5
B48
330
A
100
AcDbEntity
  8
SUNPOU
100
AcDbDimension
  2
*D9
 10
53.67915491696878
 20
250.3101920236332
 30
0.0
 11
49.17915491696874
 21
235.3101920236333
 31
0.0
 70
    32
  3
SUNPOU_2
100
AcDbAlignedDimension
 13
64.42952534681499
 23
220.3101920236333
 33
0.0
 14
64.42952534681499
 24
250.3101920236332
 34
0.0
 50
90.0
100
AcDbRotatedDimension
  0
DIMENSION
  5
B60
330
A
100
AcDbEntity
  8
SUNPOU
100
AcDbDimension
  2
*D10
 10
148.9295253468148
 20
266.3995275124589
 30
0.0
 11
107.4295253468148
 21
261.8995275124589
 31
0.0
 70
   160
 53
180.0
  3
SUNPOU_2
100
AcDbAlignedDimension
 13
65.92952534681495
 23
250.3101920236334
 33
0.0
 14
148.9295253468148
 24
245.3101920236334
 34
0.0
100
AcDbRotatedDimension
  0
DIMENSION
  5
B6D
330
A
100
AcDbEntity
  8
SUNPOU
100
AcDbDimension
  2
*D11
 10
335.929525346815
 20
266.3995275124589
 30
0.0
 11
294.929525346815
 21
261.8995275124589
 31
0.0
 70
   160
 53
180.0
  3
SUNPOU_2
100
AcDbAlignedDimension
 13
253.929525346815
 23
245.3101920236334
 33
0.0
 14
335.929525346815
 24
252.3101920236339
 34
0.0
100
AcDbRotatedDimension
  0
DIMENSION
  5
B7A
330
A
100
AcDbEntity
  8
SUNPOU
100
AcDbDimension
  2
*D12
 10
343.929525346815
 20
266.3995275124589
 30
0.0
 11
339.9295253468149
 21
261.8995275124589
 31
0.0
 70
   160
 53
180.0
  3
SUNPOU_2
100
AcDbAlignedDimension
 13
335.929525346815
 23
252.3101920236339
 33
0.0
 14
343.929525346815
 24
247.0601920236334
 34
0.0
100
AcDbRotatedDimension
  0
DIMENSION
  5
B92
330
A
100
AcDbEntity
  8
SUNPOU
100
AcDbDimension
  2
*D13
 10
335.929525346815
 20
279.4121122599703
 30
0.0
 11
200.9295253468149
 21
274.9121122599703
 31
0.0
 70
   160
  1
DH
 53
180.0
  3
SUNPOU_2
100
AcDbAlignedDimension
 13
65.92952534681495
 23
250.3101920236334
 33
0.0
 14
335.929525346815
 24
252.3101920236339
 34
0.0
100
AcDbRotatedDimension
  0
DIMENSION
  5
B9F
330
A
100
AcDbEntity
  8
SUNPOU
100
AcDbDimension
  2
*D14
 10
360.929525346815
 20
279.4121122599703
 30
0.0
 11
348.429525346815
 21
274.9121122599703
 31
0.0
 70
   160
 53
180.0
  3
SUNPOU_2
100
AcDbAlignedDimension
 13
335.929525346815
 23
252.3101920236339
 33
0.0
 14
360.929525346815
 24
243.810192023634
 34
0.0
100
AcDbRotatedDimension
  0
LINE
  5
BB5
330
A
100
AcDbEntity
  8
03
100
AcDbLine
 10
65.92952534681487
 20
249.8101920236333
 30
0.0
 11
65.92952534681495
 21
252.3101920236335
 31
0.0
  0
DIMENSION
  5
C1E
330
A
100
AcDbEntity
  8
SUNPOU
100
AcDbDimension
  2
*D15
 10
51.02880577632788
 20
92.15155096011827
 30
0.0
 11
46.52880577632787
 21
86.15155096011829
 31
0.0
 70
    32
  3
SUNPOU_2_10
100
AcDbAlignedDimension
 13
59.64945797515909
 23
80.15155096011827
 33
0.0
 14
59.64945797515909
 24
92.15155096011827
 34
0.0
 50
90.0
100
AcDbRotatedDimension
  0
DIMENSION
  5
C2D
330
A
100
AcDbEntity
  8
SUNPOU
100
AcDbDimension
  2
*D16
 10
51.02880577632792
 20
138.5515509601181
 30
0.0
 11
46.5288057763279
 21
132.5515509601181
 31
0.0
 70
    32
  3
SUNPOU_2_10
100
AcDbAlignedDimension
 13
59.64945797515909
 23
126.5515509601181
 33
0.0
 14
59.64945797515909
 24
138.5515509601181
 34
0.0
 50
90.0
100
AcDbRotatedDimension
  0
DIMENSION
  5
C3C
330
A
100
AcDbEntity
  8
SUNPOU
100
AcDbDimension
  2
*D17
 10
85.9352483633588
 20
65.05155096011825
 30
0.0
 11
81.43524836335878
 21
76.67823210515712
 31
0.0
 70
   160
  3
SUNPOU_2_10
100
AcDbAlignedDimension
 13
85.9352483633588
 23
63.65155096011822
 33
0.0
 14
85.9352483633588
 24
65.05155096011825
 34
0.0
 50
90.0
100
AcDbRotatedDimension
  0
DIMENSION
  5
C56
330
A
100
AcDbEntity
  8
SUNPOU
100
AcDbDimension
  2
*D18
 10
85.93524836335886
 20
155.0515509601182
 30
0.0
 11
81.43524836335883
 21
142.757193846885
 31
0.0
 70
   160
  3
SUNPOU_2_10
100
AcDbAlignedDimension
 13
85.93524836335886
 23
153.6515509601182
 33
0.0
 14
85.93524836335886
 24
155.0515509601182
 34
0.0
 50
90.0
100
AcDbRotatedDimension
  0
DIMENSION
  5
C7B
330
A
100
AcDbEntity
  8
SUNPOU
100
AcDbDimension
  2
*D19
 10
293.3156408002247
 20
75.65155096011818
 30
0.0
 11
288.8156408002247
 21
69.65155096011826
 31
0.0
 70
    32
  3
SUNPOU_2_10
100
AcDbAlignedDimension
 13
276.9913902980515
 23
63.65155096011822
 33
0.0
 14
282.5440453141128
 24
75.6515509601182
 34
0.0
 50
90.0
100
AcDbRotatedDimension
  0
DIMENSION
  5
C8A
330
A
100
AcDbEntity
  8
SUNPOU
100
AcDbDimension
  2
*D20
 10
293.6987064794465
 20
155.0515509601182
 30
0.0
 11
289.1987064794464
 21
142.0515509601181
 31
0.0
 70
    32
  3
SUNPOU_2_10
100
AcDbAlignedDimension
 13
282.5440453141128
 23
129.0515509601181
 33
0.0
 14
276.9913902980515
 24
155.0515509601182
 34
0.0
 50
90.0
100
AcDbRotatedDimension
  0
DIMENSION
  5
C97
330
A
100
AcDbEntity
  8
SUNPOU
100
AcDbDimension
  2
*D21
 10
305.2060226608413
 20
155.0515509601182
 30
0.0
 11
300.7060226608412
 21
109.3515509601182
 31
0.0
 70
    32
  1
DW
  3
SUNPOU_2_10
100
AcDbAlignedDimension
 13
276.9913902980515
 23
63.65155096011822
 33
0.0
 14
276.9913902980515
 24
155.0515509601182
 34
0.0
 50
90.0
100
AcDbRotatedDimension
  0
DIMENSION
  5
CAD
330
A
100
AcDbEntity
  8
SUNPOU
100
AcDbDimension
  2
*D22
 10
71.09139029805167
 20
171.5941990063113
 30
0.0
 11
66.94139029805166
 21
167.0941990063113
 31
0.0
 70
   160
 53
180.0
  3
SUNPOU_2_10
100
AcDbAlignedDimension
 13
62.79139029805165
 23
155.0515509601182
 33
0.0
 14
71.09139029805167
 24
153.6515509601182
 34
0.0
100
AcDbRotatedDimension
  0
DIMENSION
  5
CBC
330
A
100
AcDbEntity
  8
SUNPOU
100
AcDbDimension
  2
*D23
 10
276.1913902980515
 20
183.4002954209746
 30
0.0
 11
169.4913902980514
 21
178.4002954209746
 31
0.0
 70
   160
 53
180.0
  3
SUNPOU_2_10
100
AcDbAlignedDimension
 13
62.79139029805165
 23
155.0515509601182
 33
0.0
 14
276.1913902980515
 24
155.0515509601182
 34
0.0
100
AcDbRotatedDimension
  0
DIMENSION
  5
CC9
330
A
100
AcDbEntity
  8
SUNPOU
100
AcDbDimension
  2
*D24
 10
276.9913902980515
 20
183.4002954209746
 30
0.0
 11
285.4809276497815
 21
178.9002954209748
 31
0.0
 70
   160
 53
180.0
  3
SUNPOU_2_10
100
AcDbAlignedDimension
 13
276.1913902980515
 23
155.0515509601182
 33
0.0
 14
276.9913902980515
 24
155.0515509601182
 34
0.0
100
AcDbRotatedDimension
  0
DIMENSION
  5
CD8
330
A
100
AcDbEntity
  8
SUNPOU
100
AcDbDimension
  2
*D25
 10
276.1913902980515
 20
171.594199006311
 30
0.0
 11
272.0913902980516
 21
167.0941990063113
 31
0.0
 70
   160
 53
180.0
  3
SUNPOU_2_10
100
AcDbAlignedDimension
 13
267.9913902980516
 23
153.6515509601182
 33
0.0
 14
276.1913902980515
 24
155.0515509601182
 34
0.0
100
AcDbRotatedDimension
  0
TEXT
  5
D92
330
A
100
AcDbEntity
  8
MOJI
100
AcDbText
 10
222.7891534187349
 20
74.93433684279302
 30
0.0
 40
6.0
  1
6mm,8mm,10mm,12mm
 50
90.0
 41
0.8
  7
0_80
 11
222.7891534187349
 21
74.93433684279302
 31
0.0
100
AcDbText
 73
     1
  0
TEXT
  5
D93
330
A
100
AcDbEntity
  8
MOJI
100
AcDbText
 10
213.9224867520689
 20
75.51823651398291
 30
0.0
 40
6.0
  1
強化ガラス
 50
90.0
 41
0.8
  7
0_80
 11
213.9224867520689
 21
75.51823651398291
 31
0.0
100
AcDbText
 73
     1
  0
MTEXT
  5
DBD
330
A
100
AcDbEntity
  8
MOJI
100
AcDbMText
 10
324.9261327114691
 20
112.0350886041519
 30
0.0
 40
6.0
 41
104.3011
 71
     5
 72
     1
  1
最大寸法 mm
  7
0_80
 11
0.0000000000000001
 21
1.0
 31
0.0
1001
ACAD
1000
MTEXTBEGIN
1070
    73
1070
     1
1070
    44
1040
1.0
1070
    74
1070
     0
1000
MTEXTEND
  0
LINE
  5
DBF
330
A
100
AcDbEntity
  8
SAISEN
100
AcDbLine
 10
369.9261327114693
 20
59.88456269216868
 30
0.0
 11
369.9261327114693
 21
164.1856145161353
 31
0.0
  0
LINE
  5
DC0
330
A
100
AcDbEntity
  8
SAISEN
100
AcDbLine
 10
339.9261327114691
 20
164.1856145161353
 30
0.0
 11
339.9261327114691
 21
59.88456269216868
 31
0.0
  0
LINE
  5
DC1
330
A
100
AcDbEntity
  8
SAISEN
100
AcDbLine
 10
349.9261327114693
 20
59.88456269216868
 30
0.0
 11
349.9261327114693
 21
164.1856145161353
 31
0.0
  0
LINE
  5
DC2
330
A
100
AcDbEntity
  8
SAISEN
100
AcDbLine
 10
359.9261327114693
 20
59.88456269216868
 30
0.0
 11
359.9261327114693
 21
164.1856145161353
 31
0.0
  0
MTEXT
  5
DC5
330
A
100
AcDbEntity
  8
MOJI
100
AcDbMText
 10
334.9261327114691
 20
79.88456269216868
 30
0.0
 40
6.0
 41
40.0
 71
     5
 72
     1
  1
ガラス厚mm
  7
0_80
 11
0.0000000000000001
 21
1.0
 31
0.0
1001
ACAD
1000
MTEXTBEGIN
1070
    73
1070
     1
1070
    44
1040
1.0
1070
    74
1070
     0
1000
MTEXTEND
  0
LINE
  5
DC6
330
A
100
AcDbEntity
  8
SAISEN
100
AcDbLine
 10
329.9261327114691
 20
99.88456269216872
 30
0.0
 11
379.9261327114693
 21
99.88456269216872
 31
0.0
  0
MTEXT
  5
DC7
330
A
100
AcDbEntity
  8
MOJI
100
AcDbMText
 10
364.9261327114693
 20
79.88456269216868
 30
0.0
 40
6.0
 41
40.0
 71
     5
 72
     1
  1
10
  7
0_80
 11
0.0000000000000001
 21
1.0
 31
0.0
1001
ACAD
1000
MTEXTBEGIN
1070
    73
1070
     1
1070
    44
1040
1.0
1070
    74
1070
     0
1000
MTEXTEND
  0
MTEXT
  5
DC8
330
A
100
AcDbEntity
  8
MOJI
100
AcDbMText
 10
374.9261327114693
 20
79.88456269216868
 30
0.0
 40
6.0
 41
40.0
 71
     5
 72
     1
  1
12
  7
0_80
 11
0.0000000000000001
 21
1.0
 31
0.0
1001
ACAD
1000
MTEXTBEGIN
1070
    73
1070
     1
1070
    44
1040
1.0
1070
    74
1070
     0
1000
MTEXTEND
  0
MTEXT
  5
DC9
330
A
100
AcDbEntity
  8
MOJI
100
AcDbMText
 10
334.9261327114691
 20
132.0350886041518
 30
0.0
 40
6.0
 41
64.30105182396665
 71
     5
 72
     1
  1
 DW×DH
  7
0_80
 11
0.0000000000000001
 21
1.0
 31
0.0
1001
ACAD
1000
MTEXTBEGIN
1070
    73
1070
     1
1070
    44
1040
1.0
1070
    74
1070
     0
1000
MTEXTEND
  0
MTEXT
  5
DCA
330
A
100
AcDbEntity
  8
MOJI
100
AcDbMText
 10
364.9261327114693
 20
132.0350886041518
 30
0.0
 40
6.0
 41
64.3011
 71
     5
 72
     1
  1
1200×2500
  7
0_80
 11
0.0000000000000001
 21
1.0
 31
0.0
1001
ACAD
1000
MTEXTBEGIN
1070
    73
1070
     1
1070
    44
1040
1.0
1070
    74
1070
     0
1000
MTEXTEND
  0
MTEXT
  5
DCB
330
A
100
AcDbEntity
  8
MOJI
100
AcDbMText
 10
344.9261327114693
 20
132.0350886041518
 30
0.0
 40
6.0
 41
64.3011
 71
     5
 72
     1
  1
1000×2200
  7
0_80
 11
0.0000000000000001
 21
1.0
 31
0.0
1001
ACAD
1000
MTEXTBEGIN
1070
    73
1070
     1
1070
    44
1040
1.0
1070
    74
1070
     0
1000
MTEXTEND
  0
MTEXT
  5
DCC
330
A
100
AcDbEntity
  8
MOJI
100
AcDbMText
 10
354.9261327114693
 20
132.0350886041518
 30
0.0
 40
6.0
 41
64.3011
 71
     5
 72
     1
  1
1200×2500
  7
0_80
 11
0.0000000000000001
 21
1.0
 31
0.0
1001
ACAD
1000
MTEXTBEGIN
1070
    73
1070
     1
1070
    44
1040
1.0
1070
    74
1070
     0
1000
MTEXTEND
  0
MTEXT
  5
DCD
330
A
100
AcDbEntity
  8
MOJI
100
AcDbMText
 10
374.9261327114693
 20
132.0350886041518
 30
0.0
 40
6.0
 41
64.3011
 71
     5
 72
     1
  1
1200×2500
  7
0_80
 11
0.0000000000000001
 21
1.0
 31
0.0
1001
ACAD
1000
MTEXTBEGIN
1070
    73
1070
     1
1070
    44
1040
1.0
1070
    74
1070
     0
1000
MTEXTEND
  0
MTEXT
  5
DD1
330
A
100
AcDbEntity
  8
MOJI
100
AcDbMText
 10
354.9261327114693
 20
79.88456269216868
 30
0.0
 40
6.0
 41
40.0
 71
     5
 72
     1
  1
8
  7
0_80
 11
0.0000000000000001
 21
1.0
 31
0.0
1001
ACAD
1000
MTEXTBEGIN
1070
    73
1070
     1
1070
    44
1040
1.0
1070
    74
1070
     0
1000
MTEXTEND
  0
MTEXT
  5
DD2
330
A
100
AcDbEntity
  8
MOJI
100
AcDbMText
 10
344.9261327114693
 20
79.88456269216868
 30
0.0
 40
6.0
 41
40.0
 71
     5
 72
     1
  1
6
  7
0_80
 11
0.0000000000000001
 21
1.0
 31
0.0
1001
ACAD
1000
MTEXTBEGIN
1070
    73
1070
     1
1070
    44
1040
1.0
1070
    74
1070
     0
1000
MTEXTEND
  0
POLYLINE
  5
DDA
330
A
100
AcDbEntity
  8
SAISEN
100
AcDb2dPolyline
 66
     1
 10
0.0
 20
0.0
 30
0.0
 70
     1
  0
VERTEX
  5
1C17
330
DDA
100
AcDbEntity
  8
SAISEN
 48
2.0
100
AcDbVertex
100
AcDb2dVertex
 10
53.14342688330871
 20
330.3516986706056
 30
0.0
  0
VERTEX
  5
1C18
330
DDA
100
AcDbEntity
  8
SAISEN
 48
2.0
100
AcDbVertex
100
AcDb2dVertex
 10
63.14342688330871
 20
330.3516986706056
 30
0.0
  0
VERTEX
  5
1C19
330
DDA
100
AcDbEntity
  8
SAISEN
 48
2.0
100
AcDbVertex
100
AcDb2dVertex
 10
63.14342688330871
 20
390.3516986706056
 30
0.0
  0
VERTEX
  5
1C1A
330
DDA
100
AcDbEntity
  8
SAISEN
 48
2.0
100
AcDbVertex
100
AcDb2dVertex
 10
53.14342688330875
 20
390.3516986706056
 30
0.0
  0
SEQEND
  5
1C1B
330
DDA
100
AcDbEntity
  8
SAISEN
  0
MTEXT
  5
DDB
330
A
100
AcDbEntity
  8
MOJI
100
AcDbMText
 10
58.14342688330871
 20
360.3516986706056
 30
0.0
 40
6.0
 41
60.0
 71
     5
 72
     1
  1
片引き　戸当たり部
  7
SUNPOU
 11
0.0000000000000001
 21
1.0
 31
0.0
1001
ACAD
1000
MTEXTBEGIN
1070
    73
1070
     1
1070
    44
1040
1.0
1070
    74
1070
     0
1000
MTEXTEND
  0
MTEXT
  5
DE2
330
A
100
AcDbEntity
  8
MOJI
100
AcDbMText
 10
209.5909896602658
 20
347.3236336779911
 30
0.0
 40
6.0
 41
60.0
 71
     5
 72
     1
  1
引分け　戸当たり部
  7
SUNPOU
 11
0.0000000000000001
 21
1.0
 31
0.0
1001
ACAD
1000
MTEXTBEGIN
1070
    73
1070
     1
1070
    44
1040
1.0
1070
    74
1070
     0
1000
MTEXTEND
  0
POLYLINE
  5
DE3
330
A
100
AcDbEntity
  8
SAISEN
100
AcDb2dPolyline
 66
     1
 10
0.0
 20
0.0
 30
0.0
 70
     1
  0
VERTEX
  5
1C1C
330
DE3
100
AcDbEntity
  8
SAISEN
 48
2.0
100
AcDbVertex
100
AcDb2dVertex
 10
204.5909896602658
 20
317.3236336779911
 30
0.0
  0
VERTEX
  5
1C1D
330
DE3
100
AcDbEntity
  8
SAISEN
 48
2.0
100
AcDbVertex
100
AcDb2dVertex
 10
214.5909896602658
 20
317.3236336779911
 30
0.0
  0
VERTEX
  5
1C1E
330
DE3
100
AcDbEntity
  8
SAISEN
 48
2.0
100
AcDbVertex
100
AcDb2dVertex
 10
214.5909896602658
 20
377.323633677991
 30
0.0
  0
VERTEX
  5
1C1F
330
DE3
100
AcDbEntity
  8
SAISEN
 48
2.0
100
AcDbVertex
100
AcDb2dVertex
 10
204.5909896602659
 20
377.323633677991
 30
0.0
  0
SEQEND
  5
1C20
330
DE3
100
AcDbEntity
  8
SAISEN
  0
LINE
  5
DF3
330
A
100
AcDbEntity
  8
SAISEN
100
AcDbLine
 10
348.8601122681823
 20
538.5480433741471
 30
0.0
 11
348.8601122681823
 21
298.5480433741471
 31
0.0
  0
MTEXT
  5
DF5
330
A
100
AcDbEntity
  8
MOJI
100
AcDbMText
 10
346.8601122681823
 20
298.5480433741471
 30
0.0
 40
6.0
 41
40.0
 71
     7
 72
     1
  1
 ガラス 色
  7
0_80
 11
0.0000000000000003
 21
1.0
 31
0.0
1001
ACAD
1000
MTEXTBEGIN
1070
    73
1070
     1
1070
    44
1040
1.0
1070
    74
1070
     0
1000
MTEXTEND
  0
MTEXT
  5
DFE
330
A
100
AcDbEntity
  8
MOJI
100
AcDbMText
 10
356.8601122681823
 20
298.5480433741471
 30
0.0
 40
6.0
 41
40.0
 71
     7
 72
     1
  1
 フレーム 色
  7
0_80
 11
0.0000000000000003
 21
1.0
 31
0.0
1001
ACAD
1000
MTEXTBEGIN
1070
    73
1070
     1
1070
    44
1040
1.0
1070
    74
1070
     0
1000
MTEXTEND
  0
MTEXT
  5
E05
330
A
100
AcDbEntity
  8
MOJI
100
AcDbMText
 10
348.8601122681823
 20
338.5480433741471
 30
0.0
 40
7.0
 41
175.0
 71
     7
 72
     1
  1
　透明,ブロンズ,ブルー,グレー
  7
0_80
 11
0.0000000000000001
 21
1.0
 31
0.0
1001
ACAD
1000
MTEXTBEGIN
1070
    73
1070
     1
1070
    44
1040
1.0
1070
    74
1070
     0
1000
MTEXTEND
  0
MTEXT
  5
E06
330
A
100
AcDbEntity
  8
MOJI
100
AcDbMText
 10
358.8601122681823
 20
338.5480433741471
 30
0.0
 40
7.0
 41
200.0
 71
     7
 72
     1
  1
　シルバー,ステン,ブロンズ,ホワイト,ブラック
  7
0_80
 11
0.0000000000000001
 21
1.0
 31
0.0
1001
ACAD
1000
MTEXTBEGIN
1070
    73
1070
     1
1070
    44
1040
1.0
1070
    74
1070
     0
1000
MTEXTEND
  0
POLYLINE
  5
E07
330
A
100
AcDbEntity
  8
SAISEN
100
AcDb2dPolyline
 66
     1
 10
0.0
 20
0.0
 30
0.0
 70
     1
  0
VERTEX
  5
1C21
330
E07
100
AcDbEntity
  8
SAISEN
 48
2.0
100
AcDbVertex
100
AcDb2dVertex
 10
338.8601122681823
 20
298.5480433741471
 30
0.0
  0
VERTEX
  5
1C22
330
E07
100
AcDbEntity
  8
SAISEN
 48
2.0
100
AcDbVertex
100
AcDb2dVertex
 10
358.8601122681825
 20
298.5480433741471
 30
0.0
  0
VERTEX
  5
1C23
330
E07
100
AcDbEntity
  8
SAISEN
 48
2.0
100
AcDbVertex
100
AcDb2dVertex
 10
358.8601122681825
 20
538.5480433741471
 30
0.0
  0
VERTEX
  5
1C24
330
E07
100
AcDbEntity
  8
SAISEN
 48
2.0
100
AcDbVertex
100
AcDb2dVertex
 10
338.8601122681823
 20
538.5480433741471
 30
0.0
  0
SEQEND
  5
1C25
330
E07
100
AcDbEntity
  8
SAISEN
  0
POLYLINE
  5
E08
330
A
100
AcDbEntity
  8
SAISEN
100
AcDb2dPolyline
 66
     1
 10
0.0
 20
0.0
 30
0.0
 70
     1
  0
VERTEX
  5
1C26
330
E08
100
AcDbEntity
  8
SAISEN
 48
2.0
100
AcDbVertex
100
AcDb2dVertex
 10
329.9261327114691
 20
59.88456269216868
 30
0.0
  0
VERTEX
  5
1C27
330
E08
100
AcDbEntity
  8
SAISEN
 48
2.0
100
AcDbVertex
100
AcDb2dVertex
 10
379.9261327114693
 20
59.88456269216868
 30
0.0
  0
VERTEX
  5
1C28
330
E08
100
AcDbEntity
  8
SAISEN
 48
2.0
100
AcDbVertex
100
AcDb2dVertex
 10
379.9261327114693
 20
164.1856145161353
 30
0.0
  0
VERTEX
  5
1C29
330
E08
100
AcDbEntity
  8
SAISEN
 48
2.0
100
AcDbVertex
100
AcDb2dVertex
 10
329.9261327114691
 20
164.1856145161353
 30
0.0
  0
SEQEND
  5
1C2A
330
E08
100
AcDbEntity
  8
SAISEN
  0
LINE
  5
109C
330
A
100
AcDbEntity
  8
SAISEN
100
AcDbLine
 10
338.8601122681823
 20
338.5480433741471
 30
0.0
 11
358.8601122681825
 21
338.5480433741471
 31
0.0
  0
ARC
  5
10C7
330
A
100
AcDbEntity
  8
06
100
AcDbCircle
 10
246.8584575349495
 20
241.8101920236335
 30
0.0
 40
7.5
100
AcDbArc
 50
340.5287793655086
 51
19.47122063449142
  0
ARC
  5
10C8
330
A
100
AcDbEntity
  8
06
100
AcDbCircle
 10
246.8584575349495
 20
230.8101920236335
 30
0.0
 40
7.5
100
AcDbArc
 50
340.5287793655086
 51
19.47122063449142
  0
ARC
  5
1584
330
A
100
AcDbEntity
  8
06
100
AcDbCircle
 10
156.0005931586803
 20
241.8101920236335
 30
0.0
 40
7.5
100
AcDbArc
 50
160.5287793655085
 51
199.4712206344914
  0
ARC
  5
1585
330
A
100
AcDbEntity
  8
06
100
AcDbCircle
 10
156.0005931586803
 20
230.8101920236335
 30
0.0
 40
7.5
100
AcDbArc
 50
160.5287793655085
 51
199.4712206344914
  0
LINE
  5
15BA
330
A
100
AcDbEntity
  8
03
100
AcDbLine
 10
253.929525346815
 20
244.3101920236335
 30
0.0
 11
199.5759537423199
 21
244.3101920236335
 31
0.0
  0
LINE
  5
15BB
330
A
100
AcDbEntity
  8
03
100
AcDbLine
 10
253.929525346815
 20
228.3101920236334
 30
0.0
 11
199.5759537423199
 21
228.3101920236334
 31
0.0
  0
LINE
  5
15BC
330
A
100
AcDbEntity
  8
03
100
AcDbLine
 10
148.9295253468148
 20
244.3101920236335
 30
0.0
 11
194.5759537423199
 21
244.3101920236335
 31
0.0
  0
LINE
  5
15BD
330
A
100
AcDbEntity
  8
03
100
AcDbLine
 10
148.9295253468148
 20
228.310192023633
 30
0.0
 11
194.5759537423199
 21
228.3101920236333
 31
0.0
  0
LINE
  5
15E4
330
A
100
AcDbEntity
  8
04
100
AcDbLine
 10
148.9295253468148
 20
244.3101920236334
 30
0.0
 11
121.9295253468148
 21
244.3101920236334
 31
0.0
  0
LINE
  5
15E5
330
A
100
AcDbEntity
  8
04
100
AcDbLine
 10
121.9295253468148
 20
244.3101920236334
 30
0.0
 11
121.9295253468148
 21
228.3101920236334
 31
0.0
  0
LINE
  5
15E6
330
A
100
AcDbEntity
  8
04
100
AcDbLine
 10
148.9295253468148
 20
228.3101920236334
 30
0.0
 11
121.929525346815
 21
228.3101920236334
 31
0.0
  0
LINE
  5
1625
330
A
100
AcDbEntity
  8
04
100
AcDbLine
 10
253.929525346815
 20
244.3101920236335
 30
0.0
 11
280.929525346815
 21
244.3101920236335
 31
0.0
  0
LINE
  5
1626
330
A
100
AcDbEntity
  8
04
100
AcDbLine
 10
280.929525346815
 20
244.3101920236335
 30
0.0
 11
280.929525346815
 21
228.3101920236334
 31
0.0
  0
LINE
  5
1627
330
A
100
AcDbEntity
  8
04
100
AcDbLine
 10
253.929525346815
 20
228.3101920236334
 30
0.0
 11
280.929525346815
 21
228.3101920236334
 31
0.0
  0
CIRCLE
  5
1696
330
A
100
AcDbEntity
  8
SAISEN
100
AcDbCircle
 10
391.0976380784321
 20
49.5430264122316
 30
0.0
 40
5.0
  0
TEXT
  5
1697
330
A
100
AcDbEntity
  8
MOJI
100
AcDbText
 10
388.0488190392161
 20
45.27151320611586
 30
0.0
 40
8.0
  1
Ｓ
 41
0.8
  7
0_80
 11
388.0488190392161
 21
53.27151320611585
 31
0.0
100
AcDbText
 73
     3
  0
LINE
  5
16CF
330
A
100
AcDbEntity
  8
04
100
AcDbLine
 10
104.6791021150708
 20
533.0600404165992
 30
0.0
 11
104.6791021150709
 21
529.5600404165996
 31
0.0
  0
LINE
  5
16D0
330
A
100
AcDbEntity
  8
04
100
AcDbLine
 10
97.67910211507093
 20
529.5600404166
 30
0.0
 11
97.67910211507093
 21
528.5600404165997
 31
0.0
  0
LINE
  5
16D1
330
A
100
AcDbEntity
  8
04
100
AcDbLine
 10
118.679102115071
 20
533.0600404165992
 30
0.0
 11
118.6791021150709
 21
529.5600404166
 31
0.0
  0
LINE
  5
16D2
330
A
100
AcDbEntity
  8
04
100
AcDbLine
 10
125.6791021150709
 20
529.5600404166
 30
0.0
 11
125.6791021150709
 21
528.5600404165997
 31
0.0
  0
LINE
  5
16D3
330
A
100
AcDbEntity
  8
04
100
AcDbLine
 10
97.67910211507087
 20
443.5600404165996
 30
0.0
 11
97.67910211507087
 21
442.5600404165996
 31
0.0
  0
LINE
  5
16D4
330
A
100
AcDbEntity
  8
04
100
AcDbLine
 10
104.6791021150705
 20
442.5600404165996
 30
0.0
 11
104.6791021150705
 21
439.0600404165993
 31
0.0
  0
LINE
  5
16D5
330
A
100
AcDbEntity
  8
04
100
AcDbLine
 10
118.6791021150708
 20
442.5600404165991
 30
0.0
 11
118.6791021150708
 21
439.0600404165993
 31
0.0
  0
LINE
  5
16D6
330
A
100
AcDbEntity
  8
04
100
AcDbLine
 10
125.6791021150708
 20
442.5600404165996
 30
0.0
 11
125.6791021150708
 21
443.5600404165996
 31
0.0
  0
LINE
  5
16D7
330
A
100
AcDbEntity
  8
04
100
AcDbLine
 10
134.6791021150709
 20
429.5600404165996
 30
0.0
 11
134.6791021150709
 21
428.5600404165996
 31
0.0
  0
LINE
  5
16D8
330
A
100
AcDbEntity
  8
04
100
AcDbLine
 10
141.6791021150709
 20
429.5600404165996
 30
0.0
 11
141.6791021150709
 21
433.0600404165996
 31
0.0
  0
LINE
  5
16D9
330
A
100
AcDbEntity
  8
04
100
AcDbLine
 10
155.6791021150709
 20
433.0600404165996
 30
0.0
 11
155.6791021150709
 21
429.5600404165996
 31
0.0
  0
LINE
  5
16DA
330
A
100
AcDbEntity
  8
04
100
AcDbLine
 10
162.6791021150709
 20
429.5600404165996
 30
0.0
 11
162.6791021150709
 21
428.5600404165996
 31
0.0
  0
LINE
  5
16DB
330
A
100
AcDbEntity
  8
04
100
AcDbLine
 10
134.6791021150709
 20
363.5600404165996
 30
0.0
 11
134.6791021150709
 21
362.5600404165996
 31
0.0
  0
LINE
  5
16DC
330
A
100
AcDbEntity
  8
04
100
AcDbLine
 10
141.6791021150705
 20
362.5600404165996
 30
0.0
 11
141.6791021150705
 21
359.0600404165996
 31
0.0
  0
LINE
  5
16DD
330
A
100
AcDbEntity
  8
04
100
AcDbLine
 10
155.6791021150708
 20
362.5600404165996
 30
0.0
 11
155.6791021150708
 21
359.0600404165996
 31
0.0
  0
LINE
  5
16DE
330
A
100
AcDbEntity
  8
04
100
AcDbLine
 10
162.6791021150708
 20
363.5600404165993
 30
0.0
 11
162.6791021150708
 21
362.5600404165996
 31
0.0
  0
LINE
  5
16F5
330
A
100
AcDbEntity
  8
04
100
AcDbLine
 10
143.1791021150705
 20
349.5600404165996
 30
0.0
 11
143.1791021150705
 21
351.0600404165996
 31
0.0
  0
LINE
  5
16F6
330
A
100
AcDbEntity
  8
04
100
AcDbLine
 10
143.1791021150705
 20
351.0600404165996
 30
0.0
 11
141.1791021150705
 21
351.0600404165996
 31
0.0
  0
LINE
  5
16F7
330
A
100
AcDbEntity
  8
04
100
AcDbLine
 10
141.1791021150705
 20
351.0600404165996
 30
0.0
 11
141.1791021150705
 21
353.0600404165996
 31
0.0
  0
LINE
  5
16F8
330
A
100
AcDbEntity
  8
04
100
AcDbLine
 10
154.1791021150705
 20
349.5600404165996
 30
0.0
 11
154.1791021150705
 21
351.0600404165996
 31
0.0
  0
LINE
  5
16F9
330
A
100
AcDbEntity
  8
04
100
AcDbLine
 10
154.1791021150705
 20
351.0600404165996
 30
0.0
 11
156.1791021150705
 21
351.0600404165996
 31
0.0
  0
LINE
  5
16FA
330
A
100
AcDbEntity
  8
04
100
AcDbLine
 10
156.1791021150705
 20
351.0600404165996
 30
0.0
 11
156.1791021150705
 21
353.0600404165996
 31
0.0
  0
LINE
  5
16FB
330
A
100
AcDbEntity
  8
04
100
AcDbLine
 10
156.1791021150705
 20
353.0600404165996
 30
0.0
 11
154.1791021150705
 21
353.0600404165996
 31
0.0
  0
LINE
  5
16FC
330
A
100
AcDbEntity
  8
04
100
AcDbLine
 10
143.1791021150705
 20
353.0600404165996
 30
0.0
 11
141.1791021150705
 21
353.0600404165996
 31
0.0
  0
LINE
  5
16FD
330
A
100
AcDbEntity
  8
04
100
AcDbLine
 10
143.1791021150705
 20
353.0600404165996
 30
0.0
 11
143.1791021150705
 21
353.5600404165996
 31
0.0
  0
LINE
  5
16FE
330
A
100
AcDbEntity
  8
04
100
AcDbLine
 10
154.1791021150705
 20
353.0600404165996
 30
0.0
 11
154.1791021150705
 21
353.5600404165996
 31
0.0
  0
LINE
  5
16FF
330
A
100
AcDbEntity
  8
04
100
AcDbLine
 10
154.1791021150705
 20
353.5600404165996
 30
0.0
 11
150.6791021150705
 21
353.5600404165996
 31
0.0
  0
LINE
  5
1700
330
A
100
AcDbEntity
  8
04
100
AcDbLine
 10
146.6791021150705
 20
353.5600404165996
 30
0.0
 11
143.1791021150705
 21
353.5600404165996
 31
0.0
  0
LINE
  5
1701
330
A
100
AcDbEntity
  8
04
100
AcDbLine
 10
146.6791021150705
 20
353.5600404165996
 30
0.0
 11
147.1791021150707
 21
353.0600404165996
 31
0.0
  0
LINE
  5
1702
330
A
100
AcDbEntity
  8
04
100
AcDbLine
 10
150.6791021150705
 20
353.5600404165996
 30
0.0
 11
150.1791021150705
 21
353.0600404165996
 31
0.0
  0
LINE
  5
1703
330
A
100
AcDbEntity
  8
04
100
AcDbLine
 10
147.1791021150707
 20
353.0600404165996
 30
0.0
 11
148.3791021150705
 21
353.0600404165996
 31
0.0
  0
LINE
  5
1704
330
A
100
AcDbEntity
  8
04
100
AcDbLine
 10
148.980792401125
 20
353.0600404165996
 30
0.0
 11
150.1791021150705
 21
353.0600404165996
 31
0.0
  0
LINE
  5
1705
330
A
100
AcDbEntity
  8
04
100
AcDbLine
 10
148.3791021150705
 20
353.0600404165996
 30
0.0
 11
148.6791021150705
 21
353.3600404165993
 31
0.0
  0
LINE
  5
1706
330
A
100
AcDbEntity
  8
04
100
AcDbLine
 10
148.6791021150705
 20
353.3600404165993
 30
0.0
 11
148.9791021150708
 21
353.0600404165996
 31
0.0
  0
LINE
  5
1724
330
A
100
AcDbEntity
  8
04
100
AcDbLine
 10
106.1791021150707
 20
429.5600404165996
 30
0.0
 11
106.1791021150707
 21
431.0600404165996
 31
0.0
  0
LINE
  5
1725
330
A
100
AcDbEntity
  8
04
100
AcDbLine
 10
106.1791021150707
 20
431.0600404165996
 30
0.0
 11
104.1791021150707
 21
431.0600404165996
 31
0.0
  0
LINE
  5
1726
330
A
100
AcDbEntity
  8
04
100
AcDbLine
 10
104.1791021150707
 20
431.0600404165996
 30
0.0
 11
104.1791021150707
 21
433.0600404165996
 31
0.0
  0
LINE
  5
1727
330
A
100
AcDbEntity
  8
04
100
AcDbLine
 10
117.1791021150709
 20
429.5600404165991
 30
0.0
 11
117.1791021150709
 21
431.0600404165992
 31
0.0
  0
LINE
  5
1728
330
A
100
AcDbEntity
  8
04
100
AcDbLine
 10
117.1791021150709
 20
431.0600404165992
 30
0.0
 11
119.1791021150709
 21
431.0600404165992
 31
0.0
  0
LINE
  5
1729
330
A
100
AcDbEntity
  8
04
100
AcDbLine
 10
119.1791021150709
 20
431.0600404165992
 30
0.0
 11
119.1791021150709
 21
433.060040416599
 31
0.0
  0
LINE
  5
172A
330
A
100
AcDbEntity
  8
04
100
AcDbLine
 10
119.1791021150709
 20
433.060040416599
 30
0.0
 11
117.1791021150709
 21
433.060040416599
 31
0.0
  0
LINE
  5
172B
330
A
100
AcDbEntity
  8
04
100
AcDbLine
 10
106.1791021150707
 20
433.0600404165996
 30
0.0
 11
104.1791021150707
 21
433.0600404165996
 31
0.0
  0
LINE
  5
172C
330
A
100
AcDbEntity
  8
04
100
AcDbLine
 10
106.1791021150707
 20
433.0600404165996
 30
0.0
 11
106.1791021150707
 21
433.5600404165996
 31
0.0
  0
LINE
  5
172D
330
A
100
AcDbEntity
  8
04
100
AcDbLine
 10
117.1791021150709
 20
433.060040416599
 30
0.0
 11
117.1791021150709
 21
433.5600404165991
 31
0.0
  0
LINE
  5
172E
330
A
100
AcDbEntity
  8
04
100
AcDbLine
 10
117.1791021150709
 20
433.5600404165991
 30
0.0
 11
113.6791021150708
 21
433.5600404165991
 31
0.0
  0
LINE
  5
172F
330
A
100
AcDbEntity
  8
04
100
AcDbLine
 10
109.6791021150707
 20
433.5600404165996
 30
0.0
 11
106.1791021150707
 21
433.5600404165996
 31
0.0
  0
LINE
  5
1730
330
A
100
AcDbEntity
  8
04
100
AcDbLine
 10
109.6791021150707
 20
433.5600404165996
 30
0.0
 11
110.1791021150707
 21
433.060040416599
 31
0.0
  0
LINE
  5
1731
330
A
100
AcDbEntity
  8
04
100
AcDbLine
 10
113.6791021150708
 20
433.5600404165991
 30
0.0
 11
113.1791021150708
 21
433.060040416599
 31
0.0
  0
LINE
  5
1732
330
A
100
AcDbEntity
  8
04
100
AcDbLine
 10
110.1791021150707
 20
433.060040416599
 30
0.0
 11
111.3791021150708
 21
433.060040416599
 31
0.0
  0
LINE
  5
1733
330
A
100
AcDbEntity
  8
04
100
AcDbLine
 10
111.9791021150705
 20
433.060040416599
 30
0.0
 11
113.1791021150708
 21
433.060040416599
 31
0.0
  0
LINE
  5
1734
330
A
100
AcDbEntity
  8
04
100
AcDbLine
 10
111.3791021150708
 20
433.060040416599
 30
0.0
 11
111.6791021150707
 21
433.3600404165993
 31
0.0
  0
LINE
  5
1735
330
A
100
AcDbEntity
  8
04
100
AcDbLine
 10
111.6791021150707
 20
433.3600404165993
 30
0.0
 11
111.9791021150705
 21
433.060040416599
 31
0.0
  0
LINE
  5
1736
330
A
100
AcDbEntity
  8
04
100
AcDbLine
 10
135.1791021150708
 20
433.8100404165992
 30
0.0
 11
132.6791021150709
 21
433.8100404165992
 31
0.0
  0
LINE
  5
1737
330
A
100
AcDbEntity
  8
04
100
AcDbLine
 10
135.1791021150708
 20
438.3100404165996
 30
0.0
 11
132.6791021150709
 21
438.3100404165996
 31
0.0
  0
LINE
  5
1738
330
A
100
AcDbEntity
  8
04
100
AcDbLine
 10
137.4791021150707
 20
431.7600404165995
 30
0.0
 11
137.4791021150707
 21
440.3600404165993
 31
0.0
  0
LINE
  5
1739
330
A
100
AcDbEntity
  8
04
100
AcDbLine
 10
137.4791021150707
 20
431.7600404165995
 30
0.0
 11
135.1791021150708
 21
431.7600404165995
 31
0.0
  0
LINE
  5
173A
330
A
100
AcDbEntity
  8
04
100
AcDbLine
 10
137.4791021150707
 20
440.3600404165993
 30
0.0
 11
135.1791021150708
 21
440.3600404165993
 31
0.0
  0
LINE
  5
173B
330
A
100
AcDbEntity
  8
04
100
AcDbLine
 10
135.1791021150708
 20
433.8100404165992
 30
0.0
 11
135.1791021150708
 21
431.7600404165995
 31
0.0
  0
LINE
  5
173C
330
A
100
AcDbEntity
  8
04
100
AcDbLine
 10
135.1791021150708
 20
438.3100404165996
 30
0.0
 11
135.1791021150708
 21
440.3600404165993
 31
0.0
  0
LINE
  5
1748
330
A
100
AcDbEntity
  8
04
100
AcDbLine
 10
241.1791021150708
 20
433.8100404166038
 30
0.0
 11
238.6791021150709
 21
433.8100404166038
 31
0.0
  0
LINE
  5
1749
330
A
100
AcDbEntity
  8
04
100
AcDbLine
 10
243.4791021150708
 20
431.7600404166041
 30
0.0
 11
243.4791021150708
 21
440.360040416604
 31
0.0
  0
LINE
  5
174A
330
A
100
AcDbEntity
  8
04
100
AcDbLine
 10
243.4791021150708
 20
431.7600404166041
 30
0.0
 11
241.1791021150708
 21
431.7600404166041
 31
0.0
  0
LINE
  5
174B
330
A
100
AcDbEntity
  8
04
100
AcDbLine
 10
243.4791021150708
 20
440.360040416604
 30
0.0
 11
241.1791021150708
 21
440.360040416604
 31
0.0
  0
LINE
  5
174C
330
A
100
AcDbEntity
  8
04
100
AcDbLine
 10
241.1791021150708
 20
433.8100404166038
 30
0.0
 11
241.1791021150708
 21
431.7600404166041
 31
0.0
  0
LINE
  5
174D
330
A
100
AcDbEntity
  8
04
100
AcDbLine
 10
241.1791021150708
 20
438.3100404166041
 30
0.0
 11
238.6791021150709
 21
438.3100404166041
 31
0.0
  0
LINE
  5
174E
330
A
100
AcDbEntity
  8
04
100
AcDbLine
 10
241.1791021150708
 20
438.3100404166041
 30
0.0
 11
241.1791021150708
 21
440.360040416604
 31
0.0
  0
LINE
  5
1777
330
A
100
AcDbEntity
  8
04
100
AcDbLine
 10
249.1791021150707
 20
349.5600404165996
 30
0.0
 11
249.1791021150707
 21
351.0600404165996
 31
0.0
  0
LINE
  5
1778
330
A
100
AcDbEntity
  8
04
100
AcDbLine
 10
249.1791021150707
 20
351.0600404165996
 30
0.0
 11
247.1791021150707
 21
351.0600404165996
 31
0.0
  0
LINE
  5
1779
330
A
100
AcDbEntity
  8
04
100
AcDbLine
 10
247.1791021150707
 20
351.0600404165996
 30
0.0
 11
247.1791021150707
 21
353.0600404165996
 31
0.0
  0
LINE
  5
177A
330
A
100
AcDbEntity
  8
04
100
AcDbLine
 10
260.1791021150708
 20
349.5600404165996
 30
0.0
 11
260.1791021150708
 21
351.0600404165996
 31
0.0
  0
LINE
  5
177B
330
A
100
AcDbEntity
  8
04
100
AcDbLine
 10
260.1791021150708
 20
351.0600404165996
 30
0.0
 11
262.1791021150708
 21
351.0600404165996
 31
0.0
  0
LINE
  5
177C
330
A
100
AcDbEntity
  8
04
100
AcDbLine
 10
262.1791021150708
 20
351.0600404165996
 30
0.0
 11
262.1791021150708
 21
353.0600404165996
 31
0.0
  0
LINE
  5
177D
330
A
100
AcDbEntity
  8
04
100
AcDbLine
 10
262.1791021150708
 20
353.0600404165996
 30
0.0
 11
260.1791021150708
 21
353.0600404165996
 31
0.0
  0
LINE
  5
177E
330
A
100
AcDbEntity
  8
04
100
AcDbLine
 10
249.1791021150707
 20
353.0600404165996
 30
0.0
 11
247.1791021150707
 21
353.0600404165996
 31
0.0
  0
LINE
  5
177F
330
A
100
AcDbEntity
  8
04
100
AcDbLine
 10
249.1791021150707
 20
353.0600404165996
 30
0.0
 11
249.1791021150707
 21
353.5600404165996
 31
0.0
  0
LINE
  5
1780
330
A
100
AcDbEntity
  8
04
100
AcDbLine
 10
260.1791021150708
 20
353.0600404165996
 30
0.0
 11
260.1791021150708
 21
353.5600404165996
 31
0.0
  0
LINE
  5
1781
330
A
100
AcDbEntity
  8
04
100
AcDbLine
 10
260.1791021150708
 20
353.5600404165996
 30
0.0
 11
256.6791021150708
 21
353.5600404165996
 31
0.0
  0
LINE
  5
1782
330
A
100
AcDbEntity
  8
04
100
AcDbLine
 10
252.6791021150708
 20
353.5600404165996
 30
0.0
 11
249.1791021150707
 21
353.5600404165996
 31
0.0
  0
LINE
  5
1783
330
A
100
AcDbEntity
  8
04
100
AcDbLine
 10
252.6791021150708
 20
353.5600404165996
 30
0.0
 11
253.1791021150707
 21
353.0600404165996
 31
0.0
  0
LINE
  5
1784
330
A
100
AcDbEntity
  8
04
100
AcDbLine
 10
256.6791021150708
 20
353.5600404165996
 30
0.0
 11
256.1791021150708
 21
353.0600404165996
 31
0.0
  0
LINE
  5
1785
330
A
100
AcDbEntity
  8
04
100
AcDbLine
 10
253.1791021150707
 20
353.0600404165996
 30
0.0
 11
254.3791021150706
 21
353.0600404165996
 31
0.0
  0
LINE
  5
1786
330
A
100
AcDbEntity
  8
04
100
AcDbLine
 10
254.9791021150706
 20
353.0600404165996
 30
0.0
 11
256.1791021150708
 21
353.0600404165996
 31
0.0
  0
LINE
  5
1787
330
A
100
AcDbEntity
  8
04
100
AcDbLine
 10
254.3791021150706
 20
353.0600404165996
 30
0.0
 11
254.6791021150708
 21
353.3600404165993
 31
0.0
  0
LINE
  5
1788
330
A
100
AcDbEntity
  8
04
100
AcDbLine
 10
254.6791021150708
 20
353.3600404165993
 30
0.0
 11
254.9791021150706
 21
353.0600404165996
 31
0.0
  0
LINE
  5
1789
330
A
100
AcDbEntity
  8
04
100
AcDbLine
 10
260.1791021150709
 20
344.5600404165996
 30
0.0
 11
260.1791021150709
 21
343.0600404165996
 31
0.0
  0
LINE
  5
178A
330
A
100
AcDbEntity
  8
04
100
AcDbLine
 10
260.1791021150709
 20
343.0600404165996
 30
0.0
 11
262.1791021150709
 21
343.0600404165996
 31
0.0
  0
LINE
  5
178B
330
A
100
AcDbEntity
  8
04
100
AcDbLine
 10
262.1791021150709
 20
343.0600404165996
 30
0.0
 11
262.1791021150709
 21
341.0600404165997
 31
0.0
  0
LINE
  5
178C
330
A
100
AcDbEntity
  8
04
100
AcDbLine
 10
249.179102115071
 20
344.5600404165996
 30
0.0
 11
249.179102115071
 21
343.0600404165996
 31
0.0
  0
LINE
  5
178D
330
A
100
AcDbEntity
  8
04
100
AcDbLine
 10
249.179102115071
 20
343.0600404165996
 30
0.0
 11
247.179102115071
 21
343.0600404165996
 31
0.0
  0
LINE
  5
178E
330
A
100
AcDbEntity
  8
04
100
AcDbLine
 10
247.179102115071
 20
343.0600404165996
 30
0.0
 11
247.179102115071
 21
341.0600404165997
 31
0.0
  0
LINE
  5
178F
330
A
100
AcDbEntity
  8
04
100
AcDbLine
 10
247.179102115071
 20
341.0600404165997
 30
0.0
 11
249.179102115071
 21
341.0600404165997
 31
0.0
  0
LINE
  5
1790
330
A
100
AcDbEntity
  8
04
100
AcDbLine
 10
260.1791021150709
 20
341.0600404165997
 30
0.0
 11
262.1791021150709
 21
341.0600404165997
 31
0.0
  0
LINE
  5
1791
330
A
100
AcDbEntity
  8
04
100
AcDbLine
 10
260.1791021150709
 20
341.0600404165997
 30
0.0
 11
260.1791021150709
 21
340.5600404165996
 31
0.0
  0
LINE
  5
1792
330
A
100
AcDbEntity
  8
04
100
AcDbLine
 10
249.179102115071
 20
341.0600404165997
 30
0.0
 11
249.179102115071
 21
340.5600404165996
 31
0.0
  0
LINE
  5
1793
330
A
100
AcDbEntity
  8
04
100
AcDbLine
 10
249.179102115071
 20
340.5600404165996
 30
0.0
 11
252.679102115071
 21
340.5600404165996
 31
0.0
  0
LINE
  5
1794
330
A
100
AcDbEntity
  8
04
100
AcDbLine
 10
256.6791021150709
 20
340.5600404165996
 30
0.0
 11
260.1791021150709
 21
340.5600404165996
 31
0.0
  0
LINE
  5
1795
330
A
100
AcDbEntity
  8
04
100
AcDbLine
 10
256.6791021150709
 20
340.5600404165996
 30
0.0
 11
256.179102115071
 21
341.0600404165997
 31
0.0
  0
LINE
  5
1796
330
A
100
AcDbEntity
  8
04
100
AcDbLine
 10
252.679102115071
 20
340.5600404165996
 30
0.0
 11
253.179102115071
 21
341.0600404165997
 31
0.0
  0
LINE
  5
1797
330
A
100
AcDbEntity
  8
04
100
AcDbLine
 10
256.179102115071
 20
341.0600404165997
 30
0.0
 11
254.9791021150709
 21
341.0600404165997
 31
0.0
  0
LINE
  5
1798
330
A
100
AcDbEntity
  8
04
100
AcDbLine
 10
254.3791021150711
 20
341.0600404165997
 30
0.0
 11
253.179102115071
 21
341.0600404165997
 31
0.0
  0
LINE
  5
1799
330
A
100
AcDbEntity
  8
04
100
AcDbLine
 10
254.3791021150711
 20
341.0600404165997
 30
0.0
 11
254.6791021150709
 21
340.7600404165995
 31
0.0
  0
LINE
  5
179A
330
A
100
AcDbEntity
  8
04
100
AcDbLine
 10
254.6791021150709
 20
340.7600404165995
 30
0.0
 11
254.9791021150709
 21
341.0600404165997
 31
0.0
  0
LINE
  5
179B
330
A
100
AcDbEntity
  8
04
100
AcDbLine
 10
240.6791021150709
 20
429.5600404165996
 30
0.0
 11
240.6791021150709
 21
428.5600404165996
 31
0.0
  0
LINE
  5
179C
330
A
100
AcDbEntity
  8
04
100
AcDbLine
 10
247.6791021150709
 20
429.5600404165996
 30
0.0
 11
247.6791021150709
 21
433.0600404165996
 31
0.0
  0
LINE
  5
179D
330
A
100
AcDbEntity
  8
04
100
AcDbLine
 10
261.6791021150709
 20
433.0600404165996
 30
0.0
 11
261.6791021150709
 21
429.5600404165996
 31
0.0
  0
LINE
  5
179E
330
A
100
AcDbEntity
  8
04
100
AcDbLine
 10
268.6791021150709
 20
429.5600404165996
 30
0.0
 11
268.6791021150709
 21
428.5600404165996
 31
0.0
  0
LINE
  5
179F
330
A
100
AcDbEntity
  8
04
100
AcDbLine
 10
240.6791021150709
 20
363.5600404165996
 30
0.0
 11
240.6791021150709
 21
362.5600404165996
 31
0.0
  0
LINE
  5
17A0
330
A
100
AcDbEntity
  8
04
100
AcDbLine
 10
247.6791021150708
 20
362.5600404165996
 30
0.0
 11
247.6791021150708
 21
359.0600404165996
 31
0.0
  0
LINE
  5
17A1
330
A
100
AcDbEntity
  8
04
100
AcDbLine
 10
261.6791021150707
 20
362.5600404165996
 30
0.0
 11
261.6791021150707
 21
359.0600404165996
 31
0.0
  0
LINE
  5
17A2
330
A
100
AcDbEntity
  8
04
100
AcDbLine
 10
268.6791021150709
 20
363.5600404165996
 30
0.0
 11
268.6791021150709
 21
362.5600404165996
 31
0.0
  0
LINE
  5
17A3
330
A
100
AcDbEntity
  8
04
100
AcDbLine
 10
240.6791021150709
 20
331.5600404165996
 30
0.0
 11
240.6791021150709
 21
330.5600404165996
 31
0.0
  0
LINE
  5
17A4
330
A
100
AcDbEntity
  8
04
100
AcDbLine
 10
247.679102115071
 20
331.5600404165996
 30
0.0
 11
247.679102115071
 21
335.0600404165997
 31
0.0
  0
LINE
  5
17A5
330
A
100
AcDbEntity
  8
04
100
AcDbLine
 10
261.6791021150709
 20
335.0600404165997
 30
0.0
 11
261.6791021150709
 21
331.5600404165996
 31
0.0
  0
LINE
  5
17A6
330
A
100
AcDbEntity
  8
04
100
AcDbLine
 10
268.6791021150709
 20
331.5600404165996
 30
0.0
 11
268.6791021150709
 21
330.5600404165996
 31
0.0
  0
LINE
  5
17A7
330
A
100
AcDbEntity
  8
04
100
AcDbLine
 10
335.929525346815
 20
249.8101920236337
 30
0.0
 11
335.929525346815
 21
249.3101920236334
 31
0.0
  0
LINE
  5
17A8
330
A
100
AcDbEntity
  8
04
100
AcDbLine
 10
335.929525346815
 20
223.3101920236335
 30
0.0
 11
335.929525346815
 21
222.8101920236337
 31
0.0
  0
MTEXT
  5
1824
330
A
100
AcDbEntity
  8
MOJI
100
AcDbMText
 10
309.9999999999996
 20
28.5
 30
0.0
 40
7.0
 41
50.0
 71
     5
 72
     1
  1
図番２０－６
  7
0_80
1001
ACAD
1000
MTEXTBEGIN
1070
    73
1070
     1
1070
    44
1040
1.0
1070
    74
1070
     0
1000
MTEXTEND
  0
POLYLINE
  5
1825
330
A
100
AcDbEntity
  8
SAISEN
100
AcDb2dPolyline
 66
     1
 10
0.0
 20
0.0
 30
0.0
 70
     1
  0
VERTEX
  5
1C2B
330
1825
100
AcDbEntity
  8
SAISEN
 48
2.0
100
AcDbVertex
100
AcDb2dVertex
 10
35.0
 20
17.0
 30
0.0
  0
VERTEX
  5
1C2C
330
1825
100
AcDbEntity
  8
SAISEN
 48
2.0
100
AcDbVertex
100
AcDb2dVertex
 10
385.0
 20
17.0
 30
0.0
  0
VERTEX
  5
1C2D
330
1825
100
AcDbEntity
  8
SAISEN
 48
2.0
100
AcDbVertex
100
AcDb2dVertex
 10
385.0
 20
41.0
 30
0.0
  0
VERTEX
  5
1C2E
330
1825
100
AcDbEntity
  8
SAISEN
 48
2.0
100
AcDbVertex
100
AcDb2dVertex
 10
35.0
 20
41.0
 30
0.0
  0
SEQEND
  5
1C2F
330
1825
100
AcDbEntity
  8
SAISEN
  0
MTEXT
  5
1826
330
A
100
AcDbEntity
  8
MOJI
100
AcDbMText
 10
90.0
 20
29.0
 30
0.0
 40
7.0
 41
110.0
 71
     5
 72
     1
  1
アルクラッセ･ドア
  7
0_80
1001
ACAD
1000
MTEXTBEGIN
1070
    73
1070
     1
1070
    44
1040
1.0
1070
    74
1070
     0
1000
MTEXTEND
  0
MTEXT
  5
1827
330
A
100
AcDbEntity
  8
MOJI
100
AcDbMText
 10
185.0
 20
29.0
 30
0.0
 40
7.0
 41
80.0
 71
     5
 72
     1
  1
スライドドア･Fix
  7
0_80
1001
ACAD
1000
MTEXTBEGIN
1070
    73
1070
     1
1070
    44
1040
1.0
1070
    74
1070
     0
1000
MTEXTEND
  0
LINE
  5
1828
330
A
100
AcDbEntity
  8
SAISEN
100
AcDbLine
 10
144.9999999999998
 20
41.0
 30
0.0
 11
144.9999999999998
 21
17.0
 31
0.0
  0
LINE
  5
1829
330
A
100
AcDbEntity
  8
SAISEN
100
AcDbLine
 10
285.0
 20
41.0
 30
0.0
 11
285.0
 21
17.0
 31
0.0
  0
MTEXT
  5
18B0
330
A
100
AcDbEntity
  8
MOJI
100
AcDbMText
 10
359.9999999999998
 20
28.99999999999954
 30
0.0
 40
6.0
 41
49.99999999999993
 71
     5
 72
     1
  1
姿図･たて断面図\Pよこ断面図　 　
  7
0_80
1001
ACAD
1000
MTEXTBEGIN
1070
    73
1070
     1
1070
    44
1040
1.0
1070
    74
1070
     0
1000
MTEXTEND
  0
VIEWPORT
  5
1667
102
{ACAD_XDICTIONARY
360
1969
102
}
330
B
100
AcDbEntity
 67
     1
  8
0
100
AcDbViewport
 10
199.0181406217401
 20
286.1175481542316
 30
0.0
 40
1063.818356449473
 41
628.2954051513671
 68
     1
 69
     1
1001
ACAD
1000
MVIEW
1002
{
1070
    16
1010
0.0
1020
0.0
1030
0.0
1010
0.0
1020
0.0
1030
1.0
1040
0.0
1040
628.2954051513671
1040
199.0181406217401
1040
286.1175481542316
1040
50.0
1040
0.0
1040
0.0
1070
     0
1070
   100
1070
     1
1070
     1
1070
     0
1070
     0
1070
     0
1070
     0
1040
0.0
1040
0.0
1040
0.0
1040
10.0
1040
10.0
1040
10.0
1040
10.0
1070
     0
1002
{
1002
}
1002
}
  0
VIEWPORT
  5
1978
330
B
100
AcDbEntity
 67
     1
  8
DEFPOINTS
100
AcDbViewport
 10
198.0448129850213
 20
285.1915532811847
 30
0.0
 40
406.0
 41
580.0
 68
     2
 69
     2
1001
ACAD
1000
MVIEW
1002
{
1070
    16
1010
0.0
1020
0.0
1030
0.0
1010
0.0
1020
0.0
1030
1.0
1040
0.0
1040
580.0
1040
210.0
1040
297.0
1040
50.0
1040
0.0
1040
0.0
1070
     0
1070
   100
1070
     1
1070
     1
1070
     0
1070
     0
1070
     0
1070
     0
1040
0.0
1040
0.0
1040
0.0
1040
1.0
1040
1.0
1040
0.0
1040
0.0
1070
     0
1002
{
1002
}
1002
}
  0
ENDSEC
  0
SECTION
  2
OBJECTS
  0
DICTIONARY
  5
19
330
0
100
AcDbDictionary
  3
ACAD_COLOR
350
1087
  3
ACAD_GROUP
350
1A
  3
ACAD_LAYOUT
350
4FC
  3
ACAD_MATERIAL
350
1086
  3
ACAD_MLINESTYLE
350
1B
  3
ACAD_PLOTSETTINGS
350
4FD
  3
ASE_INDEX_DICTIONARY
350
1894
1001
ACAD
1000
TREAT_AS_HARD
1070
     0
1000
TREAT_AS_HARD
1070
     0
1000
TREAT_AS_HARD
1070
     0
  0
DICTIONARY
  5
1815
330
2
100
AcDbDictionary
  3
ACAD_LAYERFILTERS
350
1AEA
  3
ACAD_LAYERSTATES
350
1816
1001
ACAD
1000
TREAT_AS_HARD
1070
     1
1000
TREAT_AS_HARD
1070
     1
  0
DICTIONARY
  5
17E1
330
A
100
AcDbDictionary
  3
ACAD_LAYOUTSELFREF
350
1C0F
1001
ACAD
1000
TREAT_AS_HARD
1070
     1
1000
TREAT_AS_HARD
1070
     1
  0
DICTIONARY
  5
17E3
330
B
100
AcDbDictionary
  3
ACAD_LAYOUTSELFREF
350
1C10
1001
ACAD
1000
TREAT_AS_HARD
1070
     1
1000
TREAT_AS_HARD
1070
     1
  0
DICTIONARY
  5
1969
330
1667
100
AcDbDictionary
  3
ACAD_XREC_ROUNDTRIP
350
196A
1001
ACAD
1000
TREAT_AS_HARD
1070
     1
  0
DICTIONARY
  5
1087
102
{ACAD_REACTORS
330
19
102
}
330
19
100
AcDbDictionary
1001
ACAD
1000
TREAT_AS_HARD
1070
     0
1000
TREAT_AS_HARD
1070
     0
1000
TREAT_AS_HARD
1070
     0
  0
DICTIONARY
  5
1A
102
{ACAD_REACTORS
330
19
102
}
330
19
100
AcDbDictionary
1001
ACAD
1000
TREAT_AS_HARD
1070
     0
1000
TREAT_AS_HARD
1070
     0
1000
TREAT_AS_HARD
1070
     0
  0
DICTIONARY
  5
4FC
102
{ACAD_REACTORS
330
19
102
}
330
19
100
AcDbDictionary
1001
ACAD
1000
TREAT_AS_HARD
1070
     0
1000
TREAT_AS_HARD
1070
     0
1000
TREAT_AS_HARD
1070
     0
  0
DICTIONARY
  5
1086
102
{ACAD_REACTORS
330
19
102
}
330
19
100
AcDbDictionary
1001
ACAD
1000
TREAT_AS_HARD
1070
     0
1000
TREAT_AS_HARD
1070
     0
1000
TREAT_AS_HARD
1070
     0
  0
DICTIONARY
  5
1B
102
{ACAD_REACTORS
330
19
102
}
330
19
100
AcDbDictionary
  3
STANDARD
350
1C
1001
ACAD
1000
TREAT_AS_HARD
1070
     0
1000
TREAT_AS_HARD
1070
     0
1000
TREAT_AS_HARD
1070
     0
  0
DICTIONARY
  5
4FD
102
{ACAD_REACTORS
330
19
102
}
330
19
100
AcDbDictionary
1001
ACAD
1000
TREAT_AS_HARD
1070
     0
1000
TREAT_AS_HARD
1070
     0
1000
TREAT_AS_HARD
1070
     0
  0
DICTIONARY
  5
1894
102
{ACAD_REACTORS
330
19
102
}
330
19
100
AcDbDictionary
  3
ASEBLOCKHIERARCHYINDEXRECORD
350
1895
1001
DCO15
1040
1508820663.734
1001
ACAD
1000
TREAT_AS_HARD
1070
     0
  0
DICTIONARY
  5
1AEA
102
{ACAD_REACTORS
330
1815
102
}
330
1815
100
AcDbDictionary
1001
ACAD
1000
TREAT_AS_HARD
1070
     1
  0
DICTIONARY
  5
1816
102
{ACAD_REACTORS
330
1815
102
}
330
1815
100
AcDbDictionary
1001
ACAD
1000
TREAT_AS_HARD
1070
     0
1000
TREAT_AS_HARD
1070
     0
  0
XRECORD
  5
1C0F
102
{ACAD_REACTORS
330
17E1
102
}
330
17E1
100
AcDbXrecord
340
A
  0
XRECORD
  5
1C10
102
{ACAD_REACTORS
330
17E3
102
}
330
17E3
100
AcDbXrecord
340
B
  0
XRECORD
  5
196A
102
{ACAD_REACTORS
330
1969
102
}
330
1969
100
AcDbXrecord
102
SHADEPLOT
 70
     0
  0
MLINESTYLE
  5
1C
102
{ACAD_REACTORS
330
1B
102
}
330
1B
100
AcDbMlineStyle
  2
STANDARD
 70
     0
  3

 62
     0
 51
90.0
 52
90.0
 71
     2
 49
0.5
 62
   256
  6
BYLAYER
 49
-0.5
 62
   256
  6
BYLAYER
  0
XRECORD
  5
1895
102
{ACAD_REACTORS
330
1894
102
}
330
1894
100
AcDbXrecord
330
0
330
0
330
0
330
0
330
0
330
0
330
0
330
0
330
0
330
0
330
0
330
0
330
0
330
0
330
0
330
0
330
0
330
0
330
0
330
0
330
0
330
0
330
0
330
0
330
0
330
0
330
0
330
0
330
0
330
0
330
0
330
0
330
0
330
0
330
0
330
0
330
0
330
0
330
0
330
0
330
0
330
0
330
0
330
0
330
0
330
0
330
0
330
0
330
0
330
0
  0
ENDSEC
  0
EOF
