  0
SECTION
  2
HEADER
  9
$ACADVER
  1
AC1012
  9
$DWGCODEPAGE
  3
dos932
  9
$INSBASE
 10
0.0
 20
0.0
 30
0.0
  9
$EXTMIN
 10
0.0
 20
0.0
 30
0.0
  9
$EXTMAX
 10
420.0
 20
594.0
 30
0.0
  9
$LIMMIN
 10
0.0
 20
0.0
  9
$LIMMAX
 10
420.0
 20
594.0
  9
$ORTHOMODE
 70
     1
  9
$REGENMODE
 70
     1
  9
$FILLMODE
 70
     1
  9
$QTEXTMODE
 70
     0
  9
$MIRRTEXT
 70
     1
  9
$DRAGMODE
 70
     2
  9
$LTSCALE
 40
0.3
  9
$OSMODE
 70
    37
  9
$ATTMODE
 70
     1
  9
$TEXTSIZE
 40
3.5
  9
$TRACEWID
 40
0.05
  9
$TEXTSTYLE
  7
SUNPOU
  9
$CLAYER
  8
DEFPOINTS
  9
$CELTYPE
  6
BYLAYER
  9
$CECOLOR
 62
   256
  9
$CELTSCALE
 40
1.0
  9
$DELOBJ
 70
     1
  9
$DISPSILH
 70
     0
  9
$DIMSCALE
 40
2.0
  9
$DIMASZ
 40
2.5
  9
$DIMEXO
 40
1.5
  9
$DIMDLI
 40
0.0
  9
$DIMRND
 40
0.0
  9
$DIMDLE
 40
0.0
  9
$DIMEXE
 40
1.0
  9
$DIMTP
 40
0.0
  9
$DIMTM
 40
0.0
  9
$DIMTXT
 40
2.5
  9
$DIMCEN
 40
0.0
  9
$DIMTSZ
 40
0.0
  9
$DIMTOL
 70
     0
  9
$DIMLIM
 70
     0
  9
$DIMTIH
 70
     0
  9
$DIMTOH
 70
     0
  9
$DIMSE1
 70
     0
  9
$DIMSE2
 70
     0
  9
$DIMTAD
 70
     1
  9
$DIMZIN
 70
     8
  9
$DIMBLK
  1
OPEN30
  9
$DIMASO
 70
     1
  9
$DIMSHO
 70
     1
  9
$DIMPOST
  1

  9
$DIMAPOST
  1

  9
$DIMALT
 70
     0
  9
$DIMALTD
 70
     2
  9
$DIMALTF
 40
25.4
  9
$DIMLFAC
 40
1.0
  9
$DIMTOFL
 70
     1
  9
$DIMTVP
 40
0.0
  9
$DIMTIX
 70
     0
  9
$DIMSOXD
 70
     0
  9
$DIMSAH
 70
     0
  9
$DIMBLK1
  1

  9
$DIMBLK2
  1

  9
$DIMSTYLE
  2
SUNPOU_2
  9
$DIMCLRD
 70
   256
  9
$DIMCLRE
 70
   256
  9
$DIMCLRT
 70
   256
  9
$DIMTFAC
 40
1.0
  9
$DIMGAP
 40
1.0
  9
$DIMJUST
 70
     0
  9
$DIMSD1
 70
     0
  9
$DIMSD2
 70
     0
  9
$DIMTOLJ
 70
     1
  9
$DIMTZIN
 70
     0
  9
$DIMALTZ
 70
     0
  9
$DIMALTTZ
 70
     0
  9
$DIMFIT
 70
     3
  9
$DIMUPT
 70
     0
  9
$DIMUNIT
 70
     2
  9
$DIMDEC
 70
     1
  9
$DIMTDEC
 70
     1
  9
$DIMALTU
 70
     2
  9
$DIMALTTD
 70
     2
  9
$DIMTXSTY
  7
SUNPOU
  9
$DIMAUNIT
 70
     0
  9
$LUNITS
 70
     2
  9
$LUPREC
 70
     4
  9
$SKETCHINC
 40
0.1
  9
$FILLETRAD
 40
0.0
  9
$AUNITS
 70
     0
  9
$AUPREC
 70
     0
  9
$MENU
  1
acad
  9
$ELEVATION
 40
0.0
  9
$PELEVATION
 40
0.0
  9
$THICKNESS
 40
0.0
  9
$LIMCHECK
 70
     0
  9
$BLIPMODE
 70
     0
  9
$CHAMFERA
 40
0.0
  9
$CHAMFERB
 40
0.0
  9
$CHAMFERC
 40
0.0
  9
$CHAMFERD
 40
0.0
  9
$SKPOLY
 70
     0
  9
$TDCREATE
 40
2444972.375000000
  9
$TDUPDATE
 40
2453266.403139097
  9
$TDINDWG
 40
0.3387570255
  9
$TDUSRTIMER
 40
0.3387570255
  9
$USRTIMER
 70
     1
  9
$ANGBASE
 50
0.0
  9
$ANGDIR
 70
     0
  9
$PDMODE
 70
     0
  9
$PDSIZE
 40
1.0
  9
$PLINEWID
 40
0.0
  9
$COORDS
 70
     1
  9
$SPLFRAME
 70
     0
  9
$SPLINETYPE
 70
     6
  9
$SPLINESEGS
 70
     8
  9
$ATTDIA
 70
     0
  9
$ATTREQ
 70
     1
  9
$HANDLING
 70
-16383
  9
$HANDSEED
  5
26D6
  9
$SURFTAB1
 70
     6
  9
$SURFTAB2
 70
     6
  9
$SURFTYPE
 70
     6
  9
$SURFU
 70
     6
  9
$SURFV
 70
     6
  9
$UCSNAME
  2

  9
$UCSORG
 10
0.0
 20
0.0
 30
0.0
  9
$UCSXDIR
 10
1.0
 20
0.0
 30
0.0
  9
$UCSYDIR
 10
0.0
 20
1.0
 30
0.0
  9
$PUCSNAME
  2

  9
$PUCSORG
 10
0.0
 20
0.0
 30
0.0
  9
$PUCSXDIR
 10
1.0
 20
0.0
 30
0.0
  9
$PUCSYDIR
 10
0.0
 20
1.0
 30
0.0
  9
$USERI1
 70
     0
  9
$USERI2
 70
     0
  9
$USERI3
 70
     0
  9
$USERI4
 70
     0
  9
$USERI5
 70
     0
  9
$USERR1
 40
0.0
  9
$USERR2
 40
0.0
  9
$USERR3
 40
0.0
  9
$USERR4
 40
0.0
  9
$USERR5
 40
0.0
  9
$WORLDVIEW
 70
     1
  9
$SHADEDGE
 70
     3
  9
$SHADEDIF
 70
    70
  9
$TILEMODE
 70
     1
  9
$MAXACTVP
 70
    16
  9
$PINSBASE
 10
0.0
 20
0.0
 30
0.0
  9
$PLIMCHECK
 70
     0
  9
$PEXTMIN
 10
-0.2055473772918503
 20
-0.0174202791267817
 30
-0.0000000349181948
  9
$PEXTMAX
 10
396.3139079836237
 20
570.3923158424973
 30
0.0000000814935747
  9
$PLIMMIN
 10
-11.94191342824454
 20
-11.76600219398141
  9
$PLIMMAX
 10
408.0435733360149
 20
582.1408996648768
  9
$UNITMODE
 70
     0
  9
$VISRETAIN
 70
     0
  9
$PLINEGEN
 70
     1
  9
$PSLTSCALE
 70
     0
  9
$TREEDEPTH
 70
  3020
  9
$PICKSTYLE
 70
     1
  9
$CMLSTYLE
  2
STANDARD
  9
$CMLJUST
 70
     0
  9
$CMLSCALE
 40
1.0
  9
$SAVEIMAGES
 70
     1
  0
ENDSEC
  0
SECTION
  2
CLASSES
  0
CLASS
  1
LWPOLYLINE
  2
AcDbPolyline
  3
AutoCAD 2000
 90
    32768
280
     0
281
     1
  0
CLASS
  1
IMAGE
  2
AcDbRasterImage
  3
ISM
 90
    32895
280
     0
281
     1
  0
CLASS
  1
OLE2FRAME
  2
AcDbOle2Frame
  3
AutoCAD 2000
 90
    32768
280
     0
281
     1
  0
CLASS
  1
HATCH
  2
AcDbHatch
  3
AutoCAD 2000
 90
    32768
280
     0
281
     1
  0
CLASS
  1
DICTIONARYVAR
  2
AcDbDictionaryVar
  3
AutoCAD 2000
 90
    32768
280
     0
281
     0
  0
CLASS
  1
RASTERVARIABLES
  2
AcDbRasterVariables
  3
ISM
 90
    32768
280
     0
281
     0
  0
CLASS
  1
IMAGEDEF
  2
AcDbRasterImageDef
  3
ISM
 90
    32768
280
     0
281
     0
  0
CLASS
  1
IMAGEDEF_REACTOR
  2
AcDbRasterImageDefReactor
  3
ISM
 90
    32769
280
     0
281
     0
  0
CLASS
  1
IDBUFFER
  2
AcDbIdBuffer
  3
AutoCAD 2000
 90
    32768
280
     0
281
     0
  0
CLASS
  1
SPATIAL_FILTER
  2
AcDbSpatialFilter
  3
AutoCAD 2000
 90
    32768
280
     0
281
     0
  0
CLASS
  1
XRECORD
  2
AcDbXrecord
  3
AutoCAD 2000
 90
    32768
280
     0
281
     0
  0
CLASS
  1
SORTENTSTABLE
  2
AcDbSortentsTable
  3
AutoCAD 2000
 90
    32768
280
     0
281
     0
  0
CLASS
  1
LAYER_INDEX
  2
AcDbLayerIndex
  3
AutoCAD 2000
 90
    32768
280
     0
281
     0
  0
CLASS
  1
SPATIAL_INDEX
  2
AcDbSpatialIndex
  3
AutoCAD 2000
 90
    32768
280
     0
281
     0
  0
CLASS
  1
OBJECT_PTR
  2
CAseDLPNTableRecord
  3
ASE-LPNTableRecord
 90
    32769
280
     0
281
     0
  0
CLASS
  1
ACDBDICTIONARYWDFLT
  2
AcDbDictionaryWithDefault
  3
AutoCAD 2000
 90
    32768
280
     0
281
     0
  0
CLASS
  1
ACDBPLACEHOLDER
  2
AcDbPlaceHolder
  3
AutoCAD 2000
 90
    32768
280
     0
281
     0
  0
CLASS
  1
LAYOUT
  2
AcDbLayout
  3
AutoCAD 2000
 90
    32768
280
     0
281
     0
  0
CLASS
  1
LONG_TRANSACTION
  2
AcDbLongTransaction
  3
AutoCAD 2000
 90
    32768
280
     0
281
     0
  0
CLASS
  1
LWPOLYLINE
  2
AcDbPolyline
  3
AutoCAD 2000
 90
    32768
280
     0
281
     1
  0
CLASS
  1
HATCH
  2
AcDbHatch
  3
AutoCAD 2000
 90
    32768
280
     0
281
     1
  0
CLASS
  1
XRECORD
  2
AcDbXrecord
  3
AutoCAD 2000
 90
    32768
280
     0
281
     0
  0
CLASS
  1
LONG_TRANSACTION
  2
AcDbLongTransaction
  3
AutoCAD 2000
 90
    32768
280
     0
281
     0
  0
CLASS
  1
LWPOLYLINE
  2
AcDbPolyline
  3
AutoCAD 2000
 90
    32768
280
     0
281
     1
  0
CLASS
  1
HATCH
  2
AcDbHatch
  3
AutoCAD 2000
 90
    32768
280
     0
281
     1
  0
CLASS
  1
XRECORD
  2
AcDbXrecord
  3
AutoCAD 2000
 90
    32768
280
     0
281
     0
  0
ENDSEC
  0
SECTION
  2
TABLES
  0
TABLE
  2
VPORT
  5
7
330
0
100
AcDbSymbolTable
 70
     2
  0
VPORT
  5
26AA
330
7
100
AcDbSymbolTableRecord
100
AcDbViewportTableRecord
  2
*ACTIVE
 70
     0
 10
0.0
 20
0.0
 11
1.0
 21
1.0
 12
229.3155801232882
 22
297.0000079528269
 13
0.0
 23
0.0
 14
1.0
 24
1.0
 15
0.0
 25
0.0
 16
0.0
 26
0.0
 36
1.0
 17
0.0
 27
0.0
 37
0.0
 40
601.3204342066629
 41
1.780442804428044
 42
50.0
 43
0.0
 44
0.0
 50
0.0
 51
0.0
 71
     0
 72
   100
 73
     1
 74
     1
 75
     0
 76
     0
 77
     0
 78
     0
  0
ENDTAB
  0
TABLE
  2
LTYPE
  5
4
330
0
100
AcDbSymbolTable
 70
     4
  0
LTYPE
  5
11
330
4
100
AcDbSymbolTableRecord
100
AcDbLinetypeTableRecord
  2
BYBLOCK
 70
     0
  3

 72
    65
 73
     0
 40
0.0
  0
LTYPE
  5
12
330
4
100
AcDbSymbolTableRecord
100
AcDbLinetypeTableRecord
  2
BYLAYER
 70
     0
  3

 72
    65
 73
     0
 40
0.0
  0
LTYPE
  5
13
330
4
100
AcDbSymbolTableRecord
100
AcDbLinetypeTableRecord
  2
CONTINUOUS
 70
     0
  3
Solid line
 72
    65
 73
     0
 40
0.0
  0
LTYPE
  5
D51
330
4
100
AcDbSymbolTableRecord
100
AcDbLinetypeTableRecord
  2
DASHED2
 70
     0
  3
Dashed (.5x) _ _ _ _ _ _ _ _ _ _ _ _ _ _ _ _ _
 72
    65
 73
     2
 40
9.524999999999996
 49
6.349999999999998
 74
     0
 49
-3.174999999999998
 74
     0
  0
LTYPE
  5
DA1
330
4
100
AcDbSymbolTableRecord
100
AcDbLinetypeTableRecord
  2
CENTER2
 70
     0
  3
Center (.5x) ___ _ ___ _ ___ _ ___ _ ___ _ ___
 72
    65
 73
     4
 40
28.57499999999999
 49
19.05
 74
     0
 49
-3.174999999999998
 74
     0
 49
3.174999999999998
 74
     0
 49
-3.174999999999998
 74
     0
  0
LTYPE
  5
DA2
330
4
100
AcDbSymbolTableRecord
100
AcDbLinetypeTableRecord
  2
PHANTOM2
 70
     0
  3
Phantom (.5x) ___ _ _ ___ _ _ ___ _ _ ___ _ _
 72
    65
 73
     6
 40
31.75
 49
15.875
 74
     0
 49
-3.174999999999998
 74
     0
 49
3.174999999999998
 74
     0
 49
-3.174999999999998
 74
     0
 49
3.174999999999998
 74
     0
 49
-3.174999999999998
 74
     0
  0
ENDTAB
  0
TABLE
  2
LAYER
  5
2
102
{ACAD_XDICTIONARY
360
2653
102
}
330
0
100
AcDbSymbolTable
 70
    13
  0
LAYER
  5
14
330
2
100
AcDbSymbolTableRecord
100
AcDbLayerTableRecord
  2
0
 70
     0
 62
     7
  6
CONTINUOUS
  0
LAYER
  5
638
330
2
100
AcDbSymbolTableRecord
100
AcDbLayerTableRecord
  2
DEFPOINTS
 70
     0
 62
     7
  6
CONTINUOUS
  0
LAYER
  5
63A
330
2
100
AcDbSymbolTableRecord
100
AcDbLayerTableRecord
  2
03
 70
     0
 62
     3
  6
CONTINUOUS
  0
LAYER
  5
63D
330
2
100
AcDbSymbolTableRecord
100
AcDbLayerTableRecord
  2
06
 70
     0
 62
     6
  6
CONTINUOUS
  0
LAYER
  5
63E
330
2
100
AcDbSymbolTableRecord
100
AcDbLayerTableRecord
  2
CHUSIN
 70
     0
 62
     6
  6
CENTER2
  0
LAYER
  5
63F
330
2
100
AcDbSymbolTableRecord
100
AcDbLayerTableRecord
  2
KAKURE
 70
     0
 62
     6
  6
DASHED2
  0
LAYER
  5
640
330
2
100
AcDbSymbolTableRecord
100
AcDbLayerTableRecord
  2
MOJI
 70
     0
 62
     3
  6
CONTINUOUS
  0
LAYER
  5
65C
330
2
100
AcDbSymbolTableRecord
100
AcDbLayerTableRecord
  2
SOUZOU
 70
     0
 62
     3
  6
PHANTOM2
  0
LAYER
  5
65E
330
2
100
AcDbSymbolTableRecord
100
AcDbLayerTableRecord
  2
SUNPOU
 70
     0
 62
     6
  6
CONTINUOUS
  0
LAYER
  5
A6C
330
2
100
AcDbSymbolTableRecord
100
AcDbLayerTableRecord
  2
HIKIDASI
 70
     0
 62
     6
  6
CONTINUOUS
  0
LAYER
  5
16A7
330
2
100
AcDbSymbolTableRecord
100
AcDbLayerTableRecord
  2
SAISEN
 70
     0
 62
     3
  6
CONTINUOUS
  0
LAYER
  5
1D78
330
2
100
AcDbSymbolTableRecord
100
AcDbLayerTableRecord
  2
04
 70
     0
 62
     4
  6
CONTINUOUS
  0
LAYER
  5
23E9
330
2
100
AcDbSymbolTableRecord
100
AcDbLayerTableRecord
  2
02
 70
     0
 62
     2
  6
CONTINUOUS
  0
ENDTAB
  0
TABLE
  2
STYLE
  5
3
330
0
100
AcDbSymbolTable
 70
     5
  0
STYLE
  5
17
330
3
100
AcDbSymbolTableRecord
100
AcDbTextStyleTableRecord
  2
STANDARD
 70
     0
 40
0.0
 41
0.9
 50
0.0
 71
     0
 42
7.0
  3
txt.shx
  4
bigfont.shx
  0
STYLE
  5
64B
330
3
100
AcDbSymbolTableRecord
100
AcDbTextStyleTableRecord
  2
SUNPOU
 70
     0
 40
0.0
 41
0.8
 50
0.0
 71
     0
 42
3.5
  3
txt.shx
  4
extfont.shx
  0
STYLE
  5
652
330
3
100
AcDbSymbolTableRecord
100
AcDbTextStyleTableRecord
  2
0_9
 70
     0
 40
0.0
 41
0.9
 50
0.0
 71
     0
 42
0.2
  3
txt.shx
  4
extfont.shx
  0
STYLE
  5
A5A
330
3
100
AcDbSymbolTableRecord
100
AcDbTextStyleTableRecord
  2
0_8
 70
     0
 40
0.0
 41
0.8
 50
0.0
 71
     0
 42
0.2
  3
txt.shx
  4
extfont.shx
  0
STYLE
  5
2651
330
3
100
AcDbSymbolTableRecord
100
AcDbTextStyleTableRecord
  2
0_80
 70
     0
 40
0.0
 41
0.8
 50
0.0
 71
     0
 42
7.0
  3
txt.shx
  4
extfont.shx
  0
ENDTAB
  0
TABLE
  2
VIEW
  5
5
330
0
100
AcDbSymbolTable
 70
     1
  0
VIEW
  5
136
330
5
100
AcDbSymbolTableRecord
100
AcDbViewTableRecord
  2
QQQQ
 70
     0
 40
618.7999999999998
 10
-6.0
 20
-1.0
 41
419.8999999999999
 11
0.0
 21
0.0
 31
1.0
 12
100.0
 22
100.0
 32
0.0
 42
50.0
 43
0.0
 44
0.0
 50
0.0
 71
     0
  0
ENDTAB
  0
TABLE
  2
UCS
  5
6
330
0
100
AcDbSymbolTable
 70
     0
  0
ENDTAB
  0
TABLE
  2
APPID
  5
8
330
0
100
AcDbSymbolTable
 70
     3
  0
APPID
  5
16
330
8
100
AcDbSymbolTableRecord
100
AcDbRegAppTableRecord
  2
ACAD
 70
     0
  0
APPID
  5
E75
330
8
100
AcDbSymbolTableRecord
100
AcDbRegAppTableRecord
  2
DCO15
 70
     0
  0
APPID
  5
261E
330
8
100
AcDbSymbolTableRecord
100
AcDbRegAppTableRecord
  2
CONTENTBLOCKICON
 70
     0
  0
ENDTAB
  0
TABLE
  2
DIMSTYLE
  5
9
330
0
100
AcDbSymbolTable
 70
     2
  0
DIMSTYLE
105
DB9
102
{ACAD_REACTORS
330
7D5
330
7C8
330
7B9
330
7AC
330
79D
330
78E
330
781
330
76B
330
75E
330
751
330
744
330
737
330
72A
330
71D
330
710
330
703
330
6F6
330
6E9
330
6DC
330
6CF
330
6C0
330
6B3
330
6A4
330
697
330
688
330
67B
330
66E
330
661
330
A5E
330
A62
330
A67
102
}
330
9
100
AcDbSymbolTableRecord
100
AcDbDimStyleTableRecord
  2
SUNPOU_2
 70
     0
  3

  4

  5
OPEN30
  6

  7

 40
2.0
 41
2.5
 42
1.5
 43
0.0
 44
1.0
 45
0.0
 46
0.0
 47
0.0
 48
0.0
140
2.5
141
0.0
142
0.0
143
25.4
144
1.0
145
0.0
146
1.0
147
1.0
 71
     0
 72
     0
 73
     0
 74
     0
 75
     0
 76
     0
 77
     1
 78
     8
170
     0
171
     2
172
     1
173
     0
174
     0
175
     0
176
   256
177
   256
178
   256
270
     2
271
     1
272
     1
273
     2
274
     2
340
64B
275
     0
280
     0
281
     0
282
     0
283
     1
284
     0
285
     0
286
     0
287
     3
288
     0
  0
DIMSTYLE
105
1C0E
330
9
100
AcDbSymbolTableRecord
100
AcDbDimStyleTableRecord
  2
STANDARD
 70
     0
  3

  4

  5

  6

  7

 40
1.0
 41
0.18
 42
0.0625
 43
0.38
 44
0.18
 45
0.0
 46
0.0
 47
0.0
 48
0.0
140
0.18
141
0.09
142
0.0
143
25.4
144
1.0
145
0.0
146
1.0
147
0.09
 71
     0
 72
     0
 73
     1
 74
     1
 75
     0
 76
     0
 77
     0
 78
     0
170
     0
171
     2
172
     0
173
     0
174
     0
175
     0
176
     0
177
     0
178
     0
270
     2
271
     4
272
     4
273
     2
274
     2
340
17
275
     0
280
     0
281
     0
282
     0
283
     1
284
     0
285
     0
286
     0
287
     3
288
     0
  0
ENDTAB
  0
TABLE
  2
BLOCK_RECORD
  5
1
330
0
100
AcDbSymbolTable
 70
    29
  0
BLOCK_RECORD
  5
A
102
{ACAD_XDICTIONARY
360
2615
102
}
330
1
100
AcDbSymbolTableRecord
100
AcDbBlockTableRecord
  2
*MODEL_SPACE
  0
BLOCK_RECORD
  5
B
102
{ACAD_XDICTIONARY
360
2617
102
}
330
1
100
AcDbSymbolTableRecord
100
AcDbBlockTableRecord
  2
*PAPER_SPACE
  0
BLOCK_RECORD
  5
662
330
1
100
AcDbSymbolTableRecord
100
AcDbBlockTableRecord
  2
*D0
  0
BLOCK_RECORD
  5
66F
330
1
100
AcDbSymbolTableRecord
100
AcDbBlockTableRecord
  2
*D1
  0
BLOCK_RECORD
  5
67C
330
1
100
AcDbSymbolTableRecord
100
AcDbBlockTableRecord
  2
*D2
  0
BLOCK_RECORD
  5
689
330
1
100
AcDbSymbolTableRecord
100
AcDbBlockTableRecord
  2
*D3
  0
BLOCK_RECORD
  5
698
330
1
100
AcDbSymbolTableRecord
100
AcDbBlockTableRecord
  2
*D4
  0
BLOCK_RECORD
  5
6A5
330
1
100
AcDbSymbolTableRecord
100
AcDbBlockTableRecord
  2
*D5
  0
BLOCK_RECORD
  5
6B4
330
1
100
AcDbSymbolTableRecord
100
AcDbBlockTableRecord
  2
*D6
  0
BLOCK_RECORD
  5
6C1
330
1
100
AcDbSymbolTableRecord
100
AcDbBlockTableRecord
  2
*D7
  0
BLOCK_RECORD
  5
6D0
330
1
100
AcDbSymbolTableRecord
100
AcDbBlockTableRecord
  2
*D8
  0
BLOCK_RECORD
  5
6DD
330
1
100
AcDbSymbolTableRecord
100
AcDbBlockTableRecord
  2
*D9
  0
BLOCK_RECORD
  5
6EA
330
1
100
AcDbSymbolTableRecord
100
AcDbBlockTableRecord
  2
*D10
  0
BLOCK_RECORD
  5
6F7
330
1
100
AcDbSymbolTableRecord
100
AcDbBlockTableRecord
  2
*D11
  0
BLOCK_RECORD
  5
704
330
1
100
AcDbSymbolTableRecord
100
AcDbBlockTableRecord
  2
*D12
  0
BLOCK_RECORD
  5
711
330
1
100
AcDbSymbolTableRecord
100
AcDbBlockTableRecord
  2
*D13
  0
BLOCK_RECORD
  5
71E
330
1
100
AcDbSymbolTableRecord
100
AcDbBlockTableRecord
  2
*D14
  0
BLOCK_RECORD
  5
72B
330
1
100
AcDbSymbolTableRecord
100
AcDbBlockTableRecord
  2
*D15
  0
BLOCK_RECORD
  5
738
330
1
100
AcDbSymbolTableRecord
100
AcDbBlockTableRecord
  2
*D16
  0
BLOCK_RECORD
  5
745
330
1
100
AcDbSymbolTableRecord
100
AcDbBlockTableRecord
  2
*D17
  0
BLOCK_RECORD
  5
752
330
1
100
AcDbSymbolTableRecord
100
AcDbBlockTableRecord
  2
*D18
  0
BLOCK_RECORD
  5
75F
330
1
100
AcDbSymbolTableRecord
100
AcDbBlockTableRecord
  2
*D19
  0
BLOCK_RECORD
  5
76C
330
1
100
AcDbSymbolTableRecord
100
AcDbBlockTableRecord
  2
*D20
  0
BLOCK_RECORD
  5
782
330
1
100
AcDbSymbolTableRecord
100
AcDbBlockTableRecord
  2
*D21
  0
BLOCK_RECORD
  5
78F
330
1
100
AcDbSymbolTableRecord
100
AcDbBlockTableRecord
  2
*D22
  0
BLOCK_RECORD
  5
79E
330
1
100
AcDbSymbolTableRecord
100
AcDbBlockTableRecord
  2
*D23
  0
BLOCK_RECORD
  5
7AD
330
1
100
AcDbSymbolTableRecord
100
AcDbBlockTableRecord
  2
*D24
  0
BLOCK_RECORD
  5
7BA
330
1
100
AcDbSymbolTableRecord
100
AcDbBlockTableRecord
  2
*D25
  0
BLOCK_RECORD
  5
7C9
330
1
100
AcDbSymbolTableRecord
100
AcDbBlockTableRecord
  2
*D26
  0
BLOCK_RECORD
  5
7D6
330
1
100
AcDbSymbolTableRecord
100
AcDbBlockTableRecord
  2
*D27
  0
BLOCK_RECORD
  5
DB3
330
1
100
AcDbSymbolTableRecord
100
AcDbBlockTableRecord
  2
_OPEN30
1001
CONTENTBLOCKICON
1071
        0
1004
2800000020000000200000000100080000000000000400000000000000000000000000000000000000000000000080000080000000808000800000008000800080800000C0C0C000C0DCC000F0CAA6000020400000206000002080000020A0000020C0000020E00000400000004020000040400000406000004080000040A0
1004
000040C0000040E00000600000006020000060400000606000006080000060A0000060C0000060E00000800000008020000080400000806000008080000080A0000080C0000080E00000A0000000A0200000A0400000A0600000A0800000A0A00000A0C00000A0E00000C0000000C0200000C0400000C0600000C0800000C0
1004
A00000C0C00000C0E00000E0000000E0200000E0400000E0600000E0800000E0A00000E0C00000E0E00040000000400020004000400040006000400080004000A0004000C0004000E00040200000402020004020400040206000402080004020A0004020C0004020E000404000004040200040404000404060004040800040
1004
40A0004040C0004040E00040600000406020004060400040606000406080004060A0004060C0004060E00040800000408020004080400040806000408080004080A0004080C0004080E00040A0000040A0200040A0400040A0600040A0800040A0A00040A0C00040A0E00040C0000040C0200040C0400040C0600040C08000
1004
40C0A00040C0C00040C0E00040E0000040E0200040E0400040E0600040E0800040E0A00040E0C00040E0E00080000000800020008000400080006000800080008000A0008000C0008000E00080200000802020008020400080206000802080008020A0008020C0008020E00080400000804020008040400080406000804080
1004
008040A0008040C0008040E00080600000806020008060400080606000806080008060A0008060C0008060E00080800000808020008080400080806000808080008080A0008080C0008080E00080A0000080A0200080A0400080A0600080A0800080A0A00080A0C00080A0E00080C0000080C0200080C0400080C0600080C0
1004
800080C0A00080C0C00080C0E00080E0000080E0200080E0400080E0600080E0800080E0A00080E0C00080E0E000C0000000C0002000C0004000C0006000C0008000C000A000C000C000C000E000C0200000C0202000C0204000C0206000C0208000C020A000C020C000C020E000C0400000C0402000C0404000C0406000C0
1004
408000C040A000C040C000C040E000C0600000C0602000C0604000C0606000C0608000C060A000C060C000C060E000C0800000C0802000C0804000C0806000C0808000C080A000C080C000C080E000C0A00000C0A02000C0A04000C0A06000C0A08000C0A0A000C0A0C000C0A0E000C0C00000C0C02000C0C04000C0C06000
1004
C0C08000C0C0A000F0FBFF00A4A0A000808080000000FF0000FF000000FFFF00FF000000FF00FF00FFFF0000FFFFFF0000000000000000000000000000000000000000000000000000000000000000000000000000000000000000000000000000000000000000000000000000000000000000000000000000000000000000
1004
00000000000000000000000000000000000000000000000000000000000000000000000000000000000000000000000000000000000000000000000000000000000000000000000000000000000000000000000000000000000000000000000000000000000000000000000000000000000000000000000000000000000000
1004
000000000000000000000000000000000000000000000000000000000000000000000000000000000000000000000000000000FFFF0000000000000000000000000000000000000000000000000000000000000000FFFFFFFF0000000000000000000000000000000000000000000000000000000000000000FFFFFFFF0000
1004
000000000000000000000000000000000000000000000000000000000000FFFFFF0000000000000000000000000000000000000000000000000000000000000000FFFFFFFF0000000000000000000000000000000000000000000000000000000000000000FFFFFF0000000000000000000000000000000000000000000000
1004
000000000000000000FFFFFFFF0000000000000000000000000000000000000000000000000000000000000000FFFFFFFF00000000FFFFFFFFFFFFFFFFFFFFFFFFFFFFFFFFFFFFFFFFFFFFFFFFFFFFFFFFFFFF00000000000000000000000000000000000000000000000000FFFFFFFF000000000000000000000000000000
1004
000000000000000000FFFFFFFF000000000000000000000000000000000000000000000000FFFFFFFF000000000000000000000000000000000000000000000000FFFFFFFF000000000000000000000000000000000000000000000000FFFFFFFF000000000000000000000000000000000000000000000000FFFFFFFF0000
1004
0000000000000000000000000000000000000000000000FFFFFF0000000000000000000000000000000000000000000000000000000000000000000000000000000000000000000000000000000000000000000000000000000000000000000000000000000000000000000000000000000000000000000000000000000000
1004
00000000000000000000000000000000000000000000000000000000000000000000000000000000000000000000000000000000000000000000000000000000000000000000000000000000000000000000000000000000000000000000000000000000000000000000000000000000000000000000000000000000000000
1004
0000000000000000000000000000000000000000000000000000000000000000000000000000000000000000000000000000000000000000
  0
ENDTAB
  0
ENDSEC
  0
SECTION
  2
BLOCKS
  0
BLOCK
  5
D
330
A
100
AcDbEntity
  8
0
100
AcDbBlockBegin
  2
*MODEL_SPACE
 70
     0
 10
0.0
 20
0.0
 30
0.0
  3
*MODEL_SPACE
  1

  0
ENDBLK
  5
E
330
A
100
AcDbEntity
  8
0
100
AcDbBlockEnd
  0
BLOCK
  5
F
330
B
100
AcDbEntity
 67
     1
  8
0
100
AcDbBlockBegin
  2
*PAPER_SPACE
 70
     0
 10
0.0
 20
0.0
 30
0.0
  3
*PAPER_SPACE
  1

  0
ENDBLK
  5
10
330
B
100
AcDbEntity
 67
     1
  8
0
100
AcDbBlockEnd
  0
BLOCK
  5
66C
330
662
100
AcDbEntity
  8
0
100
AcDbBlockBegin
  2
*D0
 70
     1
 10
0.0
 20
0.0
 30
0.0
  3
*D0
  1

  0
LINE
  5
2564
330
662
100
AcDbEntity
  8
SUNPOU
100
AcDbLine
 10
171.1527982945006
 20
560.007141800354
 30
0.0
 11
171.1527982945006
 21
576.2051416100426
 31
0.0
  0
LINE
  5
2565
330
662
100
AcDbEntity
  8
SUNPOU
100
AcDbLine
 10
276.1527982945008
 20
560.007141800354
 30
0.0
 11
276.1527982945008
 21
576.2051416100426
 31
0.0
  0
LINE
  5
2566
330
662
100
AcDbEntity
  8
SUNPOU
100
AcDbLine
 10
176.1527982945005
 20
574.2051416100427
 30
0.0
 11
271.1527982945008
 21
574.2051416100427
 31
0.0
  0
INSERT
  5
2567
330
662
100
AcDbEntity
  8
SUNPOU
100
AcDbBlockReference
  2
_OPEN30
 10
171.1527982945006
 20
574.2051416100427
 30
0.0
 41
5.0
 42
5.0
 43
5.0
 50
180.0
  0
INSERT
  5
2568
330
662
100
AcDbEntity
  8
SUNPOU
100
AcDbBlockReference
  2
_OPEN30
 10
276.1527982945008
 20
574.2051416100427
 30
0.0
 41
5.0
 42
5.0
 43
5.0
  0
MTEXT
  5
2569
330
662
100
AcDbEntity
  8
SUNPOU
100
AcDbMText
 10
223.6527982945006
 20
578.7051416100426
 30
0.0
 40
5.0
 41
0.0
 71
     5
 72
     1
  1
\A1;105
  7
SUNPOU
1001
ACAD
1000
MTEXTBEGIN
1070
    73
1070
     1
1070
    44
1040
1.0
1070
    74
1070
     0
1000
MTEXTEND
1000
MTEXTBEGIN
1070
    73
1070
     1
1070
    44
1040
1.0
1070
    74
1070
     0
1000
MTEXTEND
  0
POINT
  5
256A
330
662
100
AcDbEntity
  8
DEFPOINTS
 62
     0
100
AcDbPoint
 10
171.1527982945006
 20
557.007141800354
 30
0.0
  0
POINT
  5
256B
330
662
100
AcDbEntity
  8
DEFPOINTS
 62
     0
100
AcDbPoint
 10
276.1527982945008
 20
557.007141800354
 30
0.0
  0
POINT
  5
256C
330
662
100
AcDbEntity
  8
DEFPOINTS
 62
     0
100
AcDbPoint
 10
276.1527982945008
 20
574.2051416100427
 30
0.0
  0
ENDBLK
  5
66D
330
662
100
AcDbEntity
  8
0
100
AcDbBlockEnd
  0
BLOCK
  5
679
330
66F
100
AcDbEntity
  8
0
100
AcDbBlockBegin
  2
*D1
 70
     1
 10
0.0
 20
0.0
 30
0.0
  3
*D1
  1

  0
LINE
  5
255B
330
66F
100
AcDbEntity
  8
SUNPOU
100
AcDbLine
 10
276.1527982945008
 20
560.007141800354
 30
0.0
 11
276.1527982945008
 21
576.2051416100426
 31
0.0
  0
LINE
  5
255C
330
66F
100
AcDbEntity
  8
SUNPOU
100
AcDbLine
 10
301.1527982945008
 20
560.007141800354
 30
0.0
 11
301.1527982945008
 21
576.2051416100426
 31
0.0
  0
LINE
  5
255D
330
66F
100
AcDbEntity
  8
SUNPOU
100
AcDbLine
 10
281.1527982945008
 20
574.2051416100427
 30
0.0
 11
296.1527982945008
 21
574.2051416100427
 31
0.0
  0
INSERT
  5
255E
330
66F
100
AcDbEntity
  8
SUNPOU
100
AcDbBlockReference
  2
_OPEN30
 10
276.1527982945008
 20
574.2051416100427
 30
0.0
 41
5.0
 42
5.0
 43
5.0
 50
180.0
  0
INSERT
  5
255F
330
66F
100
AcDbEntity
  8
SUNPOU
100
AcDbBlockReference
  2
_OPEN30
 10
301.1527982945008
 20
574.2051416100427
 30
0.0
 41
5.0
 42
5.0
 43
5.0
  0
MTEXT
  5
2560
330
66F
100
AcDbEntity
  8
SUNPOU
100
AcDbMText
 10
288.6527982945008
 20
578.7051416100426
 30
0.0
 40
5.0
 41
0.0
 71
     5
 72
     1
  1
\A1;25
  7
SUNPOU
1001
ACAD
1000
MTEXTBEGIN
1070
    73
1070
     1
1070
    44
1040
1.0
1070
    74
1070
     0
1000
MTEXTEND
1000
MTEXTBEGIN
1070
    73
1070
     1
1070
    44
1040
1.0
1070
    74
1070
     0
1000
MTEXTEND
  0
POINT
  5
2561
330
66F
100
AcDbEntity
  8
DEFPOINTS
 62
     0
100
AcDbPoint
 10
276.1527982945008
 20
557.007141800354
 30
0.0
  0
POINT
  5
2562
330
66F
100
AcDbEntity
  8
DEFPOINTS
 62
     0
100
AcDbPoint
 10
301.1527982945008
 20
557.007141800354
 30
0.0
  0
POINT
  5
2563
330
66F
100
AcDbEntity
  8
DEFPOINTS
 62
     0
100
AcDbPoint
 10
301.1527982945008
 20
574.2051416100427
 30
0.0
  0
ENDBLK
  5
67A
330
66F
100
AcDbEntity
  8
0
100
AcDbBlockEnd
  0
BLOCK
  5
686
330
67C
100
AcDbEntity
  8
0
100
AcDbBlockBegin
  2
*D2
 70
     1
 10
0.0
 20
0.0
 30
0.0
  3
*D2
  1

  0
LINE
  5
2552
330
67C
100
AcDbEntity
  8
SUNPOU
100
AcDbLine
 10
171.1527982945006
 20
560.0071418003538
 30
0.0
 11
171.1527982945006
 21
565.8422891707315
 31
0.0
  0
LINE
  5
2553
330
67C
100
AcDbEntity
  8
SUNPOU
100
AcDbLine
 10
275.1527982945008
 20
560.0071418003538
 30
0.0
 11
275.1527982945008
 21
565.8422891707315
 31
0.0
  0
LINE
  5
2554
330
67C
100
AcDbEntity
  8
SUNPOU
100
AcDbLine
 10
176.1527982945005
 20
563.8422891707315
 30
0.0
 11
270.1527982945008
 21
563.8422891707315
 31
0.0
  0
INSERT
  5
2555
330
67C
100
AcDbEntity
  8
SUNPOU
100
AcDbBlockReference
  2
_OPEN30
 10
171.1527982945006
 20
563.8422891707315
 30
0.0
 41
5.0
 42
5.0
 43
5.0
 50
180.0
  0
INSERT
  5
2556
330
67C
100
AcDbEntity
  8
SUNPOU
100
AcDbBlockReference
  2
_OPEN30
 10
275.1527982945008
 20
563.8422891707315
 30
0.0
 41
5.0
 42
5.0
 43
5.0
  0
MTEXT
  5
2557
330
67C
100
AcDbEntity
  8
SUNPOU
100
AcDbMText
 10
223.1527982945006
 20
568.3422891707315
 30
0.0
 40
5.0
 41
0.0
 71
     5
 72
     1
  1
\A1;104
  7
SUNPOU
1001
ACAD
1000
MTEXTBEGIN
1070
    73
1070
     1
1070
    44
1040
1.0
1070
    74
1070
     0
1000
MTEXTEND
1000
MTEXTBEGIN
1070
    73
1070
     1
1070
    44
1040
1.0
1070
    74
1070
     0
1000
MTEXTEND
  0
POINT
  5
2558
330
67C
100
AcDbEntity
  8
DEFPOINTS
 62
     0
100
AcDbPoint
 10
171.1527982945006
 20
557.0071418003537
 30
0.0
  0
POINT
  5
2559
330
67C
100
AcDbEntity
  8
DEFPOINTS
 62
     0
100
AcDbPoint
 10
275.1527982945008
 20
557.0071418003537
 30
0.0
  0
POINT
  5
255A
330
67C
100
AcDbEntity
  8
DEFPOINTS
 62
     0
100
AcDbPoint
 10
275.1527982945008
 20
563.8422891707315
 30
0.0
  0
ENDBLK
  5
687
330
67C
100
AcDbEntity
  8
0
100
AcDbBlockEnd
  0
BLOCK
  5
695
330
689
100
AcDbEntity
  8
0
100
AcDbBlockBegin
  2
*D3
 70
     1
 10
0.0
 20
0.0
 30
0.0
  3
*D3
  1

  0
LINE
  5
2547
330
689
100
AcDbEntity
  8
SUNPOU
100
AcDbLine
 10
111.1527982945007
 20
374.007141800354
 30
0.0
 11
111.1527982945007
 21
350.007141800354
 31
0.0
  0
LINE
  5
2548
330
689
100
AcDbEntity
  8
SUNPOU
100
AcDbLine
 10
116.1527982945007
 20
374.007141800354
 30
0.0
 11
116.1527982945007
 21
350.007141800354
 31
0.0
  0
LINE
  5
2549
330
689
100
AcDbEntity
  8
SUNPOU
100
AcDbLine
 10
106.1527982945007
 20
352.007141800354
 30
0.0
 11
101.1527982945007
 21
352.007141800354
 31
0.0
  0
LINE
  5
254A
330
689
100
AcDbEntity
  8
SUNPOU
100
AcDbLine
 10
121.1527982945007
 20
352.007141800354
 30
0.0
 11
126.1527982945007
 21
352.007141800354
 31
0.0
  0
MTEXT
  5
254B
330
689
100
AcDbEntity
  8
SUNPOU
100
AcDbMText
 10
113.6527982945007
 20
356.5186983607437
 30
0.0
 40
5.0
 41
0.0
 71
     5
 72
     1
  1
\A1;5
  7
SUNPOU
1001
ACAD
1000
MTEXTBEGIN
1070
    73
1070
     1
1070
    44
1040
1.0
1070
    74
1070
     0
1000
MTEXTEND
1000
MTEXTBEGIN
1070
    73
1070
     1
1070
    44
1040
1.0
1070
    74
1070
     0
1000
MTEXTEND
  0
LINE
  5
254C
330
689
100
AcDbEntity
  8
SUNPOU
100
AcDbLine
 10
111.1527982945007
 20
352.007141800354
 30
0.0
 11
116.1527982945007
 21
352.007141800354
 31
0.0
  0
INSERT
  5
254D
330
689
100
AcDbEntity
  8
SUNPOU
100
AcDbBlockReference
  2
_OPEN30
 10
111.1527982945007
 20
352.007141800354
 30
0.0
 41
5.0
 42
5.0
 43
5.0
  0
INSERT
  5
254E
330
689
100
AcDbEntity
  8
SUNPOU
100
AcDbBlockReference
  2
_OPEN30
 10
116.1527982945007
 20
352.007141800354
 30
0.0
 41
5.0
 42
5.0
 43
5.0
 50
180.0
  0
POINT
  5
254F
330
689
100
AcDbEntity
  8
DEFPOINTS
 62
     0
100
AcDbPoint
 10
111.1527982945007
 20
377.007141800354
 30
0.0
  0
POINT
  5
2550
330
689
100
AcDbEntity
  8
DEFPOINTS
 62
     0
100
AcDbPoint
 10
116.1527982945007
 20
377.007141800354
 30
0.0
  0
POINT
  5
2551
330
689
100
AcDbEntity
  8
DEFPOINTS
 62
     0
100
AcDbPoint
 10
116.1527982945007
 20
352.007141800354
 30
0.0
  0
ENDBLK
  5
696
330
689
100
AcDbEntity
  8
0
100
AcDbBlockEnd
  0
BLOCK
  5
6A2
330
698
100
AcDbEntity
  8
0
100
AcDbBlockBegin
  2
*D4
 70
     1
 10
0.0
 20
0.0
 30
0.0
  3
*D4
  1

  0
LINE
  5
253E
330
698
100
AcDbEntity
  8
SUNPOU
100
AcDbLine
 10
116.1527982945007
 20
374.007141800354
 30
0.0
 11
116.1527982945007
 21
350.007141800354
 31
0.0
  0
LINE
  5
253F
330
698
100
AcDbEntity
  8
SUNPOU
100
AcDbLine
 10
171.1527982945008
 20
374.007141800354
 30
0.0
 11
171.1527982945008
 21
350.007141800354
 31
0.0
  0
LINE
  5
2540
330
698
100
AcDbEntity
  8
SUNPOU
100
AcDbLine
 10
121.1527982945007
 20
352.007141800354
 30
0.0
 11
166.1527982945008
 21
352.007141800354
 31
0.0
  0
MTEXT
  5
2541
330
698
100
AcDbEntity
  8
SUNPOU
100
AcDbMText
 10
137.4309495312577
 20
356.507141800354
 30
0.0
 40
5.0
 41
0.0
 71
     5
 72
     1
  1
\A1;55
  7
SUNPOU
1001
ACAD
1000
MTEXTBEGIN
1070
    73
1070
     1
1070
    44
1040
1.0
1070
    74
1070
     0
1000
MTEXTEND
1000
MTEXTBEGIN
1070
    73
1070
     1
1070
    44
1040
1.0
1070
    74
1070
     0
1000
MTEXTEND
  0
INSERT
  5
2542
330
698
100
AcDbEntity
  8
SUNPOU
100
AcDbBlockReference
  2
_OPEN30
 10
116.1527982945007
 20
352.007141800354
 30
0.0
 41
5.0
 42
5.0
 43
5.0
 50
180.0
  0
INSERT
  5
2543
330
698
100
AcDbEntity
  8
SUNPOU
100
AcDbBlockReference
  2
_OPEN30
 10
171.1527982945008
 20
352.007141800354
 30
0.0
 41
5.0
 42
5.0
 43
5.0
  0
POINT
  5
2544
330
698
100
AcDbEntity
  8
DEFPOINTS
 62
     0
100
AcDbPoint
 10
116.1527982945007
 20
377.007141800354
 30
0.0
  0
POINT
  5
2545
330
698
100
AcDbEntity
  8
DEFPOINTS
 62
     0
100
AcDbPoint
 10
171.1527982945008
 20
377.007141800354
 30
0.0
  0
POINT
  5
2546
330
698
100
AcDbEntity
  8
DEFPOINTS
 62
     0
100
AcDbPoint
 10
171.1527982945008
 20
352.007141800354
 30
0.0
  0
ENDBLK
  5
6A3
330
698
100
AcDbEntity
  8
0
100
AcDbBlockEnd
  0
BLOCK
  5
6B1
330
6A5
100
AcDbEntity
  8
0
100
AcDbBlockBegin
  2
*D5
 70
     1
 10
0.0
 20
0.0
 30
0.0
  3
*D5
  1

  0
LINE
  5
2533
330
6A5
100
AcDbEntity
  8
SUNPOU
100
AcDbLine
 10
171.1527982945008
 20
374.007141800354
 30
0.0
 11
171.1527982945008
 21
350.007141800354
 31
0.0
  0
LINE
  5
2534
330
6A5
100
AcDbEntity
  8
SUNPOU
100
AcDbLine
 10
176.1527982945008
 20
384.007141800354
 30
0.0
 11
176.1527982945008
 21
350.007141800354
 31
0.0
  0
LINE
  5
2535
330
6A5
100
AcDbEntity
  8
SUNPOU
100
AcDbLine
 10
166.1527982945008
 20
352.007141800354
 30
0.0
 11
161.1527982945006
 21
352.007141800354
 31
0.0
  0
LINE
  5
2536
330
6A5
100
AcDbEntity
  8
SUNPOU
100
AcDbLine
 10
181.1527982945006
 20
352.007141800354
 30
0.0
 11
186.1527982945006
 21
352.007141800354
 31
0.0
  0
MTEXT
  5
2537
330
6A5
100
AcDbEntity
  8
SUNPOU
100
AcDbMText
 10
173.6527982945006
 20
356.4471963208426
 30
0.0
 40
5.0
 41
0.0
 71
     5
 72
     1
  1
\A1;5
  7
SUNPOU
1001
ACAD
1000
MTEXTBEGIN
1070
    73
1070
     1
1070
    44
1040
1.0
1070
    74
1070
     0
1000
MTEXTEND
1000
MTEXTBEGIN
1070
    73
1070
     1
1070
    44
1040
1.0
1070
    74
1070
     0
1000
MTEXTEND
  0
LINE
  5
2538
330
6A5
100
AcDbEntity
  8
SUNPOU
100
AcDbLine
 10
171.1527982945008
 20
352.007141800354
 30
0.0
 11
176.1527982945008
 21
352.007141800354
 31
0.0
  0
INSERT
  5
2539
330
6A5
100
AcDbEntity
  8
SUNPOU
100
AcDbBlockReference
  2
_OPEN30
 10
171.1527982945008
 20
352.007141800354
 30
0.0
 41
5.0
 42
5.0
 43
5.0
  0
INSERT
  5
253A
330
6A5
100
AcDbEntity
  8
SUNPOU
100
AcDbBlockReference
  2
_OPEN30
 10
176.1527982945008
 20
352.007141800354
 30
0.0
 41
5.0
 42
5.0
 43
5.0
 50
180.0
  0
POINT
  5
253B
330
6A5
100
AcDbEntity
  8
DEFPOINTS
 62
     0
100
AcDbPoint
 10
171.1527982945008
 20
377.007141800354
 30
0.0
  0
POINT
  5
253C
330
6A5
100
AcDbEntity
  8
DEFPOINTS
 62
     0
100
AcDbPoint
 10
176.1527982945008
 20
387.007141800354
 30
0.0
  0
POINT
  5
253D
330
6A5
100
AcDbEntity
  8
DEFPOINTS
 62
     0
100
AcDbPoint
 10
176.1527982945008
 20
352.007141800354
 30
0.0
  0
ENDBLK
  5
6B2
330
6A5
100
AcDbEntity
  8
0
100
AcDbBlockEnd
  0
BLOCK
  5
6BE
330
6B4
100
AcDbEntity
  8
0
100
AcDbBlockBegin
  2
*D6
 70
     1
 10
0.0
 20
0.0
 30
0.0
  3
*D6
  1

  0
LINE
  5
252A
330
6B4
100
AcDbEntity
  8
SUNPOU
100
AcDbLine
 10
176.1527982945008
 20
384.007141800354
 30
0.0
 11
176.1527982945008
 21
350.007141800354
 31
0.0
  0
LINE
  5
252B
330
6B4
100
AcDbEntity
  8
SUNPOU
100
AcDbLine
 10
216.1527982945006
 20
384.007141800354
 30
0.0
 11
216.1527982945006
 21
350.007141800354
 31
0.0
  0
LINE
  5
252C
330
6B4
100
AcDbEntity
  8
SUNPOU
100
AcDbLine
 10
181.1527982945006
 20
352.007141800354
 30
0.0
 11
211.1527982945006
 21
352.007141800354
 31
0.0
  0
MTEXT
  5
252D
330
6B4
100
AcDbEntity
  8
SUNPOU
100
AcDbMText
 10
188.4820294070292
 20
356.507141800354
 30
0.0
 40
5.0
 41
0.0
 71
     5
 72
     1
  1
\A1;40
  7
SUNPOU
1001
ACAD
1000
MTEXTBEGIN
1070
    73
1070
     1
1070
    44
1040
1.0
1070
    74
1070
     0
1000
MTEXTEND
1000
MTEXTBEGIN
1070
    73
1070
     1
1070
    44
1040
1.0
1070
    74
1070
     0
1000
MTEXTEND
  0
INSERT
  5
252E
330
6B4
100
AcDbEntity
  8
SUNPOU
100
AcDbBlockReference
  2
_OPEN30
 10
176.1527982945008
 20
352.007141800354
 30
0.0
 41
5.0
 42
5.0
 43
5.0
 50
180.0
  0
INSERT
  5
252F
330
6B4
100
AcDbEntity
  8
SUNPOU
100
AcDbBlockReference
  2
_OPEN30
 10
216.1527982945006
 20
352.007141800354
 30
0.0
 41
5.0
 42
5.0
 43
5.0
  0
POINT
  5
2530
330
6B4
100
AcDbEntity
  8
DEFPOINTS
 62
     0
100
AcDbPoint
 10
176.1527982945008
 20
387.007141800354
 30
0.0
  0
POINT
  5
2531
330
6B4
100
AcDbEntity
  8
DEFPOINTS
 62
     0
100
AcDbPoint
 10
216.1527982945006
 20
387.007141800354
 30
0.0
  0
POINT
  5
2532
330
6B4
100
AcDbEntity
  8
DEFPOINTS
 62
     0
100
AcDbPoint
 10
216.1527982945006
 20
352.007141800354
 30
0.0
  0
ENDBLK
  5
6BF
330
6B4
100
AcDbEntity
  8
0
100
AcDbBlockEnd
  0
BLOCK
  5
6CD
330
6C1
100
AcDbEntity
  8
0
100
AcDbBlockBegin
  2
*D7
 70
     1
 10
0.0
 20
0.0
 30
0.0
  3
*D7
  1

  0
LINE
  5
251F
330
6C1
100
AcDbEntity
  8
SUNPOU
100
AcDbLine
 10
216.1527982945006
 20
384.007141800354
 30
0.0
 11
216.1527982945006
 21
350.007141800354
 31
0.0
  0
LINE
  5
2520
330
6C1
100
AcDbEntity
  8
SUNPOU
100
AcDbLine
 10
221.1527982945006
 20
374.007141800354
 30
0.0
 11
221.1527982945006
 21
350.007141800354
 31
0.0
  0
LINE
  5
2521
330
6C1
100
AcDbEntity
  8
SUNPOU
100
AcDbLine
 10
211.1527982945006
 20
352.007141800354
 30
0.0
 11
206.1527982945007
 21
352.007141800354
 31
0.0
  0
LINE
  5
2522
330
6C1
100
AcDbEntity
  8
SUNPOU
100
AcDbLine
 10
226.1527982945008
 20
352.007141800354
 30
0.0
 11
231.1527982945007
 21
352.007141800354
 31
0.0
  0
MTEXT
  5
2523
330
6C1
100
AcDbEntity
  8
SUNPOU
100
AcDbMText
 10
218.6527982945007
 20
356.5154300991371
 30
0.0
 40
5.0
 41
0.0
 71
     5
 72
     1
  1
\A1;5
  7
SUNPOU
1001
ACAD
1000
MTEXTBEGIN
1070
    73
1070
     1
1070
    44
1040
1.0
1070
    74
1070
     0
1000
MTEXTEND
1000
MTEXTBEGIN
1070
    73
1070
     1
1070
    44
1040
1.0
1070
    74
1070
     0
1000
MTEXTEND
  0
LINE
  5
2524
330
6C1
100
AcDbEntity
  8
SUNPOU
100
AcDbLine
 10
216.1527982945006
 20
352.007141800354
 30
0.0
 11
221.1527982945006
 21
352.007141800354
 31
0.0
  0
INSERT
  5
2525
330
6C1
100
AcDbEntity
  8
SUNPOU
100
AcDbBlockReference
  2
_OPEN30
 10
216.1527982945006
 20
352.007141800354
 30
0.0
 41
5.0
 42
5.0
 43
5.0
  0
INSERT
  5
2526
330
6C1
100
AcDbEntity
  8
SUNPOU
100
AcDbBlockReference
  2
_OPEN30
 10
221.1527982945006
 20
352.007141800354
 30
0.0
 41
5.0
 42
5.0
 43
5.0
 50
180.0
  0
POINT
  5
2527
330
6C1
100
AcDbEntity
  8
DEFPOINTS
 62
     0
100
AcDbPoint
 10
216.1527982945006
 20
387.007141800354
 30
0.0
  0
POINT
  5
2528
330
6C1
100
AcDbEntity
  8
DEFPOINTS
 62
     0
100
AcDbPoint
 10
221.1527982945006
 20
377.007141800354
 30
0.0
  0
POINT
  5
2529
330
6C1
100
AcDbEntity
  8
DEFPOINTS
 62
     0
100
AcDbPoint
 10
221.1527982945006
 20
352.007141800354
 30
0.0
  0
ENDBLK
  5
6CE
330
6C1
100
AcDbEntity
  8
0
100
AcDbBlockEnd
  0
BLOCK
  5
6DA
330
6D0
100
AcDbEntity
  8
0
100
AcDbBlockBegin
  2
*D8
 70
     1
 10
0.0
 20
0.0
 30
0.0
  3
*D8
  1

  0
LINE
  5
2516
330
6D0
100
AcDbEntity
  8
SUNPOU
100
AcDbLine
 10
221.1527982945006
 20
374.007141800354
 30
0.0
 11
221.1527982945006
 21
350.007141800354
 31
0.0
  0
LINE
  5
2517
330
6D0
100
AcDbEntity
  8
SUNPOU
100
AcDbLine
 10
301.1527982945008
 20
374.007141800354
 30
0.0
 11
301.1527982945008
 21
350.007141800354
 31
0.0
  0
LINE
  5
2518
330
6D0
100
AcDbEntity
  8
SUNPOU
100
AcDbLine
 10
226.1527982945008
 20
352.007141800354
 30
0.0
 11
296.1527982945008
 21
352.007141800354
 31
0.0
  0
INSERT
  5
2519
330
6D0
100
AcDbEntity
  8
SUNPOU
100
AcDbBlockReference
  2
_OPEN30
 10
221.1527982945006
 20
352.007141800354
 30
0.0
 41
5.0
 42
5.0
 43
5.0
 50
180.0
  0
INSERT
  5
251A
330
6D0
100
AcDbEntity
  8
SUNPOU
100
AcDbBlockReference
  2
_OPEN30
 10
301.1527982945008
 20
352.007141800354
 30
0.0
 41
5.0
 42
5.0
 43
5.0
  0
MTEXT
  5
251B
330
6D0
100
AcDbEntity
  8
SUNPOU
100
AcDbMText
 10
261.1527982945008
 20
356.507141800354
 30
0.0
 40
5.0
 41
0.0
 71
     5
 72
     1
  1
\A1;80
  7
SUNPOU
1001
ACAD
1000
MTEXTBEGIN
1070
    73
1070
     1
1070
    44
1040
1.0
1070
    74
1070
     0
1000
MTEXTEND
1000
MTEXTBEGIN
1070
    73
1070
     1
1070
    44
1040
1.0
1070
    74
1070
     0
1000
MTEXTEND
  0
POINT
  5
251C
330
6D0
100
AcDbEntity
  8
DEFPOINTS
 62
     0
100
AcDbPoint
 10
221.1527982945006
 20
377.007141800354
 30
0.0
  0
POINT
  5
251D
330
6D0
100
AcDbEntity
  8
DEFPOINTS
 62
     0
100
AcDbPoint
 10
301.1527982945008
 20
377.007141800354
 30
0.0
  0
POINT
  5
251E
330
6D0
100
AcDbEntity
  8
DEFPOINTS
 62
     0
100
AcDbPoint
 10
301.1527982945008
 20
352.007141800354
 30
0.0
  0
ENDBLK
  5
6DB
330
6D0
100
AcDbEntity
  8
0
100
AcDbBlockEnd
  0
BLOCK
  5
6E7
330
6DD
100
AcDbEntity
  8
0
100
AcDbBlockBegin
  2
*D9
 70
     1
 10
0.0
 20
0.0
 30
0.0
  3
*D9
  1

  0
LINE
  5
250D
330
6DD
100
AcDbEntity
  8
SUNPOU
100
AcDbLine
 10
111.1527982945007
 20
374.007141800354
 30
0.0
 11
111.1527982945007
 21
335.007141800354
 31
0.0
  0
LINE
  5
250E
330
6DD
100
AcDbEntity
  8
SUNPOU
100
AcDbLine
 10
171.1527982945008
 20
374.007141800354
 30
0.0
 11
171.1527982945008
 21
335.007141800354
 31
0.0
  0
LINE
  5
250F
330
6DD
100
AcDbEntity
  8
SUNPOU
100
AcDbLine
 10
116.1527982945007
 20
337.007141800354
 30
0.0
 11
166.1527982945008
 21
337.007141800354
 31
0.0
  0
MTEXT
  5
2510
330
6DD
100
AcDbEntity
  8
SUNPOU
100
AcDbMText
 10
150.2220736262153
 20
341.507141800354
 30
0.0
 40
5.0
 41
0.0
 71
     5
 72
     1
  1
\A1;60
  7
SUNPOU
1001
ACAD
1000
MTEXTBEGIN
1070
    73
1070
     1
1070
    44
1040
1.0
1070
    74
1070
     0
1000
MTEXTEND
1000
MTEXTBEGIN
1070
    73
1070
     1
1070
    44
1040
1.0
1070
    74
1070
     0
1000
MTEXTEND
  0
INSERT
  5
2511
330
6DD
100
AcDbEntity
  8
SUNPOU
100
AcDbBlockReference
  2
_OPEN30
 10
111.1527982945007
 20
337.007141800354
 30
0.0
 41
5.0
 42
5.0
 43
5.0
 50
180.0
  0
INSERT
  5
2512
330
6DD
100
AcDbEntity
  8
SUNPOU
100
AcDbBlockReference
  2
_OPEN30
 10
171.1527982945008
 20
337.007141800354
 30
0.0
 41
5.0
 42
5.0
 43
5.0
  0
POINT
  5
2513
330
6DD
100
AcDbEntity
  8
DEFPOINTS
 62
     0
100
AcDbPoint
 10
111.1527982945007
 20
377.007141800354
 30
0.0
  0
POINT
  5
2514
330
6DD
100
AcDbEntity
  8
DEFPOINTS
 62
     0
100
AcDbPoint
 10
171.1527982945008
 20
377.007141800354
 30
0.0
  0
POINT
  5
2515
330
6DD
100
AcDbEntity
  8
DEFPOINTS
 62
     0
100
AcDbPoint
 10
171.1527982945008
 20
337.007141800354
 30
0.0
  0
ENDBLK
  5
6E8
330
6DD
100
AcDbEntity
  8
0
100
AcDbBlockEnd
  0
BLOCK
  5
6F4
330
6EA
100
AcDbEntity
  8
0
100
AcDbBlockBegin
  2
*D10
 70
     1
 10
0.0
 20
0.0
 30
0.0
  3
*D10
  1

  0
LINE
  5
2504
330
6EA
100
AcDbEntity
  8
SUNPOU
100
AcDbLine
 10
171.1527982945008
 20
374.007141800354
 30
0.0
 11
171.1527982945008
 21
335.007141800354
 31
0.0
  0
LINE
  5
2505
330
6EA
100
AcDbEntity
  8
SUNPOU
100
AcDbLine
 10
301.1527982945008
 20
374.007141800354
 30
0.0
 11
301.1527982945008
 21
335.007141800354
 31
0.0
  0
LINE
  5
2506
330
6EA
100
AcDbEntity
  8
SUNPOU
100
AcDbLine
 10
176.1527982945008
 20
337.007141800354
 30
0.0
 11
296.1527982945008
 21
337.007141800354
 31
0.0
  0
MTEXT
  5
2507
330
6EA
100
AcDbEntity
  8
SUNPOU
100
AcDbMText
 10
245.1237698289016
 20
341.507141800354
 30
0.0
 40
5.0
 41
0.0
 71
     5
 72
     1
  1
\A1;130
  7
SUNPOU
1001
ACAD
1000
MTEXTBEGIN
1070
    73
1070
     1
1070
    44
1040
1.0
1070
    74
1070
     0
1000
MTEXTEND
1000
MTEXTBEGIN
1070
    73
1070
     1
1070
    44
1040
1.0
1070
    74
1070
     0
1000
MTEXTEND
  0
INSERT
  5
2508
330
6EA
100
AcDbEntity
  8
SUNPOU
100
AcDbBlockReference
  2
_OPEN30
 10
171.1527982945008
 20
337.007141800354
 30
0.0
 41
5.0
 42
5.0
 43
5.0
 50
180.0
  0
INSERT
  5
2509
330
6EA
100
AcDbEntity
  8
SUNPOU
100
AcDbBlockReference
  2
_OPEN30
 10
301.1527982945008
 20
337.007141800354
 30
0.0
 41
5.0
 42
5.0
 43
5.0
  0
POINT
  5
250A
330
6EA
100
AcDbEntity
  8
DEFPOINTS
 62
     0
100
AcDbPoint
 10
171.1527982945008
 20
377.007141800354
 30
0.0
  0
POINT
  5
250B
330
6EA
100
AcDbEntity
  8
DEFPOINTS
 62
     0
100
AcDbPoint
 10
301.1527982945008
 20
377.007141800354
 30
0.0
  0
POINT
  5
250C
330
6EA
100
AcDbEntity
  8
DEFPOINTS
 62
     0
100
AcDbPoint
 10
301.1527982945008
 20
337.007141800354
 30
0.0
  0
ENDBLK
  5
6F5
330
6EA
100
AcDbEntity
  8
0
100
AcDbBlockEnd
  0
BLOCK
  5
701
330
6F7
100
AcDbEntity
  8
0
100
AcDbBlockBegin
  2
*D11
 70
     1
 10
0.0
 20
0.0
 30
0.0
  3
*D11
  1

  0
LINE
  5
24FB
330
6F7
100
AcDbEntity
  8
SUNPOU
100
AcDbLine
 10
111.1527982945007
 20
374.007141800354
 30
0.0
 11
111.1527982945007
 21
320.0071418003541
 31
0.0
  0
LINE
  5
24FC
330
6F7
100
AcDbEntity
  8
SUNPOU
100
AcDbLine
 10
236.1527982945008
 20
374.007141800354
 30
0.0
 11
236.1527982945008
 21
320.0071418003541
 31
0.0
  0
LINE
  5
24FD
330
6F7
100
AcDbEntity
  8
SUNPOU
100
AcDbLine
 10
116.1527982945007
 20
322.0071418003541
 30
0.0
 11
231.1527982945007
 21
322.0071418003541
 31
0.0
  0
MTEXT
  5
24FE
330
6F7
100
AcDbEntity
  8
SUNPOU
100
AcDbMText
 10
161.348479466874
 20
326.507141800354
 30
0.0
 40
5.0
 41
0.0
 71
     5
 72
     1
  1
\A1;125
  7
SUNPOU
1001
ACAD
1000
MTEXTBEGIN
1070
    73
1070
     1
1070
    44
1040
1.0
1070
    74
1070
     0
1000
MTEXTEND
1000
MTEXTBEGIN
1070
    73
1070
     1
1070
    44
1040
1.0
1070
    74
1070
     0
1000
MTEXTEND
  0
INSERT
  5
24FF
330
6F7
100
AcDbEntity
  8
SUNPOU
100
AcDbBlockReference
  2
_OPEN30
 10
111.1527982945007
 20
322.0071418003541
 30
0.0
 41
5.0
 42
5.0
 43
5.0
 50
180.0
  0
INSERT
  5
2500
330
6F7
100
AcDbEntity
  8
SUNPOU
100
AcDbBlockReference
  2
_OPEN30
 10
236.1527982945008
 20
322.0071418003541
 30
0.0
 41
5.0
 42
5.0
 43
5.0
  0
POINT
  5
2501
330
6F7
100
AcDbEntity
  8
DEFPOINTS
 62
     0
100
AcDbPoint
 10
111.1527982945007
 20
377.007141800354
 30
0.0
  0
POINT
  5
2502
330
6F7
100
AcDbEntity
  8
DEFPOINTS
 62
     0
100
AcDbPoint
 10
236.1527982945008
 20
377.007141800354
 30
0.0
  0
POINT
  5
2503
330
6F7
100
AcDbEntity
  8
DEFPOINTS
 62
     0
100
AcDbPoint
 10
236.1527982945008
 20
322.0071418003541
 30
0.0
  0
ENDBLK
  5
702
330
6F7
100
AcDbEntity
  8
0
100
AcDbBlockEnd
  0
BLOCK
  5
70E
330
704
100
AcDbEntity
  8
0
100
AcDbBlockBegin
  2
*D12
 70
     1
 10
0.0
 20
0.0
 30
0.0
  3
*D12
  1

  0
LINE
  5
24F2
330
704
100
AcDbEntity
  8
SUNPOU
100
AcDbLine
 10
236.1527982945008
 20
374.007141800354
 30
0.0
 11
236.1527982945008
 21
320.0071418003541
 31
0.0
  0
LINE
  5
24F3
330
704
100
AcDbEntity
  8
SUNPOU
100
AcDbLine
 10
301.1527982945008
 20
374.007141800354
 30
0.0
 11
301.1527982945008
 21
320.0071418003541
 31
0.0
  0
LINE
  5
24F4
330
704
100
AcDbEntity
  8
SUNPOU
100
AcDbLine
 10
241.1527982945008
 20
322.0071418003541
 30
0.0
 11
296.1527982945008
 21
322.0071418003541
 31
0.0
  0
INSERT
  5
24F5
330
704
100
AcDbEntity
  8
SUNPOU
100
AcDbBlockReference
  2
_OPEN30
 10
236.1527982945008
 20
322.0071418003541
 30
0.0
 41
5.0
 42
5.0
 43
5.0
 50
180.0
  0
INSERT
  5
24F6
330
704
100
AcDbEntity
  8
SUNPOU
100
AcDbBlockReference
  2
_OPEN30
 10
301.1527982945008
 20
322.0071418003541
 30
0.0
 41
5.0
 42
5.0
 43
5.0
  0
MTEXT
  5
24F7
330
704
100
AcDbEntity
  8
SUNPOU
100
AcDbMText
 10
268.6527982945008
 20
326.507141800354
 30
0.0
 40
5.0
 41
0.0
 71
     5
 72
     1
  1
\A1;65
  7
SUNPOU
1001
ACAD
1000
MTEXTBEGIN
1070
    73
1070
     1
1070
    44
1040
1.0
1070
    74
1070
     0
1000
MTEXTEND
1000
MTEXTBEGIN
1070
    73
1070
     1
1070
    44
1040
1.0
1070
    74
1070
     0
1000
MTEXTEND
  0
POINT
  5
24F8
330
704
100
AcDbEntity
  8
DEFPOINTS
 62
     0
100
AcDbPoint
 10
236.1527982945008
 20
377.007141800354
 30
0.0
  0
POINT
  5
24F9
330
704
100
AcDbEntity
  8
DEFPOINTS
 62
     0
100
AcDbPoint
 10
301.1527982945008
 20
377.007141800354
 30
0.0
  0
POINT
  5
24FA
330
704
100
AcDbEntity
  8
DEFPOINTS
 62
     0
100
AcDbPoint
 10
301.1527982945008
 20
322.0071418003541
 30
0.0
  0
ENDBLK
  5
70F
330
704
100
AcDbEntity
  8
0
100
AcDbBlockEnd
  0
BLOCK
  5
71B
330
711
100
AcDbEntity
  8
0
100
AcDbBlockBegin
  2
*D13
 70
     1
 10
0.0
 20
0.0
 30
0.0
  3
*D13
  1

  0
LINE
  5
24E9
330
711
100
AcDbEntity
  8
SUNPOU
100
AcDbLine
 10
111.1527982945007
 20
374.007141800354
 30
0.0
 11
111.1527982945007
 21
305.007141800354
 31
0.0
  0
LINE
  5
24EA
330
711
100
AcDbEntity
  8
SUNPOU
100
AcDbLine
 10
301.1527982945008
 20
374.007141800354
 30
0.0
 11
301.1527982945008
 21
305.007141800354
 31
0.0
  0
LINE
  5
24EB
330
711
100
AcDbEntity
  8
SUNPOU
100
AcDbLine
 10
116.1527982945007
 20
307.007141800354
 30
0.0
 11
296.1527982945008
 21
307.007141800354
 31
0.0
  0
MTEXT
  5
24EC
330
711
100
AcDbEntity
  8
SUNPOU
100
AcDbMText
 10
201.0572309604957
 20
311.507141800354
 30
0.0
 40
5.0
 41
0.0
 71
     5
 72
     1
  1
\A1;190
  7
SUNPOU
1001
ACAD
1000
MTEXTBEGIN
1070
    73
1070
     1
1070
    44
1040
1.0
1070
    74
1070
     0
1000
MTEXTEND
1000
MTEXTBEGIN
1070
    73
1070
     1
1070
    44
1040
1.0
1070
    74
1070
     0
1000
MTEXTEND
  0
INSERT
  5
24ED
330
711
100
AcDbEntity
  8
SUNPOU
100
AcDbBlockReference
  2
_OPEN30
 10
111.1527982945007
 20
307.007141800354
 30
0.0
 41
5.0
 42
5.0
 43
5.0
 50
180.0
  0
INSERT
  5
24EE
330
711
100
AcDbEntity
  8
SUNPOU
100
AcDbBlockReference
  2
_OPEN30
 10
301.1527982945008
 20
307.007141800354
 30
0.0
 41
5.0
 42
5.0
 43
5.0
  0
POINT
  5
24EF
330
711
100
AcDbEntity
  8
DEFPOINTS
 62
     0
100
AcDbPoint
 10
111.1527982945007
 20
377.007141800354
 30
0.0
  0
POINT
  5
24F0
330
711
100
AcDbEntity
  8
DEFPOINTS
 62
     0
100
AcDbPoint
 10
301.1527982945008
 20
377.007141800354
 30
0.0
  0
POINT
  5
24F1
330
711
100
AcDbEntity
  8
DEFPOINTS
 62
     0
100
AcDbPoint
 10
301.1527982945008
 20
307.007141800354
 30
0.0
  0
ENDBLK
  5
71C
330
711
100
AcDbEntity
  8
0
100
AcDbBlockEnd
  0
BLOCK
  5
728
330
71E
100
AcDbEntity
  8
0
100
AcDbBlockBegin
  2
*D14
 70
     1
 10
0.0
 20
0.0
 30
0.0
  3
*D14
  1

  0
LINE
  5
24E0
330
71E
100
AcDbEntity
  8
SUNPOU
100
AcDbLine
 10
108.1527982945007
 20
377.007141800354
 30
0.0
 11
74.1527982945008
 21
377.007141800354
 31
0.0
  0
LINE
  5
24E1
330
71E
100
AcDbEntity
  8
SUNPOU
100
AcDbLine
 10
133.1527982945006
 20
392.007141800354
 30
0.0
 11
74.1527982945008
 21
392.0071418003541
 31
0.0
  0
LINE
  5
24E2
330
71E
100
AcDbEntity
  8
SUNPOU
100
AcDbLine
 10
76.1527982945008
 20
382.007141800354
 30
0.0
 11
76.1527982945008
 21
387.0071418003541
 31
0.0
  0
INSERT
  5
24E3
330
71E
100
AcDbEntity
  8
SUNPOU
100
AcDbBlockReference
  2
_OPEN30
 10
76.1527982945008
 20
377.007141800354
 30
0.0
 41
5.0
 42
5.0
 43
5.0
 50
270.0
  0
INSERT
  5
24E4
330
71E
100
AcDbEntity
  8
SUNPOU
100
AcDbBlockReference
  2
_OPEN30
 10
76.1527982945008
 20
392.0071418003541
 30
0.0
 41
5.0
 42
5.0
 43
5.0
 50
90.0
  0
MTEXT
  5
24E5
330
71E
100
AcDbEntity
  8
SUNPOU
100
AcDbMText
 10
71.65279829450073
 20
384.5071418003541
 30
0.0
 40
5.0
 41
0.0
 71
     5
 72
     1
  1
\A1;15
  7
SUNPOU
 11
0.0000000000000001
 21
1.0
 31
0.0
1001
ACAD
1000
MTEXTBEGIN
1070
    73
1070
     1
1070
    44
1040
1.0
1070
    74
1070
     0
1000
MTEXTEND
1000
MTEXTBEGIN
1070
    73
1070
     1
1070
    44
1040
1.0
1070
    74
1070
     0
1000
MTEXTEND
  0
POINT
  5
24E6
330
71E
100
AcDbEntity
  8
DEFPOINTS
 62
     0
100
AcDbPoint
 10
111.1527982945007
 20
377.007141800354
 30
0.0
  0
POINT
  5
24E7
330
71E
100
AcDbEntity
  8
DEFPOINTS
 62
     0
100
AcDbPoint
 10
136.1527982945006
 20
392.007141800354
 30
0.0
  0
POINT
  5
24E8
330
71E
100
AcDbEntity
  8
DEFPOINTS
 62
     0
100
AcDbPoint
 10
76.1527982945008
 20
392.0071418003541
 30
0.0
  0
ENDBLK
  5
729
330
71E
100
AcDbEntity
  8
0
100
AcDbBlockEnd
  0
BLOCK
  5
735
330
72B
100
AcDbEntity
  8
0
100
AcDbBlockBegin
  2
*D15
 70
     1
 10
0.0
 20
0.0
 30
0.0
  3
*D15
  1

  0
LINE
  5
24D7
330
72B
100
AcDbEntity
  8
SUNPOU
100
AcDbLine
 10
133.1527982945006
 20
392.007141800354
 30
0.0
 11
74.1527982945008
 21
392.0071418003541
 31
0.0
  0
LINE
  5
24D8
330
72B
100
AcDbEntity
  8
SUNPOU
100
AcDbLine
 10
178.9812505137148
 20
532.0073052907721
 30
0.0
 11
74.15279829450081
 21
532.0073052907721
 31
0.0
  0
LINE
  5
24D9
330
72B
100
AcDbEntity
  8
SUNPOU
100
AcDbLine
 10
76.1527982945008
 20
397.0071418003541
 30
0.0
 11
76.15279829450081
 21
527.0073052907721
 31
0.0
  0
INSERT
  5
24DA
330
72B
100
AcDbEntity
  8
SUNPOU
100
AcDbBlockReference
  2
_OPEN30
 10
76.1527982945008
 20
392.0071418003541
 30
0.0
 41
5.0
 42
5.0
 43
5.0
 50
270.0
  0
INSERT
  5
24DB
330
72B
100
AcDbEntity
  8
SUNPOU
100
AcDbBlockReference
  2
_OPEN30
 10
76.15279829450081
 20
532.0073052907721
 30
0.0
 41
5.0
 42
5.0
 43
5.0
 50
90.0
  0
MTEXT
  5
24DC
330
72B
100
AcDbEntity
  8
SUNPOU
100
AcDbMText
 10
71.65279829450073
 20
462.0072235455631
 30
0.0
 40
5.0
 41
0.0
 71
     5
 72
     1
  1
\A1;直付け台板　140
  7
SUNPOU
 11
0.0000000000000001
 21
1.0
 31
0.0
1001
ACAD
1000
MTEXTBEGIN
1070
    73
1070
     1
1070
    44
1040
1.0
1070
    74
1070
     0
1000
MTEXTEND
1000
MTEXTBEGIN
1070
    73
1070
     1
1070
    44
1040
1.0
1070
    74
1070
     0
1000
MTEXTEND
  0
POINT
  5
24DD
330
72B
100
AcDbEntity
  8
DEFPOINTS
 62
     0
100
AcDbPoint
 10
136.1527982945006
 20
392.007141800354
 30
0.0
  0
POINT
  5
24DE
330
72B
100
AcDbEntity
  8
DEFPOINTS
 62
     0
100
AcDbPoint
 10
181.9812505137148
 20
532.0073052907721
 30
0.0
  0
POINT
  5
24DF
330
72B
100
AcDbEntity
  8
DEFPOINTS
 62
     0
100
AcDbPoint
 10
76.15279829450081
 20
532.0073052907721
 30
0.0
  0
ENDBLK
  5
736
330
72B
100
AcDbEntity
  8
0
100
AcDbBlockEnd
  0
BLOCK
  5
742
330
738
100
AcDbEntity
  8
0
100
AcDbBlockBegin
  2
*D16
 70
     1
 10
0.0
 20
0.0
 30
0.0
  3
*D16
  1

  0
LINE
  5
24CE
330
738
100
AcDbEntity
  8
SUNPOU
100
AcDbLine
 10
113.1527982945007
 20
377.007141800354
 30
0.0
 11
92.62317155603629
 21
377.007141800354
 31
0.0
  0
LINE
  5
24CF
330
738
100
AcDbEntity
  8
SUNPOU
100
AcDbLine
 10
146.7174496613958
 20
398.0071420028485
 30
0.0
 11
92.62317155603629
 21
398.0071420028485
 31
0.0
  0
LINE
  5
24D0
330
738
100
AcDbEntity
  8
SUNPOU
100
AcDbLine
 10
94.62317155603626
 20
382.007141800354
 30
0.0
 11
94.62317155603626
 21
393.0071420028486
 31
0.0
  0
INSERT
  5
24D1
330
738
100
AcDbEntity
  8
SUNPOU
100
AcDbBlockReference
  2
_OPEN30
 10
94.62317155603626
 20
377.007141800354
 30
0.0
 41
5.0
 42
5.0
 43
5.0
 50
270.0
  0
INSERT
  5
24D2
330
738
100
AcDbEntity
  8
SUNPOU
100
AcDbBlockReference
  2
_OPEN30
 10
94.62317155603626
 20
398.0071420028485
 30
0.0
 41
5.0
 42
5.0
 43
5.0
 50
90.0
  0
MTEXT
  5
24D3
330
738
100
AcDbEntity
  8
SUNPOU
100
AcDbMText
 10
90.12317155603621
 20
387.5071419016013
 30
0.0
 40
5.0
 41
0.0
 71
     5
 72
     1
  1
\A1;21
  7
SUNPOU
 11
0.0000000000000001
 21
1.0
 31
0.0
1001
ACAD
1000
MTEXTBEGIN
1070
    73
1070
     1
1070
    44
1040
1.0
1070
    74
1070
     0
1000
MTEXTEND
1000
MTEXTBEGIN
1070
    73
1070
     1
1070
    44
1040
1.0
1070
    74
1070
     0
1000
MTEXTEND
  0
POINT
  5
24D4
330
738
100
AcDbEntity
  8
DEFPOINTS
 62
     0
100
AcDbPoint
 10
116.1527982945007
 20
377.007141800354
 30
0.0
  0
POINT
  5
24D5
330
738
100
AcDbEntity
  8
DEFPOINTS
 62
     0
100
AcDbPoint
 10
149.7174496613958
 20
398.0071420028485
 30
0.0
  0
POINT
  5
24D6
330
738
100
AcDbEntity
  8
DEFPOINTS
 62
     0
100
AcDbPoint
 10
94.62317155603626
 20
398.0071420028485
 30
0.0
  0
ENDBLK
  5
743
330
738
100
AcDbEntity
  8
0
100
AcDbBlockEnd
  0
BLOCK
  5
74F
330
745
100
AcDbEntity
  8
0
100
AcDbBlockBegin
  2
*D17
 70
     1
 10
0.0
 20
0.0
 30
0.0
  3
*D17
  1

  0
LINE
  5
24C5
330
745
100
AcDbEntity
  8
SUNPOU
100
AcDbLine
 10
146.7174496613958
 20
398.0071420028485
 30
0.0
 11
92.62317155603629
 21
398.0071420028485
 31
0.0
  0
LINE
  5
24C6
330
745
100
AcDbEntity
  8
SUNPOU
100
AcDbLine
 10
146.9174496613954
 20
435.0075848421162
 30
0.0
 11
92.62317155603629
 21
435.0075848421163
 31
0.0
  0
LINE
  5
24C7
330
745
100
AcDbEntity
  8
SUNPOU
100
AcDbLine
 10
94.62317155603626
 20
403.0071420028486
 30
0.0
 11
94.62317155603628
 21
430.0075848421163
 31
0.0
  0
INSERT
  5
24C8
330
745
100
AcDbEntity
  8
SUNPOU
100
AcDbBlockReference
  2
_OPEN30
 10
94.62317155603626
 20
398.0071420028485
 30
0.0
 41
5.0
 42
5.0
 43
5.0
 50
270.0
  0
INSERT
  5
24C9
330
745
100
AcDbEntity
  8
SUNPOU
100
AcDbBlockReference
  2
_OPEN30
 10
94.62317155603628
 20
435.0075848421163
 30
0.0
 41
5.0
 42
5.0
 43
5.0
 50
90.0
  0
MTEXT
  5
24CA
330
745
100
AcDbEntity
  8
SUNPOU
100
AcDbMText
 10
90.12317155603621
 20
416.5073634224824
 30
0.0
 40
5.0
 41
0.0
 71
     5
 72
     1
  1
\A1;37
  7
SUNPOU
 11
0.0000000000000001
 21
1.0
 31
0.0
1001
ACAD
1000
MTEXTBEGIN
1070
    73
1070
     1
1070
    44
1040
1.0
1070
    74
1070
     0
1000
MTEXTEND
1000
MTEXTBEGIN
1070
    73
1070
     1
1070
    44
1040
1.0
1070
    74
1070
     0
1000
MTEXTEND
  0
POINT
  5
24CB
330
745
100
AcDbEntity
  8
DEFPOINTS
 62
     0
100
AcDbPoint
 10
149.7174496613958
 20
398.0071420028485
 30
0.0
  0
POINT
  5
24CC
330
745
100
AcDbEntity
  8
DEFPOINTS
 62
     0
100
AcDbPoint
 10
149.9174496613954
 20
435.0075848421162
 30
0.0
  0
POINT
  5
24CD
330
745
100
AcDbEntity
  8
DEFPOINTS
 62
     0
100
AcDbPoint
 10
94.62317155603628
 20
435.0075848421163
 30
0.0
  0
ENDBLK
  5
750
330
745
100
AcDbEntity
  8
0
100
AcDbBlockEnd
  0
BLOCK
  5
75C
330
752
100
AcDbEntity
  8
0
100
AcDbBlockBegin
  2
*D18
 70
     1
 10
0.0
 20
0.0
 30
0.0
  3
*D18
  1

  0
LINE
  5
24BC
330
752
100
AcDbEntity
  8
SUNPOU
100
AcDbLine
 10
146.9174496613954
 20
435.0075848421162
 30
0.0
 11
92.62317155603629
 21
435.0075848421163
 31
0.0
  0
LINE
  5
24BD
330
752
100
AcDbEntity
  8
SUNPOU
100
AcDbLine
 10
147.2174496613958
 20
468.0071420028485
 30
0.0
 11
92.62317155603629
 21
468.0071420028485
 31
0.0
  0
LINE
  5
24BE
330
752
100
AcDbEntity
  8
SUNPOU
100
AcDbLine
 10
94.62317155603628
 20
440.0075848421161
 30
0.0
 11
94.62317155603628
 21
463.0071420028485
 31
0.0
  0
INSERT
  5
24BF
330
752
100
AcDbEntity
  8
SUNPOU
100
AcDbBlockReference
  2
_OPEN30
 10
94.62317155603628
 20
435.0075848421163
 30
0.0
 41
5.0
 42
5.0
 43
5.0
 50
270.0
  0
INSERT
  5
24C0
330
752
100
AcDbEntity
  8
SUNPOU
100
AcDbBlockReference
  2
_OPEN30
 10
94.62317155603628
 20
468.0071420028485
 30
0.0
 41
5.0
 42
5.0
 43
5.0
 50
90.0
  0
MTEXT
  5
24C1
330
752
100
AcDbEntity
  8
SUNPOU
100
AcDbMText
 10
90.12317155603621
 20
451.5073634224823
 30
0.0
 40
5.0
 41
0.0
 71
     5
 72
     1
  1
\A1;33
  7
SUNPOU
 11
0.0000000000000001
 21
1.0
 31
0.0
1001
ACAD
1000
MTEXTBEGIN
1070
    73
1070
     1
1070
    44
1040
1.0
1070
    74
1070
     0
1000
MTEXTEND
1000
MTEXTBEGIN
1070
    73
1070
     1
1070
    44
1040
1.0
1070
    74
1070
     0
1000
MTEXTEND
  0
POINT
  5
24C2
330
752
100
AcDbEntity
  8
DEFPOINTS
 62
     0
100
AcDbPoint
 10
149.9174496613954
 20
435.0075848421162
 30
0.0
  0
POINT
  5
24C3
330
752
100
AcDbEntity
  8
DEFPOINTS
 62
     0
100
AcDbPoint
 10
150.2174496613958
 20
468.0071420028485
 30
0.0
  0
POINT
  5
24C4
330
752
100
AcDbEntity
  8
DEFPOINTS
 62
     0
100
AcDbPoint
 10
94.62317155603628
 20
468.0071420028485
 30
0.0
  0
ENDBLK
  5
75D
330
752
100
AcDbEntity
  8
0
100
AcDbBlockEnd
  0
BLOCK
  5
769
330
75F
100
AcDbEntity
  8
0
100
AcDbBlockBegin
  2
*D19
 70
     1
 10
0.0
 20
0.0
 30
0.0
  3
*D19
  1

  0
LINE
  5
24B3
330
75F
100
AcDbEntity
  8
SUNPOU
100
AcDbLine
 10
147.2174496613958
 20
468.0071420028485
 30
0.0
 11
92.62317155603629
 21
468.0071420028485
 31
0.0
  0
LINE
  5
24B4
330
75F
100
AcDbEntity
  8
SUNPOU
100
AcDbLine
 10
147.2174496613958
 20
508.0071420028485
 30
0.0
 11
92.6231715560363
 21
508.0071420028485
 31
0.0
  0
LINE
  5
24B5
330
75F
100
AcDbEntity
  8
SUNPOU
100
AcDbLine
 10
94.62317155603628
 20
473.0071420028486
 30
0.0
 11
94.6231715560363
 21
503.0071420028486
 31
0.0
  0
INSERT
  5
24B6
330
75F
100
AcDbEntity
  8
SUNPOU
100
AcDbBlockReference
  2
_OPEN30
 10
94.62317155603628
 20
468.0071420028485
 30
0.0
 41
5.0
 42
5.0
 43
5.0
 50
270.0
  0
INSERT
  5
24B7
330
75F
100
AcDbEntity
  8
SUNPOU
100
AcDbBlockReference
  2
_OPEN30
 10
94.6231715560363
 20
508.0071420028485
 30
0.0
 41
5.0
 42
5.0
 43
5.0
 50
90.0
  0
MTEXT
  5
24B8
330
75F
100
AcDbEntity
  8
SUNPOU
100
AcDbMText
 10
90.12317155603621
 20
488.0071420028485
 30
0.0
 40
5.0
 41
0.0
 71
     5
 72
     1
  1
\A1;40
  7
SUNPOU
 11
0.0000000000000001
 21
1.0
 31
0.0
1001
ACAD
1000
MTEXTBEGIN
1070
    73
1070
     1
1070
    44
1040
1.0
1070
    74
1070
     0
1000
MTEXTEND
1000
MTEXTBEGIN
1070
    73
1070
     1
1070
    44
1040
1.0
1070
    74
1070
     0
1000
MTEXTEND
  0
POINT
  5
24B9
330
75F
100
AcDbEntity
  8
DEFPOINTS
 62
     0
100
AcDbPoint
 10
150.2174496613958
 20
468.0071420028485
 30
0.0
  0
POINT
  5
24BA
330
75F
100
AcDbEntity
  8
DEFPOINTS
 62
     0
100
AcDbPoint
 10
150.2174496613958
 20
508.0071420028485
 30
0.0
  0
POINT
  5
24BB
330
75F
100
AcDbEntity
  8
DEFPOINTS
 62
     0
100
AcDbPoint
 10
94.6231715560363
 20
508.0071420028485
 30
0.0
  0
ENDBLK
  5
76A
330
75F
100
AcDbEntity
  8
0
100
AcDbBlockEnd
  0
BLOCK
  5
776
330
76C
100
AcDbEntity
  8
0
100
AcDbBlockBegin
  2
*D20
 70
     1
 10
0.0
 20
0.0
 30
0.0
  3
*D20
  1

  0
LINE
  5
24AA
330
76C
100
AcDbEntity
  8
SUNPOU
100
AcDbLine
 10
168.1527982945012
 20
182.7340810037081
 30
0.0
 11
94.15279829450078
 21
182.7340810037081
 31
0.0
  0
LINE
  5
24AB
330
76C
100
AcDbEntity
  8
SUNPOU
100
AcDbLine
 10
125.3457121706857
 20
248.0071418003539
 30
0.0
 11
94.15279829450078
 21
248.0071418003539
 31
0.0
  0
LINE
  5
24AC
330
76C
100
AcDbEntity
  8
SUNPOU
100
AcDbLine
 10
96.15279829450079
 20
187.7340810037081
 30
0.0
 11
96.15279829450079
 21
243.007141800354
 31
0.0
  0
INSERT
  5
24AD
330
76C
100
AcDbEntity
  8
SUNPOU
100
AcDbBlockReference
  2
_OPEN30
 10
96.15279829450079
 20
182.7340810037081
 30
0.0
 41
5.0
 42
5.0
 43
5.0
 50
270.0
  0
INSERT
  5
24AE
330
76C
100
AcDbEntity
  8
SUNPOU
100
AcDbBlockReference
  2
_OPEN30
 10
96.15279829450079
 20
248.0071418003539
 30
0.0
 41
5.0
 42
5.0
 43
5.0
 50
90.0
  0
MTEXT
  5
24AF
330
76C
100
AcDbEntity
  8
SUNPOU
100
AcDbMText
 10
91.65279829450076
 20
215.3706114020311
 30
0.0
 40
5.0
 41
0.0
 71
     5
 72
     1
  1
\A1;600
  7
SUNPOU
 11
0.0000000000000001
 21
1.0
 31
0.0
1001
ACAD
1000
MTEXTBEGIN
1070
    73
1070
     1
1070
    44
1040
1.0
1070
    74
1070
     0
1000
MTEXTEND
1000
MTEXTBEGIN
1070
    73
1070
     1
1070
    44
1040
1.0
1070
    74
1070
     0
1000
MTEXTEND
  0
POINT
  5
24B0
330
76C
100
AcDbEntity
  8
DEFPOINTS
 62
     0
100
AcDbPoint
 10
171.1527982945012
 20
182.7340810037081
 30
0.0
  0
POINT
  5
24B1
330
76C
100
AcDbEntity
  8
DEFPOINTS
 62
     0
100
AcDbPoint
 10
128.3457121706858
 20
248.0071418003539
 30
0.0
  0
POINT
  5
24B2
330
76C
100
AcDbEntity
  8
DEFPOINTS
 62
     0
100
AcDbPoint
 10
96.15279829450079
 20
248.0071418003539
 30
0.0
  0
ENDBLK
  5
777
330
76C
100
AcDbEntity
  8
0
100
AcDbBlockEnd
  0
BLOCK
  5
78C
330
782
100
AcDbEntity
  8
0
100
AcDbBlockBegin
  2
*D21
 70
     1
 10
0.0
 20
0.0
 30
0.0
  3
*D21
  1

  0
LINE
  5
24A1
330
782
100
AcDbEntity
  8
SUNPOU
100
AcDbLine
 10
207.652798294501
 20
160.7340810037081
 30
0.0
 11
283.1527982945008
 21
160.7340810037081
 31
0.0
  0
LINE
  5
24A2
330
782
100
AcDbEntity
  8
SUNPOU
100
AcDbLine
 10
216.902798294501
 20
185.734081003708
 30
0.0
 11
283.1527982945008
 21
185.734081003708
 31
0.0
  0
LINE
  5
24A3
330
782
100
AcDbEntity
  8
SUNPOU
100
AcDbLine
 10
281.1527982945007
 20
165.7340810037081
 30
0.0
 11
281.1527982945007
 21
180.734081003708
 31
0.0
  0
INSERT
  5
24A4
330
782
100
AcDbEntity
  8
SUNPOU
100
AcDbBlockReference
  2
_OPEN30
 10
281.1527982945007
 20
160.7340810037081
 30
0.0
 41
5.0
 42
5.0
 43
5.0
 50
270.0
  0
INSERT
  5
24A5
330
782
100
AcDbEntity
  8
SUNPOU
100
AcDbBlockReference
  2
_OPEN30
 10
281.1527982945007
 20
185.734081003708
 30
0.0
 41
5.0
 42
5.0
 43
5.0
 50
90.0
  0
MTEXT
  5
24A6
330
782
100
AcDbEntity
  8
SUNPOU
100
AcDbMText
 10
276.6527982945007
 20
173.2340810037081
 30
0.0
 40
5.0
 41
0.0
 71
     5
 72
     1
  1
\A1;25
  7
SUNPOU
 11
0.0000000000000001
 21
1.0
 31
0.0
1001
ACAD
1000
MTEXTBEGIN
1070
    73
1070
     1
1070
    44
1040
1.0
1070
    74
1070
     0
1000
MTEXTEND
1000
MTEXTBEGIN
1070
    73
1070
     1
1070
    44
1040
1.0
1070
    74
1070
     0
1000
MTEXTEND
  0
POINT
  5
24A7
330
782
100
AcDbEntity
  8
DEFPOINTS
 62
     0
100
AcDbPoint
 10
204.652798294501
 20
160.7340810037081
 30
0.0
  0
POINT
  5
24A8
330
782
100
AcDbEntity
  8
DEFPOINTS
 62
     0
100
AcDbPoint
 10
213.9027982945012
 20
185.734081003708
 30
0.0
  0
POINT
  5
24A9
330
782
100
AcDbEntity
  8
DEFPOINTS
 62
     0
100
AcDbPoint
 10
281.1527982945007
 20
185.734081003708
 30
0.0
  0
ENDBLK
  5
78D
330
782
100
AcDbEntity
  8
0
100
AcDbBlockEnd
  0
BLOCK
  5
79B
330
78F
100
AcDbEntity
  8
0
100
AcDbBlockBegin
  2
*D22
 70
     1
 10
0.0
 20
0.0
 30
0.0
  3
*D22
  1

  0
LINE
  5
2496
330
78F
100
AcDbEntity
  8
SUNPOU
100
AcDbLine
 10
239.1527982945008
 20
182.7340810037081
 30
0.0
 11
261.6158539417483
 21
182.7340810037081
 31
0.0
  0
LINE
  5
2497
330
78F
100
AcDbEntity
  8
SUNPOU
100
AcDbLine
 10
216.902798294501
 20
185.734081003708
 30
0.0
 11
261.6158539417483
 21
185.734081003708
 31
0.0
  0
LINE
  5
2498
330
78F
100
AcDbEntity
  8
SUNPOU
100
AcDbLine
 10
259.6158539417483
 20
177.7340810037083
 30
0.0
 11
259.6158539417483
 21
172.7340810037083
 31
0.0
  0
LINE
  5
2499
330
78F
100
AcDbEntity
  8
SUNPOU
100
AcDbLine
 10
259.6158539417483
 20
190.734081003708
 30
0.0
 11
259.6158539417483
 21
195.734081003708
 31
0.0
  0
MTEXT
  5
249A
330
78F
100
AcDbEntity
  8
SUNPOU
100
AcDbMText
 10
255.1158539417483
 20
175.3472371291783
 30
0.0
 40
5.0
 41
0.0
 71
     5
 72
     1
  1
\A1;3
  7
SUNPOU
 11
0.0000000000000001
 21
1.0
 31
0.0
1001
ACAD
1000
MTEXTBEGIN
1070
    73
1070
     1
1070
    44
1040
1.0
1070
    74
1070
     0
1000
MTEXTEND
1000
MTEXTBEGIN
1070
    73
1070
     1
1070
    44
1040
1.0
1070
    74
1070
     0
1000
MTEXTEND
  0
LINE
  5
249B
330
78F
100
AcDbEntity
  8
SUNPOU
100
AcDbLine
 10
259.6158539417483
 20
182.7340810037081
 30
0.0
 11
259.6158539417483
 21
185.734081003708
 31
0.0
  0
INSERT
  5
249C
330
78F
100
AcDbEntity
  8
SUNPOU
100
AcDbBlockReference
  2
_OPEN30
 10
259.6158539417483
 20
182.7340810037081
 30
0.0
 41
5.0
 42
5.0
 43
5.0
 50
90.0
  0
INSERT
  5
249D
330
78F
100
AcDbEntity
  8
SUNPOU
100
AcDbBlockReference
  2
_OPEN30
 10
259.6158539417483
 20
185.734081003708
 30
0.0
 41
5.0
 42
5.0
 43
5.0
 50
270.0
  0
POINT
  5
249E
330
78F
100
AcDbEntity
  8
DEFPOINTS
 62
     0
100
AcDbPoint
 10
236.1527982945008
 20
182.7340810037081
 30
0.0
  0
POINT
  5
249F
330
78F
100
AcDbEntity
  8
DEFPOINTS
 62
     0
100
AcDbPoint
 10
213.9027982945012
 20
185.734081003708
 30
0.0
  0
POINT
  5
24A0
330
78F
100
AcDbEntity
  8
DEFPOINTS
 62
     0
100
AcDbPoint
 10
259.6158539417483
 20
185.734081003708
 30
0.0
  0
ENDBLK
  5
79C
330
78F
100
AcDbEntity
  8
0
100
AcDbBlockEnd
  0
BLOCK
  5
7AA
330
79E
100
AcDbEntity
  8
0
100
AcDbBlockBegin
  2
*D23
 70
     1
 10
0.0
 20
0.0
 30
0.0
  3
*D23
  1

  0
LINE
  5
248B
330
79E
100
AcDbEntity
  8
SUNPOU
100
AcDbLine
 10
239.1527982945008
 20
182.7340810037081
 30
0.0
 11
343.1527982945008
 21
182.7340810037081
 31
0.0
  0
LINE
  5
248C
330
79E
100
AcDbEntity
  8
SUNPOU
100
AcDbLine
 10
219.1527982945006
 20
192.7340810037081
 30
0.0
 11
343.1527982945008
 21
192.7340810037081
 31
0.0
  0
LINE
  5
248D
330
79E
100
AcDbEntity
  8
SUNPOU
100
AcDbLine
 10
341.1527982945008
 20
177.7340810037081
 30
0.0
 11
341.1527982945008
 21
172.7340810037081
 31
0.0
  0
LINE
  5
248E
330
79E
100
AcDbEntity
  8
SUNPOU
100
AcDbLine
 10
341.1527982945008
 20
197.7340810037081
 30
0.0
 11
341.1527982945008
 21
202.7340810037081
 31
0.0
  0
LINE
  5
248F
330
79E
100
AcDbEntity
  8
SUNPOU
100
AcDbLine
 10
341.1527982945008
 20
182.7340810037081
 30
0.0
 11
341.1527982945008
 21
192.7340810037081
 31
0.0
  0
INSERT
  5
2490
330
79E
100
AcDbEntity
  8
SUNPOU
100
AcDbBlockReference
  2
_OPEN30
 10
341.1527982945008
 20
182.7340810037081
 30
0.0
 41
5.0
 42
5.0
 43
5.0
 50
90.0
  0
INSERT
  5
2491
330
79E
100
AcDbEntity
  8
SUNPOU
100
AcDbBlockReference
  2
_OPEN30
 10
341.1527982945008
 20
192.7340810037081
 30
0.0
 41
5.0
 42
5.0
 43
5.0
 50
270.0
  0
MTEXT
  5
2492
330
79E
100
AcDbEntity
  8
SUNPOU
100
AcDbMText
 10
336.6527982945007
 20
187.7340810037082
 30
0.0
 40
5.0
 41
0.0
 71
     5
 72
     1
  1
\A1;10
  7
SUNPOU
 11
0.0000000000000001
 21
1.0
 31
0.0
1001
ACAD
1000
MTEXTBEGIN
1070
    73
1070
     1
1070
    44
1040
1.0
1070
    74
1070
     0
1000
MTEXTEND
1000
MTEXTBEGIN
1070
    73
1070
     1
1070
    44
1040
1.0
1070
    74
1070
     0
1000
MTEXTEND
  0
POINT
  5
2493
330
79E
100
AcDbEntity
  8
DEFPOINTS
 62
     0
100
AcDbPoint
 10
236.1527982945008
 20
182.7340810037081
 30
0.0
  0
POINT
  5
2494
330
79E
100
AcDbEntity
  8
DEFPOINTS
 62
     0
100
AcDbPoint
 10
216.1527982945008
 20
192.7340810037081
 30
0.0
  0
POINT
  5
2495
330
79E
100
AcDbEntity
  8
DEFPOINTS
 62
     0
100
AcDbPoint
 10
341.1527982945008
 20
192.7340810037081
 30
0.0
  0
ENDBLK
  5
7AB
330
79E
100
AcDbEntity
  8
0
100
AcDbBlockEnd
  0
BLOCK
  5
7B7
330
7AD
100
AcDbEntity
  8
0
100
AcDbBlockBegin
  2
*D24
 70
     1
 10
0.0
 20
0.0
 30
0.0
  3
*D24
  1

  0
LINE
  5
2482
330
7AD
100
AcDbEntity
  8
SUNPOU
100
AcDbLine
 10
219.1527982945006
 20
192.7340810037081
 30
0.0
 11
343.1527982945008
 21
192.7340810037081
 31
0.0
  0
LINE
  5
2483
330
7AD
100
AcDbEntity
  8
SUNPOU
100
AcDbLine
 10
304.1527982945008
 20
377.007141800354
 30
0.0
 11
343.1527982945008
 21
377.007141800354
 31
0.0
  0
LINE
  5
2484
330
7AD
100
AcDbEntity
  8
SUNPOU
100
AcDbLine
 10
341.1527982945008
 20
197.7340810037081
 30
0.0
 11
341.1527982945008
 21
372.007141800354
 31
0.0
  0
INSERT
  5
2485
330
7AD
100
AcDbEntity
  8
SUNPOU
100
AcDbBlockReference
  2
_OPEN30
 10
341.1527982945008
 20
192.7340810037081
 30
0.0
 41
5.0
 42
5.0
 43
5.0
 50
270.0
  0
INSERT
  5
2486
330
7AD
100
AcDbEntity
  8
SUNPOU
100
AcDbBlockReference
  2
_OPEN30
 10
341.1527982945008
 20
377.007141800354
 30
0.0
 41
5.0
 42
5.0
 43
5.0
 50
90.0
  0
MTEXT
  5
2487
330
7AD
100
AcDbEntity
  8
SUNPOU
100
AcDbMText
 10
336.6527982945007
 20
284.8706114020311
 30
0.0
 40
5.0
 41
0.0
 71
     5
 72
     1
  1
\A1;DH
  7
SUNPOU
 11
0.0000000000000001
 21
1.0
 31
0.0
1001
ACAD
1000
MTEXTBEGIN
1070
    73
1070
     1
1070
    44
1040
1.0
1070
    74
1070
     0
1000
MTEXTEND
1000
MTEXTBEGIN
1070
    73
1070
     1
1070
    44
1040
1.0
1070
    74
1070
     0
1000
MTEXTEND
  0
POINT
  5
2488
330
7AD
100
AcDbEntity
  8
DEFPOINTS
 62
     0
100
AcDbPoint
 10
216.1527982945008
 20
192.7340810037081
 30
0.0
  0
POINT
  5
2489
330
7AD
100
AcDbEntity
  8
DEFPOINTS
 62
     0
100
AcDbPoint
 10
301.1527982945008
 20
377.007141800354
 30
0.0
  0
POINT
  5
248A
330
7AD
100
AcDbEntity
  8
DEFPOINTS
 62
     0
100
AcDbPoint
 10
341.1527982945008
 20
377.007141800354
 30
0.0
  0
ENDBLK
  5
7B8
330
7AD
100
AcDbEntity
  8
0
100
AcDbBlockEnd
  0
BLOCK
  5
7C6
330
7BA
100
AcDbEntity
  8
0
100
AcDbBlockBegin
  2
*D25
 70
     1
 10
0.0
 20
0.0
 30
0.0
  3
*D25
  1

  0
LINE
  5
2477
330
7BA
100
AcDbEntity
  8
SUNPOU
100
AcDbLine
 10
304.1527982945008
 20
377.007141800354
 30
0.0
 11
343.1527982945007
 21
377.007141800354
 31
0.0
  0
LINE
  5
2478
330
7BA
100
AcDbEntity
  8
SUNPOU
100
AcDbLine
 10
219.1527982945006
 20
387.007141800354
 30
0.0
 11
343.1527982945008
 21
387.007141800354
 31
0.0
  0
LINE
  5
2479
330
7BA
100
AcDbEntity
  8
SUNPOU
100
AcDbLine
 10
341.1527982945007
 20
372.007141800354
 30
0.0
 11
341.1527982945007
 21
367.007141800354
 31
0.0
  0
LINE
  5
247A
330
7BA
100
AcDbEntity
  8
SUNPOU
100
AcDbLine
 10
341.1527982945008
 20
392.007141800354
 30
0.0
 11
341.1527982945008
 21
397.007141800354
 31
0.0
  0
LINE
  5
247B
330
7BA
100
AcDbEntity
  8
SUNPOU
100
AcDbLine
 10
341.1527982945007
 20
377.007141800354
 30
0.0
 11
341.1527982945008
 21
387.007141800354
 31
0.0
  0
INSERT
  5
247C
330
7BA
100
AcDbEntity
  8
SUNPOU
100
AcDbBlockReference
  2
_OPEN30
 10
341.1527982945007
 20
377.007141800354
 30
0.0
 41
5.0
 42
5.0
 43
5.0
 50
90.0
  0
INSERT
  5
247D
330
7BA
100
AcDbEntity
  8
SUNPOU
100
AcDbBlockReference
  2
_OPEN30
 10
341.1527982945008
 20
387.007141800354
 30
0.0
 41
5.0
 42
5.0
 43
5.0
 50
270.0
  0
MTEXT
  5
247E
330
7BA
100
AcDbEntity
  8
SUNPOU
100
AcDbMText
 10
336.6527982945007
 20
382.007141800354
 30
0.0
 40
5.0
 41
0.0
 71
     5
 72
     1
  1
\A1;10
  7
SUNPOU
 11
0.0000000000000001
 21
1.0
 31
0.0
1001
ACAD
1000
MTEXTBEGIN
1070
    73
1070
     1
1070
    44
1040
1.0
1070
    74
1070
     0
1000
MTEXTEND
1000
MTEXTBEGIN
1070
    73
1070
     1
1070
    44
1040
1.0
1070
    74
1070
     0
1000
MTEXTEND
  0
POINT
  5
247F
330
7BA
100
AcDbEntity
  8
DEFPOINTS
 62
     0
100
AcDbPoint
 10
301.1527982945008
 20
377.007141800354
 30
0.0
  0
POINT
  5
2480
330
7BA
100
AcDbEntity
  8
DEFPOINTS
 62
     0
100
AcDbPoint
 10
216.1527982945006
 20
387.007141800354
 30
0.0
  0
POINT
  5
2481
330
7BA
100
AcDbEntity
  8
DEFPOINTS
 62
     0
100
AcDbPoint
 10
341.1527982945008
 20
387.007141800354
 30
0.0
  0
ENDBLK
  5
7C7
330
7BA
100
AcDbEntity
  8
0
100
AcDbBlockEnd
  0
BLOCK
  5
7D3
330
7C9
100
AcDbEntity
  8
0
100
AcDbBlockBegin
  2
*D26
 70
     1
 10
0.0
 20
0.0
 30
0.0
  3
*D26
  1

  0
LINE
  5
246E
330
7C9
100
AcDbEntity
  8
SUNPOU
100
AcDbLine
 10
239.1527982945008
 20
182.7340810037081
 30
0.0
 11
363.1527982945008
 21
182.7340810037081
 31
0.0
  0
LINE
  5
246F
330
7C9
100
AcDbEntity
  8
SUNPOU
100
AcDbLine
 10
304.1527982945008
 20
377.007141800354
 30
0.0
 11
363.1527982945008
 21
377.007141800354
 31
0.0
  0
LINE
  5
2470
330
7C9
100
AcDbEntity
  8
SUNPOU
100
AcDbLine
 10
361.1527982945008
 20
187.7340810037081
 30
0.0
 11
361.1527982945008
 21
372.007141800354
 31
0.0
  0
INSERT
  5
2471
330
7C9
100
AcDbEntity
  8
SUNPOU
100
AcDbBlockReference
  2
_OPEN30
 10
361.1527982945008
 20
182.7340810037081
 30
0.0
 41
5.0
 42
5.0
 43
5.0
 50
270.0
  0
INSERT
  5
2472
330
7C9
100
AcDbEntity
  8
SUNPOU
100
AcDbBlockReference
  2
_OPEN30
 10
361.1527982945008
 20
377.007141800354
 30
0.0
 41
5.0
 42
5.0
 43
5.0
 50
90.0
  0
MTEXT
  5
2473
330
7C9
100
AcDbEntity
  8
SUNPOU
100
AcDbMText
 10
356.6527982945006
 20
279.8706114020311
 30
0.0
 40
5.0
 41
0.0
 71
     5
 72
     1
  1
\A1;H
  7
SUNPOU
 11
0.0000000000000001
 21
1.0
 31
0.0
1001
ACAD
1000
MTEXTBEGIN
1070
    73
1070
     1
1070
    44
1040
1.0
1070
    74
1070
     0
1000
MTEXTEND
1000
MTEXTBEGIN
1070
    73
1070
     1
1070
    44
1040
1.0
1070
    74
1070
     0
1000
MTEXTEND
  0
POINT
  5
2474
330
7C9
100
AcDbEntity
  8
DEFPOINTS
 62
     0
100
AcDbPoint
 10
236.1527982945008
 20
182.7340810037081
 30
0.0
  0
POINT
  5
2475
330
7C9
100
AcDbEntity
  8
DEFPOINTS
 62
     0
100
AcDbPoint
 10
301.1527982945008
 20
377.007141800354
 30
0.0
  0
POINT
  5
2476
330
7C9
100
AcDbEntity
  8
DEFPOINTS
 62
     0
100
AcDbPoint
 10
361.1527982945008
 20
377.007141800354
 30
0.0
  0
ENDBLK
  5
7D4
330
7C9
100
AcDbEntity
  8
0
100
AcDbBlockEnd
  0
BLOCK
  5
7E0
330
7D6
100
AcDbEntity
  8
0
100
AcDbBlockBegin
  2
*D27
 70
     1
 10
0.0
 20
0.0
 30
0.0
  3
*D27
  1

  0
LINE
  5
2465
330
7D6
100
AcDbEntity
  8
SUNPOU
100
AcDbLine
 10
304.1527982945008
 20
377.007141800354
 30
0.0
 11
363.1527982945008
 21
377.007141800354
 31
0.0
  0
LINE
  5
2466
330
7D6
100
AcDbEntity
  8
SUNPOU
100
AcDbLine
 10
304.1527982945008
 20
557.007141800354
 30
0.0
 11
363.1527982945009
 21
557.007141800354
 31
0.0
  0
LINE
  5
2467
330
7D6
100
AcDbEntity
  8
SUNPOU
100
AcDbLine
 10
361.1527982945008
 20
382.007141800354
 30
0.0
 11
361.1527982945009
 21
552.0071418003539
 31
0.0
  0
INSERT
  5
2468
330
7D6
100
AcDbEntity
  8
SUNPOU
100
AcDbBlockReference
  2
_OPEN30
 10
361.1527982945008
 20
377.007141800354
 30
0.0
 41
5.0
 42
5.0
 43
5.0
 50
270.0
  0
INSERT
  5
2469
330
7D6
100
AcDbEntity
  8
SUNPOU
100
AcDbBlockReference
  2
_OPEN30
 10
361.1527982945009
 20
557.007141800354
 30
0.0
 41
5.0
 42
5.0
 43
5.0
 50
90.0
  0
MTEXT
  5
246A
330
7D6
100
AcDbEntity
  8
SUNPOU
100
AcDbMText
 10
356.6527982945008
 20
467.0071418003541
 30
0.0
 40
5.0
 41
0.0
 71
     5
 72
     1
  1
\A1;180
  7
SUNPOU
 11
0.0000000000000001
 21
1.0
 31
0.0
1001
ACAD
1000
MTEXTBEGIN
1070
    73
1070
     1
1070
    44
1040
1.0
1070
    74
1070
     0
1000
MTEXTEND
1000
MTEXTBEGIN
1070
    73
1070
     1
1070
    44
1040
1.0
1070
    74
1070
     0
1000
MTEXTEND
  0
POINT
  5
246B
330
7D6
100
AcDbEntity
  8
DEFPOINTS
 62
     0
100
AcDbPoint
 10
301.1527982945008
 20
377.007141800354
 30
0.0
  0
POINT
  5
246C
330
7D6
100
AcDbEntity
  8
DEFPOINTS
 62
     0
100
AcDbPoint
 10
301.1527982945008
 20
557.007141800354
 30
0.0
  0
POINT
  5
246D
330
7D6
100
AcDbEntity
  8
DEFPOINTS
 62
     0
100
AcDbPoint
 10
361.1527982945009
 20
557.007141800354
 30
0.0
  0
ENDBLK
  5
7E1
330
7D6
100
AcDbEntity
  8
0
100
AcDbBlockEnd
  0
BLOCK
  5
DB4
330
DB3
100
AcDbEntity
  8
0
100
AcDbBlockBegin
  2
_OPEN30
 70
     0
 10
0.0
 20
0.0
 30
0.0
  3
_OPEN30
  1

  0
LINE
  5
DB5
330
DB3
100
AcDbEntity
  8
0
  6
BYBLOCK
 62
     0
100
AcDbLine
 10
-1.0
 20
0.26794919
 30
0.0
 11
0.0
 21
0.0
 31
0.0
  0
LINE
  5
DB6
330
DB3
100
AcDbEntity
  8
0
  6
BYBLOCK
 62
     0
100
AcDbLine
 10
0.0
 20
0.0
 30
0.0
 11
-1.0
 21
-0.26794919
 31
0.0
  0
LINE
  5
DB7
330
DB3
100
AcDbEntity
  8
0
  6
BYBLOCK
 62
     0
100
AcDbLine
 10
0.0
 20
0.0
 30
0.0
 11
-1.0
 21
0.0
 31
0.0
  0
ENDBLK
  5
DB8
330
DB3
100
AcDbEntity
  8
0
100
AcDbBlockEnd
  0
ENDSEC
  0
SECTION
  2
ENTITIES
  0
LINE
  5
239
330
A
100
AcDbEntity
  8
06
100
AcDbLine
 10
192.902798294501
 20
380.007141800354
 30
0.0
 11
192.902798294501
 21
375.0571521463648
 31
0.0
  0
LINE
  5
23A
330
A
100
AcDbEntity
  8
06
100
AcDbLine
 10
199.402798294501
 20
380.007141800354
 30
0.0
 11
199.402798294501
 21
375.0571521463648
 31
0.0
  0
LINE
  5
23B
330
A
100
AcDbEntity
  8
06
100
AcDbLine
 10
275.6527982945008
 20
563.4868161323928
 30
0.0
 11
275.6527982945008
 21
553.6896522573068
 31
0.0
  0
LINE
  5
23C
330
A
100
AcDbEntity
  8
06
100
AcDbLine
 10
272.7328987910291
 20
560.007141800354
 30
0.0
 11
278.4099873354284
 21
560.007141800354
 31
0.0
  0
CIRCLE
  5
23D
330
A
100
AcDbEntity
  8
06
100
AcDbCircle
 10
275.6527982945008
 20
560.007141800354
 30
0.0
 40
1.5
  0
LINE
  5
23E
330
A
100
AcDbEntity
  8
06
100
AcDbLine
 10
183.6527982945008
 20
386.007141800354
 30
0.0
 11
183.6527982945007
 21
380.007141800354
 31
0.0
  0
LINE
  5
23F
330
A
100
AcDbEntity
  8
06
100
AcDbLine
 10
208.6527982945006
 20
386.007141800354
 30
0.0
 11
208.6527982945006
 21
380.007141800354
 31
0.0
  0
LINE
  5
240
330
A
100
AcDbEntity
  8
06
100
AcDbLine
 10
183.6527982945008
 20
386.007141800354
 30
0.0
 11
208.6527982945006
 21
386.007141800354
 31
0.0
  0
LINE
  5
241
330
A
100
AcDbEntity
  8
06
100
AcDbLine
 10
206.8827533289654
 20
386.007141800354
 30
0.0
 11
200.8827533289654
 21
380.007141800354
 31
0.0
  0
LINE
  5
242
330
A
100
AcDbEntity
  8
06
100
AcDbLine
 10
208.6527982945006
 20
385.7771867658892
 30
0.0
 11
202.8827533289654
 21
380.007141800354
 31
0.0
  0
LINE
  5
243
330
A
100
AcDbEntity
  8
06
100
AcDbLine
 10
190.5669899830915
 20
386.007141800354
 30
0.0
 11
184.5669899830915
 21
380.007141800354
 31
0.0
  0
LINE
  5
244
330
A
100
AcDbEntity
  8
06
100
AcDbLine
 10
192.152798294501
 20
385.5929501117635
 30
0.0
 11
186.5669899830915
 21
380.007141800354
 31
0.0
  0
LINE
  5
245
330
A
100
AcDbEntity
  8
06
100
AcDbLine
 10
183.652798294501
 20
198.7340810037083
 30
0.0
 11
183.652798294501
 21
192.7340810037081
 31
0.0
  0
LINE
  5
246
330
A
100
AcDbEntity
  8
06
100
AcDbLine
 10
208.652798294501
 20
198.7340810037083
 30
0.0
 11
208.652798294501
 21
192.7340810037081
 31
0.0
  0
LINE
  5
247
330
A
100
AcDbEntity
  8
06
100
AcDbLine
 10
183.652798294501
 20
198.7340810037083
 30
0.0
 11
208.652798294501
 21
198.7340810037083
 31
0.0
  0
LINE
  5
248
330
A
100
AcDbEntity
  8
06
100
AcDbLine
 10
206.8827533289657
 20
198.7340810037083
 30
0.0
 11
200.8827533289657
 21
192.7340810037081
 31
0.0
  0
LINE
  5
249
330
A
100
AcDbEntity
  8
06
100
AcDbLine
 10
208.652798294501
 20
198.5041259692435
 30
0.0
 11
202.8827533289657
 21
192.7340810037081
 31
0.0
  0
LINE
  5
24A
330
A
100
AcDbEntity
  8
06
100
AcDbLine
 10
190.5669899830918
 20
198.7340810037083
 30
0.0
 11
184.5669899830918
 21
192.7340810037081
 31
0.0
  0
LINE
  5
24B
330
A
100
AcDbEntity
  8
06
100
AcDbLine
 10
192.5669899830916
 20
198.7340810037083
 30
0.0
 11
186.5669899830918
 21
192.7340810037081
 31
0.0
  0
LINE
  5
24C
330
A
100
AcDbEntity
  8
06
100
AcDbLine
 10
199.1527982945006
 20
287.007141800354
 30
0.0
 11
199.1527982945006
 21
269.007141800354
 31
0.0
  0
LINE
  5
24D
330
A
100
AcDbEntity
  8
06
100
AcDbLine
 10
193.1527982945006
 20
287.007141800354
 30
0.0
 11
193.1527982945006
 21
269.007141800354
 31
0.0
  0
LINE
  5
24E
330
A
100
AcDbEntity
  8
06
100
AcDbLine
 10
194.1527982945006
 20
293.007141800354
 30
0.0
 11
194.1527982945006
 21
269.007141800354
 31
0.0
  0
LINE
  5
24F
330
A
100
AcDbEntity
  8
06
100
AcDbLine
 10
198.1527982945006
 20
293.007141800354
 30
0.0
 11
198.1527982945006
 21
269.007141800354
 31
0.0
  0
LINE
  5
250
330
A
100
AcDbEntity
  8
06
100
AcDbLine
 10
193.1527982945006
 20
293.007141800354
 30
0.0
 11
199.1527982945006
 21
293.007141800354
 31
0.0
  0
CIRCLE
  5
251
330
A
100
AcDbEntity
  8
06
100
AcDbCircle
 10
143.6527982945006
 20
248.0071418003539
 30
0.0
 40
6.0
  0
LINE
  5
26E
330
A
100
AcDbEntity
  8
SOUZOU
 48
0.1
100
AcDbLine
 10
174.6527984969949
 20
508.0071420028485
 30
0.0
 11
173.2527984969948
 21
508.0071420028485
 31
0.0
  0
LINE
  5
26F
330
A
100
AcDbEntity
  8
SOUZOU
 48
0.1
100
AcDbLine
 10
174.6527984969949
 20
468.0071420028485
 30
0.0
 11
173.2527984969948
 21
468.0071420028485
 31
0.0
  0
LINE
  5
270
330
A
100
AcDbEntity
  8
SOUZOU
 48
0.1
100
AcDbLine
 10
174.3527984969945
 20
435.0075848421162
 30
0.0
 11
172.9527984969945
 21
435.0075848421162
 31
0.0
  0
LINE
  5
271
330
A
100
AcDbEntity
  8
SOUZOU
 48
0.1
100
AcDbLine
 10
174.1527984969948
 20
398.0071420028485
 30
0.0
 11
172.7527984969948
 21
398.0071420028485
 31
0.0
  0
LINE
  5
27E
330
A
100
AcDbEntity
  8
CHUSIN
100
AcDbLine
 10
196.1527982945007
 20
407.7216438811543
 30
0.0
 11
196.1527982945012
 21
148.2738334705923
 31
0.0
  0
LINE
  5
27F
330
A
100
AcDbEntity
  8
CHUSIN
100
AcDbLine
 10
143.6527982945006
 20
401.6858953267664
 30
0.0
 11
143.6527982945006
 21
175.4052264201366
 31
0.0
  0
LINE
  5
280
330
A
100
AcDbEntity
  8
CHUSIN
100
AcDbLine
 10
128.3457121706858
 20
248.0071418003539
 30
0.0
 11
161.1724689617211
 21
248.0071418003539
 31
0.0
  0
LINE
  5
282
330
A
100
AcDbEntity
  8
CHUSIN
100
AcDbLine
 10
206.6527982945006
 20
306.1070443379068
 30
0.0
 11
206.6527982945006
 21
280.0897839686005
 31
0.0
  0
LINE
  5
283
330
A
100
AcDbEntity
  8
CHUSIN
100
AcDbLine
 10
132.1527982945007
 20
561.024024463463
 30
0.0
 11
132.1527982945007
 21
538.924094344665
 31
0.0
  0
LINE
  5
2E5
330
A
100
AcDbEntity
  8
SOUZOU
 48
0.5
100
AcDbLine
 10
171.8527984969949
 20
505.5071420028485
 30
0.0
 11
171.8527984969949
 21
510.5071420028486
 31
0.0
  0
LINE
  5
2E6
330
A
100
AcDbEntity
  8
SOUZOU
 48
0.8
100
AcDbLine
 10
170.6527984969948
 20
505.8071420028485
 30
0.0
 11
162.6527984969948
 21
505.8071420028485
 31
0.0
  0
LINE
  5
2E7
330
A
100
AcDbEntity
  8
SOUZOU
 48
0.8
100
AcDbLine
 10
170.6527984969949
 20
510.2071420028485
 30
0.0
 11
162.6527984969948
 21
510.2071420028485
 31
0.0
  0
LINE
  5
2E8
330
A
100
AcDbEntity
  8
SOUZOU
 48
0.8
100
AcDbLine
 10
171.8527984969949
 20
505.5071420028485
 30
0.0
 11
162.6527984969948
 21
505.5071420028485
 31
0.0
  0
LINE
  5
2E9
330
A
100
AcDbEntity
  8
SOUZOU
 48
0.8
100
AcDbLine
 10
171.8527984969949
 20
510.5071420028486
 30
0.0
 11
162.6527984969948
 21
510.5071420028486
 31
0.0
  0
LINE
  5
2EA
330
A
100
AcDbEntity
  8
SOUZOU
 48
0.5
100
AcDbLine
 10
170.6527984969949
 20
505.5071420028485
 30
0.0
 11
170.6527984969949
 21
510.5071420028486
 31
0.0
  0
ARC
  5
2EB
330
A
100
AcDbEntity
  8
SOUZOU
 48
0.8
100
AcDbCircle
 10
163.5859431844563
 20
485.5245632530023
 30
0.0
 40
25.0
100
AcDbArc
 50
92.13910699265793
 51
115.9333799431945
  0
ARC
  5
2EC
330
A
100
AcDbEntity
  8
SOUZOU
 48
0.8
100
AcDbCircle
 10
163.5801981108205
 20
485.2243493255619
 30
0.0
 40
25.0
100
AcDbArc
 50
92.12593112859584
 51
114.3005361341831
  0
ARC
  5
2ED
330
A
100
AcDbEntity
  8
SOUZOU
 48
0.8
100
AcDbCircle
 10
163.5859431844563
 20
530.4897207526948
 30
0.0
 40
25.0
100
AcDbArc
 50
244.0666200568054
 51
267.8608930073419
  0
ARC
  5
2EE
330
A
100
AcDbEntity
  8
SOUZOU
 48
0.8
100
AcDbCircle
 10
163.5801981108205
 20
530.7899346801349
 30
0.0
 40
25.0
100
AcDbArc
 50
245.6994638658166
 51
267.874068871404
  0
LINE
  5
2EF
330
A
100
AcDbEntity
  8
SOUZOU
 48
0.8
100
AcDbLine
 10
174.6527984969949
 20
513.3071420028485
 30
0.0
 11
171.8527984969949
 21
510.5071420028486
 31
0.0
  0
LINE
  5
2F0
330
A
100
AcDbEntity
  8
SOUZOU
 48
0.8
100
AcDbLine
 10
174.6527984969949
 20
502.7071420028485
 30
0.0
 11
174.6527984969949
 21
513.3071420028485
 31
0.0
  0
LINE
  5
2F1
330
A
100
AcDbEntity
  8
SOUZOU
 48
0.8
100
AcDbLine
 10
174.6527984969949
 20
502.7071420028485
 30
0.0
 11
171.8527984969949
 21
505.5071420028485
 31
0.0
  0
LINE
  5
2F2
330
A
100
AcDbEntity
  8
SOUZOU
 48
0.5
100
AcDbLine
 10
171.8527984969949
 20
465.5071420028485
 30
0.0
 11
171.8527984969949
 21
470.5071420028485
 31
0.0
  0
LINE
  5
2F3
330
A
100
AcDbEntity
  8
SOUZOU
 48
0.8
100
AcDbLine
 10
170.6527984969948
 20
465.8071420028485
 30
0.0
 11
162.6527984969948
 21
465.8071420028486
 31
0.0
  0
LINE
  5
2F4
330
A
100
AcDbEntity
  8
SOUZOU
 48
0.8
100
AcDbLine
 10
170.6527984969949
 20
470.2071420028483
 30
0.0
 11
162.6527984969948
 21
470.2071420028483
 31
0.0
  0
LINE
  5
2F5
330
A
100
AcDbEntity
  8
SOUZOU
 48
0.8
100
AcDbLine
 10
171.8527984969949
 20
465.5071420028485
 30
0.0
 11
162.6527984969948
 21
465.5071420028486
 31
0.0
  0
LINE
  5
2F6
330
A
100
AcDbEntity
  8
SOUZOU
 48
0.8
100
AcDbLine
 10
171.8527984969949
 20
470.5071420028485
 30
0.0
 11
162.6527984969948
 21
470.5071420028485
 31
0.0
  0
LINE
  5
2F7
330
A
100
AcDbEntity
  8
SOUZOU
 48
0.5
100
AcDbLine
 10
170.6527984969949
 20
465.5071420028485
 30
0.0
 11
170.6527984969949
 21
470.5071420028485
 31
0.0
  0
ARC
  5
2F8
330
A
100
AcDbEntity
  8
SOUZOU
 48
0.8
100
AcDbCircle
 10
163.5859431844563
 20
445.5245632530023
 30
0.0
 40
25.0
100
AcDbArc
 50
92.13910699265793
 51
115.9333799431945
  0
ARC
  5
2F9
330
A
100
AcDbEntity
  8
SOUZOU
 48
0.8
100
AcDbCircle
 10
163.5801981108205
 20
445.2243493255621
 30
0.0
 40
25.0
100
AcDbArc
 50
92.12593112859584
 51
114.3005361341831
  0
ARC
  5
2FA
330
A
100
AcDbEntity
  8
SOUZOU
 48
0.8
100
AcDbCircle
 10
163.5859431844563
 20
490.4897207526947
 30
0.0
 40
25.0
100
AcDbArc
 50
244.0666200568054
 51
267.8608930073419
  0
ARC
  5
2FB
330
A
100
AcDbEntity
  8
SOUZOU
 48
0.8
100
AcDbCircle
 10
163.5801981108205
 20
490.7899346801348
 30
0.0
 40
25.0
100
AcDbArc
 50
245.6994638658166
 51
267.874068871404
  0
LINE
  5
2FC
330
A
100
AcDbEntity
  8
SOUZOU
 48
0.8
100
AcDbLine
 10
174.6527984969949
 20
473.3071420028485
 30
0.0
 11
171.8527984969949
 21
470.5071420028485
 31
0.0
  0
LINE
  5
2FD
330
A
100
AcDbEntity
  8
SOUZOU
 48
0.8
100
AcDbLine
 10
174.6527984969949
 20
462.7071420028483
 30
0.0
 11
174.6527984969949
 21
473.3071420028485
 31
0.0
  0
LINE
  5
2FE
330
A
100
AcDbEntity
  8
SOUZOU
 48
0.8
100
AcDbLine
 10
174.6527984969949
 20
462.7071420028483
 30
0.0
 11
171.8527984969949
 21
465.5071420028485
 31
0.0
  0
LINE
  5
2FF
330
A
100
AcDbEntity
  8
SOUZOU
 48
0.5
100
AcDbLine
 10
171.5527984969944
 20
432.507584842116
 30
0.0
 11
171.5527984969944
 21
437.507584842116
 31
0.0
  0
LINE
  5
300
330
A
100
AcDbEntity
  8
SOUZOU
 48
0.8
100
AcDbLine
 10
170.3527984969944
 20
432.807584842116
 30
0.0
 11
162.3527984969944
 21
432.8075848421161
 31
0.0
  0
LINE
  5
301
330
A
100
AcDbEntity
  8
SOUZOU
 48
0.8
100
AcDbLine
 10
170.3527984969944
 20
437.207584842116
 30
0.0
 11
162.3527984969944
 21
437.207584842116
 31
0.0
  0
LINE
  5
302
330
A
100
AcDbEntity
  8
SOUZOU
 48
0.8
100
AcDbLine
 10
171.5527984969944
 20
432.507584842116
 30
0.0
 11
162.3527984969944
 21
432.5075848421161
 31
0.0
  0
LINE
  5
303
330
A
100
AcDbEntity
  8
SOUZOU
 48
0.8
100
AcDbLine
 10
171.5527984969944
 20
437.507584842116
 30
0.0
 11
162.3527984969944
 21
437.507584842116
 31
0.0
  0
LINE
  5
304
330
A
100
AcDbEntity
  8
SOUZOU
 48
0.5
100
AcDbLine
 10
170.3527984969944
 20
432.507584842116
 30
0.0
 11
170.3527984969944
 21
437.507584842116
 31
0.0
  0
ARC
  5
305
330
A
100
AcDbEntity
  8
SOUZOU
 48
0.8
100
AcDbCircle
 10
163.2859431844559
 20
412.52500609227
 30
0.0
 40
25.0
100
AcDbArc
 50
92.13910699265793
 51
115.9333799431945
  0
ARC
  5
306
330
A
100
AcDbEntity
  8
SOUZOU
 48
0.8
100
AcDbCircle
 10
163.2801981108201
 20
412.2247921648297
 30
0.0
 40
25.0
100
AcDbArc
 50
92.12593112859584
 51
114.3005361341831
  0
ARC
  5
307
330
A
100
AcDbEntity
  8
SOUZOU
 48
0.8
100
AcDbCircle
 10
163.2859431844559
 20
457.4901635919623
 30
0.0
 40
25.0
100
AcDbArc
 50
244.0666200568054
 51
267.8608930073419
  0
ARC
  5
308
330
A
100
AcDbEntity
  8
SOUZOU
 48
0.8
100
AcDbCircle
 10
163.2801981108201
 20
457.7903775194026
 30
0.0
 40
25.0
100
AcDbArc
 50
245.6994638658166
 51
267.874068871404
  0
LINE
  5
309
330
A
100
AcDbEntity
  8
SOUZOU
 48
0.8
100
AcDbLine
 10
174.3527984969945
 20
440.3075848421162
 30
0.0
 11
171.5527984969944
 21
437.507584842116
 31
0.0
  0
LINE
  5
30A
330
A
100
AcDbEntity
  8
SOUZOU
 48
0.8
100
AcDbLine
 10
174.3527984969945
 20
429.7075848421161
 30
0.0
 11
174.3527984969945
 21
440.3075848421162
 31
0.0
  0
LINE
  5
30B
330
A
100
AcDbEntity
  8
SOUZOU
 48
0.8
100
AcDbLine
 10
174.3527984969945
 20
429.7075848421161
 30
0.0
 11
171.5527984969944
 21
432.507584842116
 31
0.0
  0
LINE
  5
30C
330
A
100
AcDbEntity
  8
SOUZOU
 48
0.5
100
AcDbLine
 10
171.3527984969949
 20
395.5071420028485
 30
0.0
 11
171.3527984969949
 21
400.5071420028484
 31
0.0
  0
LINE
  5
30D
330
A
100
AcDbEntity
  8
SOUZOU
 48
0.8
100
AcDbLine
 10
170.1527984969948
 20
395.8071420028485
 30
0.0
 11
162.1527984969949
 21
395.8071420028486
 31
0.0
  0
LINE
  5
30E
330
A
100
AcDbEntity
  8
SOUZOU
 48
0.8
100
AcDbLine
 10
170.1527984969949
 20
400.2071420028483
 30
0.0
 11
162.1527984969949
 21
400.2071420028483
 31
0.0
  0
LINE
  5
30F
330
A
100
AcDbEntity
  8
SOUZOU
 48
0.8
100
AcDbLine
 10
171.3527984969949
 20
395.5071420028485
 30
0.0
 11
162.1527984969949
 21
395.5071420028485
 31
0.0
  0
LINE
  5
310
330
A
100
AcDbEntity
  8
SOUZOU
 48
0.8
100
AcDbLine
 10
171.3527984969949
 20
400.5071420028484
 30
0.0
 11
162.1527984969949
 21
400.5071420028484
 31
0.0
  0
LINE
  5
311
330
A
100
AcDbEntity
  8
SOUZOU
 48
0.5
100
AcDbLine
 10
170.1527984969949
 20
395.5071420028485
 30
0.0
 11
170.1527984969949
 21
400.5071420028484
 31
0.0
  0
ARC
  5
312
330
A
100
AcDbEntity
  8
SOUZOU
 48
0.8
100
AcDbCircle
 10
163.0859431844563
 20
375.5245632530023
 30
0.0
 40
25.0
100
AcDbArc
 50
92.13910699265793
 51
115.9333799431945
  0
ARC
  5
313
330
A
100
AcDbEntity
  8
SOUZOU
 48
0.8
100
AcDbCircle
 10
163.0801981108206
 20
375.2243493255621
 30
0.0
 40
25.0
100
AcDbArc
 50
92.12593112859584
 51
114.3005361341831
  0
ARC
  5
314
330
A
100
AcDbEntity
  8
SOUZOU
 48
0.8
100
AcDbCircle
 10
163.0859431844563
 20
420.4897207526947
 30
0.0
 40
25.0
100
AcDbArc
 50
244.0666200568054
 51
267.8608930073419
  0
ARC
  5
315
330
A
100
AcDbEntity
  8
SOUZOU
 48
0.8
100
AcDbCircle
 10
163.0801981108206
 20
420.7899346801348
 30
0.0
 40
25.0
100
AcDbArc
 50
245.6994638658166
 51
267.874068871404
  0
LINE
  5
316
330
A
100
AcDbEntity
  8
SOUZOU
 48
0.8
100
AcDbLine
 10
174.1527984969948
 20
403.3071420028485
 30
0.0
 11
171.3527984969949
 21
400.5071420028484
 31
0.0
  0
LINE
  5
317
330
A
100
AcDbEntity
  8
SOUZOU
 48
0.8
100
AcDbLine
 10
174.1527984969948
 20
392.7071420028483
 30
0.0
 11
174.1527984969948
 21
403.3071420028485
 31
0.0
  0
LINE
  5
318
330
A
100
AcDbEntity
  8
SOUZOU
 48
0.8
100
AcDbLine
 10
174.1527984969948
 20
392.7071420028483
 30
0.0
 11
171.3527984969949
 21
395.5071420028485
 31
0.0
  0
TEXT
  5
32E
330
A
100
AcDbEntity
  8
MOJI
100
AcDbText
 10
34.99999999999999
 20
56.00000000000004
 30
0.0
 40
6.0
  1
※　伝達機構は◎印が標準、○印はオーダーです。
 41
0.8
  7
0_8
 11
34.99999999999999
 21
62.00000000000005
 31
0.0
100
AcDbText
 73
     3
  0
TEXT
  5
32F
330
A
100
AcDbEntity
  8
MOJI
100
AcDbText
 10
34.99999999999999
 20
46.00000000000004
 30
0.0
 40
6.0
  1
※　台板専用の戸車を使用する為、質量制限をしています。
 41
0.8
  7
0_8
 11
34.99999999999999
 21
52.00000000000005
 31
0.0
100
AcDbText
 73
     3
  0
LINE
  5
34A
330
A
100
AcDbEntity
  8
03
100
AcDbLine
 10
116.1527982945007
 20
377.007141800354
 30
0.0
 11
171.1527982945008
 21
377.007141800354
 31
0.0
  0
LINE
  5
34B
330
A
100
AcDbEntity
  8
06
100
AcDbLine
 10
192.152798294501
 20
380.007141800354
 30
0.0
 11
192.152798294501
 21
375.8071521463648
 31
0.0
  0
LINE
  5
34C
330
A
100
AcDbEntity
  8
06
100
AcDbLine
 10
200.152798294501
 20
380.007141800354
 30
0.0
 11
200.152798294501
 21
375.8071521463648
 31
0.0
  0
LINE
  5
34D
330
A
100
AcDbEntity
  8
06
100
AcDbLine
 10
192.152798294501
 20
375.8071521463648
 30
0.0
 11
193.3527982945009
 21
374.6071521463647
 31
0.0
  0
LINE
  5
34E
330
A
100
AcDbEntity
  8
06
100
AcDbLine
 10
200.152798294501
 20
375.8071521463648
 30
0.0
 11
198.952798294501
 21
374.6071521463647
 31
0.0
  0
LINE
  5
34F
330
A
100
AcDbEntity
  8
06
100
AcDbLine
 10
198.952798294501
 20
374.6071521463647
 30
0.0
 11
193.3527982945009
 21
374.6071521463647
 31
0.0
  0
LINE
  5
350
330
A
100
AcDbEntity
  8
06
100
AcDbLine
 10
200.152798294501
 20
375.8071521463648
 30
0.0
 11
192.152798294501
 21
375.8071521463648
 31
0.0
  0
LINE
  5
351
330
A
100
AcDbEntity
  8
03
100
AcDbLine
 10
125.1527982945007
 20
557.007141800354
 30
0.0
 11
142.1527982945006
 21
557.007141800354
 31
0.0
  0
LINE
  5
352
330
A
100
AcDbEntity
  8
03
100
AcDbLine
 10
148.1527982945006
 20
557.007141800354
 30
0.0
 11
275.1527982945008
 21
557.007141800354
 31
0.0
  0
LINE
  5
353
330
A
100
AcDbEntity
  8
03
100
AcDbLine
 10
116.1527982945007
 20
182.7340810037081
 30
0.0
 11
116.1527982945007
 21
227.0071418003539
 31
0.0
  0
LINE
  5
354
330
A
100
AcDbEntity
  8
03
100
AcDbLine
 10
116.1527982945007
 20
233.007141800354
 30
0.0
 11
116.1527982945007
 21
263.007141800354
 31
0.0
  0
LINE
  5
355
330
A
100
AcDbEntity
  8
03
100
AcDbLine
 10
116.1527982945007
 20
269.007141800354
 30
0.0
 11
116.1527982945007
 21
541.507141800354
 31
0.0
  0
LINE
  5
356
330
A
100
AcDbEntity
  8
03
100
AcDbLine
 10
171.1527982945008
 20
184.9840810037083
 30
0.0
 11
171.1527982945008
 21
227.0071418003539
 31
0.0
  0
LINE
  5
357
330
A
100
AcDbEntity
  8
03
100
AcDbLine
 10
171.1527982945008
 20
233.007141800354
 30
0.0
 11
171.1527982945008
 21
263.007141800354
 31
0.0
  0
LINE
  5
358
330
A
100
AcDbEntity
  8
03
100
AcDbLine
 10
171.1527982945008
 20
269.007141800354
 30
0.0
 11
171.1527982945008
 21
531.0071629207686
 31
0.0
  0
LINE
  5
359
330
A
100
AcDbEntity
  8
06
100
AcDbLine
 10
176.1527982945008
 20
387.007141800354
 30
0.0
 11
176.1527982945008
 21
269.007141800354
 31
0.0
  0
LINE
  5
35A
330
A
100
AcDbEntity
  8
06
100
AcDbLine
 10
176.1527982945008
 20
263.007141800354
 30
0.0
 11
176.1527982945008
 21
233.007141800354
 31
0.0
  0
LINE
  5
35B
330
A
100
AcDbEntity
  8
06
100
AcDbLine
 10
176.1527982945008
 20
227.0071418003539
 30
0.0
 11
176.1527982945008
 21
192.7340810037081
 31
0.0
  0
LINE
  5
35C
330
A
100
AcDbEntity
  8
06
100
AcDbLine
 10
216.1527982945008
 20
387.007141800354
 30
0.0
 11
216.1527982945008
 21
269.007141800354
 31
0.0
  0
LINE
  5
35D
330
A
100
AcDbEntity
  8
06
100
AcDbLine
 10
216.1527982945008
 20
263.007141800354
 30
0.0
 11
216.1527982945008
 21
233.007141800354
 31
0.0
  0
LINE
  5
35E
330
A
100
AcDbEntity
  8
06
100
AcDbLine
 10
216.1527982945008
 20
227.0071418003539
 30
0.0
 11
216.1527982945008
 21
192.7340810037081
 31
0.0
  0
LINE
  5
35F
330
A
100
AcDbEntity
  8
03
100
AcDbLine
 10
221.1527982945006
 20
387.007141800354
 30
0.0
 11
221.1527982945006
 21
377.007141800354
 31
0.0
  0
LINE
  5
360
330
A
100
AcDbEntity
  8
03
100
AcDbLine
 10
301.1527982945008
 20
557.007141800354
 30
0.0
 11
301.1527982945008
 21
377.007141800354
 31
0.0
  0
LINE
  5
361
330
A
100
AcDbEntity
  8
03
100
AcDbLine
 10
221.1527982945006
 20
377.007141800354
 30
0.0
 11
301.1527982945008
 21
377.007141800354
 31
0.0
  0
LINE
  5
362
330
A
100
AcDbEntity
  8
06
100
AcDbLine
 10
176.1527982945008
 20
387.007141800354
 30
0.0
 11
216.1527982945008
 21
387.007141800354
 31
0.0
  0
LINE
  5
363
330
A
100
AcDbEntity
  8
03
100
AcDbLine
 10
111.1527982945007
 20
182.7340810037081
 30
0.0
 11
111.1527982945007
 21
227.0071418003539
 31
0.0
  0
LINE
  5
364
330
A
100
AcDbEntity
  8
03
100
AcDbLine
 10
111.1527982945007
 20
233.007141800354
 30
0.0
 11
111.1527982945007
 21
263.007141800354
 31
0.0
  0
LINE
  5
365
330
A
100
AcDbEntity
  8
03
100
AcDbLine
 10
111.1527982945007
 20
269.007141800354
 30
0.0
 11
111.1527982945007
 21
580.0011383698222
 31
0.0
  0
LINE
  5
366
330
A
100
AcDbEntity
  8
03
100
AcDbLine
 10
276.1527982945008
 20
557.007141800354
 30
0.0
 11
301.1527982945008
 21
557.007141800354
 31
0.0
  0
LINE
  5
367
330
A
100
AcDbEntity
  8
03
100
AcDbLine
 10
276.1527982945008
 20
557.007141800354
 30
0.0
 11
276.1527982945008
 21
389.507141800354
 31
0.0
  0
LINE
  5
368
330
A
100
AcDbEntity
  8
03
100
AcDbLine
 10
241.6527982945007
 20
402.0071418003538
 30
0.0
 11
276.1527982945008
 21
402.0071418003538
 31
0.0
  0
LINE
  5
369
330
A
100
AcDbEntity
  8
03
100
AcDbLine
 10
221.1527982945006
 20
387.007141800354
 30
0.0
 11
241.6527982945007
 21
402.0071418003538
 31
0.0
  0
LINE
  5
36A
330
A
100
AcDbEntity
  8
03
100
AcDbLine
 10
275.1527982945008
 20
557.007141800354
 30
0.0
 11
275.1527982945008
 21
532.0071629171787
 31
0.0
  0
LINE
  5
36B
330
A
100
AcDbEntity
  8
03
100
AcDbLine
 10
288.6527982945008
 20
389.507141800354
 30
0.0
 11
288.6527982945008
 21
377.007141800354
 31
0.0
  0
LINE
  5
36C
330
A
100
AcDbEntity
  8
03
100
AcDbLine
 10
288.6527982945008
 20
389.507141800354
 30
0.0
 11
276.1527982945008
 21
389.507141800354
 31
0.0
  0
LINE
  5
36D
330
A
100
AcDbEntity
  8
03
100
AcDbLine
 10
171.1527982945006
 20
557.007141800354
 30
0.0
 11
171.1527982945006
 21
532.0071629171819
 31
0.0
  0
LINE
  5
36E
330
A
100
AcDbEntity
  8
03
100
AcDbLine
 10
171.1527982945008
 20
532.0071629171787
 30
0.0
 11
275.1527982945008
 21
532.0071629171787
 31
0.0
  0
LINE
  5
36F
330
A
100
AcDbEntity
  8
03
100
AcDbLine
 10
119.1527982945007
 20
544.507141800354
 30
0.0
 11
148.1527982945006
 21
544.507141800354
 31
0.0
  0
LINE
  5
370
330
A
100
AcDbEntity
  8
03
100
AcDbLine
 10
122.1527982945007
 20
554.007141800354
 30
0.0
 11
122.1527982945006
 21
544.507141800354
 31
0.0
  0
LINE
  5
371
330
A
100
AcDbEntity
  8
03
100
AcDbLine
 10
142.1527982945001
 20
580.0011383698222
 30
0.0
 11
142.1527982945008
 21
544.507141800354
 31
0.0
  0
LINE
  5
372
330
A
100
AcDbEntity
  8
03
100
AcDbLine
 10
148.1527982945004
 20
580.0011383698222
 30
0.0
 11
148.1527982945008
 21
544.507141800354
 31
0.0
  0
LINE
  5
373
330
A
100
AcDbEntity
  8
03
100
AcDbLine
 10
160.1527982945007
 20
557.007141800354
 30
0.0
 11
160.1527982945007
 21
544.507141800354
 31
0.0
  0
LINE
  5
374
330
A
100
AcDbEntity
  8
03
100
AcDbLine
 10
160.1527982945007
 20
544.507141800354
 30
0.0
 11
171.1527982945006
 21
544.507141800354
 31
0.0
  0
LINE
  5
375
330
A
100
AcDbEntity
  8
03
100
AcDbLine
 10
125.1527982945007
 20
557.007141800354
 30
0.0
 11
122.1527982945007
 21
554.007141800354
 31
0.0
  0
LINE
  5
376
330
A
100
AcDbEntity
  8
03
100
AcDbLine
 10
119.1527982945007
 20
544.507141800354
 30
0.0
 11
116.1527982945007
 21
541.507141800354
 31
0.0
  0
LINE
  5
377
330
A
100
AcDbEntity
  8
03
100
AcDbLine
 10
142.1527982945006
 20
550.5071418003539
 30
0.0
 11
148.1527982945006
 21
550.5071418003539
 31
0.0
  0
LINE
  5
378
330
A
100
AcDbEntity
  8
03
100
AcDbLine
 10
143.1527982945006
 20
580.0011383698222
 30
0.0
 11
143.1527982945006
 21
550.5071418003536
 31
0.0
  0
LINE
  5
379
330
A
100
AcDbEntity
  8
03
100
AcDbLine
 10
147.1527982945007
 20
580.0011383698222
 30
0.0
 11
147.1527982945006
 21
550.5071418003536
 31
0.0
  0
LINE
  5
37A
330
A
100
AcDbEntity
  8
03
100
AcDbLine
 10
204.652798294501
 20
184.9840810037084
 30
0.0
 11
204.652798294501
 21
160.7340810037081
 31
0.0
  0
LINE
  5
37B
330
A
100
AcDbEntity
  8
03
100
AcDbLine
 10
214.6527982945011
 20
184.984081003708
 30
0.0
 11
214.6527982945011
 21
175.7340810037083
 31
0.0
  0
LINE
  5
37C
330
A
100
AcDbEntity
  8
03
100
AcDbLine
 10
187.652798294501
 20
184.9840810037083
 30
0.0
 11
187.652798294501
 21
160.7340810037081
 31
0.0
  0
LINE
  5
37D
330
A
100
AcDbEntity
  8
03
100
AcDbLine
 10
171.152798294501
 20
184.9840810037083
 30
0.0
 11
171.152798294501
 21
175.7340810037083
 31
0.0
  0
LINE
  5
37E
330
A
100
AcDbEntity
  8
03
100
AcDbLine
 10
213.9027982945012
 20
185.734081003708
 30
0.0
 11
205.402798294501
 21
185.7340810037084
 31
0.0
  0
ARC
  5
37F
330
A
100
AcDbEntity
  8
03
100
AcDbCircle
 10
205.402798294501
 20
184.9840810037084
 30
0.0
 40
0.75
100
AcDbArc
 50
89.99999999999884
 51
179.9999999999999
  0
ARC
  5
380
330
A
100
AcDbEntity
  8
03
100
AcDbCircle
 10
213.9027982945012
 20
184.984081003708
 30
0.0
 40
0.75
100
AcDbArc
 50
0.0
 51
89.9999999999996
  0
LINE
  5
381
330
A
100
AcDbEntity
  8
03
100
AcDbLine
 10
186.902798294501
 20
185.7340810037083
 30
0.0
 11
171.902798294501
 21
185.7340810037083
 31
0.0
  0
ARC
  5
382
330
A
100
AcDbEntity
  8
03
100
AcDbCircle
 10
186.902798294501
 20
184.9840810037083
 30
0.0
 40
0.75
100
AcDbArc
 50
0.0
 51
90.0
  0
ARC
  5
383
330
A
100
AcDbEntity
  8
03
100
AcDbCircle
 10
171.902798294501
 20
184.9840810037083
 30
0.0
 40
0.75
100
AcDbArc
 50
89.99999999999998
 51
179.9999999999999
  0
LINE
  5
384
330
A
100
AcDbEntity
  8
03
100
AcDbLine
 10
204.652798294501
 20
160.7340810037081
 30
0.0
 11
187.652798294501
 21
160.7340810037081
 31
0.0
  0
LINE
  5
385
330
A
100
AcDbEntity
  8
03
100
AcDbLine
 10
210.8527982945009
 20
159.2340810037083
 30
0.0
 11
174.952798294501
 21
159.2340810037083
 31
0.0
  0
LINE
  5
386
330
A
100
AcDbEntity
  8
03
100
AcDbLine
 10
213.152798294501
 20
184.2340810037083
 30
0.0
 11
213.152798294501
 21
157.9340810037083
 31
0.0
  0
LINE
  5
387
330
A
100
AcDbEntity
  8
03
100
AcDbLine
 10
172.652798294501
 20
184.2340810037083
 30
0.0
 11
172.6527982945009
 21
157.9340810037083
 31
0.0
  0
LINE
  5
388
330
A
100
AcDbEntity
  8
03
100
AcDbLine
 10
186.1527982945009
 20
184.2340810037083
 30
0.0
 11
186.1527982945009
 21
159.9840810037083
 31
0.0
  0
ARC
  5
389
330
A
100
AcDbEntity
  8
03
100
AcDbCircle
 10
186.902798294501
 20
159.9840810037083
 30
0.0
 40
0.75
100
AcDbArc
 50
179.9999999999999
 51
270.0
  0
LINE
  5
38A
330
A
100
AcDbEntity
  8
03
100
AcDbLine
 10
206.1527982945011
 20
184.2340810037083
 30
0.0
 11
206.152798294501
 21
159.9840810037083
 31
0.0
  0
ARC
  5
38B
330
A
100
AcDbEntity
  8
03
100
AcDbCircle
 10
205.4027982945009
 20
159.9840810037083
 30
0.0
 40
0.75
100
AcDbArc
 50
270.0000000000001
 51
0.0
  0
LINE
  5
38C
330
A
100
AcDbEntity
  8
03
100
AcDbLine
 10
214.6527982945011
 20
175.7340810037083
 30
0.0
 11
213.152798294501
 21
175.7340810037083
 31
0.0
  0
LINE
  5
38D
330
A
100
AcDbEntity
  8
03
100
AcDbLine
 10
172.652798294501
 20
175.7340810037083
 30
0.0
 11
171.152798294501
 21
175.7340810037083
 31
0.0
  0
LINE
  5
38E
330
A
100
AcDbEntity
  8
03
100
AcDbLine
 10
213.152798294501
 20
184.2340810037083
 30
0.0
 11
206.1527982945011
 21
184.2340810037083
 31
0.0
  0
LINE
  5
38F
330
A
100
AcDbEntity
  8
03
100
AcDbLine
 10
186.1527982945009
 20
184.2340810037083
 30
0.0
 11
172.652798294501
 21
184.2340810037083
 31
0.0
  0
LINE
  5
390
330
A
100
AcDbEntity
  8
03
100
AcDbLine
 10
212.152798294501
 20
156.9340810037083
 30
0.0
 11
173.6527982945009
 21
156.9340810037083
 31
0.0
  0
ARC
  5
391
330
A
100
AcDbEntity
  8
03
100
AcDbCircle
 10
173.6527982945009
 20
157.9340810037083
 30
0.0
 40
1.0
100
AcDbArc
 50
179.9999999999999
 51
270.0
  0
ARC
  5
392
330
A
100
AcDbEntity
  8
03
100
AcDbCircle
 10
212.152798294501
 20
157.9340810037083
 30
0.0
 40
1.0
100
AcDbArc
 50
270.0
 51
0.0
  0
LINE
  5
393
330
A
100
AcDbEntity
  8
03
100
AcDbLine
 10
210.852798294501
 20
184.2340810037083
 30
0.0
 11
210.852798294501
 21
159.2340810037083
 31
0.0
  0
LINE
  5
394
330
A
100
AcDbEntity
  8
03
100
AcDbLine
 10
174.952798294501
 20
184.2340810037083
 30
0.0
 11
174.952798294501
 21
159.2340810037083
 31
0.0
  0
LINE
  5
395
330
A
100
AcDbEntity
  8
03
100
AcDbLine
 10
208.4207723945215
 20
185.734081003708
 30
0.0
 11
209.9207723945216
 21
184.234081003708
 31
0.0
  0
LINE
  5
396
330
A
100
AcDbEntity
  8
03
100
AcDbLine
 10
181.2640917764834
 20
185.7340810037083
 30
0.0
 11
182.7640917764831
 21
184.2340810037083
 31
0.0
  0
LINE
  5
397
330
A
100
AcDbEntity
  8
03
100
AcDbLine
 10
192.8143685242802
 20
160.734081003708
 30
0.0
 11
194.3143685242801
 21
159.2340810037083
 31
0.0
  0
LINE
  5
398
330
A
100
AcDbEntity
  8
03
100
AcDbLine
 10
204.652798294501
 20
173.3890912703593
 30
0.0
 11
206.1527982945011
 21
171.8890912703592
 31
0.0
  0
LINE
  5
399
330
A
100
AcDbEntity
  8
03
100
AcDbLine
 10
186.152798294501
 20
173.2188733454579
 30
0.0
 11
187.652798294501
 21
171.7188733454579
 31
0.0
  0
LINE
  5
39A
330
A
100
AcDbEntity
  8
03
100
AcDbLine
 10
171.152798294501
 20
179.9236683730333
 30
0.0
 11
172.6527982945009
 21
178.4236683730334
 31
0.0
  0
LINE
  5
39B
330
A
100
AcDbEntity
  8
03
100
AcDbLine
 10
213.152798294501
 20
180.264675789725
 30
0.0
 11
214.6527982945011
 21
178.764675789725
 31
0.0
  0
LINE
  5
39C
330
A
100
AcDbEntity
  8
03
100
AcDbLine
 10
213.152798294501
 20
171.360301955966
 30
0.0
 11
210.852798294501
 21
173.6603019559661
 31
0.0
  0
LINE
  5
39D
330
A
100
AcDbEntity
  8
03
100
AcDbLine
 10
213.152798294501
 20
169.360301955966
 30
0.0
 11
210.852798294501
 21
171.6603019559661
 31
0.0
  0
LINE
  5
39E
330
A
100
AcDbEntity
  8
03
100
AcDbLine
 10
201.9536936525821
 20
159.2340810037083
 30
0.0
 11
204.2536936525821
 21
156.9340810037083
 31
0.0
  0
LINE
  5
39F
330
A
100
AcDbEntity
  8
03
100
AcDbLine
 10
182.4348294583671
 20
159.2340810037083
 30
0.0
 11
184.734829458367
 21
156.9340810037083
 31
0.0
  0
LINE
  5
3A0
330
A
100
AcDbEntity
  8
03
100
AcDbLine
 10
172.6527982945009
 20
170.7941498238435
 30
0.0
 11
174.952798294501
 21
168.4941498238434
 31
0.0
  0
LINE
  5
3A1
330
A
100
AcDbEntity
  8
03
100
AcDbLine
 10
199.9536936525821
 20
159.2340810037083
 30
0.0
 11
202.2536936525821
 21
156.9340810037083
 31
0.0
  0
LINE
  5
3A2
330
A
100
AcDbEntity
  8
03
100
AcDbLine
 10
180.4348294583672
 20
159.2340810037083
 30
0.0
 11
182.734829458367
 21
156.9340810037084
 31
0.0
  0
LINE
  5
3A3
330
A
100
AcDbEntity
  8
03
100
AcDbLine
 10
172.6527982945009
 20
172.7941498238434
 30
0.0
 11
174.952798294501
 21
170.4941498238435
 31
0.0
  0
LINE
  5
3A4
330
A
100
AcDbEntity
  8
SAISEN
100
AcDbLine
 10
75.86763915933665
 20
182.7340810037081
 30
0.0
 11
171.1527982945012
 21
182.7340810037081
 31
0.0
  0
LINE
  5
3A5
330
A
100
AcDbEntity
  8
SAISEN
100
AcDbLine
 10
214.6527982945011
 20
182.7340810037081
 30
0.0
 11
382.9252370925491
 21
182.7340810037081
 31
0.0
  0
LINE
  5
3A6
330
A
100
AcDbEntity
  8
06
100
AcDbLine
 10
176.1527982945008
 20
192.7340810037081
 30
0.0
 11
216.1527982945008
 21
192.7340810037081
 31
0.0
  0
LINE
  5
3A7
330
A
100
AcDbEntity
  8
03
100
AcDbLine
 10
236.1527982945008
 20
182.7340810037081
 30
0.0
 11
236.1527982945008
 21
227.0071418003539
 31
0.0
  0
LINE
  5
3A8
330
A
100
AcDbEntity
  8
03
100
AcDbLine
 10
236.1527982945008
 20
233.007141800354
 30
0.0
 11
236.1527982945008
 21
263.007141800354
 31
0.0
  0
LINE
  5
3A9
330
A
100
AcDbEntity
  8
03
100
AcDbLine
 10
236.1527982945008
 20
269.007141800354
 30
0.0
 11
236.1527982945008
 21
377.007141800354
 31
0.0
  0
LINE
  5
3AA
330
A
100
AcDbEntity
  8
06
100
AcDbLine
 10
183.1527982945006
 20
380.007141800354
 30
0.0
 11
209.1527982945006
 21
380.007141800354
 31
0.0
  0
LINE
  5
3AB
330
A
100
AcDbEntity
  8
06
100
AcDbLine
 10
183.1527982945006
 20
387.007141800354
 30
0.0
 11
183.1527982945006
 21
380.007141800354
 31
0.0
  0
LINE
  5
3AC
330
A
100
AcDbEntity
  8
06
100
AcDbLine
 10
209.1527982945006
 20
387.007141800354
 30
0.0
 11
209.1527982945006
 21
380.007141800354
 31
0.0
  0
LINE
  5
3AD
330
A
100
AcDbEntity
  8
06
100
AcDbLine
 10
183.152798294501
 20
199.7340810037083
 30
0.0
 11
183.152798294501
 21
192.7340810037081
 31
0.0
  0
LINE
  5
3AE
330
A
100
AcDbEntity
  8
06
100
AcDbLine
 10
209.1527982945009
 20
199.7340810037083
 30
0.0
 11
209.1527982945009
 21
192.7340810037081
 31
0.0
  0
LINE
  5
3AF
330
A
100
AcDbEntity
  8
06
100
AcDbLine
 10
183.152798294501
 20
199.7340810037083
 30
0.0
 11
209.1527982945009
 21
199.7340810037083
 31
0.0
  0
LINE
  5
3B0
330
A
100
AcDbEntity
  8
06
100
AcDbLine
 10
188.6527982945006
 20
192.7340810037081
 30
0.0
 11
188.6527982945006
 21
167.7340810037081
 31
0.0
  0
LINE
  5
3B1
330
A
100
AcDbEntity
  8
06
100
AcDbLine
 10
203.6527982945006
 20
192.7340810037081
 30
0.0
 11
203.6527982945006
 21
167.7340810037081
 31
0.0
  0
LINE
  5
3B2
330
A
100
AcDbEntity
  8
06
100
AcDbLine
 10
188.6527982945006
 20
167.7340810037081
 30
0.0
 11
203.6527982945006
 21
167.7340810037081
 31
0.0
  0
LINE
  5
3B3
330
A
100
AcDbEntity
  8
06
100
AcDbLine
 10
203.6527982945006
 20
192.7340810037081
 30
0.0
 11
188.6527982945006
 21
167.7340810037081
 31
0.0
  0
LINE
  5
3B4
330
A
100
AcDbEntity
  8
06
100
AcDbLine
 10
188.6527982945006
 20
192.7340810037081
 30
0.0
 11
203.6527982945006
 21
167.7340810037081
 31
0.0
  0
LINE
  5
3B5
330
A
100
AcDbEntity
  8
06
100
AcDbLine
 10
176.1527982945006
 20
287.007141800354
 30
0.0
 11
193.1527982945006
 21
287.007141800354
 31
0.0
  0
LINE
  5
3B6
330
A
100
AcDbEntity
  8
06
100
AcDbLine
 10
199.1527982945006
 20
287.007141800354
 30
0.0
 11
211.1527982945006
 21
287.007141800354
 31
0.0
  0
LINE
  5
3B7
330
A
100
AcDbEntity
  8
06
100
AcDbLine
 10
193.1527982945006
 20
302.007141800354
 30
0.0
 11
216.1527982945008
 21
302.007141800354
 31
0.0
  0
LINE
  5
3B8
330
A
100
AcDbEntity
  8
06
100
AcDbLine
 10
214.1527982945006
 20
302.007141800354
 30
0.0
 11
214.1527982945006
 21
290.007141800354
 31
0.0
  0
ARC
  5
3B9
330
A
100
AcDbEntity
  8
06
100
AcDbCircle
 10
211.1527982945006
 20
290.007141800354
 30
0.0
 40
3.0
100
AcDbArc
 50
269.9999999999999
 51
0.0
  0
LINE
  5
3BA
330
A
100
AcDbEntity
  8
06
100
AcDbLine
 10
199.1527982945006
 20
287.007141800354
 30
0.0
 11
199.1527982945006
 21
302.007141800354
 31
0.0
  0
LINE
  5
3BB
330
A
100
AcDbEntity
  8
06
100
AcDbLine
 10
193.1527982945006
 20
302.007141800354
 30
0.0
 11
193.1527982945006
 21
287.007141800354
 31
0.0
  0
LINE
  5
3C0
330
A
100
AcDbEntity
  8
06
100
AcDbLine
 10
183.6527982945007
 20
387.00751883921
 30
0.0
 11
183.6527982945007
 21
392.0075188392099
 31
0.0
  0
LINE
  5
3C1
330
A
100
AcDbEntity
  8
06
100
AcDbLine
 10
208.6527982945006
 20
392.0075188392099
 30
0.0
 11
208.6527982945006
 21
387.00751883921
 31
0.0
  0
LINE
  5
3C2
330
A
100
AcDbEntity
  8
06
100
AcDbLine
 10
183.6527982945007
 20
392.0075188392099
 30
0.0
 11
208.6527982945006
 21
392.0075188392099
 31
0.0
  0
LINE
  5
3C3
330
A
100
AcDbEntity
  8
06
100
AcDbLine
 10
183.6527982945007
 20
388.0075188392099
 30
0.0
 11
208.6527982945006
 21
388.0075188392099
 31
0.0
  0
LINE
  5
3C4
330
A
100
AcDbEntity
  8
06
100
AcDbLine
 10
183.6527982945007
 20
389.00751883921
 30
0.0
 11
208.6527982945006
 21
389.00751883921
 31
0.0
  0
LINE
  5
3C5
330
A
100
AcDbEntity
  8
06
100
AcDbLine
 10
183.6527982945007
 20
390.0075188392099
 30
0.0
 11
208.6527982945006
 21
390.0075188392099
 31
0.0
  0
LINE
  5
3C6
330
A
100
AcDbEntity
  8
06
100
AcDbLine
 10
183.6527982945007
 20
391.0075188392099
 30
0.0
 11
208.6527982945006
 21
391.0075188392099
 31
0.0
  0
LINE
  5
3C7
330
A
100
AcDbEntity
  8
SAISEN
100
AcDbLine
 10
106.1527982945007
 20
269.007141800354
 30
0.0
 11
241.1527982945008
 21
269.007141800354
 31
0.0
  0
LINE
  5
3C8
330
A
100
AcDbEntity
  8
SAISEN
100
AcDbLine
 10
241.1527982945008
 20
263.007141800354
 30
0.0
 11
106.1527982945007
 21
263.007141800354
 31
0.0
  0
LINE
  5
3C9
330
A
100
AcDbEntity
  8
SAISEN
100
AcDbLine
 10
106.1527982945007
 20
233.007141800354
 30
0.0
 11
241.1527982945008
 21
233.007141800354
 31
0.0
  0
LINE
  5
3CA
330
A
100
AcDbEntity
  8
SAISEN
100
AcDbLine
 10
241.1527982945008
 20
227.0071418003539
 30
0.0
 11
106.1527982945007
 21
227.0071418003539
 31
0.0
  0
LINE
  5
3F7
330
A
100
AcDbEntity
  8
KAKURE
100
AcDbLine
 10
151.1527982945008
 20
392.007141800354
 30
0.0
 11
151.1527982945008
 21
377.007141800354
 31
0.0
  0
LINE
  5
3F8
330
A
100
AcDbEntity
  8
KAKURE
100
AcDbLine
 10
136.1527982945006
 20
392.007141800354
 30
0.0
 11
136.1527982945009
 21
377.007141800354
 31
0.0
  0
LINE
  5
3F9
330
A
100
AcDbEntity
  8
KAKURE
100
AcDbLine
 10
136.1527982945006
 20
392.007141800354
 30
0.0
 11
151.1527982945008
 21
392.007141800354
 31
0.0
  0
LINE
  5
3FA
330
A
100
AcDbEntity
  8
KAKURE
100
AcDbLine
 10
111.1527982945007
 20
157.7340810037081
 30
0.0
 11
236.1527982945008
 21
157.7340810037081
 31
0.0
  0
LINE
  5
3FB
330
A
100
AcDbEntity
  8
KAKURE
100
AcDbLine
 10
111.1527982945007
 20
182.7340810037081
 30
0.0
 11
111.1527982945007
 21
157.7340810037081
 31
0.0
  0
LINE
  5
3FC
330
A
100
AcDbEntity
  8
KAKURE
100
AcDbLine
 10
171.152798294501
 20
175.7340810037083
 30
0.0
 11
171.152798294501
 21
157.7340810037081
 31
0.0
  0
LINE
  5
3FD
330
A
100
AcDbEntity
  8
KAKURE
100
AcDbLine
 10
116.1527982945007
 20
182.7340810037081
 30
0.0
 11
116.1527982945007
 21
157.7340810037081
 31
0.0
  0
LINE
  5
3FE
330
A
100
AcDbEntity
  8
KAKURE
100
AcDbLine
 10
236.1527982945008
 20
182.7340810037081
 30
0.0
 11
236.1527982945008
 21
157.7340810037081
 31
0.0
  0
LINE
  5
411
330
A
100
AcDbEntity
  8
CHUSIN
100
AcDbLine
 10
150.2174496613958
 20
508.0071420028485
 30
0.0
 11
176.8607076375161
 21
508.0071420028485
 31
0.0
  0
LINE
  5
412
330
A
100
AcDbEntity
  8
CHUSIN
100
AcDbLine
 10
150.2174496613958
 20
468.0071420028485
 30
0.0
 11
176.8607076375161
 21
468.0071420028485
 31
0.0
  0
LINE
  5
413
330
A
100
AcDbEntity
  8
CHUSIN
100
AcDbLine
 10
149.9174496613954
 20
435.0075848421162
 30
0.0
 11
176.5607076375158
 21
435.0075848421162
 31
0.0
  0
LINE
  5
414
330
A
100
AcDbEntity
  8
CHUSIN
100
AcDbLine
 10
149.7174496613958
 20
398.0071420028485
 30
0.0
 11
176.360707637516
 21
398.0071420028485
 31
0.0
  0
LINE
  5
62C
330
A
100
AcDbEntity
  8
CHUSIN
 48
0.5
100
AcDbLine
 10
116.1527982945007
 20
541.3007665157703
 30
0.0
 11
119.3591735790844
 21
544.507141800354
 31
0.0
  0
POLYLINE
  5
653
330
A
100
AcDbEntity
  8
DEFPOINTS
100
AcDb2dPolyline
 66
     1
 10
0.0
 20
0.0
 30
0.0
 70
     1
  0
VERTEX
  5
26AD
330
653
100
AcDbEntity
  8
DEFPOINTS
100
AcDbVertex
100
AcDb2dVertex
 10
0.0
 20
0.0
 30
0.0
  0
VERTEX
  5
26AE
330
653
100
AcDbEntity
  8
DEFPOINTS
100
AcDbVertex
100
AcDb2dVertex
 10
420.0
 20
0.0
 30
0.0
  0
VERTEX
  5
26AF
330
653
100
AcDbEntity
  8
DEFPOINTS
100
AcDbVertex
100
AcDb2dVertex
 10
420.0
 20
594.0
 30
0.0
  0
VERTEX
  5
26B0
330
653
100
AcDbEntity
  8
DEFPOINTS
100
AcDbVertex
100
AcDb2dVertex
 10
0.0
 20
594.0
 30
0.0
  0
SEQEND
  5
26B1
330
653
100
AcDbEntity
  8
DEFPOINTS
  0
DIMENSION
  5
661
330
A
100
AcDbEntity
  8
SUNPOU
100
AcDbDimension
  2
*D0
 10
276.1527982945008
 20
574.2051416100427
 30
0.0
 11
223.6527982945006
 21
578.7051416100426
 31
0.0
 70
    32
  3
SUNPOU_2
100
AcDbAlignedDimension
 13
171.1527982945006
 23
557.007141800354
 33
0.0
 14
276.1527982945008
 24
557.007141800354
 34
0.0
100
AcDbRotatedDimension
  0
DIMENSION
  5
66E
330
A
100
AcDbEntity
  8
SUNPOU
100
AcDbDimension
  2
*D1
 10
301.1527982945008
 20
574.2051416100427
 30
0.0
 11
288.6527982945008
 21
578.7051416100426
 31
0.0
 70
    32
  3
SUNPOU_2
100
AcDbAlignedDimension
 13
276.1527982945008
 23
557.007141800354
 33
0.0
 14
301.1527982945008
 24
557.007141800354
 34
0.0
100
AcDbRotatedDimension
  0
DIMENSION
  5
67B
330
A
100
AcDbEntity
  8
SUNPOU
100
AcDbDimension
  2
*D2
 10
275.1527982945008
 20
563.8422891707315
 30
0.0
 11
223.1527982945006
 21
568.3422891707315
 31
0.0
 70
    32
  3
SUNPOU_2
100
AcDbAlignedDimension
 13
171.1527982945006
 23
557.0071418003537
 33
0.0
 14
275.1527982945008
 24
557.0071418003537
 34
0.0
100
AcDbRotatedDimension
  0
DIMENSION
  5
688
330
A
100
AcDbEntity
  8
SUNPOU
100
AcDbDimension
  2
*D3
 10
116.1527982945007
 20
352.007141800354
 30
0.0
 11
113.6527982945007
 21
356.5186983607437
 31
0.0
 70
   160
  3
SUNPOU_2
100
AcDbAlignedDimension
 13
111.1527982945007
 23
377.007141800354
 33
0.0
 14
116.1527982945007
 24
377.007141800354
 34
0.0
100
AcDbRotatedDimension
  0
DIMENSION
  5
697
330
A
100
AcDbEntity
  8
SUNPOU
100
AcDbDimension
  2
*D4
 10
171.1527982945008
 20
352.007141800354
 30
0.0
 11
137.4309495312577
 21
356.507141800354
 31
0.0
 70
   160
  3
SUNPOU_2
100
AcDbAlignedDimension
 13
116.1527982945007
 23
377.007141800354
 33
0.0
 14
171.1527982945008
 24
377.007141800354
 34
0.0
100
AcDbRotatedDimension
  0
DIMENSION
  5
6A4
330
A
100
AcDbEntity
  8
SUNPOU
100
AcDbDimension
  2
*D5
 10
176.1527982945008
 20
352.007141800354
 30
0.0
 11
173.6527982945006
 21
356.4471963208426
 31
0.0
 70
   160
  3
SUNPOU_2
100
AcDbAlignedDimension
 13
171.1527982945008
 23
377.007141800354
 33
0.0
 14
176.1527982945008
 24
387.007141800354
 34
0.0
100
AcDbRotatedDimension
  0
DIMENSION
  5
6B3
330
A
100
AcDbEntity
  8
SUNPOU
100
AcDbDimension
  2
*D6
 10
216.1527982945006
 20
352.007141800354
 30
0.0
 11
188.4820294070292
 21
356.507141800354
 31
0.0
 70
   160
  3
SUNPOU_2
100
AcDbAlignedDimension
 13
176.1527982945008
 23
387.007141800354
 33
0.0
 14
216.1527982945006
 24
387.007141800354
 34
0.0
100
AcDbRotatedDimension
  0
DIMENSION
  5
6C0
330
A
100
AcDbEntity
  8
SUNPOU
100
AcDbDimension
  2
*D7
 10
221.1527982945006
 20
352.007141800354
 30
0.0
 11
218.6527982945007
 21
356.5154300991371
 31
0.0
 70
   160
  3
SUNPOU_2
100
AcDbAlignedDimension
 13
216.1527982945006
 23
387.007141800354
 33
0.0
 14
221.1527982945006
 24
377.007141800354
 34
0.0
100
AcDbRotatedDimension
  0
DIMENSION
  5
6CF
330
A
100
AcDbEntity
  8
SUNPOU
100
AcDbDimension
  2
*D8
 10
301.1527982945008
 20
352.007141800354
 30
0.0
 11
261.1527982945008
 21
356.507141800354
 31
0.0
 70
    32
  3
SUNPOU_2
100
AcDbAlignedDimension
 13
221.1527982945006
 23
377.007141800354
 33
0.0
 14
301.1527982945008
 24
377.007141800354
 34
0.0
100
AcDbRotatedDimension
  0
DIMENSION
  5
6DC
330
A
100
AcDbEntity
  8
SUNPOU
100
AcDbDimension
  2
*D9
 10
171.1527982945008
 20
337.007141800354
 30
0.0
 11
150.2220736262153
 21
341.507141800354
 31
0.0
 70
   160
  3
SUNPOU_2
100
AcDbAlignedDimension
 13
111.1527982945007
 23
377.007141800354
 33
0.0
 14
171.1527982945008
 24
377.007141800354
 34
0.0
100
AcDbRotatedDimension
  0
DIMENSION
  5
6E9
330
A
100
AcDbEntity
  8
SUNPOU
100
AcDbDimension
  2
*D10
 10
301.1527982945008
 20
337.007141800354
 30
0.0
 11
245.1237698289016
 21
341.507141800354
 31
0.0
 70
   160
  3
SUNPOU_2
100
AcDbAlignedDimension
 13
171.1527982945008
 23
377.007141800354
 33
0.0
 14
301.1527982945008
 24
377.007141800354
 34
0.0
100
AcDbRotatedDimension
  0
DIMENSION
  5
6F6
330
A
100
AcDbEntity
  8
SUNPOU
100
AcDbDimension
  2
*D11
 10
236.1527982945008
 20
322.0071418003541
 30
0.0
 11
161.348479466874
 21
326.507141800354
 31
0.0
 70
   160
  3
SUNPOU_2
100
AcDbAlignedDimension
 13
111.1527982945007
 23
377.007141800354
 33
0.0
 14
236.1527982945008
 24
377.007141800354
 34
0.0
100
AcDbRotatedDimension
  0
DIMENSION
  5
703
330
A
100
AcDbEntity
  8
SUNPOU
100
AcDbDimension
  2
*D12
 10
301.1527982945008
 20
322.0071418003541
 30
0.0
 11
268.6527982945008
 21
326.507141800354
 31
0.0
 70
    32
  3
SUNPOU_2
100
AcDbAlignedDimension
 13
236.1527982945008
 23
377.007141800354
 33
0.0
 14
301.1527982945008
 24
377.007141800354
 34
0.0
100
AcDbRotatedDimension
  0
DIMENSION
  5
710
330
A
100
AcDbEntity
  8
SUNPOU
100
AcDbDimension
  2
*D13
 10
301.1527982945008
 20
307.007141800354
 30
0.0
 11
201.0572309604957
 21
311.507141800354
 31
0.0
 70
   160
  3
SUNPOU_2
100
AcDbAlignedDimension
 13
111.1527982945007
 23
377.007141800354
 33
0.0
 14
301.1527982945008
 24
377.007141800354
 34
0.0
100
AcDbRotatedDimension
  0
DIMENSION
  5
71D
330
A
100
AcDbEntity
  8
SUNPOU
100
AcDbDimension
  2
*D14
 10
76.1527982945008
 20
392.0071418003541
 30
0.0
 11
71.65279829450073
 21
384.5071418003541
 31
0.0
 70
    32
  3
SUNPOU_2
100
AcDbAlignedDimension
 13
111.1527982945007
 23
377.007141800354
 33
0.0
 14
136.1527982945006
 24
392.007141800354
 34
0.0
 50
90.0
100
AcDbRotatedDimension
  0
DIMENSION
  5
72A
330
A
100
AcDbEntity
  8
SUNPOU
100
AcDbDimension
  2
*D15
 10
76.15279829450081
 20
532.0073052907721
 30
0.0
 11
71.65279829450073
 21
462.0072235455631
 31
0.0
 70
    32
  1
直付け台板　<>
  3
SUNPOU_2
100
AcDbAlignedDimension
 13
136.1527982945006
 23
392.007141800354
 33
0.0
 14
181.9812505137148
 24
532.0073052907721
 34
0.0
 50
90.0
100
AcDbRotatedDimension
  0
DIMENSION
  5
737
330
A
100
AcDbEntity
  8
SUNPOU
100
AcDbDimension
  2
*D16
 10
94.62317155603626
 20
398.0071420028485
 30
0.0
 11
90.12317155603621
 21
387.5071419016013
 31
0.0
 70
    32
  3
SUNPOU_2
100
AcDbAlignedDimension
 13
116.1527982945007
 23
377.007141800354
 33
0.0
 14
149.7174496613958
 24
398.0071420028485
 34
0.0
 50
90.0
100
AcDbRotatedDimension
  0
DIMENSION
  5
744
330
A
100
AcDbEntity
  8
SUNPOU
100
AcDbDimension
  2
*D17
 10
94.62317155603628
 20
435.0075848421163
 30
0.0
 11
90.12317155603621
 21
416.5073634224824
 31
0.0
 70
    32
  3
SUNPOU_2
100
AcDbAlignedDimension
 13
149.7174496613958
 23
398.0071420028485
 33
0.0
 14
149.9174496613954
 24
435.0075848421162
 34
0.0
 50
90.0
100
AcDbRotatedDimension
  0
DIMENSION
  5
751
330
A
100
AcDbEntity
  8
SUNPOU
100
AcDbDimension
  2
*D18
 10
94.62317155603628
 20
468.0071420028485
 30
0.0
 11
90.12317155603621
 21
451.5073634224823
 31
0.0
 70
    32
  3
SUNPOU_2
100
AcDbAlignedDimension
 13
149.9174496613954
 23
435.0075848421162
 33
0.0
 14
150.2174496613958
 24
468.0071420028485
 34
0.0
 50
90.0
100
AcDbRotatedDimension
  0
DIMENSION
  5
75E
330
A
100
AcDbEntity
  8
SUNPOU
100
AcDbDimension
  2
*D19
 10
94.6231715560363
 20
508.0071420028485
 30
0.0
 11
90.12317155603621
 21
488.0071420028485
 31
0.0
 70
    32
  3
SUNPOU_2
100
AcDbAlignedDimension
 13
150.2174496613958
 23
468.0071420028485
 33
0.0
 14
150.2174496613958
 24
508.0071420028485
 34
0.0
 50
90.0
100
AcDbRotatedDimension
  0
DIMENSION
  5
76B
330
A
100
AcDbEntity
  8
SUNPOU
100
AcDbDimension
  2
*D20
 10
96.15279829450079
 20
248.0071418003539
 30
0.0
 11
91.65279829450076
 21
215.3706114020311
 31
0.0
 70
    32
  1
600
  3
SUNPOU_2
100
AcDbAlignedDimension
 13
171.1527982945012
 23
182.7340810037081
 33
0.0
 14
128.3457121706858
 24
248.0071418003539
 34
0.0
 50
90.0
100
AcDbRotatedDimension
  0
DIMENSION
  5
781
330
A
100
AcDbEntity
  8
SUNPOU
100
AcDbDimension
  2
*D21
 10
281.1527982945007
 20
185.734081003708
 30
0.0
 11
276.6527982945007
 21
173.2340810037081
 31
0.0
 70
    32
  3
SUNPOU_2
100
AcDbAlignedDimension
 13
204.652798294501
 23
160.7340810037081
 33
0.0
 14
213.9027982945012
 24
185.734081003708
 34
0.0
 50
90.0
100
AcDbRotatedDimension
  0
DIMENSION
  5
78E
330
A
100
AcDbEntity
  8
SUNPOU
100
AcDbDimension
  2
*D22
 10
259.6158539417483
 20
185.734081003708
 30
0.0
 11
255.1158539417483
 21
175.3472371291783
 31
0.0
 70
   160
  3
SUNPOU_2
100
AcDbAlignedDimension
 13
236.1527982945008
 23
182.7340810037081
 33
0.0
 14
213.9027982945012
 24
185.734081003708
 34
0.0
 50
90.0
100
AcDbRotatedDimension
  0
DIMENSION
  5
79D
330
A
100
AcDbEntity
  8
SUNPOU
100
AcDbDimension
  2
*D23
 10
341.1527982945008
 20
192.7340810037081
 30
0.0
 11
336.6527982945007
 21
187.7340810037082
 31
0.0
 70
    32
  3
SUNPOU_2
100
AcDbAlignedDimension
 13
236.1527982945008
 23
182.7340810037081
 33
0.0
 14
216.1527982945008
 24
192.7340810037081
 34
0.0
 50
90.0
100
AcDbRotatedDimension
  0
DIMENSION
  5
7AC
330
A
100
AcDbEntity
  8
SUNPOU
100
AcDbDimension
  2
*D24
 10
341.1527982945008
 20
377.007141800354
 30
0.0
 11
336.6527982945007
 21
284.8706114020311
 31
0.0
 70
    32
  1
DH
  3
SUNPOU_2
100
AcDbAlignedDimension
 13
216.1527982945008
 23
192.7340810037081
 33
0.0
 14
301.1527982945008
 24
377.007141800354
 34
0.0
 50
90.0
100
AcDbRotatedDimension
  0
DIMENSION
  5
7B9
330
A
100
AcDbEntity
  8
SUNPOU
100
AcDbDimension
  2
*D25
 10
341.1527982945008
 20
387.007141800354
 30
0.0
 11
336.6527982945007
 21
382.007141800354
 31
0.0
 70
    32
  3
SUNPOU_2
100
AcDbAlignedDimension
 13
301.1527982945008
 23
377.007141800354
 33
0.0
 14
216.1527982945006
 24
387.007141800354
 34
0.0
 50
90.0
100
AcDbRotatedDimension
  0
DIMENSION
  5
7C8
330
A
100
AcDbEntity
  8
SUNPOU
100
AcDbDimension
  2
*D26
 10
361.1527982945008
 20
377.007141800354
 30
0.0
 11
356.6527982945006
 21
279.8706114020311
 31
0.0
 70
    32
  1
H
  3
SUNPOU_2
100
AcDbAlignedDimension
 13
236.1527982945008
 23
182.7340810037081
 33
0.0
 14
301.1527982945008
 24
377.007141800354
 34
0.0
 50
90.0
100
AcDbRotatedDimension
  0
DIMENSION
  5
7D5
330
A
100
AcDbEntity
  8
SUNPOU
100
AcDbDimension
  2
*D27
 10
361.1527982945009
 20
557.007141800354
 30
0.0
 11
356.6527982945008
 21
467.0071418003541
 31
0.0
 70
    32
  3
SUNPOU_2
100
AcDbAlignedDimension
 13
301.1527982945008
 23
377.007141800354
 33
0.0
 14
301.1527982945008
 24
557.007141800354
 34
0.0
 50
90.0
100
AcDbRotatedDimension
  0
LEADER
  5
A5E
330
A
100
AcDbEntity
  8
HIKIDASI
100
AcDbLeader
  3
SUNPOU_2
 73
     0
 74
     0
 75
     1
 40
13.33333333333333
 41
47.46666666666668
 76
     3
 10
196.1527982945016
 20
380.0071418003524
 30
0.0
 10
249.9345756280435
 20
287.2857977766705
 30
0.0
 10
254.9345756280436
 20
287.2857977766705
 30
0.0
340
A5F
213
0.0
223
8.683350611125206
233
0.0
1001
ACAD
1000
DSTYLE
1002
{
1070
     5
1000
OPEN30
1070
    77
1070
     1
1070
   147
1040
1.0
1070
   342
1005
DB3
1002
}
1000
LEANOF
1010
0.0
1020
8.683350611125206
1030
0.0
1000
LEANOF
1010
0.0
1020
8.683350611125206
1030
0.0
  0
MTEXT
  5
A5F
330
A
100
AcDbEntity
  8
HIKIDASI
100
AcDbMText
 10
256.9345756280436
 20
280.6024471655453
 30
0.0
 40
5.0
 41
0.0
 71
     7
 72
     1
  1
FB－6×25（通し）\P（建具工事）
  7
SUNPOU
1001
ACAD
1000
MTEXTBEGIN
1070
    73
1070
     1
1070
    44
1040
1.0
1070
    74
1070
     0
1000
MTEXTEND
1000
MTEXTBEGIN
1070
    73
1070
     1
1070
    44
1040
1.0
1070
    74
1070
     0
1000
MTEXTEND
  0
LEADER
  5
A62
330
A
100
AcDbEntity
  8
HIKIDASI
100
AcDbLeader
  3
SUNPOU_2
 73
     0
 75
     1
 40
21.66666666666666
 41
41.7
 76
     3
 10
143.6527982945005
 20
254.0071418003541
 30
0.0
 10
108.3440383768266
 20
296.2516458279534
 30
0.0
 10
103.3440383768265
 20
296.2516458279534
 30
0.0
340
A63
213
0.0
223
17.14970098951653
233
0.0
1001
ACAD
1000
DSTYLE
1002
{
1070
     5
1000
OPEN30
1070
    77
1070
     1
1070
   147
1040
1.0
1070
   342
1005
DB3
1002
}
1000
LEANOF
1010
0.0
1020
17.14970098951653
1030
0.0
1000
LEANOF
1010
0.0
1020
17.14970098951653
1030
0.0
  0
MTEXT
  5
A63
330
A
100
AcDbEntity
  8
HIKIDASI
100
AcDbMText
 10
101.3440383768265
 20
281.1019448384369
 30
0.0
 40
5.0
 41
0.0
 71
     9
 72
     1
  1
補助光電スイッチ\Pφ12穴加工\P（建具工事）
  7
0_9
1001
ACAD
1000
MTEXTBEGIN
1070
    73
1070
     1
1070
    44
1040
1.0
1070
    74
1070
     0
1000
MTEXTEND
1000
MTEXTBEGIN
1070
    73
1070
     1
1070
    44
1040
1.0
1070
    74
1070
     0
1000
MTEXTEND
  0
LEADER
  5
A67
330
A
100
AcDbEntity
  8
HIKIDASI
100
AcDbLeader
  3
SUNPOU_2
 73
     0
 74
     0
 75
     1
 40
13.33333333333333
 41
53.39999999999998
 76
     3
 10
196.1527982944975
 20
198.7340810037061
 30
0.0
 10
255.7419004413481
 20
233.0851485564859
 30
0.0
 10
260.7419004413482
 20
233.0851485564859
 30
0.0
340
A68
213
0.0
223
8.377129357268131
233
0.0
1001
ACAD
1000
DSTYLE
1002
{
1070
     5
1000
OPEN30
1070
    77
1070
     1
1070
   147
1040
1.0
1070
   342
1005
DB3
1002
}
1000
LEANOF
1010
0.0
1020
8.377129357268131
1030
0.0
1000
LEANOF
1010
0.0
1020
8.377129357268131
1030
0.0
  0
MTEXT
  5
A68
330
A
100
AcDbEntity
  8
HIKIDASI
100
AcDbMText
 10
262.7419004413482
 20
226.7080191992178
 30
0.0
 40
5.0
 41
0.0
 71
     7
 72
     1
  1
FB－6×25（通し）\P（建具工事）
  7
0_9
1001
ACAD
1000
MTEXTBEGIN
1070
    73
1070
     1
1070
    44
1040
1.0
1070
    74
1070
     0
1000
MTEXTEND
1000
MTEXTBEGIN
1070
    73
1070
     1
1070
    44
1040
1.0
1070
    74
1070
     0
1000
MTEXTEND
  0
TEXT
  5
DED
330
A
100
AcDbEntity
  8
MOJI
100
AcDbText
 10
371.7479780182516
 20
185.8340810037081
 30
0.0
 40
5.0
  1
Ｆ.Ｌ
 41
0.8
  7
0_8
 11
371.7479780182516
 21
188.3340810037081
 31
0.0
100
AcDbText
 73
     2
  0
MTEXT
  5
DF4
330
A
100
AcDbEntity
  8
MOJI
100
AcDbMText
 10
58.02348248480754
 20
345.9346813467614
 30
0.0
 40
6.0
 41
10.0
 71
     5
 72
     1
  1
外\P\P部
  7
0_8
1001
ACAD
1000
MTEXTBEGIN
1070
    73
1070
     1
1070
    44
1040
1.0
1070
    74
1070
     0
1000
MTEXTEND
1000
MTEXTBEGIN
1070
    73
1070
     1
1070
    44
1040
1.0
1070
    74
1070
     0
1000
MTEXTEND
  0
POLYLINE
  5
DF5
330
A
100
AcDbEntity
  8
SAISEN
100
AcDb2dPolyline
 66
     1
 10
0.0
 20
0.0
 30
0.0
 70
     1
  0
VERTEX
  5
26B3
330
DF5
100
AcDbEntity
  8
SAISEN
100
AcDbVertex
100
AcDb2dVertex
 10
53.02348248480754
 20
330.9346813467615
 30
0.0
  0
VERTEX
  5
26B4
330
DF5
100
AcDbEntity
  8
SAISEN
100
AcDbVertex
100
AcDb2dVertex
 10
63.02348248480754
 20
330.9346813467615
 30
0.0
  0
VERTEX
  5
26B5
330
DF5
100
AcDbEntity
  8
SAISEN
100
AcDbVertex
100
AcDb2dVertex
 10
63.02348248480754
 20
360.9346813467614
 30
0.0
  0
VERTEX
  5
26B6
330
DF5
100
AcDbEntity
  8
SAISEN
100
AcDbVertex
100
AcDb2dVertex
 10
53.02348248480754
 20
360.9346813467614
 30
0.0
  0
SEQEND
  5
26B7
330
DF5
100
AcDbEntity
  8
SAISEN
  0
POLYLINE
  5
DF8
330
A
100
AcDbEntity
  8
SAISEN
100
AcDb2dPolyline
 66
     1
 10
0.0
 20
0.0
 30
0.0
 70
     1
  0
VERTEX
  5
26B8
330
DF8
100
AcDbEntity
  8
SAISEN
100
AcDbVertex
100
AcDb2dVertex
 10
370.4319898610084
 20
330.9346813467615
 30
0.0
  0
VERTEX
  5
26B9
330
DF8
100
AcDbEntity
  8
SAISEN
100
AcDbVertex
100
AcDb2dVertex
 10
380.4319898610085
 20
330.9346813467615
 30
0.0
  0
VERTEX
  5
26BA
330
DF8
100
AcDbEntity
  8
SAISEN
100
AcDbVertex
100
AcDb2dVertex
 10
380.4319898610085
 20
360.9346813467614
 30
0.0
  0
VERTEX
  5
26BB
330
DF8
100
AcDbEntity
  8
SAISEN
100
AcDbVertex
100
AcDb2dVertex
 10
370.4319898610084
 20
360.9346813467614
 30
0.0
  0
SEQEND
  5
26BC
330
DF8
100
AcDbEntity
  8
SAISEN
  0
MTEXT
  5
DF9
330
A
100
AcDbEntity
  8
MOJI
100
AcDbMText
 10
375.4319898610085
 20
345.9346813467614
 30
0.0
 40
6.0
 41
10.0
 71
     5
 72
     1
  1
内\P\P部
  7
0_8
1001
ACAD
1000
MTEXTBEGIN
1070
    73
1070
     1
1070
    44
1040
1.0
1070
    74
1070
     0
1000
MTEXTEND
1000
MTEXTBEGIN
1070
    73
1070
     1
1070
    44
1040
1.0
1070
    74
1070
     0
1000
MTEXTEND
  0
LEADER
  5
15CB
330
A
100
AcDbEntity
  8
HIKIDASI
100
AcDbLeader
  3
SUNPOU_2
 73
     0
 74
     0
 75
     1
 40
13.33333333333333
 41
52.26666666666666
 76
     3
 10
214.6527982945011
 20
180.3590810037081
 30
0.0
 10
280.6996037513489
 20
156.4249372888811
 30
0.0
 10
285.699603751349
 20
156.4249372888811
 30
0.0
340
15CC
213
0.0
223
8.270145757663613
233
0.0
1001
ACAD
1000
DSTYLE
1002
{
1070
     5
1000
OPEN30
1070
    77
1070
     1
1070
   147
1040
1.0
1070
   342
1005
DB3
1002
}
1000
LEANOF
1010
0.0
1020
8.270145757663613
1030
0.0
1000
LEANOF
1010
0.0
1020
8.270145757663613
1030
0.0
  0
MTEXT
  5
15CC
330
A
100
AcDbEntity
  8
HIKIDASI
100
AcDbMText
 10
287.699603751349
 20
150.1547915312175
 30
0.0
 40
5.0
 41
0.0
 71
     7
 72
     1
  1
ステンレスガイドレール\P（建具工事）
  7
SUNPOU
1001
ACAD
1000
MTEXTBEGIN
1070
    73
1070
     1
1070
    44
1040
1.0
1070
    74
1070
     0
1000
MTEXTEND
1000
MTEXTBEGIN
1070
    73
1070
     1
1070
    44
1040
1.0
1070
    74
1070
     0
1000
MTEXTEND
  0
ARC
  5
17C7
330
A
100
AcDbEntity
  8
06
100
AcDbCircle
 10
289.6984181760071
 20
36.72641936774539
 30
0.0
 40
250.0
100
AcDbArc
 50
115.1601606727846
 51
117.0123458528794
  0
ARC
  5
17C8
330
A
100
AcDbEntity
  8
06
100
AcDbCircle
 10
289.6984181760071
 20
36.72641936774539
 30
0.0
 40
220.0
100
AcDbArc
 50
109.5298718963957
 51
116.8508767951579
  0
ARC
  5
17C9
330
A
100
AcDbEntity
  8
06
100
AcDbCircle
 10
289.6984181760071
 20
36.72641936774539
 30
0.0
 40
230.0
100
AcDbArc
 50
108.6486268871336
 51
119.5825221861521
  0
ARC
  5
17CA
330
A
100
AcDbEntity
  8
06
100
AcDbCircle
 10
289.6984181760071
 20
36.72641936774539
 30
0.0
 40
240.0
100
AcDbArc
 50
109.46652724206
 51
118.2361520937013
  0
ARC
  5
17CB
330
A
100
AcDbEntity
  8
06
100
AcDbCircle
 10
289.6984181760071
 20
36.72641936774539
 30
0.0
 40
210.0
100
AcDbArc
 50
110.5006029044917
 51
110.8250863747171
  0
ARC
  5
17CC
330
A
100
AcDbEntity
  8
06
100
AcDbCircle
 10
289.6984181760071
 20
36.72641936774539
 30
0.0
 40
220.0
100
AcDbArc
 50
120.1272989049255
 51
121.0721095612977
  0
ARC
  5
17CD
330
A
100
AcDbEntity
  8
06
100
AcDbCircle
 10
289.6984181760071
 20
36.72641936774539
 30
0.0
 40
180.0
100
AcDbArc
 50
114.116089220026
 51
116.5818402846713
  0
ARC
  5
17CE
330
A
100
AcDbEntity
  8
06
100
AcDbCircle
 10
289.6984181760071
 20
36.72641936774539
 30
0.0
 40
190.0
100
AcDbArc
 50
112.7730673743557
 51
120.9144836856402
  0
ARC
  5
17CF
330
A
100
AcDbEntity
  8
06
100
AcDbCircle
 10
289.6984181760071
 20
36.72641936774539
 30
0.0
 40
210.0
100
AcDbArc
 50
115.0283345580074
 51
122.7308559789603
  0
ARC
  5
17D0
330
A
100
AcDbEntity
  8
06
100
AcDbCircle
 10
289.6984181760071
 20
36.72641936774539
 30
0.0
 40
200.0
100
AcDbArc
 50
111.5755713512835
 51
124.5919506820257
  0
ARC
  5
17D1
330
A
100
AcDbEntity
  8
06
100
AcDbCircle
 10
289.6984181760071
 20
36.72641936774539
 30
0.0
 40
190.0
100
AcDbArc
 50
124.1088174066629
 51
124.8056470356363
  0
ARC
  5
17E3
330
A
100
AcDbEntity
  8
06
100
AcDbCircle
 10
346.5356451606925
 20
155.286863383876
 30
0.0
 40
280.0
100
AcDbArc
 50
125.6978097518729
 51
127.4818561521336
  0
ARC
  5
17E4
330
A
100
AcDbEntity
  8
06
100
AcDbCircle
 10
346.5356451606925
 20
155.286863383876
 30
0.0
 40
270.0
100
AcDbArc
 50
124.8750252466303
 51
129.1274535186786
  0
ARC
  5
17E5
330
A
100
AcDbEntity
  8
06
100
AcDbCircle
 10
346.5356451606925
 20
155.286863383876
 30
0.0
 40
260.0
100
AcDbArc
 50
120.0974669285445
 51
130.981108389068
  0
ARC
  5
17E6
330
A
100
AcDbEntity
  8
06
100
AcDbCircle
 10
346.5356451606925
 20
155.286863383876
 30
0.0
 40
250.0
100
AcDbArc
 50
121.4350301076567
 51
132.963427271698
  0
ARC
  5
17E7
330
A
100
AcDbEntity
  8
06
100
AcDbCircle
 10
346.5356451606925
 20
155.286863383876
 30
0.0
 40
240.0
100
AcDbArc
 50
122.905965207707
 51
135.2291005177947
  0
ARC
  5
17E8
330
A
100
AcDbEntity
  8
06
100
AcDbCircle
 10
346.5356451606925
 20
155.286863383876
 30
0.0
 40
200.0
100
AcDbArc
 50
130.6860828979278
 51
137.4692148543161
  0
ARC
  5
17E9
330
A
100
AcDbEntity
  8
06
100
AcDbCircle
 10
346.5356451606925
 20
155.286863383876
 30
0.0
 40
210.0
100
AcDbArc
 50
128.3797454687557
 51
135.6797656994604
  0
ARC
  5
17EA
330
A
100
AcDbEntity
  8
06
100
AcDbCircle
 10
346.5356451606925
 20
155.286863383876
 30
0.0
 40
230.0
100
AcDbArc
 50
124.5330791023627
 51
137.7991803093945
  0
ARC
  5
17EB
330
A
100
AcDbEntity
  8
06
100
AcDbCircle
 10
346.5356451606925
 20
155.286863383876
 30
0.0
 40
220.0
100
AcDbArc
 50
126.3452371042341
 51
140.7567779142687
  0
ARC
  5
17EE
330
A
100
AcDbEntity
  8
06
100
AcDbCircle
 10
346.5356451606925
 20
155.286863383876
 30
0.0
 40
210.0
100
AcDbArc
 50
136.9194773262814
 51
141.1532555770253
  0
ARC
  5
17EF
330
A
100
AcDbEntity
  8
06
100
AcDbCircle
 10
346.5356451606925
 20
155.286863383876
 30
0.0
 40
190.0
100
AcDbArc
 50
134.1669799701325
 51
136.1109090791894
  0
ARC
  5
1809
330
A
100
AcDbEntity
  8
03
100
AcDbCircle
 10
328.3271430572263
 20
312.4970264174426
 30
0.0
 40
130.0
100
AcDbArc
 50
144.5014417189416
 51
145.5295334550512
  0
ARC
  5
180A
330
A
100
AcDbEntity
  8
03
100
AcDbCircle
 10
328.3271430572263
 20
312.4970264174426
 30
0.0
 40
80.0
100
AcDbArc
 50
109.8573370846042
 51
126.2566041318968
  0
ARC
  5
180B
330
A
100
AcDbEntity
  8
03
100
AcDbCircle
 10
328.3271430572263
 20
312.4970264174426
 30
0.0
 40
110.0
100
AcDbArc
 50
125.538185407106
 51
144.0941122240569
  0
ARC
  5
180C
330
A
100
AcDbEntity
  8
03
100
AcDbCircle
 10
328.3271430572263
 20
312.4970264174426
 30
0.0
 40
100.0
100
AcDbArc
 50
105.7680385158423
 51
139.8267399408991
  0
ARC
  5
180D
330
A
100
AcDbEntity
  8
03
100
AcDbCircle
 10
328.3271430572263
 20
312.4970264174426
 30
0.0
 40
120.0
100
AcDbArc
 50
131.7620231044452
 51
147.48065774779
  0
ARC
  5
180E
330
A
100
AcDbEntity
  8
03
100
AcDbCircle
 10
328.3271430572263
 20
312.4970264174426
 30
0.0
 40
90.0
100
AcDbArc
 50
107.5739909008297
 51
134.2108100720805
  0
ARC
  5
180F
330
A
100
AcDbEntity
  8
03
100
AcDbCircle
 10
328.3271430572263
 20
312.4970264174426
 30
0.0
 40
220.0
100
AcDbArc
 50
97.09528118071439
 51
103.7187523870656
  0
ARC
  5
1810
330
A
100
AcDbEntity
  8
03
100
AcDbCircle
 10
328.3271430572263
 20
312.4970264174426
 30
0.0
 40
110.0
100
AcDbArc
 50
104.3023938093022
 51
118.3145785177234
  0
ARC
  5
1811
330
A
100
AcDbEntity
  8
03
100
AcDbCircle
 10
328.3271430572263
 20
312.4970264174426
 30
0.0
 40
140.0
100
AcDbArc
 50
101.1922967311891
 51
111.8806178830402
  0
ARC
  5
1812
330
A
100
AcDbEntity
  8
03
100
AcDbCircle
 10
328.3271430572263
 20
312.4970264174426
 30
0.0
 40
120.0
100
AcDbArc
 50
103.0883270374265
 51
115.7716906387646
  0
ARC
  5
1813
330
A
100
AcDbEntity
  8
03
100
AcDbCircle
 10
328.3271430572263
 20
312.4970264174426
 30
0.0
 40
130.0
100
AcDbArc
 50
102.0657142835944
 51
113.6620447698893
  0
ARC
  5
1814
330
A
100
AcDbEntity
  8
03
100
AcDbCircle
 10
328.3271430572263
 20
312.4970264174426
 30
0.0
 40
150.0
100
AcDbArc
 50
100.43746771566
 51
110.3545822855004
  0
ARC
  5
1815
330
A
100
AcDbEntity
  8
03
100
AcDbCircle
 10
328.3271430572263
 20
312.4970264174426
 30
0.0
 40
160.0
100
AcDbArc
 50
99.77849638019831
 51
109.0316044622339
  0
ARC
  5
1816
330
A
100
AcDbEntity
  8
03
100
AcDbCircle
 10
328.3271430572263
 20
312.4970264174426
 30
0.0
 40
190.0
100
AcDbArc
 50
98.22280452109396
 51
105.9382863217665
  0
ARC
  5
1817
330
A
100
AcDbEntity
  8
03
100
AcDbCircle
 10
328.3271430572263
 20
312.4970264174426
 30
0.0
 40
180.0
100
AcDbArc
 50
98.68306146446496
 51
106.8494232073774
  0
ARC
  5
1818
330
A
100
AcDbEntity
  8
03
100
AcDbCircle
 10
328.3271430572263
 20
312.4970264174426
 30
0.0
 40
170.0
100
AcDbArc
 50
99.1981367936988
 51
107.8729852493721
  0
ARC
  5
1819
330
A
100
AcDbEntity
  8
03
100
AcDbCircle
 10
328.3271430572263
 20
312.4970264174426
 30
0.0
 40
200.0
100
AcDbArc
 50
97.80903046290342
 51
105.1217934294885
  0
ARC
  5
181A
330
A
100
AcDbEntity
  8
03
100
AcDbCircle
 10
328.3271430572263
 20
312.4970264174426
 30
0.0
 40
210.0
100
AcDbArc
 50
97.43501685933964
 51
104.3857663878517
  0
ARC
  5
181B
330
A
100
AcDbEntity
  8
03
100
AcDbCircle
 10
328.3271430572263
 20
312.4970264174426
 30
0.0
 40
230.0
100
AcDbArc
 50
96.78530688070644
 51
103.1113932159632
  0
ARC
  5
181C
330
A
100
AcDbEntity
  8
03
100
AcDbCircle
 10
328.3271430572263
 20
312.4970264174426
 30
0.0
 40
240.0
100
AcDbArc
 50
96.50133917537278
 51
102.555963389236
  0
ARC
  5
181D
330
A
100
AcDbEntity
  8
06
100
AcDbCircle
 10
328.3271430572263
 20
312.4970264174426
 30
0.0
 40
250.0
100
AcDbArc
 50
102.0294894493667
 51
102.0460262522472
  0
ARC
  5
1838
330
A
100
AcDbEntity
  8
03
100
AcDbCircle
 10
352.0538322700847
 20
295.3243017055917
 30
0.0
 40
200.0
100
AcDbArc
 50
154.7567200066702
 51
155.8947437854051
  0
ARC
  5
1839
330
A
100
AcDbEntity
  8
03
100
AcDbCircle
 10
352.0538322700847
 20
295.3243017055917
 30
0.0
 40
310.0
100
AcDbArc
 50
122.4202822851556
 51
139.5498808678937
  0
ARC
  5
183A
330
A
100
AcDbEntity
  8
03
100
AcDbCircle
 10
352.0538322700847
 20
295.3243017055917
 30
0.0
 40
290.0
100
AcDbArc
 50
128.5939205516587
 51
144.4345698392848
  0
ARC
  5
183B
330
A
100
AcDbEntity
  8
03
100
AcDbCircle
 10
352.0538322700847
 20
295.3243017055917
 30
0.0
 40
300.0
100
AcDbArc
 50
119.2757720323574
 51
141.8444836427895
  0
ARC
  5
183C
330
A
100
AcDbEntity
  8
03
100
AcDbCircle
 10
352.0538322700847
 20
295.3243017055917
 30
0.0
 40
250.0
100
AcDbArc
 50
136.3528519268738
 51
160.6659102980106
  0
ARC
  5
183D
330
A
100
AcDbEntity
  8
03
100
AcDbCircle
 10
352.0538322700847
 20
295.3243017055917
 30
0.0
 40
240.0
100
AcDbArc
 50
138.9166426994179
 51
160.102095098699
  0
ARC
  5
183E
330
A
100
AcDbEntity
  8
03
100
AcDbCircle
 10
352.0538322700847
 20
295.3243017055917
 30
0.0
 40
230.0
100
AcDbArc
 50
141.8620574712343
 51
155.1426711145732
  0
ARC
  5
183F
330
A
100
AcDbEntity
  8
03
100
AcDbCircle
 10
352.0538322700847
 20
295.3243017055917
 30
0.0
 40
220.0
100
AcDbArc
 50
145.3134270697966
 51
155.9494872560912
  0
ARC
  5
1840
330
A
100
AcDbEntity
  8
03
100
AcDbCircle
 10
352.0538322700847
 20
295.3243017055917
 30
0.0
 40
210.0
100
AcDbArc
 50
149.4779186522888
 51
157.1098297033119
  0
ARC
  5
1841
330
A
100
AcDbEntity
  8
03
100
AcDbCircle
 10
352.0538322700847
 20
295.3243017055917
 30
0.0
 40
260.0
100
AcDbArc
 50
134.088863926625
 51
155.1364482284455
  0
ARC
  5
1842
330
A
100
AcDbEntity
  8
03
100
AcDbCircle
 10
352.0538322700847
 20
295.3243017055917
 30
0.0
 40
280.0
100
AcDbArc
 50
130.2463323119239
 51
147.4054554730986
  0
ARC
  5
1843
330
A
100
AcDbEntity
  8
03
100
AcDbCircle
 10
352.0538322700847
 20
295.3243017055917
 30
0.0
 40
270.0
100
AcDbArc
 50
132.0673603688227
 51
150.8923797250361
  0
ARC
  5
1844
330
A
100
AcDbEntity
  8
03
100
AcDbCircle
 10
352.0538322700847
 20
295.3243017055917
 30
0.0
 40
320.0
100
AcDbArc
 50
125.1389262317833
 51
137.4926556211757
  0
ARC
  5
1845
330
A
100
AcDbEntity
  8
03
100
AcDbCircle
 10
352.0538322700847
 20
295.3243017055917
 30
0.0
 40
330.0
100
AcDbArc
 50
129.498924747387
 51
135.6310400479721
  0
ARC
  5
1846
330
A
100
AcDbEntity
  8
03
100
AcDbCircle
 10
352.0538322700847
 20
295.3243017055917
 30
0.0
 40
340.0
100
AcDbArc
 50
132.8707172529435
 51
133.9337836484947
  0
ARC
  5
1847
330
A
100
AcDbEntity
  8
03
100
AcDbCircle
 10
352.0538322700847
 20
295.3243017055917
 30
0.0
 40
340.0
100
AcDbArc
 50
129.6770447663618
 51
132.545813172907
  0
ARC
  5
1848
330
A
100
AcDbEntity
  8
03
100
AcDbCircle
 10
352.0538322700847
 20
295.3243017055917
 30
0.0
 40
330.0
100
AcDbArc
 50
127.5352838023826
 51
128.1616255755317
  0
ARC
  5
184A
330
A
100
AcDbEntity
  8
03
100
AcDbCircle
 10
352.0538322700847
 20
295.3243017055917
 30
0.0
 40
260.0
100
AcDbArc
 50
107.2039080674585
 51
114.4505696997208
  0
ARC
  5
184B
330
A
100
AcDbEntity
  8
03
100
AcDbCircle
 10
352.0538322700847
 20
295.3243017055917
 30
0.0
 40
280.0
100
AcDbArc
 50
110.8393502115672
 51
122.2963434872499
  0
ARC
  5
184C
330
A
100
AcDbEntity
  8
03
100
AcDbCircle
 10
352.0538322700847
 20
295.3243017055917
 30
0.0
 40
270.0
100
AcDbArc
 50
106.5480083959585
 51
118.764715843662
  0
ARC
  5
184D
330
A
100
AcDbEntity
  8
03
100
AcDbCircle
 10
352.0538322700847
 20
295.3243017055917
 30
0.0
 40
290.0
100
AcDbArc
 50
115.5306812570523
 51
125.2989879222512
  0
MTEXT
  5
1D18
330
A
100
AcDbEntity
  8
HIKIDASI
100
AcDbMText
 10
262.5138267217898
 20
208.4494458075293
 30
0.0
 40
5.0
 41
0.0
 71
     7
 72
     1
  1
振れ止め\P(建具工事)
  7
SUNPOU
1001
ACAD
1000
MTEXTBEGIN
1070
    73
1070
     1
1070
    44
1040
1.0
1070
    74
1070
     0
1000
MTEXTEND
1000
MTEXTBEGIN
1070
    73
1070
     1
1070
    44
1040
1.0
1070
    74
1070
     0
1000
MTEXTEND
  0
LEADER
  5
1D19
330
A
100
AcDbEntity
  8
HIKIDASI
100
AcDbLeader
  3
SUNPOU_2
 73
     0
 74
     0
 75
     1
 40
13.33333333333333
 41
23.19999999999999
 76
     3
 10
196.1527982945012
 20
180.2340810037089
 30
0.0
 10
256.2676397939511
 20
215.0655686488389
 30
0.0
 10
261.2676397939511
 20
215.0655686488389
 30
0.0
340
1D18
213
0.7538130721613358
223
8.616122841309531
233
0.0
1001
ACAD
1000
DSTYLE
1002
{
1070
     5
1000
OPEN30
1070
    77
1070
     1
1070
   147
1040
1.0
1070
   342
1005
DB3
1002
}
1000
LEANOF
1010
0.7538130721613358
1020
8.616122841309531
1030
0.0
1000
LEANOF
1010
0.7538130721613358
1020
8.616122841309531
1030
0.0
  0
CIRCLE
  5
1D37
330
A
100
AcDbEntity
  8
SAISEN
100
AcDbCircle
 10
391.0976380784321
 20
50.54302641223149
 30
0.0
 40
5.0
  0
TEXT
  5
1D38
330
A
100
AcDbEntity
  8
MOJI
100
AcDbText
 10
388.0488190392161
 20
46.27151320611576
 30
0.0
 40
8.0
  1
Ｓ
 41
0.8
  7
0_8
 11
388.0488190392161
 21
54.27151320611577
 31
0.0
100
AcDbText
 73
     3
  0
LINE
  5
2010
330
A
100
AcDbEntity
  8
CHUSIN
 48
0.8
100
AcDbLine
 10
169.3946627411506
 20
435.00757231922
 30
0.0
 11
176.5606915295085
 21
435.0076103388416
 31
0.0
  0
LINE
  5
2011
330
A
100
AcDbEntity
  8
CHUSIN
 48
0.8
100
AcDbLine
 10
169.3193066304795
 20
508.0071420263588
 30
0.0
 11
176.5606915295085
 21
508.0071420263588
 31
0.0
  0
LINE
  5
2013
330
A
100
AcDbEntity
  8
CHUSIN
 48
0.8
100
AcDbLine
 10
169.3946627411506
 20
468.0071420263588
 30
0.0
 11
176.5606915295085
 21
468.0071420263588
 31
0.0
  0
LINE
  5
201E
330
A
100
AcDbEntity
  8
CHUSIN
100
AcDbLine
 10
176.5606915295085
 20
398.0071420263588
 30
0.0
 11
167.8961611230899
 21
398.0071420263588
 31
0.0
  0
LINE
  5
2331
330
A
100
AcDbEntity
  8
06
100
AcDbLine
 10
257.7542290399644
 20
465.4820705147153
 30
0.0
 11
257.1526930447303
 21
467.7270334115106
 31
0.0
  0
LINE
  5
2332
330
A
100
AcDbEntity
  8
06
100
AcDbLine
 10
259.15269304473
 20
465.0070334115106
 30
0.0
 11
258.1525579818964
 21
465.0070334115104
 31
0.0
  0
LINE
  5
2333
330
A
100
AcDbEntity
  8
06
100
AcDbLine
 10
255.1529536139987
 20
517.2870334115104
 30
0.0
 11
257.1526930447303
 21
517.2870334115104
 31
0.0
  0
LINE
  5
2334
330
A
100
AcDbEntity
  8
06
100
AcDbLine
 10
243.1525031786057
 20
470.5565044520191
 30
0.0
 11
257.1526930447303
 21
470.5564105859322
 31
0.0
  0
LINE
  5
2335
330
A
100
AcDbEntity
  8
04
100
AcDbLine
 10
220.1526785817851
 20
446.0005440297798
 30
0.0
 11
227.1526690104933
 21
446.0005528135734
 31
0.0
  0
LINE
  5
2336
330
A
100
AcDbEntity
  8
06
100
AcDbLine
 10
257.1526930447303
 20
470.5564105859322
 30
0.0
 11
257.1526930447303
 21
467.7270334115105
 31
0.0
  0
LINE
  5
2337
330
A
100
AcDbEntity
  8
06
100
AcDbLine
 10
257.1526930447303
 20
514.4570334115106
 30
0.0
 11
257.1526930447303
 21
470.5564105859322
 31
0.0
  0
LINE
  5
2338
330
A
100
AcDbEntity
  8
06
100
AcDbLine
 10
241.1526930447302
 20
514.4570334115106
 30
0.0
 11
241.1526809593909
 21
500.0075169793338
 31
0.0
  0
POLYLINE
  5
2339
330
A
100
AcDbEntity
  8
06
100
AcDb2dPolyline
 66
     1
 10
0.0
 20
0.0
 30
0.0
 70
     1
  0
VERTEX
  5
26BD
330
2339
100
AcDbEntity
  8
06
100
AcDbVertex
100
AcDb2dVertex
 10
243.1525031786057
 20
465.4815403897315
 30
0.0
  0
VERTEX
  5
26BE
330
2339
100
AcDbEntity
  8
06
100
AcDbVertex
100
AcDb2dVertex
 10
255.1529536140308
 20
465.4815403897315
 30
0.0
  0
VERTEX
  5
26BF
330
2339
100
AcDbEntity
  8
06
100
AcDbVertex
100
AcDb2dVertex
 10
255.1529536140308
 20
470.5565044520191
 30
0.0
  0
VERTEX
  5
26C0
330
2339
100
AcDbEntity
  8
06
100
AcDbVertex
100
AcDb2dVertex
 10
243.1525031786057
 20
470.5565044520191
 30
0.0
  0
SEQEND
  5
26C1
330
2339
100
AcDbEntity
  8
06
  0
LINE
  5
233A
330
A
100
AcDbEntity
  8
06
100
AcDbLine
 10
241.1526930447302
 20
517.2870334115104
 30
0.0
 11
243.1529536139986
 21
517.2870334115104
 31
0.0
  0
POLYLINE
  5
233B
330
A
100
AcDbEntity
  8
06
100
AcDb2dPolyline
 66
     1
 10
0.0
 20
0.0
 30
0.0
 70
     1
  0
VERTEX
  5
26C2
330
233B
100
AcDbEntity
  8
06
100
AcDbVertex
100
AcDb2dVertex
 10
243.1529536139986
 20
514.4571272775976
 30
0.0
  0
VERTEX
  5
26C3
330
233B
100
AcDbEntity
  8
06
100
AcDbVertex
100
AcDb2dVertex
 10
255.1529536139987
 20
514.4571272775976
 30
0.0
  0
VERTEX
  5
26C4
330
233B
100
AcDbEntity
  8
06
100
AcDbVertex
100
AcDb2dVertex
 10
255.1529536139987
 20
519.532127277337
 30
0.0
  0
VERTEX
  5
26C5
330
233B
100
AcDbEntity
  8
06
100
AcDbVertex
100
AcDb2dVertex
 10
243.1529536139986
 20
519.532127277337
 30
0.0
  0
SEQEND
  5
26C6
330
233B
100
AcDbEntity
  8
06
  0
POLYLINE
  5
233C
330
A
100
AcDbEntity
  8
06
100
AcDb2dPolyline
 66
     1
 10
0.0
 20
0.0
 30
0.0
 70
     1
  0
VERTEX
  5
26C7
330
233C
100
AcDbEntity
  8
06
100
AcDbVertex
100
AcDb2dVertex
 10
243.1529536139986
 20
514.4571272775976
 30
0.0
  0
VERTEX
  5
26C8
330
233C
100
AcDbEntity
  8
06
100
AcDbVertex
100
AcDb2dVertex
 10
255.1529536139987
 20
514.4571272775976
 30
0.0
  0
VERTEX
  5
26C9
330
233C
100
AcDbEntity
  8
06
100
AcDbVertex
100
AcDb2dVertex
 10
255.1529536139987
 20
519.532127277337
 30
0.0
  0
VERTEX
  5
26CA
330
233C
100
AcDbEntity
  8
06
100
AcDbVertex
100
AcDb2dVertex
 10
243.1529536139986
 20
519.532127277337
 30
0.0
  0
SEQEND
  5
26CB
330
233C
100
AcDbEntity
  8
06
  0
ARC
  5
233D
330
A
100
AcDbEntity
  8
04
100
AcDbCircle
 10
218.8525576182723
 20
445.5075984421528
 30
0.0
 40
3.2
100
AcDbArc
 50
90.0
 51
180.0
  0
LINE
  5
233E
330
A
100
AcDbEntity
  8
04
100
AcDbLine
 10
227.1526696290589
 20
445.5076047215409
 30
0.0
 11
239.952557981846
 21
445.5076047215409
 31
0.0
  0
ARC
  5
233F
330
A
100
AcDbEntity
  8
04
100
AcDbCircle
 10
239.952557981846
 20
448.7076047215409
 30
0.0
 40
3.2
100
AcDbArc
 50
270.0
 51
359.9999999999446
  0
LINE
  5
2340
330
A
100
AcDbEntity
  8
04
100
AcDbLine
 10
239.952557981846
 20
448.7076047215409
 30
0.0
 11
218.8526493447556
 21
448.7076047215409
 31
0.0
  0
LINE
  5
2341
330
A
100
AcDbEntity
  8
06
100
AcDbLine
 10
178.8527238192276
 20
460.5070789983443
 30
0.0
 11
229.0509792237461
 21
460.5070790064773
 31
0.0
  0
LINE
  5
2342
330
A
100
AcDbEntity
  8
06
100
AcDbLine
 10
185.8527945808873
 20
524.5070790012618
 30
0.0
 11
229.0118247924964
 21
524.5070790012618
 31
0.0
  0
LINE
  5
2343
330
A
100
AcDbEntity
  8
CHUSIN
100
AcDbLine
 10
261.94314902116
 20
492.5070079632298
 30
0.0
 11
166.6527199293555
 21
492.507147275516
 31
0.0
  0
LINE
  5
2344
330
A
100
AcDbEntity
  8
06
100
AcDbLine
 10
258.1525579818964
 20
465.4820708356107
 30
0.0
 11
258.1525579818964
 21
450.4814829781516
 31
0.0
  0
LINE
  5
2345
330
A
100
AcDbEntity
  8
06
100
AcDbLine
 10
243.152533249878
 20
450.4815437063816
 30
0.0
 11
258.1525579818964
 21
450.4814829781516
 31
0.0
  0
LINE
  5
2346
330
A
100
AcDbEntity
  8
06
100
AcDbLine
 10
257.8815148481429
 20
520.0070334115105
 30
0.0
 11
259.15269304473
 21
520.0070334115105
 31
0.0
  0
LINE
  5
2347
330
A
100
AcDbEntity
  8
06
100
AcDbLine
 10
257.8815148481428
 20
520.0070334115105
 30
0.0
 11
257.1526930447303
 21
517.2870334115104
 31
0.0
  0
LINE
  5
2348
330
A
100
AcDbEntity
  8
06
100
AcDbLine
 10
241.1526930447302
 20
517.2870334115107
 30
0.0
 11
240.4238712413175
 21
520.0070334115105
 31
0.0
  0
LINE
  5
2349
330
A
100
AcDbEntity
  8
06
100
AcDbLine
 10
239.2647602497707
 20
519.6964505573876
 30
0.0
 11
240.4238712413174
 21
520.0070334115105
 31
0.0
  0
LINE
  5
234A
330
A
100
AcDbEntity
  8
06
100
AcDbLine
 10
241.1526930447302
 20
514.4570334115106
 30
0.0
 11
257.1526930447303
 21
514.4570334115106
 31
0.0
  0
LINE
  5
234B
330
A
100
AcDbEntity
  8
06
100
AcDbLine
 10
241.1526930447302
 20
514.4570334115106
 30
0.0
 11
241.1526930447302
 21
517.2870334115107
 31
0.0
  0
LINE
  5
234C
330
A
100
AcDbEntity
  8
06
100
AcDbLine
 10
239.2647602497707
 20
479.5070334115106
 30
0.0
 11
237.3525773262084
 21
479.5070334115106
 31
0.0
  0
LINE
  5
234D
330
A
100
AcDbEntity
  8
06
100
AcDbLine
 10
237.3525773262084
 20
505.5070334115106
 30
0.0
 11
239.2647602497707
 21
505.5070334115106
 31
0.0
  0
LINE
  5
234E
330
A
100
AcDbEntity
  8
06
100
AcDbLine
 10
229.0117303022028
 20
460.1910956945372
 30
0.0
 11
230.3526488307783
 21
456.5069187983685
 31
0.0
  0
LINE
  5
234F
330
A
100
AcDbEntity
  8
06
100
AcDbLine
 10
229.0117303022028
 20
460.1910956945372
 30
0.0
 11
230.3526488307783
 21
456.5069187983685
 31
0.0
  0
LINE
  5
2350
330
A
100
AcDbEntity
  8
06
100
AcDbLine
 10
229.0118247924964
 20
524.8230165216481
 30
0.0
 11
230.3527540934201
 21
528.5071894970208
 31
0.0
  0
LINE
  5
2351
330
A
100
AcDbEntity
  8
06
100
AcDbLine
 10
229.0118247924964
 20
524.8230165216481
 30
0.0
 11
230.3527540934201
 21
528.5071894970208
 31
0.0
  0
LINE
  5
2352
330
A
100
AcDbEntity
  8
04
100
AcDbLine
 10
243.1525579818964
 20
500.0075185904425
 30
0.0
 11
239.952557981846
 21
500.0075160125098
 31
0.0
  0
LINE
  5
2353
330
A
100
AcDbEntity
  8
06
100
AcDbLine
 10
257.1526930447303
 20
514.4570334115106
 30
0.0
 11
257.1526930447303
 21
517.2870334115104
 31
0.0
  0
LINE
  5
2354
330
A
100
AcDbEntity
  8
06
100
AcDbLine
 10
259.15269304473
 20
465.0070334115106
 30
0.0
 11
259.15269304473
 21
520.0070334115105
 31
0.0
  0
LINE
  5
2355
330
A
100
AcDbEntity
  8
06
100
AcDbLine
 10
239.2647602497707
 20
465.3176162656334
 30
0.0
 11
239.2647602497707
 21
519.6964505573876
 31
0.0
  0
LINE
  5
2356
330
A
100
AcDbEntity
  8
06
100
AcDbLine
 10
255.1529536139987
 20
467.7270334115105
 30
0.0
 11
257.1526930447303
 21
467.7270334115105
 31
0.0
  0
LINE
  5
2357
330
A
100
AcDbEntity
  8
06
100
AcDbLine
 10
239.2647602497707
 20
465.3176162656334
 30
0.0
 11
239.952557981846
 21
465.1333214187681
 31
0.0
  0
LINE
  5
2358
330
A
100
AcDbEntity
  8
CHUSIN
100
AcDbLine
 10
249.1527364220281
 20
522.1512871762889
 30
0.0
 11
249.1526469614377
 21
461.0134900788546
 31
0.0
  0
LINE
  5
2359
330
A
100
AcDbEntity
  8
CHUSIN
100
AcDbLine
 10
241.4026352546051
 20
517.9721272773369
 30
0.0
 11
256.1704805425254
 21
517.9721272773369
 31
0.0
  0
LINE
  5
235A
330
A
100
AcDbEntity
  8
CHUSIN
100
AcDbLine
 10
249.1529536139986
 20
522.560241834866
 30
0.0
 11
249.1529536139986
 21
463.3156121827401
 31
0.0
  0
LINE
  5
235B
330
A
100
AcDbEntity
  8
CHUSIN
100
AcDbLine
 10
242.3722809584297
 20
467.0415448633903
 30
0.0
 11
256.3123260651857
 21
467.0415016259818
 31
0.0
  0
LINE
  5
235E
330
A
100
AcDbEntity
  8
CHUSIN
100
AcDbLine
 10
238.1407664336899
 20
457.4820547140298
 30
0.0
 11
260.237016150188
 21
457.4820725148547
 31
0.0
  0
LINE
  5
235F
330
A
100
AcDbEntity
  8
06
100
AcDbLine
 10
258.1525579818964
 20
465.4820708356107
 30
0.0
 11
243.1525592382221
 21
465.4820587515533
 31
0.0
  0
LINE
  5
2360
330
A
100
AcDbEntity
  8
06
100
AcDbLine
 10
237.3525773262084
 20
457.5072159017742
 30
0.0
 11
234.3526889596414
 21
457.5070938366428
 31
0.0
  0
LINE
  5
2361
330
A
100
AcDbEntity
  8
06
100
AcDbLine
 10
234.3527502257413
 20
456.5070573926325
 30
0.0
 11
230.3526036800733
 21
456.5070428500395
 31
0.0
  0
LINE
  5
2362
330
A
100
AcDbEntity
  8
06
100
AcDbLine
 10
234.3527502257413
 20
528.5069023254449
 30
0.0
 11
234.3527502257413
 21
456.5070573926325
 31
0.0
  0
LINE
  5
2363
330
A
100
AcDbEntity
  8
06
100
AcDbLine
 10
237.3525773262084
 20
527.5071167223747
 30
0.0
 11
237.3525773262084
 21
457.5072159017742
 31
0.0
  0
LINE
  5
2364
330
A
100
AcDbEntity
  8
06
100
AcDbLine
 10
237.3527419407576
 20
527.5069491322211
 30
0.0
 11
234.3527372839133
 21
527.5070712028572
 31
0.0
  0
LINE
  5
2365
330
A
100
AcDbEntity
  8
06
100
AcDbLine
 10
230.3527294586721
 20
528.507198789156
 30
0.0
 11
234.3526827483914
 21
528.5072043377867
 31
0.0
  0
LINE
  5
2366
330
A
100
AcDbEntity
  8
04
100
AcDbLine
 10
243.1525579818963
 20
500.0075194530468
 30
0.0
 11
243.1525579818468
 21
448.7076047215378
 31
0.0
  0
LINE
  5
2367
330
A
100
AcDbEntity
  8
04
100
AcDbLine
 10
239.952557981846
 20
500.0075168751145
 30
0.0
 11
239.952557981846
 21
448.7076047215409
 31
0.0
  0
LINE
  5
2368
330
A
100
AcDbEntity
  8
04
100
AcDbLine
 10
233.9566534847026
 20
439.5130539180666
 30
0.0
 11
234.6527403023288
 21
438.3075229666681
 31
0.0
  0
LINE
  5
2369
330
A
100
AcDbEntity
  8
04
100
AcDbLine
 10
234.6526879830984
 20
425.7075097055121
 30
0.0
 11
233.9566606107471
 21
424.5019405182151
 31
0.0
  0
LINE
  5
236A
330
A
100
AcDbEntity
  8
04
100
AcDbLine
 10
234.6527403023288
 20
438.3075229666681
 30
0.0
 11
234.6526879830984
 21
425.7075097055121
 31
0.0
  0
LINE
  5
236B
330
A
100
AcDbEntity
  8
04
100
AcDbLine
 10
220.1526785817851
 20
447.0079925408411
 30
0.0
 11
220.1526785817851
 21
446.0005440297798
 31
0.0
  0
LINE
  5
236C
330
A
100
AcDbEntity
  8
04
100
AcDbLine
 10
215.6502232689149
 20
443.8222790998564
 30
0.0
 11
215.6502232688466
 21
447.0079925408411
 31
0.0
  0
LINE
  5
236D
330
A
100
AcDbEntity
  8
04
100
AcDbLine
 10
215.6502232688466
 20
447.0079925408411
 30
0.0
 11
220.1526785817851
 21
447.0079925408411
 31
0.0
  0
LINE
  5
236E
330
A
100
AcDbEntity
  8
04
100
AcDbLine
 10
229.1526858052809
 20
439.7075164513649
 30
0.0
 11
229.1526844009207
 21
439.5130539180645
 31
0.0
  0
LINE
  5
236F
330
A
100
AcDbEntity
  8
04
100
AcDbLine
 10
227.1526769071801
 20
439.7075164512656
 30
0.0
 11
229.1526858052809
 21
439.7075164513649
 31
0.0
  0
LINE
  5
2370
330
A
100
AcDbEntity
  8
04
100
AcDbLine
 10
229.1526881792875
 20
424.5019405182956
 30
0.0
 11
229.1526900823547
 21
424.3075120876934
 31
0.0
  0
LINE
  5
2371
330
A
100
AcDbEntity
  8
04
100
AcDbLine
 10
229.1526900823547
 20
424.3075120876934
 30
0.0
 11
227.1526962315823
 21
424.3074925117354
 31
0.0
  0
LINE
  5
2372
330
A
100
AcDbEntity
  8
04
100
AcDbLine
 10
227.1526962315823
 20
424.3074925117354
 30
0.0
 11
227.1527041369992
 21
418.0074989072878
 31
0.0
  0
LINE
  5
2373
330
A
100
AcDbEntity
  8
04
100
AcDbLine
 10
227.1527041369992
 20
418.0074989072878
 30
0.0
 11
220.1526785817851
 21
418.0074989072878
 31
0.0
  0
LINE
  5
2374
330
A
100
AcDbEntity
  8
04
100
AcDbLine
 10
215.6502232689149
 20
443.8222790998564
 30
0.0
 11
215.6502232702956
 21
424.1922843333443
 31
0.0
  0
LINE
  5
2375
330
A
100
AcDbEntity
  8
04
100
AcDbLine
 10
220.1526785817851
 20
446.0005440297798
 30
0.0
 11
220.1526785817851
 21
418.0074989072878
 31
0.0
  0
LINE
  5
2376
330
A
100
AcDbEntity
  8
04
100
AcDbLine
 10
227.1526690104933
 20
446.0005528135734
 30
0.0
 11
227.1526769071801
 21
439.7075164512656
 31
0.0
  0
LINE
  5
2377
330
A
100
AcDbEntity
  8
04
100
AcDbLine
 10
229.1526844009207
 20
439.5130539180645
 30
0.0
 11
233.9566534847026
 21
439.5130539180666
 31
0.0
  0
LINE
  5
2378
330
A
100
AcDbEntity
  8
04
100
AcDbLine
 10
233.9566606107471
 20
424.5019405182151
 30
0.0
 11
229.1526881792875
 21
424.5019405182956
 31
0.0
  0
LINE
  5
2379
330
A
100
AcDbEntity
  8
04
100
AcDbLine
 10
230.0377240185374
 20
410.1265850559001
 30
0.0
 11
230.4527318465741
 21
409.4077665704878
 31
0.0
  0
LINE
  5
237A
330
A
100
AcDbEntity
  8
04
100
AcDbLine
 10
225.6527207652185
 20
410.5077088742666
 30
0.0
 11
225.6527228192894
 21
410.1265387642946
 31
0.0
  0
LINE
  5
237B
330
A
100
AcDbEntity
  8
04
100
AcDbLine
 10
224.6529431026742
 20
410.5076993608834
 30
0.0
 11
225.6527207652185
 21
410.5077088742666
 31
0.0
  0
LINE
  5
237C
330
A
100
AcDbEntity
  8
04
100
AcDbLine
 10
224.652760000393
 20
414.5076272997902
 30
0.0
 11
224.6529431026742
 21
410.5076993608834
 31
0.0
  0
LINE
  5
237D
330
A
100
AcDbEntity
  8
04
100
AcDbLine
 10
225.6527228192894
 20
410.1265387642946
 30
0.0
 11
230.0377240185374
 21
410.1265850559001
 31
0.0
  0
LINE
  5
237E
330
A
100
AcDbEntity
  8
04
100
AcDbLine
 10
230.4528048035317
 20
401.6078119935868
 30
0.0
 11
230.0378150426931
 21
400.8889549836945
 31
0.0
  0
LINE
  5
237F
330
A
100
AcDbEntity
  8
04
100
AcDbLine
 10
225.652812344853
 20
400.8889011707037
 30
0.0
 11
225.6528121138771
 21
400.9077224599141
 31
0.0
  0
LINE
  5
2380
330
A
100
AcDbEntity
  8
04
100
AcDbLine
 10
225.6528121138771
 20
400.9077224599141
 30
0.0
 11
225.6528170227162
 21
400.5077210538898
 31
0.0
  0
LINE
  5
2381
330
A
100
AcDbEntity
  8
04
100
AcDbLine
 10
224.6527707383242
 20
400.5077210538898
 30
0.0
 11
224.6527707383242
 21
400.5077210538898
 31
0.0
  0
LINE
  5
2382
330
A
100
AcDbEntity
  8
04
100
AcDbLine
 10
225.6528170227162
 20
400.5077210538898
 30
0.0
 11
224.6527707383242
 21
400.5077210538898
 31
0.0
  0
LINE
  5
2383
330
A
100
AcDbEntity
  8
04
100
AcDbLine
 10
224.6527707383242
 20
400.5077210538898
 30
0.0
 11
224.6527022443053
 21
396.5076272981406
 31
0.0
  0
LINE
  5
2384
330
A
100
AcDbEntity
  8
04
100
AcDbLine
 10
230.0378150426931
 20
400.8889549836945
 30
0.0
 11
225.652812344853
 21
400.8889011707037
 31
0.0
  0
LINE
  5
2385
330
A
100
AcDbEntity
  8
04
100
AcDbLine
 10
230.4527318465741
 20
409.4077665704878
 30
0.0
 11
230.4528048035317
 21
401.6078119935868
 31
0.0
  0
LINE
  5
2386
330
A
100
AcDbEntity
  8
04
100
AcDbLine
 10
220.1524581231115
 20
396.5077043562858
 30
0.0
 11
220.1526785817853
 21
398.5075483599906
 31
0.0
  0
LINE
  5
2387
330
A
100
AcDbEntity
  8
04
100
AcDbLine
 10
220.1527663389723
 20
414.507704353647
 30
0.0
 11
220.1526785817853
 21
398.5075483599906
 31
0.0
  0
LINE
  5
2388
330
A
100
AcDbEntity
  8
04
100
AcDbLine
 10
215.6527072678787
 20
410.0077455035106
 30
0.0
 11
215.6526041023136
 21
398.5074622050143
 31
0.0
  0
LINE
  5
2389
330
A
100
AcDbEntity
  8
04
100
AcDbLine
 10
224.6527022443053
 20
396.5076272981406
 30
0.0
 11
220.1524581231115
 21
396.5077043562858
 31
0.0
  0
LINE
  5
238A
330
A
100
AcDbEntity
  8
04
100
AcDbLine
 10
220.1527663389723
 20
414.507704353647
 30
0.0
 11
224.652760000393
 21
414.5076272997902
 31
0.0
  0
LINE
  5
238B
330
A
100
AcDbEntity
  8
04
100
AcDbLine
 10
220.1526785817851
 20
418.0074989072878
 30
0.0
 11
220.1527663389723
 21
414.507704353647
 31
0.0
  0
LINE
  5
238C
330
A
100
AcDbEntity
  8
04
100
AcDbLine
 10
215.6527072678787
 20
410.0077455035106
 30
0.0
 11
215.6502232689151
 21
424.1922843333443
 31
0.0
  0
LINE
  5
238D
330
A
100
AcDbEntity
  8
04
100
AcDbLine
 10
213.1527076182723
 20
446.5072891608737
 30
0.0
 11
213.1527122566402
 21
443.8222747854008
 31
0.0
  0
LINE
  5
238E
330
A
100
AcDbEntity
  8
04
100
AcDbLine
 10
207.1527340095704
 20
443.5075276462185
 30
0.0
 11
208.6527521486737
 21
443.5075276464783
 31
0.0
  0
LINE
  5
238F
330
A
100
AcDbEntity
  8
04
100
AcDbLine
 10
208.6527521486737
 20
443.5075276464783
 30
0.0
 11
208.6527522169844
 21
446.5072892633468
 31
0.0
  0
LINE
  5
2390
330
A
100
AcDbEntity
  8
04
100
AcDbLine
 10
208.6527522169844
 20
446.5072892633468
 30
0.0
 11
213.1527076182723
 21
446.5072891608737
 31
0.0
  0
ARC
  5
2391
330
A
100
AcDbEntity
  8
04
100
AcDbCircle
 10
205.0983263630775
 20
452.0073851029978
 30
0.0
 40
0.5000000000003249
100
AcDbArc
 50
90.00000000002769
 51
150.967240183291
  0
ARC
  5
2392
330
A
100
AcDbEntity
  8
04
100
AcDbCircle
 10
205.0983228413191
 20
452.0073910689693
 30
0.0
 40
0.4999940254468359
100
AcDbArc
 50
90.13971058122585
 51
150.9676420788401
  0
LINE
  5
2393
330
A
100
AcDbEntity
  8
04
100
AcDbLine
 10
205.0971036522747
 20
452.5073836079742
 30
0.0
 11
207.1528101599677
 21
452.5073662140101
 31
0.0
  0
LINE
  5
2394
330
A
100
AcDbEntity
  8
04
100
AcDbLine
 10
213.1527076182723
 20
424.1922843331686
 30
0.0
 11
213.1527076182723
 21
421.5072997768841
 31
0.0
  0
LINE
  5
2395
330
A
100
AcDbEntity
  8
04
100
AcDbLine
 10
208.6526911207498
 20
424.5074212051369
 30
0.0
 11
207.1528101601295
 21
424.5074212051369
 31
0.0
  0
LINE
  5
2396
330
A
100
AcDbEntity
  8
04
100
AcDbLine
 10
208.6526887038505
 20
421.507312754162
 30
0.0
 11
208.6526911207498
 21
424.5074212051369
 31
0.0
  0
LINE
  5
2397
330
A
100
AcDbEntity
  8
04
100
AcDbLine
 10
213.1527076182723
 20
421.5072997768841
 30
0.0
 11
208.6526887038505
 21
421.507312754162
 31
0.0
  0
LINE
  5
2398
330
A
100
AcDbEntity
  8
04
100
AcDbLine
 10
191.1528102326465
 20
452.5073833777902
 30
0.0
 11
193.2072701826039
 21
452.5073851029981
 31
0.0
  0
ARC
  5
2399
330
A
100
AcDbEntity
  8
04
100
AcDbCircle
 10
193.2072701826039
 20
452.0073851029981
 30
0.0
 40
0.5000000000000853
100
AcDbArc
 50
29.03275981670899
 51
90.0
  0
ARC
  5
239A
330
A
100
AcDbEntity
  8
04
100
AcDbCircle
 10
193.2072706024708
 20
452.0073874429609
 30
0.0
 40
0.4999976600374
100
AcDbArc
 50
29.03237586609872
 51
90.00004811343478
  0
ARC
  5
239B
330
A
100
AcDbEntity
  8
04
100
AcDbCircle
 10
199.1527982728405
 20
455.3074905146803
 30
0.0
 40
6.300000000000512
100
AcDbArc
 50
209.0327598167089
 51
330.9672401832874
  0
LINE
  5
239C
330
A
100
AcDbEntity
  8
02
100
AcDbLine
 10
178.8529158354224
 20
523.5073865677239
 30
0.0
 11
178.8514060562943
 21
458.5068530718731
 31
0.0
  0
LINE
  5
239D
330
A
100
AcDbEntity
  8
04
100
AcDbLine
 10
210.1527188044169
 20
411.0077113592485
 30
0.0
 11
210.1527301608238
 21
410.0076830453017
 31
0.0
  0
LINE
  5
239E
330
A
100
AcDbEntity
  8
04
100
AcDbLine
 10
213.6526024749097
 20
396.5074622050151
 30
0.0
 11
207.6526785817853
 21
396.5074622050151
 31
0.0
  0
ARC
  5
239F
330
A
100
AcDbEntity
  8
04
100
AcDbCircle
 10
205.0978466442763
 20
416.0067822186356
 30
0.0
 40
0.499185729864738
100
AcDbArc
 50
208.977788093412
 51
269.999993582092
  0
ARC
  5
23A0
330
A
100
AcDbEntity
  8
04
100
AcDbCircle
 10
205.099639833591
 20
416.0098308993828
 30
0.0
 40
0.5022346407956775
100
AcDbArc
 50
209.1829372751324
 51
270.0
  0
LINE
  5
23A1
330
A
100
AcDbEntity
  8
04
100
AcDbLine
 10
199.1527184560163
 20
408.5077113275911
 30
0.0
 11
199.1527169668144
 21
409.5077292213556
 31
0.0
  0
LINE
  5
23A2
330
A
100
AcDbEntity
  8
04
100
AcDbLine
 10
199.1527169668144
 20
409.5077292213556
 30
0.0
 11
200.1527127060809
 21
409.5077293958451
 31
0.0
  0
LINE
  5
23A3
330
A
100
AcDbEntity
  8
04
100
AcDbLine
 10
200.1527127060809
 20
409.5077293958451
 30
0.0
 11
200.1527124443669
 21
411.0076074978911
 31
0.0
  0
LINE
  5
23A4
330
A
100
AcDbEntity
  8
04
100
AcDbLine
 10
200.1527124443669
 20
411.0076074978911
 30
0.0
 11
210.1527188044169
 21
411.0077113592485
 31
0.0
  0
LINE
  5
23A5
330
A
100
AcDbEntity
  8
04
100
AcDbLine
 10
207.1528102326464
 20
415.5075962585871
 30
0.0
 11
205.0978465883606
 21
415.5075964887711
 31
0.0
  0
LINE
  5
23A6
330
A
100
AcDbEntity
  8
04
100
AcDbLine
 10
207.1528102326464
 20
415.5075962585871
 30
0.0
 11
205.099639833591
 21
415.5075962585871
 31
0.0
  0
ARC
  5
23A7
330
A
100
AcDbEntity
  8
04
100
AcDbCircle
 10
193.2077491209286
 20
416.0067826508653
 30
0.0
 40
0.4991866220338867
100
AcDbArc
 50
269.9450282766985
 51
331.0222119065916
  0
ARC
  5
23A8
330
A
100
AcDbEntity
  8
04
100
AcDbCircle
 10
193.2059426852258
 20
416.0098387332511
 30
0.0
 40
0.5022507069844014
100
AcDbArc
 50
270.3571988872269
 51
330.8170627248675
  0
LINE
  5
23A9
330
A
100
AcDbEntity
  8
04
100
AcDbLine
 10
193.2090738448511
 20
415.5075977865873
 30
0.0
 11
191.1528101601295
 21
415.5075977906175
 31
0.0
  0
LINE
  5
23AA
330
A
100
AcDbEntity
  8
04
100
AcDbLine
 10
197.6527187347329
 20
405.2085433956468
 30
0.0
 11
197.652718356724
 21
408.5077108058958
 31
0.0
  0
LINE
  5
23AB
330
A
100
AcDbEntity
  8
04
100
AcDbLine
 10
188.6471262081198
 20
404.5125865299701
 30
0.0
 11
189.8527276228043
 21
405.2085425019468
 31
0.0
  0
LINE
  5
23AC
330
A
100
AcDbEntity
  8
04
100
AcDbLine
 10
188.4527299443472
 20
398.1076146368576
 30
0.0
 11
188.4527326143178
 21
399.7074204339416
 31
0.0
  0
LINE
  5
23AD
330
A
100
AcDbEntity
  8
04
100
AcDbLine
 10
188.4527326143178
 20
399.7074204339416
 30
0.0
 11
188.6471854369783
 21
399.7074205708705
 31
0.0
  0
LINE
  5
23AE
330
A
100
AcDbEntity
  8
04
100
AcDbLine
 10
187.1527364856975
 20
396.5075452839883
 30
0.0
 11
187.1527329749606
 21
398.1076168064669
 31
0.0
  0
LINE
  5
23AF
330
A
100
AcDbEntity
  8
04
100
AcDbLine
 10
187.1527329749606
 20
398.1076168064669
 30
0.0
 11
188.4527299443472
 21
398.1076146368576
 31
0.0
  0
LINE
  5
23B0
330
A
100
AcDbEntity
  8
04
100
AcDbLine
 10
188.6471854369783
 20
399.7074205708705
 30
0.0
 11
188.6471262081198
 21
404.5125865299701
 31
0.0
  0
LINE
  5
23B1
330
A
100
AcDbEntity
  8
04
100
AcDbLine
 10
189.8527276228043
 20
405.2085425019468
 30
0.0
 11
197.6527187347329
 21
405.2085433956468
 31
0.0
  0
LINE
  5
23B2
330
A
100
AcDbEntity
  8
04
100
AcDbLine
 10
187.1527364806112
 20
396.5089262488546
 30
0.0
 11
207.6526785817853
 21
396.5089262488546
 31
0.0
  0
LINE
  5
23B3
330
A
100
AcDbEntity
  8
04
100
AcDbLine
 10
197.652718356724
 20
408.5077108058958
 30
0.0
 11
199.1527184560163
 21
408.5077113275911
 31
0.0
  0
LINE
  5
23B4
330
A
100
AcDbEntity
  8
04
100
AcDbLine
 10
180.1526785817852
 20
392.0075188392099
 30
0.0
 11
180.1526785817852
 21
396.5075342346074
 31
0.0
  0
LINE
  5
23B5
330
A
100
AcDbEntity
  8
04
100
AcDbLine
 10
213.6526785817853
 20
392.0075205644178
 30
0.0
 11
180.1526785817852
 21
392.0075188392099
 31
0.0
  0
LINE
  5
23B6
330
A
100
AcDbEntity
  8
04
100
AcDbLine
 10
180.1526785817852
 20
396.5075342346074
 30
0.0
 11
187.1527364856975
 21
396.5075452839883
 31
0.0
  0
ARC
  5
23B7
330
A
100
AcDbEntity
  8
04
100
AcDbCircle
 10
199.1527982728405
 20
412.7144003157166
 30
0.0
 40
6.296649666418708
100
AcDbArc
 50
28.97778809341201
 51
151.0222119065915
  0
LINE
  5
23B8
330
A
100
AcDbEntity
  8
04
100
AcDbLine
 10
191.1528101601295
 20
415.5075977906175
 30
0.0
 11
191.1528102326465
 21
452.5073833777902
 31
0.0
  0
LINE
  5
23B9
330
A
100
AcDbEntity
  8
04
100
AcDbLine
 10
207.1528101599677
 20
452.5073662140101
 30
0.0
 11
207.1528102326464
 21
415.5075962585871
 31
0.0
  0
ARC
  5
23BB
330
A
100
AcDbEntity
  8
04
100
AcDbCircle
 10
213.6526041023136
 20
398.5074622050143
 30
0.0
 40
1.999999999999986
100
AcDbArc
 50
269.9999533783079
 51
0.0
  0
LINE
  5
23BC
330
A
100
AcDbEntity
  8
04
100
AcDbLine
 10
210.1527301608238
 20
410.0076830453017
 30
0.0
 11
215.6527072678787
 21
410.0077455035106
 31
0.0
  0
ARC
  5
23BD
330
A
100
AcDbEntity
  8
04
100
AcDbCircle
 10
213.6526311315294
 20
398.5075680145299
 30
0.0
 40
6.500047450285477
100
AcDbArc
 50
270.0004182583903
 51
359.9998267516995
  0
LINE
  5
23BE
330
A
100
AcDbEntity
  8
04
100
AcDbLine
 10
215.6502232689151
 20
424.1922843333443
 30
0.0
 11
213.1527076182723
 21
424.1922843331686
 31
0.0
  0
LINE
  5
23BF
330
A
100
AcDbEntity
  8
04
100
AcDbLine
 10
213.1527122566402
 20
443.8222747854008
 30
0.0
 11
215.6502232689149
 21
443.8222790998564
 31
0.0
  0
LINE
  5
23C0
330
A
100
AcDbEntity
  8
CHUSIN
100
AcDbLine
 10
172.7769150347425
 20
492.506101505138
 30
0.0
 11
264.350464629896
 21
492.506101505138
 31
0.0
  0
LINE
  5
23C1
330
A
100
AcDbEntity
  8
CHUSIN
 48
0.8
100
AcDbLine
 10
169.3946627411506
 20
435.0075714566161
 30
0.0
 11
176.5606915295085
 21
435.0076094762377
 31
0.0
  0
LINE
  5
23C2
330
A
100
AcDbEntity
  8
CHUSIN
 48
0.8
100
AcDbLine
 10
169.3193066304795
 20
508.007141163755
 30
0.0
 11
176.5606915295085
 21
508.007141163755
 31
0.0
  0
LINE
  5
23C3
330
A
100
AcDbEntity
  8
CHUSIN
 48
0.8
100
AcDbLine
 10
169.3946627411506
 20
468.007141163755
 30
0.0
 11
176.5606915295085
 21
468.007141163755
 31
0.0
  0
LINE
  5
23C4
330
A
100
AcDbEntity
  8
CHUSIN
100
AcDbLine
 10
229.1526973187123
 20
434.0074897544888
 30
0.0
 11
189.6118546205614
 21
434.007489753989
 31
0.0
  0
LINE
  5
23C5
330
A
100
AcDbEntity
  8
CHUSIN
100
AcDbLine
 10
199.1528015023786
 20
457.2424324243423
 30
0.0
 11
199.1527984989224
 21
415.8251301070619
 31
0.0
  0
LINE
  5
23C6
330
A
100
AcDbEntity
  8
CHUSIN
100
AcDbLine
 10
176.5606915295085
 20
398.007141163755
 30
0.0
 11
167.8961611230899
 21
398.007141163755
 31
0.0
  0
LINE
  5
23EA
330
A
100
AcDbEntity
  8
02
100
AcDbLine
 10
174.1527823889873
 20
392.0071420263588
 30
0.0
 11
171.1527823889873
 21
392.0071420263588
 31
0.0
  0
LINE
  5
23EB
330
A
100
AcDbEntity
  8
02
100
AcDbLine
 10
171.1527823889873
 20
392.0071420263588
 30
0.0
 11
171.1527823889871
 21
527.007141532506
 31
0.0
  0
ARC
  5
23EC
330
A
100
AcDbEntity
  8
02
100
AcDbCircle
 10
173.152782388987
 20
527.007141532506
 30
0.0
 40
2.0
100
AcDbArc
 50
90.0
 51
180.0
  0
LINE
  5
23ED
330
A
100
AcDbEntity
  8
02
100
AcDbLine
 10
173.152782388987
 20
529.0071415325058
 30
0.0
 11
178.1527896567665
 21
529.0072432815203
 31
0.0
  0
LINE
  5
23EE
330
A
100
AcDbEntity
  8
02
100
AcDbLine
 10
178.1527896567665
 20
529.0072432815203
 30
0.0
 11
180.5670516004951
 21
531.4215124930284
 31
0.0
  0
ARC
  5
23EF
330
A
100
AcDbEntity
  8
02
100
AcDbCircle
 10
181.9812731568082
 20
530.0072951940078
 30
0.0
 40
2.00000829478016
100
AcDbArc
 50
90.00109124304612
 51
135.0000862401125
  0
LINE
  5
23F0
330
A
100
AcDbEntity
  8
02
100
AcDbLine
 10
181.9812350650821
 20
532.0073034884252
 30
0.0
 11
272.3812587965608
 21
532.0086639056236
 31
0.0
  0
ARC
  5
23F1
330
A
100
AcDbEntity
  8
02
100
AcDbCircle
 10
272.3812813601488
 20
530.509308478028
 30
0.0
 40
1.499355427765223
100
AcDbArc
 50
69.47100159724772
 51
90.00086223609555
  0
LINE
  5
23F2
330
A
100
AcDbEntity
  8
02
100
AcDbLine
 10
272.9070774246606
 20
531.9134470742191
 30
0.0
 11
275.3929946700951
 21
530.9830224682605
 31
0.0
  0
ARC
  5
23F3
330
A
100
AcDbEntity
  8
02
100
AcDbCircle
 10
275.2528427976051
 20
530.6085633723044
 30
0.0
 40
0.3998276652592906
100
AcDbArc
 50
269.9913433732418
 51
69.48022130467977
  0
LINE
  5
23F4
330
A
100
AcDbEntity
  8
02
100
AcDbLine
 10
275.2527823889873
 20
530.2087357116087
 30
0.0
 11
267.4912827278792
 21
530.2087357116087
 31
0.0
  0
ARC
  5
23F5
330
A
100
AcDbEntity
  8
02
100
AcDbCircle
 10
267.4912827278792
 20
529.7087357116088
 30
0.0
 40
0.4999999999998864
100
AcDbArc
 50
89.99999999999348
 51
165.0000000000038
  0
LINE
  5
23F6
330
A
100
AcDbEntity
  8
02
100
AcDbLine
 10
267.0083198147346
 20
529.8381452341599
 30
0.0
 11
266.8844346140814
 21
529.3757993710163
 31
0.0
  0
ARC
  5
23F7
330
A
100
AcDbEntity
  8
02
100
AcDbCircle
 10
266.0151013704211
 20
529.6087365116086
 30
0.0
 40
0.9000000000000268
100
AcDbArc
 50
270.0000000000071
 51
344.999999999991
  0
LINE
  5
23F8
330
A
100
AcDbEntity
  8
02
100
AcDbLine
 10
266.0151013704214
 20
528.7087365116088
 30
0.0
 11
265.1527813889873
 21
528.7087365116088
 31
0.0
  0
LINE
  5
23F9
330
A
100
AcDbEntity
  8
02
100
AcDbLine
 10
265.1527813889873
 20
528.7087365116088
 30
0.0
 11
265.4534686113596
 21
529.8309165026892
 31
0.0
  0
ARC
  5
23FA
330
A
100
AcDbEntity
  8
02
100
AcDbCircle
 10
265.1636908634728
 20
529.9085622162198
 30
0.0
 40
0.3000000000000443
100
AcDbArc
 50
345.0000000000077
 51
89.99999999998914
  0
LINE
  5
23FB
330
A
100
AcDbEntity
  8
02
100
AcDbLine
 10
265.1636908634728
 20
530.2085622162199
 30
0.0
 11
263.3527813889871
 21
530.2085622162199
 31
0.0
  0
ARC
  5
23FC
330
A
100
AcDbEntity
  8
02
100
AcDbCircle
 10
263.3527813889871
 20
529.4085622162198
 30
0.0
 40
0.8000000000000682
100
AcDbArc
 50
90.0
 51
180.0
  0
ARC
  5
23FD
330
A
100
AcDbEntity
  8
02
100
AcDbCircle
 10
267.1873477904632
 20
529.40856221622
 30
0.0
 40
4.634566401475978
100
AcDbArc
 50
180.0000000000026
 51
232.9064645389606
  0
LINE
  5
23FE
330
A
100
AcDbEntity
  8
02
100
AcDbLine
 10
264.3921573969644
 20
525.7117911394852
 30
0.0
 11
272.5031391874674
 21
520.2000043382026
 31
0.0
  0
ARC
  5
23FF
330
A
100
AcDbEntity
  8
02
100
AcDbCircle
 10
272.9527818526146
 20
520.861685132604
 30
0.0
 40
0.8000000000000216
100
AcDbArc
 50
235.8020814316656
 51
0.0
  0
LINE
  5
2400
330
A
100
AcDbEntity
  8
02
100
AcDbLine
 10
273.7527818526146
 20
520.861685132604
 30
0.0
 11
273.7527816902011
 21
521.3773648259257
 31
0.0
  0
ARC
  5
2401
330
A
100
AcDbEntity
  8
02
100
AcDbCircle
 10
274.1527821353848
 20
522.5087357873944
 30
0.0
 40
1.200000253584051
100
AcDbArc
 50
359.9999963812725
 51
250.5287611009064
  0
LINE
  5
2402
330
A
100
AcDbEntity
  8
02
100
AcDbLine
 10
275.3527823889688
 20
522.508735711604
 30
0.0
 11
275.3527815889873
 21
520.8087357116085
 31
0.0
  0
ARC
  5
2403
330
A
100
AcDbEntity
  8
02
100
AcDbCircle
 10
272.8527809595908
 20
520.8087368880526
 30
0.0
 40
2.5000006293967
100
AcDbArc
 50
236.2935092907483
 51
359.9999730378986
  0
LINE
  5
2404
330
A
100
AcDbEntity
  8
02
100
AcDbLine
 10
271.4654339323542
 20
518.7290082103157
 30
0.0
 11
263.3804614003831
 21
524.2230093520827
 31
0.0
  0
ARC
  5
2405
330
A
100
AcDbEntity
  8
02
100
AcDbCircle
 10
266.7526623478879
 20
529.1855405437111
 30
0.0
 40
5.999871253471789
100
AcDbArc
 50
188.4609374029995
 51
235.8026203703742
  0
ARC
  5
2406
330
A
100
AcDbEntity
  8
02
100
AcDbCircle
 10
258.8398800279467
 20
528.0084819404581
 30
0.0
 40
1.999978182502949
100
AcDbArc
 50
8.460937403001306
 51
90.00140117480819
  0
LINE
  5
2407
330
A
100
AcDbEntity
  8
02
100
AcDbLine
 10
258.8398311182526
 20
530.008460122363
 30
0.0
 11
182.6883871434301
 21
530.0073141300306
 31
0.0
  0
LINE
  5
2408
330
A
100
AcDbEntity
  8
02
100
AcDbLine
 10
182.6883871434301
 20
530.0073141300306
 30
0.0
 11
181.1527859223227
 21
528.4717129089232
 31
0.0
  0
LINE
  5
2409
330
A
100
AcDbEntity
  8
02
100
AcDbLine
 10
181.1527859223227
 20
528.4717129089232
 30
0.0
 11
181.1527859223227
 21
525.5073023903004
 31
0.0
  0
LINE
  5
240A
330
A
100
AcDbEntity
  8
02
100
AcDbLine
 10
181.1527859223227
 20
525.5073023903004
 30
0.0
 11
180.1528540963047
 21
523.5073267659552
 31
0.0
  0
LINE
  5
240B
330
A
100
AcDbEntity
  8
02
100
AcDbLine
 10
180.1528540963047
 20
523.5073267659552
 30
0.0
 11
178.8529158354224
 21
523.5073865677239
 31
0.0
  0
LINE
  5
240C
330
A
100
AcDbEntity
  8
02
100
AcDbLine
 10
178.8529158354224
 20
523.5073865677239
 30
0.0
 11
178.8524414635609
 21
526.0065789637904
 31
0.0
  0
LINE
  5
240D
330
A
100
AcDbEntity
  8
02
100
AcDbLine
 10
178.8524414635609
 20
526.0065789637904
 30
0.0
 11
174.6527823889873
 21
526.0065789637904
 31
0.0
  0
LINE
  5
240E
330
A
100
AcDbEntity
  8
02
100
AcDbLine
 10
174.6527823889873
 20
526.0065789637904
 30
0.0
 11
174.652783575806
 21
456.0067968976087
 31
0.0
  0
LINE
  5
240F
330
A
100
AcDbEntity
  8
02
100
AcDbLine
 10
174.652783575806
 20
456.0067968976087
 30
0.0
 11
178.8529664944613
 21
456.0068052460629
 31
0.0
  0
LINE
  5
2410
330
A
100
AcDbEntity
  8
02
100
AcDbLine
 10
178.8529664944613
 20
456.0068052460629
 30
0.0
 11
178.8528429610565
 21
458.5068537265859
 31
0.0
  0
LINE
  5
2411
330
A
100
AcDbEntity
  8
02
100
AcDbLine
 10
178.8528429610565
 20
458.5068537265859
 30
0.0
 11
180.152918730509
 21
458.5074460945246
 31
0.0
  0
LINE
  5
2412
330
A
100
AcDbEntity
  8
02
100
AcDbLine
 10
180.152918730509
 20
458.5074460945246
 30
0.0
 11
181.1527620754825
 21
456.5076631646043
 31
0.0
  0
LINE
  5
2413
330
A
100
AcDbEntity
  8
02
100
AcDbLine
 10
181.1527620754825
 20
456.5076631646043
 30
0.0
 11
181.1527652730374
 21
452.1075370364974
 31
0.0
  0
LINE
  5
2414
330
A
100
AcDbEntity
  8
02
100
AcDbLine
 10
181.1527652730374
 20
452.1075370364974
 30
0.0
 11
178.6527622557889
 21
452.1075370364974
 31
0.0
  0
LINE
  5
2415
330
A
100
AcDbEntity
  8
02
100
AcDbLine
 10
178.6527622557889
 20
452.1075370364974
 30
0.0
 11
178.6527622557889
 21
453.55769692198
 31
0.0
  0
LINE
  5
2416
330
A
100
AcDbEntity
  8
02
100
AcDbLine
 10
178.6527622557889
 20
453.55769692198
 30
0.0
 11
174.4527465378104
 21
453.55769692198
 31
0.0
  0
LINE
  5
2417
330
A
100
AcDbEntity
  8
02
100
AcDbLine
 10
174.4527465378104
 20
453.55769692198
 30
0.0
 11
174.4527465378104
 21
445.4079655087256
 31
0.0
  0
LINE
  5
2418
330
A
100
AcDbEntity
  8
02
100
AcDbLine
 10
174.4527465378104
 20
445.4079655087256
 30
0.0
 11
178.6526945483454
 21
445.4079655087256
 31
0.0
  0
LINE
  5
2419
330
A
100
AcDbEntity
  8
02
100
AcDbLine
 10
178.6526945483454
 20
445.4079655087256
 30
0.0
 11
178.6526945483454
 21
446.9076969127108
 31
0.0
  0
LINE
  5
241A
330
A
100
AcDbEntity
  8
02
100
AcDbLine
 10
178.6526945483454
 20
446.9076969127108
 30
0.0
 11
181.1527620934813
 21
446.9074619975645
 31
0.0
  0
LINE
  5
241B
330
A
100
AcDbEntity
  8
02
100
AcDbLine
 10
181.1527620934813
 20
446.9074619975645
 30
0.0
 11
181.1524742272885
 21
442.4062422083895
 31
0.0
  0
LINE
  5
241C
330
A
100
AcDbEntity
  8
02
100
AcDbLine
 10
181.1524742272885
 20
442.4062422083895
 30
0.0
 11
179.1527823889873
 21
442.4062422083891
 31
0.0
  0
LINE
  5
241D
330
A
100
AcDbEntity
  8
02
100
AcDbLine
 10
179.1527823889873
 20
442.4062422083891
 30
0.0
 11
179.1527823889873
 21
443.4074884546983
 31
0.0
  0
LINE
  5
241E
330
A
100
AcDbEntity
  8
02
100
AcDbLine
 10
179.1527823889873
 20
443.4074884546983
 30
0.0
 11
177.1527823889869
 21
443.4074884546983
 31
0.0
  0
LINE
  5
241F
330
A
100
AcDbEntity
  8
02
100
AcDbLine
 10
177.1527823889869
 20
443.4074884546983
 30
0.0
 11
177.1527823889869
 21
442.4074884546983
 31
0.0
  0
LINE
  5
2420
330
A
100
AcDbEntity
  8
02
100
AcDbLine
 10
177.1527823889869
 20
442.4074884546983
 30
0.0
 11
174.3527823889872
 21
442.4074884546985
 31
0.0
  0
LINE
  5
2421
330
A
100
AcDbEntity
  8
02
100
AcDbLine
 10
174.3527823889872
 20
442.4074884546985
 30
0.0
 11
174.3527823889869
 21
435.3075850681205
 31
0.0
  0
LINE
  5
2422
330
A
100
AcDbEntity
  8
02
100
AcDbLine
 10
174.3527823889869
 20
435.3075850681205
 30
0.0
 11
174.3527823889869
 21
435.3075850681205
 31
0.0
  0
LINE
  5
2423
330
A
100
AcDbEntity
  8
02
100
AcDbLine
 10
174.3527823889869
 20
435.3075850681205
 30
0.0
 11
174.352782388987
 21
434.707585068121
 31
0.0
  0
LINE
  5
2424
330
A
100
AcDbEntity
  8
02
100
AcDbLine
 10
174.352782388987
 20
434.707585068121
 30
0.0
 11
174.352782388987
 21
417.5074740860225
 31
0.0
  0
ARC
  5
2425
330
A
100
AcDbEntity
  8
02
100
AcDbCircle
 10
177.352782388987
 20
417.5074740860225
 30
0.0
 40
3.0
100
AcDbArc
 50
180.0
 51
270.0
  0
LINE
  5
2426
330
A
100
AcDbEntity
  8
02
100
AcDbLine
 10
177.352782388987
 20
414.5074740860223
 30
0.0
 11
182.3527538636296
 21
414.5074740860223
 31
0.0
  0
ARC
  5
2427
330
A
100
AcDbEntity
  8
02
100
AcDbCircle
 10
182.3527538636296
 20
417.5074740860225
 30
0.0
 40
3.0
100
AcDbArc
 50
270.0
 51
0.0
  0
LINE
  5
2428
330
A
100
AcDbEntity
  8
02
100
AcDbLine
 10
185.3527538636296
 20
417.5074740860225
 30
0.0
 11
185.3527538636296
 21
424.9071085001441
 31
0.0
  0
ARC
  5
2429
330
A
100
AcDbEntity
  8
02
100
AcDbCircle
 10
184.8527538636296
 20
424.9071085001441
 30
0.0
 40
0.5
100
AcDbArc
 50
0.0
 51
90.0
  0
LINE
  5
242A
330
A
100
AcDbEntity
  8
02
100
AcDbLine
 10
184.8527538636296
 20
425.4071085001441
 30
0.0
 11
184.3527538636291
 21
425.4071085001441
 31
0.0
  0
ARC
  5
242B
330
A
100
AcDbEntity
  8
02
100
AcDbCircle
 10
184.3527538636291
 20
425.9071085001441
 30
0.0
 40
0.5
100
AcDbArc
 50
180.0
 51
270.0
  0
LINE
  5
242C
330
A
100
AcDbEntity
  8
02
100
AcDbLine
 10
183.8527538636291
 20
425.9071085001441
 30
0.0
 11
183.8527538636291
 21
427.4074740860225
 31
0.0
  0
LINE
  5
242D
330
A
100
AcDbEntity
  8
02
100
AcDbLine
 10
183.8527538636291
 20
427.4074740860225
 30
0.0
 11
186.8527538636296
 21
427.4071085001439
 31
0.0
  0
ARC
  5
242E
330
A
100
AcDbEntity
  8
02
100
AcDbCircle
 10
186.852631986818
 20
426.4069866233326
 30
0.0
 40
1.00012188423755
100
AcDbArc
 50
0.0069821759182269
 51
89.99301782407362
  0
LINE
  5
242F
330
A
100
AcDbEntity
  8
02
100
AcDbLine
 10
187.8527538636296
 20
426.407108500144
 30
0.0
 11
187.8527538636296
 21
417.0071420263588
 31
0.0
  0
ARC
  5
2430
330
A
100
AcDbEntity
  8
02
100
AcDbCircle
 10
190.8527538636296
 20
417.0071420263588
 30
0.0
 40
3.000000000000028
100
AcDbArc
 50
180.0
 51
269.9999999999993
  0
LINE
  5
2431
330
A
100
AcDbEntity
  8
02
100
AcDbLine
 10
190.8527538636296
 20
414.0071420263588
 30
0.0
 11
192.4444903520224
 21
414.0071420263588
 31
0.0
  0
ARC
  5
2432
330
A
100
AcDbEntity
  8
02
100
AcDbCircle
 10
192.4444903520224
 20
415.0071420263588
 30
0.0
 40
1.0
100
AcDbArc
 50
270.0
 51
343.4014297066841
  0
ARC
  5
2433
330
A
100
AcDbEntity
  8
02
100
AcDbCircle
 10
199.1527982728405
 20
413.0074908469059
 30
0.0
 40
6.000000000000009
100
AcDbArc
 50
354.2603722950766
 51
163.4014297066848
  0
ARC
  5
2434
330
A
100
AcDbEntity
  8
02
100
AcDbCircle
 10
204.1277314681514
 20
412.5074511462861
 30
0.0
 40
0.9999999999999593
100
AcDbArc
 50
269.999999999995
 51
354.2603722950748
  0
LINE
  5
2435
330
A
100
AcDbEntity
  8
02
100
AcDbLine
 10
204.1277314681513
 20
411.5074511462863
 30
0.0
 11
197.8598889526466
 21
411.5074511462863
 31
0.0
  0
ARC
  5
2436
330
A
100
AcDbEntity
  8
02
100
AcDbCircle
 10
197.8598889526466
 20
411.0074511462864
 30
0.0
 40
0.4999999999998864
100
AcDbArc
 50
90.00000000000651
 51
135.000000000016
  0
LINE
  5
2437
330
A
100
AcDbEntity
  8
02
100
AcDbLine
 10
197.5063355620532
 20
411.3610045368796
 30
0.0
 11
196.2992326474203
 21
410.1539016222464
 31
0.0
  0
ARC
  5
2438
330
A
100
AcDbEntity
  8
02
100
AcDbCircle
 10
195.945679256827
 20
410.5074550128398
 30
0.0
 40
0.4999999999999036
100
AcDbArc
 50
269.999766135917
 51
314.9999999999976
  0
LINE
  5
2439
330
A
100
AcDbEntity
  8
02
100
AcDbLine
 10
195.9456772159779
 20
410.0074550128439
 30
0.0
 11
186.6527715333468
 21
410.0074980858441
 31
0.0
  0
LINE
  5
243A
330
A
100
AcDbEntity
  8
02
100
AcDbLine
 10
186.6527715333468
 20
410.0074980858441
 30
0.0
 11
174.1527823889873
 21
404.0071420263588
 31
0.0
  0
LINE
  5
243B
330
A
100
AcDbEntity
  8
02
100
AcDbLine
 10
174.1527823889873
 20
404.0071420263588
 30
0.0
 11
174.1527823889873
 21
398.3071420263588
 31
0.0
  0
LINE
  5
243C
330
A
100
AcDbEntity
  8
02
100
AcDbLine
 10
174.1527823889873
 20
398.3071420263588
 30
0.0
 11
174.1527823889873
 21
398.3071420263588
 31
0.0
  0
LINE
  5
243D
330
A
100
AcDbEntity
  8
02
100
AcDbLine
 10
174.1527823889873
 20
398.3071420263588
 30
0.0
 11
174.152782388987
 21
397.7071420263588
 31
0.0
  0
LINE
  5
243E
330
A
100
AcDbEntity
  8
02
100
AcDbLine
 10
174.152782388987
 20
397.7071420263588
 30
0.0
 11
174.1527823889873
 21
392.0071420263588
 31
0.0
  0
CIRCLE
  5
25B1
330
A
100
AcDbEntity
  8
SAISEN
100
AcDbCircle
 10
297.0479553410318
 20
122.4646898575082
 30
0.0
 40
2.647499999999999
  0
CIRCLE
  5
25B2
330
A
100
AcDbEntity
  8
SAISEN
100
AcDbCircle
 10
297.0479553410318
 20
122.4646898575082
 30
0.0
 40
1.764999999999998
  0
CIRCLE
  5
25B3
330
A
100
AcDbEntity
  8
SAISEN
100
AcDbCircle
 10
262.3479553410317
 20
122.4646898575082
 30
0.0
 40
2.647499999999999
  0
TEXT
  5
25B4
330
A
100
AcDbEntity
  8
MOJI
100
AcDbText
 10
217.8276249999998
 20
111.2538349383296
 30
0.0
 40
6.0
  1
３５×２
 41
0.8
  7
0_8
 11
217.8276249999998
 21
117.2538349383297
 31
0.0
100
AcDbText
 73
     3
  0
TEXT
  5
25B5
330
A
100
AcDbEntity
  8
MOJI
100
AcDbText
 10
182.6122665520595
 20
111.2538349383296
 30
0.0
 40
6.0
  1
７０×１
 41
0.8
  7
0_8
 11
182.6122665520595
 21
117.2538349383297
 31
0.0
100
AcDbText
 73
     3
  0
TEXT
  5
25B6
330
A
100
AcDbEntity
  8
MOJI
100
AcDbText
 10
108.765
 20
111.2538349383296
 30
0.0
 40
6.0
  1
SOV-70KLDM
 41
0.8
  7
0_8
 11
108.765
 21
117.2538349383297
 31
0.0
100
AcDbText
 73
     3
  0
LINE
  5
25B7
330
A
100
AcDbEntity
  8
SAISEN
100
AcDbLine
 10
105.0
 20
118.5408869777255
 30
0.0
 11
315.0
 21
118.5408869777255
 31
0.0
  0
TEXT
  5
25B8
330
A
100
AcDbEntity
  8
MOJI
100
AcDbText
 10
316.85
 20
93.9908869777256
 30
0.0
 40
7.0
  1
☆本図
 41
0.8
  7
0_8
 11
316.85
 21
100.9908869777256
 31
0.0
100
AcDbText
 73
     3
  0
CIRCLE
  5
25B9
330
A
100
AcDbEntity
  8
SAISEN
100
AcDbCircle
 10
297.0479553410318
 20
69.46468985750826
 30
0.0
 40
2.647499999999999
  0
CIRCLE
  5
25BA
330
A
100
AcDbEntity
  8
SAISEN
100
AcDbCircle
 10
297.0479553410318
 20
69.46468985750826
 30
0.0
 40
1.764999999999998
  0
LINE
  5
25BB
330
A
100
AcDbEntity
  8
SAISEN
100
AcDbLine
 10
244.9999999999999
 20
65.44088697772557
 30
0.0
 11
280.0
 21
74.29088697772559
 31
0.0
  0
LINE
  5
25BC
330
A
100
AcDbEntity
  8
SAISEN
100
AcDbLine
 10
280.0
 20
65.44088697772557
 30
0.0
 11
280.0
 21
136.2408869777256
 31
0.0
  0
LINE
  5
25BD
330
A
100
AcDbEntity
  8
SAISEN
100
AcDbLine
 10
244.9999999999999
 20
65.44088697772557
 30
0.0
 11
244.9999999999999
 21
145.0908869777256
 31
0.0
  0
LINE
  5
25BE
330
A
100
AcDbEntity
  8
SAISEN
100
AcDbLine
 10
209.9999999999999
 20
136.2408869777256
 30
0.0
 11
209.9999999999999
 21
65.44088697772557
 31
0.0
  0
LINE
  5
25BF
330
A
100
AcDbEntity
  8
SAISEN
100
AcDbLine
 10
175.0
 20
136.2408869777256
 30
0.0
 11
315.0
 21
136.2408869777256
 31
0.0
  0
LINE
  5
25C0
330
A
100
AcDbEntity
  8
SAISEN
100
AcDbLine
 10
175.0
 20
145.0908869777256
 30
0.0
 11
175.0
 21
65.44088697772557
 31
0.0
  0
LINE
  5
25C1
330
A
100
AcDbEntity
  8
SAISEN
100
AcDbLine
 10
105.0
 20
74.29088697772559
 30
0.0
 11
315.0
 21
74.29088697772559
 31
0.0
  0
LINE
  5
25C2
330
A
100
AcDbEntity
  8
SAISEN
100
AcDbLine
 10
105.0
 20
83.14088697772559
 30
0.0
 11
315.0
 21
83.14088697772559
 31
0.0
  0
LINE
  5
25C3
330
A
100
AcDbEntity
  8
SAISEN
100
AcDbLine
 10
105.0
 20
91.99088697772557
 30
0.0
 11
315.0
 21
91.99088697772557
 31
0.0
  0
LINE
  5
25C4
330
A
100
AcDbEntity
  8
SAISEN
100
AcDbLine
 10
105.0
 20
100.8408869777255
 30
0.0
 11
315.0
 21
100.8408869777255
 31
0.0
  0
LINE
  5
25C5
330
A
100
AcDbEntity
  8
SAISEN
100
AcDbLine
 10
105.0
 20
109.6908869777255
 30
0.0
 11
315.0
 21
109.6908869777255
 31
0.0
  0
LINE
  5
25C6
330
A
100
AcDbEntity
  8
SAISEN
100
AcDbLine
 10
105.0
 20
127.3908869777254
 30
0.0
 11
315.0
 21
127.3908869777254
 31
0.0
  0
POLYLINE
  5
25C7
330
A
100
AcDbEntity
  8
SAISEN
100
AcDb2dPolyline
 66
     1
 10
0.0
 20
0.0
 30
0.0
 70
     1
  0
VERTEX
  5
26CC
330
25C7
100
AcDbEntity
  8
SAISEN
100
AcDbVertex
100
AcDb2dVertex
 10
105.0
 20
65.44088697772557
 30
0.0
  0
VERTEX
  5
26CD
330
25C7
100
AcDbEntity
  8
SAISEN
100
AcDbVertex
100
AcDb2dVertex
 10
315.0
 20
65.44088697772557
 30
0.0
  0
VERTEX
  5
26CE
330
25C7
100
AcDbEntity
  8
SAISEN
100
AcDbVertex
100
AcDb2dVertex
 10
315.0
 20
145.0908869777256
 30
0.0
  0
VERTEX
  5
26CF
330
25C7
100
AcDbEntity
  8
SAISEN
100
AcDbVertex
100
AcDb2dVertex
 10
105.0
 20
145.0908869777256
 30
0.0
  0
SEQEND
  5
26D0
330
25C7
100
AcDbEntity
  8
SAISEN
  0
CIRCLE
  5
25C8
330
A
100
AcDbEntity
  8
SAISEN
100
AcDbCircle
 10
297.0479553410318
 20
78.31468985750825
 30
0.0
 40
1.764999999999998
  0
CIRCLE
  5
25C9
330
A
100
AcDbEntity
  8
SAISEN
100
AcDbCircle
 10
297.0479553410318
 20
87.13968985750824
 30
0.0
 40
1.764999999999998
  0
CIRCLE
  5
25CA
330
A
100
AcDbEntity
  8
SAISEN
100
AcDbCircle
 10
297.0479553410318
 20
95.96468985750822
 30
0.0
 40
1.764999999999998
  0
CIRCLE
  5
25CB
330
A
100
AcDbEntity
  8
SAISEN
100
AcDbCircle
 10
297.0479553410318
 20
104.7896898575082
 30
0.0
 40
1.764999999999998
  0
CIRCLE
  5
25CC
330
A
100
AcDbEntity
  8
SAISEN
100
AcDbCircle
 10
297.0479553410318
 20
113.6146898575081
 30
0.0
 40
1.764999999999998
  0
CIRCLE
  5
25CD
330
A
100
AcDbEntity
  8
SAISEN
100
AcDbCircle
 10
262.3479553410317
 20
113.6146898575081
 30
0.0
 40
2.647499999999999
  0
CIRCLE
  5
25CE
330
A
100
AcDbEntity
  8
SAISEN
100
AcDbCircle
 10
262.3479553410317
 20
104.7896898575082
 30
0.0
 40
2.647499999999999
  0
CIRCLE
  5
25CF
330
A
100
AcDbEntity
  8
SAISEN
100
AcDbCircle
 10
262.3479553410317
 20
95.96468985750822
 30
0.0
 40
2.647499999999999
  0
CIRCLE
  5
25D0
330
A
100
AcDbEntity
  8
SAISEN
100
AcDbCircle
 10
262.3479553410317
 20
87.13968985750824
 30
0.0
 40
2.647499999999999
  0
CIRCLE
  5
25D1
330
A
100
AcDbEntity
  8
SAISEN
100
AcDbCircle
 10
262.3479553410317
 20
78.31468985750825
 30
0.0
 40
2.647499999999999
  0
CIRCLE
  5
25D2
330
A
100
AcDbEntity
  8
SAISEN
100
AcDbCircle
 10
297.0479553410318
 20
78.31468985750825
 30
0.0
 40
2.647499999999999
  0
CIRCLE
  5
25D3
330
A
100
AcDbEntity
  8
SAISEN
100
AcDbCircle
 10
297.0479553410318
 20
87.13968985750824
 30
0.0
 40
2.647499999999999
  0
CIRCLE
  5
25D4
330
A
100
AcDbEntity
  8
SAISEN
100
AcDbCircle
 10
297.0479553410318
 20
95.96468985750822
 30
0.0
 40
2.647499999999999
  0
CIRCLE
  5
25D5
330
A
100
AcDbEntity
  8
SAISEN
100
AcDbCircle
 10
297.0479553410318
 20
104.7896898575082
 30
0.0
 40
2.647499999999999
  0
CIRCLE
  5
25D6
330
A
100
AcDbEntity
  8
SAISEN
100
AcDbCircle
 10
297.0479553410318
 20
113.6146898575081
 30
0.0
 40
2.647499999999999
  0
TEXT
  5
25D7
330
A
100
AcDbEntity
  8
MOJI
100
AcDbText
 10
283.7439108577863
 20
129.3833869777255
 30
0.0
 40
6.0
  1
歯付きベルト
 41
0.75
  7
0_8
 11
283.7439108577863
 21
135.3833869777256
 31
0.0
100
AcDbText
 73
     3
  0
TEXT
  5
25D8
330
A
100
AcDbEntity
  8
MOJI
100
AcDbText
 10
252.3775
 20
129.3833869777255
 30
0.0
 40
6.0
  1
Ｖベルト
 41
0.8
  7
0_8
 11
252.3775
 21
135.3833869777256
 31
0.0
100
AcDbText
 73
     3
  0
TEXT
  5
25D9
330
A
100
AcDbEntity
  8
MOJI
100
AcDbText
 10
271.9465600945531
 20
138.2083869777256
 30
0.0
 40
6.0
  1
伝達機構
 41
0.8
  7
0_8
 11
271.9465600945531
 21
144.2083869777256
 31
0.0
100
AcDbText
 73
     3
  0
TEXT
  5
25DA
330
A
100
AcDbEntity
  8
MOJI
100
AcDbText
 10
182.6122665520595
 20
67.10383493832968
 30
0.0
 40
6.0
  1
７５×１
 41
0.8
  7
0_8
 11
182.6122665520595
 21
73.10383493832969
 31
0.0
100
AcDbText
 73
     3
  0
TEXT
  5
25DB
330
A
100
AcDbEntity
  8
MOJI
100
AcDbText
 10
182.6122665520595
 20
75.9288349383297
 30
0.0
 40
6.0
  1
７５×１
 41
0.8
  7
0_8
 11
182.6122665520595
 21
81.92883493832971
 31
0.0
100
AcDbText
 73
     3
  0
TEXT
  5
25DC
330
A
100
AcDbEntity
  8
MOJI
100
AcDbText
 10
182.6122665520595
 20
84.75383493832971
 30
0.0
 40
6.0
  1
７５×１
 41
0.8
  7
0_8
 11
182.6122665520595
 21
90.75383493832971
 31
0.0
100
AcDbText
 73
     3
  0
TEXT
  5
25DD
330
A
100
AcDbEntity
  8
MOJI
100
AcDbText
 10
182.6122665520595
 20
93.5788349383297
 30
0.0
 40
6.0
  1
７５×１
 41
0.8
  7
0_8
 11
182.6122665520595
 21
99.57883493832969
 31
0.0
100
AcDbText
 73
     3
  0
TEXT
  5
25DE
330
A
100
AcDbEntity
  8
MOJI
100
AcDbText
 10
217.8276249999998
 20
67.10383493832968
 30
0.0
 40
6.0
  1
７５×２
 41
0.8
  7
0_8
 11
217.8276249999998
 21
73.10383493832969
 31
0.0
100
AcDbText
 73
     3
  0
TEXT
  5
25DF
330
A
100
AcDbEntity
  8
MOJI
100
AcDbText
 10
217.8276249999998
 20
75.9288349383297
 30
0.0
 40
6.0
  1
７５×２
 41
0.8
  7
0_8
 11
217.8276249999998
 21
81.92883493832971
 31
0.0
100
AcDbText
 73
     3
  0
TEXT
  5
25E0
330
A
100
AcDbEntity
  8
MOJI
100
AcDbText
 10
217.8276249999998
 20
84.75383493832971
 30
0.0
 40
6.0
  1
７５×２
 41
0.8
  7
0_8
 11
217.8276249999998
 21
90.75383493832971
 31
0.0
100
AcDbText
 73
     3
  0
TEXT
  5
25E1
330
A
100
AcDbEntity
  8
MOJI
100
AcDbText
 10
217.8276249999998
 20
93.5788349383297
 30
0.0
 40
6.0
  1
７５×２
 41
0.8
  7
0_8
 11
217.8276249999998
 21
99.57883493832969
 31
0.0
100
AcDbText
 73
     3
  0
TEXT
  5
25E2
330
A
100
AcDbEntity
  8
MOJI
100
AcDbText
 10
217.8276249999998
 20
102.4038349383296
 30
0.0
 40
6.0
  1
５０×２
 41
0.8
  7
0_8
 11
217.8276249999998
 21
108.4038349383297
 31
0.0
100
AcDbText
 73
     3
  0
TEXT
  5
25E3
330
A
100
AcDbEntity
  8
MOJI
100
AcDbText
 10
182.6122665520595
 20
102.4038349383296
 30
0.0
 40
6.0
  1
７５×１
 41
0.8
  7
0_8
 11
182.6122665520595
 21
108.4038349383297
 31
0.0
100
AcDbText
 73
     3
  0
TEXT
  5
25E4
330
A
100
AcDbEntity
  8
MOJI
100
AcDbText
 10
217.8276249999998
 20
120.0788349383296
 30
0.0
 40
6.0
  1
３０×２
 41
0.8
  7
0_8
 11
217.8276249999998
 21
126.0788349383296
 31
0.0
100
AcDbText
 73
     3
  0
TEXT
  5
25E5
330
A
100
AcDbEntity
  8
MOJI
100
AcDbText
 10
182.6122665520595
 20
120.0788349383296
 30
0.0
 40
6.0
  1
６５×１
 41
0.8
  7
0_8
 11
182.6122665520595
 21
126.0788349383296
 31
0.0
100
AcDbText
 73
     3
  0
TEXT
  5
25E6
330
A
100
AcDbEntity
  8
MOJI
100
AcDbText
 10
219.8080510112069
 20
129.3833869777255
 30
0.0
 40
6.0
  1
引分け
 41
0.8
  7
0_8
 11
219.8080510112069
 21
135.3833869777256
 31
0.0
100
AcDbText
 73
     3
  0
TEXT
  5
25E7
330
A
100
AcDbEntity
  8
MOJI
100
AcDbText
 10
184.7582816256628
 20
129.3833869777255
 30
0.0
 40
6.0
  1
片引き
 41
0.8
  7
0_8
 11
184.7582816256628
 21
135.3833869777256
 31
0.0
100
AcDbText
 73
     3
  0
TEXT
  5
25E8
330
A
100
AcDbEntity
  8
MOJI
100
AcDbText
 10
184.7582816256628
 20
138.2083869777256
 30
0.0
 40
6.0
  1
最大ドア質量（kg）
 41
0.8
  7
0_8
 11
184.7582816256628
 21
144.2083869777256
 31
0.0
100
AcDbText
 73
     3
  0
TEXT
  5
25E9
330
A
100
AcDbEntity
  8
MOJI
100
AcDbText
 10
130.7232204896155
 20
133.1208653092532
 30
0.0
 40
6.0
  1
使用機種
 41
0.8
  7
0_8
 11
130.7232204896155
 21
139.1208653092531
 31
0.0
100
AcDbText
 73
     3
  0
TEXT
  5
25EA
330
A
100
AcDbEntity
  8
MOJI
100
AcDbText
 10
108.765
 20
120.0788349383296
 30
0.0
 40
6.0
  1
SOV-60KLTM
 41
0.8
  7
0_8
 11
108.765
 21
126.0788349383296
 31
0.0
100
AcDbText
 73
     3
  0
TEXT
  5
25EB
330
A
100
AcDbEntity
  8
MOJI
100
AcDbText
 10
108.765
 20
93.5788349383297
 30
0.0
 40
6.0
  1
SOV-150KLTM
 41
0.8
  7
0_8
 11
108.765
 21
99.57883493832969
 31
0.0
100
AcDbText
 73
     3
  0
TEXT
  5
25EC
330
A
100
AcDbEntity
  8
MOJI
100
AcDbText
 10
108.765
 20
102.4038349383296
 30
0.0
 40
6.0
  1
SOV-100KLDM
 41
0.8
  7
0_8
 11
108.765
 21
108.4038349383297
 31
0.0
100
AcDbText
 73
     3
  0
TEXT
  5
25ED
330
A
100
AcDbEntity
  8
MOJI
100
AcDbText
 10
108.765
 20
67.10383493832968
 30
0.0
 40
6.0
  1
SOV-200KNB
 41
0.8
  7
0_8
 11
108.765
 21
73.10383493832969
 31
0.0
100
AcDbText
 73
     3
  0
TEXT
  5
25EE
330
A
100
AcDbEntity
  8
MOJI
100
AcDbText
 10
108.765
 20
75.9288349383297
 30
0.0
 40
6.0
  1
SOV-200KLDM
 41
0.8
  7
0_8
 11
108.765
 21
81.92883493832971
 31
0.0
100
AcDbText
 73
     3
  0
TEXT
  5
25EF
330
A
100
AcDbEntity
  8
MOJI
100
AcDbText
 10
108.765
 20
84.75383493832971
 30
0.0
 40
6.0
  1
SOV-160KLDM
 41
0.8
  7
0_8
 11
108.765
 21
90.75383493832971
 31
0.0
100
AcDbText
 73
     3
  0
MTEXT
  5
2663
330
A
100
AcDbEntity
  8
MOJI
100
AcDbMText
 10
309.9999999999998
 20
28.99999999999993
 30
0.0
 40
7.0
 41
50.0
 71
     5
 72
     1
  1
図番２－１
  7
0_80
1001
ACAD
1000
MTEXTBEGIN
1070
    73
1070
     1
1070
    44
1040
1.0
1070
    74
1070
     0
1000
MTEXTEND
1000
MTEXTBEGIN
1070
    73
1070
     1
1070
    44
1040
1.0
1070
    74
1070
     0
1000
MTEXTEND
  0
MTEXT
  5
2664
330
A
100
AcDbEntity
  8
MOJI
100
AcDbMText
 10
359.9999999999999
 20
28.99999999999993
 30
0.0
 40
7.0
 41
49.99999999999994
 71
     5
 72
     1
  1
たて断面図　
  7
0_80
1001
ACAD
1000
MTEXTBEGIN
1070
    73
1070
     1
1070
    44
1040
1.0
1070
    74
1070
     0
1000
MTEXTEND
1000
MTEXTBEGIN
1070
    73
1070
     1
1070
    44
1040
1.0
1070
    74
1070
     0
1000
MTEXTEND
  0
MTEXT
  5
2665
330
A
100
AcDbEntity
  8
MOJI
100
AcDbMText
 10
255.0000000000028
 20
28.99999999999993
 30
0.0
 40
7.0
 41
60.0
 71
     5
 72
     1
  1
片引き又は両引き
  7
0_80
1001
ACAD
1000
MTEXTBEGIN
1070
    73
1070
     1
1070
    44
1040
1.0
1070
    74
1070
     0
1000
MTEXTEND
1000
MTEXTBEGIN
1070
    73
1070
     1
1070
    44
1040
1.0
1070
    74
1070
     0
1000
MTEXTEND
  0
LINE
  5
2666
330
A
100
AcDbEntity
  8
SAISEN
100
AcDbLine
 10
145.0
 20
42.00000000000005
 30
0.0
 11
145.0
 21
16.99999999999987
 31
0.0
  0
LINE
  5
2667
330
A
100
AcDbEntity
  8
SAISEN
100
AcDbLine
 10
225.0
 20
42.00000000000005
 30
0.0
 11
225.0
 21
16.99999999999987
 31
0.0
  0
LINE
  5
2668
330
A
100
AcDbEntity
  8
SAISEN
100
AcDbLine
 10
285.0
 20
42.00000000000005
 30
0.0
 11
285.0
 21
16.99999999999987
 31
0.0
  0
MTEXT
  5
2669
330
A
100
AcDbEntity
  8
MOJI
100
AcDbMText
 10
90.0
 20
29.49999999999999
 30
0.0
 40
7.0
 41
110.0
 71
     5
 72
     1
  1
木製建具直付け台板納り
  7
0_8
1001
ACAD
1000
MTEXTBEGIN
1070
    73
1070
     1
1070
    44
1040
1.0
1070
    74
1070
     0
1000
MTEXTEND
1000
MTEXTBEGIN
1070
    73
1070
     1
1070
    44
1040
1.0
1070
    74
1070
     0
1000
MTEXTEND
  0
MTEXT
  5
266A
330
A
100
AcDbEntity
  8
MOJI
100
AcDbMText
 10
185.0
 20
29.49999999999999
 30
0.0
 40
7.0
 41
80.0
 71
     5
 72
     1
  1
Ｄ３台板
  7
0_8
1001
ACAD
1000
MTEXTBEGIN
1070
    73
1070
     1
1070
    44
1040
1.0
1070
    74
1070
     0
1000
MTEXTEND
1000
MTEXTBEGIN
1070
    73
1070
     1
1070
    44
1040
1.0
1070
    74
1070
     0
1000
MTEXTEND
  0
POLYLINE
  5
266B
330
A
100
AcDbEntity
  8
SAISEN
100
AcDb2dPolyline
 66
     1
 10
0.0
 20
0.0
 30
0.0
 70
     1
  0
VERTEX
  5
26D1
330
266B
100
AcDbEntity
  8
SAISEN
100
AcDbVertex
100
AcDb2dVertex
 10
35.00000000000003
 20
16.99999999999987
 30
0.0
  0
VERTEX
  5
26D2
330
266B
100
AcDbEntity
  8
SAISEN
100
AcDbVertex
100
AcDb2dVertex
 10
385.0
 20
16.99999999999987
 30
0.0
  0
VERTEX
  5
26D3
330
266B
100
AcDbEntity
  8
SAISEN
100
AcDbVertex
100
AcDb2dVertex
 10
385.0
 20
42.00000000000005
 30
0.0
  0
VERTEX
  5
26D4
330
266B
100
AcDbEntity
  8
SAISEN
100
AcDbVertex
100
AcDb2dVertex
 10
35.00000000000003
 20
42.00000000000005
 30
0.0
  0
SEQEND
  5
26D5
330
266B
100
AcDbEntity
  8
SAISEN
  0
VIEWPORT
  5
E37
102
{ACAD_XDICTIONARY
360
269D
102
}
330
B
100
AcDbEntity
 67
     1
  8
0
100
AcDbViewport
 10
198.0508299538852
 20
285.1874487354477
 30
0.0
 40
1078.343208727591
 41
628.3535021666721
 68
     1
 69
     1
1001
ACAD
1000
MVIEW
1002
{
1070
    16
1010
0.0
1020
0.0
1030
0.0
1010
0.0
1020
0.0
1030
1.0
1040
0.0
1040
628.3535021666721
1040
198.0508299538852
1040
285.1874487354477
1040
50.0
1040
0.0
1040
0.0
1070
     0
1070
   100
1070
     1
1070
     1
1070
     0
1070
     0
1070
     0
1070
     0
1040
0.0
1040
0.0
1040
0.0
1040
10.0
1040
10.0
1040
10.0
1040
10.0
1070
     0
1002
{
1002
}
1002
}
  0
VIEWPORT
  5
2685
102
{ACAD_XDICTIONARY
360
26A3
102
}
330
B
100
AcDbEntity
 67
     1
  8
DEFPOINTS
100
AcDbViewport
 10
198.0508309076477
 20
285.1874477816852
 30
0.0
 40
396.4883172119752
 41
570.409736121624
 68
     2
 69
     2
1001
ACAD
1000
MVIEW
1002
{
1070
    16
1010
0.0
1020
0.0
1030
0.0
1010
0.0
1020
0.0
1030
1.0
1040
0.0
1040
570.409736121624
1040
210.0
1040
297.0
1040
50.0
1040
0.0
1040
0.0
1070
     0
1070
   100
1070
     1
1070
     1
1070
     0
1070
     0
1070
     0
1070
     0
1040
0.0
1040
0.0
1040
0.0
1040
1.0
1040
1.0
1040
0.0
1040
0.0
1070
     0
1002
{
1002
}
1002
}
  0
ENDSEC
  0
SECTION
  2
OBJECTS
  0
DICTIONARY
  5
19
330
0
100
AcDbDictionary
  3
ACAD_COLOR
350
D8C
  3
ACAD_GROUP
350
1A
  3
ACAD_LAYOUT
350
567
  3
ACAD_MATERIAL
350
D8B
  3
ACAD_MLINESTYLE
350
1B
  3
ACAD_PLOTSETTINGS
350
568
  3
ACADDIM
350
A64
  3
ASE_INDEX_DICTIONARY
350
266C
  3
DWGPROPS
350
2699
1001
ACAD
1000
TREAT_AS_HARD
1070
     0
1000
TREAT_AS_HARD
1070
     0
  0
DICTIONARY
  5
2653
330
2
100
AcDbDictionary
  3
ACAD_LAYERSTATES
350
2654
1001
ACAD
1000
TREAT_AS_HARD
1070
     1
  0
DICTIONARY
  5
2615
330
A
100
AcDbDictionary
  3
ACAD_LAYOUTSELFREF
350
26AB
1001
ACAD
1000
TREAT_AS_HARD
1070
     1
  0
DICTIONARY
  5
2617
330
B
100
AcDbDictionary
  3
ACAD_LAYOUTSELFREF
350
26AC
1001
ACAD
1000
TREAT_AS_HARD
1070
     1
  0
DICTIONARY
  5
269D
330
E37
100
AcDbDictionary
  3
ACAD_XREC_ROUNDTRIP
350
269E
1001
ACAD
1000
TREAT_AS_HARD
1070
     1
  0
DICTIONARY
  5
26A3
330
2685
100
AcDbDictionary
  3
ACAD_XREC_ROUNDTRIP
350
26A4
1001
ACAD
1000
TREAT_AS_HARD
1070
     1
  0
DICTIONARY
  5
D8C
102
{ACAD_REACTORS
330
19
102
}
330
19
100
AcDbDictionary
1001
ACAD
1000
TREAT_AS_HARD
1070
     0
1000
TREAT_AS_HARD
1070
     0
  0
DICTIONARY
  5
1A
102
{ACAD_REACTORS
330
19
102
}
330
19
100
AcDbDictionary
  3
DAGROUP28A
350
28A
  3
DAGROUP290
350
290
  3
DAGROUP296
350
296
  3
DAGROUP29C
350
29C
  3
DAGROUP2A2
350
2A2
  3
DAGROUP2A8
350
2A8
  3
DAGROUP2AE
350
2AE
  3
DAGROUP2B4
350
2B4
  3
DAGROUP2BA
350
2BA
  3
DAGROUP2C0
350
2C0
  3
DAGROUP2C6
350
2C6
  3
DAGROUP2CC
350
2CC
  3
DAGROUP2D2
350
2D2
  3
DAGROUP2D8
350
2D8
  3
DAGROUP2DE
350
2DE
  3
DAGROUP2E4
350
2E4
  3
DAGROUP402
350
402
  3
DAGROUP406
350
406
  3
DAGROUP40A
350
40A
  3
DAGROUP40E
350
40E
1001
ACAD
1000
TREAT_AS_HARD
1070
     0
1000
TREAT_AS_HARD
1070
     0
  0
DICTIONARY
  5
567
102
{ACAD_REACTORS
330
19
102
}
330
19
100
AcDbDictionary
1001
ACAD
1000
TREAT_AS_HARD
1070
     0
1000
TREAT_AS_HARD
1070
     0
  0
DICTIONARY
  5
D8B
102
{ACAD_REACTORS
330
19
102
}
330
19
100
AcDbDictionary
1001
ACAD
1000
TREAT_AS_HARD
1070
     0
1000
TREAT_AS_HARD
1070
     0
  0
DICTIONARY
  5
1B
102
{ACAD_REACTORS
330
19
102
}
330
19
100
AcDbDictionary
  3
STANDARD
350
1C
1001
ACAD
1000
TREAT_AS_HARD
1070
     0
1000
TREAT_AS_HARD
1070
     0
  0
DICTIONARY
  5
568
102
{ACAD_REACTORS
330
19
102
}
330
19
100
AcDbDictionary
1001
ACAD
1000
TREAT_AS_HARD
1070
     0
1000
TREAT_AS_HARD
1070
     0
  0
XRECORD
  5
A64
102
{ACAD_REACTORS
330
19
102
}
330
19
100
AcDbXrecord
 90
   990106
  3
OPEN
 60
     0
 61
     0
 62
     4
 63
     4
 64
     1
 65
     0
 66
     0
 67
     3
 68
     1
 69
     0
 70
     0
 71
     0
 72
     0
 40
0.0
170
     2
340
15CC
  0
DICTIONARY
  5
266C
102
{ACAD_REACTORS
330
19
102
}
330
19
100
AcDbDictionary
  3
ASEBLOCKHIERARCHYINDEXRECORD
350
266D
1001
DCO15
1040
1508667585.296
1001
ACAD
1000
TREAT_AS_HARD
1070
     0
  0
XRECORD
  5
2699
102
{ACAD_REACTORS
330
19
102
}
330
19
100
AcDbXrecord
  1
DWGPROPS COOKIE
  2

  3

  4

  6

  7

  8
watanabe
  9

300
=
301
=
302
=
303
=
304
=
305
=
306
=
307
=
308
=
309
=
 40
0.332851724537037
 41
2444972.375
 42
2453265.756092661
  1

 90
        0
  0
DICTIONARY
  5
2654
102
{ACAD_REACTORS
330
2653
102
}
330
2653
100
AcDbDictionary
1001
ACAD
1000
TREAT_AS_HARD
1070
     0
  0
XRECORD
  5
26AB
102
{ACAD_REACTORS
330
2615
102
}
330
2615
100
AcDbXrecord
340
A
  0
XRECORD
  5
26AC
102
{ACAD_REACTORS
330
2617
102
}
330
2617
100
AcDbXrecord
340
B
  0
XRECORD
  5
269E
102
{ACAD_REACTORS
330
269D
102
}
330
269D
100
AcDbXrecord
102
SHADEPLOT
 70
     0
  0
XRECORD
  5
26A4
102
{ACAD_REACTORS
330
26A3
102
}
330
26A3
100
AcDbXrecord
102
SHADEPLOT
 70
     0
  0
GROUP
  5
28A
102
{ACAD_REACTORS
330
1A
102
}
330
1A
100
AcDbGroup
300

 70
     0
 71
     1
  0
GROUP
  5
290
102
{ACAD_REACTORS
330
1A
102
}
330
1A
100
AcDbGroup
300

 70
     0
 71
     1
  0
GROUP
  5
296
102
{ACAD_REACTORS
330
1A
102
}
330
1A
100
AcDbGroup
300

 70
     0
 71
     1
  0
GROUP
  5
29C
102
{ACAD_REACTORS
330
1A
102
}
330
1A
100
AcDbGroup
300

 70
     0
 71
     1
  0
GROUP
  5
2A2
102
{ACAD_REACTORS
330
1A
102
}
330
1A
100
AcDbGroup
300

 70
     0
 71
     1
  0
GROUP
  5
2A8
102
{ACAD_REACTORS
330
1A
102
}
330
1A
100
AcDbGroup
300

 70
     0
 71
     1
  0
GROUP
  5
2AE
102
{ACAD_REACTORS
330
1A
102
}
330
1A
100
AcDbGroup
300

 70
     0
 71
     1
  0
GROUP
  5
2B4
102
{ACAD_REACTORS
330
1A
102
}
330
1A
100
AcDbGroup
300

 70
     0
 71
     1
  0
GROUP
  5
2BA
102
{ACAD_REACTORS
330
1A
102
}
330
1A
100
AcDbGroup
300

 70
     0
 71
     1
  0
GROUP
  5
2C0
102
{ACAD_REACTORS
330
1A
102
}
330
1A
100
AcDbGroup
300

 70
     0
 71
     1
  0
GROUP
  5
2C6
102
{ACAD_REACTORS
330
1A
102
}
330
1A
100
AcDbGroup
300

 70
     0
 71
     1
  0
GROUP
  5
2CC
102
{ACAD_REACTORS
330
1A
102
}
330
1A
100
AcDbGroup
300

 70
     0
 71
     1
  0
GROUP
  5
2D2
102
{ACAD_REACTORS
330
1A
102
}
330
1A
100
AcDbGroup
300

 70
     0
 71
     1
  0
GROUP
  5
2D8
102
{ACAD_REACTORS
330
1A
102
}
330
1A
100
AcDbGroup
300

 70
     0
 71
     1
  0
GROUP
  5
2DE
102
{ACAD_REACTORS
330
1A
102
}
330
1A
100
AcDbGroup
300

 70
     0
 71
     1
  0
GROUP
  5
2E4
102
{ACAD_REACTORS
330
1A
102
}
330
1A
100
AcDbGroup
300

 70
     0
 71
     1
  0
GROUP
  5
402
102
{ACAD_REACTORS
330
1A
102
}
330
1A
100
AcDbGroup
300

 70
     0
 71
     1
  0
GROUP
  5
406
102
{ACAD_REACTORS
330
1A
102
}
330
1A
100
AcDbGroup
300

 70
     0
 71
     1
  0
GROUP
  5
40A
102
{ACAD_REACTORS
330
1A
102
}
330
1A
100
AcDbGroup
300

 70
     0
 71
     1
  0
GROUP
  5
40E
102
{ACAD_REACTORS
330
1A
102
}
330
1A
100
AcDbGroup
300

 70
     0
 71
     1
  0
MLINESTYLE
  5
1C
102
{ACAD_REACTORS
330
1B
102
}
330
1B
100
AcDbMlineStyle
  2
STANDARD
 70
     0
  3

 62
     0
 51
90.00000000000019
 52
90.00000000000019
 71
     2
 49
0.5
 62
   256
  6
BYLAYER
 49
-0.5
 62
   256
  6
BYLAYER
  0
XRECORD
  5
266D
102
{ACAD_REACTORS
330
266C
102
}
330
266C
100
AcDbXrecord
330
2567
330
2568
330
255E
330
255F
330
2555
330
2556
330
254D
330
254E
330
2542
330
2543
330
2539
330
253A
330
252E
330
252F
330
2525
330
2526
330
2519
330
251A
330
2511
330
2512
330
2508
330
2509
330
2500
330
24FF
330
24F5
330
24F6
330
24ED
330
24EE
330
24E3
330
24E4
330
24DA
330
24DB
330
24D1
330
24D2
330
24C8
330
24C9
330
24C0
330
24BF
330
24B6
330
24B7
330
24AD
330
24AE
330
24A4
330
24A5
330
249C
330
249D
330
2490
330
2491
330
2485
330
2486
330
247C
330
247D
330
2471
330
2472
330
2468
330
2469
  0
ENDSEC
  0
EOF
