  0
SECTION
  2
HEADER
  9
$ACADVER
  1
AC1012
  9
$DWGCODEPAGE
  3
dos932
  9
$INSBASE
 10
0.0
 20
0.0
 30
0.0
  9
$EXTMIN
 10
0.0
 20
0.0
 30
0.0
  9
$EXTMAX
 10
420.0
 20
594.0
 30
0.0
  9
$LIMMIN
 10
0.0
 20
0.0
  9
$LIMMAX
 10
420.0
 20
594.0
  9
$ORTHOMODE
 70
     1
  9
$REGENMODE
 70
     1
  9
$FILLMODE
 70
     1
  9
$QTEXTMODE
 70
     0
  9
$MIRRTEXT
 70
     1
  9
$DRAGMODE
 70
     2
  9
$LTSCALE
 40
0.3
  9
$OSMODE
 70
    37
  9
$ATTMODE
 70
     1
  9
$TEXTSIZE
 40
6.0
  9
$TRACEWID
 40
0.05
  9
$TEXTSTYLE
  7
STANDARD
  9
$CLAYER
  8
DEFPOINTS
  9
$CELTYPE
  6
BYLAYER
  9
$CECOLOR
 62
   256
  9
$CELTSCALE
 40
1.0
  9
$DELOBJ
 70
     1
  9
$DISPSILH
 70
     0
  9
$DIMSCALE
 40
2.0
  9
$DIMASZ
 40
2.5
  9
$DIMEXO
 40
1.5
  9
$DIMDLI
 40
0.0
  9
$DIMRND
 40
0.0
  9
$DIMDLE
 40
0.0
  9
$DIMEXE
 40
1.0
  9
$DIMTP
 40
0.0
  9
$DIMTM
 40
0.0
  9
$DIMTXT
 40
2.5
  9
$DIMCEN
 40
0.0
  9
$DIMTSZ
 40
0.0
  9
$DIMTOL
 70
     0
  9
$DIMLIM
 70
     0
  9
$DIMTIH
 70
     0
  9
$DIMTOH
 70
     0
  9
$DIMSE1
 70
     0
  9
$DIMSE2
 70
     0
  9
$DIMTAD
 70
     1
  9
$DIMZIN
 70
     8
  9
$DIMBLK
  1
OPEN30
  9
$DIMASO
 70
     1
  9
$DIMSHO
 70
     1
  9
$DIMPOST
  1

  9
$DIMAPOST
  1

  9
$DIMALT
 70
     0
  9
$DIMALTD
 70
     2
  9
$DIMALTF
 40
25.4
  9
$DIMLFAC
 40
1.0
  9
$DIMTOFL
 70
     1
  9
$DIMTVP
 40
0.0
  9
$DIMTIX
 70
     0
  9
$DIMSOXD
 70
     0
  9
$DIMSAH
 70
     0
  9
$DIMBLK1
  1

  9
$DIMBLK2
  1

  9
$DIMSTYLE
  2
SUNPOU_2
  9
$DIMCLRD
 70
   256
  9
$DIMCLRE
 70
   256
  9
$DIMCLRT
 70
   256
  9
$DIMTFAC
 40
1.0
  9
$DIMGAP
 40
1.0
  9
$DIMJUST
 70
     0
  9
$DIMSD1
 70
     0
  9
$DIMSD2
 70
     0
  9
$DIMTOLJ
 70
     1
  9
$DIMTZIN
 70
     0
  9
$DIMALTZ
 70
     0
  9
$DIMALTTZ
 70
     0
  9
$DIMFIT
 70
     3
  9
$DIMUPT
 70
     0
  9
$DIMUNIT
 70
     2
  9
$DIMDEC
 70
     1
  9
$DIMTDEC
 70
     1
  9
$DIMALTU
 70
     2
  9
$DIMALTTD
 70
     2
  9
$DIMTXSTY
  7
SUNPOU
  9
$DIMAUNIT
 70
     0
  9
$LUNITS
 70
     2
  9
$LUPREC
 70
     4
  9
$SKETCHINC
 40
0.1
  9
$FILLETRAD
 40
0.0
  9
$AUNITS
 70
     0
  9
$AUPREC
 70
     0
  9
$MENU
  1
acad
  9
$ELEVATION
 40
0.0
  9
$PELEVATION
 40
0.0
  9
$THICKNESS
 40
0.0
  9
$LIMCHECK
 70
     0
  9
$BLIPMODE
 70
     0
  9
$CHAMFERA
 40
0.0
  9
$CHAMFERB
 40
0.0
  9
$CHAMFERC
 40
0.0
  9
$CHAMFERD
 40
0.0
  9
$SKPOLY
 70
     0
  9
$TDCREATE
 40
2444972.375000000
  9
$TDUPDATE
 40
2453266.402832569
  9
$TDINDWG
 40
0.2350050463
  9
$TDUSRTIMER
 40
0.2350048611
  9
$USRTIMER
 70
     1
  9
$ANGBASE
 50
0.0
  9
$ANGDIR
 70
     0
  9
$PDMODE
 70
     0
  9
$PDSIZE
 40
1.0
  9
$PLINEWID
 40
0.0
  9
$COORDS
 70
     1
  9
$SPLFRAME
 70
     0
  9
$SPLINETYPE
 70
     6
  9
$SPLINESEGS
 70
     8
  9
$ATTDIA
 70
     0
  9
$ATTREQ
 70
     1
  9
$HANDLING
 70
-16383
  9
$HANDSEED
  5
168B
  9
$SURFTAB1
 70
     6
  9
$SURFTAB2
 70
     6
  9
$SURFTYPE
 70
     6
  9
$SURFU
 70
     6
  9
$SURFV
 70
     6
  9
$UCSNAME
  2

  9
$UCSORG
 10
0.0
 20
0.0
 30
0.0
  9
$UCSXDIR
 10
1.0
 20
0.0
 30
0.0
  9
$UCSYDIR
 10
0.0
 20
1.0
 30
0.0
  9
$PUCSNAME
  2

  9
$PUCSORG
 10
0.0
 20
0.0
 30
0.0
  9
$PUCSXDIR
 10
1.0
 20
0.0
 30
0.0
  9
$PUCSYDIR
 10
0.0
 20
1.0
 30
0.0
  9
$USERI1
 70
     0
  9
$USERI2
 70
     0
  9
$USERI3
 70
     0
  9
$USERI4
 70
     0
  9
$USERI5
 70
     0
  9
$USERR1
 40
0.0
  9
$USERR2
 40
0.0
  9
$USERR3
 40
0.0
  9
$USERR4
 40
0.0
  9
$USERR5
 40
0.0
  9
$WORLDVIEW
 70
     1
  9
$SHADEDGE
 70
     3
  9
$SHADEDIF
 70
    70
  9
$TILEMODE
 70
     1
  9
$MAXACTVP
 70
    16
  9
$PINSBASE
 10
0.0
 20
0.0
 30
0.0
  9
$PLIMCHECK
 70
     0
  9
$PEXTMIN
 10
-0.1933276983398855
 20
-0.0174202791267817
 30
-0.0000000349181948
  9
$PEXTMAX
 10
396.2949895136353
 20
570.3923158424973
 30
0.0000000814935747
  9
$PLIMMIN
 10
-11.94191342824454
 20
-11.76600219398141
  9
$PLIMMAX
 10
408.0435733360149
 20
582.1408996648768
  9
$UNITMODE
 70
     0
  9
$VISRETAIN
 70
     0
  9
$PLINEGEN
 70
     1
  9
$PSLTSCALE
 70
     1
  9
$TREEDEPTH
 70
  3020
  9
$PICKSTYLE
 70
     1
  9
$CMLSTYLE
  2
STANDARD
  9
$CMLJUST
 70
     0
  9
$CMLSCALE
 40
1.0
  9
$SAVEIMAGES
 70
     1
  0
ENDSEC
  0
SECTION
  2
CLASSES
  0
CLASS
  1
LWPOLYLINE
  2
AcDbPolyline
  3
AutoCAD 2000
 90
    32768
280
     0
281
     1
  0
CLASS
  1
IMAGE
  2
AcDbRasterImage
  3
ISM
 90
    32895
280
     0
281
     1
  0
CLASS
  1
OLE2FRAME
  2
AcDbOle2Frame
  3
AutoCAD 2000
 90
    32768
280
     0
281
     1
  0
CLASS
  1
HATCH
  2
AcDbHatch
  3
AutoCAD 2000
 90
    32768
280
     0
281
     1
  0
CLASS
  1
DICTIONARYVAR
  2
AcDbDictionaryVar
  3
AutoCAD 2000
 90
    32768
280
     0
281
     0
  0
CLASS
  1
RASTERVARIABLES
  2
AcDbRasterVariables
  3
ISM
 90
    32768
280
     0
281
     0
  0
CLASS
  1
IMAGEDEF
  2
AcDbRasterImageDef
  3
ISM
 90
    32768
280
     0
281
     0
  0
CLASS
  1
IMAGEDEF_REACTOR
  2
AcDbRasterImageDefReactor
  3
ISM
 90
    32769
280
     0
281
     0
  0
CLASS
  1
IDBUFFER
  2
AcDbIdBuffer
  3
AutoCAD 2000
 90
    32768
280
     0
281
     0
  0
CLASS
  1
SPATIAL_FILTER
  2
AcDbSpatialFilter
  3
AutoCAD 2000
 90
    32768
280
     0
281
     0
  0
CLASS
  1
XRECORD
  2
AcDbXrecord
  3
AutoCAD 2000
 90
    32768
280
     0
281
     0
  0
CLASS
  1
SORTENTSTABLE
  2
AcDbSortentsTable
  3
AutoCAD 2000
 90
    32768
280
     0
281
     0
  0
CLASS
  1
LAYER_INDEX
  2
AcDbLayerIndex
  3
AutoCAD 2000
 90
    32768
280
     0
281
     0
  0
CLASS
  1
SPATIAL_INDEX
  2
AcDbSpatialIndex
  3
AutoCAD 2000
 90
    32768
280
     0
281
     0
  0
CLASS
  1
OBJECT_PTR
  2
CAseDLPNTableRecord
  3
ASE-LPNTableRecord
 90
    32769
280
     0
281
     0
  0
CLASS
  1
ACDBDICTIONARYWDFLT
  2
AcDbDictionaryWithDefault
  3
AutoCAD 2000
 90
    32768
280
     0
281
     0
  0
CLASS
  1
ACDBPLACEHOLDER
  2
AcDbPlaceHolder
  3
AutoCAD 2000
 90
    32768
280
     0
281
     0
  0
CLASS
  1
LAYOUT
  2
AcDbLayout
  3
AutoCAD 2000
 90
    32768
280
     0
281
     0
  0
CLASS
  1
LONG_TRANSACTION
  2
AcDbLongTransaction
  3
AutoCAD 2000
 90
    32768
280
     0
281
     0
  0
CLASS
  1
LWPOLYLINE
  2
AcDbPolyline
  3
AutoCAD 2000
 90
    32768
280
     0
281
     1
  0
CLASS
  1
HATCH
  2
AcDbHatch
  3
AutoCAD 2000
 90
    32768
280
     0
281
     1
  0
CLASS
  1
XRECORD
  2
AcDbXrecord
  3
AutoCAD 2000
 90
    32768
280
     0
281
     0
  0
CLASS
  1
LONG_TRANSACTION
  2
AcDbLongTransaction
  3
AutoCAD 2000
 90
    32768
280
     0
281
     0
  0
CLASS
  1
LWPOLYLINE
  2
AcDbPolyline
  3
AutoCAD 2000
 90
    32768
280
     0
281
     1
  0
CLASS
  1
HATCH
  2
AcDbHatch
  3
AutoCAD 2000
 90
    32768
280
     0
281
     1
  0
CLASS
  1
XRECORD
  2
AcDbXrecord
  3
AutoCAD 2000
 90
    32768
280
     0
281
     0
  0
ENDSEC
  0
SECTION
  2
TABLES
  0
TABLE
  2
VPORT
  5
7
330
0
100
AcDbSymbolTable
 70
     2
  0
VPORT
  5
166E
330
7
100
AcDbSymbolTableRecord
100
AcDbViewportTableRecord
  2
*ACTIVE
 70
     0
 10
0.0
 20
0.0
 11
1.0
 21
1.0
 12
229.317488784994
 22
297.000001383014
 13
0.0
 23
0.0
 14
1.0
 24
1.0
 15
0.0
 25
0.0
 16
0.0
 26
0.0
 36
1.0
 17
0.0
 27
0.0
 37
0.0
 40
600.9460837462177
 41
1.780442804428044
 42
50.0
 43
0.0
 44
0.0
 50
0.0
 51
0.0
 71
     0
 72
   100
 73
     1
 74
     1
 75
     0
 76
     0
 77
     0
 78
     0
  0
ENDTAB
  0
TABLE
  2
LTYPE
  5
4
330
0
100
AcDbSymbolTable
 70
     4
  0
LTYPE
  5
11
330
4
100
AcDbSymbolTableRecord
100
AcDbLinetypeTableRecord
  2
BYBLOCK
 70
     0
  3

 72
    65
 73
     0
 40
0.0
  0
LTYPE
  5
12
330
4
100
AcDbSymbolTableRecord
100
AcDbLinetypeTableRecord
  2
BYLAYER
 70
     0
  3

 72
    65
 73
     0
 40
0.0
  0
LTYPE
  5
13
330
4
100
AcDbSymbolTableRecord
100
AcDbLinetypeTableRecord
  2
CONTINUOUS
 70
     0
  3
Solid line
 72
    65
 73
     0
 40
0.0
  0
LTYPE
  5
AB0
330
4
100
AcDbSymbolTableRecord
100
AcDbLinetypeTableRecord
  2
DASHED2
 70
     0
  3
Dashed (.5x) _ _ _ _ _ _ _ _ _ _ _ _ _ _ _ _ _
 72
    65
 73
     2
 40
9.524999999999996
 49
6.349999999999998
 74
     0
 49
-3.174999999999998
 74
     0
  0
LTYPE
  5
AB1
330
4
100
AcDbSymbolTableRecord
100
AcDbLinetypeTableRecord
  2
CENTER2
 70
     0
  3
Center (.5x) ___ _ ___ _ ___ _ ___ _ ___ _ ___
 72
    65
 73
     4
 40
28.57499999999999
 49
19.05
 74
     0
 49
-3.174999999999998
 74
     0
 49
3.174999999999998
 74
     0
 49
-3.174999999999998
 74
     0
  0
LTYPE
  5
B03
330
4
100
AcDbSymbolTableRecord
100
AcDbLinetypeTableRecord
  2
PHANTOM2
 70
     0
  3
Phantom (.5x) ___ _ _ ___ _ _ ___ _ _ ___ _ _
 72
    65
 73
     6
 40
31.75
 49
15.875
 74
     0
 49
-3.174999999999998
 74
     0
 49
3.174999999999998
 74
     0
 49
-3.174999999999998
 74
     0
 49
3.174999999999998
 74
     0
 49
-3.174999999999998
 74
     0
  0
ENDTAB
  0
TABLE
  2
LAYER
  5
2
102
{ACAD_XDICTIONARY
360
161A
102
}
330
0
100
AcDbSymbolTable
 70
    13
  0
LAYER
  5
14
330
2
100
AcDbSymbolTableRecord
100
AcDbLayerTableRecord
  2
0
 70
     0
 62
     7
  6
CONTINUOUS
  0
LAYER
  5
631
330
2
100
AcDbSymbolTableRecord
100
AcDbLayerTableRecord
  2
DEFPOINTS
 70
     0
 62
     7
  6
CONTINUOUS
  0
LAYER
  5
633
330
2
100
AcDbSymbolTableRecord
100
AcDbLayerTableRecord
  2
03
 70
     0
 62
     3
  6
CONTINUOUS
  0
LAYER
  5
634
330
2
100
AcDbSymbolTableRecord
100
AcDbLayerTableRecord
  2
04
 70
     0
 62
     4
  6
CONTINUOUS
  0
LAYER
  5
636
330
2
100
AcDbSymbolTableRecord
100
AcDbLayerTableRecord
  2
06
 70
     0
 62
     6
  6
CONTINUOUS
  0
LAYER
  5
637
330
2
100
AcDbSymbolTableRecord
100
AcDbLayerTableRecord
  2
CHUSIN
 70
     0
 62
     6
  6
CENTER2
  0
LAYER
  5
638
330
2
100
AcDbSymbolTableRecord
100
AcDbLayerTableRecord
  2
HIKIDASI
 70
     0
 62
     6
  6
CONTINUOUS
  0
LAYER
  5
639
330
2
100
AcDbSymbolTableRecord
100
AcDbLayerTableRecord
  2
KAKURE
 70
     0
 62
     6
  6
DASHED2
  0
LAYER
  5
63A
330
2
100
AcDbSymbolTableRecord
100
AcDbLayerTableRecord
  2
MOJI
 70
     0
 62
     3
  6
CONTINUOUS
  0
LAYER
  5
63B
330
2
100
AcDbSymbolTableRecord
100
AcDbLayerTableRecord
  2
SOUZOU
 70
     0
 62
     6
  6
PHANTOM2
  0
LAYER
  5
63C
330
2
100
AcDbSymbolTableRecord
100
AcDbLayerTableRecord
  2
SUNPOU
 70
     0
 62
     6
  6
CONTINUOUS
  0
LAYER
  5
1060
330
2
100
AcDbSymbolTableRecord
100
AcDbLayerTableRecord
  2
SAISEN
 70
     0
 62
     3
  6
CONTINUOUS
  0
LAYER
  5
1353
330
2
100
AcDbSymbolTableRecord
100
AcDbLayerTableRecord
  2
02
 70
     0
 62
     2
  6
CONTINUOUS
  0
ENDTAB
  0
TABLE
  2
STYLE
  5
3
330
0
100
AcDbSymbolTable
 70
     4
  0
STYLE
  5
17
330
3
100
AcDbSymbolTableRecord
100
AcDbTextStyleTableRecord
  2
STANDARD
 70
     0
 40
0.0
 41
0.8
 50
0.0
 71
     0
 42
6.0
  3
txt.shx
  4
bigfont.shx
  0
STYLE
  5
64E
330
3
100
AcDbSymbolTableRecord
100
AcDbTextStyleTableRecord
  2
0_8
 70
     0
 40
0.0
 41
0.8
 50
0.0
 71
     0
 42
0.2
  3
txt.shx
  4
extfont.shx
  0
STYLE
  5
64F
330
3
100
AcDbSymbolTableRecord
100
AcDbTextStyleTableRecord
  2
SUNPOU
 70
     0
 40
0.0
 41
0.8
 50
0.0
 71
     0
 42
3.5
  3
txt.shx
  4
extfont.shx
  0
STYLE
  5
1618
330
3
100
AcDbSymbolTableRecord
100
AcDbTextStyleTableRecord
  2
0_80
 70
     0
 40
0.0
 41
0.8
 50
0.0
 71
     0
 42
7.0
  3
txt.shx
  4
extfont.shx
  0
ENDTAB
  0
TABLE
  2
VIEW
  5
5
330
0
100
AcDbSymbolTable
 70
     1
  0
VIEW
  5
136
330
5
100
AcDbSymbolTableRecord
100
AcDbViewTableRecord
  2
QQQQ
 70
     0
 40
618.7999999999998
 10
-6.0
 20
-1.0
 41
419.8999999999999
 11
0.0
 21
0.0
 31
1.0
 12
100.0
 22
100.0
 32
0.0
 42
50.0
 43
0.0
 44
0.0
 50
0.0
 71
     0
  0
ENDTAB
  0
TABLE
  2
UCS
  5
6
330
0
100
AcDbSymbolTable
 70
     0
  0
ENDTAB
  0
TABLE
  2
APPID
  5
8
330
0
100
AcDbSymbolTable
 70
     3
  0
APPID
  5
16
330
8
100
AcDbSymbolTableRecord
100
AcDbRegAppTableRecord
  2
ACAD
 70
     0
  0
APPID
  5
B85
330
8
100
AcDbSymbolTableRecord
100
AcDbRegAppTableRecord
  2
DCO15
 70
     0
  0
APPID
  5
1603
330
8
100
AcDbSymbolTableRecord
100
AcDbRegAppTableRecord
  2
CONTENTBLOCKICON
 70
     0
  0
ENDTAB
  0
TABLE
  2
DIMSTYLE
  5
9
330
0
100
AcDbSymbolTable
 70
     2
  0
DIMSTYLE
105
D61
102
{ACAD_REACTORS
330
7EF
330
7E2
330
7D5
330
7C6
330
7B9
330
7AA
330
79B
330
78E
330
778
330
76B
330
75E
330
751
330
744
330
737
330
72A
330
71D
330
70E
330
6F8
330
6E9
330
6DC
330
6CD
330
6C0
330
6B3
330
6A6
330
699
330
68A
330
66E
330
661
330
84D
330
850
330
853
330
856
102
}
330
9
100
AcDbSymbolTableRecord
100
AcDbDimStyleTableRecord
  2
SUNPOU_2
 70
     0
  3

  4

  5
OPEN30
  6

  7

 40
2.0
 41
2.5
 42
1.5
 43
0.0
 44
1.0
 45
0.0
 46
0.0
 47
0.0
 48
0.0
140
2.5
141
0.0
142
0.0
143
25.4
144
1.0
145
0.0
146
1.0
147
1.0
 71
     0
 72
     0
 73
     0
 74
     0
 75
     0
 76
     0
 77
     1
 78
     8
170
     0
171
     2
172
     1
173
     0
174
     0
175
     0
176
   256
177
   256
178
   256
270
     2
271
     1
272
     1
273
     2
274
     2
340
64F
275
     0
280
     0
281
     0
282
     0
283
     1
284
     0
285
     0
286
     0
287
     3
288
     0
  0
DIMSTYLE
105
10F1
330
9
100
AcDbSymbolTableRecord
100
AcDbDimStyleTableRecord
  2
STANDARD
 70
     0
  3

  4

  5

  6

  7

 40
1.0
 41
0.18
 42
0.0625
 43
0.38
 44
0.18
 45
0.0
 46
0.0
 47
0.0
 48
0.0
140
0.18
141
0.09
142
0.0
143
25.4
144
1.0
145
0.0
146
1.0
147
0.09
 71
     0
 72
     0
 73
     1
 74
     1
 75
     0
 76
     0
 77
     0
 78
     0
170
     0
171
     2
172
     0
173
     0
174
     0
175
     0
176
     0
177
     0
178
     0
270
     2
271
     4
272
     4
273
     2
274
     2
340
17
275
     0
280
     0
281
     0
282
     0
283
     1
284
     0
285
     0
286
     0
287
     3
288
     0
  0
ENDTAB
  0
TABLE
  2
BLOCK_RECORD
  5
1
330
0
100
AcDbSymbolTable
 70
    29
  0
BLOCK_RECORD
  5
A
102
{ACAD_XDICTIONARY
360
15EB
102
}
330
1
100
AcDbSymbolTableRecord
100
AcDbBlockTableRecord
  2
*MODEL_SPACE
  0
BLOCK_RECORD
  5
B
102
{ACAD_XDICTIONARY
360
15ED
102
}
330
1
100
AcDbSymbolTableRecord
100
AcDbBlockTableRecord
  2
*PAPER_SPACE
  0
BLOCK_RECORD
  5
662
330
1
100
AcDbSymbolTableRecord
100
AcDbBlockTableRecord
  2
*D0
  0
BLOCK_RECORD
  5
66F
330
1
100
AcDbSymbolTableRecord
100
AcDbBlockTableRecord
  2
*D1
  0
BLOCK_RECORD
  5
68B
330
1
100
AcDbSymbolTableRecord
100
AcDbBlockTableRecord
  2
*D2
  0
BLOCK_RECORD
  5
69A
330
1
100
AcDbSymbolTableRecord
100
AcDbBlockTableRecord
  2
*D3
  0
BLOCK_RECORD
  5
6A7
330
1
100
AcDbSymbolTableRecord
100
AcDbBlockTableRecord
  2
*D4
  0
BLOCK_RECORD
  5
6B4
330
1
100
AcDbSymbolTableRecord
100
AcDbBlockTableRecord
  2
*D5
  0
BLOCK_RECORD
  5
6C1
330
1
100
AcDbSymbolTableRecord
100
AcDbBlockTableRecord
  2
*D6
  0
BLOCK_RECORD
  5
6CE
330
1
100
AcDbSymbolTableRecord
100
AcDbBlockTableRecord
  2
*D7
  0
BLOCK_RECORD
  5
6DD
330
1
100
AcDbSymbolTableRecord
100
AcDbBlockTableRecord
  2
*D8
  0
BLOCK_RECORD
  5
6EA
330
1
100
AcDbSymbolTableRecord
100
AcDbBlockTableRecord
  2
*D9
  0
BLOCK_RECORD
  5
6F9
330
1
100
AcDbSymbolTableRecord
100
AcDbBlockTableRecord
  2
*D10
  0
BLOCK_RECORD
  5
70F
330
1
100
AcDbSymbolTableRecord
100
AcDbBlockTableRecord
  2
*D11
  0
BLOCK_RECORD
  5
71E
330
1
100
AcDbSymbolTableRecord
100
AcDbBlockTableRecord
  2
*D12
  0
BLOCK_RECORD
  5
72B
330
1
100
AcDbSymbolTableRecord
100
AcDbBlockTableRecord
  2
*D13
  0
BLOCK_RECORD
  5
738
330
1
100
AcDbSymbolTableRecord
100
AcDbBlockTableRecord
  2
*D14
  0
BLOCK_RECORD
  5
745
330
1
100
AcDbSymbolTableRecord
100
AcDbBlockTableRecord
  2
*D15
  0
BLOCK_RECORD
  5
752
330
1
100
AcDbSymbolTableRecord
100
AcDbBlockTableRecord
  2
*D16
  0
BLOCK_RECORD
  5
75F
330
1
100
AcDbSymbolTableRecord
100
AcDbBlockTableRecord
  2
*D17
  0
BLOCK_RECORD
  5
76C
330
1
100
AcDbSymbolTableRecord
100
AcDbBlockTableRecord
  2
*D18
  0
BLOCK_RECORD
  5
779
330
1
100
AcDbSymbolTableRecord
100
AcDbBlockTableRecord
  2
*D19
  0
BLOCK_RECORD
  5
78F
330
1
100
AcDbSymbolTableRecord
100
AcDbBlockTableRecord
  2
*D20
  0
BLOCK_RECORD
  5
79C
330
1
100
AcDbSymbolTableRecord
100
AcDbBlockTableRecord
  2
*D21
  0
BLOCK_RECORD
  5
7AB
330
1
100
AcDbSymbolTableRecord
100
AcDbBlockTableRecord
  2
*D22
  0
BLOCK_RECORD
  5
7BA
330
1
100
AcDbSymbolTableRecord
100
AcDbBlockTableRecord
  2
*D23
  0
BLOCK_RECORD
  5
7C7
330
1
100
AcDbSymbolTableRecord
100
AcDbBlockTableRecord
  2
*D24
  0
BLOCK_RECORD
  5
7D6
330
1
100
AcDbSymbolTableRecord
100
AcDbBlockTableRecord
  2
*D25
  0
BLOCK_RECORD
  5
7E3
330
1
100
AcDbSymbolTableRecord
100
AcDbBlockTableRecord
  2
*D26
  0
BLOCK_RECORD
  5
7F0
330
1
100
AcDbSymbolTableRecord
100
AcDbBlockTableRecord
  2
*D27
  0
BLOCK_RECORD
  5
D5B
330
1
100
AcDbSymbolTableRecord
100
AcDbBlockTableRecord
  2
_OPEN30
1001
CONTENTBLOCKICON
1071
        0
1004
2800000020000000200000000100080000000000000400000000000000000000000000000000000000000000000080000080000000808000800000008000800080800000C0C0C000C0DCC000F0CAA6000020400000206000002080000020A0000020C0000020E00000400000004020000040400000406000004080000040A0
1004
000040C0000040E00000600000006020000060400000606000006080000060A0000060C0000060E00000800000008020000080400000806000008080000080A0000080C0000080E00000A0000000A0200000A0400000A0600000A0800000A0A00000A0C00000A0E00000C0000000C0200000C0400000C0600000C0800000C0
1004
A00000C0C00000C0E00000E0000000E0200000E0400000E0600000E0800000E0A00000E0C00000E0E00040000000400020004000400040006000400080004000A0004000C0004000E00040200000402020004020400040206000402080004020A0004020C0004020E000404000004040200040404000404060004040800040
1004
40A0004040C0004040E00040600000406020004060400040606000406080004060A0004060C0004060E00040800000408020004080400040806000408080004080A0004080C0004080E00040A0000040A0200040A0400040A0600040A0800040A0A00040A0C00040A0E00040C0000040C0200040C0400040C0600040C08000
1004
40C0A00040C0C00040C0E00040E0000040E0200040E0400040E0600040E0800040E0A00040E0C00040E0E00080000000800020008000400080006000800080008000A0008000C0008000E00080200000802020008020400080206000802080008020A0008020C0008020E00080400000804020008040400080406000804080
1004
008040A0008040C0008040E00080600000806020008060400080606000806080008060A0008060C0008060E00080800000808020008080400080806000808080008080A0008080C0008080E00080A0000080A0200080A0400080A0600080A0800080A0A00080A0C00080A0E00080C0000080C0200080C0400080C0600080C0
1004
800080C0A00080C0C00080C0E00080E0000080E0200080E0400080E0600080E0800080E0A00080E0C00080E0E000C0000000C0002000C0004000C0006000C0008000C000A000C000C000C000E000C0200000C0202000C0204000C0206000C0208000C020A000C020C000C020E000C0400000C0402000C0404000C0406000C0
1004
408000C040A000C040C000C040E000C0600000C0602000C0604000C0606000C0608000C060A000C060C000C060E000C0800000C0802000C0804000C0806000C0808000C080A000C080C000C080E000C0A00000C0A02000C0A04000C0A06000C0A08000C0A0A000C0A0C000C0A0E000C0C00000C0C02000C0C04000C0C06000
1004
C0C08000C0C0A000F0FBFF00A4A0A000808080000000FF0000FF000000FFFF00FF000000FF00FF00FFFF0000FFFFFF0000000000000000000000000000000000000000000000000000000000000000000000000000000000000000000000000000000000000000000000000000000000000000000000000000000000000000
1004
00000000000000000000000000000000000000000000000000000000000000000000000000000000000000000000000000000000000000000000000000000000000000000000000000000000000000000000000000000000000000000000000000000000000000000000000000000000000000000000000000000000000000
1004
000000000000000000000000000000000000000000000000000000000000000000000000000000000000000000000000000000FFFF0000000000000000000000000000000000000000000000000000000000000000FFFFFFFF0000000000000000000000000000000000000000000000000000000000000000FFFFFFFF0000
1004
000000000000000000000000000000000000000000000000000000000000FFFFFF0000000000000000000000000000000000000000000000000000000000000000FFFFFFFF0000000000000000000000000000000000000000000000000000000000000000FFFFFF0000000000000000000000000000000000000000000000
1004
000000000000000000FFFFFFFF0000000000000000000000000000000000000000000000000000000000000000FFFFFFFF00000000FFFFFFFFFFFFFFFFFFFFFFFFFFFFFFFFFFFFFFFFFFFFFFFFFFFFFFFFFFFF00000000000000000000000000000000000000000000000000FFFFFFFF000000000000000000000000000000
1004
000000000000000000FFFFFFFF000000000000000000000000000000000000000000000000FFFFFFFF000000000000000000000000000000000000000000000000FFFFFFFF000000000000000000000000000000000000000000000000FFFFFFFF000000000000000000000000000000000000000000000000FFFFFFFF0000
1004
0000000000000000000000000000000000000000000000FFFFFF0000000000000000000000000000000000000000000000000000000000000000000000000000000000000000000000000000000000000000000000000000000000000000000000000000000000000000000000000000000000000000000000000000000000
1004
00000000000000000000000000000000000000000000000000000000000000000000000000000000000000000000000000000000000000000000000000000000000000000000000000000000000000000000000000000000000000000000000000000000000000000000000000000000000000000000000000000000000000
1004
0000000000000000000000000000000000000000000000000000000000000000000000000000000000000000000000000000000000000000
  0
ENDTAB
  0
ENDSEC
  0
SECTION
  2
BLOCKS
  0
BLOCK
  5
D
330
A
100
AcDbEntity
  8
0
100
AcDbBlockBegin
  2
*MODEL_SPACE
 70
     0
 10
0.0
 20
0.0
 30
0.0
  3
*MODEL_SPACE
  1

  0
ENDBLK
  5
E
330
A
100
AcDbEntity
  8
0
100
AcDbBlockEnd
  0
BLOCK
  5
F
330
B
100
AcDbEntity
 67
     1
  8
0
100
AcDbBlockBegin
  2
*PAPER_SPACE
 70
     0
 10
0.0
 20
0.0
 30
0.0
  3
*PAPER_SPACE
  1

  0
ENDBLK
  5
10
330
B
100
AcDbEntity
 67
     1
  8
0
100
AcDbBlockEnd
  0
BLOCK
  5
66C
330
662
100
AcDbEntity
  8
0
100
AcDbBlockBegin
  2
*D0
 70
     1
 10
0.0
 20
0.0
 30
0.0
  3
*D0
  1

  0
LINE
  5
14A0
330
662
100
AcDbEntity
  8
SUNPOU
100
AcDbLine
 10
116.6725055395152
 20
251.0094339622642
 30
0.0
 11
116.6725055395152
 21
575.6413888982936
 31
0.0
  0
LINE
  5
14A1
330
662
100
AcDbEntity
  8
SUNPOU
100
AcDbLine
 10
316.6725055395152
 20
559.0094339622642
 30
0.0
 11
316.6725055395152
 21
575.6413888982936
 31
0.0
  0
LINE
  5
14A2
330
662
100
AcDbEntity
  8
SUNPOU
100
AcDbLine
 10
121.6725055395152
 20
573.6413888982935
 30
0.0
 11
311.6725055395152
 21
573.6413888982935
 31
0.0
  0
INSERT
  5
14A3
330
662
100
AcDbEntity
  8
SUNPOU
100
AcDbBlockReference
  2
_OPEN30
 10
116.6725055395152
 20
573.6413888982935
 30
0.0
 41
5.0
 42
5.0
 43
5.0
 50
180.0
  0
INSERT
  5
14A4
330
662
100
AcDbEntity
  8
SUNPOU
100
AcDbBlockReference
  2
_OPEN30
 10
316.6725055395152
 20
573.6413888982935
 30
0.0
 41
5.0
 42
5.0
 43
5.0
  0
MTEXT
  5
14A5
330
662
100
AcDbEntity
  8
SUNPOU
100
AcDbMText
 10
216.6725055395152
 20
578.1413888982934
 30
0.0
 40
5.0
 41
0.0
 71
     5
 72
     1
  1
\A1;200
  7
SUNPOU
1001
ACAD
1000
MTEXTBEGIN
1070
    73
1070
     1
1070
    44
1040
1.0
1070
    74
1070
     0
1000
MTEXTEND
1000
MTEXTBEGIN
1070
    73
1070
     1
1070
    44
1040
1.0
1070
    74
1070
     0
1000
MTEXTEND
  0
POINT
  5
14A6
330
662
100
AcDbEntity
  8
DEFPOINTS
 62
     0
100
AcDbPoint
 10
116.6725055395152
 20
248.009433962264
 30
0.0
  0
POINT
  5
14A7
330
662
100
AcDbEntity
  8
DEFPOINTS
 62
     0
100
AcDbPoint
 10
316.6725055395152
 20
556.0094339622642
 30
0.0
  0
POINT
  5
14A8
330
662
100
AcDbEntity
  8
DEFPOINTS
 62
     0
100
AcDbPoint
 10
316.6725055395152
 20
573.6413888982935
 30
0.0
  0
ENDBLK
  5
66D
330
662
100
AcDbEntity
  8
0
100
AcDbBlockEnd
  0
BLOCK
  5
679
330
66F
100
AcDbEntity
  8
0
100
AcDbBlockBegin
  2
*D1
 70
     1
 10
0.0
 20
0.0
 30
0.0
  3
*D1
  1

  0
LINE
  5
1497
330
66F
100
AcDbEntity
  8
SUNPOU
100
AcDbLine
 10
121.6725055395152
 20
541.0094339622641
 30
0.0
 11
121.6725055395152
 21
564.8431257617821
 31
0.0
  0
LINE
  5
1498
330
66F
100
AcDbEntity
  8
SUNPOU
100
AcDbLine
 10
289.6725055395151
 20
559.0094339622639
 30
0.0
 11
289.6725055395151
 21
564.8431257617821
 31
0.0
  0
LINE
  5
1499
330
66F
100
AcDbEntity
  8
SUNPOU
100
AcDbLine
 10
126.6725055395152
 20
562.8431257617823
 30
0.0
 11
284.6725055395152
 21
562.8431257617823
 31
0.0
  0
INSERT
  5
149A
330
66F
100
AcDbEntity
  8
SUNPOU
100
AcDbBlockReference
  2
_OPEN30
 10
121.6725055395152
 20
562.8431257617823
 30
0.0
 41
5.0
 42
5.0
 43
5.0
 50
180.0
  0
INSERT
  5
149B
330
66F
100
AcDbEntity
  8
SUNPOU
100
AcDbBlockReference
  2
_OPEN30
 10
289.6725055395151
 20
562.8431257617823
 30
0.0
 41
5.0
 42
5.0
 43
5.0
  0
MTEXT
  5
149C
330
66F
100
AcDbEntity
  8
SUNPOU
100
AcDbMText
 10
205.6725055395151
 20
567.3431257617822
 30
0.0
 40
5.0
 41
0.0
 71
     5
 72
     1
  1
\A1;168
  7
SUNPOU
1001
ACAD
1000
MTEXTBEGIN
1070
    73
1070
     1
1070
    44
1040
1.0
1070
    74
1070
     0
1000
MTEXTEND
1000
MTEXTBEGIN
1070
    73
1070
     1
1070
    44
1040
1.0
1070
    74
1070
     0
1000
MTEXTEND
  0
POINT
  5
149D
330
66F
100
AcDbEntity
  8
DEFPOINTS
 62
     0
100
AcDbPoint
 10
121.6725055395152
 20
538.0094339622642
 30
0.0
  0
POINT
  5
149E
330
66F
100
AcDbEntity
  8
DEFPOINTS
 62
     0
100
AcDbPoint
 10
289.6725055395151
 20
556.0094339622641
 30
0.0
  0
POINT
  5
149F
330
66F
100
AcDbEntity
  8
DEFPOINTS
 62
     0
100
AcDbPoint
 10
289.6725055395151
 20
562.8431257617823
 30
0.0
  0
ENDBLK
  5
67A
330
66F
100
AcDbEntity
  8
0
100
AcDbBlockEnd
  0
BLOCK
  5
697
330
68B
100
AcDbEntity
  8
0
100
AcDbBlockBegin
  2
*D2
 70
     1
 10
0.0
 20
0.0
 30
0.0
  3
*D2
  1

  0
LINE
  5
148C
330
68B
100
AcDbEntity
  8
SUNPOU
100
AcDbLine
 10
289.6725055395151
 20
559.0094339622639
 30
0.0
 11
289.6725055395151
 21
564.8431257617821
 31
0.0
  0
LINE
  5
148D
330
68B
100
AcDbEntity
  8
SUNPOU
100
AcDbLine
 10
291.6725055395152
 20
559.0094339622639
 30
0.0
 11
291.6725055395152
 21
564.8431257617821
 31
0.0
  0
LINE
  5
148E
330
68B
100
AcDbEntity
  8
SUNPOU
100
AcDbLine
 10
284.6725055395152
 20
562.8431257617823
 30
0.0
 11
279.6725055395152
 21
562.8431257617823
 31
0.0
  0
LINE
  5
148F
330
68B
100
AcDbEntity
  8
SUNPOU
100
AcDbLine
 10
296.6725055395152
 20
562.8431257617823
 30
0.0
 11
301.6725055395152
 21
562.8431257617823
 31
0.0
  0
MTEXT
  5
1490
330
68B
100
AcDbEntity
  8
SUNPOU
100
AcDbMText
 10
290.6725055395152
 20
569.4374908650411
 30
0.0
 40
5.0
 41
0.0
 71
     5
 72
     1
  1
\A1;2
  7
SUNPOU
1001
ACAD
1000
MTEXTBEGIN
1070
    73
1070
     1
1070
    44
1040
1.0
1070
    74
1070
     0
1000
MTEXTEND
1000
MTEXTBEGIN
1070
    73
1070
     1
1070
    44
1040
1.0
1070
    74
1070
     0
1000
MTEXTEND
  0
LINE
  5
1491
330
68B
100
AcDbEntity
  8
SUNPOU
100
AcDbLine
 10
289.6725055395151
 20
562.8431257617823
 30
0.0
 11
291.6725055395152
 21
562.8431257617823
 31
0.0
  0
INSERT
  5
1492
330
68B
100
AcDbEntity
  8
SUNPOU
100
AcDbBlockReference
  2
_OPEN30
 10
289.6725055395151
 20
562.8431257617823
 30
0.0
 41
5.0
 42
5.0
 43
5.0
  0
INSERT
  5
1493
330
68B
100
AcDbEntity
  8
SUNPOU
100
AcDbBlockReference
  2
_OPEN30
 10
291.6725055395152
 20
562.8431257617823
 30
0.0
 41
5.0
 42
5.0
 43
5.0
 50
180.0
  0
POINT
  5
1494
330
68B
100
AcDbEntity
  8
DEFPOINTS
 62
     0
100
AcDbPoint
 10
289.6725055395151
 20
556.0094339622641
 30
0.0
  0
POINT
  5
1495
330
68B
100
AcDbEntity
  8
DEFPOINTS
 62
     0
100
AcDbPoint
 10
291.6725055395152
 20
556.0094339622641
 30
0.0
  0
POINT
  5
1496
330
68B
100
AcDbEntity
  8
DEFPOINTS
 62
     0
100
AcDbPoint
 10
291.6725055395152
 20
562.8431257617823
 30
0.0
  0
ENDBLK
  5
698
330
68B
100
AcDbEntity
  8
0
100
AcDbBlockEnd
  0
BLOCK
  5
6A4
330
69A
100
AcDbEntity
  8
0
100
AcDbBlockBegin
  2
*D3
 70
     1
 10
0.0
 20
0.0
 30
0.0
  3
*D3
  1

  0
LINE
  5
1483
330
69A
100
AcDbEntity
  8
SUNPOU
100
AcDbLine
 10
291.6725055395152
 20
559.0094339622639
 30
0.0
 11
291.6725055395152
 21
564.8431257617821
 31
0.0
  0
LINE
  5
1484
330
69A
100
AcDbEntity
  8
SUNPOU
100
AcDbLine
 10
316.6725055395152
 20
559.0094339622639
 30
0.0
 11
316.6725055395152
 21
564.8431257617821
 31
0.0
  0
LINE
  5
1485
330
69A
100
AcDbEntity
  8
SUNPOU
100
AcDbLine
 10
296.6725055395152
 20
562.8431257617823
 30
0.0
 11
311.6725055395152
 21
562.8431257617823
 31
0.0
  0
INSERT
  5
1486
330
69A
100
AcDbEntity
  8
SUNPOU
100
AcDbBlockReference
  2
_OPEN30
 10
291.6725055395152
 20
562.8431257617823
 30
0.0
 41
5.0
 42
5.0
 43
5.0
 50
180.0
  0
INSERT
  5
1487
330
69A
100
AcDbEntity
  8
SUNPOU
100
AcDbBlockReference
  2
_OPEN30
 10
316.6725055395152
 20
562.8431257617823
 30
0.0
 41
5.0
 42
5.0
 43
5.0
  0
MTEXT
  5
1488
330
69A
100
AcDbEntity
  8
SUNPOU
100
AcDbMText
 10
304.1725055395152
 20
567.3431257617822
 30
0.0
 40
5.0
 41
0.0
 71
     5
 72
     1
  1
\A1;25
  7
SUNPOU
1001
ACAD
1000
MTEXTBEGIN
1070
    73
1070
     1
1070
    44
1040
1.0
1070
    74
1070
     0
1000
MTEXTEND
1000
MTEXTBEGIN
1070
    73
1070
     1
1070
    44
1040
1.0
1070
    74
1070
     0
1000
MTEXTEND
  0
POINT
  5
1489
330
69A
100
AcDbEntity
  8
DEFPOINTS
 62
     0
100
AcDbPoint
 10
291.6725055395152
 20
556.0094339622641
 30
0.0
  0
POINT
  5
148A
330
69A
100
AcDbEntity
  8
DEFPOINTS
 62
     0
100
AcDbPoint
 10
316.6725055395152
 20
556.0094339622641
 30
0.0
  0
POINT
  5
148B
330
69A
100
AcDbEntity
  8
DEFPOINTS
 62
     0
100
AcDbPoint
 10
316.6725055395152
 20
562.8431257617823
 30
0.0
  0
ENDBLK
  5
6A5
330
69A
100
AcDbEntity
  8
0
100
AcDbBlockEnd
  0
BLOCK
  5
6B1
330
6A7
100
AcDbEntity
  8
0
100
AcDbBlockBegin
  2
*D4
 70
     1
 10
0.0
 20
0.0
 30
0.0
  3
*D4
  1

  0
LINE
  5
147A
330
6A7
100
AcDbEntity
  8
SUNPOU
100
AcDbLine
 10
181.1725055395151
 20
383.0094339622641
 30
0.0
 11
181.1725055395151
 21
339.0644513964538
 31
0.0
  0
LINE
  5
147B
330
6A7
100
AcDbEntity
  8
SUNPOU
100
AcDbLine
 10
246.6725055395151
 20
345.1094238235536
 30
0.0
 11
246.6725055395151
 21
339.0644513964538
 31
0.0
  0
LINE
  5
147C
330
6A7
100
AcDbEntity
  8
SUNPOU
100
AcDbLine
 10
186.1725055395151
 20
341.0644513964538
 30
0.0
 11
241.6725055395152
 21
341.0644513964538
 31
0.0
  0
MTEXT
  5
147D
330
6A7
100
AcDbEntity
  8
SUNPOU
100
AcDbMText
 10
210.95791317169
 20
345.5644513964537
 30
0.0
 40
5.0
 41
0.0
 71
     5
 72
     1
  1
\A1;65.5
  7
SUNPOU
1001
ACAD
1000
MTEXTBEGIN
1070
    73
1070
     1
1070
    44
1040
1.0
1070
    74
1070
     0
1000
MTEXTEND
1000
MTEXTBEGIN
1070
    73
1070
     1
1070
    44
1040
1.0
1070
    74
1070
     0
1000
MTEXTEND
  0
INSERT
  5
147E
330
6A7
100
AcDbEntity
  8
SUNPOU
100
AcDbBlockReference
  2
_OPEN30
 10
181.1725055395151
 20
341.0644513964538
 30
0.0
 41
5.0
 42
5.0
 43
5.0
 50
180.0
  0
INSERT
  5
147F
330
6A7
100
AcDbEntity
  8
SUNPOU
100
AcDbBlockReference
  2
_OPEN30
 10
246.6725055395151
 20
341.0644513964538
 30
0.0
 41
5.0
 42
5.0
 43
5.0
  0
POINT
  5
1480
330
6A7
100
AcDbEntity
  8
DEFPOINTS
 62
     0
100
AcDbPoint
 10
181.1725055395151
 20
386.0094339622641
 30
0.0
  0
POINT
  5
1481
330
6A7
100
AcDbEntity
  8
DEFPOINTS
 62
     0
100
AcDbPoint
 10
246.6725055395151
 20
348.1094238235537
 30
0.0
  0
POINT
  5
1482
330
6A7
100
AcDbEntity
  8
DEFPOINTS
 62
     0
100
AcDbPoint
 10
246.6725055395151
 20
341.0644513964538
 30
0.0
  0
ENDBLK
  5
6B2
330
6A7
100
AcDbEntity
  8
0
100
AcDbBlockEnd
  0
BLOCK
  5
6BE
330
6B4
100
AcDbEntity
  8
0
100
AcDbBlockBegin
  2
*D5
 70
     1
 10
0.0
 20
0.0
 30
0.0
  3
*D5
  1

  0
LINE
  5
1471
330
6B4
100
AcDbEntity
  8
SUNPOU
100
AcDbLine
 10
246.6725055395151
 20
345.1094238235536
 30
0.0
 11
246.6725055395151
 21
339.0644513964538
 31
0.0
  0
LINE
  5
1472
330
6B4
100
AcDbEntity
  8
SUNPOU
100
AcDbLine
 10
291.6725055395152
 20
365.5094339622641
 30
0.0
 11
291.6725055395152
 21
339.0644513964538
 31
0.0
  0
LINE
  5
1473
330
6B4
100
AcDbEntity
  8
SUNPOU
100
AcDbLine
 10
251.6725055395152
 20
341.0644513964538
 30
0.0
 11
286.6725055395152
 21
341.0644513964538
 31
0.0
  0
MTEXT
  5
1474
330
6B4
100
AcDbEntity
  8
SUNPOU
100
AcDbMText
 10
278.7838387563029
 20
345.5644513964537
 30
0.0
 40
5.0
 41
0.0
 71
     5
 72
     1
  1
\A1;45
  7
SUNPOU
1001
ACAD
1000
MTEXTBEGIN
1070
    73
1070
     1
1070
    44
1040
1.0
1070
    74
1070
     0
1000
MTEXTEND
1000
MTEXTBEGIN
1070
    73
1070
     1
1070
    44
1040
1.0
1070
    74
1070
     0
1000
MTEXTEND
  0
INSERT
  5
1475
330
6B4
100
AcDbEntity
  8
SUNPOU
100
AcDbBlockReference
  2
_OPEN30
 10
246.6725055395151
 20
341.0644513964538
 30
0.0
 41
5.0
 42
5.0
 43
5.0
 50
180.0
  0
INSERT
  5
1476
330
6B4
100
AcDbEntity
  8
SUNPOU
100
AcDbBlockReference
  2
_OPEN30
 10
291.6725055395152
 20
341.0644513964538
 30
0.0
 41
5.0
 42
5.0
 43
5.0
  0
POINT
  5
1477
330
6B4
100
AcDbEntity
  8
DEFPOINTS
 62
     0
100
AcDbPoint
 10
246.6725055395151
 20
348.1094238235537
 30
0.0
  0
POINT
  5
1478
330
6B4
100
AcDbEntity
  8
DEFPOINTS
 62
     0
100
AcDbPoint
 10
291.6725055395152
 20
368.509433962264
 30
0.0
  0
POINT
  5
1479
330
6B4
100
AcDbEntity
  8
DEFPOINTS
 62
     0
100
AcDbPoint
 10
291.6725055395152
 20
341.0644513964538
 30
0.0
  0
ENDBLK
  5
6BF
330
6B4
100
AcDbEntity
  8
0
100
AcDbBlockEnd
  0
BLOCK
  5
6CB
330
6C1
100
AcDbEntity
  8
0
100
AcDbBlockBegin
  2
*D6
 70
     1
 10
0.0
 20
0.0
 30
0.0
  3
*D6
  1

  0
LINE
  5
1468
330
6C1
100
AcDbEntity
  8
SUNPOU
100
AcDbLine
 10
181.1725055395151
 20
383.0094339622641
 30
0.0
 11
181.1725055395151
 21
324.0094339622641
 31
0.0
  0
LINE
  5
1469
330
6C1
100
AcDbEntity
  8
SUNPOU
100
AcDbLine
 10
221.6725055395151
 20
383.0094339622641
 30
0.0
 11
221.6725055395151
 21
324.0094339622641
 31
0.0
  0
LINE
  5
146A
330
6C1
100
AcDbEntity
  8
SUNPOU
100
AcDbLine
 10
186.1725055395151
 20
326.0094339622641
 30
0.0
 11
216.6725055395152
 21
326.0094339622641
 31
0.0
  0
INSERT
  5
146B
330
6C1
100
AcDbEntity
  8
SUNPOU
100
AcDbBlockReference
  2
_OPEN30
 10
181.1725055395151
 20
326.0094339622641
 30
0.0
 41
5.0
 42
5.0
 43
5.0
 50
180.0
  0
INSERT
  5
146C
330
6C1
100
AcDbEntity
  8
SUNPOU
100
AcDbBlockReference
  2
_OPEN30
 10
221.6725055395151
 20
326.0094339622641
 30
0.0
 41
5.0
 42
5.0
 43
5.0
  0
MTEXT
  5
146D
330
6C1
100
AcDbEntity
  8
SUNPOU
100
AcDbMText
 10
201.4225055395151
 20
330.5094339622641
 30
0.0
 40
5.0
 41
0.0
 71
     5
 72
     1
  1
\A1;40.5
  7
SUNPOU
1001
ACAD
1000
MTEXTBEGIN
1070
    73
1070
     1
1070
    44
1040
1.0
1070
    74
1070
     0
1000
MTEXTEND
1000
MTEXTBEGIN
1070
    73
1070
     1
1070
    44
1040
1.0
1070
    74
1070
     0
1000
MTEXTEND
  0
POINT
  5
146E
330
6C1
100
AcDbEntity
  8
DEFPOINTS
 62
     0
100
AcDbPoint
 10
181.1725055395151
 20
386.0094339622641
 30
0.0
  0
POINT
  5
146F
330
6C1
100
AcDbEntity
  8
DEFPOINTS
 62
     0
100
AcDbPoint
 10
221.6725055395151
 20
386.0094339622641
 30
0.0
  0
POINT
  5
1470
330
6C1
100
AcDbEntity
  8
DEFPOINTS
 62
     0
100
AcDbPoint
 10
221.6725055395151
 20
326.0094339622641
 30
0.0
  0
ENDBLK
  5
6CC
330
6C1
100
AcDbEntity
  8
0
100
AcDbBlockEnd
  0
BLOCK
  5
6DA
330
6CE
100
AcDbEntity
  8
0
100
AcDbBlockBegin
  2
*D7
 70
     1
 10
0.0
 20
0.0
 30
0.0
  3
*D7
  1

  0
LINE
  5
145D
330
6CE
100
AcDbEntity
  8
SUNPOU
100
AcDbLine
 10
116.6725055395152
 20
314.0094339622641
 30
0.0
 11
116.6725055395152
 21
313.0094339622641
 31
0.0
  0
LINE
  5
145E
330
6CE
100
AcDbEntity
  8
SUNPOU
100
AcDbLine
 10
121.6725055395152
 20
314.0094339622641
 30
0.0
 11
121.6725055395152
 21
313.0094339622641
 31
0.0
  0
LINE
  5
145F
330
6CE
100
AcDbEntity
  8
SUNPOU
100
AcDbLine
 10
111.6725055395152
 20
311.0094339622641
 30
0.0
 11
106.6725055395152
 21
311.0094339622641
 31
0.0
  0
LINE
  5
1460
330
6CE
100
AcDbEntity
  8
SUNPOU
100
AcDbLine
 10
126.6725055395152
 20
311.0094339622641
 30
0.0
 11
131.6725055395152
 21
311.0094339622641
 31
0.0
  0
MTEXT
  5
1461
330
6CE
100
AcDbEntity
  8
SUNPOU
100
AcDbMText
 10
119.1725055395152
 20
315.7546992247461
 30
0.0
 40
5.0
 41
0.0
 71
     5
 72
     1
  1
\A1;5
  7
SUNPOU
1001
ACAD
1000
MTEXTBEGIN
1070
    73
1070
     1
1070
    44
1040
1.0
1070
    74
1070
     0
1000
MTEXTEND
1000
MTEXTBEGIN
1070
    73
1070
     1
1070
    44
1040
1.0
1070
    74
1070
     0
1000
MTEXTEND
  0
LINE
  5
1462
330
6CE
100
AcDbEntity
  8
SUNPOU
100
AcDbLine
 10
116.6725055395152
 20
311.0094339622641
 30
0.0
 11
121.6725055395152
 21
311.0094339622641
 31
0.0
  0
INSERT
  5
1463
330
6CE
100
AcDbEntity
  8
SUNPOU
100
AcDbBlockReference
  2
_OPEN30
 10
116.6725055395152
 20
311.0094339622641
 30
0.0
 41
5.0
 42
5.0
 43
5.0
  0
INSERT
  5
1464
330
6CE
100
AcDbEntity
  8
SUNPOU
100
AcDbBlockReference
  2
_OPEN30
 10
121.6725055395152
 20
311.0094339622641
 30
0.0
 41
5.0
 42
5.0
 43
5.0
 50
180.0
  0
POINT
  5
1465
330
6CE
100
AcDbEntity
  8
DEFPOINTS
 62
     0
100
AcDbPoint
 10
116.6725055395152
 20
311.0094339622641
 30
0.0
  0
POINT
  5
1466
330
6CE
100
AcDbEntity
  8
DEFPOINTS
 62
     0
100
AcDbPoint
 10
121.6725055395152
 20
311.0094339622641
 30
0.0
  0
POINT
  5
1467
330
6CE
100
AcDbEntity
  8
DEFPOINTS
 62
     0
100
AcDbPoint
 10
121.6725055395152
 20
311.0094339622641
 30
0.0
  0
ENDBLK
  5
6DB
330
6CE
100
AcDbEntity
  8
0
100
AcDbBlockEnd
  0
BLOCK
  5
6E7
330
6DD
100
AcDbEntity
  8
0
100
AcDbBlockBegin
  2
*D8
 70
     1
 10
0.0
 20
0.0
 30
0.0
  3
*D8
  1

  0
LINE
  5
1454
330
6DD
100
AcDbEntity
  8
SUNPOU
100
AcDbLine
 10
121.6725055395152
 20
314.0094339622641
 30
0.0
 11
121.6725055395152
 21
313.0094339622641
 31
0.0
  0
LINE
  5
1455
330
6DD
100
AcDbEntity
  8
SUNPOU
100
AcDbLine
 10
221.6725055395151
 20
383.0094339622641
 30
0.0
 11
221.6725055395151
 21
309.0094339622641
 31
0.0
  0
LINE
  5
1456
330
6DD
100
AcDbEntity
  8
SUNPOU
100
AcDbLine
 10
126.6725055395152
 20
311.0094339622641
 30
0.0
 11
216.6725055395152
 21
311.0094339622641
 31
0.0
  0
INSERT
  5
1457
330
6DD
100
AcDbEntity
  8
SUNPOU
100
AcDbBlockReference
  2
_OPEN30
 10
121.6725055395152
 20
311.0094339622641
 30
0.0
 41
5.0
 42
5.0
 43
5.0
 50
180.0
  0
INSERT
  5
1458
330
6DD
100
AcDbEntity
  8
SUNPOU
100
AcDbBlockReference
  2
_OPEN30
 10
221.6725055395151
 20
311.0094339622641
 30
0.0
 41
5.0
 42
5.0
 43
5.0
  0
MTEXT
  5
1459
330
6DD
100
AcDbEntity
  8
SUNPOU
100
AcDbMText
 10
171.6725055395151
 20
315.5094339622641
 30
0.0
 40
5.0
 41
0.0
 71
     5
 72
     1
  1
\A1;100
  7
SUNPOU
1001
ACAD
1000
MTEXTBEGIN
1070
    73
1070
     1
1070
    44
1040
1.0
1070
    74
1070
     0
1000
MTEXTEND
1000
MTEXTBEGIN
1070
    73
1070
     1
1070
    44
1040
1.0
1070
    74
1070
     0
1000
MTEXTEND
  0
POINT
  5
145A
330
6DD
100
AcDbEntity
  8
DEFPOINTS
 62
     0
100
AcDbPoint
 10
121.6725055395152
 20
311.0094339622641
 30
0.0
  0
POINT
  5
145B
330
6DD
100
AcDbEntity
  8
DEFPOINTS
 62
     0
100
AcDbPoint
 10
221.6725055395151
 20
386.0094339622641
 30
0.0
  0
POINT
  5
145C
330
6DD
100
AcDbEntity
  8
DEFPOINTS
 62
     0
100
AcDbPoint
 10
221.6725055395151
 20
311.0094339622641
 30
0.0
  0
ENDBLK
  5
6E8
330
6DD
100
AcDbEntity
  8
0
100
AcDbBlockEnd
  0
BLOCK
  5
6F6
330
6EA
100
AcDbEntity
  8
0
100
AcDbBlockBegin
  2
*D9
 70
     1
 10
0.0
 20
0.0
 30
0.0
  3
*D9
  1

  0
LINE
  5
1449
330
6EA
100
AcDbEntity
  8
SUNPOU
100
AcDbLine
 10
221.6725055395151
 20
383.0094339622641
 30
0.0
 11
221.6725055395151
 21
309.0094339622641
 31
0.0
  0
LINE
  5
144A
330
6EA
100
AcDbEntity
  8
SUNPOU
100
AcDbLine
 10
226.6725055395152
 20
363.009433962264
 30
0.0
 11
226.6725055395152
 21
309.0094339622641
 31
0.0
  0
LINE
  5
144B
330
6EA
100
AcDbEntity
  8
SUNPOU
100
AcDbLine
 10
216.6725055395152
 20
311.0094339622641
 30
0.0
 11
211.6725055395151
 21
311.0094339622641
 31
0.0
  0
LINE
  5
144C
330
6EA
100
AcDbEntity
  8
SUNPOU
100
AcDbLine
 10
231.6725055395151
 20
311.0094339622641
 30
0.0
 11
236.6725055395151
 21
311.0094339622641
 31
0.0
  0
MTEXT
  5
144D
330
6EA
100
AcDbEntity
  8
SUNPOU
100
AcDbMText
 10
224.1725055395151
 20
315.6052039504561
 30
0.0
 40
5.0
 41
0.0
 71
     5
 72
     1
  1
\A1;5
  7
SUNPOU
1001
ACAD
1000
MTEXTBEGIN
1070
    73
1070
     1
1070
    44
1040
1.0
1070
    74
1070
     0
1000
MTEXTEND
1000
MTEXTBEGIN
1070
    73
1070
     1
1070
    44
1040
1.0
1070
    74
1070
     0
1000
MTEXTEND
  0
LINE
  5
144E
330
6EA
100
AcDbEntity
  8
SUNPOU
100
AcDbLine
 10
221.6725055395151
 20
311.0094339622641
 30
0.0
 11
226.6725055395152
 21
311.0094339622641
 31
0.0
  0
INSERT
  5
144F
330
6EA
100
AcDbEntity
  8
SUNPOU
100
AcDbBlockReference
  2
_OPEN30
 10
221.6725055395151
 20
311.0094339622641
 30
0.0
 41
5.0
 42
5.0
 43
5.0
  0
INSERT
  5
1450
330
6EA
100
AcDbEntity
  8
SUNPOU
100
AcDbBlockReference
  2
_OPEN30
 10
226.6725055395152
 20
311.0094339622641
 30
0.0
 41
5.0
 42
5.0
 43
5.0
 50
180.0
  0
POINT
  5
1451
330
6EA
100
AcDbEntity
  8
DEFPOINTS
 62
     0
100
AcDbPoint
 10
221.6725055395151
 20
386.0094339622641
 30
0.0
  0
POINT
  5
1452
330
6EA
100
AcDbEntity
  8
DEFPOINTS
 62
     0
100
AcDbPoint
 10
226.6725055395152
 20
366.0094339622641
 30
0.0
  0
POINT
  5
1453
330
6EA
100
AcDbEntity
  8
DEFPOINTS
 62
     0
100
AcDbPoint
 10
226.6725055395152
 20
311.0094339622641
 30
0.0
  0
ENDBLK
  5
6F7
330
6EA
100
AcDbEntity
  8
0
100
AcDbBlockEnd
  0
BLOCK
  5
703
330
6F9
100
AcDbEntity
  8
0
100
AcDbBlockBegin
  2
*D10
 70
     1
 10
0.0
 20
0.0
 30
0.0
  3
*D10
  1

  0
LINE
  5
1440
330
6F9
100
AcDbEntity
  8
SUNPOU
100
AcDbLine
 10
226.6725055395152
 20
363.009433962264
 30
0.0
 11
226.6725055395152
 21
309.0094339622641
 31
0.0
  0
LINE
  5
1441
330
6F9
100
AcDbEntity
  8
SUNPOU
100
AcDbLine
 10
266.6725055395152
 20
363.0094339622641
 30
0.0
 11
266.6725055395152
 21
309.0094339622641
 31
0.0
  0
LINE
  5
1442
330
6F9
100
AcDbEntity
  8
SUNPOU
100
AcDbLine
 10
231.6725055395151
 20
311.0094339622641
 30
0.0
 11
261.6725055395152
 21
311.0094339622641
 31
0.0
  0
INSERT
  5
1443
330
6F9
100
AcDbEntity
  8
SUNPOU
100
AcDbBlockReference
  2
_OPEN30
 10
226.6725055395152
 20
311.0094339622641
 30
0.0
 41
5.0
 42
5.0
 43
5.0
 50
180.0
  0
INSERT
  5
1444
330
6F9
100
AcDbEntity
  8
SUNPOU
100
AcDbBlockReference
  2
_OPEN30
 10
266.6725055395152
 20
311.0094339622641
 30
0.0
 41
5.0
 42
5.0
 43
5.0
  0
MTEXT
  5
1445
330
6F9
100
AcDbEntity
  8
SUNPOU
100
AcDbMText
 10
246.6725055395151
 20
315.5094339622641
 30
0.0
 40
5.0
 41
0.0
 71
     5
 72
     1
  1
\A1;40
  7
SUNPOU
1001
ACAD
1000
MTEXTBEGIN
1070
    73
1070
     1
1070
    44
1040
1.0
1070
    74
1070
     0
1000
MTEXTEND
1000
MTEXTBEGIN
1070
    73
1070
     1
1070
    44
1040
1.0
1070
    74
1070
     0
1000
MTEXTEND
  0
POINT
  5
1446
330
6F9
100
AcDbEntity
  8
DEFPOINTS
 62
     0
100
AcDbPoint
 10
226.6725055395152
 20
366.0094339622641
 30
0.0
  0
POINT
  5
1447
330
6F9
100
AcDbEntity
  8
DEFPOINTS
 62
     0
100
AcDbPoint
 10
266.6725055395152
 20
366.0094339622641
 30
0.0
  0
POINT
  5
1448
330
6F9
100
AcDbEntity
  8
DEFPOINTS
 62
     0
100
AcDbPoint
 10
266.6725055395152
 20
311.0094339622641
 30
0.0
  0
ENDBLK
  5
704
330
6F9
100
AcDbEntity
  8
0
100
AcDbBlockEnd
  0
BLOCK
  5
71B
330
70F
100
AcDbEntity
  8
0
100
AcDbBlockBegin
  2
*D11
 70
     1
 10
0.0
 20
0.0
 30
0.0
  3
*D11
  1

  0
LINE
  5
1435
330
70F
100
AcDbEntity
  8
SUNPOU
100
AcDbLine
 10
266.6725055395152
 20
363.0094339622641
 30
0.0
 11
266.6725055395152
 21
309.0094339622641
 31
0.0
  0
LINE
  5
1436
330
70F
100
AcDbEntity
  8
SUNPOU
100
AcDbLine
 10
271.6725055395152
 20
353.0094339622641
 30
0.0
 11
271.6725055395152
 21
309.0094339622641
 31
0.0
  0
LINE
  5
1437
330
70F
100
AcDbEntity
  8
SUNPOU
100
AcDbLine
 10
261.6725055395152
 20
311.0094339622641
 30
0.0
 11
256.6725055395152
 21
311.0094339622641
 31
0.0
  0
LINE
  5
1438
330
70F
100
AcDbEntity
  8
SUNPOU
100
AcDbLine
 10
276.6725055395152
 20
311.0094339622641
 30
0.0
 11
281.6725055395152
 21
311.0094339622641
 31
0.0
  0
MTEXT
  5
1439
330
70F
100
AcDbEntity
  8
SUNPOU
100
AcDbMText
 10
269.1725055395152
 20
315.6049532911201
 30
0.0
 40
5.0
 41
0.0
 71
     5
 72
     1
  1
\A1;5
  7
SUNPOU
1001
ACAD
1000
MTEXTBEGIN
1070
    73
1070
     1
1070
    44
1040
1.0
1070
    74
1070
     0
1000
MTEXTEND
1000
MTEXTBEGIN
1070
    73
1070
     1
1070
    44
1040
1.0
1070
    74
1070
     0
1000
MTEXTEND
  0
LINE
  5
143A
330
70F
100
AcDbEntity
  8
SUNPOU
100
AcDbLine
 10
266.6725055395152
 20
311.0094339622641
 30
0.0
 11
271.6725055395152
 21
311.0094339622641
 31
0.0
  0
INSERT
  5
143B
330
70F
100
AcDbEntity
  8
SUNPOU
100
AcDbBlockReference
  2
_OPEN30
 10
266.6725055395152
 20
311.0094339622641
 30
0.0
 41
5.0
 42
5.0
 43
5.0
  0
INSERT
  5
143C
330
70F
100
AcDbEntity
  8
SUNPOU
100
AcDbBlockReference
  2
_OPEN30
 10
271.6725055395152
 20
311.0094339622641
 30
0.0
 41
5.0
 42
5.0
 43
5.0
 50
180.0
  0
POINT
  5
143D
330
70F
100
AcDbEntity
  8
DEFPOINTS
 62
     0
100
AcDbPoint
 10
266.6725055395152
 20
366.0094339622641
 30
0.0
  0
POINT
  5
143E
330
70F
100
AcDbEntity
  8
DEFPOINTS
 62
     0
100
AcDbPoint
 10
271.6725055395152
 20
356.009433962264
 30
0.0
  0
POINT
  5
143F
330
70F
100
AcDbEntity
  8
DEFPOINTS
 62
     0
100
AcDbPoint
 10
271.6725055395152
 20
311.0094339622641
 30
0.0
  0
ENDBLK
  5
71C
330
70F
100
AcDbEntity
  8
0
100
AcDbBlockEnd
  0
BLOCK
  5
728
330
71E
100
AcDbEntity
  8
0
100
AcDbBlockBegin
  2
*D12
 70
     1
 10
0.0
 20
0.0
 30
0.0
  3
*D12
  1

  0
LINE
  5
142C
330
71E
100
AcDbEntity
  8
SUNPOU
100
AcDbLine
 10
271.6725055395152
 20
353.0094339622641
 30
0.0
 11
271.6725055395152
 21
309.0094339622641
 31
0.0
  0
LINE
  5
142D
330
71E
100
AcDbEntity
  8
SUNPOU
100
AcDbLine
 10
316.6725055395152
 20
353.0094339622641
 30
0.0
 11
316.6725055395152
 21
309.0094339622641
 31
0.0
  0
LINE
  5
142E
330
71E
100
AcDbEntity
  8
SUNPOU
100
AcDbLine
 10
276.6725055395152
 20
311.0094339622641
 30
0.0
 11
311.6725055395152
 21
311.0094339622641
 31
0.0
  0
INSERT
  5
142F
330
71E
100
AcDbEntity
  8
SUNPOU
100
AcDbBlockReference
  2
_OPEN30
 10
271.6725055395152
 20
311.0094339622641
 30
0.0
 41
5.0
 42
5.0
 43
5.0
 50
180.0
  0
INSERT
  5
1430
330
71E
100
AcDbEntity
  8
SUNPOU
100
AcDbBlockReference
  2
_OPEN30
 10
316.6725055395152
 20
311.0094339622641
 30
0.0
 41
5.0
 42
5.0
 43
5.0
  0
MTEXT
  5
1431
330
71E
100
AcDbEntity
  8
SUNPOU
100
AcDbMText
 10
294.1725055395152
 20
315.5094339622641
 30
0.0
 40
5.0
 41
0.0
 71
     5
 72
     1
  1
\A1;45
  7
SUNPOU
1001
ACAD
1000
MTEXTBEGIN
1070
    73
1070
     1
1070
    44
1040
1.0
1070
    74
1070
     0
1000
MTEXTEND
1000
MTEXTBEGIN
1070
    73
1070
     1
1070
    44
1040
1.0
1070
    74
1070
     0
1000
MTEXTEND
  0
POINT
  5
1432
330
71E
100
AcDbEntity
  8
DEFPOINTS
 62
     0
100
AcDbPoint
 10
271.6725055395152
 20
356.009433962264
 30
0.0
  0
POINT
  5
1433
330
71E
100
AcDbEntity
  8
DEFPOINTS
 62
     0
100
AcDbPoint
 10
316.6725055395152
 20
356.009433962264
 30
0.0
  0
POINT
  5
1434
330
71E
100
AcDbEntity
  8
DEFPOINTS
 62
     0
100
AcDbPoint
 10
316.6725055395152
 20
311.0094339622641
 30
0.0
  0
ENDBLK
  5
729
330
71E
100
AcDbEntity
  8
0
100
AcDbBlockEnd
  0
BLOCK
  5
735
330
72B
100
AcDbEntity
  8
0
100
AcDbBlockBegin
  2
*D13
 70
     1
 10
0.0
 20
0.0
 30
0.0
  3
*D13
  1

  0
LINE
  5
1423
330
72B
100
AcDbEntity
  8
SUNPOU
100
AcDbLine
 10
116.6725055395152
 20
299.0094339622641
 30
0.0
 11
116.6725055395152
 21
298.0094339622641
 31
0.0
  0
LINE
  5
1424
330
72B
100
AcDbEntity
  8
SUNPOU
100
AcDbLine
 10
316.6725055395152
 20
353.0094339622641
 30
0.0
 11
316.6725055395152
 21
294.0094339622641
 31
0.0
  0
LINE
  5
1425
330
72B
100
AcDbEntity
  8
SUNPOU
100
AcDbLine
 10
121.6725055395152
 20
296.0094339622641
 30
0.0
 11
311.6725055395152
 21
296.0094339622641
 31
0.0
  0
MTEXT
  5
1426
330
72B
100
AcDbEntity
  8
SUNPOU
100
AcDbMText
 10
206.794794797513
 20
300.5094339622641
 30
0.0
 40
5.0
 41
0.0
 71
     5
 72
     1
  1
\A1;200
  7
SUNPOU
1001
ACAD
1000
MTEXTBEGIN
1070
    73
1070
     1
1070
    44
1040
1.0
1070
    74
1070
     0
1000
MTEXTEND
1000
MTEXTBEGIN
1070
    73
1070
     1
1070
    44
1040
1.0
1070
    74
1070
     0
1000
MTEXTEND
  0
INSERT
  5
1427
330
72B
100
AcDbEntity
  8
SUNPOU
100
AcDbBlockReference
  2
_OPEN30
 10
116.6725055395152
 20
296.0094339622641
 30
0.0
 41
5.0
 42
5.0
 43
5.0
 50
180.0
  0
INSERT
  5
1428
330
72B
100
AcDbEntity
  8
SUNPOU
100
AcDbBlockReference
  2
_OPEN30
 10
316.6725055395152
 20
296.0094339622641
 30
0.0
 41
5.0
 42
5.0
 43
5.0
  0
POINT
  5
1429
330
72B
100
AcDbEntity
  8
DEFPOINTS
 62
     0
100
AcDbPoint
 10
116.6725055395152
 20
296.0094339622641
 30
0.0
  0
POINT
  5
142A
330
72B
100
AcDbEntity
  8
DEFPOINTS
 62
     0
100
AcDbPoint
 10
316.6725055395152
 20
356.009433962264
 30
0.0
  0
POINT
  5
142B
330
72B
100
AcDbEntity
  8
DEFPOINTS
 62
     0
100
AcDbPoint
 10
316.6725055395152
 20
296.0094339622641
 30
0.0
  0
ENDBLK
  5
736
330
72B
100
AcDbEntity
  8
0
100
AcDbBlockEnd
  0
BLOCK
  5
742
330
738
100
AcDbEntity
  8
0
100
AcDbBlockBegin
  2
*D14
 70
     1
 10
0.0
 20
0.0
 30
0.0
  3
*D14
  1

  0
LINE
  5
141A
330
738
100
AcDbEntity
  8
SUNPOU
100
AcDbLine
 10
118.6725055395152
 20
356.009433962264
 30
0.0
 11
74.67250553951524
 21
356.009433962264
 31
0.0
  0
LINE
  5
141B
330
738
100
AcDbEntity
  8
SUNPOU
100
AcDbLine
 10
178.1725055395151
 20
386.0094339622641
 30
0.0
 11
74.67250553951524
 21
386.0094339622641
 31
0.0
  0
LINE
  5
141C
330
738
100
AcDbEntity
  8
SUNPOU
100
AcDbLine
 10
76.67250553951524
 20
361.0094339622641
 30
0.0
 11
76.67250553951524
 21
381.0094339622641
 31
0.0
  0
INSERT
  5
141D
330
738
100
AcDbEntity
  8
SUNPOU
100
AcDbBlockReference
  2
_OPEN30
 10
76.67250553951524
 20
356.009433962264
 30
0.0
 41
5.0
 42
5.0
 43
5.0
 50
270.0
  0
INSERT
  5
141E
330
738
100
AcDbEntity
  8
SUNPOU
100
AcDbBlockReference
  2
_OPEN30
 10
76.67250553951524
 20
386.0094339622641
 30
0.0
 41
5.0
 42
5.0
 43
5.0
 50
90.0
  0
MTEXT
  5
141F
330
738
100
AcDbEntity
  8
SUNPOU
100
AcDbMText
 10
72.17250553951519
 20
371.0094339622641
 30
0.0
 40
5.0
 41
0.0
 71
     5
 72
     1
  1
\A1;30
  7
SUNPOU
 11
0.0000000000000001
 21
1.0
 31
0.0
1001
ACAD
1000
MTEXTBEGIN
1070
    73
1070
     1
1070
    44
1040
1.0
1070
    74
1070
     0
1000
MTEXTEND
1000
MTEXTBEGIN
1070
    73
1070
     1
1070
    44
1040
1.0
1070
    74
1070
     0
1000
MTEXTEND
  0
POINT
  5
1420
330
738
100
AcDbEntity
  8
DEFPOINTS
 62
     0
100
AcDbPoint
 10
121.6725055395152
 20
356.009433962264
 30
0.0
  0
POINT
  5
1421
330
738
100
AcDbEntity
  8
DEFPOINTS
 62
     0
100
AcDbPoint
 10
181.1725055395151
 20
386.0094339622641
 30
0.0
  0
POINT
  5
1422
330
738
100
AcDbEntity
  8
DEFPOINTS
 62
     0
100
AcDbPoint
 10
76.67250553951524
 20
386.0094339622641
 30
0.0
  0
ENDBLK
  5
743
330
738
100
AcDbEntity
  8
0
100
AcDbBlockEnd
  0
BLOCK
  5
74F
330
745
100
AcDbEntity
  8
0
100
AcDbBlockBegin
  2
*D15
 70
     1
 10
0.0
 20
0.0
 30
0.0
  3
*D15
  1

  0
LINE
  5
1411
330
745
100
AcDbEntity
  8
SUNPOU
100
AcDbLine
 10
178.1725055395151
 20
386.0094339622641
 30
0.0
 11
74.67250553951524
 21
386.0094339622641
 31
0.0
  0
LINE
  5
1412
330
745
100
AcDbEntity
  8
SUNPOU
100
AcDbLine
 10
178.1725055395151
 20
521.009433962264
 30
0.0
 11
74.67250553951527
 21
521.009433962264
 31
0.0
  0
LINE
  5
1413
330
745
100
AcDbEntity
  8
SUNPOU
100
AcDbLine
 10
76.67250553951524
 20
391.0094339622641
 30
0.0
 11
76.67250553951527
 21
516.0094339622641
 31
0.0
  0
INSERT
  5
1414
330
745
100
AcDbEntity
  8
SUNPOU
100
AcDbBlockReference
  2
_OPEN30
 10
76.67250553951524
 20
386.0094339622641
 30
0.0
 41
5.0
 42
5.0
 43
5.0
 50
270.0
  0
INSERT
  5
1415
330
745
100
AcDbEntity
  8
SUNPOU
100
AcDbBlockReference
  2
_OPEN30
 10
76.67250553951527
 20
521.009433962264
 30
0.0
 41
5.0
 42
5.0
 43
5.0
 50
90.0
  0
MTEXT
  5
1416
330
745
100
AcDbEntity
  8
SUNPOU
100
AcDbMText
 10
68.00583887284851
 20
453.5094339622641
 30
0.0
 40
5.0
 41
0.0
 71
     5
 72
     1
  1
\A1;\P有効寸法　135以上
  7
SUNPOU
 11
0.0000000000000001
 21
1.0
 31
0.0
1001
ACAD
1000
MTEXTBEGIN
1070
    73
1070
     1
1070
    44
1040
1.0
1070
    74
1070
     0
1000
MTEXTEND
1000
MTEXTBEGIN
1070
    73
1070
     1
1070
    44
1040
1.0
1070
    74
1070
     0
1000
MTEXTEND
  0
POINT
  5
1417
330
745
100
AcDbEntity
  8
DEFPOINTS
 62
     0
100
AcDbPoint
 10
181.1725055395151
 20
386.0094339622641
 30
0.0
  0
POINT
  5
1418
330
745
100
AcDbEntity
  8
DEFPOINTS
 62
     0
100
AcDbPoint
 10
181.1725055395151
 20
521.009433962264
 30
0.0
  0
POINT
  5
1419
330
745
100
AcDbEntity
  8
DEFPOINTS
 62
     0
100
AcDbPoint
 10
76.67250553951527
 20
521.009433962264
 30
0.0
  0
ENDBLK
  5
750
330
745
100
AcDbEntity
  8
0
100
AcDbBlockEnd
  0
BLOCK
  5
75C
330
752
100
AcDbEntity
  8
0
100
AcDbBlockBegin
  2
*D16
 70
     1
 10
0.0
 20
0.0
 30
0.0
  3
*D16
  1

  0
LINE
  5
1408
330
752
100
AcDbEntity
  8
SUNPOU
100
AcDbLine
 10
178.1725055395151
 20
386.0094339622641
 30
0.0
 11
104.6725055395152
 21
386.0094339622641
 31
0.0
  0
LINE
  5
1409
330
752
100
AcDbEntity
  8
SUNPOU
100
AcDbLine
 10
142.3364694626719
 20
450.0093334654131
 30
0.0
 11
104.6725055395152
 21
450.0093334654131
 31
0.0
  0
LINE
  5
140A
330
752
100
AcDbEntity
  8
SUNPOU
100
AcDbLine
 10
106.6725055395152
 20
391.0094339622641
 30
0.0
 11
106.6725055395152
 21
445.0093334654131
 31
0.0
  0
INSERT
  5
140B
330
752
100
AcDbEntity
  8
SUNPOU
100
AcDbBlockReference
  2
_OPEN30
 10
106.6725055395152
 20
386.0094339622641
 30
0.0
 41
5.0
 42
5.0
 43
5.0
 50
270.0
  0
INSERT
  5
140C
330
752
100
AcDbEntity
  8
SUNPOU
100
AcDbBlockReference
  2
_OPEN30
 10
106.6725055395152
 20
450.0093334654131
 30
0.0
 41
5.0
 42
5.0
 43
5.0
 50
90.0
  0
MTEXT
  5
140D
330
752
100
AcDbEntity
  8
SUNPOU
100
AcDbMText
 10
102.1725055395151
 20
418.0093837138386
 30
0.0
 40
5.0
 41
0.0
 71
     5
 72
     1
  1
\A1;64
  7
SUNPOU
 11
0.0000000000000001
 21
1.0
 31
0.0
1001
ACAD
1000
MTEXTBEGIN
1070
    73
1070
     1
1070
    44
1040
1.0
1070
    74
1070
     0
1000
MTEXTEND
1000
MTEXTBEGIN
1070
    73
1070
     1
1070
    44
1040
1.0
1070
    74
1070
     0
1000
MTEXTEND
  0
POINT
  5
140E
330
752
100
AcDbEntity
  8
DEFPOINTS
 62
     0
100
AcDbPoint
 10
181.1725055395151
 20
386.0094339622641
 30
0.0
  0
POINT
  5
140F
330
752
100
AcDbEntity
  8
DEFPOINTS
 62
     0
100
AcDbPoint
 10
145.336469462672
 20
450.0093334654131
 30
0.0
  0
POINT
  5
1410
330
752
100
AcDbEntity
  8
DEFPOINTS
 62
     0
100
AcDbPoint
 10
106.6725055395152
 20
450.0093334654131
 30
0.0
  0
ENDBLK
  5
75D
330
752
100
AcDbEntity
  8
0
100
AcDbBlockEnd
  0
BLOCK
  5
769
330
75F
100
AcDbEntity
  8
0
100
AcDbBlockBegin
  2
*D17
 70
     1
 10
0.0
 20
0.0
 30
0.0
  3
*D17
  1

  0
LINE
  5
13FF
330
75F
100
AcDbEntity
  8
SUNPOU
100
AcDbLine
 10
142.3364694626719
 20
450.0093334654131
 30
0.0
 11
104.6725055395152
 21
450.0093334654131
 31
0.0
  0
LINE
  5
1400
330
75F
100
AcDbEntity
  8
SUNPOU
100
AcDbLine
 10
142.3364694626719
 20
495.0093334654131
 30
0.0
 11
104.6725055395152
 21
495.0093334654131
 31
0.0
  0
LINE
  5
1401
330
75F
100
AcDbEntity
  8
SUNPOU
100
AcDbLine
 10
106.6725055395152
 20
455.0093334654132
 30
0.0
 11
106.6725055395152
 21
490.0093334654131
 31
0.0
  0
INSERT
  5
1402
330
75F
100
AcDbEntity
  8
SUNPOU
100
AcDbBlockReference
  2
_OPEN30
 10
106.6725055395152
 20
450.0093334654131
 30
0.0
 41
5.0
 42
5.0
 43
5.0
 50
270.0
  0
INSERT
  5
1403
330
75F
100
AcDbEntity
  8
SUNPOU
100
AcDbBlockReference
  2
_OPEN30
 10
106.6725055395152
 20
495.0093334654131
 30
0.0
 41
5.0
 42
5.0
 43
5.0
 50
90.0
  0
MTEXT
  5
1404
330
75F
100
AcDbEntity
  8
SUNPOU
100
AcDbMText
 10
102.1725055395151
 20
472.5093334654132
 30
0.0
 40
5.0
 41
0.0
 71
     5
 72
     1
  1
\A1;45
  7
SUNPOU
 11
0.0000000000000001
 21
1.0
 31
0.0
1001
ACAD
1000
MTEXTBEGIN
1070
    73
1070
     1
1070
    44
1040
1.0
1070
    74
1070
     0
1000
MTEXTEND
1000
MTEXTBEGIN
1070
    73
1070
     1
1070
    44
1040
1.0
1070
    74
1070
     0
1000
MTEXTEND
  0
POINT
  5
1405
330
75F
100
AcDbEntity
  8
DEFPOINTS
 62
     0
100
AcDbPoint
 10
145.336469462672
 20
450.0093334654131
 30
0.0
  0
POINT
  5
1406
330
75F
100
AcDbEntity
  8
DEFPOINTS
 62
     0
100
AcDbPoint
 10
145.336469462672
 20
495.0093334654131
 30
0.0
  0
POINT
  5
1407
330
75F
100
AcDbEntity
  8
DEFPOINTS
 62
     0
100
AcDbPoint
 10
106.6725055395152
 20
495.0093334654131
 30
0.0
  0
ENDBLK
  5
76A
330
75F
100
AcDbEntity
  8
0
100
AcDbBlockEnd
  0
BLOCK
  5
776
330
76C
100
AcDbEntity
  8
0
100
AcDbBlockBegin
  2
*D18
 70
     1
 10
0.0
 20
0.0
 30
0.0
  3
*D18
  1

  0
LINE
  5
13F6
330
76C
100
AcDbEntity
  8
SUNPOU
100
AcDbLine
 10
178.1725055395151
 20
386.0094339622641
 30
0.0
 11
89.67250553951521
 21
386.0094339622641
 31
0.0
  0
LINE
  5
13F7
330
76C
100
AcDbEntity
  8
SUNPOU
100
AcDbLine
 10
180.121145660829
 20
511.0093271330329
 30
0.0
 11
89.67250553951522
 21
511.0093271330329
 31
0.0
  0
LINE
  5
13F8
330
76C
100
AcDbEntity
  8
SUNPOU
100
AcDbLine
 10
91.67250553951523
 20
391.0094339622641
 30
0.0
 11
91.67250553951523
 21
506.0093271330329
 31
0.0
  0
INSERT
  5
13F9
330
76C
100
AcDbEntity
  8
SUNPOU
100
AcDbBlockReference
  2
_OPEN30
 10
91.67250553951523
 20
386.0094339622641
 30
0.0
 41
5.0
 42
5.0
 43
5.0
 50
270.0
  0
INSERT
  5
13FA
330
76C
100
AcDbEntity
  8
SUNPOU
100
AcDbBlockReference
  2
_OPEN30
 10
91.67250553951523
 20
511.0093271330329
 30
0.0
 41
5.0
 42
5.0
 43
5.0
 50
90.0
  0
MTEXT
  5
13FB
330
76C
100
AcDbEntity
  8
SUNPOU
100
AcDbMText
 10
87.17250553951515
 20
448.5093805476487
 30
0.0
 40
5.0
 41
0.0
 71
     5
 72
     1
  1
\A1;125
  7
SUNPOU
 11
0.0000000000000001
 21
1.0
 31
0.0
1001
ACAD
1000
MTEXTBEGIN
1070
    73
1070
     1
1070
    44
1040
1.0
1070
    74
1070
     0
1000
MTEXTEND
1000
MTEXTBEGIN
1070
    73
1070
     1
1070
    44
1040
1.0
1070
    74
1070
     0
1000
MTEXTEND
  0
POINT
  5
13FC
330
76C
100
AcDbEntity
  8
DEFPOINTS
 62
     0
100
AcDbPoint
 10
181.1725055395151
 20
386.0094339622641
 30
0.0
  0
POINT
  5
13FD
330
76C
100
AcDbEntity
  8
DEFPOINTS
 62
     0
100
AcDbPoint
 10
183.121145660829
 20
511.0093271330329
 30
0.0
  0
POINT
  5
13FE
330
76C
100
AcDbEntity
  8
DEFPOINTS
 62
     0
100
AcDbPoint
 10
91.67250553951523
 20
511.0093271330329
 30
0.0
  0
ENDBLK
  5
777
330
76C
100
AcDbEntity
  8
0
100
AcDbBlockEnd
  0
BLOCK
  5
783
330
779
100
AcDbEntity
  8
0
100
AcDbBlockBegin
  2
*D19
 70
     1
 10
0.0
 20
0.0
 30
0.0
  3
*D19
  1

  0
LINE
  5
13ED
330
779
100
AcDbEntity
  8
SUNPOU
100
AcDbLine
 10
218.6725055395152
 20
161.7363731656183
 30
0.0
 11
104.6725055395152
 21
161.7363731656183
 31
0.0
  0
LINE
  5
13EE
330
779
100
AcDbEntity
  8
SUNPOU
100
AcDbLine
 10
153.7465641271371
 20
227.009433962264
 30
0.0
 11
104.6725055395152
 21
227.009433962264
 31
0.0
  0
LINE
  5
13EF
330
779
100
AcDbEntity
  8
SUNPOU
100
AcDbLine
 10
106.6725055395152
 20
166.7363731656184
 30
0.0
 11
106.6725055395152
 21
222.0094339622642
 31
0.0
  0
INSERT
  5
13F0
330
779
100
AcDbEntity
  8
SUNPOU
100
AcDbBlockReference
  2
_OPEN30
 10
106.6725055395152
 20
161.7363731656183
 30
0.0
 41
5.0
 42
5.0
 43
5.0
 50
270.0
  0
INSERT
  5
13F1
330
779
100
AcDbEntity
  8
SUNPOU
100
AcDbBlockReference
  2
_OPEN30
 10
106.6725055395152
 20
227.009433962264
 30
0.0
 41
5.0
 42
5.0
 43
5.0
 50
90.0
  0
MTEXT
  5
13F2
330
779
100
AcDbEntity
  8
SUNPOU
100
AcDbMText
 10
102.1725055395152
 20
194.3729035639413
 30
0.0
 40
5.0
 41
0.0
 71
     5
 72
     1
  1
\A1;600
  7
SUNPOU
 11
0.0000000000000001
 21
1.0
 31
0.0
1001
ACAD
1000
MTEXTBEGIN
1070
    73
1070
     1
1070
    44
1040
1.0
1070
    74
1070
     0
1000
MTEXTEND
1000
MTEXTBEGIN
1070
    73
1070
     1
1070
    44
1040
1.0
1070
    74
1070
     0
1000
MTEXTEND
  0
POINT
  5
13F3
330
779
100
AcDbEntity
  8
DEFPOINTS
 62
     0
100
AcDbPoint
 10
221.6725055395151
 20
161.7363731656183
 30
0.0
  0
POINT
  5
13F4
330
779
100
AcDbEntity
  8
DEFPOINTS
 62
     0
100
AcDbPoint
 10
156.7465641271371
 20
227.009433962264
 30
0.0
  0
POINT
  5
13F5
330
779
100
AcDbEntity
  8
DEFPOINTS
 62
     0
100
AcDbPoint
 10
106.6725055395152
 20
227.009433962264
 30
0.0
  0
ENDBLK
  5
784
330
779
100
AcDbEntity
  8
0
100
AcDbBlockEnd
  0
BLOCK
  5
799
330
78F
100
AcDbEntity
  8
0
100
AcDbBlockBegin
  2
*D20
 70
     1
 10
0.0
 20
0.0
 30
0.0
  3
*D20
  1

  0
LINE
  5
13E4
330
78F
100
AcDbEntity
  8
SUNPOU
100
AcDbLine
 10
259.7725055395155
 20
139.7363731656183
 30
0.0
 11
302.1725055395156
 21
139.7363731656183
 31
0.0
  0
LINE
  5
13E5
330
78F
100
AcDbEntity
  8
SUNPOU
100
AcDbLine
 10
267.4225055395156
 20
164.7363731656182
 30
0.0
 11
302.1725055395156
 21
164.7363731656182
 31
0.0
  0
LINE
  5
13E6
330
78F
100
AcDbEntity
  8
SUNPOU
100
AcDbLine
 10
300.1725055395155
 20
144.7363731656183
 30
0.0
 11
300.1725055395155
 21
159.7363731656182
 31
0.0
  0
INSERT
  5
13E7
330
78F
100
AcDbEntity
  8
SUNPOU
100
AcDbBlockReference
  2
_OPEN30
 10
300.1725055395155
 20
139.7363731656183
 30
0.0
 41
5.0
 42
5.0
 43
5.0
 50
270.0
  0
INSERT
  5
13E8
330
78F
100
AcDbEntity
  8
SUNPOU
100
AcDbBlockReference
  2
_OPEN30
 10
300.1725055395155
 20
164.7363731656182
 30
0.0
 41
5.0
 42
5.0
 43
5.0
 50
90.0
  0
MTEXT
  5
13E9
330
78F
100
AcDbEntity
  8
SUNPOU
100
AcDbMText
 10
295.6725055395155
 20
152.2363731656183
 30
0.0
 40
5.0
 41
0.0
 71
     5
 72
     1
  1
\A1;25
  7
SUNPOU
 11
0.0000000000000001
 21
1.0
 31
0.0
1001
ACAD
1000
MTEXTBEGIN
1070
    73
1070
     1
1070
    44
1040
1.0
1070
    74
1070
     0
1000
MTEXTEND
1000
MTEXTBEGIN
1070
    73
1070
     1
1070
    44
1040
1.0
1070
    74
1070
     0
1000
MTEXTEND
  0
POINT
  5
13EA
330
78F
100
AcDbEntity
  8
DEFPOINTS
 62
     0
100
AcDbPoint
 10
256.7725055395155
 20
139.7363731656183
 30
0.0
  0
POINT
  5
13EB
330
78F
100
AcDbEntity
  8
DEFPOINTS
 62
     0
100
AcDbPoint
 10
264.4225055395156
 20
164.7363731656182
 30
0.0
  0
POINT
  5
13EC
330
78F
100
AcDbEntity
  8
DEFPOINTS
 62
     0
100
AcDbPoint
 10
300.1725055395155
 20
164.7363731656182
 30
0.0
  0
ENDBLK
  5
79A
330
78F
100
AcDbEntity
  8
0
100
AcDbBlockEnd
  0
BLOCK
  5
7A8
330
79C
100
AcDbEntity
  8
0
100
AcDbBlockBegin
  2
*D21
 70
     1
 10
0.0
 20
0.0
 30
0.0
  3
*D21
  1

  0
LINE
  5
13D9
330
79C
100
AcDbEntity
  8
SUNPOU
100
AcDbLine
 10
268.1725055395156
 20
161.7363731656183
 30
0.0
 11
280.635561186763
 21
161.7363731656183
 31
0.0
  0
LINE
  5
13DA
330
79C
100
AcDbEntity
  8
SUNPOU
100
AcDbLine
 10
267.4225055395156
 20
164.7363731656182
 30
0.0
 11
280.635561186763
 21
164.7363731656182
 31
0.0
  0
LINE
  5
13DB
330
79C
100
AcDbEntity
  8
SUNPOU
100
AcDbLine
 10
278.635561186763
 20
156.7363731656184
 30
0.0
 11
278.635561186763
 21
151.7363731656184
 31
0.0
  0
LINE
  5
13DC
330
79C
100
AcDbEntity
  8
SUNPOU
100
AcDbLine
 10
278.635561186763
 20
169.7363731656182
 30
0.0
 11
278.635561186763
 21
174.7363731656181
 31
0.0
  0
MTEXT
  5
13DD
330
79C
100
AcDbEntity
  8
SUNPOU
100
AcDbMText
 10
274.135561186763
 20
154.2120352810143
 30
0.0
 40
5.0
 41
0.0
 71
     5
 72
     1
  1
\A1;3
  7
SUNPOU
 11
0.0000000000000001
 21
1.0
 31
0.0
1001
ACAD
1000
MTEXTBEGIN
1070
    73
1070
     1
1070
    44
1040
1.0
1070
    74
1070
     0
1000
MTEXTEND
1000
MTEXTBEGIN
1070
    73
1070
     1
1070
    44
1040
1.0
1070
    74
1070
     0
1000
MTEXTEND
  0
LINE
  5
13DE
330
79C
100
AcDbEntity
  8
SUNPOU
100
AcDbLine
 10
278.635561186763
 20
161.7363731656183
 30
0.0
 11
278.635561186763
 21
164.7363731656182
 31
0.0
  0
INSERT
  5
13DF
330
79C
100
AcDbEntity
  8
SUNPOU
100
AcDbBlockReference
  2
_OPEN30
 10
278.635561186763
 20
161.7363731656183
 30
0.0
 41
5.0
 42
5.0
 43
5.0
 50
90.0
  0
INSERT
  5
13E0
330
79C
100
AcDbEntity
  8
SUNPOU
100
AcDbBlockReference
  2
_OPEN30
 10
278.635561186763
 20
164.7363731656182
 30
0.0
 41
5.0
 42
5.0
 43
5.0
 50
270.0
  0
POINT
  5
13E1
330
79C
100
AcDbEntity
  8
DEFPOINTS
 62
     0
100
AcDbPoint
 10
265.1725055395156
 20
161.7363731656183
 30
0.0
  0
POINT
  5
13E2
330
79C
100
AcDbEntity
  8
DEFPOINTS
 62
     0
100
AcDbPoint
 10
264.4225055395156
 20
164.7363731656182
 30
0.0
  0
POINT
  5
13E3
330
79C
100
AcDbEntity
  8
DEFPOINTS
 62
     0
100
AcDbPoint
 10
278.635561186763
 20
164.7363731656182
 30
0.0
  0
ENDBLK
  5
7A9
330
79C
100
AcDbEntity
  8
0
100
AcDbBlockEnd
  0
BLOCK
  5
7B7
330
7AB
100
AcDbEntity
  8
0
100
AcDbBlockBegin
  2
*D22
 70
     1
 10
0.0
 20
0.0
 30
0.0
  3
*D22
  1

  0
LINE
  5
13CE
330
7AB
100
AcDbEntity
  8
SUNPOU
100
AcDbLine
 10
268.1725055395156
 20
161.7363731656183
 30
0.0
 11
343.6725055395151
 21
161.7363731656183
 31
0.0
  0
LINE
  5
13CF
330
7AB
100
AcDbEntity
  8
SUNPOU
100
AcDbLine
 10
269.6725055395152
 20
171.7363731656184
 30
0.0
 11
343.6725055395151
 21
171.7363731656184
 31
0.0
  0
LINE
  5
13D0
330
7AB
100
AcDbEntity
  8
SUNPOU
100
AcDbLine
 10
341.6725055395152
 20
156.7363731656184
 30
0.0
 11
341.6725055395152
 21
151.7363731656184
 31
0.0
  0
LINE
  5
13D1
330
7AB
100
AcDbEntity
  8
SUNPOU
100
AcDbLine
 10
341.6725055395152
 20
176.7363731656184
 30
0.0
 11
341.6725055395152
 21
181.7363731656184
 31
0.0
  0
LINE
  5
13D2
330
7AB
100
AcDbEntity
  8
SUNPOU
100
AcDbLine
 10
341.6725055395152
 20
161.7363731656183
 30
0.0
 11
341.6725055395152
 21
171.7363731656184
 31
0.0
  0
INSERT
  5
13D3
330
7AB
100
AcDbEntity
  8
SUNPOU
100
AcDbBlockReference
  2
_OPEN30
 10
341.6725055395152
 20
161.7363731656183
 30
0.0
 41
5.0
 42
5.0
 43
5.0
 50
90.0
  0
INSERT
  5
13D4
330
7AB
100
AcDbEntity
  8
SUNPOU
100
AcDbBlockReference
  2
_OPEN30
 10
341.6725055395152
 20
171.7363731656184
 30
0.0
 41
5.0
 42
5.0
 43
5.0
 50
270.0
  0
MTEXT
  5
13D5
330
7AB
100
AcDbEntity
  8
SUNPOU
100
AcDbMText
 10
337.1725055395151
 20
166.7363731656184
 30
0.0
 40
5.0
 41
0.0
 71
     5
 72
     1
  1
\A1;10
  7
SUNPOU
 11
0.0000000000000001
 21
1.0
 31
0.0
1001
ACAD
1000
MTEXTBEGIN
1070
    73
1070
     1
1070
    44
1040
1.0
1070
    74
1070
     0
1000
MTEXTEND
1000
MTEXTBEGIN
1070
    73
1070
     1
1070
    44
1040
1.0
1070
    74
1070
     0
1000
MTEXTEND
  0
POINT
  5
13D6
330
7AB
100
AcDbEntity
  8
DEFPOINTS
 62
     0
100
AcDbPoint
 10
265.1725055395156
 20
161.7363731656183
 30
0.0
  0
POINT
  5
13D7
330
7AB
100
AcDbEntity
  8
DEFPOINTS
 62
     0
100
AcDbPoint
 10
266.6725055395152
 20
171.7363731656184
 30
0.0
  0
POINT
  5
13D8
330
7AB
100
AcDbEntity
  8
DEFPOINTS
 62
     0
100
AcDbPoint
 10
341.6725055395152
 20
171.7363731656184
 30
0.0
  0
ENDBLK
  5
7B8
330
7AB
100
AcDbEntity
  8
0
100
AcDbBlockEnd
  0
BLOCK
  5
7C4
330
7BA
100
AcDbEntity
  8
0
100
AcDbBlockBegin
  2
*D23
 70
     1
 10
0.0
 20
0.0
 30
0.0
  3
*D23
  1

  0
LINE
  5
13C5
330
7BA
100
AcDbEntity
  8
SUNPOU
100
AcDbLine
 10
269.6725055395152
 20
171.7363731656184
 30
0.0
 11
343.6725055395151
 21
171.7363731656184
 31
0.0
  0
LINE
  5
13C6
330
7BA
100
AcDbEntity
  8
SUNPOU
100
AcDbLine
 10
319.6725055395152
 20
356.009433962264
 30
0.0
 11
343.6725055395151
 21
356.009433962264
 31
0.0
  0
LINE
  5
13C7
330
7BA
100
AcDbEntity
  8
SUNPOU
100
AcDbLine
 10
341.6725055395152
 20
176.7363731656184
 30
0.0
 11
341.6725055395152
 21
351.0094339622641
 31
0.0
  0
INSERT
  5
13C8
330
7BA
100
AcDbEntity
  8
SUNPOU
100
AcDbBlockReference
  2
_OPEN30
 10
341.6725055395152
 20
171.7363731656184
 30
0.0
 41
5.0
 42
5.0
 43
5.0
 50
270.0
  0
INSERT
  5
13C9
330
7BA
100
AcDbEntity
  8
SUNPOU
100
AcDbBlockReference
  2
_OPEN30
 10
341.6725055395152
 20
356.009433962264
 30
0.0
 41
5.0
 42
5.0
 43
5.0
 50
90.0
  0
MTEXT
  5
13CA
330
7BA
100
AcDbEntity
  8
SUNPOU
100
AcDbMText
 10
337.1725055395151
 20
263.8729035639412
 30
0.0
 40
5.0
 41
0.0
 71
     5
 72
     1
  1
\A1;DH
  7
SUNPOU
 11
0.0000000000000001
 21
1.0
 31
0.0
1001
ACAD
1000
MTEXTBEGIN
1070
    73
1070
     1
1070
    44
1040
1.0
1070
    74
1070
     0
1000
MTEXTEND
1000
MTEXTBEGIN
1070
    73
1070
     1
1070
    44
1040
1.0
1070
    74
1070
     0
1000
MTEXTEND
  0
POINT
  5
13CB
330
7BA
100
AcDbEntity
  8
DEFPOINTS
 62
     0
100
AcDbPoint
 10
266.6725055395152
 20
171.7363731656184
 30
0.0
  0
POINT
  5
13CC
330
7BA
100
AcDbEntity
  8
DEFPOINTS
 62
     0
100
AcDbPoint
 10
316.6725055395152
 20
356.009433962264
 30
0.0
  0
POINT
  5
13CD
330
7BA
100
AcDbEntity
  8
DEFPOINTS
 62
     0
100
AcDbPoint
 10
341.6725055395152
 20
356.009433962264
 30
0.0
  0
ENDBLK
  5
7C5
330
7BA
100
AcDbEntity
  8
0
100
AcDbBlockEnd
  0
BLOCK
  5
7D3
330
7C7
100
AcDbEntity
  8
0
100
AcDbBlockBegin
  2
*D24
 70
     1
 10
0.0
 20
0.0
 30
0.0
  3
*D24
  1

  0
LINE
  5
13BA
330
7C7
100
AcDbEntity
  8
SUNPOU
100
AcDbLine
 10
319.6725055395152
 20
356.009433962264
 30
0.0
 11
343.6725055395151
 21
356.009433962264
 31
0.0
  0
LINE
  5
13BB
330
7C7
100
AcDbEntity
  8
SUNPOU
100
AcDbLine
 10
269.6725055395152
 20
366.0094339622641
 30
0.0
 11
343.6725055395151
 21
366.0094339622641
 31
0.0
  0
LINE
  5
13BC
330
7C7
100
AcDbEntity
  8
SUNPOU
100
AcDbLine
 10
341.6725055395152
 20
351.0094339622641
 30
0.0
 11
341.6725055395152
 21
346.009433962264
 31
0.0
  0
LINE
  5
13BD
330
7C7
100
AcDbEntity
  8
SUNPOU
100
AcDbLine
 10
341.6725055395152
 20
371.0094339622641
 30
0.0
 11
341.6725055395152
 21
376.0094339622641
 31
0.0
  0
LINE
  5
13BE
330
7C7
100
AcDbEntity
  8
SUNPOU
100
AcDbLine
 10
341.6725055395152
 20
356.009433962264
 30
0.0
 11
341.6725055395152
 21
366.0094339622641
 31
0.0
  0
INSERT
  5
13BF
330
7C7
100
AcDbEntity
  8
SUNPOU
100
AcDbBlockReference
  2
_OPEN30
 10
341.6725055395152
 20
356.009433962264
 30
0.0
 41
5.0
 42
5.0
 43
5.0
 50
90.0
  0
INSERT
  5
13C0
330
7C7
100
AcDbEntity
  8
SUNPOU
100
AcDbBlockReference
  2
_OPEN30
 10
341.6725055395152
 20
366.0094339622641
 30
0.0
 41
5.0
 42
5.0
 43
5.0
 50
270.0
  0
MTEXT
  5
13C1
330
7C7
100
AcDbEntity
  8
SUNPOU
100
AcDbMText
 10
337.1725055395151
 20
361.0094339622641
 30
0.0
 40
5.0
 41
0.0
 71
     5
 72
     1
  1
\A1;10
  7
SUNPOU
 11
0.0000000000000001
 21
1.0
 31
0.0
1001
ACAD
1000
MTEXTBEGIN
1070
    73
1070
     1
1070
    44
1040
1.0
1070
    74
1070
     0
1000
MTEXTEND
1000
MTEXTBEGIN
1070
    73
1070
     1
1070
    44
1040
1.0
1070
    74
1070
     0
1000
MTEXTEND
  0
POINT
  5
13C2
330
7C7
100
AcDbEntity
  8
DEFPOINTS
 62
     0
100
AcDbPoint
 10
316.6725055395152
 20
356.009433962264
 30
0.0
  0
POINT
  5
13C3
330
7C7
100
AcDbEntity
  8
DEFPOINTS
 62
     0
100
AcDbPoint
 10
266.6725055395152
 20
366.0094339622641
 30
0.0
  0
POINT
  5
13C4
330
7C7
100
AcDbEntity
  8
DEFPOINTS
 62
     0
100
AcDbPoint
 10
341.6725055395152
 20
366.0094339622641
 30
0.0
  0
ENDBLK
  5
7D4
330
7C7
100
AcDbEntity
  8
0
100
AcDbBlockEnd
  0
BLOCK
  5
7E0
330
7D6
100
AcDbEntity
  8
0
100
AcDbBlockBegin
  2
*D25
 70
     1
 10
0.0
 20
0.0
 30
0.0
  3
*D25
  1

  0
LINE
  5
13B1
330
7D6
100
AcDbEntity
  8
SUNPOU
100
AcDbLine
 10
268.1725055395156
 20
161.7363731656183
 30
0.0
 11
358.6725055395151
 21
161.7363731656183
 31
0.0
  0
LINE
  5
13B2
330
7D6
100
AcDbEntity
  8
SUNPOU
100
AcDbLine
 10
319.6725055395152
 20
356.009433962264
 30
0.0
 11
358.6725055395151
 21
356.009433962264
 31
0.0
  0
LINE
  5
13B3
330
7D6
100
AcDbEntity
  8
SUNPOU
100
AcDbLine
 10
356.6725055395151
 20
166.7363731656184
 30
0.0
 11
356.6725055395151
 21
351.0094339622641
 31
0.0
  0
INSERT
  5
13B4
330
7D6
100
AcDbEntity
  8
SUNPOU
100
AcDbBlockReference
  2
_OPEN30
 10
356.6725055395151
 20
161.7363731656183
 30
0.0
 41
5.0
 42
5.0
 43
5.0
 50
270.0
  0
INSERT
  5
13B5
330
7D6
100
AcDbEntity
  8
SUNPOU
100
AcDbBlockReference
  2
_OPEN30
 10
356.6725055395151
 20
356.009433962264
 30
0.0
 41
5.0
 42
5.0
 43
5.0
 50
90.0
  0
MTEXT
  5
13B6
330
7D6
100
AcDbEntity
  8
SUNPOU
100
AcDbMText
 10
352.1725055395151
 20
258.8729035639413
 30
0.0
 40
5.0
 41
0.0
 71
     5
 72
     1
  1
\A1;H
  7
SUNPOU
 11
0.0000000000000001
 21
1.0
 31
0.0
1001
ACAD
1000
MTEXTBEGIN
1070
    73
1070
     1
1070
    44
1040
1.0
1070
    74
1070
     0
1000
MTEXTEND
1000
MTEXTBEGIN
1070
    73
1070
     1
1070
    44
1040
1.0
1070
    74
1070
     0
1000
MTEXTEND
  0
POINT
  5
13B7
330
7D6
100
AcDbEntity
  8
DEFPOINTS
 62
     0
100
AcDbPoint
 10
265.1725055395156
 20
161.7363731656183
 30
0.0
  0
POINT
  5
13B8
330
7D6
100
AcDbEntity
  8
DEFPOINTS
 62
     0
100
AcDbPoint
 10
316.6725055395152
 20
356.009433962264
 30
0.0
  0
POINT
  5
13B9
330
7D6
100
AcDbEntity
  8
DEFPOINTS
 62
     0
100
AcDbPoint
 10
356.6725055395151
 20
356.009433962264
 30
0.0
  0
ENDBLK
  5
7E1
330
7D6
100
AcDbEntity
  8
0
100
AcDbBlockEnd
  0
BLOCK
  5
7ED
330
7E3
100
AcDbEntity
  8
0
100
AcDbBlockBegin
  2
*D26
 70
     1
 10
0.0
 20
0.0
 30
0.0
  3
*D26
  1

  0
LINE
  5
13A8
330
7E3
100
AcDbEntity
  8
SUNPOU
100
AcDbLine
 10
319.6725055395152
 20
356.009433962264
 30
0.0
 11
358.6725055395151
 21
356.009433962264
 31
0.0
  0
LINE
  5
13A9
330
7E3
100
AcDbEntity
  8
SUNPOU
100
AcDbLine
 10
319.6725055395152
 20
556.0094339622641
 30
0.0
 11
358.6725055395151
 21
556.0094339622641
 31
0.0
  0
LINE
  5
13AA
330
7E3
100
AcDbEntity
  8
SUNPOU
100
AcDbLine
 10
356.6725055395151
 20
361.0094339622641
 30
0.0
 11
356.6725055395151
 21
551.0094339622639
 31
0.0
  0
INSERT
  5
13AB
330
7E3
100
AcDbEntity
  8
SUNPOU
100
AcDbBlockReference
  2
_OPEN30
 10
356.6725055395151
 20
356.009433962264
 30
0.0
 41
5.0
 42
5.0
 43
5.0
 50
270.0
  0
INSERT
  5
13AC
330
7E3
100
AcDbEntity
  8
SUNPOU
100
AcDbBlockReference
  2
_OPEN30
 10
356.6725055395151
 20
556.0094339622641
 30
0.0
 41
5.0
 42
5.0
 43
5.0
 50
90.0
  0
MTEXT
  5
13AD
330
7E3
100
AcDbEntity
  8
SUNPOU
100
AcDbMText
 10
352.1725055395151
 20
456.0094339622641
 30
0.0
 40
5.0
 41
0.0
 71
     5
 72
     1
  1
\A1;200
  7
SUNPOU
 11
0.0000000000000001
 21
1.0
 31
0.0
1001
ACAD
1000
MTEXTBEGIN
1070
    73
1070
     1
1070
    44
1040
1.0
1070
    74
1070
     0
1000
MTEXTEND
1000
MTEXTBEGIN
1070
    73
1070
     1
1070
    44
1040
1.0
1070
    74
1070
     0
1000
MTEXTEND
  0
POINT
  5
13AE
330
7E3
100
AcDbEntity
  8
DEFPOINTS
 62
     0
100
AcDbPoint
 10
316.6725055395152
 20
356.009433962264
 30
0.0
  0
POINT
  5
13AF
330
7E3
100
AcDbEntity
  8
DEFPOINTS
 62
     0
100
AcDbPoint
 10
316.6725055395152
 20
556.0094339622641
 30
0.0
  0
POINT
  5
13B0
330
7E3
100
AcDbEntity
  8
DEFPOINTS
 62
     0
100
AcDbPoint
 10
356.6725055395151
 20
556.0094339622641
 30
0.0
  0
ENDBLK
  5
7EE
330
7E3
100
AcDbEntity
  8
0
100
AcDbBlockEnd
  0
BLOCK
  5
7FC
330
7F0
100
AcDbEntity
  8
0
100
AcDbBlockBegin
  2
*D27
 70
     1
 10
0.0
 20
0.0
 30
0.0
  3
*D27
  1

  0
LINE
  5
139D
330
7F0
100
AcDbEntity
  8
SUNPOU
100
AcDbLine
 10
116.6725055395152
 20
251.0094339622642
 30
0.0
 11
116.6725055395152
 21
564.8431257617821
 31
0.0
  0
LINE
  5
139E
330
7F0
100
AcDbEntity
  8
SUNPOU
100
AcDbLine
 10
121.6725055395152
 20
541.0094339622641
 30
0.0
 11
121.6725055395152
 21
564.8431257617821
 31
0.0
  0
LINE
  5
139F
330
7F0
100
AcDbEntity
  8
SUNPOU
100
AcDbLine
 10
111.6725055395152
 20
562.8431257617823
 30
0.0
 11
106.6725055395152
 21
562.8431257617823
 31
0.0
  0
LINE
  5
13A0
330
7F0
100
AcDbEntity
  8
SUNPOU
100
AcDbLine
 10
126.6725055395152
 20
562.8431257617823
 30
0.0
 11
131.6725055395152
 21
562.8431257617823
 31
0.0
  0
MTEXT
  5
13A1
330
7F0
100
AcDbEntity
  8
SUNPOU
100
AcDbMText
 10
119.1725055395152
 20
569.3009198930536
 30
0.0
 40
5.0
 41
0.0
 71
     5
 72
     1
  1
\A1;5
  7
SUNPOU
1001
ACAD
1000
MTEXTBEGIN
1070
    73
1070
     1
1070
    44
1040
1.0
1070
    74
1070
     0
1000
MTEXTEND
1000
MTEXTBEGIN
1070
    73
1070
     1
1070
    44
1040
1.0
1070
    74
1070
     0
1000
MTEXTEND
  0
LINE
  5
13A2
330
7F0
100
AcDbEntity
  8
SUNPOU
100
AcDbLine
 10
116.6725055395152
 20
562.8431257617823
 30
0.0
 11
121.6725055395152
 21
562.8431257617823
 31
0.0
  0
INSERT
  5
13A3
330
7F0
100
AcDbEntity
  8
SUNPOU
100
AcDbBlockReference
  2
_OPEN30
 10
116.6725055395152
 20
562.8431257617823
 30
0.0
 41
5.0
 42
5.0
 43
5.0
  0
INSERT
  5
13A4
330
7F0
100
AcDbEntity
  8
SUNPOU
100
AcDbBlockReference
  2
_OPEN30
 10
121.6725055395152
 20
562.8431257617823
 30
0.0
 41
5.0
 42
5.0
 43
5.0
 50
180.0
  0
POINT
  5
13A5
330
7F0
100
AcDbEntity
  8
DEFPOINTS
 62
     0
100
AcDbPoint
 10
116.6725055395152
 20
248.009433962264
 30
0.0
  0
POINT
  5
13A6
330
7F0
100
AcDbEntity
  8
DEFPOINTS
 62
     0
100
AcDbPoint
 10
121.6725055395152
 20
538.0094339622642
 30
0.0
  0
POINT
  5
13A7
330
7F0
100
AcDbEntity
  8
DEFPOINTS
 62
     0
100
AcDbPoint
 10
121.6725055395152
 20
562.8431257617823
 30
0.0
  0
ENDBLK
  5
7FD
330
7F0
100
AcDbEntity
  8
0
100
AcDbBlockEnd
  0
BLOCK
  5
D5F
330
D5B
100
AcDbEntity
  8
0
100
AcDbBlockBegin
  2
_OPEN30
 70
     0
 10
0.0
 20
0.0
 30
0.0
  3
_OPEN30
  1

  0
LINE
  5
D5C
330
D5B
100
AcDbEntity
  8
0
  6
BYBLOCK
 62
     0
100
AcDbLine
 10
-1.0
 20
0.26794919
 30
0.0
 11
0.0
 21
0.0
 31
0.0
  0
LINE
  5
D5D
330
D5B
100
AcDbEntity
  8
0
  6
BYBLOCK
 62
     0
100
AcDbLine
 10
0.0
 20
0.0
 30
0.0
 11
-1.0
 21
-0.26794919
 31
0.0
  0
LINE
  5
D5E
330
D5B
100
AcDbEntity
  8
0
  6
BYBLOCK
 62
     0
100
AcDbLine
 10
0.0
 20
0.0
 30
0.0
 11
-1.0
 21
0.0
 31
0.0
  0
ENDBLK
  5
D60
330
D5B
100
AcDbEntity
  8
0
100
AcDbBlockEnd
  0
ENDSEC
  0
SECTION
  2
ENTITIES
  0
LINE
  5
270
330
A
100
AcDbEntity
  8
03
100
AcDbLine
 10
131.6725055395152
 20
556.0094339622641
 30
0.0
 11
167.6725055395151
 21
556.0094339622641
 31
0.0
  0
LINE
  5
271
330
A
100
AcDbEntity
  8
03
100
AcDbLine
 10
175.6725055395151
 20
556.0094339622641
 30
0.0
 11
289.6725055395151
 21
556.0094339622641
 31
0.0
  0
LINE
  5
272
330
A
100
AcDbEntity
  8
03
100
AcDbLine
 10
291.6725055395152
 20
556.0094339622641
 30
0.0
 11
316.6725055395152
 21
556.0094339622642
 31
0.0
  0
LINE
  5
273
330
A
100
AcDbEntity
  8
03
100
AcDbLine
 10
316.6725055395152
 20
556.0094339622642
 30
0.0
 11
316.6725055395152
 21
248.009433962264
 31
0.0
  0
LINE
  5
275
330
A
100
AcDbEntity
  8
03
100
AcDbLine
 10
316.6725055395152
 20
242.009433962264
 30
0.0
 11
316.6725055395152
 21
212.0094339622641
 31
0.0
  0
LINE
  5
276
330
A
100
AcDbEntity
  8
03
100
AcDbLine
 10
316.6725055395152
 20
206.009433962264
 30
0.0
 11
316.6725055395152
 21
161.7363731656183
 31
0.0
  0
LINE
  5
277
330
A
100
AcDbEntity
  8
03
100
AcDbLine
 10
316.6725055395152
 20
356.009433962264
 30
0.0
 11
271.6725055395152
 21
356.009433962264
 31
0.0
  0
LINE
  5
278
330
A
100
AcDbEntity
  8
03
100
AcDbLine
 10
221.6725055395151
 20
356.009433962264
 30
0.0
 11
121.6725055395152
 21
356.009433962264
 31
0.0
  0
LINE
  5
279
330
A
100
AcDbEntity
  8
03
100
AcDbLine
 10
116.6725055395152
 20
161.7363731656183
 30
0.0
 11
116.6725055395152
 21
206.009433962264
 31
0.0
  0
LINE
  5
27A
330
A
100
AcDbEntity
  8
03
100
AcDbLine
 10
116.6725055395152
 20
212.0094339622641
 30
0.0
 11
116.6725055395152
 21
242.009433962264
 31
0.0
  0
LINE
  5
27B
330
A
100
AcDbEntity
  8
03
100
AcDbLine
 10
291.6725055395152
 20
556.0094339622642
 30
0.0
 11
291.6725055395152
 21
368.509433962264
 31
0.0
  0
LINE
  5
27C
330
A
100
AcDbEntity
  8
03
100
AcDbLine
 10
121.6725055395152
 20
161.7363731656183
 30
0.0
 11
121.6725055395152
 21
206.009433962264
 31
0.0
  0
LINE
  5
27D
330
A
100
AcDbEntity
  8
03
100
AcDbLine
 10
121.6725055395152
 20
212.0094339622641
 30
0.0
 11
121.6725055395152
 21
242.009433962264
 31
0.0
  0
LINE
  5
27E
330
A
100
AcDbEntity
  8
03
100
AcDbLine
 10
121.6725055395152
 20
248.009433962264
 30
0.0
 11
121.6725055395152
 21
538.0094339622642
 31
0.0
  0
LINE
  5
27F
330
A
100
AcDbEntity
  8
03
100
AcDbLine
 10
181.1725055395151
 20
386.0094339622641
 30
0.0
 11
221.6725055395151
 21
386.0094339622641
 31
0.0
  0
LINE
  5
280
330
A
100
AcDbEntity
  8
03
100
AcDbLine
 10
221.6725055395151
 20
386.0094339622641
 30
0.0
 11
221.6725055395151
 21
248.009433962264
 31
0.0
  0
LINE
  5
281
330
A
100
AcDbEntity
  8
03
100
AcDbLine
 10
181.1725055395151
 20
521.009433962264
 30
0.0
 11
181.1725055395151
 21
386.0094339622641
 31
0.0
  0
LINE
  5
282
330
A
100
AcDbEntity
  8
03
100
AcDbLine
 10
221.6725055395151
 20
531.0094339622641
 30
0.0
 11
289.6725055395151
 21
531.0094339622641
 31
0.0
  0
LINE
  5
283
330
A
100
AcDbEntity
  8
03
100
AcDbLine
 10
289.6725055395151
 20
556.0094339622641
 30
0.0
 11
289.6725055395151
 21
531.0094339622641
 31
0.0
  0
LINE
  5
284
330
A
100
AcDbEntity
  8
03
100
AcDbLine
 10
221.6725055395151
 20
521.009433962264
 30
0.0
 11
221.6725055395151
 21
543.5094339622641
 31
0.0
  0
LINE
  5
285
330
A
100
AcDbEntity
  8
03
100
AcDbLine
 10
181.1725055395151
 20
521.009433962264
 30
0.0
 11
221.6725055395151
 21
521.009433962264
 31
0.0
  0
LINE
  5
286
330
A
100
AcDbEntity
  8
03
100
AcDbLine
 10
209.1725055395151
 20
543.5094339622641
 30
0.0
 11
221.6725055395151
 21
543.5094339622641
 31
0.0
  0
LINE
  5
287
330
A
100
AcDbEntity
  8
03
100
AcDbLine
 10
209.1725055395151
 20
543.5094339622641
 30
0.0
 11
209.1725055395151
 21
556.0094339622641
 31
0.0
  0
LINE
  5
288
330
A
100
AcDbEntity
  8
03
100
AcDbLine
 10
175.6725055395151
 20
556.0094339622641
 30
0.0
 11
175.6725055395151
 21
542.0094339622639
 31
0.0
  0
LINE
  5
289
330
A
100
AcDbEntity
  8
03
100
AcDbLine
 10
167.6725055395151
 20
556.0094339622641
 30
0.0
 11
167.6725055395151
 21
542.0094339622639
 31
0.0
  0
LINE
  5
28A
330
A
100
AcDbEntity
  8
03
100
AcDbLine
 10
125.6725055395152
 20
542.0094339622642
 30
0.0
 11
175.6725055395151
 21
542.0094339622639
 31
0.0
  0
LINE
  5
28B
330
A
100
AcDbEntity
  8
03
100
AcDbLine
 10
128.6725055395152
 20
553.0094339622641
 30
0.0
 11
128.6725055395152
 21
542.0094339622642
 31
0.0
  0
LINE
  5
28C
330
A
100
AcDbEntity
  8
03
100
AcDbLine
 10
125.6725055395152
 20
542.0094339622642
 30
0.0
 11
121.6725055395152
 21
538.0094339622642
 31
0.0
  0
LINE
  5
28D
330
A
100
AcDbEntity
  8
03
100
AcDbLine
 10
131.6725055395152
 20
556.0094339622641
 30
0.0
 11
128.6725055395152
 21
553.0094339622641
 31
0.0
  0
LINE
  5
28E
330
A
100
AcDbEntity
  8
03
100
AcDbLine
 10
304.1725055395152
 20
368.509433962264
 30
0.0
 11
304.1725055395152
 21
356.009433962264
 31
0.0
  0
LINE
  5
28F
330
A
100
AcDbEntity
  8
03
100
AcDbLine
 10
291.6725055395152
 20
368.509433962264
 30
0.0
 11
304.1725055395152
 21
368.509433962264
 31
0.0
  0
LINE
  5
290
330
A
100
AcDbEntity
  8
03
100
AcDbLine
 10
271.6725055395152
 20
372.0094339622641
 30
0.0
 11
271.6725055395152
 21
356.009433962264
 31
0.0
  0
LINE
  5
291
330
A
100
AcDbEntity
  8
03
100
AcDbLine
 10
271.6725055395152
 20
372.0094339622641
 30
0.0
 11
280.6725055395152
 21
381.009433962264
 31
0.0
  0
LINE
  5
292
330
A
100
AcDbEntity
  8
03
100
AcDbLine
 10
280.6725055395152
 20
381.009433962264
 30
0.0
 11
291.6725055395152
 21
381.009433962264
 31
0.0
  0
LINE
  5
293
330
A
100
AcDbEntity
  8
03
100
AcDbLine
 10
168.6725055395151
 20
548.0094339622642
 30
0.0
 11
174.672505539515
 21
548.0094339622642
 31
0.0
  0
LINE
  5
294
330
A
100
AcDbEntity
  8
03
100
AcDbLine
 10
168.672505539515
 20
576.0094339622639
 30
0.0
 11
168.6725055395151
 21
548.0094339622642
 31
0.0
  0
LINE
  5
295
330
A
100
AcDbEntity
  8
03
100
AcDbLine
 10
174.6725055395154
 20
576.0094339622639
 30
0.0
 11
174.672505539515
 21
548.0094339622642
 31
0.0
  0
LINE
  5
296
330
A
100
AcDbEntity
  8
06
100
AcDbLine
 10
226.6725055395152
 20
366.0094339622641
 30
0.0
 11
226.6725055395152
 21
248.009433962264
 31
0.0
  0
LINE
  5
297
330
A
100
AcDbEntity
  8
06
100
AcDbLine
 10
226.6725055395152
 20
242.009433962264
 30
0.0
 11
226.6725055395152
 21
212.0094339622641
 31
0.0
  0
LINE
  5
298
330
A
100
AcDbEntity
  8
06
100
AcDbLine
 10
226.6725055395152
 20
206.009433962264
 30
0.0
 11
226.6725055395152
 21
171.7363731656184
 31
0.0
  0
LINE
  5
299
330
A
100
AcDbEntity
  8
06
100
AcDbLine
 10
266.6725055395152
 20
366.0094339622641
 30
0.0
 11
266.6725055395152
 21
248.009433962264
 31
0.0
  0
LINE
  5
29A
330
A
100
AcDbEntity
  8
06
100
AcDbLine
 10
266.6725055395152
 20
242.009433962264
 30
0.0
 11
266.6725055395152
 21
212.0094339622641
 31
0.0
  0
LINE
  5
29B
330
A
100
AcDbEntity
  8
06
100
AcDbLine
 10
266.6725055395152
 20
206.009433962264
 30
0.0
 11
266.6725055395152
 21
171.7363731656184
 31
0.0
  0
LINE
  5
29C
330
A
100
AcDbEntity
  8
06
100
AcDbLine
 10
226.6725055395152
 20
366.0094339622641
 30
0.0
 11
266.6725055395152
 21
366.0094339622641
 31
0.0
  0
LINE
  5
29D
330
A
100
AcDbEntity
  8
03
100
AcDbLine
 10
255.1725055395154
 20
163.9863731656184
 30
0.0
 11
255.1725055395154
 21
139.7363731656183
 31
0.0
  0
LINE
  5
29E
330
A
100
AcDbEntity
  8
03
100
AcDbLine
 10
265.1725055395156
 20
163.9863731656182
 30
0.0
 11
265.1725055395155
 21
154.7363731656184
 31
0.0
  0
LINE
  5
29F
330
A
100
AcDbEntity
  8
03
100
AcDbLine
 10
238.1725055395156
 20
163.9863731656184
 30
0.0
 11
238.1725055395154
 21
139.7363731656183
 31
0.0
  0
LINE
  5
2A0
330
A
100
AcDbEntity
  8
03
100
AcDbLine
 10
221.6725055395154
 20
163.9863731656184
 30
0.0
 11
221.6725055395154
 21
154.7363731656184
 31
0.0
  0
LINE
  5
2A1
330
A
100
AcDbEntity
  8
03
100
AcDbLine
 10
264.4225055395156
 20
164.7363731656182
 30
0.0
 11
255.9225055395156
 21
164.7363731656184
 31
0.0
  0
ARC
  5
2A2
330
A
100
AcDbEntity
  8
03
100
AcDbCircle
 10
255.9225055395156
 20
163.9863731656184
 30
0.0
 40
0.75
100
AcDbArc
 50
89.99999999999884
 51
179.9999999999999
  0
ARC
  5
2A3
330
A
100
AcDbEntity
  8
03
100
AcDbCircle
 10
264.4225055395156
 20
163.9863731656182
 30
0.0
 40
0.75
100
AcDbArc
 50
0.0
 51
89.9999999999996
  0
LINE
  5
2A4
330
A
100
AcDbEntity
  8
03
100
AcDbLine
 10
237.4225055395156
 20
164.7363731656183
 30
0.0
 11
222.4225055395155
 21
164.7363731656183
 31
0.0
  0
ARC
  5
2A5
330
A
100
AcDbEntity
  8
03
100
AcDbCircle
 10
237.4225055395156
 20
163.9863731656184
 30
0.0
 40
0.75
100
AcDbArc
 50
0.0
 51
90.0
  0
ARC
  5
2A6
330
A
100
AcDbEntity
  8
03
100
AcDbCircle
 10
222.4225055395155
 20
163.9863731656184
 30
0.0
 40
0.75
100
AcDbArc
 50
89.99999999999998
 51
179.9999999999999
  0
LINE
  5
2A7
330
A
100
AcDbEntity
  8
03
100
AcDbLine
 10
255.1725055395154
 20
139.7363731656183
 30
0.0
 11
238.1725055395154
 21
139.7363731656183
 31
0.0
  0
LINE
  5
2A8
330
A
100
AcDbEntity
  8
03
100
AcDbLine
 10
261.3725055395154
 20
138.2363731656184
 30
0.0
 11
225.4725055395154
 21
138.2363731656184
 31
0.0
  0
LINE
  5
2A9
330
A
100
AcDbEntity
  8
03
100
AcDbLine
 10
263.6725055395154
 20
163.2363731656184
 30
0.0
 11
263.6725055395154
 21
136.9363731656183
 31
0.0
  0
LINE
  5
2AA
330
A
100
AcDbEntity
  8
03
100
AcDbLine
 10
223.1725055395155
 20
163.2363731656184
 30
0.0
 11
223.1725055395155
 21
136.9363731656185
 31
0.0
  0
LINE
  5
2AB
330
A
100
AcDbEntity
  8
03
100
AcDbLine
 10
236.6725055395154
 20
163.2363731656184
 30
0.0
 11
236.6725055395154
 21
138.9863731656184
 31
0.0
  0
ARC
  5
2AC
330
A
100
AcDbEntity
  8
03
100
AcDbCircle
 10
237.4225055395155
 20
138.9863731656184
 30
0.0
 40
0.75
100
AcDbArc
 50
179.9999999999999
 51
270.0
  0
LINE
  5
2AD
330
A
100
AcDbEntity
  8
03
100
AcDbLine
 10
256.6725055395155
 20
163.2363731656184
 30
0.0
 11
256.6725055395155
 21
138.9863731656184
 31
0.0
  0
ARC
  5
2AE
330
A
100
AcDbEntity
  8
03
100
AcDbCircle
 10
255.9225055395155
 20
138.9863731656184
 30
0.0
 40
0.75
100
AcDbArc
 50
270.0000000000001
 51
0.0
  0
LINE
  5
2AF
330
A
100
AcDbEntity
  8
03
100
AcDbLine
 10
265.1725055395155
 20
154.7363731656184
 30
0.0
 11
263.6725055395154
 21
154.7363731656184
 31
0.0
  0
LINE
  5
2B0
330
A
100
AcDbEntity
  8
03
100
AcDbLine
 10
223.1725055395155
 20
154.7363731656184
 30
0.0
 11
221.6725055395154
 21
154.7363731656184
 31
0.0
  0
LINE
  5
2B1
330
A
100
AcDbEntity
  8
03
100
AcDbLine
 10
263.6725055395154
 20
163.2363731656184
 30
0.0
 11
256.6725055395155
 21
163.2363731656184
 31
0.0
  0
LINE
  5
2B2
330
A
100
AcDbEntity
  8
03
100
AcDbLine
 10
236.6725055395154
 20
163.2363731656184
 30
0.0
 11
223.1725055395155
 21
163.2363731656184
 31
0.0
  0
LINE
  5
2B3
330
A
100
AcDbEntity
  8
03
100
AcDbLine
 10
262.6725055395155
 20
135.9363731656183
 30
0.0
 11
224.1725055395154
 21
135.9363731656185
 31
0.0
  0
ARC
  5
2B4
330
A
100
AcDbEntity
  8
03
100
AcDbCircle
 10
224.1725055395154
 20
136.9363731656185
 30
0.0
 40
1.0
100
AcDbArc
 50
179.9999999999999
 51
270.0
  0
ARC
  5
2B5
330
A
100
AcDbEntity
  8
03
100
AcDbCircle
 10
262.6725055395155
 20
136.9363731656183
 30
0.0
 40
1.0
100
AcDbArc
 50
270.0
 51
0.0
  0
LINE
  5
2B6
330
A
100
AcDbEntity
  8
03
100
AcDbLine
 10
261.3725055395156
 20
163.2363731656184
 30
0.0
 11
261.3725055395154
 21
138.2363731656184
 31
0.0
  0
LINE
  5
2B7
330
A
100
AcDbEntity
  8
03
100
AcDbLine
 10
225.4725055395154
 20
163.2363731656184
 30
0.0
 11
225.4725055395154
 21
138.2363731656184
 31
0.0
  0
LINE
  5
2B8
330
A
100
AcDbEntity
  8
03
100
AcDbLine
 10
258.940479639536
 20
164.7363731656183
 30
0.0
 11
260.440479639536
 21
163.2363731656182
 31
0.0
  0
LINE
  5
2B9
330
A
100
AcDbEntity
  8
03
100
AcDbLine
 10
231.7837990214977
 20
164.7363731656183
 30
0.0
 11
233.2837990214975
 21
163.2363731656185
 31
0.0
  0
LINE
  5
2BA
330
A
100
AcDbEntity
  8
03
100
AcDbLine
 10
243.3340757692945
 20
139.7363731656183
 30
0.0
 11
244.8340757692946
 21
138.2363731656184
 31
0.0
  0
LINE
  5
2BB
330
A
100
AcDbEntity
  8
03
100
AcDbLine
 10
255.1725055395154
 20
152.3913834322694
 30
0.0
 11
256.6725055395156
 21
150.8913834322694
 31
0.0
  0
LINE
  5
2BC
330
A
100
AcDbEntity
  8
03
100
AcDbLine
 10
236.6725055395154
 20
152.2211655073681
 30
0.0
 11
238.1725055395154
 21
150.7211655073681
 31
0.0
  0
LINE
  5
2BD
330
A
100
AcDbEntity
  8
03
100
AcDbLine
 10
221.6725055395154
 20
158.9259605349434
 30
0.0
 11
223.1725055395155
 21
157.4259605349436
 31
0.0
  0
LINE
  5
2BE
330
A
100
AcDbEntity
  8
03
100
AcDbLine
 10
263.6725055395154
 20
159.266967951635
 30
0.0
 11
265.1725055395155
 21
157.7669679516352
 31
0.0
  0
LINE
  5
2BF
330
A
100
AcDbEntity
  8
03
100
AcDbLine
 10
263.6725055395154
 20
150.3625941178762
 30
0.0
 11
261.3725055395156
 21
152.6625941178763
 31
0.0
  0
LINE
  5
2C0
330
A
100
AcDbEntity
  8
03
100
AcDbLine
 10
263.6725055395154
 20
148.3625941178762
 30
0.0
 11
261.3725055395156
 21
150.6625941178763
 31
0.0
  0
LINE
  5
2C1
330
A
100
AcDbEntity
  8
03
100
AcDbLine
 10
252.4734008975965
 20
138.2363731656184
 30
0.0
 11
254.7734008975965
 21
135.9363731656183
 31
0.0
  0
LINE
  5
2C2
330
A
100
AcDbEntity
  8
03
100
AcDbLine
 10
232.9545367033815
 20
138.2363731656184
 30
0.0
 11
235.2545367033815
 21
135.9363731656185
 31
0.0
  0
LINE
  5
2C3
330
A
100
AcDbEntity
  8
03
100
AcDbLine
 10
223.1725055395155
 20
149.7964419857536
 30
0.0
 11
225.4725055395154
 21
147.4964419857536
 31
0.0
  0
LINE
  5
2C4
330
A
100
AcDbEntity
  8
03
100
AcDbLine
 10
250.4734008975965
 20
138.2363731656184
 30
0.0
 11
252.7734008975965
 21
135.9363731656183
 31
0.0
  0
LINE
  5
2C5
330
A
100
AcDbEntity
  8
03
100
AcDbLine
 10
230.9545367033815
 20
138.2363731656184
 30
0.0
 11
233.2545367033815
 21
135.9363731656185
 31
0.0
  0
LINE
  5
2C6
330
A
100
AcDbEntity
  8
03
100
AcDbLine
 10
223.1725055395155
 20
151.7964419857536
 30
0.0
 11
225.4725055395154
 21
149.4964419857535
 31
0.0
  0
LINE
  5
2C7
330
A
100
AcDbEntity
  8
06
100
AcDbLine
 10
226.6725055395152
 20
171.7363731656184
 30
0.0
 11
266.6725055395152
 21
171.7363731656184
 31
0.0
  0
LINE
  5
2C8
330
A
100
AcDbEntity
  8
06
100
AcDbLine
 10
233.6725055395151
 20
359.0094339622641
 30
0.0
 11
259.6725055395152
 21
359.0094339622641
 31
0.0
  0
LINE
  5
2C9
330
A
100
AcDbEntity
  8
06
100
AcDbLine
 10
233.6725055395151
 20
366.0094339622641
 30
0.0
 11
233.6725055395151
 21
359.0094339622641
 31
0.0
  0
LINE
  5
2CA
330
A
100
AcDbEntity
  8
06
100
AcDbLine
 10
259.6725055395152
 20
366.0094339622641
 30
0.0
 11
259.6725055395152
 21
359.0094339622641
 31
0.0
  0
LINE
  5
2CB
330
A
100
AcDbEntity
  8
06
100
AcDbLine
 10
233.6725055395155
 20
178.7363731656184
 30
0.0
 11
233.6725055395155
 21
171.7363731656184
 31
0.0
  0
LINE
  5
2CC
330
A
100
AcDbEntity
  8
06
100
AcDbLine
 10
259.6725055395154
 20
178.7363731656184
 30
0.0
 11
259.6725055395154
 21
171.7363731656184
 31
0.0
  0
LINE
  5
2CD
330
A
100
AcDbEntity
  8
06
100
AcDbLine
 10
233.6725055395155
 20
178.7363731656184
 30
0.0
 11
259.6725055395154
 21
178.7363731656184
 31
0.0
  0
LINE
  5
2CE
330
A
100
AcDbEntity
  8
06
100
AcDbLine
 10
239.1725055395152
 20
171.7363731656184
 30
0.0
 11
239.1725055395152
 21
146.7363731656184
 31
0.0
  0
LINE
  5
2CF
330
A
100
AcDbEntity
  8
06
100
AcDbLine
 10
254.1725055395152
 20
171.7363731656184
 30
0.0
 11
254.1725055395152
 21
146.7363731656184
 31
0.0
  0
LINE
  5
2D0
330
A
100
AcDbEntity
  8
06
100
AcDbLine
 10
239.1725055395152
 20
146.7363731656184
 30
0.0
 11
254.1725055395152
 21
146.7363731656184
 31
0.0
  0
LINE
  5
2D1
330
A
100
AcDbEntity
  8
06
100
AcDbLine
 10
254.1725055395152
 20
171.7363731656184
 30
0.0
 11
239.1725055395152
 21
146.7363731656184
 31
0.0
  0
LINE
  5
2D2
330
A
100
AcDbEntity
  8
06
100
AcDbLine
 10
239.1725055395152
 20
171.7363731656184
 30
0.0
 11
254.1725055395152
 21
146.7363731656184
 31
0.0
  0
LINE
  5
2D3
330
A
100
AcDbEntity
  8
06
100
AcDbLine
 10
226.6725055395152
 20
266.0094339622641
 30
0.0
 11
243.6725055395152
 21
266.0094339622641
 31
0.0
  0
LINE
  5
2D4
330
A
100
AcDbEntity
  8
06
100
AcDbLine
 10
249.6725055395152
 20
266.0094339622641
 30
0.0
 11
261.6725055395152
 21
266.0094339622641
 31
0.0
  0
LINE
  5
2D5
330
A
100
AcDbEntity
  8
06
100
AcDbLine
 10
243.6725055395152
 20
281.009433962264
 30
0.0
 11
266.6725055395152
 21
281.0094339622641
 31
0.0
  0
LINE
  5
2D6
330
A
100
AcDbEntity
  8
06
100
AcDbLine
 10
264.6725055395152
 20
281.0094339622641
 30
0.0
 11
264.6725055395152
 21
269.0094339622641
 31
0.0
  0
ARC
  5
2D7
330
A
100
AcDbEntity
  8
06
100
AcDbCircle
 10
261.6725055395152
 20
269.0094339622641
 30
0.0
 40
3.0
100
AcDbArc
 50
269.9999999999999
 51
0.0
  0
LINE
  5
2D8
330
A
100
AcDbEntity
  8
06
100
AcDbLine
 10
249.6725055395152
 20
266.0094339622641
 30
0.0
 11
249.6725055395152
 21
281.009433962264
 31
0.0
  0
LINE
  5
2D9
330
A
100
AcDbEntity
  8
06
100
AcDbLine
 10
243.6725055395152
 20
281.009433962264
 30
0.0
 11
243.6725055395152
 21
266.0094339622641
 31
0.0
  0
LINE
  5
2DA
330
A
100
AcDbEntity
  8
03
100
AcDbLine
 10
221.6725055395151
 20
242.009433962264
 30
0.0
 11
221.6725055395151
 21
212.0094339622641
 31
0.0
  0
LINE
  5
2DB
330
A
100
AcDbEntity
  8
03
100
AcDbLine
 10
221.6725055395151
 20
206.009433962264
 30
0.0
 11
221.6725055395151
 21
163.9863731656184
 31
0.0
  0
LINE
  5
2DC
330
A
100
AcDbEntity
  8
SAISEN
100
AcDbLine
 10
80.38709384518659
 20
161.7363731656183
 30
0.0
 11
221.6725055395151
 21
161.7363731656183
 31
0.0
  0
LINE
  5
2DD
330
A
100
AcDbEntity
  8
SAISEN
100
AcDbLine
 10
265.1725055395156
 20
161.7363731656183
 30
0.0
 11
365.6912025478717
 21
161.7363731656183
 31
0.0
  0
LINE
  5
2DE
330
A
100
AcDbEntity
  8
06
100
AcDbLine
 10
234.1725055395151
 20
380.0094309576353
 30
0.0
 11
234.1725055395151
 21
366.0094339622641
 31
0.0
  0
LINE
  5
2DF
330
A
100
AcDbEntity
  8
06
100
AcDbLine
 10
259.1725055395152
 20
380.0094549193401
 30
0.0
 11
259.1725055395152
 21
366.0094339622641
 31
0.0
  0
LINE
  5
2E0
330
A
100
AcDbEntity
  8
06
100
AcDbLine
 10
234.1725055395151
 20
376.0094339622641
 30
0.0
 11
259.1725055395152
 21
376.0094339622641
 31
0.0
  0
LINE
  5
2E1
330
A
100
AcDbEntity
  8
06
100
AcDbLine
 10
234.1725055395151
 20
377.5094339622641
 30
0.0
 11
259.1725055395152
 21
377.5094339622641
 31
0.0
  0
LINE
  5
2E2
330
A
100
AcDbEntity
  8
06
100
AcDbLine
 10
234.1725055395151
 20
379.0094339622641
 30
0.0
 11
259.1725055395152
 21
379.0094339622641
 31
0.0
  0
LINE
  5
2E3
330
A
100
AcDbEntity
  8
06
100
AcDbLine
 10
234.1725055395151
 20
376.0094339622641
 30
0.0
 11
259.1725055395152
 21
366.0094339622641
 31
0.0
  0
LINE
  5
2E4
330
A
100
AcDbEntity
  8
06
100
AcDbLine
 10
259.1725055395152
 20
376.0094339622641
 30
0.0
 11
234.1725055395151
 21
366.0094339622641
 31
0.0
  0
LINE
  5
2E5
330
A
100
AcDbEntity
  8
03
100
AcDbLine
 10
185.1725337678964
 20
498.5094339622641
 30
0.0
 11
185.1725340626354
 21
493.009433962264
 31
0.0
  0
LINE
  5
2E6
330
A
100
AcDbEntity
  8
03
100
AcDbLine
 10
185.1725340626354
 20
493.009433962264
 30
0.0
 11
185.1725341430188
 21
491.509433962264
 31
0.0
  0
LINE
  5
2E7
330
A
100
AcDbEntity
  8
03
100
AcDbLine
 10
185.1725341430188
 20
491.509433962264
 30
0.0
 11
186.0009502904193
 21
491.509434006658
 31
0.0
  0
ARC
  5
2E8
330
A
100
AcDbEntity
  8
03
100
AcDbCircle
 10
186.000950210036
 20
493.009434006658
 30
0.0
 40
1.5
100
AcDbArc
 50
270.0000030704185
 51
344.5339931169979
  0
ARC
  5
2E9
330
A
100
AcDbEntity
  8
03
100
AcDbCircle
 10
178.7725339554576
 20
495.0094336192951
 30
0.0
 40
9.0
100
AcDbArc
 50
344.5339931169979
 51
15.46601302383916
  0
ARC
  5
2EA
330
A
100
AcDbEntity
  8
03
100
AcDbCircle
 10
186.0009499956803
 20
497.0094340066578
 30
0.0
 40
1.5
100
AcDbArc
 50
15.46601302383913
 51
90.00000307041856
  0
LINE
  5
2EB
330
A
100
AcDbEntity
  8
03
100
AcDbLine
 10
186.0009499152969
 20
498.509434006658
 30
0.0
 11
185.1725337678965
 21
498.5094339622641
 31
0.0
  0
LINE
  5
2EC
330
A
100
AcDbEntity
  8
03
100
AcDbLine
 10
187.7725339554576
 20
495.0094341015953
 30
0.0
 11
186.3725339554576
 21
495.0094340265708
 31
0.0
  0
LINE
  5
2ED
330
A
100
AcDbEntity
  8
03
100
AcDbLine
 10
155.1725339822521
 20
494.5094323545967
 30
0.0
 11
155.1725339286633
 21
495.5094323545966
 31
0.0
  0
LINE
  5
2EE
330
A
100
AcDbEntity
  8
03
100
AcDbLine
 10
185.1725338482798
 20
497.009433962264
 30
0.0
 11
175.1725339554577
 21
497.0094334263749
 31
0.0
  0
LINE
  5
2EF
330
A
100
AcDbEntity
  8
03
100
AcDbLine
 10
185.1725340626354
 20
493.009433962264
 30
0.0
 11
175.1725339554575
 21
493.0094334263749
 31
0.0
  0
LINE
  5
2F0
330
A
100
AcDbEntity
  8
03
100
AcDbLine
 10
183.7725340626354
 20
493.0094338872396
 30
0.0
 11
183.7725338482798
 21
497.0094338872396
 31
0.0
  0
LINE
  5
2F1
330
A
100
AcDbEntity
  8
03
100
AcDbLine
 10
175.1725339554577
 20
497.0094334263749
 30
0.0
 11
175.1725339554575
 21
493.0094334263748
 31
0.0
  0
LINE
  5
2F2
330
A
100
AcDbEntity
  8
03
100
AcDbLine
 10
148.5058697852464
 20
495.0094321872509
 30
0.0
 11
175.1725339554577
 21
497.0094334263749
 31
0.0
  0
LINE
  5
2F3
330
A
100
AcDbEntity
  8
03
100
AcDbLine
 10
148.5058697573184
 20
495.0094318148773
 30
0.0
 11
175.1725339554575
 21
493.0094334263749
 31
0.0
  0
LINE
  5
2F4
330
A
100
AcDbEntity
  8
03
100
AcDbLine
 10
185.1725770955487
 20
453.5094339622641
 30
0.0
 11
185.1725773902876
 21
448.0094339622641
 31
0.0
  0
LINE
  5
2F5
330
A
100
AcDbEntity
  8
03
100
AcDbLine
 10
185.1725773902876
 20
448.0094339622641
 30
0.0
 11
185.172577470671
 21
446.509433962264
 31
0.0
  0
LINE
  5
2F6
330
A
100
AcDbEntity
  8
03
100
AcDbLine
 10
185.172577470671
 20
446.509433962264
 30
0.0
 11
186.0009936180715
 21
446.5094340066579
 31
0.0
  0
ARC
  5
2F7
330
A
100
AcDbEntity
  8
03
100
AcDbCircle
 10
186.0009935376881
 20
448.009434006658
 30
0.0
 40
1.5
100
AcDbArc
 50
270.0000030704185
 51
344.5339931169979
  0
ARC
  5
2F8
330
A
100
AcDbEntity
  8
03
100
AcDbCircle
 10
178.7725772831098
 20
450.0094336192951
 30
0.0
 40
9.0
100
AcDbArc
 50
344.5339931169979
 51
15.46601302383916
  0
ARC
  5
2F9
330
A
100
AcDbEntity
  8
03
100
AcDbCircle
 10
186.0009933233325
 20
452.009434006658
 30
0.0
 40
1.5
100
AcDbArc
 50
15.46601302383913
 51
90.00000307041856
  0
LINE
  5
2FA
330
A
100
AcDbEntity
  8
03
100
AcDbLine
 10
186.0009932429491
 20
453.509434006658
 30
0.0
 11
185.1725770955487
 21
453.5094339622641
 31
0.0
  0
LINE
  5
2FB
330
A
100
AcDbEntity
  8
03
100
AcDbLine
 10
187.7725772831098
 20
450.0094341015953
 30
0.0
 11
186.3725772831099
 21
450.0094340265708
 31
0.0
  0
LINE
  5
2FC
330
A
100
AcDbEntity
  8
03
100
AcDbLine
 10
155.1725773099043
 20
449.5094323545966
 30
0.0
 11
155.1725772563155
 21
450.5094323545967
 31
0.0
  0
LINE
  5
2FD
330
A
100
AcDbEntity
  8
03
100
AcDbLine
 10
185.172577175932
 20
452.0094339622641
 30
0.0
 11
175.17257728311
 21
452.009433426375
 31
0.0
  0
LINE
  5
2FE
330
A
100
AcDbEntity
  8
03
100
AcDbLine
 10
185.1725773902876
 20
448.0094339622641
 30
0.0
 11
175.1725772831098
 21
448.009433426375
 31
0.0
  0
LINE
  5
2FF
330
A
100
AcDbEntity
  8
03
100
AcDbLine
 10
183.7725773902876
 20
448.0094338872397
 30
0.0
 11
183.772577175932
 21
452.0094338872396
 31
0.0
  0
LINE
  5
300
330
A
100
AcDbEntity
  8
03
100
AcDbLine
 10
175.17257728311
 20
452.009433426375
 30
0.0
 11
175.1725772831098
 21
448.0094334263748
 31
0.0
  0
LINE
  5
301
330
A
100
AcDbEntity
  8
03
100
AcDbLine
 10
148.5059131128986
 20
450.0094321872508
 30
0.0
 11
175.17257728311
 21
452.009433426375
 31
0.0
  0
LINE
  5
302
330
A
100
AcDbEntity
  8
03
100
AcDbLine
 10
148.5059130849705
 20
450.0094318148772
 30
0.0
 11
175.1725772831098
 21
448.009433426375
 31
0.0
  0
LINE
  5
303
330
A
100
AcDbEntity
  8
SAISEN
100
AcDbLine
 10
111.6725055395152
 20
248.009433962264
 30
0.0
 11
321.6725055395152
 21
248.009433962264
 31
0.0
  0
LINE
  5
304
330
A
100
AcDbEntity
  8
SAISEN
100
AcDbLine
 10
111.6725055395152
 20
242.009433962264
 30
0.0
 11
321.6725055395152
 21
242.009433962264
 31
0.0
  0
LINE
  5
305
330
A
100
AcDbEntity
  8
SAISEN
100
AcDbLine
 10
111.6725055395152
 20
212.0094339622641
 30
0.0
 11
321.6725055395152
 21
212.0094339622641
 31
0.0
  0
LINE
  5
306
330
A
100
AcDbEntity
  8
SAISEN
100
AcDbLine
 10
111.6725055395152
 20
206.009433962264
 30
0.0
 11
321.6725055395152
 21
206.009433962264
 31
0.0
  0
LINE
  5
329
330
A
100
AcDbEntity
  8
KAKURE
100
AcDbLine
 10
221.6725055395154
 20
154.7363731656184
 30
0.0
 11
221.6725055395154
 21
136.7363731656183
 31
0.0
  0
LINE
  5
32A
330
A
100
AcDbEntity
  8
KAKURE
100
AcDbLine
 10
116.6725055395152
 20
136.7363731656183
 30
0.0
 11
316.6725055395152
 21
136.7363731656183
 31
0.0
  0
LINE
  5
32B
330
A
100
AcDbEntity
  8
KAKURE
100
AcDbLine
 10
116.6725055395152
 20
161.7363731656183
 30
0.0
 11
116.6725055395152
 21
136.7363731656183
 31
0.0
  0
LINE
  5
32C
330
A
100
AcDbEntity
  8
KAKURE
100
AcDbLine
 10
316.6725055395152
 20
161.7363731656183
 30
0.0
 11
316.6725055395152
 21
136.7363731656183
 31
0.0
  0
LINE
  5
32D
330
A
100
AcDbEntity
  8
KAKURE
100
AcDbLine
 10
121.6725055395152
 20
161.7363731656183
 30
0.0
 11
121.6725055395152
 21
136.7363731656183
 31
0.0
  0
LINE
  5
39F
330
A
100
AcDbEntity
  8
CHUSIN
100
AcDbLine
 10
290.6725055395152
 20
562.157726493061
 30
0.0
 11
290.6725055395152
 21
551.8287073132698
 31
0.0
  0
LINE
  5
3A0
330
A
100
AcDbEntity
  8
CHUSIN
 48
0.7
100
AcDbLine
 10
287.3296581038403
 20
559.0094339622639
 30
0.0
 11
294.0719681246888
 21
559.0094339622639
 31
0.0
  0
LINE
  5
3B3
330
A
100
AcDbEntity
  8
CHUSIN
100
AcDbLine
 10
257.1725055395152
 20
285.1093364998171
 30
0.0
 11
257.1725055395152
 21
259.0920761305107
 31
0.0
  0
LINE
  5
3B4
330
A
100
AcDbEntity
  8
CHUSIN
100
AcDbLine
 10
156.7465641271371
 20
227.009433962264
 30
0.0
 11
185.9800966591993
 21
227.009433962264
 31
0.0
  0
LINE
  5
3B5
330
A
100
AcDbEntity
  8
CHUSIN
100
AcDbLine
 10
213.0866265807831
 20
397.9223156119823
 30
0.0
 11
191.8844609010065
 21
361.1993522878163
 31
0.0
  0
LINE
  5
3BA
330
A
100
AcDbEntity
  8
CHUSIN
100
AcDbLine
 10
273.2296156371646
 20
475.0096864299234
 30
0.0
 11
177.1725396069395
 21
475.0098268630286
 31
0.0
  0
LINE
  5
3BC
330
A
100
AcDbEntity
  8
CHUSIN
100
AcDbLine
 10
258.672554428515
 20
512.375100488042
 30
0.0
 11
258.672554428515
 21
436.7664041301802
 31
0.0
  0
LINE
  5
3BD
330
A
100
AcDbEntity
  8
CHUSIN
100
AcDbLine
 10
256.1725055395152
 20
389.1980646543471
 30
0.0
 11
256.1725055395152
 21
375.4780818070058
 31
0.0
  0
LINE
  5
3BE
330
A
100
AcDbEntity
  8
CHUSIN
100
AcDbLine
 10
249.4428275092515
 20
445.0097602342395
 30
0.0
 11
266.9891745322551
 21
445.0097775233165
 31
0.0
  0
LINE
  5
3BF
330
A
100
AcDbEntity
  8
CHUSIN
100
AcDbLine
 10
222.438464288187
 20
421.0093799822248
 30
0.0
 11
273.8907176347868
 21
421.0093799822248
 31
0.0
  0
LINE
  5
3C0
330
A
100
AcDbEntity
  8
CHUSIN
100
AcDbLine
 10
237.6723672350249
 20
445.9027569411365
 30
0.0
 11
237.6725163133134
 21
396.1195885627731
 31
0.0
  0
LINE
  5
3C1
330
A
100
AcDbEntity
  8
03
100
AcDbLine
 10
173.6725055395149
 20
576.0094339622639
 30
0.0
 11
173.6725055395153
 21
548.0094339622642
 31
0.0
  0
LINE
  5
3C2
330
A
100
AcDbEntity
  8
03
100
AcDbLine
 10
169.6725055395151
 20
576.0094339622639
 30
0.0
 11
169.6725055395151
 21
548.0094339622642
 31
0.0
  0
CIRCLE
  5
3C3
330
A
100
AcDbEntity
  8
06
100
AcDbCircle
 10
290.6725055395152
 20
559.0094339622642
 30
0.0
 40
1.5
  0
LINE
  5
3C4
330
A
100
AcDbEntity
  8
06
100
AcDbLine
 10
234.1725055395151
 20
365.009433962264
 30
0.0
 11
234.1725055395151
 21
359.0094339622641
 31
0.0
  0
LINE
  5
3C5
330
A
100
AcDbEntity
  8
06
100
AcDbLine
 10
259.1725055395152
 20
365.009433962264
 30
0.0
 11
259.1725055395152
 21
359.0094339622641
 31
0.0
  0
LINE
  5
3C6
330
A
100
AcDbEntity
  8
06
100
AcDbLine
 10
234.1725055395151
 20
365.009433962264
 30
0.0
 11
259.1725055395152
 21
365.009433962264
 31
0.0
  0
LINE
  5
3C7
330
A
100
AcDbEntity
  8
06
100
AcDbLine
 10
257.4024605739799
 20
365.009433962264
 30
0.0
 11
251.40246057398
 21
359.0094339622641
 31
0.0
  0
LINE
  5
3C8
330
A
100
AcDbEntity
  8
06
100
AcDbLine
 10
259.1725055395152
 20
364.7794789277994
 30
0.0
 11
253.40246057398
 21
359.0094339622641
 31
0.0
  0
LINE
  5
3C9
330
A
100
AcDbEntity
  8
06
100
AcDbLine
 10
241.0866972281059
 20
365.009433962264
 30
0.0
 11
235.086697228106
 21
359.0094339622641
 31
0.0
  0
LINE
  5
3CA
330
A
100
AcDbEntity
  8
06
100
AcDbLine
 10
242.6725055395154
 20
364.5952422736737
 30
0.0
 11
237.0866972281059
 21
359.0094339622641
 31
0.0
  0
LINE
  5
3CB
330
A
100
AcDbEntity
  8
06
100
AcDbLine
 10
234.1725055395154
 20
177.7363731656184
 30
0.0
 11
234.1725055395154
 21
171.7363731656184
 31
0.0
  0
LINE
  5
3CC
330
A
100
AcDbEntity
  8
06
100
AcDbLine
 10
259.1725055395154
 20
177.7363731656184
 30
0.0
 11
259.1725055395154
 21
171.7363731656184
 31
0.0
  0
LINE
  5
3CD
330
A
100
AcDbEntity
  8
06
100
AcDbLine
 10
234.1725055395154
 20
177.7363731656184
 30
0.0
 11
259.1725055395154
 21
177.7363731656184
 31
0.0
  0
LINE
  5
3CE
330
A
100
AcDbEntity
  8
06
100
AcDbLine
 10
257.4024605739803
 20
177.7363731656184
 30
0.0
 11
251.4024605739803
 21
171.7363731656184
 31
0.0
  0
LINE
  5
3CF
330
A
100
AcDbEntity
  8
06
100
AcDbLine
 10
259.1725055395154
 20
177.5064181311535
 30
0.0
 11
253.4024605739801
 21
171.7363731656184
 31
0.0
  0
LINE
  5
3D0
330
A
100
AcDbEntity
  8
06
100
AcDbLine
 10
241.0866972281062
 20
177.7363731656184
 30
0.0
 11
235.0866972281062
 21
171.7363731656184
 31
0.0
  0
LINE
  5
3D1
330
A
100
AcDbEntity
  8
06
100
AcDbLine
 10
243.0866972281062
 20
177.7363731656184
 30
0.0
 11
237.0866972281062
 21
171.7363731656184
 31
0.0
  0
LINE
  5
3D2
330
A
100
AcDbEntity
  8
06
100
AcDbLine
 10
249.6725055395152
 20
266.0094339622641
 30
0.0
 11
249.6725055395152
 21
248.009433962264
 31
0.0
  0
LINE
  5
3D3
330
A
100
AcDbEntity
  8
06
100
AcDbLine
 10
243.6725055395152
 20
266.0094339622641
 30
0.0
 11
243.6725055395152
 21
248.009433962264
 31
0.0
  0
LINE
  5
3D4
330
A
100
AcDbEntity
  8
06
100
AcDbLine
 10
244.672505539515
 20
272.0094339622641
 30
0.0
 11
244.672505539515
 21
248.009433962264
 31
0.0
  0
LINE
  5
3D5
330
A
100
AcDbEntity
  8
06
100
AcDbLine
 10
248.672505539515
 20
272.0094339622641
 30
0.0
 11
248.672505539515
 21
248.009433962264
 31
0.0
  0
LINE
  5
3D6
330
A
100
AcDbEntity
  8
06
100
AcDbLine
 10
243.6725055395152
 20
272.0094339622641
 30
0.0
 11
249.6725055395152
 21
272.0094339622641
 31
0.0
  0
LINE
  5
3D7
330
A
100
AcDbEntity
  8
06
100
AcDbLine
 10
155.1725339286633
 20
495.0094323545966
 30
0.0
 11
175.1725339554577
 21
496.5094334263749
 31
0.0
  0
LINE
  5
3D8
330
A
100
AcDbEntity
  8
06
100
AcDbLine
 10
155.1725339822521
 20
495.0094323545966
 30
0.0
 11
175.1725339554575
 21
493.509433426375
 31
0.0
  0
LINE
  5
3D9
330
A
100
AcDbEntity
  8
06
100
AcDbLine
 10
155.1725772563155
 20
450.0094323545966
 30
0.0
 11
175.17257728311
 21
451.5094334263748
 31
0.0
  0
LINE
  5
3DA
330
A
100
AcDbEntity
  8
06
100
AcDbLine
 10
155.1725773099043
 20
450.0094323545966
 30
0.0
 11
175.1725772831098
 21
448.509433426375
 31
0.0
  0
CIRCLE
  5
3E3
330
A
100
AcDbEntity
  8
06
100
AcDbCircle
 10
171.6725055395151
 20
227.009433962264
 30
0.0
 40
6.0
  0
LINE
  5
41B
330
A
100
AcDbEntity
  8
CHUSIN
100
AcDbLine
 10
246.6725055395151
 20
370.9877909772191
 30
0.0
 11
246.6725055395151
 21
99.87945492662477
 31
0.0
  0
ARC
  5
41C
330
A
100
AcDbEntity
  8
SOUZOU
 48
0.2
100
AcDbCircle
 10
229.884213081772
 20
435.7592960820378
 30
0.0
 40
0.3
100
AcDbArc
 50
9.999850835435259
 51
89.99999999999998
  0
ARC
  5
41D
330
A
100
AcDbEntity
  8
SOUZOU
100
AcDbCircle
 10
247.6725321690363
 20
434.5592560658952
 30
0.0
 40
1.5
100
AcDbArc
 50
359.9998804763565
 51
90.0
  0
LINE
  5
41E
330
A
100
AcDbEntity
  8
SOUZOU
100
AcDbLine
 10
249.1725335771217
 20
434.5592529367737
 30
0.0
 11
249.1724685439129
 21
404.0593801323629
 31
0.0
  0
LINE
  5
41F
330
A
100
AcDbEntity
  8
SOUZOU
100
AcDbLine
 10
226.1725250239924
 20
404.0594052211512
 30
0.0
 11
226.1725250238864
 21
434.5592960820562
 31
0.0
  0
LINE
  5
420
330
A
100
AcDbEntity
  8
SOUZOU
100
AcDbLine
 10
227.6725250238862
 20
436.0592960820614
 30
0.0
 11
229.8841838484163
 21
436.0592960820614
 31
0.0
  0
ARC
  5
421
330
A
100
AcDbEntity
  8
SOUZOU
100
AcDbCircle
 10
227.6725250238862
 20
434.5592960820614
 30
0.0
 40
1.5
100
AcDbArc
 50
89.99999999999998
 51
180.0000000001995
  0
ARC
  5
422
330
A
100
AcDbEntity
  8
SOUZOU
 48
0.2
100
AcDbCircle
 10
231.1054582246298
 20
433.4400820503579
 30
0.0
 40
0.5
100
AcDbArc
 50
189.9998508354332
 51
259.02679916908
  0
LINE
  5
423
330
A
100
AcDbEntity
  8
SOUZOU
 48
0.2
100
AcDbLine
 10
230.1796263099423
 20
435.8113897662031
 30
0.0
 11
230.6130544349833
 21
433.3532592986266
 31
0.0
  0
ARC
  5
424
330
A
100
AcDbEntity
  8
SOUZOU
 48
0.2
100
AcDbCircle
 10
229.8841838484163
 20
435.7592960820616
 30
0.0
 40
0.3
100
AcDbArc
 50
9.999850835435259
 51
89.99999999999998
  0
ARC
  5
425
330
A
100
AcDbEntity
  8
SOUZOU
100
AcDbCircle
 10
237.6725254810591
 20
467.3092847577401
 30
0.0
 40
35.0
100
AcDbArc
 50
259.0267991690802
 51
281.5369261517154
  0
LINE
  5
426
330
A
100
AcDbEntity
  8
SOUZOU
100
AcDbLine
 10
247.6725321690803
 20
436.0592560658954
 30
0.0
 11
245.2090511830018
 21
436.0592984468391
 31
0.0
  0
ARC
  5
427
330
A
100
AcDbEntity
  8
SOUZOU
 48
0.2
100
AcDbCircle
 10
244.2394883616886
 20
433.4400570210569
 30
0.0
 40
0.5
100
AcDbArc
 50
281.2924527854823
 51
349.9998678763288
  0
LINE
  5
428
330
A
100
AcDbEntity
  8
SOUZOU
 48
0.2
100
AcDbLine
 10
245.2090623363491
 20
436.0593197159714
 30
0.0
 11
244.6724910738109
 21
433.0164370304215
 31
0.0
  0
LINE
  5
429
330
A
100
AcDbEntity
  8
SOUZOU
 48
0.2
100
AcDbLine
 10
244.7318484795634
 20
405.2654205621873
 30
0.0
 11
245.1653016104319
 21
402.8072879154688
 31
0.0
  0
ARC
  5
42A
330
A
100
AcDbEntity
  8
SOUZOU
100
AcDbCircle
 10
237.6724333932468
 20
371.3093929683999
 30
0.0
 40
35.0
100
AcDbArc
 50
79.02686695919282
 51
100.9731028972715
  0
LINE
  5
42B
330
A
100
AcDbEntity
  8
SOUZOU
 48
0.2
100
AcDbLine
 10
230.6130193437924
 20
405.2654315386504
 30
0.0
 11
230.1795770138658
 21
402.8073128835559
 31
0.0
  0
LINE
  5
42C
330
A
100
AcDbEntity
  8
SOUZOU
100
AcDbLine
 10
230.1358632270829
 20
402.6962000083553
 30
0.0
 11
230.1358632270829
 21
435.9225672992248
 31
0.0
  0
LINE
  5
42D
330
A
100
AcDbEntity
  8
SOUZOU
100
AcDbLine
 10
245.2091634185638
 20
402.6962117729105
 30
0.0
 11
245.2091115531833
 21
435.9225790637396
 31
0.0
  0
ARC
  5
42E
330
A
100
AcDbEntity
  8
SOUZOU
 48
0.2
100
AcDbCircle
 10
244.2394554470565
 20
405.1786083511918
 30
0.0
 40
0.5
100
AcDbArc
 50
9.999999999999962
 51
79.02686695919276
  0
LINE
  5
42F
330
A
100
AcDbEntity
  8
SOUZOU
100
AcDbLine
 10
247.6724685438719
 20
402.5593832614846
 30
0.0
 11
245.4607426546742
 21
402.5593625505846
 31
0.0
  0
ARC
  5
430
330
A
100
AcDbEntity
  8
SOUZOU
100
AcDbCircle
 10
247.6724685438687
 20
404.0593832614845
 30
0.0
 40
1.5
100
AcDbArc
 50
269.9999999999999
 51
359.9998804763565
  0
ARC
  5
431
330
A
100
AcDbEntity
  8
SOUZOU
 48
0.2
100
AcDbCircle
 10
245.4607404987509
 20
402.8593731494121
 30
0.0
 40
0.3
100
AcDbArc
 50
189.9999928137445
 51
270.0002529843508
  0
LINE
  5
432
330
A
100
AcDbEntity
  8
SOUZOU
100
AcDbLine
 10
227.6725250239925
 20
402.5594052211563
 30
0.0
 11
229.8841422985947
 21
402.5594052212015
 31
0.0
  0
ARC
  5
433
330
A
100
AcDbEntity
  8
SOUZOU
100
AcDbCircle
 10
227.6725250239925
 20
404.0594052211564
 30
0.0
 40
1.5
100
AcDbArc
 50
180.0000000001995
 51
269.9999999999999
  0
ARC
  5
434
330
A
100
AcDbEntity
  8
SOUZOU
 48
0.2
100
AcDbCircle
 10
229.8841422985911
 20
402.8594071594218
 30
0.0
 40
0.3
100
AcDbArc
 50
270.0000000006961
 51
349.9997809654606
  0
LINE
  5
435
330
A
100
AcDbEntity
  8
SOUZOU
100
AcDbLine
 10
230.6724098964953
 20
405.428602302023
 30
0.0
 11
230.6724098964954
 21
433.190143766976
 31
0.0
  0
LINE
  5
436
330
A
100
AcDbEntity
  8
SOUZOU
100
AcDbLine
 10
244.6726125294265
 20
405.4286132290366
 30
0.0
 11
244.6725691485315
 21
433.1901546939556
 31
0.0
  0
ARC
  5
437
330
A
100
AcDbEntity
  8
SOUZOU
 48
0.2
100
AcDbCircle
 10
231.1054243362507
 20
405.1786053121147
 30
0.0
 40
0.5
100
AcDbArc
 50
100.9731028972735
 51
169.999780965462
  0
TEXT
  5
46A
330
A
100
AcDbEntity
  8
MOJI
100
AcDbText
 10
246.7999999999971
 20
61.37907936088808
 30
0.0
 40
6.0
  1
※ 伝達機構は◎印が標準、○印はオーダーです。
 41
0.75
  7
0_8
 11
246.7999999999971
 21
67.37907936088809
 31
0.0
100
AcDbText
 73
     3
  0
TEXT
  5
46B
330
A
100
AcDbEntity
  8
MOJI
100
AcDbText
 10
246.7999999999971
 20
51.3790793608881
 30
0.0
 40
6.0
  1
※ 台板専用の戸車を使用する為、質量制限をしています。
 41
0.75
  7
0_8
 11
246.7999999999971
 21
57.37907936088809
 31
0.0
100
AcDbText
 73
     3
  0
LINE
  5
489
330
A
100
AcDbEntity
  8
02
100
AcDbLine
 10
185.1724991923718
 20
508.5095245493001
 30
0.0
 11
189.3724850269063
 21
508.5091126209264
 31
0.0
  0
LINE
  5
48A
330
A
100
AcDbEntity
  8
02
100
AcDbLine
 10
185.1724902280853
 20
508.5096465740685
 30
0.0
 11
189.3723462602519
 21
508.5092242349498
 31
0.0
  0
LINE
  5
48B
330
A
100
AcDbEntity
  8
06
100
AcDbLine
 10
243.1725338135338
 20
439.0097307996382
 30
0.0
 11
195.6767481364741
 21
439.0095581279949
 31
0.0
  0
LINE
  5
48C
330
A
100
AcDbEntity
  8
02
100
AcDbLine
 10
189.3724739887695
 20
508.5096540824326
 30
0.0
 11
189.3725482724656
 21
438.5094901170417
 31
0.0
  0
LINE
  5
48D
330
A
100
AcDbEntity
  8
02
100
AcDbLine
 10
187.0726541181931
 20
508.5099652802273
 30
0.0
 11
187.0726541181931
 21
438.5099652802273
 31
0.0
  0
LINE
  5
48E
330
A
100
AcDbEntity
  8
02
100
AcDbLine
 10
187.0726541181933
 20
447.0098411015317
 30
0.0
 11
185.5726541181931
 21
447.0098411015317
 31
0.0
  0
LINE
  5
48F
330
A
100
AcDbEntity
  8
02
100
AcDbLine
 10
185.5726541181931
 20
447.0098411015317
 30
0.0
 11
185.5726541181931
 21
450.0098411015316
 31
0.0
  0
LINE
  5
490
330
A
100
AcDbEntity
  8
02
100
AcDbLine
 10
185.3726339920945
 20
508.5095218261129
 30
0.0
 11
185.372531563754
 21
438.5095020903222
 31
0.0
  0
LINE
  5
491
330
A
100
AcDbEntity
  8
02
100
AcDbLine
 10
187.0726541181933
 20
450.0098411015316
 30
0.0
 11
185.1728410749189
 21
450.0098408439738
 31
0.0
  0
LINE
  5
492
330
A
100
AcDbEntity
  8
02
100
AcDbLine
 10
186.3728631117261
 20
450.0098408439769
 30
0.0
 11
186.3728631117261
 21
506.0098812973182
 31
0.0
  0
LINE
  5
493
330
A
100
AcDbEntity
  8
02
100
AcDbLine
 10
189.3725482721139
 20
438.5098216438326
 30
0.0
 11
185.3725315642216
 21
438.5098216438326
 31
0.0
  0
LINE
  5
494
330
A
100
AcDbEntity
  8
02
100
AcDbLine
 10
187.0726541181931
 20
506.0098812241073
 30
0.0
 11
185.1728086015251
 21
506.0098812973182
 31
0.0
  0
LINE
  5
495
330
A
100
AcDbEntity
  8
02
100
AcDbLine
 10
185.372696492737
 20
508.5098473973072
 30
0.0
 11
189.3724706643177
 21
508.5096884824976
 31
0.0
  0
LINE
  5
496
330
A
100
AcDbEntity
  8
06
100
AcDbLine
 10
231.6123606146649
 20
511.0098632609459
 30
0.0
 11
244.8725024259756
 21
511.0098839252994
 31
0.0
  0
LINE
  5
497
330
A
100
AcDbEntity
  8
06
100
AcDbLine
 10
244.8725699033255
 20
511.0095819129578
 30
0.0
 11
244.872569964794
 21
510.0097961254531
 31
0.0
  0
LINE
  5
499
330
A
100
AcDbEntity
  8
06
100
AcDbLine
 10
247.8725616183421
 20
510.0096287197341
 30
0.0
 11
244.8725569614977
 21
510.00975079037
 31
0.0
  0
LINE
  5
49A
330
A
100
AcDbEntity
  8
06
100
AcDbLine
 10
267.67251450332
 20
468.0096768198018
 30
0.0
 11
267.6725591895814
 21
509.3100998750736
 31
0.0
  0
LINE
  5
49D
330
A
100
AcDbEntity
  8
06
100
AcDbLine
 10
247.872397004005
 20
510.009693276137
 30
0.0
 11
247.872397004005
 21
510.009693276137
 31
0.0
  0
LINE
  5
4AF
330
A
100
AcDbEntity
  8
06
100
AcDbLine
 10
270.6725459362449
 20
480.009643163896
 30
0.0
 11
270.6726128551299
 21
470.0098387119083
 31
0.0
  0
LINE
  5
4B0
330
A
100
AcDbEntity
  8
06
100
AcDbLine
 10
267.6725361035853
 20
484.8245970123263
 30
0.0
 11
269.2690182356558
 21
484.8247667346567
 31
0.0
  0
LINE
  5
4B1
330
A
100
AcDbEntity
  8
06
100
AcDbLine
 10
268.172503506435
 20
465.1947129823703
 30
0.0
 11
269.269083045448
 21
465.1947396616583
 31
0.0
  0
LINE
  5
4B2
330
A
100
AcDbEntity
  8
06
100
AcDbLine
 10
269.2689319009699
 20
484.8246224746317
 30
0.0
 11
270.1725144890332
 21
483.2598796264271
 31
0.0
  0
LINE
  5
4B3
330
A
100
AcDbEntity
  8
06
100
AcDbLine
 10
269.2690900947445
 20
465.1949077021883
 30
0.0
 11
270.1725137277254
 21
466.7596660031448
 31
0.0
  0
LINE
  5
4B4
330
A
100
AcDbEntity
  8
06
100
AcDbLine
 10
270.1725416034506
 20
466.7598870994658
 30
0.0
 11
270.1725338221053
 21
470.0097569789845
 31
0.0
  0
LINE
  5
4BA
330
A
100
AcDbEntity
  8
06
100
AcDbLine
 10
270.6725092072868
 20
480.0096659874614
 30
0.0
 11
270.1725672463591
 21
480.0097426552266
 31
0.0
  0
LINE
  5
4BB
330
A
100
AcDbEntity
  8
06
100
AcDbLine
 10
270.6726041470383
 20
470.0096349113239
 30
0.0
 11
270.1725248475738
 21
470.0097569811751
 31
0.0
  0
LINE
  5
4C5
330
A
100
AcDbEntity
  8
04
100
AcDbLine
 10
234.6725300062345
 20
387.0096097048762
 30
0.0
 11
236.1725325401159
 21
387.0096097048762
 31
0.0
  0
LINE
  5
4C6
330
A
100
AcDbEntity
  8
04
100
AcDbLine
 10
236.1725325401159
 20
386.0096021442263
 30
0.0
 11
237.1725257515215
 21
386.0096021513829
 31
0.0
  0
LINE
  5
4C7
330
A
100
AcDbEntity
  8
04
100
AcDbLine
 10
228.1725055395151
 20
384.5093659947059
 30
0.0
 11
228.1724942413295
 21
380.0094297473242
 31
0.0
  0
LINE
  5
4C8
330
A
100
AcDbEntity
  8
04
100
AcDbLine
 10
228.1725098525653
 20
380.0094252068821
 30
0.0
 11
266.1724696595185
 21
380.0094616286347
 31
0.0
  0
LINE
  5
4C9
330
A
100
AcDbEntity
  8
04
100
AcDbLine
 10
228.1724859081926
 20
384.5094388770571
 30
0.0
 11
266.1724877524036
 21
384.5094079563786
 31
0.0
  0
LINE
  5
4CA
330
A
100
AcDbEntity
  8
04
100
AcDbLine
 10
252.6725189835067
 20
434.0094300971371
 30
0.0
 11
252.6725179014841
 21
393.6094257438215
 31
0.0
  0
LINE
  5
4CB
330
A
100
AcDbEntity
  8
04
100
AcDbLine
 10
257.172489528833
 20
434.0094169808923
 30
0.0
 11
257.1724895513909
 21
384.5094079522772
 31
0.0
  0
LINE
  5
4CC
330
A
100
AcDbEntity
  8
04
100
AcDbLine
 10
247.1725249261418
 20
396.5095876875676
 30
0.0
 11
252.6725182218016
 21
396.5096501459603
 31
0.0
  0
LINE
  5
4CD
330
A
100
AcDbEntity
  8
04
100
AcDbLine
 10
247.1725297583399
 20
397.5096160016981
 30
0.0
 11
247.1725300939549
 21
393.9976915248236
 31
0.0
  0
LINE
  5
4CE
330
A
100
AcDbEntity
  8
04
100
AcDbLine
 10
237.1725269527311
 20
397.5096395136653
 30
0.0
 11
247.1725295248198
 21
397.5096036932221
 31
0.0
  0
LINE
  5
4D1
330
A
100
AcDbEntity
  8
04
100
AcDbLine
 10
234.6725261923524
 20
395.0096147020552
 30
0.0
 11
236.1725302688778
 21
395.0096326618278
 31
0.0
  0
LINE
  5
4D2
330
A
100
AcDbEntity
  8
04
100
AcDbLine
 10
236.172527920737
 20
396.0096338638053
 30
0.0
 11
237.172523792547
 21
396.0096186050136
 31
0.0
  0
LINE
  5
4D3
330
A
100
AcDbEntity
  8
04
100
AcDbLine
 10
234.6725293106466
 20
395.0096154483453
 30
0.0
 11
234.6725293106466
 21
387.0095924178746
 31
0.0
  0
LINE
  5
4D4
330
A
100
AcDbEntity
  8
04
100
AcDbLine
 10
266.1725005545819
 20
384.5093992299118
 30
0.0
 11
266.1725079674728
 21
380.0094291788855
 31
0.0
  0
LINE
  5
4D6
330
A
100
AcDbEntity
  8
04
100
AcDbLine
 10
261.6725709543158
 20
401.0095319422402
 30
0.0
 11
257.1725772928949
 21
401.0096089960967
 31
0.0
  0
LINE
  5
4D8
330
A
100
AcDbEntity
  8
04
100
AcDbLine
 10
263.9725334524559
 20
396.6096495008403
 30
0.0
 11
262.672537028512
 21
396.6096495008653
 31
0.0
  0
LINE
  5
4D9
330
A
100
AcDbEntity
  8
04
100
AcDbLine
 10
263.9726223711484
 20
387.4096268841036
 30
0.0
 11
262.6726232792889
 21
387.4096297451374
 31
0.0
  0
LINE
  5
4DE
330
A
100
AcDbEntity
  8
04
100
AcDbLine
 10
262.6726257741215
 20
387.0096295627906
 30
0.0
 11
261.672579463618
 21
387.0096252416676
 31
0.0
  0
LINE
  5
4E1
330
A
100
AcDbEntity
  8
04
100
AcDbLine
 10
263.9725341276943
 20
396.6284561385053
 30
0.0
 11
267.0575348919328
 21
396.6284866560389
 31
0.0
  0
LINE
  5
4E2
330
A
100
AcDbEntity
  8
04
100
AcDbLine
 10
263.9726217162555
 20
387.3908462746993
 30
0.0
 11
267.0576259966159
 21
387.3908596261443
 31
0.0
  0
LINE
  5
4E3
330
A
100
AcDbEntity
  8
04
100
AcDbLine
 10
267.0575338170193
 20
396.6284393313916
 30
0.0
 11
267.4725428004969
 21
395.9096712129375
 31
0.0
  0
LINE
  5
4E4
330
A
100
AcDbEntity
  8
04
100
AcDbLine
 10
267.0576224499756
 20
387.3908957003088
 30
0.0
 11
267.4726140269561
 21
388.1096459384151
 31
0.0
  0
LINE
  5
4E5
330
A
100
AcDbEntity
  8
04
100
AcDbLine
 10
267.4726157574546
 20
388.1097166360365
 30
0.0
 11
267.4725405443903
 21
395.9097053078735
 31
0.0
  0
LINE
  5
4EB
330
A
100
AcDbEntity
  8
04
100
AcDbLine
 10
252.6725185721951
 20
434.0094201322143
 30
0.0
 11
257.172489535708
 21
434.0094201323108
 31
0.0
  0
LINE
  5
4EC
330
A
100
AcDbEntity
  8
04
100
AcDbLine
 10
257.1724895292886
 20
433.009421455005
 30
0.0
 11
264.1724800188366
 21
433.0094214550051
 31
0.0
  0
LINE
  5
4ED
330
A
100
AcDbEntity
  8
06
100
AcDbLine
 10
252.4124823436443
 20
439.5093438294398
 30
0.0
 11
264.9124823436443
 21
439.5093438294396
 31
0.0
  0
LINE
  5
4EE
330
A
100
AcDbEntity
  8
06
100
AcDbLine
 10
261.6324823436444
 20
448.5093438294397
 30
0.0
 11
255.6924823436443
 21
448.5093438294397
 31
0.0
  0
LINE
  5
4EF
330
A
100
AcDbEntity
  8
04
100
AcDbLine
 10
250.6724869271244
 20
433.5093873089686
 30
0.0
 11
250.6725160738316
 21
425.9143819277031
 31
0.0
  0
LINE
  5
4F3
330
A
100
AcDbEntity
  8
04
100
AcDbLine
 10
266.1724968223395
 20
426.7094397257566
 30
0.0
 11
264.172448738119
 21
426.7094397256573
 31
0.0
  0
LINE
  5
4F4
330
A
100
AcDbEntity
  8
04
100
AcDbLine
 10
266.1724942119191
 20
411.3094353620176
 30
0.0
 11
264.1724970007329
 21
411.3094157860265
 31
0.0
  0
LINE
  5
4F8
330
A
100
AcDbEntity
  8
04
100
AcDbLine
 10
266.172495417979
 20
426.514977192456
 30
0.0
 11
270.976464501761
 21
426.5149771924581
 31
0.0
  0
LINE
  5
4F9
330
A
100
AcDbEntity
  8
04
100
AcDbLine
 10
266.1724991963459
 20
411.5038637926873
 30
0.0
 11
270.9764716278056
 21
411.5038637926066
 31
0.0
  0
LINE
  5
4FA
330
A
100
AcDbEntity
  8
04
100
AcDbLine
 10
270.976425186512
 20
426.5149971729521
 30
0.0
 11
271.672551319387
 21
425.3094462410597
 31
0.0
  0
LINE
  5
4FB
330
A
100
AcDbEntity
  8
04
100
AcDbLine
 10
270.9764672894027
 20
411.5038825534421
 30
0.0
 11
271.672499000157
 21
412.7094329799038
 31
0.0
  0
LINE
  5
4FC
330
A
100
AcDbEntity
  8
04
100
AcDbLine
 10
271.672498556197
 20
412.7094329798548
 30
0.0
 11
271.6724965595555
 21
425.3094188074482
 31
0.0
  0
LINE
  5
502
330
A
100
AcDbEntity
  8
04
100
AcDbLine
 10
257.1724894865435
 20
405.0094284093569
 30
0.0
 11
264.1725174430445
 21
405.0094436681944
 31
0.0
  0
LINE
  5
505
330
A
100
AcDbEntity
  8
04
100
AcDbLine
 10
250.6723891527871
 20
425.9143819277031
 30
0.0
 11
252.6725187754445
 21
425.9143819277629
 31
0.0
  0
LINE
  5
506
330
A
100
AcDbEntity
  8
04
100
AcDbLine
 10
250.6723891527806
 20
416.1043753485877
 30
0.0
 11
252.6725185159461
 21
416.1043753485651
 31
0.0
  0
ARC
  5
507
330
A
100
AcDbEntity
  8
04
100
AcDbCircle
 10
231.1724942522228
 20
436.1097094797424
 30
0.0
 40
0.5
100
AcDbArc
 50
79.44961107748213
 51
179.9999368636709
  0
ARC
  5
508
330
A
100
AcDbEntity
  8
04
100
AcDbCircle
 10
244.1725670429195
 20
436.1097354441508
 30
0.0
 40
0.5
100
AcDbArc
 50
0.0000000000000496
 51
100.550310120365
  0
ARC
  5
509
330
A
100
AcDbEntity
  8
04
100
AcDbCircle
 10
237.6725586593992
 20
471.0095660762291
 30
0.0
 40
35.0
100
AcDbArc
 50
259.449611077482
 51
280.550310120365
  0
LINE
  5
50A
330
A
100
AcDbEntity
  8
04
100
AcDbLine
 10
249.1725313385479
 20
433.5093859674555
 30
0.0
 11
250.6724870457548
 21
433.509385936714
 31
0.0
  0
LINE
  5
50C
330
A
100
AcDbEntity
  8
04
100
AcDbLine
 10
249.172478032471
 20
408.5094114611901
 30
0.0
 11
250.6724987554612
 21
408.5093965413379
 31
0.0
  0
LINE
  5
50D
330
A
100
AcDbEntity
  8
04
100
AcDbLine
 10
244.6725138594121
 20
428.5094647019526
 30
0.0
 11
245.2091231248619
 21
428.5094483253891
 31
0.0
  0
LINE
  5
50E
330
A
100
AcDbEntity
  8
04
100
AcDbLine
 10
244.6725311445431
 20
413.5093167159623
 30
0.0
 11
245.2091465395488
 21
413.5093658463874
 31
0.0
  0
ARC
  5
50F
330
A
100
AcDbEntity
  8
04
100
AcDbCircle
 10
237.672549571201
 20
371.009392968207
 30
0.0
 40
35.0
100
AcDbArc
 50
79.44969052542329
 51
100.5504195723641
  0
LINE
  5
510
330
A
100
AcDbEntity
  8
04
100
AcDbLine
 10
244.6725391828481
 20
405.8021032727263
 30
0.0
 11
244.6725047871089
 21
436.2166476684018
 31
0.0
  0
LINE
  5
511
330
A
100
AcDbEntity
  8
04
100
AcDbLine
 10
230.672488818594
 20
405.8021432909477
 30
0.0
 11
230.6724376238979
 21
436.2166481772063
 31
0.0
  0
LINE
  5
512
330
A
100
AcDbEntity
  8
CHUSIN
100
AcDbLine
 10
257.9112241037619
 20
392.0095924178746
 30
0.0
 11
269.0086776460086
 21
392.0096726988853
 31
0.0
  0
LINE
  5
513
330
A
100
AcDbEntity
  8
06
100
AcDbLine
 10
243.1725307572131
 20
468.0095506207151
 30
0.0
 11
243.1725340275408
 21
436.9791312975237
 31
0.0
  0
LINE
  5
514
330
A
100
AcDbEntity
  8
06
100
AcDbLine
 10
243.1725302302572
 20
468.0096763902877
 30
0.0
 11
268.1725299243654
 21
468.0096768285678
 31
0.0
  0
LINE
  5
515
330
A
100
AcDbEntity
  8
06
100
AcDbLine
 10
268.1725130218785
 20
468.0095493530991
 30
0.0
 11
268.1723947065088
 21
433.0097717379276
 31
0.0
  0
LINE
  5
516
330
A
100
AcDbEntity
  8
06
100
AcDbLine
 10
268.1723947065088
 20
433.0097993919612
 30
0.0
 11
265.3428196045429
 21
433.0097993919178
 31
0.0
  0
LINE
  5
517
330
A
100
AcDbEntity
  8
06
100
AcDbLine
 10
264.9124823436443
 20
439.5093438294396
 30
0.0
 11
261.6324823436444
 21
448.5093438294397
 31
0.0
  0
LINE
  5
518
330
A
100
AcDbEntity
  8
06
100
AcDbLine
 10
252.4124823436443
 20
439.5093438294398
 30
0.0
 11
255.6924823436443
 21
448.5093438294397
 31
0.0
  0
LINE
  5
538
330
A
100
AcDbEntity
  8
06
100
AcDbLine
 10
289.6725055395151
 20
558.0094339622641
 30
0.0
 11
289.6725055395151
 21
564.8431257617821
 31
0.0
  0
LINE
  5
539
330
A
100
AcDbEntity
  8
06
100
AcDbLine
 10
291.6725055395152
 20
558.0094339622641
 30
0.0
 11
291.6725055395152
 21
564.8431257617821
 31
0.0
  0
LINE
  5
566
330
A
100
AcDbEntity
  8
03
100
AcDbLine
 10
209.8316016993003
 20
396.2844661627933
 30
0.0
 11
204.8316022169829
 21
387.6242119498231
 31
0.0
  0
LINE
  5
567
330
A
100
AcDbEntity
  8
03
100
AcDbLine
 10
204.8316022169829
 20
387.6242119498231
 30
0.0
 11
208.2957038321205
 21
385.624211949823
 31
0.0
  0
LINE
  5
568
330
A
100
AcDbEntity
  8
03
100
AcDbLine
 10
213.2957034216159
 20
394.2844663484308
 30
0.0
 11
208.2957038321205
 21
385.624211949823
 31
0.0
  0
LINE
  5
569
330
A
100
AcDbEntity
  8
03
100
AcDbLine
 10
212.595703486589
 20
393.0720307456203
 30
0.0
 11
209.1316017642734
 21
395.0720305599828
 31
0.0
  0
LINE
  5
56A
330
A
100
AcDbEntity
  8
03
100
AcDbLine
 10
196.9966666680285
 20
369.0537033614499
 30
0.0
 11
196.1306412374494
 21
369.5537033150405
 31
0.0
  0
LINE
  5
56B
330
A
100
AcDbEntity
  8
03
100
AcDbLine
 10
193.230322012559
 20
363.5302027246698
 30
0.0
 11
204.8316022169829
 21
387.6242119498231
 31
0.0
  0
LINE
  5
56C
330
A
100
AcDbEntity
  8
03
100
AcDbLine
 10
193.23032232108
 20
363.5302025142966
 30
0.0
 11
208.2957038321205
 21
385.624211949823
 31
0.0
  0
LINE
  5
56D
330
A
100
AcDbEntity
  8
03
100
AcDbLine
 10
214.5947415674843
 20
393.5344664180448
 30
0.0
 11
215.0089496027383
 21
394.2518958687957
 31
0.0
  0
ARC
  5
56E
330
A
100
AcDbEntity
  8
03
100
AcDbCircle
 10
213.7099114568699
 20
395.0018957991817
 30
0.0
 40
1.5
100
AcDbArc
 50
330.0000030704185
 51
44.533993116998
  0
ARC
  5
56F
330
A
100
AcDbEntity
  8
03
100
AcDbCircle
 10
208.363652857478
 20
389.7419034999071
 30
0.0
 40
9.0
100
AcDbArc
 50
44.53399311699803
 51
75.46601302383916
  0
ARC
  5
570
330
A
100
AcDbEntity
  8
03
100
AcDbCircle
 10
210.2458097345543
 20
397.0018956135443
 30
0.0
 40
1.5
100
AcDbArc
 50
75.46601302383916
 51
150.0000030704184
  0
LINE
  5
571
330
A
100
AcDbEntity
  8
03
100
AcDbLine
 10
208.9467715886859
 20
397.7518955439303
 30
0.0
 11
208.5325635534319
 21
397.0344660931791
 31
0.0
  0
LINE
  5
572
330
A
100
AcDbEntity
  8
03
100
AcDbLine
 10
208.5325635534319
 20
397.0344660931791
 30
0.0
 11
214.5947415674843
 21
393.5344664180448
 31
0.0
  0
LINE
  5
573
330
A
100
AcDbEntity
  8
06
100
AcDbLine
 10
196.5636539393416
 20
369.3037033150405
 30
0.0
 11
205.2646149188752
 21
387.3742119498231
 31
0.0
  0
LINE
  5
574
330
A
100
AcDbEntity
  8
06
100
AcDbLine
 10
196.5636539661361
 20
369.3037033614499
 30
0.0
 11
207.8626911302284
 21
385.874211949823
 31
0.0
  0
LINE
  5
576
330
A
100
AcDbEntity
  8
02
100
AcDbLine
 10
185.1725482724658
 20
508.5098216537657
 30
0.0
 11
189.3723375699986
 21
508.5098216536115
 31
0.0
  0
LINE
  5
578
330
A
100
AcDbEntity
  8
04
100
AcDbLine
 10
238.9725055395151
 20
388.1094238235537
 30
0.0
 11
238.9725055395151
 21
386.1094238235537
 31
0.0
  0
LINE
  5
579
330
A
100
AcDbEntity
  8
04
100
AcDbLine
 10
254.3725055395152
 20
388.1094238235537
 30
0.0
 11
254.3725055395152
 21
386.1094238235537
 31
0.0
  0
LINE
  5
57D
330
A
100
AcDbEntity
  8
04
100
AcDbLine
 10
238.1725055395151
 20
386.1094238235537
 30
0.0
 11
238.1725055395151
 21
384.5094238235536
 31
0.0
  0
LINE
  5
57E
330
A
100
AcDbEntity
  8
04
100
AcDbLine
 10
255.1725055395151
 20
386.1094238235537
 30
0.0
 11
255.1725055395151
 21
384.5094238235536
 31
0.0
  0
LINE
  5
57F
330
A
100
AcDbEntity
  8
04
100
AcDbLine
 10
255.1725055395151
 20
384.5094238235536
 30
0.0
 11
238.1725055395151
 21
384.5094238235536
 31
0.0
  0
LINE
  5
581
330
A
100
AcDbEntity
  8
04
100
AcDbLine
 10
239.1669555395151
 20
388.1094238235537
 30
0.0
 11
239.1669555395151
 21
392.9133995310536
 31
0.0
  0
LINE
  5
582
330
A
100
AcDbEntity
  8
04
100
AcDbLine
 10
254.1780555395151
 20
388.1094238235537
 30
0.0
 11
254.1780555395151
 21
392.9133995310536
 31
0.0
  0
LINE
  5
583
330
A
100
AcDbEntity
  8
04
100
AcDbLine
 10
239.1669555395151
 20
392.9133995310536
 30
0.0
 11
240.3725055395152
 21
393.6094238235537
 31
0.0
  0
LINE
  5
584
330
A
100
AcDbEntity
  8
04
100
AcDbLine
 10
254.1780555395151
 20
392.9133995310536
 30
0.0
 11
252.9725055395152
 21
393.6094238235537
 31
0.0
  0
LINE
  5
585
330
A
100
AcDbEntity
  8
04
100
AcDbLine
 10
252.9725055395152
 20
393.6094238235537
 30
0.0
 11
240.3725055395152
 21
393.6094238235537
 31
0.0
  0
LINE
  5
58B
330
A
100
AcDbEntity
  8
06
100
AcDbLine
 10
242.6725055395151
 20
384.5094238235536
 30
0.0
 11
242.6725055395151
 21
349.3094238235536
 31
0.0
  0
LINE
  5
58C
330
A
100
AcDbEntity
  8
06
100
AcDbLine
 10
250.6725055395151
 20
384.5094238235536
 30
0.0
 11
250.6725055395151
 21
349.3094238235536
 31
0.0
  0
LINE
  5
58D
330
A
100
AcDbEntity
  8
06
100
AcDbLine
 10
242.6725055395151
 20
349.3094238235536
 30
0.0
 11
243.8725055395152
 21
348.1094238235537
 31
0.0
  0
LINE
  5
58E
330
A
100
AcDbEntity
  8
06
100
AcDbLine
 10
250.6725055395151
 20
349.3094238235536
 30
0.0
 11
249.4725055395151
 21
348.1094238235537
 31
0.0
  0
LINE
  5
58F
330
A
100
AcDbEntity
  8
06
100
AcDbLine
 10
249.4725055395151
 20
348.1094238235537
 30
0.0
 11
243.8725055395152
 21
348.1094238235537
 31
0.0
  0
LINE
  5
590
330
A
100
AcDbEntity
  8
06
100
AcDbLine
 10
250.6725055395151
 20
370.1094238235536
 30
0.0
 11
242.6725055395151
 21
370.1094238235536
 31
0.0
  0
LINE
  5
591
330
A
100
AcDbEntity
  8
06
100
AcDbLine
 10
250.6725055395151
 20
349.3094238235536
 30
0.0
 11
242.6725055395151
 21
349.3094238235536
 31
0.0
  0
LINE
  5
592
330
A
100
AcDbEntity
  8
06
100
AcDbLine
 10
242.6725055395151
 20
371.4084625349073
 30
0.0
 11
243.4225055395152
 21
370.1094238235536
 31
0.0
  0
LINE
  5
593
330
A
100
AcDbEntity
  8
06
100
AcDbLine
 10
250.6725055395151
 20
371.4084625349073
 30
0.0
 11
249.9225055395152
 21
370.1094238235536
 31
0.0
  0
LINE
  5
594
330
A
100
AcDbEntity
  8
06
100
AcDbLine
 10
243.4225055395152
 20
370.1094238235536
 30
0.0
 11
243.4225055395152
 21
348.5594238235536
 31
0.0
  0
LINE
  5
595
330
A
100
AcDbEntity
  8
06
100
AcDbLine
 10
249.9225055395152
 20
370.1094238235536
 30
0.0
 11
249.9225055395152
 21
348.5594238235536
 31
0.0
  0
ARC
  5
5C4
330
A
100
AcDbEntity
  8
02
100
AcDbCircle
 10
229.8174698971428
 20
402.6425091265301
 30
0.0
 40
0.9999999999999998
100
AcDbArc
 50
304.7217982668803
 51
5.000000000000285
  0
LINE
  5
5C5
330
A
100
AcDbEntity
  8
02
100
AcDbLine
 10
230.6767384123074
 20
404.2947383017527
 30
0.0
 11
230.8136645952344
 21
402.7296648692778
 31
0.0
  0
ARC
  5
5C6
330
A
100
AcDbEntity
  8
02
100
AcDbCircle
 10
231.672933110399
 20
404.3818940445005
 30
0.0
 40
0.9999999999999998
100
AcDbArc
 50
101.9405240312559
 51
185.0
  0
LINE
  5
5C7
330
A
100
AcDbEntity
  8
02
100
AcDbLine
 10
243.2029733292389
 20
398.0093160932817
 30
0.0
 11
234.4530425427738
 21
398.0093475070375
 31
0.0
  0
LINE
  5
5C8
330
A
100
AcDbEntity
  8
02
100
AcDbLine
 10
244.1991728587193
 20
398.9221745388656
 30
0.0
 11
244.6691330396246
 21
404.2947252929351
 31
0.0
  0
ARC
  5
5C9
330
A
100
AcDbEntity
  8
02
100
AcDbCircle
 10
243.2029769194108
 20
399.0093160932754
 30
0.0
 40
0.9999999999999998
100
AcDbArc
 50
269.9997942983021
 51
355.0008160366425
  0
ARC
  5
5CA
330
A
100
AcDbEntity
  8
02
100
AcDbCircle
 10
243.6729371003159
 20
404.3818668473448
 30
0.0
 40
0.9999999999999998
100
AcDbArc
 50
355.0008160366424
 51
78.05942325897608
  0
ARC
  5
5CB
330
A
100
AcDbEntity
  8
02
100
AcDbCircle
 10
237.6729205611761
 20
376.0093799822246
 30
0.0
 40
30.0
100
AcDbArc
 50
78.0594232589761
 51
101.9405240312559
  0
LINE
  5
5CC
330
A
100
AcDbEntity
  8
02
100
AcDbLine
 10
230.3870621653233
 20
401.8205817282588
 30
0.0
 11
218.4431219484987
 21
393.5434808390298
 31
0.0
  0
ARC
  5
5CD
330
A
100
AcDbEntity
  8
02
100
AcDbCircle
 10
234.4527533218528
 20
395.0094540222828
 30
0.0
 40
3.0
100
AcDbArc
 50
89.99979186651129
 51
136.2187368015937
  0
LINE
  5
5CE
330
A
100
AcDbEntity
  8
02
100
AcDbLine
 10
232.286793721694
 20
397.0851753452162
 30
0.0
 11
222.2629184786664
 21
386.6255300288853
 31
0.0
  0
ARC
  5
5CF
330
A
100
AcDbEntity
  8
02
100
AcDbCircle
 10
220.818945411894
 20
388.0093442441743
 30
0.0
 40
1.999999999999999
100
AcDbArc
 50
270.0001274359144
 51
316.2187368015938
  0
LINE
  5
5D0
330
A
100
AcDbEntity
  8
02
100
AcDbLine
 10
207.672786259725
 20
386.3092262572056
 30
0.0
 11
207.9726790515174
 21
386.0093334654131
 31
0.0
  0
LINE
  5
5D1
330
A
100
AcDbEntity
  8
02
100
AcDbLine
 10
207.672786259725
 20
386.3092262572056
 30
0.0
 11
207.3728934679325
 21
386.0093334654131
 31
0.0
  0
LINE
  5
5D2
330
A
100
AcDbEntity
  8
02
100
AcDbLine
 10
203.3728934679325
 20
386.0093334654131
 30
0.0
 11
184.172255312775
 21
386.0093334654133
 31
0.0
  0
ARC
  5
5D3
330
A
100
AcDbEntity
  8
02
100
AcDbCircle
 10
184.1722553127752
 20
389.0093334654133
 30
0.0
 40
3.0
100
AcDbArc
 50
180.6930982698903
 51
270.0
  0
LINE
  5
5D4
330
A
100
AcDbEntity
  8
02
100
AcDbLine
 10
203.672786259725
 20
386.3092262572056
 30
0.0
 11
203.9726790515174
 21
386.0093334654131
 31
0.0
  0
LINE
  5
5D5
330
A
100
AcDbEntity
  8
02
100
AcDbLine
 10
203.672786259725
 20
386.3092262572056
 30
0.0
 11
203.3728934679325
 21
386.0093334654131
 31
0.0
  0
LINE
  5
5D6
330
A
100
AcDbEntity
  8
02
100
AcDbLine
 10
203.9726790515174
 20
386.0093334654131
 30
0.0
 11
207.3728934679325
 21
386.0093334654131
 31
0.0
  0
LINE
  5
5D7
330
A
100
AcDbEntity
  8
02
100
AcDbLine
 10
215.9726790517119
 20
386.0093334652186
 30
0.0
 11
220.8189498602464
 21
386.0093442441791
 31
0.0
  0
LINE
  5
5D8
330
A
100
AcDbEntity
  8
02
100
AcDbLine
 10
215.6727862597247
 20
386.3092262572056
 30
0.0
 11
215.9726790517119
 21
386.0093334652186
 31
0.0
  0
LINE
  5
5D9
330
A
100
AcDbEntity
  8
02
100
AcDbLine
 10
215.6727862597247
 20
386.3092262572056
 30
0.0
 11
215.3728934679323
 21
386.0093334654131
 31
0.0
  0
LINE
  5
5DA
330
A
100
AcDbEntity
  8
02
100
AcDbLine
 10
211.6727862597249
 20
386.3092262572056
 30
0.0
 11
211.9726790515174
 21
386.0093334654131
 31
0.0
  0
LINE
  5
5DB
330
A
100
AcDbEntity
  8
02
100
AcDbLine
 10
211.6727862597249
 20
386.3092262572056
 30
0.0
 11
211.3728934679325
 21
386.0093334654131
 31
0.0
  0
LINE
  5
5DC
330
A
100
AcDbEntity
  8
02
100
AcDbLine
 10
207.9726790515174
 20
386.0093334654131
 30
0.0
 11
211.3728934679325
 21
386.0093334654131
 31
0.0
  0
LINE
  5
5DD
330
A
100
AcDbEntity
  8
02
100
AcDbLine
 10
211.9726790515174
 20
386.0093334654131
 30
0.0
 11
215.3728934679323
 21
386.0093334654131
 31
0.0
  0
ARC
  5
5DE
330
A
100
AcDbEntity
  8
02
100
AcDbCircle
 10
194.1759201682664
 20
396.0092253029206
 30
0.0
 40
1.999999999999999
100
AcDbArc
 50
270.0004858737488
 51
323.0
  0
ARC
  5
5DF
330
A
100
AcDbEntity
  8
02
100
AcDbCircle
 10
202.2648456603884
 20
395.0092630338438
 30
0.0
 40
1.999999999999999
100
AcDbArc
 50
142.3042546317026
 51
270.0000000000031
  0
LINE
  5
5E0
330
A
100
AcDbEntity
  8
02
100
AcDbLine
 10
202.2648456603886
 20
393.0092630338437
 30
0.0
 11
205.0953533552918
 21
393.0092630338439
 31
0.0
  0
LINE
  5
5E1
330
A
100
AcDbEntity
  8
02
100
AcDbLine
 10
205.6727036244813
 20
394.0092630338438
 30
0.0
 11
206.2500538936709
 21
393.0092630338439
 31
0.0
  0
LINE
  5
5E2
330
A
100
AcDbEntity
  8
02
100
AcDbLine
 10
205.6727036244813
 20
394.0092630338438
 30
0.0
 11
205.0953533552918
 21
393.0092630338439
 31
0.0
  0
LINE
  5
5E3
330
A
100
AcDbEntity
  8
02
100
AcDbLine
 10
209.6727036244815
 20
394.0092630338438
 30
0.0
 11
210.2500538936711
 21
393.0092630338437
 31
0.0
  0
LINE
  5
5E4
330
A
100
AcDbEntity
  8
02
100
AcDbLine
 10
206.2500538936709
 20
393.0092630338439
 30
0.0
 11
209.095353355292
 21
393.0092630338437
 31
0.0
  0
LINE
  5
5E5
330
A
100
AcDbEntity
  8
02
100
AcDbLine
 10
209.6727036244815
 20
394.0092630338438
 30
0.0
 11
209.095353355292
 21
393.0092630338437
 31
0.0
  0
LINE
  5
5E6
330
A
100
AcDbEntity
  8
02
100
AcDbLine
 10
210.2500538936711
 20
393.0092630338437
 30
0.0
 11
213.095353355292
 21
393.0092630338437
 31
0.0
  0
LINE
  5
5E7
330
A
100
AcDbEntity
  8
02
100
AcDbLine
 10
213.6727036244815
 20
394.0092630338438
 30
0.0
 11
213.095353355292
 21
393.0092630338437
 31
0.0
  0
LINE
  5
5E8
330
A
100
AcDbEntity
  8
02
100
AcDbLine
 10
214.2500538936711
 20
393.0092630338439
 30
0.0
 11
216.7343451439573
 21
393.0092630338439
 31
0.0
  0
LINE
  5
5E9
330
A
100
AcDbEntity
  8
02
100
AcDbLine
 10
213.6727036244815
 20
394.0092630338438
 30
0.0
 11
214.2500538936711
 21
393.0092630338439
 31
0.0
  0
ARC
  5
5EA
330
A
100
AcDbEntity
  8
02
100
AcDbCircle
 10
216.7343451439573
 20
396.0092630338438
 30
0.0
 40
3.0
100
AcDbArc
 50
269.9999999999996
 51
304.7217982668807
  0
LINE
  5
5EB
330
A
100
AcDbEntity
  8
02
100
AcDbLine
 10
204.6731009281204
 20
415.5091166749095
 30
0.0
 11
205.6735009617923
 21
415.5091349927708
 31
0.0
  0
LINE
  5
5EC
330
A
100
AcDbEntity
  8
02
100
AcDbLine
 10
206.6735192723287
 20
414.5091349929385
 30
0.0
 11
206.6735192723287
 21
404.3264716372226
 31
0.0
  0
ARC
  5
5ED
330
A
100
AcDbEntity
  8
02
100
AcDbCircle
 10
205.6735192723286
 20
414.5091349929385
 30
0.0
 40
0.9999999999999998
100
AcDbArc
 50
0.000000000000075
 51
90.00104911645719
  0
LINE
  5
5EE
330
A
100
AcDbEntity
  8
02
100
AcDbLine
 10
203.6731192386572
 20
409.5091225850715
 30
0.0
 11
204.6735050291462
 21
409.509102419773
 31
0.0
  0
LINE
  5
5EF
330
A
100
AcDbEntity
  8
02
100
AcDbLine
 10
204.6735050291462
 20
409.509102419773
 30
0.0
 11
204.6735052212715
 21
407.5091128517447
 31
0.0
  0
LINE
  5
5F0
330
A
100
AcDbEntity
  8
02
100
AcDbLine
 10
203.6735344006749
 20
407.5091128517446
 30
0.0
 11
204.6735052212715
 21
407.5091128517447
 31
0.0
  0
LINE
  5
5F1
330
A
100
AcDbEntity
  8
02
100
AcDbLine
 10
203.6731192386569
 20
414.5091166750773
 30
0.0
 11
203.6731192386576
 21
405.0086747770282
 31
0.0
  0
ARC
  5
5F2
330
A
100
AcDbEntity
  8
02
100
AcDbCircle
 10
204.673119238657
 20
414.5091166750773
 30
0.0
 40
0.9999999999999998
100
AcDbArc
 50
90.00104911645747
 51
179.9999999999998
  0
ARC
  5
5F3
330
A
100
AcDbEntity
  8
02
100
AcDbCircle
 10
205.6735192723288
 20
404.3264716372226
 30
0.0
 40
0.9999999999999998
100
AcDbArc
 50
322.3042546317028
 51
0.0000000000000369
  0
ARC
  5
5F4
330
A
100
AcDbEntity
  8
02
100
AcDbCircle
 10
202.6739110671984
 20
414.5087343636009
 30
0.0
 40
0.9999999999999998
100
AcDbArc
 50
0.000000000000075
 51
89.99919302646963
  0
LINE
  5
5F5
330
A
100
AcDbEntity
  8
02
100
AcDbLine
 10
202.6738235916512
 20
414.0085767817152
 30
0.0
 11
202.673823591651
 21
405.5087343635016
 31
0.0
  0
ARC
  5
5F6
330
A
100
AcDbEntity
  8
02
100
AcDbCircle
 10
202.1738235916512
 20
414.0085767817152
 30
0.0
 40
0.5
100
AcDbArc
 50
0.000000000000075
 51
89.99825599077578
  0
ARC
  5
5F7
330
A
100
AcDbEntity
  8
02
100
AcDbCircle
 10
204.3742781973389
 20
409.2086449240524
 30
0.0
 40
0.2999999999999999
100
AcDbArc
 50
0.000000000000075
 51
90.000000000002
  0
ARC
  5
5F8
330
A
100
AcDbEntity
  8
02
100
AcDbCircle
 10
203.6743034683404
 20
409.0086449240525
 30
0.0
 40
0.9999999999999998
100
AcDbArc
 50
269.9288461279837
 51
0.0000000000000369
  0
LINE
  5
5F9
330
A
100
AcDbEntity
  8
02
100
AcDbLine
 10
202.673823591651
 20
405.5087343635016
 30
0.0
 11
203.6743160160456
 21
405.5087343635016
 31
0.0
  0
LINE
  5
5FA
330
A
100
AcDbEntity
  8
02
100
AcDbLine
 10
206.4647882134809
 20
403.715003352871
 30
0.0
 11
200.6823077780839
 21
396.2321996025469
 31
0.0
  0
LINE
  5
5FB
330
A
100
AcDbEntity
  8
02
100
AcDbLine
 10
203.6731192386576
 20
405.0086747770282
 30
0.0
 11
195.1730897564436
 21
394.0092337589433
 31
0.0
  0
LINE
  5
5FC
330
A
100
AcDbEntity
  8
02
100
AcDbLine
 10
189.1731421490318
 20
394.009180190196
 30
0.0
 11
195.1730897564436
 21
394.0092337589433
 31
0.0
  0
ARC
  5
5FD
330
A
100
AcDbEntity
  8
02
100
AcDbCircle
 10
189.1731153644243
 20
397.0091801900764
 30
0.0
 40
3.0
100
AcDbArc
 50
180.0002726410851
 51
270.0005115483219
  0
LINE
  5
5FE
330
A
100
AcDbEntity
  8
02
100
AcDbLine
 10
186.173040785121
 20
420.682122488037
 30
0.0
 11
186.1731534325205
 21
397.0091659148038
 31
0.0
  0
LINE
  5
5FF
330
A
100
AcDbEntity
  8
02
100
AcDbLine
 10
181.1724837301558
 20
509.0099898093036
 30
0.0
 11
181.1724750254418
 21
388.9730260594566
 31
0.0
  0
LINE
  5
600
330
A
100
AcDbEntity
  8
02
100
AcDbLine
 10
186.173093951669
 20
409.5091225772369
 30
0.0
 11
185.1730968608705
 21
409.5091024197729
 31
0.0
  0
LINE
  5
601
330
A
100
AcDbEntity
  8
02
100
AcDbLine
 10
185.1730968608705
 20
409.5091024197729
 30
0.0
 11
185.1730966687451
 21
407.5091128517451
 31
0.0
  0
LINE
  5
602
330
A
100
AcDbEntity
  8
02
100
AcDbLine
 10
186.1730877549299
 20
407.5091128517447
 30
0.0
 11
185.1730966687451
 21
407.5091128517451
 31
0.0
  0
LINE
  5
603
330
A
100
AcDbEntity
  8
02
100
AcDbLine
 10
187.1738451158536
 20
415.5087343635451
 30
0.0
 11
202.6742935614573
 21
415.5088822555052
 31
0.0
  0
ARC
  5
604
330
A
100
AcDbEntity
  8
02
100
AcDbCircle
 10
187.1738546569945
 20
414.5087343636009
 30
0.0
 40
0.9999999999999998
100
AcDbArc
 50
90.00054666709628
 51
179.9999999999998
  0
LINE
  5
605
330
A
100
AcDbEntity
  8
02
100
AcDbLine
 10
202.1742586339091
 20
414.5088659592606
 30
0.0
 11
187.6739269131902
 21
414.5085767814835
 31
0.0
  0
LINE
  5
606
330
A
100
AcDbEntity
  8
02
100
AcDbLine
 10
187.1739421325417
 20
414.0085767817152
 30
0.0
 11
187.1739421325418
 21
405.5087343635016
 31
0.0
  0
ARC
  5
607
330
A
100
AcDbEntity
  8
02
100
AcDbCircle
 10
187.6739421325418
 20
414.0085767817152
 30
0.0
 40
0.5
100
AcDbArc
 50
90.00174400922432
 51
179.9999999999998
  0
LINE
  5
608
330
A
100
AcDbEntity
  8
02
100
AcDbLine
 10
186.1738593174813
 20
405.5087343635018
 30
0.0
 11
187.1739421325418
 21
405.5087343635016
 31
0.0
  0
ARC
  5
609
330
A
100
AcDbEntity
  8
02
100
AcDbCircle
 10
185.473869933021
 20
409.2086449240524
 30
0.0
 40
0.2999999999999999
100
AcDbArc
 50
89.99999999999806
 51
179.9999999999998
  0
ARC
  5
60A
330
A
100
AcDbEntity
  8
02
100
AcDbCircle
 10
186.1738446620193
 20
409.0086449240525
 30
0.0
 40
0.9999999999999998
100
AcDbArc
 50
179.9999999999998
 51
269.9559169109759
  0
LINE
  5
60B
330
A
100
AcDbEntity
  8
02
100
AcDbLine
 10
185.8460579002714
 20
421.0091071596726
 30
0.0
 11
186.1721900311365
 21
421.3352217600878
 31
0.0
  0
LINE
  5
60C
330
A
100
AcDbEntity
  8
02
100
AcDbLine
 10
185.8460579002714
 20
421.0091071596726
 30
0.0
 11
186.173040785121
 21
420.682122488037
 31
0.0
  0
LINE
  5
60D
330
A
100
AcDbEntity
  8
02
100
AcDbLine
 10
186.1721685287284
 20
425.9094222368926
 30
0.0
 11
186.1721900311365
 21
421.3352217600878
 31
0.0
  0
LINE
  5
60E
330
A
100
AcDbEntity
  8
02
100
AcDbLine
 10
191.6724544972271
 20
425.9095423780975
 30
0.0
 11
191.6724544972271
 21
429.4093640239343
 31
0.0
  0
LINE
  5
60F
330
A
100
AcDbEntity
  8
02
100
AcDbLine
 10
189.3723984809111
 20
429.4095189354948
 30
0.0
 11
191.6724544972271
 21
429.4093640239343
 31
0.0
  0
LINE
  5
610
330
A
100
AcDbEntity
  8
02
100
AcDbLine
 10
189.3723869703895
 20
429.4097236964453
 30
0.0
 11
189.3724557884605
 21
427.9094540254622
 31
0.0
  0
LINE
  5
611
330
A
100
AcDbEntity
  8
02
100
AcDbLine
 10
185.1723115657333
 20
427.9095635135162
 30
0.0
 11
189.3724514817818
 21
427.909444802048
 31
0.0
  0
LINE
  5
612
330
A
100
AcDbEntity
  8
02
100
AcDbLine
 10
186.1723625129548
 20
425.9095118602236
 30
0.0
 11
191.6724544972271
 21
425.9095423780975
 31
0.0
  0
LINE
  5
613
330
A
100
AcDbEntity
  8
02
100
AcDbLine
 10
185.1724389598545
 20
436.1097645321181
 30
0.0
 11
185.1724536116194
 21
427.9095081844671
 31
0.0
  0
LINE
  5
614
330
A
100
AcDbEntity
  8
02
100
AcDbLine
 10
185.172443802865
 20
436.1098675514523
 30
0.0
 11
189.3724550773468
 21
436.1095989484265
 31
0.0
  0
LINE
  5
615
330
A
100
AcDbEntity
  8
02
100
AcDbLine
 10
189.372383405467
 20
434.6094797539937
 30
0.0
 11
191.6379474648596
 21
434.6094998449293
 31
0.0
  0
LINE
  5
616
330
A
100
AcDbEntity
  8
02
100
AcDbLine
 10
189.3724546778329
 20
436.1094111638243
 30
0.0
 11
189.3724519812958
 21
434.6095027163395
 31
0.0
  0
LINE
  5
617
330
A
100
AcDbEntity
  8
02
100
AcDbLine
 10
189.3724453532918
 20
436.1095219374362
 30
0.0
 11
189.3724426200271
 21
434.6096360879308
 31
0.0
  0
LINE
  5
618
330
A
100
AcDbEntity
  8
02
100
AcDbLine
 10
191.6724756951741
 20
511.0094492030158
 30
0.0
 11
183.121145660829
 21
511.0093271330329
 31
0.0
  0
ARC
  5
619
330
A
100
AcDbEntity
  8
02
100
AcDbCircle
 10
183.1724902133304
 20
509.0099517492273
 30
0.0
 40
1.999999999999999
100
AcDbArc
 50
91.47111205424524
 51
180.000001158541
  0
LINE
  5
61A
330
A
100
AcDbEntity
  8
02
100
AcDbLine
 10
191.6724783438595
 20
511.0093870065361
 30
0.0
 11
191.6724899222949
 21
508.0094828236585
 31
0.0
  0
LINE
  5
61B
330
A
100
AcDbEntity
  8
02
100
AcDbLine
 10
191.6724899222949
 20
508.0094828236585
 30
0.0
 11
190.6725465178416
 21
506.0094840411464
 31
0.0
  0
LINE
  5
61C
330
A
100
AcDbEntity
  8
02
100
AcDbLine
 10
189.3723462602519
 20
508.5092242349498
 30
0.0
 11
189.3726082569592
 21
506.009543842915
 31
0.0
  0
LINE
  5
61D
330
A
100
AcDbEntity
  8
02
100
AcDbLine
 10
191.6724820720479
 20
508.0096358376798
 30
0.0
 11
190.6725319696558
 21
506.0096309078711
 31
0.0
  0
LINE
  5
61E
330
A
100
AcDbEntity
  8
02
100
AcDbLine
 10
189.3724527645655
 20
506.0098811742371
 30
0.0
 11
190.6725319696558
 21
506.0096309078711
 31
0.0
  0
LINE
  5
61F
330
A
100
AcDbEntity
  8
02
100
AcDbLine
 10
189.3723375604517
 20
508.5099129881313
 30
0.0
 11
189.3725989025549
 21
506.0096864520996
 31
0.0
  0
LINE
  5
620
330
A
100
AcDbEntity
  8
02
100
AcDbLine
 10
189.3724255494429
 20
508.5097637902586
 30
0.0
 11
189.3724282938483
 21
506.0095438462028
 31
0.0
  0
LINE
  5
621
330
A
100
AcDbEntity
  8
02
100
AcDbLine
 10
189.372508013422
 20
506.0097482137712
 30
0.0
 11
190.6725916625191
 21
506.0095651082076
 31
0.0
  0
LINE
  5
622
330
A
100
AcDbEntity
  8
02
100
AcDbLine
 10
189.3723920893864
 20
508.5098677875045
 30
0.0
 11
189.3726541514461
 21
506.0095638750635
 31
0.0
  0
LINE
  5
623
330
A
100
AcDbEntity
  8
02
100
AcDbLine
 10
191.6724544972271
 20
434.6094998449292
 30
0.0
 11
191.6724546930453
 21
439.0098200477368
 31
0.0
  0
LINE
  5
624
330
A
100
AcDbEntity
  8
02
100
AcDbLine
 10
191.672536763527
 20
434.6096147971966
 30
0.0
 11
191.6725825462497
 21
439.0096672581976
 31
0.0
  0
LINE
  5
625
330
A
100
AcDbEntity
  8
02
100
AcDbLine
 10
190.6726105530679
 20
441.0096091688774
 30
0.0
 11
191.672582546256
 21
439.0096587331411
 31
0.0
  0
LINE
  5
626
330
A
100
AcDbEntity
  8
02
100
AcDbLine
 10
189.3724973402821
 20
441.0094875883149
 30
0.0
 11
190.6726205064144
 21
441.0094875881759
 31
0.0
  0
LINE
  5
627
330
A
100
AcDbEntity
  8
02
100
AcDbLine
 10
190.6726199074435
 20
441.0095206346771
 30
0.0
 11
191.6724546930453
 21
439.0098200477368
 31
0.0
  0
LINE
  5
628
330
A
100
AcDbEntity
  8
02
100
AcDbLine
 10
189.3724973402821
 20
441.0094875883149
 30
0.0
 11
189.3725023093787
 21
438.5094901168828
 31
0.0
  0
LINE
  5
629
330
A
100
AcDbEntity
  8
02
100
AcDbLine
 10
189.3724879858998
 20
441.009601272576
 30
0.0
 11
190.6726111520459
 21
441.0096033697153
 31
0.0
  0
LINE
  5
62A
330
A
100
AcDbEntity
  8
02
100
AcDbLine
 10
189.372492955002
 20
438.509603560538
 30
0.0
 11
189.3724879858998
 21
441.009601272576
 31
0.0
  0
LINE
  5
62B
330
A
100
AcDbEntity
  8
02
100
AcDbLine
 10
185.1726037141636
 20
438.5094956206962
 30
0.0
 11
189.3725482724656
 21
438.5094901170417
 31
0.0
  0
LINE
  5
62C
330
A
100
AcDbEntity
  8
02
100
AcDbLine
 10
185.1724902280853
 20
508.5096465740685
 30
0.0
 11
185.1725576268323
 21
438.5094628951329
 31
0.0
  0
LINE
  5
62D
330
A
100
AcDbEntity
  8
CHUSIN
100
AcDbLine
 10
145.336469462672
 20
450.0093334654131
 30
0.0
 11
195.5213609205281
 21
450.0093334654131
 31
0.0
  0
LINE
  5
62E
330
A
100
AcDbEntity
  8
CHUSIN
100
AcDbLine
 10
145.336469462672
 20
495.0093334654131
 30
0.0
 11
195.5213609205281
 21
495.0093334654131
 31
0.0
  0
POLYLINE
  5
655
330
A
100
AcDbEntity
  8
DEFPOINTS
100
AcDb2dPolyline
 66
     1
 10
0.0
 20
0.0
 30
0.0
 70
     1
  0
VERTEX
  5
1671
330
655
100
AcDbEntity
  8
DEFPOINTS
100
AcDbVertex
100
AcDb2dVertex
 10
0.0
 20
0.0
 30
0.0
  0
VERTEX
  5
1672
330
655
100
AcDbEntity
  8
DEFPOINTS
100
AcDbVertex
100
AcDb2dVertex
 10
420.0
 20
0.0
 30
0.0
  0
VERTEX
  5
1673
330
655
100
AcDbEntity
  8
DEFPOINTS
100
AcDbVertex
100
AcDb2dVertex
 10
420.0
 20
594.0
 30
0.0
  0
VERTEX
  5
1674
330
655
100
AcDbEntity
  8
DEFPOINTS
100
AcDbVertex
100
AcDb2dVertex
 10
0.0
 20
594.0
 30
0.0
  0
SEQEND
  5
1675
330
655
100
AcDbEntity
  8
DEFPOINTS
  0
DIMENSION
  5
661
330
A
100
AcDbEntity
  8
SUNPOU
100
AcDbDimension
  2
*D0
 10
316.6725055395152
 20
573.6413888982935
 30
0.0
 11
216.6725055395152
 21
578.1413888982934
 31
0.0
 70
    32
  3
SUNPOU_2
100
AcDbAlignedDimension
 13
116.6725055395152
 23
248.009433962264
 33
0.0
 14
316.6725055395152
 24
556.0094339622642
 34
0.0
100
AcDbRotatedDimension
  0
DIMENSION
  5
66E
330
A
100
AcDbEntity
  8
SUNPOU
100
AcDbDimension
  2
*D1
 10
289.6725055395151
 20
562.8431257617823
 30
0.0
 11
205.6725055395151
 21
567.3431257617822
 31
0.0
 70
    32
  3
SUNPOU_2
100
AcDbAlignedDimension
 13
121.6725055395152
 23
538.0094339622642
 33
0.0
 14
289.6725055395151
 24
556.0094339622641
 34
0.0
100
AcDbRotatedDimension
  0
DIMENSION
  5
68A
330
A
100
AcDbEntity
  8
SUNPOU
100
AcDbDimension
  2
*D2
 10
291.6725055395152
 20
562.8431257617823
 30
0.0
 11
290.6725055395152
 21
569.4374908650411
 31
0.0
 70
   160
  3
SUNPOU_2
100
AcDbAlignedDimension
 13
289.6725055395151
 23
556.0094339622641
 33
0.0
 14
291.6725055395152
 24
556.0094339622641
 34
0.0
100
AcDbRotatedDimension
  0
DIMENSION
  5
699
330
A
100
AcDbEntity
  8
SUNPOU
100
AcDbDimension
  2
*D3
 10
316.6725055395152
 20
562.8431257617823
 30
0.0
 11
304.1725055395152
 21
567.3431257617822
 31
0.0
 70
    32
  3
SUNPOU_2
100
AcDbAlignedDimension
 13
291.6725055395152
 23
556.0094339622641
 33
0.0
 14
316.6725055395152
 24
556.0094339622641
 34
0.0
100
AcDbRotatedDimension
  0
DIMENSION
  5
6A6
330
A
100
AcDbEntity
  8
SUNPOU
100
AcDbDimension
  2
*D4
 10
246.6725055395151
 20
341.0644513964538
 30
0.0
 11
210.95791317169
 21
345.5644513964537
 31
0.0
 70
   160
  3
SUNPOU_2
100
AcDbAlignedDimension
 13
181.1725055395151
 23
386.0094339622641
 33
0.0
 14
246.6725055395151
 24
348.1094238235537
 34
0.0
100
AcDbRotatedDimension
  0
DIMENSION
  5
6B3
330
A
100
AcDbEntity
  8
SUNPOU
100
AcDbDimension
  2
*D5
 10
291.6725055395152
 20
341.0644513964538
 30
0.0
 11
278.7838387563029
 21
345.5644513964537
 31
0.0
 70
   160
  3
SUNPOU_2
100
AcDbAlignedDimension
 13
246.6725055395151
 23
348.1094238235537
 33
0.0
 14
291.6725055395152
 24
368.509433962264
 34
0.0
100
AcDbRotatedDimension
  0
DIMENSION
  5
6C0
330
A
100
AcDbEntity
  8
SUNPOU
100
AcDbDimension
  2
*D6
 10
221.6725055395151
 20
326.0094339622641
 30
0.0
 11
201.4225055395151
 21
330.5094339622641
 31
0.0
 70
    32
  3
SUNPOU_2
100
AcDbAlignedDimension
 13
181.1725055395151
 23
386.0094339622641
 33
0.0
 14
221.6725055395151
 24
386.0094339622641
 34
0.0
100
AcDbRotatedDimension
  0
DIMENSION
  5
6CD
330
A
100
AcDbEntity
  8
SUNPOU
100
AcDbDimension
  2
*D7
 10
121.6725055395152
 20
311.0094339622641
 30
0.0
 11
119.1725055395152
 21
315.7546992247461
 31
0.0
 70
   160
  3
SUNPOU_2
100
AcDbAlignedDimension
 13
116.6725055395152
 23
311.0094339622641
 33
0.0
 14
121.6725055395152
 24
311.0094339622641
 34
0.0
100
AcDbRotatedDimension
  0
DIMENSION
  5
6DC
330
A
100
AcDbEntity
  8
SUNPOU
100
AcDbDimension
  2
*D8
 10
221.6725055395151
 20
311.0094339622641
 30
0.0
 11
171.6725055395151
 21
315.5094339622641
 31
0.0
 70
    32
  3
SUNPOU_2
100
AcDbAlignedDimension
 13
121.6725055395152
 23
311.0094339622641
 33
0.0
 14
221.6725055395151
 24
386.0094339622641
 34
0.0
100
AcDbRotatedDimension
  0
DIMENSION
  5
6E9
330
A
100
AcDbEntity
  8
SUNPOU
100
AcDbDimension
  2
*D9
 10
226.6725055395152
 20
311.0094339622641
 30
0.0
 11
224.1725055395151
 21
315.6052039504561
 31
0.0
 70
   160
  3
SUNPOU_2
100
AcDbAlignedDimension
 13
221.6725055395151
 23
386.0094339622641
 33
0.0
 14
226.6725055395152
 24
366.0094339622641
 34
0.0
100
AcDbRotatedDimension
  0
DIMENSION
  5
6F8
330
A
100
AcDbEntity
  8
SUNPOU
100
AcDbDimension
  2
*D10
 10
266.6725055395152
 20
311.0094339622641
 30
0.0
 11
246.6725055395151
 21
315.5094339622641
 31
0.0
 70
    32
  3
SUNPOU_2
100
AcDbAlignedDimension
 13
226.6725055395152
 23
366.0094339622641
 33
0.0
 14
266.6725055395152
 24
366.0094339622641
 34
0.0
100
AcDbRotatedDimension
  0
DIMENSION
  5
70E
330
A
100
AcDbEntity
  8
SUNPOU
100
AcDbDimension
  2
*D11
 10
271.6725055395152
 20
311.0094339622641
 30
0.0
 11
269.1725055395152
 21
315.6049532911201
 31
0.0
 70
   160
  3
SUNPOU_2
100
AcDbAlignedDimension
 13
266.6725055395152
 23
366.0094339622641
 33
0.0
 14
271.6725055395152
 24
356.009433962264
 34
0.0
100
AcDbRotatedDimension
  0
DIMENSION
  5
71D
330
A
100
AcDbEntity
  8
SUNPOU
100
AcDbDimension
  2
*D12
 10
316.6725055395152
 20
311.0094339622641
 30
0.0
 11
294.1725055395152
 21
315.5094339622641
 31
0.0
 70
    32
  3
SUNPOU_2
100
AcDbAlignedDimension
 13
271.6725055395152
 23
356.009433962264
 33
0.0
 14
316.6725055395152
 24
356.009433962264
 34
0.0
100
AcDbRotatedDimension
  0
DIMENSION
  5
72A
330
A
100
AcDbEntity
  8
SUNPOU
100
AcDbDimension
  2
*D13
 10
316.6725055395152
 20
296.0094339622641
 30
0.0
 11
206.794794797513
 21
300.5094339622641
 31
0.0
 70
   160
  3
SUNPOU_2
100
AcDbAlignedDimension
 13
116.6725055395152
 23
296.0094339622641
 33
0.0
 14
316.6725055395152
 24
356.009433962264
 34
0.0
100
AcDbRotatedDimension
  0
DIMENSION
  5
737
330
A
100
AcDbEntity
  8
SUNPOU
100
AcDbDimension
  2
*D14
 10
76.67250553951524
 20
386.0094339622641
 30
0.0
 11
72.17250553951519
 21
371.0094339622641
 31
0.0
 70
    32
  3
SUNPOU_2
100
AcDbAlignedDimension
 13
121.6725055395152
 23
356.009433962264
 33
0.0
 14
181.1725055395151
 24
386.0094339622641
 34
0.0
 50
90.0
100
AcDbRotatedDimension
  0
DIMENSION
  5
744
330
A
100
AcDbEntity
  8
SUNPOU
100
AcDbDimension
  2
*D15
 10
76.67250553951527
 20
521.009433962264
 30
0.0
 11
68.00583887284851
 21
453.5094339622641
 31
0.0
 70
    32
  1
\P有効寸法　<>以上
  3
SUNPOU_2
100
AcDbAlignedDimension
 13
181.1725055395151
 23
386.0094339622641
 33
0.0
 14
181.1725055395151
 24
521.009433962264
 34
0.0
 50
90.0
100
AcDbRotatedDimension
  0
DIMENSION
  5
751
330
A
100
AcDbEntity
  8
SUNPOU
100
AcDbDimension
  2
*D16
 10
106.6725055395152
 20
450.0093334654131
 30
0.0
 11
102.1725055395151
 21
418.0093837138386
 31
0.0
 70
    32
  3
SUNPOU_2
100
AcDbAlignedDimension
 13
181.1725055395151
 23
386.0094339622641
 33
0.0
 14
145.336469462672
 24
450.0093334654131
 34
0.0
 50
90.0
100
AcDbRotatedDimension
  0
DIMENSION
  5
75E
330
A
100
AcDbEntity
  8
SUNPOU
100
AcDbDimension
  2
*D17
 10
106.6725055395152
 20
495.0093334654131
 30
0.0
 11
102.1725055395151
 21
472.5093334654132
 31
0.0
 70
    32
  3
SUNPOU_2
100
AcDbAlignedDimension
 13
145.336469462672
 23
450.0093334654131
 33
0.0
 14
145.336469462672
 24
495.0093334654131
 34
0.0
 50
90.0
100
AcDbRotatedDimension
  0
DIMENSION
  5
76B
330
A
100
AcDbEntity
  8
SUNPOU
100
AcDbDimension
  2
*D18
 10
91.67250553951523
 20
511.0093271330329
 30
0.0
 11
87.17250553951515
 21
448.5093805476487
 31
0.0
 70
    32
  3
SUNPOU_2
100
AcDbAlignedDimension
 13
181.1725055395151
 23
386.0094339622641
 33
0.0
 14
183.121145660829
 24
511.0093271330329
 34
0.0
 50
90.0
100
AcDbRotatedDimension
  0
DIMENSION
  5
778
330
A
100
AcDbEntity
  8
SUNPOU
100
AcDbDimension
  2
*D19
 10
106.6725055395152
 20
227.009433962264
 30
0.0
 11
102.1725055395152
 21
194.3729035639413
 31
0.0
 70
    32
  1
600
  3
SUNPOU_2
100
AcDbAlignedDimension
 13
221.6725055395151
 23
161.7363731656183
 33
0.0
 14
156.7465641271371
 24
227.009433962264
 34
0.0
 50
90.0
100
AcDbRotatedDimension
  0
DIMENSION
  5
78E
330
A
100
AcDbEntity
  8
SUNPOU
100
AcDbDimension
  2
*D20
 10
300.1725055395155
 20
164.7363731656182
 30
0.0
 11
295.6725055395155
 21
152.2363731656183
 31
0.0
 70
    32
  3
SUNPOU_2
100
AcDbAlignedDimension
 13
256.7725055395155
 23
139.7363731656183
 33
0.0
 14
264.4225055395156
 24
164.7363731656182
 34
0.0
 50
90.0
100
AcDbRotatedDimension
  0
DIMENSION
  5
79B
330
A
100
AcDbEntity
  8
SUNPOU
100
AcDbDimension
  2
*D21
 10
278.635561186763
 20
164.7363731656182
 30
0.0
 11
274.135561186763
 21
154.2120352810143
 31
0.0
 70
   160
  3
SUNPOU_2
100
AcDbAlignedDimension
 13
265.1725055395156
 23
161.7363731656183
 33
0.0
 14
264.4225055395156
 24
164.7363731656182
 34
0.0
 50
90.0
100
AcDbRotatedDimension
  0
DIMENSION
  5
7AA
330
A
100
AcDbEntity
  8
SUNPOU
100
AcDbDimension
  2
*D22
 10
341.6725055395152
 20
171.7363731656184
 30
0.0
 11
337.1725055395151
 21
166.7363731656184
 31
0.0
 70
    32
  3
SUNPOU_2
100
AcDbAlignedDimension
 13
265.1725055395156
 23
161.7363731656183
 33
0.0
 14
266.6725055395152
 24
171.7363731656184
 34
0.0
 50
90.0
100
AcDbRotatedDimension
  0
DIMENSION
  5
7B9
330
A
100
AcDbEntity
  8
SUNPOU
100
AcDbDimension
  2
*D23
 10
341.6725055395152
 20
356.009433962264
 30
0.0
 11
337.1725055395151
 21
263.8729035639412
 31
0.0
 70
    32
  1
DH
  3
SUNPOU_2
100
AcDbAlignedDimension
 13
266.6725055395152
 23
171.7363731656184
 33
0.0
 14
316.6725055395152
 24
356.009433962264
 34
0.0
 50
90.0
100
AcDbRotatedDimension
  0
DIMENSION
  5
7C6
330
A
100
AcDbEntity
  8
SUNPOU
100
AcDbDimension
  2
*D24
 10
341.6725055395152
 20
366.0094339622641
 30
0.0
 11
337.1725055395151
 21
361.0094339622641
 31
0.0
 70
    32
  3
SUNPOU_2
100
AcDbAlignedDimension
 13
316.6725055395152
 23
356.009433962264
 33
0.0
 14
266.6725055395152
 24
366.0094339622641
 34
0.0
 50
90.0
100
AcDbRotatedDimension
  0
DIMENSION
  5
7D5
330
A
100
AcDbEntity
  8
SUNPOU
100
AcDbDimension
  2
*D25
 10
356.6725055395151
 20
356.009433962264
 30
0.0
 11
352.1725055395151
 21
258.8729035639413
 31
0.0
 70
    32
  1
H
  3
SUNPOU_2
100
AcDbAlignedDimension
 13
265.1725055395156
 23
161.7363731656183
 33
0.0
 14
316.6725055395152
 24
356.009433962264
 34
0.0
 50
90.0
100
AcDbRotatedDimension
  0
DIMENSION
  5
7E2
330
A
100
AcDbEntity
  8
SUNPOU
100
AcDbDimension
  2
*D26
 10
356.6725055395151
 20
556.0094339622641
 30
0.0
 11
352.1725055395151
 21
456.0094339622641
 31
0.0
 70
    32
  3
SUNPOU_2
100
AcDbAlignedDimension
 13
316.6725055395152
 23
356.009433962264
 33
0.0
 14
316.6725055395152
 24
556.0094339622641
 34
0.0
 50
90.0
100
AcDbRotatedDimension
  0
DIMENSION
  5
7EF
330
A
100
AcDbEntity
  8
SUNPOU
100
AcDbDimension
  2
*D27
 10
121.6725055395152
 20
562.8431257617823
 30
0.0
 11
119.1725055395152
 21
569.3009198930536
 31
0.0
 70
   160
  3
SUNPOU_2
100
AcDbAlignedDimension
 13
116.6725055395152
 23
248.009433962264
 33
0.0
 14
121.6725055395152
 24
538.0094339622642
 34
0.0
100
AcDbRotatedDimension
  0
LEADER
  5
84D
330
A
100
AcDbEntity
  8
HIKIDASI
100
AcDbLeader
  3
SUNPOU_2
 73
     0
 74
     0
 75
     1
 40
13.33333333333333
 41
28.26666666666666
 76
     3
 10
246.6725055395151
 20
359.0094339622641
 30
0.0
 10
273.4012523958414
 20
263.0955325854261
 30
0.0
 10
278.4012523958415
 20
263.0955325854261
 30
0.0
340
84E
213
0.0
223
8.863243043742413
233
0.0
1001
ACAD
1000
DSTYLE
1002
{
1070
     5
1000
OPEN30
1070
    77
1070
     1
1070
   147
1040
1.0
1070
   342
1005
D5B
1002
}
1000
LEANOF
1010
0.0
1020
8.863243043742413
1030
0.0
1000
LEANOF
1010
0.0
1020
8.863243043742413
1030
0.0
  0
MTEXT
  5
84E
330
A
100
AcDbEntity
  8
HIKIDASI
100
AcDbMText
 10
280.4012523958414
 20
256.2322895416837
 30
0.0
 40
5.0
 41
0.0
 71
     7
 72
     1
  1
FB－6×25\P（建具工事）
  7
SUNPOU
1001
ACAD
1000
MTEXTBEGIN
1070
    73
1070
     1
1070
    44
1040
1.0
1070
    74
1070
     0
1000
MTEXTEND
1000
MTEXTBEGIN
1070
    73
1070
     1
1070
    44
1040
1.0
1070
    74
1070
     0
1000
MTEXTEND
  0
LEADER
  5
850
330
A
100
AcDbEntity
  8
HIKIDASI
100
AcDbLeader
  3
SUNPOU_2
 73
     0
 74
     0
 75
     1
 40
13.33333333333333
 41
50.93333333333333
 76
     3
 10
265.1725055395155
 20
155.9676131636505
 30
0.0
 10
307.0141749690017
 20
113.9876495332024
 30
0.0
 10
312.0141749690017
 20
113.9876495332024
 30
0.0
340
851
213
0.0
223
8.911573958735969
233
0.0
1001
ACAD
1000
DSTYLE
1002
{
1070
     5
1000
OPEN30
1070
    77
1070
     1
1070
   147
1040
1.0
1070
   342
1005
D5B
1002
}
1000
LEANOF
1010
0.0
1020
8.911573958735969
1030
0.0
1000
LEANOF
1010
0.0
1020
8.911573958735969
1030
0.0
  0
MTEXT
  5
851
330
A
100
AcDbEntity
  8
HIKIDASI
100
AcDbMText
 10
314.0141749690017
 20
107.0760755744665
 30
0.0
 40
5.0
 41
0.0
 71
     7
 72
     1
  1
ステンレスガイドレール\P（建具工事）
  7
SUNPOU
1001
ACAD
1000
MTEXTBEGIN
1070
    73
1070
     1
1070
    44
1040
1.0
1070
    74
1070
     0
1000
MTEXTEND
1000
MTEXTBEGIN
1070
    73
1070
     1
1070
    44
1040
1.0
1070
    74
1070
     0
1000
MTEXTEND
  0
LEADER
  5
853
330
A
100
AcDbEntity
  8
HIKIDASI
100
AcDbLeader
  3
SUNPOU_2
 73
     0
 75
     1
 40
21.66666666666666
 41
37.06666666666665
 76
     3
 10
171.6725055395159
 20
233.0094339622636
 30
0.0
 10
96.01660612174875
 20
276.9454712112987
 30
0.0
 10
91.01660612174873
 20
276.9454712112987
 30
0.0
340
854
213
0.0
223
16.87870422679293
233
0.0
1001
ACAD
1000
DSTYLE
1002
{
1070
     5
1000
OPEN30
1070
    77
1070
     1
1070
   147
1040
1.0
1070
   342
1005
D5B
1002
}
1000
LEANOF
1010
0.0
1020
16.87870422679293
1030
0.0
1000
LEANOF
1010
0.0
1020
16.87870422679293
1030
0.0
  0
MTEXT
  5
854
330
A
100
AcDbEntity
  8
HIKIDASI
100
AcDbMText
 10
89.01660612174874
 20
262.0667669845058
 30
0.0
 40
5.0
 41
0.0
 71
     9
 72
     1
  1
補助光電スイッチ\Pφ12穴加工\P（建具工事）
  7
SUNPOU
1001
ACAD
1000
MTEXTBEGIN
1070
    73
1070
     1
1070
    44
1040
1.0
1070
    74
1070
     0
1000
MTEXTEND
1000
MTEXTBEGIN
1070
    73
1070
     1
1070
    44
1040
1.0
1070
    74
1070
     0
1000
MTEXTEND
  0
LEADER
  5
856
330
A
100
AcDbEntity
  8
HIKIDASI
100
AcDbLeader
  3
SUNPOU_2
 73
     0
 75
     1
 40
13.33333333333333
 41
28.26666666666666
 76
     3
 10
234.5568955235321
 20
177.7363731656184
 30
0.0
 10
215.959960988254
 20
188.3269791982188
 30
0.0
 10
210.9599609882541
 20
188.3269791982188
 30
0.0
340
857
213
0.0
223
8.560450791259199
233
0.0
1001
ACAD
1000
DSTYLE
1002
{
1070
     5
1000
OPEN30
1070
    77
1070
     1
1070
   147
1040
1.0
1070
   342
1005
D5B
1002
}
1000
LEANOF
1010
0.0
1020
8.560450791259199
1030
0.0
1000
LEANOF
1010
0.0
1020
8.560450791259199
1030
0.0
  0
MTEXT
  5
857
330
A
100
AcDbEntity
  8
HIKIDASI
100
AcDbMText
 10
208.9599609882541
 20
181.7665284069596
 30
0.0
 40
5.0
 41
0.0
 71
     9
 72
     1
  1
FB－6×25\P（建具工事）
  7
SUNPOU
1001
ACAD
1000
MTEXTBEGIN
1070
    73
1070
     1
1070
    44
1040
1.0
1070
    74
1070
     0
1000
MTEXTEND
1000
MTEXTBEGIN
1070
    73
1070
     1
1070
    44
1040
1.0
1070
    74
1070
     0
1000
MTEXTEND
  0
LINE
  5
A30
330
A
100
AcDbEntity
  8
02
100
AcDbLine
 10
208.2957038321205
 20
385.624211949823
 30
0.0
 11
208.5180538152996
 21
386.0093334654131
 31
0.0
  0
MTEXT
  5
B12
330
A
100
AcDbEntity
  8
MOJI
100
AcDbMText
 10
74.34160511649776
 20
321.5226415094341
 30
0.0
 40
6.0
 41
10.0
 71
     5
 72
     1
  1
外\P\P部
  7
0_8
1001
ACAD
1000
MTEXTBEGIN
1070
    73
1070
     1
1070
    44
1040
1.0
1070
    74
1070
     0
1000
MTEXTEND
1000
MTEXTBEGIN
1070
    73
1070
     1
1070
    44
1040
1.0
1070
    74
1070
     0
1000
MTEXTEND
  0
POLYLINE
  5
B13
330
A
100
AcDbEntity
  8
SAISEN
100
AcDb2dPolyline
 66
     1
 10
0.0
 20
0.0
 30
0.0
 70
     1
  0
VERTEX
  5
1676
330
B13
100
AcDbEntity
  8
SAISEN
100
AcDbVertex
100
AcDb2dVertex
 10
69.34160511649776
 20
306.5226415094341
 30
0.0
  0
VERTEX
  5
1677
330
B13
100
AcDbEntity
  8
SAISEN
100
AcDbVertex
100
AcDb2dVertex
 10
79.34160511649776
 20
306.5226415094341
 30
0.0
  0
VERTEX
  5
1678
330
B13
100
AcDbEntity
  8
SAISEN
100
AcDbVertex
100
AcDb2dVertex
 10
79.34160511649776
 20
336.5226415094341
 30
0.0
  0
VERTEX
  5
1679
330
B13
100
AcDbEntity
  8
SAISEN
100
AcDbVertex
100
AcDb2dVertex
 10
69.34160511649776
 20
336.5226415094341
 30
0.0
  0
SEQEND
  5
167A
330
B13
100
AcDbEntity
  8
SAISEN
  0
POLYLINE
  5
B15
330
A
100
AcDbEntity
  8
SAISEN
100
AcDb2dPolyline
 66
     1
 10
0.0
 20
0.0
 30
0.0
 70
     1
  0
VERTEX
  5
167B
330
B15
100
AcDbEntity
  8
SAISEN
100
AcDbVertex
100
AcDb2dVertex
 10
370.0
 20
306.5226415094341
 30
0.0
  0
VERTEX
  5
167C
330
B15
100
AcDbEntity
  8
SAISEN
100
AcDbVertex
100
AcDb2dVertex
 10
380.0
 20
306.5226415094341
 30
0.0
  0
VERTEX
  5
167D
330
B15
100
AcDbEntity
  8
SAISEN
100
AcDbVertex
100
AcDb2dVertex
 10
380.0
 20
336.5226415094341
 30
0.0
  0
VERTEX
  5
167E
330
B15
100
AcDbEntity
  8
SAISEN
100
AcDbVertex
100
AcDb2dVertex
 10
370.0
 20
336.5226415094341
 30
0.0
  0
SEQEND
  5
167F
330
B15
100
AcDbEntity
  8
SAISEN
  0
MTEXT
  5
B16
330
A
100
AcDbEntity
  8
MOJI
100
AcDbMText
 10
375.0
 20
321.5226415094341
 30
0.0
 40
6.0
 41
10.0
 71
     5
 72
     1
  1
内\P\P部
  7
0_8
1001
ACAD
1000
MTEXTBEGIN
1070
    73
1070
     1
1070
    44
1040
1.0
1070
    74
1070
     0
1000
MTEXTEND
1000
MTEXTBEGIN
1070
    73
1070
     1
1070
    44
1040
1.0
1070
    74
1070
     0
1000
MTEXTEND
  0
TEXT
  5
B45
330
A
100
AcDbEntity
  8
MOJI
100
AcDbText
 10
84.47235219640333
 20
164.8363731656183
 30
0.0
 40
5.0
  1
Ｆ.Ｌ
 41
0.8
  7
0_8
 11
84.47235219640333
 21
167.3363731656183
 31
0.0
100
AcDbText
 73
     2
  0
ARC
  5
118F
330
A
100
AcDbEntity
  8
06
100
AcDbCircle
 10
397.055352405707
 20
134.2891555457861
 30
0.0
 40
230.0
100
AcDbArc
 50
124.5330791023627
 51
137.7991803093945
  0
ARC
  5
1190
330
A
100
AcDbEntity
  8
06
100
AcDbCircle
 10
397.055352405707
 20
134.2891555457861
 30
0.0
 40
280.0
100
AcDbArc
 50
125.6978097518742
 51
127.4818561521324
  0
ARC
  5
1191
330
A
100
AcDbEntity
  8
06
100
AcDbCircle
 10
397.055352405707
 20
134.2891555457861
 30
0.0
 40
270.0
100
AcDbArc
 50
124.8750252466289
 51
129.1274535186774
  0
ARC
  5
1192
330
A
100
AcDbEntity
  8
06
100
AcDbCircle
 10
397.055352405707
 20
134.2891555457861
 30
0.0
 40
260.0
100
AcDbArc
 50
120.0974669285445
 51
130.9811083890692
  0
ARC
  5
1193
330
A
100
AcDbEntity
  8
06
100
AcDbCircle
 10
397.055352405707
 20
134.2891555457861
 30
0.0
 40
250.0
100
AcDbArc
 50
121.4350301076581
 51
132.9634272716984
  0
ARC
  5
1194
330
A
100
AcDbEntity
  8
06
100
AcDbCircle
 10
397.055352405707
 20
134.2891555457861
 30
0.0
 40
240.0
100
AcDbArc
 50
122.9059652077057
 51
135.2291005177969
  0
ARC
  5
1195
330
A
100
AcDbEntity
  8
06
100
AcDbCircle
 10
397.055352405707
 20
134.2891555457861
 30
0.0
 40
190.0
100
AcDbArc
 50
134.1669799701325
 51
136.1109090791894
  0
ARC
  5
1196
330
A
100
AcDbEntity
  8
06
100
AcDbCircle
 10
397.055352405707
 20
134.2891555457861
 30
0.0
 40
200.0
100
AcDbArc
 50
130.6860828979266
 51
137.469214854315
  0
ARC
  5
1197
330
A
100
AcDbEntity
  8
06
100
AcDbCircle
 10
397.055352405707
 20
134.2891555457861
 30
0.0
 40
220.0
100
AcDbArc
 50
126.3452371042329
 51
140.7567779142677
  0
ARC
  5
1198
330
A
100
AcDbEntity
  8
06
100
AcDbCircle
 10
397.055352405707
 20
134.2891555457861
 30
0.0
 40
210.0
100
AcDbArc
 50
128.3797454687569
 51
135.6797656994592
  0
ARC
  5
1199
330
A
100
AcDbEntity
  8
06
100
AcDbCircle
 10
397.055352405707
 20
134.2891555457861
 30
0.0
 40
210.0
100
AcDbArc
 50
136.9194773262802
 51
141.1532555770262
  0
ARC
  5
11A9
330
A
100
AcDbEntity
  8
06
100
AcDbCircle
 10
340.2181254210215
 20
15.72871152965555
 30
0.0
 40
190.0
100
AcDbArc
 50
124.1088174066629
 51
124.8056470356349
  0
ARC
  5
11AA
330
A
100
AcDbEntity
  8
06
100
AcDbCircle
 10
340.2181254210215
 20
15.72871152965555
 30
0.0
 40
180.0
100
AcDbArc
 50
114.116089220026
 51
116.5818402846713
  0
ARC
  5
11AB
330
A
100
AcDbEntity
  8
06
100
AcDbCircle
 10
340.2181254210215
 20
15.72871152965555
 30
0.0
 40
200.0
100
AcDbArc
 50
111.5755713512835
 51
124.5919506820257
  0
ARC
  5
11AC
330
A
100
AcDbEntity
  8
06
100
AcDbCircle
 10
340.2181254210215
 20
15.72871152965555
 30
0.0
 40
190.0
100
AcDbArc
 50
112.7730673743542
 51
120.9144836856417
  0
ARC
  5
11AD
330
A
100
AcDbEntity
  8
06
100
AcDbCircle
 10
340.2181254210215
 20
15.72871152965555
 30
0.0
 40
210.0
100
AcDbArc
 50
115.0283345580074
 51
122.7308559789603
  0
ARC
  5
11AE
330
A
100
AcDbEntity
  8
06
100
AcDbCircle
 10
340.2181254210215
 20
15.72871152965555
 30
0.0
 40
220.0
100
AcDbArc
 50
120.1272989049255
 51
121.0721095612963
  0
ARC
  5
11AF
330
A
100
AcDbEntity
  8
06
100
AcDbCircle
 10
340.2181254210215
 20
15.72871152965555
 30
0.0
 40
210.0
100
AcDbArc
 50
110.5006029044902
 51
110.8250863747171
  0
ARC
  5
11B0
330
A
100
AcDbEntity
  8
06
100
AcDbCircle
 10
340.2181254210215
 20
15.72871152965555
 30
0.0
 40
230.0
100
AcDbArc
 50
108.6486268871336
 51
119.5825221861521
  0
ARC
  5
11B1
330
A
100
AcDbEntity
  8
06
100
AcDbCircle
 10
340.2181254210215
 20
15.72871152965555
 30
0.0
 40
220.0
100
AcDbArc
 50
109.5298718963957
 51
116.8508767951593
  0
ARC
  5
11B2
330
A
100
AcDbEntity
  8
06
100
AcDbCircle
 10
340.2181254210215
 20
15.72871152965555
 30
0.0
 40
240.0
100
AcDbArc
 50
109.46652724206
 51
118.2361520937027
  0
ARC
  5
11B3
330
A
100
AcDbEntity
  8
06
100
AcDbCircle
 10
340.2181254210215
 20
15.72871152965555
 30
0.0
 40
250.0
100
AcDbArc
 50
115.1601606727861
 51
117.0123458528794
  0
ARC
  5
11D2
330
A
100
AcDbEntity
  8
03
100
AcDbCircle
 10
448.1510008933635
 20
208.0428984594873
 30
0.0
 40
380.0
100
AcDbArc
 50
113.6944663689696
 51
114.317047457577
  0
ARC
  5
11D3
330
A
100
AcDbEntity
  8
03
100
AcDbCircle
 10
448.1510008933635
 20
208.0428984594873
 30
0.0
 40
270.0
100
AcDbArc
 50
119.1407950724494
 51
125.4188970487775
  0
ARC
  5
11D4
330
A
100
AcDbEntity
  8
03
100
AcDbCircle
 10
448.1510008933635
 20
208.0428984594873
 30
0.0
 40
230.0
100
AcDbArc
 50
124.8650605789614
 51
139.9592134351967
  0
ARC
  5
11D5
330
A
100
AcDbEntity
  8
03
100
AcDbCircle
 10
448.1510008933635
 20
208.0428984594873
 30
0.0
 40
220.0
100
AcDbArc
 50
126.7003128116666
 51
137.7338705272117
  0
ARC
  5
11D6
330
A
100
AcDbEntity
  8
03
100
AcDbCircle
 10
448.1510008933635
 20
208.0428984594873
 30
0.0
 40
250.0
100
AcDbArc
 50
121.7297924331369
 51
128.7493027450304
  0
ARC
  5
11D7
330
A
100
AcDbEntity
  8
03
100
AcDbCircle
 10
448.1510008933635
 20
208.0428984594873
 30
0.0
 40
240.0
100
AcDbArc
 50
123.2180678190564
 51
130.6920898241324
  0
ARC
  5
11D8
330
A
100
AcDbEntity
  8
03
100
AcDbCircle
 10
448.1510008933635
 20
208.0428984594873
 30
0.0
 40
260.0
100
AcDbArc
 50
120.3769357393164
 51
127.0018182240725
  0
ARC
  5
11D9
330
A
100
AcDbEntity
  8
03
100
AcDbCircle
 10
448.1510008933635
 20
208.0428984594873
 30
0.0
 40
370.0
100
AcDbArc
 50
110.8147301558297
 51
115.0187515599784
  0
ARC
  5
11DA
330
A
100
AcDbEntity
  8
03
100
AcDbCircle
 10
448.1510008933635
 20
208.0428984594873
 30
0.0
 40
320.0
100
AcDbArc
 50
114.2595172914101
 51
119.2745667965923
  0
ARC
  5
11DB
330
A
100
AcDbEntity
  8
03
100
AcDbCircle
 10
448.1510008933635
 20
208.0428984594873
 30
0.0
 40
300.0
100
AcDbArc
 50
115.9930201474125
 51
121.4393008394654
  0
ARC
  5
11DC
330
A
100
AcDbEntity
  8
03
100
AcDbCircle
 10
448.1510008933635
 20
208.0428984594873
 30
0.0
 40
290.0
100
AcDbArc
 50
116.9603710767032
 51
122.655121512075
  0
ARC
  5
11DD
330
A
100
AcDbEntity
  8
03
100
AcDbCircle
 10
448.1510008933635
 20
208.0428984594873
 30
0.0
 40
280.0
100
AcDbArc
 50
118.0061319037708
 51
123.9764270667288
  0
ARC
  5
11DE
330
A
100
AcDbEntity
  8
03
100
AcDbCircle
 10
448.1510008933635
 20
208.0428984594873
 30
0.0
 40
310.0
100
AcDbArc
 50
115.0952393563875
 51
120.3160418268393
  0
ARC
  5
11DF
330
A
100
AcDbEntity
  8
03
100
AcDbCircle
 10
448.1510008933635
 20
208.0428984594873
 30
0.0
 40
350.0
100
AcDbArc
 50
112.064668316685
 51
116.5565842072606
  0
ARC
  5
11E0
330
A
100
AcDbEntity
  8
03
100
AcDbCircle
 10
448.1510008933635
 20
208.0428984594873
 30
0.0
 40
340.0
100
AcDbArc
 50
112.7494094792556
 51
117.4020060394255
  0
ARC
  5
11E1
330
A
100
AcDbEntity
  8
03
100
AcDbCircle
 10
448.1510008933635
 20
208.0428984594873
 30
0.0
 40
330.0
100
AcDbArc
 50
113.4794223332862
 51
118.3057949306946
  0
ARC
  5
11E2
330
A
100
AcDbEntity
  8
03
100
AcDbCircle
 10
448.1510008933635
 20
208.0428984594873
 30
0.0
 40
360.0
100
AcDbArc
 50
111.4210020340161
 51
115.7638193548147
  0
ARC
  5
11E3
330
A
100
AcDbEntity
  8
03
100
AcDbCircle
 10
448.1510008933635
 20
208.0428984594873
 30
0.0
 40
210.0
100
AcDbArc
 50
128.7620937622667
 51
135.2025563925608
  0
ARC
  5
11E4
330
A
100
AcDbEntity
  8
03
100
AcDbCircle
 10
448.1510008933635
 20
208.0428984594873
 30
0.0
 40
200.0
100
AcDbArc
 50
131.1013101379504
 51
132.2828357868594
  0
ARC
  5
11E5
330
A
100
AcDbEntity
  8
03
100
AcDbCircle
 10
448.1510008933635
 20
208.0428984594873
 30
0.0
 40
240.0
100
AcDbArc
 50
133.8882003124391
 51
137.3348598108354
  0
ARC
  5
1205
330
A
100
AcDbEntity
  8
03
100
AcDbCircle
 10
400.1998433480046
 20
181.0152510686235
 30
0.0
 40
370.0
100
AcDbArc
 50
107.3808917455717
 51
108.9274216834271
  0
ARC
  5
1206
330
A
100
AcDbEntity
  8
03
100
AcDbCircle
 10
400.1998433480046
 20
181.0152510686235
 30
0.0
 40
400.0
100
AcDbArc
 50
110.3665291381267
 51
121.789912332947
  0
ARC
  5
1207
330
A
100
AcDbEntity
  8
03
100
AcDbCircle
 10
400.1998433480046
 20
181.0152510686235
 30
0.0
 40
390.0
100
AcDbArc
 50
106.4634375453197
 51
116.1788893466267
  0
ARC
  5
1208
330
A
100
AcDbEntity
  8
03
100
AcDbCircle
 10
400.1998433480046
 20
181.0152510686235
 30
0.0
 40
380.0
100
AcDbArc
 50
106.9095347322679
 51
112.9217942501341
  0
ARC
  5
1209
330
A
100
AcDbEntity
  8
03
100
AcDbCircle
 10
400.1998433480046
 20
181.0152510686235
 30
0.0
 40
420.0
100
AcDbArc
 50
116.7672626606272
 51
131.5413450948487
  0
ARC
  5
120A
330
A
100
AcDbEntity
  8
03
100
AcDbCircle
 10
400.1998433480046
 20
181.0152510686235
 30
0.0
 40
410.0
100
AcDbArc
 50
113.8481863814186
 51
132.7916971070567
  0
ARC
  5
120B
330
A
100
AcDbEntity
  8
03
100
AcDbCircle
 10
400.1998433480046
 20
181.0152510686235
 30
0.0
 40
430.0
100
AcDbArc
 50
119.2988031309476
 51
121.4770234212748
  0
ARC
  5
120C
330
A
100
AcDbEntity
  8
03
100
AcDbCircle
 10
400.1998433480046
 20
181.0152510686235
 30
0.0
 40
390.0
100
AcDbArc
 50
117.2428135541767
 51
119.3338546695699
  0
ARC
  5
120D
330
A
100
AcDbEntity
  8
03
100
AcDbCircle
 10
400.1998433480046
 20
181.0152510686235
 30
0.0
 40
440.0
100
AcDbArc
 50
121.9022195577182
 51
129.2730398282738
  0
ARC
  5
120E
330
A
100
AcDbEntity
  8
03
100
AcDbCircle
 10
400.1998433480046
 20
181.0152510686235
 30
0.0
 40
450.0
100
AcDbArc
 50
123.5586496372049
 51
128.2394720975768
  0
ARC
  5
120F
330
A
100
AcDbEntity
  8
03
100
AcDbCircle
 10
400.1998433480046
 20
181.0152510686235
 30
0.0
 40
460.0
100
AcDbArc
 50
125.3923883168259
 51
126.1766547422079
  0
ARC
  5
1210
330
A
100
AcDbEntity
  8
03
100
AcDbCircle
 10
400.1998433480046
 20
181.0152510686235
 30
0.0
 40
430.0
100
AcDbArc
 50
122.735475528001
 51
130.3712726933983
  0
ARC
  5
1211
330
A
100
AcDbEntity
  8
03
100
AcDbCircle
 10
400.1998433480046
 20
181.0152510686235
 30
0.0
 40
320.0
100
AcDbArc
 50
133.1931878407677
 51
146.8483561274557
  0
ARC
  5
1212
330
A
100
AcDbEntity
  8
03
100
AcDbCircle
 10
400.1998433480046
 20
181.0152510686235
 30
0.0
 40
330.0
100
AcDbArc
 50
131.5841412001097
 51
147.5673273783019
  0
ARC
  5
1213
330
A
100
AcDbEntity
  8
03
100
AcDbCircle
 10
400.1998433480046
 20
181.0152510686235
 30
0.0
 40
340.0
100
AcDbArc
 50
130.1055747904541
 51
145.0045961098796
  0
ARC
  5
1214
330
A
100
AcDbEntity
  8
03
100
AcDbCircle
 10
400.1998433480046
 20
181.0152510686235
 30
0.0
 40
350.0
100
AcDbArc
 50
128.7403707081763
 51
129.2611870567049
  0
ARC
  5
1215
330
A
100
AcDbEntity
  8
03
100
AcDbCircle
 10
400.1998433480046
 20
181.0152510686235
 30
0.0
 40
360.0
100
AcDbArc
 50
127.4745716156105
 51
131.4063595960459
  0
ARC
  5
1216
330
A
100
AcDbEntity
  8
03
100
AcDbCircle
 10
400.1998433480046
 20
181.0152510686235
 30
0.0
 40
300.0
100
AcDbArc
 50
136.8940340138514
 51
144.316033092086
  0
ARC
  5
1217
330
A
100
AcDbEntity
  8
03
100
AcDbCircle
 10
400.1998433480046
 20
181.0152510686235
 30
0.0
 40
310.0
100
AcDbArc
 50
134.9540767318665
 51
145.6326053411203
  0
ARC
  5
1218
330
A
100
AcDbEntity
  8
03
100
AcDbCircle
 10
400.1998433480046
 20
181.0152510686235
 30
0.0
 40
400.0
100
AcDbArc
 50
123.2003506529997
 51
128.2060877913204
  0
ARC
  5
1219
330
A
100
AcDbEntity
  8
03
100
AcDbCircle
 10
400.1998433480046
 20
181.0152510686235
 30
0.0
 40
390.0
100
AcDbArc
 50
124.1671134310166
 51
125.9548520148825
  0
ARC
  5
121A
330
A
100
AcDbEntity
  8
03
100
AcDbCircle
 10
400.1998433480046
 20
181.0152510686235
 30
0.0
 40
370.0
100
AcDbArc
 50
126.296630202569
 51
138.8314704119765
  0
ARC
  5
121B
330
A
100
AcDbEntity
  8
03
100
AcDbCircle
 10
400.1998433480046
 20
181.0152510686235
 30
0.0
 40
380.0
100
AcDbArc
 50
125.196873885393
 51
137.1356811832629
  0
ARC
  5
121C
330
A
100
AcDbEntity
  8
03
100
AcDbCircle
 10
400.1998433480046
 20
181.0152510686235
 30
0.0
 40
260.0
100
AcDbArc
 50
133.3650050068148
 51
137.6967435761772
  0
ARC
  5
121D
330
A
100
AcDbEntity
  8
03
100
AcDbCircle
 10
400.1998433480046
 20
181.0152510686235
 30
0.0
 40
280.0
100
AcDbArc
 50
132.9354080907604
 51
133.6532125853617
  0
ARC
  5
121E
330
A
100
AcDbEntity
  8
03
100
AcDbCircle
 10
400.1998433480046
 20
181.0152510686235
 30
0.0
 40
290.0
100
AcDbArc
 50
135.0186568831617
 51
142.8841778186194
  0
ARC
  5
121F
330
A
100
AcDbEntity
  8
03
100
AcDbCircle
 10
400.1998433480046
 20
181.0152510686235
 30
0.0
 40
270.0
100
AcDbArc
 50
131.3924000952936
 51
139.5994957418651
  0
ARC
  5
1220
330
A
100
AcDbEntity
  8
03
100
AcDbCircle
 10
400.1998433480046
 20
181.0152510686235
 30
0.0
 40
280.0
100
AcDbArc
 50
135.8720477611621
 51
141.3193373878675
  0
ARC
  5
1221
330
A
100
AcDbEntity
  8
03
100
AcDbCircle
 10
400.1998433480046
 20
181.0152510686235
 30
0.0
 40
360.0
100
AcDbArc
 50
131.8567767877923
 51
140.6861471336681
  0
ARC
  5
1222
330
A
100
AcDbEntity
  8
03
100
AcDbCircle
 10
400.1998433480046
 20
181.0152510686235
 30
0.0
 40
350.0
100
AcDbArc
 50
130.2624438993391
 51
142.7301634139899
  0
ARC
  5
1223
330
A
100
AcDbEntity
  8
03
100
AcDbCircle
 10
400.1998433480046
 20
181.0152510686235
 30
0.0
 40
390.0
100
AcDbArc
 50
126.7211765005822
 51
135.5754367045439
  0
ARC
  5
1224
330
A
100
AcDbEntity
  8
03
100
AcDbCircle
 10
400.1998433480046
 20
181.0152510686235
 30
0.0
 40
400.0
100
AcDbArc
 50
128.3422062986902
 51
134.1323655430132
  0
LINE
  5
1296
330
A
100
AcDbEntity
  8
CHUSIN
100
AcDbLine
 10
171.6725055395151
 20
241.935375374642
 30
0.0
 11
171.6725055395151
 21
212.7018428425801
 31
0.0
  0
MTEXT
  5
1313
330
A
100
AcDbEntity
  8
HIKIDASI
100
AcDbMText
 10
283.6524280254325
 20
182.3300343240321
 30
0.0
 40
5.0
 41
0.0
 71
     7
 72
     1
  1
振れ止め\P(建具工事)
  7
SUNPOU
1001
ACAD
1000
MTEXTBEGIN
1070
    73
1070
     1
1070
    44
1040
1.0
1070
    74
1070
     0
1000
MTEXTEND
1000
MTEXTBEGIN
1070
    73
1070
     1
1070
    44
1040
1.0
1070
    74
1070
     0
1000
MTEXTEND
  0
LEADER
  5
1314
330
A
100
AcDbEntity
  8
HIKIDASI
100
AcDbLeader
  3
SUNPOU_2
 73
     0
 74
     0
 75
     1
 40
13.33333333333333
 41
23.19999999999999
 76
     3
 10
246.6725055395151
 20
159.2363731656184
 30
0.0
 10
276.6524280254325
 20
189.2416082827679
 30
0.0
 10
281.6524280254325
 20
189.2416082827679
 30
0.0
340
1313
213
0.0
223
8.911573958735969
233
0.0
1001
ACAD
1000
DSTYLE
1002
{
1070
     5
1000
OPEN30
1070
    77
1070
     1
1070
   147
1040
1.0
1070
   342
1005
D5B
1002
}
1000
LEANOF
1010
0.0
1020
8.911573958735969
1030
0.0
1000
LEANOF
1010
0.0
1020
8.911573958735969
1030
0.0
  0
LINE
  5
135D
330
A
100
AcDbEntity
  8
06
100
AcDbLine
 10
203.6834165522934
 20
513.5093885416917
 30
0.0
 11
231.612353696198
 21
513.5093885416774
 31
0.0
  0
ARC
  5
135E
330
A
100
AcDbEntity
  8
06
100
AcDbCircle
 10
203.6834165522933
 20
508.5093885416918
 30
0.0
 40
4.999999999999938
100
AcDbArc
 50
90.0
 51
135.0
  0
LINE
  5
135F
330
A
100
AcDbEntity
  8
06
100
AcDbLine
 10
231.612353696198
 20
513.5093885416774
 30
0.0
 11
231.6123571634037
 21
511.0099140306051
 31
0.0
  0
LINE
  5
1360
330
A
100
AcDbEntity
  8
06
100
AcDbLine
 10
194.1128896509846
 20
506.0099294522485
 30
0.0
 11
200.1478826463606
 21
512.0449224476243
 31
0.0
  0
LINE
  5
1361
330
A
100
AcDbEntity
  8
06
100
AcDbLine
 10
190.672749383199
 20
506.0099295848152
 30
0.0
 11
194.1128896509846
 21
506.0099294522485
 31
0.0
  0
TEXT
  5
14F0
330
A
100
AcDbEntity
  8
MOJI
100
AcDbText
 10
147.8276249999969
 20
96.11294796060409
 30
0.0
 40
6.0
  1
３５×２
 41
0.8
  7
0_8
 11
147.8276249999969
 21
102.112947960604
 31
0.0
100
AcDbText
 73
     3
  0
TEXT
  5
14F1
330
A
100
AcDbEntity
  8
MOJI
100
AcDbText
 10
112.6122665520566
 20
96.11294796060409
 30
0.0
 40
6.0
  1
７０×１
 41
0.8
  7
0_8
 11
112.6122665520566
 21
102.112947960604
 31
0.0
100
AcDbText
 73
     3
  0
TEXT
  5
14F2
330
A
100
AcDbEntity
  8
MOJI
100
AcDbText
 10
38.76499999999708
 20
96.11294796060409
 30
0.0
 40
6.0
  1
SOV-70KLDM
 41
0.8
  7
0_8
 11
38.76499999999708
 21
102.112947960604
 31
0.0
100
AcDbText
 73
     3
  0
LINE
  5
14F3
330
A
100
AcDbEntity
  8
SAISEN
100
AcDbLine
 10
34.99999999999707
 20
103.4
 30
0.0
 11
244.9999999999969
 21
103.4
 31
0.0
  0
TEXT
  5
14F4
330
A
100
AcDbEntity
  8
MOJI
100
AcDbText
 10
246.8499999999969
 20
78.85000000000005
 30
0.0
 40
7.0
  1
☆本図
 41
0.8
  7
0_8
 11
246.8499999999969
 21
85.85000000000006
 31
0.0
100
AcDbText
 73
     3
  0
CIRCLE
  5
14F5
330
A
100
AcDbEntity
  8
SAISEN
100
AcDbCircle
 10
227.047955341029
 20
54.32380287978268
 30
0.0
 40
2.647499999999999
  0
CIRCLE
  5
14F6
330
A
100
AcDbEntity
  8
SAISEN
100
AcDbCircle
 10
227.047955341029
 20
54.32380287978268
 30
0.0
 40
1.764999999999998
  0
LINE
  5
14F7
330
A
100
AcDbEntity
  8
SAISEN
100
AcDbLine
 10
174.9999999999969
 20
50.3
 30
0.0
 11
209.9999999999969
 21
59.15000000000002
 31
0.0
  0
LINE
  5
14F8
330
A
100
AcDbEntity
  8
SAISEN
100
AcDbLine
 10
209.9999999999969
 20
50.3
 30
0.0
 11
209.9999999999969
 21
121.1
 31
0.0
  0
LINE
  5
14F9
330
A
100
AcDbEntity
  8
SAISEN
100
AcDbLine
 10
174.9999999999969
 20
50.3
 30
0.0
 11
174.9999999999969
 21
129.9499999999999
 31
0.0
  0
LINE
  5
14FA
330
A
100
AcDbEntity
  8
SAISEN
100
AcDbLine
 10
139.999999999997
 20
121.1
 30
0.0
 11
139.999999999997
 21
50.3
 31
0.0
  0
LINE
  5
14FB
330
A
100
AcDbEntity
  8
SAISEN
100
AcDbLine
 10
104.999999999997
 20
121.1
 30
0.0
 11
244.9999999999969
 21
121.1
 31
0.0
  0
LINE
  5
14FC
330
A
100
AcDbEntity
  8
SAISEN
100
AcDbLine
 10
104.999999999997
 20
129.9499999999999
 30
0.0
 11
104.999999999997
 21
50.3
 31
0.0
  0
LINE
  5
14FD
330
A
100
AcDbEntity
  8
SAISEN
100
AcDbLine
 10
34.99999999999707
 20
59.15000000000002
 30
0.0
 11
244.9999999999969
 21
59.15000000000002
 31
0.0
  0
LINE
  5
14FE
330
A
100
AcDbEntity
  8
SAISEN
100
AcDbLine
 10
34.99999999999707
 20
68.00000000000001
 30
0.0
 11
244.9999999999969
 21
68.00000000000001
 31
0.0
  0
LINE
  5
14FF
330
A
100
AcDbEntity
  8
SAISEN
100
AcDbLine
 10
34.99999999999707
 20
76.85000000000002
 30
0.0
 11
244.9999999999969
 21
76.85000000000002
 31
0.0
  0
LINE
  5
1500
330
A
100
AcDbEntity
  8
SAISEN
100
AcDbLine
 10
34.99999999999707
 20
85.7
 30
0.0
 11
244.9999999999969
 21
85.7
 31
0.0
  0
LINE
  5
1501
330
A
100
AcDbEntity
  8
SAISEN
100
AcDbLine
 10
34.99999999999707
 20
94.55
 30
0.0
 11
244.9999999999969
 21
94.55
 31
0.0
  0
LINE
  5
1502
330
A
100
AcDbEntity
  8
SAISEN
100
AcDbLine
 10
34.99999999999707
 20
112.2499999999998
 30
0.0
 11
244.9999999999969
 21
112.2499999999998
 31
0.0
  0
POLYLINE
  5
1503
330
A
100
AcDbEntity
  8
SAISEN
100
AcDb2dPolyline
 66
     1
 10
0.0
 20
0.0
 30
0.0
 70
     1
  0
VERTEX
  5
1681
330
1503
100
AcDbEntity
  8
SAISEN
100
AcDbVertex
100
AcDb2dVertex
 10
34.99999999999707
 20
50.3
 30
0.0
  0
VERTEX
  5
1682
330
1503
100
AcDbEntity
  8
SAISEN
100
AcDbVertex
100
AcDb2dVertex
 10
244.9999999999969
 20
50.3
 30
0.0
  0
VERTEX
  5
1683
330
1503
100
AcDbEntity
  8
SAISEN
100
AcDbVertex
100
AcDb2dVertex
 10
244.9999999999969
 20
129.9499999999999
 30
0.0
  0
VERTEX
  5
1684
330
1503
100
AcDbEntity
  8
SAISEN
100
AcDbVertex
100
AcDb2dVertex
 10
34.99999999999707
 20
129.9499999999999
 30
0.0
  0
SEQEND
  5
1685
330
1503
100
AcDbEntity
  8
SAISEN
  0
TEXT
  5
1513
330
A
100
AcDbEntity
  8
MOJI
100
AcDbText
 10
213.7439108577833
 20
114.2425
 30
0.0
 40
6.0
  1
歯付きベルト
 41
0.75
  7
0_8
 11
213.7439108577833
 21
120.2425
 31
0.0
100
AcDbText
 73
     3
  0
TEXT
  5
1514
330
A
100
AcDbEntity
  8
MOJI
100
AcDbText
 10
182.3774999999971
 20
114.2425
 30
0.0
 40
6.0
  1
Ｖベルト
 41
0.8
  7
0_8
 11
182.3774999999971
 21
120.2425
 31
0.0
100
AcDbText
 73
     3
  0
TEXT
  5
1515
330
A
100
AcDbEntity
  8
MOJI
100
AcDbText
 10
201.9465600945501
 20
123.0674999999999
 30
0.0
 40
6.0
  1
伝達機構
 41
0.8
  7
0_8
 11
201.9465600945501
 21
129.0675
 31
0.0
100
AcDbText
 73
     3
  0
TEXT
  5
1516
330
A
100
AcDbEntity
  8
MOJI
100
AcDbText
 10
112.6122665520566
 20
51.96294796060411
 30
0.0
 40
6.0
  1
７５×１
 41
0.8
  7
0_8
 11
112.6122665520566
 21
57.96294796060411
 31
0.0
100
AcDbText
 73
     3
  0
TEXT
  5
1517
330
A
100
AcDbEntity
  8
MOJI
100
AcDbText
 10
112.6122665520566
 20
60.78794796060414
 30
0.0
 40
6.0
  1
７５×１
 41
0.8
  7
0_8
 11
112.6122665520566
 21
66.78794796060414
 31
0.0
100
AcDbText
 73
     3
  0
TEXT
  5
1518
330
A
100
AcDbEntity
  8
MOJI
100
AcDbText
 10
112.6122665520566
 20
69.61294796060411
 30
0.0
 40
6.0
  1
７５×１
 41
0.8
  7
0_8
 11
112.6122665520566
 21
75.61294796060412
 31
0.0
100
AcDbText
 73
     3
  0
TEXT
  5
1519
330
A
100
AcDbEntity
  8
MOJI
100
AcDbText
 10
112.6122665520566
 20
78.43794796060412
 30
0.0
 40
6.0
  1
７５×１
 41
0.8
  7
0_8
 11
112.6122665520566
 21
84.43794796060412
 31
0.0
100
AcDbText
 73
     3
  0
TEXT
  5
151A
330
A
100
AcDbEntity
  8
MOJI
100
AcDbText
 10
147.8276249999969
 20
51.96294796060411
 30
0.0
 40
6.0
  1
７５×２
 41
0.8
  7
0_8
 11
147.8276249999969
 21
57.96294796060411
 31
0.0
100
AcDbText
 73
     3
  0
TEXT
  5
151B
330
A
100
AcDbEntity
  8
MOJI
100
AcDbText
 10
147.8276249999969
 20
60.78794796060414
 30
0.0
 40
6.0
  1
７５×２
 41
0.8
  7
0_8
 11
147.8276249999969
 21
66.78794796060414
 31
0.0
100
AcDbText
 73
     3
  0
TEXT
  5
151C
330
A
100
AcDbEntity
  8
MOJI
100
AcDbText
 10
147.8276249999969
 20
69.61294796060411
 30
0.0
 40
6.0
  1
７５×２
 41
0.8
  7
0_8
 11
147.8276249999969
 21
75.61294796060412
 31
0.0
100
AcDbText
 73
     3
  0
TEXT
  5
151D
330
A
100
AcDbEntity
  8
MOJI
100
AcDbText
 10
147.8276249999969
 20
78.43794796060412
 30
0.0
 40
6.0
  1
７５×２
 41
0.8
  7
0_8
 11
147.8276249999969
 21
84.43794796060412
 31
0.0
100
AcDbText
 73
     3
  0
TEXT
  5
151E
330
A
100
AcDbEntity
  8
MOJI
100
AcDbText
 10
147.8276249999969
 20
87.26294796060413
 30
0.0
 40
6.0
  1
５０×２
 41
0.8
  7
0_8
 11
147.8276249999969
 21
93.26294796060414
 31
0.0
100
AcDbText
 73
     3
  0
TEXT
  5
151F
330
A
100
AcDbEntity
  8
MOJI
100
AcDbText
 10
112.6122665520566
 20
87.26294796060413
 30
0.0
 40
6.0
  1
７５×１
 41
0.8
  7
0_8
 11
112.6122665520566
 21
93.26294796060414
 31
0.0
100
AcDbText
 73
     3
  0
TEXT
  5
1520
330
A
100
AcDbEntity
  8
MOJI
100
AcDbText
 10
147.8276249999969
 20
104.937947960604
 30
0.0
 40
6.0
  1
３０×２
 41
0.8
  7
0_8
 11
147.8276249999969
 21
110.937947960604
 31
0.0
100
AcDbText
 73
     3
  0
TEXT
  5
1521
330
A
100
AcDbEntity
  8
MOJI
100
AcDbText
 10
112.6122665520566
 20
104.937947960604
 30
0.0
 40
6.0
  1
６５×１
 41
0.8
  7
0_8
 11
112.6122665520566
 21
110.937947960604
 31
0.0
100
AcDbText
 73
     3
  0
TEXT
  5
1522
330
A
100
AcDbEntity
  8
MOJI
100
AcDbText
 10
149.8080510112039
 20
114.2425
 30
0.0
 40
6.0
  1
引分け
 41
0.8
  7
0_8
 11
149.8080510112039
 21
120.2425
 31
0.0
100
AcDbText
 73
     3
  0
TEXT
  5
1523
330
A
100
AcDbEntity
  8
MOJI
100
AcDbText
 10
114.7582816256597
 20
114.2425
 30
0.0
 40
6.0
  1
片引き
 41
0.8
  7
0_8
 11
114.7582816256597
 21
120.2425
 31
0.0
100
AcDbText
 73
     3
  0
TEXT
  5
1524
330
A
100
AcDbEntity
  8
MOJI
100
AcDbText
 10
114.7582816256597
 20
123.0674999999999
 30
0.0
 40
6.0
  1
最大ドア質量（kg）
 41
0.8
  7
0_8
 11
114.7582816256597
 21
129.0675
 31
0.0
100
AcDbText
 73
     3
  0
TEXT
  5
1525
330
A
100
AcDbEntity
  8
MOJI
100
AcDbText
 10
60.72322048961272
 20
117.9799783315276
 30
0.0
 40
6.0
  1
使用機種
 41
0.8
  7
0_8
 11
60.72322048961272
 21
123.9799783315275
 31
0.0
100
AcDbText
 73
     3
  0
TEXT
  5
1526
330
A
100
AcDbEntity
  8
MOJI
100
AcDbText
 10
38.76499999999708
 20
104.937947960604
 30
0.0
 40
6.0
  1
SOV-60KLTM
 41
0.8
  7
0_8
 11
38.76499999999708
 21
110.937947960604
 31
0.0
100
AcDbText
 73
     3
  0
TEXT
  5
1527
330
A
100
AcDbEntity
  8
MOJI
100
AcDbText
 10
38.76499999999708
 20
78.43794796060412
 30
0.0
 40
6.0
  1
SOV-150KLTM
 41
0.8
  7
0_8
 11
38.76499999999708
 21
84.43794796060412
 31
0.0
100
AcDbText
 73
     3
  0
TEXT
  5
1528
330
A
100
AcDbEntity
  8
MOJI
100
AcDbText
 10
38.76499999999708
 20
87.26294796060413
 30
0.0
 40
6.0
  1
SOV-100KLDM
 41
0.8
  7
0_8
 11
38.76499999999708
 21
93.26294796060414
 31
0.0
100
AcDbText
 73
     3
  0
TEXT
  5
1529
330
A
100
AcDbEntity
  8
MOJI
100
AcDbText
 10
38.76499999999708
 20
51.96294796060411
 30
0.0
 40
6.0
  1
SOV-200KNB
 41
0.8
  7
0_8
 11
38.76499999999708
 21
57.96294796060411
 31
0.0
100
AcDbText
 73
     3
  0
TEXT
  5
152A
330
A
100
AcDbEntity
  8
MOJI
100
AcDbText
 10
38.76499999999708
 20
60.78794796060414
 30
0.0
 40
6.0
  1
SOV-200KLDM
 41
0.8
  7
0_8
 11
38.76499999999708
 21
66.78794796060414
 31
0.0
100
AcDbText
 73
     3
  0
TEXT
  5
152B
330
A
100
AcDbEntity
  8
MOJI
100
AcDbText
 10
38.76499999999708
 20
69.61294796060411
 30
0.0
 40
6.0
  1
SOV-160KLDM
 41
0.8
  7
0_8
 11
38.76499999999708
 21
75.61294796060412
 31
0.0
100
AcDbText
 73
     3
  0
CIRCLE
  5
153D
330
A
100
AcDbEntity
  8
SAISEN
100
AcDbCircle
 10
227.3479553410289
 20
63.17380287978267
 30
0.0
 40
2.647499999999999
  0
CIRCLE
  5
153E
330
A
100
AcDbEntity
  8
SAISEN
100
AcDbCircle
 10
227.3479553410289
 20
71.99880287978267
 30
0.0
 40
2.647499999999999
  0
CIRCLE
  5
153F
330
A
100
AcDbEntity
  8
SAISEN
100
AcDbCircle
 10
227.3479553410289
 20
80.82380287978265
 30
0.0
 40
2.647499999999999
  0
CIRCLE
  5
1540
330
A
100
AcDbEntity
  8
SAISEN
100
AcDbCircle
 10
227.3479553410289
 20
89.64880287978267
 30
0.0
 40
2.647499999999999
  0
CIRCLE
  5
1541
330
A
100
AcDbEntity
  8
SAISEN
100
AcDbCircle
 10
227.3479553410289
 20
98.47380287978269
 30
0.0
 40
2.647499999999999
  0
CIRCLE
  5
1542
330
A
100
AcDbEntity
  8
SAISEN
100
AcDbCircle
 10
227.3479553410289
 20
107.3238028797826
 30
0.0
 40
2.647499999999999
  0
CIRCLE
  5
1543
330
A
100
AcDbEntity
  8
SAISEN
100
AcDbCircle
 10
192.047955341029
 20
107.4238028797825
 30
0.0
 40
1.764999999999998
  0
CIRCLE
  5
1544
330
A
100
AcDbEntity
  8
SAISEN
100
AcDbCircle
 10
192.047955341029
 20
107.4238028797825
 30
0.0
 40
2.647499999999999
  0
CIRCLE
  5
1545
330
A
100
AcDbEntity
  8
SAISEN
100
AcDbCircle
 10
192.047955341029
 20
98.57380287978269
 30
0.0
 40
2.647499999999999
  0
CIRCLE
  5
1546
330
A
100
AcDbEntity
  8
SAISEN
100
AcDbCircle
 10
192.047955341029
 20
98.57380287978269
 30
0.0
 40
1.764999999999998
  0
CIRCLE
  5
1547
330
A
100
AcDbEntity
  8
SAISEN
100
AcDbCircle
 10
192.047955341029
 20
89.72380287978269
 30
0.0
 40
2.647499999999999
  0
CIRCLE
  5
1548
330
A
100
AcDbEntity
  8
SAISEN
100
AcDbCircle
 10
192.047955341029
 20
89.72380287978269
 30
0.0
 40
1.764999999999998
  0
CIRCLE
  5
1549
330
A
100
AcDbEntity
  8
SAISEN
100
AcDbCircle
 10
192.047955341029
 20
80.8738028797827
 30
0.0
 40
2.647499999999999
  0
CIRCLE
  5
154A
330
A
100
AcDbEntity
  8
SAISEN
100
AcDbCircle
 10
192.047955341029
 20
80.8738028797827
 30
0.0
 40
1.764999999999998
  0
CIRCLE
  5
154B
330
A
100
AcDbEntity
  8
SAISEN
100
AcDbCircle
 10
192.047955341029
 20
72.02380287978271
 30
0.0
 40
2.647499999999999
  0
CIRCLE
  5
154C
330
A
100
AcDbEntity
  8
SAISEN
100
AcDbCircle
 10
192.047955341029
 20
72.02380287978271
 30
0.0
 40
1.764999999999998
  0
CIRCLE
  5
154D
330
A
100
AcDbEntity
  8
SAISEN
100
AcDbCircle
 10
192.047955341029
 20
63.17380287978271
 30
0.0
 40
2.647499999999999
  0
CIRCLE
  5
154E
330
A
100
AcDbEntity
  8
SAISEN
100
AcDbCircle
 10
192.047955341029
 20
63.17380287978271
 30
0.0
 40
1.764999999999998
  0
LINE
  5
1573
330
A
100
AcDbEntity
  8
06
100
AcDbLine
 10
270.1725144890332
 20
483.2598796264271
 30
0.0
 11
270.1720160697147
 21
480.0097427397512
 31
0.0
  0
LINE
  5
157F
330
A
100
AcDbEntity
  8
06
100
AcDbLine
 10
247.8725657778694
 20
510.3104625677893
 30
0.0
 11
266.6725173952053
 21
510.3098138281681
 31
0.0
  0
ARC
  5
1580
330
A
100
AcDbEntity
  8
06
100
AcDbCircle
 10
266.6724828850545
 20
509.3097374585688
 30
0.0
 40
1.000076370194728
100
AcDbArc
 50
0.0207633509177839
 51
89.99802286500194
  0
LINE
  5
1581
330
A
100
AcDbEntity
  8
06
100
AcDbLine
 10
264.9125406796485
 20
508.0100863026256
 30
0.0
 11
252.4125406797019
 21
508.0101228520166
 31
0.0
  0
LINE
  5
1582
330
A
100
AcDbEntity
  8
06
100
AcDbLine
 10
261.6325143641009
 20
499.0100958932242
 30
0.0
 11
264.9125406796485
 21
508.0100863026256
 31
0.0
  0
LINE
  5
1583
330
A
100
AcDbEntity
  8
06
100
AcDbLine
 10
252.4125406797019
 20
508.0101228520166
 30
0.0
 11
255.6925143641263
 21
499.0101132614949
 31
0.0
  0
LINE
  5
1584
330
A
100
AcDbEntity
  8
06
100
AcDbLine
 10
255.6925143641263
 20
499.0101132614949
 30
0.0
 11
261.6325143641009
 21
499.0100958932242
 31
0.0
  0
LINE
  5
1585
330
A
100
AcDbEntity
  8
CHUSIN
100
AcDbLine
 10
250.9427980238534
 20
505.0097697871521
 30
0.0
 11
268.4891438033393
 21
505.0097697857364
 31
0.0
  0
LINE
  5
158B
330
A
100
AcDbEntity
  8
06
100
AcDbLine
 10
247.8725616183421
 20
510.0096287197341
 30
0.0
 11
247.8725657778694
 21
510.3104625677895
 31
0.0
  0
LINE
  5
158C
330
A
100
AcDbEntity
  8
04
100
AcDbLine
 10
250.672553720861
 20
416.1043753485877
 30
0.0
 11
250.6725828673339
 21
408.5094310656851
 31
0.0
  0
LINE
  5
158E
330
A
100
AcDbEntity
  8
04
100
AcDbLine
 10
264.1724800188366
 20
433.0094214550051
 30
0.0
 11
264.172448738119
 21
426.7094397256573
 31
0.0
  0
LINE
  5
158F
330
A
100
AcDbEntity
  8
04
100
AcDbLine
 10
264.1724970007329
 20
411.3094157860265
 30
0.0
 11
264.172510733571
 21
405.0094436681798
 31
0.0
  0
LINE
  5
1590
330
A
100
AcDbEntity
  8
04
100
AcDbLine
 10
266.1724968223395
 20
426.7094397257566
 30
0.0
 11
266.172495417979
 21
426.514977192456
 31
0.0
  0
LINE
  5
1592
330
A
100
AcDbEntity
  8
04
100
AcDbLine
 10
266.1724991963459
 20
411.5038637926873
 30
0.0
 11
266.1725010994131
 21
411.3094353620851
 31
0.0
  0
LINE
  5
1593
330
A
100
AcDbEntity
  8
04
100
AcDbLine
 10
262.672530039743
 20
397.0096562680031
 30
0.0
 11
261.6725288746237
 21
397.0096465018997
 31
0.0
  0
LINE
  5
1594
330
A
100
AcDbEntity
  8
04
100
AcDbLine
 10
261.6725709543158
 20
401.0095319422402
 30
0.0
 11
261.6726100175649
 21
397.0096465026921
 31
0.0
  0
LINE
  5
1595
330
A
100
AcDbEntity
  8
04
100
AcDbLine
 10
261.672579463618
 20
387.0096252416676
 30
0.0
 11
261.672579065621
 21
384.5094116179635
 31
0.0
  0
LINE
  5
1596
330
A
100
AcDbEntity
  8
04
100
AcDbLine
 10
262.672530039743
 20
397.0096562680031
 30
0.0
 11
262.6725300397354
 21
396.6096495008653
 31
0.0
  0
LINE
  5
1597
330
A
100
AcDbEntity
  8
04
100
AcDbLine
 10
262.6726232792889
 20
387.4096297451374
 30
0.0
 11
262.6726250076587
 21
387.0096295627874
 31
0.0
  0
LINE
  5
1598
330
A
100
AcDbEntity
  8
04
100
AcDbLine
 10
237.1725269527311
 20
397.5096395136653
 30
0.0
 11
237.1725040641301
 21
396.0096186053144
 31
0.0
  0
LINE
  5
1599
330
A
100
AcDbEntity
  8
04
100
AcDbLine
 10
236.172527920737
 20
396.0096338638053
 30
0.0
 11
236.1725398939007
 21
395.0096326619432
 31
0.0
  0
LINE
  5
159A
330
A
100
AcDbEntity
  8
04
100
AcDbLine
 10
236.1725325401159
 20
387.0096097048762
 30
0.0
 11
236.1725325401159
 21
386.0096021442263
 31
0.0
  0
LINE
  5
159B
330
A
100
AcDbEntity
  8
04
100
AcDbLine
 10
237.1725257515215
 20
386.0096021513829
 30
0.0
 11
237.1725245308296
 21
384.5094315537076
 31
0.0
  0
LINE
  5
159C
330
A
100
AcDbEntity
  8
04
100
AcDbLine
 10
238.9725055395151
 20
388.1094238235537
 30
0.0
 11
239.1669555395151
 21
388.1094238235537
 31
0.0
  0
LINE
  5
159D
330
A
100
AcDbEntity
  8
04
100
AcDbLine
 10
254.1780555395151
 20
388.1094238235537
 30
0.0
 11
254.3725055395152
 21
388.1094238235537
 31
0.0
  0
LINE
  5
159E
330
A
100
AcDbEntity
  8
04
100
AcDbLine
 10
238.1725055395151
 20
386.1094238235537
 30
0.0
 11
238.9725055395151
 21
386.1094238235537
 31
0.0
  0
LINE
  5
159F
330
A
100
AcDbEntity
  8
04
100
AcDbLine
 10
254.3725055395152
 20
386.1094238235537
 30
0.0
 11
255.1725055395151
 21
386.1094238235537
 31
0.0
  0
TEXT
  5
15B8
330
A
100
AcDbEntity
  8
MOJI
100
AcDbText
 10
388.0488190392131
 20
46.27151320611589
 30
0.0
 40
8.0
  1
Ｓ
 41
0.8
  7
0_8
 11
388.0488190392131
 21
54.27151320611589
 31
0.0
100
AcDbText
 73
     3
  0
CIRCLE
  5
15B9
330
A
100
AcDbEntity
  8
SAISEN
100
AcDbCircle
 10
391.0976380784293
 20
50.54302641223159
 30
0.0
 40
5.0
  0
MTEXT
  5
162A
330
A
100
AcDbEntity
  8
MOJI
100
AcDbMText
 10
359.999999999997
 20
29.00000000000005
 30
0.0
 40
7.0
 41
49.99999999999994
 71
     5
 72
     1
  1
たて断面図　
  7
0_80
1001
ACAD
1000
MTEXTBEGIN
1070
    73
1070
     1
1070
    44
1040
1.0
1070
    74
1070
     0
1000
MTEXTEND
1000
MTEXTBEGIN
1070
    73
1070
     1
1070
    44
1040
1.0
1070
    74
1070
     0
1000
MTEXTEND
  0
MTEXT
  5
162B
330
A
100
AcDbEntity
  8
MOJI
100
AcDbMText
 10
309.9999999999969
 20
29.00000000000005
 30
0.0
 40
7.0
 41
50.0
 71
     5
 72
     1
  1
図番２－３
  7
0_80
1001
ACAD
1000
MTEXTBEGIN
1070
    73
1070
     1
1070
    44
1040
1.0
1070
    74
1070
     0
1000
MTEXTEND
1000
MTEXTBEGIN
1070
    73
1070
     1
1070
    44
1040
1.0
1070
    74
1070
     0
1000
MTEXTEND
  0
MTEXT
  5
162C
330
A
100
AcDbEntity
  8
MOJI
100
AcDbMText
 10
254.9999999999999
 20
29.00000000000005
 30
0.0
 40
7.0
 41
60.0
 71
     5
 72
     1
  1
片引き又は両引き
  7
0_80
1001
ACAD
1000
MTEXTBEGIN
1070
    73
1070
     1
1070
    44
1040
1.0
1070
    74
1070
     0
1000
MTEXTEND
1000
MTEXTBEGIN
1070
    73
1070
     1
1070
    44
1040
1.0
1070
    74
1070
     0
1000
MTEXTEND
  0
LINE
  5
162D
330
A
100
AcDbEntity
  8
SAISEN
100
AcDbLine
 10
144.999999999997
 20
42.00000000000017
 30
0.0
 11
144.999999999997
 21
17.0
 31
0.0
  0
LINE
  5
162E
330
A
100
AcDbEntity
  8
SAISEN
100
AcDbLine
 10
224.9999999999969
 20
42.00000000000017
 30
0.0
 11
224.9999999999969
 21
17.0
 31
0.0
  0
LINE
  5
162F
330
A
100
AcDbEntity
  8
SAISEN
100
AcDbLine
 10
284.9999999999969
 20
42.00000000000017
 30
0.0
 11
284.9999999999969
 21
17.0
 31
0.0
  0
MTEXT
  5
1630
330
A
100
AcDbEntity
  8
MOJI
100
AcDbMText
 10
89.99999999999706
 20
29.50000000000006
 30
0.0
 40
7.0
 41
110.0
 71
     5
 72
     1
  1
木製建具ユニット台板納り
  7
0_8
1001
ACAD
1000
MTEXTBEGIN
1070
    73
1070
     1
1070
    44
1040
1.0
1070
    74
1070
     0
1000
MTEXTEND
1000
MTEXTBEGIN
1070
    73
1070
     1
1070
    44
1040
1.0
1070
    74
1070
     0
1000
MTEXTEND
  0
MTEXT
  5
1631
330
A
100
AcDbEntity
  8
MOJI
100
AcDbMText
 10
184.9999999999971
 20
29.50000000000006
 30
0.0
 40
7.0
 41
80.0
 71
     5
 72
     1
  1
Ｍ３台板
  7
0_8
1001
ACAD
1000
MTEXTBEGIN
1070
    73
1070
     1
1070
    44
1040
1.0
1070
    74
1070
     0
1000
MTEXTEND
1000
MTEXTBEGIN
1070
    73
1070
     1
1070
    44
1040
1.0
1070
    74
1070
     0
1000
MTEXTEND
  0
POLYLINE
  5
1632
330
A
100
AcDbEntity
  8
SAISEN
100
AcDb2dPolyline
 66
     1
 10
0.0
 20
0.0
 30
0.0
 70
     1
  0
VERTEX
  5
1686
330
1632
100
AcDbEntity
  8
SAISEN
100
AcDbVertex
100
AcDb2dVertex
 10
34.99999999999707
 20
17.0
 30
0.0
  0
VERTEX
  5
1687
330
1632
100
AcDbEntity
  8
SAISEN
100
AcDbVertex
100
AcDb2dVertex
 10
384.999999999997
 20
17.0
 30
0.0
  0
VERTEX
  5
1688
330
1632
100
AcDbEntity
  8
SAISEN
100
AcDbVertex
100
AcDb2dVertex
 10
384.999999999997
 20
42.00000000000017
 30
0.0
  0
VERTEX
  5
1689
330
1632
100
AcDbEntity
  8
SAISEN
100
AcDbVertex
100
AcDb2dVertex
 10
34.99999999999707
 20
42.00000000000017
 30
0.0
  0
SEQEND
  5
168A
330
1632
100
AcDbEntity
  8
SAISEN
  0
VIEWPORT
  5
B6D
102
{ACAD_XDICTIONARY
360
1661
102
}
330
B
100
AcDbEntity
 67
     1
  8
0
100
AcDbViewport
 10
198.0508299538852
 20
285.1874487354477
 30
0.0
 40
1078.343208727591
 41
628.3535021666721
 68
     1
 69
     1
1001
ACAD
1000
MVIEW
1002
{
1070
    16
1010
0.0
1020
0.0
1030
0.0
1010
0.0
1020
0.0
1030
1.0
1040
0.0
1040
628.3535021666721
1040
198.0508299538852
1040
285.1874487354477
1040
50.0
1040
0.0
1040
0.0
1070
     0
1070
   100
1070
     1
1070
     1
1070
     0
1070
     0
1070
     0
1070
     0
1040
0.0
1040
0.0
1040
0.0
1040
10.0
1040
10.0
1040
10.0
1040
10.0
1070
     0
1002
{
1002
}
1002
}
  0
VIEWPORT
  5
164B
102
{ACAD_XDICTIONARY
360
1667
102
}
330
B
100
AcDbEntity
 67
     1
  8
DEFPOINTS
100
AcDbViewport
 10
198.0508309076477
 20
285.1874477816852
 30
0.0
 40
396.4883172119752
 41
570.409736121624
 68
     2
 69
     2
1001
ACAD
1000
MVIEW
1002
{
1070
    16
1010
0.0
1020
0.0
1030
0.0
1010
0.0
1020
0.0
1030
1.0
1040
0.0
1040
570.409736121624
1040
210.0
1040
297.0
1040
50.0
1040
0.0
1040
0.0
1070
     0
1070
   100
1070
     1
1070
     1
1070
     0
1070
     0
1070
     0
1070
     0
1040
0.0
1040
0.0
1040
0.0
1040
1.0
1040
1.0
1040
0.0
1040
0.0
1070
     0
1002
{
1002
}
1002
}
  0
ENDSEC
  0
SECTION
  2
OBJECTS
  0
DICTIONARY
  5
19
330
0
100
AcDbDictionary
  3
ACAD_COLOR
350
AEE
  3
ACAD_GROUP
350
1A
  3
ACAD_LAYOUT
350
51C
  3
ACAD_MATERIAL
350
AED
  3
ACAD_MLINESTYLE
350
1B
  3
ACAD_PLOTSETTINGS
350
51D
  3
ACADDIM
350
84C
  3
ASE_INDEX_DICTIONARY
350
1633
1001
ACAD
1000
TREAT_AS_HARD
1070
     0
1000
TREAT_AS_HARD
1070
     0
  0
DICTIONARY
  5
161A
330
2
100
AcDbDictionary
  3
ACAD_LAYERSTATES
350
161B
1001
ACAD
1000
TREAT_AS_HARD
1070
     1
  0
DICTIONARY
  5
15EB
330
A
100
AcDbDictionary
  3
ACAD_LAYOUTSELFREF
350
166F
1001
ACAD
1000
TREAT_AS_HARD
1070
     1
  0
DICTIONARY
  5
15ED
330
B
100
AcDbDictionary
  3
ACAD_LAYOUTSELFREF
350
1670
1001
ACAD
1000
TREAT_AS_HARD
1070
     1
  0
DICTIONARY
  5
1661
330
B6D
100
AcDbDictionary
  3
ACAD_XREC_ROUNDTRIP
350
1662
1001
ACAD
1000
TREAT_AS_HARD
1070
     1
  0
DICTIONARY
  5
1667
330
164B
100
AcDbDictionary
  3
ACAD_XREC_ROUNDTRIP
350
1668
1001
ACAD
1000
TREAT_AS_HARD
1070
     1
  0
DICTIONARY
  5
AEE
102
{ACAD_REACTORS
330
19
102
}
330
19
100
AcDbDictionary
1001
ACAD
1000
TREAT_AS_HARD
1070
     0
1000
TREAT_AS_HARD
1070
     0
  0
DICTIONARY
  5
1A
102
{ACAD_REACTORS
330
19
102
}
330
19
100
AcDbDictionary
  3
DAGROUP331
350
331
  3
DAGROUP337
350
337
  3
DAGROUP33D
350
33D
  3
DAGROUP343
350
343
  3
DAGROUP349
350
349
  3
DAGROUP34F
350
34F
  3
DAGROUP355
350
355
  3
DAGROUP35B
350
35B
  3
DAGROUP361
350
361
  3
DAGROUP367
350
367
  3
DAGROUP36D
350
36D
  3
DAGROUP373
350
373
  3
DAGROUP379
350
379
  3
DAGROUP37F
350
37F
  3
DAGROUP385
350
385
  3
DAGROUP38B
350
38B
  3
DAGROUP391
350
391
  3
DAGROUP397
350
397
  3
DAGROUP39D
350
39D
  3
DAGROUP412
350
412
  3
DAGROUP416
350
416
  3
DAGROUP41A
350
41A
1001
ACAD
1000
TREAT_AS_HARD
1070
     0
1000
TREAT_AS_HARD
1070
     0
  0
DICTIONARY
  5
51C
102
{ACAD_REACTORS
330
19
102
}
330
19
100
AcDbDictionary
1001
ACAD
1000
TREAT_AS_HARD
1070
     0
1000
TREAT_AS_HARD
1070
     0
  0
DICTIONARY
  5
AED
102
{ACAD_REACTORS
330
19
102
}
330
19
100
AcDbDictionary
1001
ACAD
1000
TREAT_AS_HARD
1070
     0
1000
TREAT_AS_HARD
1070
     0
  0
DICTIONARY
  5
1B
102
{ACAD_REACTORS
330
19
102
}
330
19
100
AcDbDictionary
  3
STANDARD
350
1C
1001
ACAD
1000
TREAT_AS_HARD
1070
     0
1000
TREAT_AS_HARD
1070
     0
  0
DICTIONARY
  5
51D
102
{ACAD_REACTORS
330
19
102
}
330
19
100
AcDbDictionary
1001
ACAD
1000
TREAT_AS_HARD
1070
     0
1000
TREAT_AS_HARD
1070
     0
  0
XRECORD
  5
84C
102
{ACAD_REACTORS
330
19
102
}
330
19
100
AcDbXrecord
 90
   990106
  3
OPEN
 60
     0
 61
     0
 62
     1
 63
     3
 64
     1
 65
     0
 66
     0
 67
     3
 68
     1
 69
     0
 70
     0
 71
     0
 72
     0
 40
0.0
170
     2
340
857
  0
DICTIONARY
  5
1633
102
{ACAD_REACTORS
330
19
102
}
330
19
100
AcDbDictionary
  3
ASEBLOCKHIERARCHYINDEXRECORD
350
1634
1001
DCO15
1040
1508667637.703
1001
ACAD
1000
TREAT_AS_HARD
1070
     0
  0
DICTIONARY
  5
161B
102
{ACAD_REACTORS
330
161A
102
}
330
161A
100
AcDbDictionary
1001
ACAD
1000
TREAT_AS_HARD
1070
     0
  0
XRECORD
  5
166F
102
{ACAD_REACTORS
330
15EB
102
}
330
15EB
100
AcDbXrecord
340
A
  0
XRECORD
  5
1670
102
{ACAD_REACTORS
330
15ED
102
}
330
15ED
100
AcDbXrecord
340
B
  0
XRECORD
  5
1662
102
{ACAD_REACTORS
330
1661
102
}
330
1661
100
AcDbXrecord
102
SHADEPLOT
 70
     0
  0
XRECORD
  5
1668
102
{ACAD_REACTORS
330
1667
102
}
330
1667
100
AcDbXrecord
102
SHADEPLOT
 70
     0
  0
GROUP
  5
331
102
{ACAD_REACTORS
330
1A
102
}
330
1A
100
AcDbGroup
300

 70
     0
 71
     1
  0
GROUP
  5
337
102
{ACAD_REACTORS
330
1A
102
}
330
1A
100
AcDbGroup
300

 70
     0
 71
     1
  0
GROUP
  5
33D
102
{ACAD_REACTORS
330
1A
102
}
330
1A
100
AcDbGroup
300

 70
     0
 71
     1
  0
GROUP
  5
343
102
{ACAD_REACTORS
330
1A
102
}
330
1A
100
AcDbGroup
300

 70
     0
 71
     1
  0
GROUP
  5
349
102
{ACAD_REACTORS
330
1A
102
}
330
1A
100
AcDbGroup
300

 70
     0
 71
     1
  0
GROUP
  5
34F
102
{ACAD_REACTORS
330
1A
102
}
330
1A
100
AcDbGroup
300

 70
     0
 71
     1
  0
GROUP
  5
355
102
{ACAD_REACTORS
330
1A
102
}
330
1A
100
AcDbGroup
300

 70
     0
 71
     1
  0
GROUP
  5
35B
102
{ACAD_REACTORS
330
1A
102
}
330
1A
100
AcDbGroup
300

 70
     0
 71
     1
  0
GROUP
  5
361
102
{ACAD_REACTORS
330
1A
102
}
330
1A
100
AcDbGroup
300

 70
     0
 71
     1
  0
GROUP
  5
367
102
{ACAD_REACTORS
330
1A
102
}
330
1A
100
AcDbGroup
300

 70
     0
 71
     1
  0
GROUP
  5
36D
102
{ACAD_REACTORS
330
1A
102
}
330
1A
100
AcDbGroup
300

 70
     0
 71
     1
  0
GROUP
  5
373
102
{ACAD_REACTORS
330
1A
102
}
330
1A
100
AcDbGroup
300

 70
     0
 71
     1
  0
GROUP
  5
379
102
{ACAD_REACTORS
330
1A
102
}
330
1A
100
AcDbGroup
300

 70
     0
 71
     1
  0
GROUP
  5
37F
102
{ACAD_REACTORS
330
1A
102
}
330
1A
100
AcDbGroup
300

 70
     0
 71
     1
  0
GROUP
  5
385
102
{ACAD_REACTORS
330
1A
102
}
330
1A
100
AcDbGroup
300

 70
     0
 71
     1
  0
GROUP
  5
38B
102
{ACAD_REACTORS
330
1A
102
}
330
1A
100
AcDbGroup
300

 70
     0
 71
     1
  0
GROUP
  5
391
102
{ACAD_REACTORS
330
1A
102
}
330
1A
100
AcDbGroup
300

 70
     0
 71
     1
  0
GROUP
  5
397
102
{ACAD_REACTORS
330
1A
102
}
330
1A
100
AcDbGroup
300

 70
     0
 71
     1
  0
GROUP
  5
39D
102
{ACAD_REACTORS
330
1A
102
}
330
1A
100
AcDbGroup
300

 70
     0
 71
     1
  0
GROUP
  5
412
102
{ACAD_REACTORS
330
1A
102
}
330
1A
100
AcDbGroup
300

 70
     0
 71
     1
  0
GROUP
  5
416
102
{ACAD_REACTORS
330
1A
102
}
330
1A
100
AcDbGroup
300

 70
     0
 71
     1
  0
GROUP
  5
41A
102
{ACAD_REACTORS
330
1A
102
}
330
1A
100
AcDbGroup
300

 70
     0
 71
     1
  0
MLINESTYLE
  5
1C
102
{ACAD_REACTORS
330
1B
102
}
330
1B
100
AcDbMlineStyle
  2
STANDARD
 70
     0
  3

 62
     0
 51
90.00000000000019
 52
90.00000000000019
 71
     2
 49
0.5
 62
   256
  6
BYLAYER
 49
-0.5
 62
   256
  6
BYLAYER
  0
XRECORD
  5
1634
102
{ACAD_REACTORS
330
1633
102
}
330
1633
100
AcDbXrecord
330
14A3
330
14A4
330
149A
330
149B
330
1492
330
1493
330
1486
330
1487
330
147E
330
147F
330
1475
330
1476
330
146B
330
146C
330
1463
330
1464
330
1458
330
1457
330
1450
330
144F
330
1443
330
1444
330
143B
330
143C
330
1430
330
142F
330
1428
330
1427
330
141D
330
141E
330
1414
330
1415
330
140B
330
140C
330
1402
330
1403
330
13F9
330
13FA
330
13F0
330
13F1
330
13E7
330
13E8
330
13E0
330
13DF
330
13D3
330
13D4
330
13C8
330
13C9
330
13C0
330
13BF
330
13B4
330
13B5
330
13AB
330
13AC
330
13A3
330
13A4
  0
ENDSEC
  0
EOF
