  0
SECTION
  2
HEADER
  9
$ACADVER
  1
AC1012
  9
$DWGCODEPAGE
  3
dos932
  9
$INSBASE
 10
0.0
 20
0.0
 30
0.0
  9
$EXTMIN
 10
0.0000000000000568
 20
0.0
 30
0.0
  9
$EXTMAX
 10
420.0
 20
594.0
 30
0.0
  9
$LIMMIN
 10
0.0
 20
0.0
  9
$LIMMAX
 10
420.0
 20
594.0
  9
$ORTHOMODE
 70
     1
  9
$REGENMODE
 70
     1
  9
$FILLMODE
 70
     1
  9
$QTEXTMODE
 70
     0
  9
$MIRRTEXT
 70
     1
  9
$DRAGMODE
 70
     2
  9
$LTSCALE
 40
0.3
  9
$OSMODE
 70
    37
  9
$ATTMODE
 70
     1
  9
$TEXTSIZE
 40
7.0
  9
$TRACEWID
 40
0.05
  9
$TEXTSTYLE
  7
STANDARD
  9
$CLAYER
  8
DEFPOINTS
  9
$CELTYPE
  6
BYLAYER
  9
$CECOLOR
 62
   256
  9
$CELTSCALE
 40
1.0
  9
$DELOBJ
 70
     1
  9
$DISPSILH
 70
     0
  9
$DIMSCALE
 40
2.0
  9
$DIMASZ
 40
2.5
  9
$DIMEXO
 40
1.5
  9
$DIMDLI
 40
0.0
  9
$DIMRND
 40
0.0
  9
$DIMDLE
 40
0.0
  9
$DIMEXE
 40
1.0
  9
$DIMTP
 40
0.0
  9
$DIMTM
 40
0.0
  9
$DIMTXT
 40
2.5
  9
$DIMCEN
 40
0.0
  9
$DIMTSZ
 40
0.0
  9
$DIMTOL
 70
     0
  9
$DIMLIM
 70
     0
  9
$DIMTIH
 70
     0
  9
$DIMTOH
 70
     0
  9
$DIMSE1
 70
     0
  9
$DIMSE2
 70
     0
  9
$DIMTAD
 70
     1
  9
$DIMZIN
 70
     8
  9
$DIMBLK
  1
OPEN30
  9
$DIMASO
 70
     1
  9
$DIMSHO
 70
     1
  9
$DIMPOST
  1

  9
$DIMAPOST
  1

  9
$DIMALT
 70
     0
  9
$DIMALTD
 70
     2
  9
$DIMALTF
 40
25.4
  9
$DIMLFAC
 40
1.0
  9
$DIMTOFL
 70
     1
  9
$DIMTVP
 40
0.0
  9
$DIMTIX
 70
     0
  9
$DIMSOXD
 70
     0
  9
$DIMSAH
 70
     0
  9
$DIMBLK1
  1

  9
$DIMBLK2
  1

  9
$DIMSTYLE
  2
SUNPOU_2
  9
$DIMCLRD
 70
   256
  9
$DIMCLRE
 70
   256
  9
$DIMCLRT
 70
   256
  9
$DIMTFAC
 40
1.0
  9
$DIMGAP
 40
1.0
  9
$DIMJUST
 70
     0
  9
$DIMSD1
 70
     0
  9
$DIMSD2
 70
     0
  9
$DIMTOLJ
 70
     1
  9
$DIMTZIN
 70
     0
  9
$DIMALTZ
 70
     0
  9
$DIMALTTZ
 70
     0
  9
$DIMFIT
 70
     3
  9
$DIMUPT
 70
     0
  9
$DIMUNIT
 70
     2
  9
$DIMDEC
 70
     1
  9
$DIMTDEC
 70
     1
  9
$DIMALTU
 70
     2
  9
$DIMALTTD
 70
     2
  9
$DIMTXSTY
  7
SUNPOU
  9
$DIMAUNIT
 70
     0
  9
$LUNITS
 70
     2
  9
$LUPREC
 70
     4
  9
$SKETCHINC
 40
0.1
  9
$FILLETRAD
 40
0.0
  9
$AUNITS
 70
     0
  9
$AUPREC
 70
     0
  9
$MENU
  1
acad
  9
$ELEVATION
 40
0.0
  9
$PELEVATION
 40
0.0
  9
$THICKNESS
 40
0.0
  9
$LIMCHECK
 70
     0
  9
$BLIPMODE
 70
     0
  9
$CHAMFERA
 40
0.0
  9
$CHAMFERB
 40
0.0
  9
$CHAMFERC
 40
0.0
  9
$CHAMFERD
 40
0.0
  9
$SKPOLY
 70
     0
  9
$TDCREATE
 40
2444972.375000000
  9
$TDUPDATE
 40
2453266.402737627
  9
$TDINDWG
 40
0.3759402315
  9
$TDUSRTIMER
 40
0.3759402315
  9
$USRTIMER
 70
     1
  9
$ANGBASE
 50
0.0
  9
$ANGDIR
 70
     0
  9
$PDMODE
 70
     0
  9
$PDSIZE
 40
1.0
  9
$PLINEWID
 40
0.0
  9
$COORDS
 70
     1
  9
$SPLFRAME
 70
     0
  9
$SPLINETYPE
 70
     6
  9
$SPLINESEGS
 70
     8
  9
$ATTDIA
 70
     0
  9
$ATTREQ
 70
     1
  9
$HANDLING
 70
-16383
  9
$HANDSEED
  5
186C
  9
$SURFTAB1
 70
     6
  9
$SURFTAB2
 70
     6
  9
$SURFTYPE
 70
     6
  9
$SURFU
 70
     6
  9
$SURFV
 70
     6
  9
$UCSNAME
  2

  9
$UCSORG
 10
0.0
 20
0.0
 30
0.0
  9
$UCSXDIR
 10
1.0
 20
0.0
 30
0.0
  9
$UCSYDIR
 10
0.0
 20
1.0
 30
0.0
  9
$PUCSNAME
  2

  9
$PUCSORG
 10
0.0
 20
0.0
 30
0.0
  9
$PUCSXDIR
 10
1.0
 20
0.0
 30
0.0
  9
$PUCSYDIR
 10
0.0
 20
1.0
 30
0.0
  9
$USERI1
 70
     0
  9
$USERI2
 70
     0
  9
$USERI3
 70
     0
  9
$USERI4
 70
     0
  9
$USERI5
 70
     0
  9
$USERR1
 40
0.0
  9
$USERR2
 40
0.0
  9
$USERR3
 40
0.0
  9
$USERR4
 40
0.0
  9
$USERR5
 40
0.0
  9
$WORLDVIEW
 70
     1
  9
$SHADEDGE
 70
     3
  9
$SHADEDIF
 70
    70
  9
$TILEMODE
 70
     1
  9
$MAXACTVP
 70
    16
  9
$PINSBASE
 10
0.0
 20
0.0
 30
0.0
  9
$PLIMCHECK
 70
     0
  9
$PEXTMIN
 10
2.606885979286516
 20
-3.177060613122648
 30
-0.0015258207003583
  9
$PEXTMAX
 10
399.1263413402021
 20
567.2326755085014
 30
0.0000000349246037
  9
$PLIMMIN
 10
-9.129480071666174
 20
-14.92564252797728
  9
$PLIMMAX
 10
410.8560066925933
 20
578.981259330881
  9
$UNITMODE
 70
     0
  9
$VISRETAIN
 70
     0
  9
$PLINEGEN
 70
     1
  9
$PSLTSCALE
 70
     0
  9
$TREEDEPTH
 70
  3020
  9
$PICKSTYLE
 70
     1
  9
$CMLSTYLE
  2
STANDARD
  9
$CMLJUST
 70
     0
  9
$CMLSCALE
 40
1.0
  9
$SAVEIMAGES
 70
     1
  0
ENDSEC
  0
SECTION
  2
CLASSES
  0
CLASS
  1
LWPOLYLINE
  2
AcDbPolyline
  3
AutoCAD 2000
 90
    32768
280
     0
281
     1
  0
CLASS
  1
IMAGE
  2
AcDbRasterImage
  3
ISM
 90
    32895
280
     0
281
     1
  0
CLASS
  1
OLE2FRAME
  2
AcDbOle2Frame
  3
AutoCAD 2000
 90
    32768
280
     0
281
     1
  0
CLASS
  1
HATCH
  2
AcDbHatch
  3
AutoCAD 2000
 90
    32768
280
     0
281
     1
  0
CLASS
  1
DICTIONARYVAR
  2
AcDbDictionaryVar
  3
AutoCAD 2000
 90
    32768
280
     0
281
     0
  0
CLASS
  1
RASTERVARIABLES
  2
AcDbRasterVariables
  3
ISM
 90
    32768
280
     0
281
     0
  0
CLASS
  1
IMAGEDEF
  2
AcDbRasterImageDef
  3
ISM
 90
    32768
280
     0
281
     0
  0
CLASS
  1
IMAGEDEF_REACTOR
  2
AcDbRasterImageDefReactor
  3
ISM
 90
    32769
280
     0
281
     0
  0
CLASS
  1
IDBUFFER
  2
AcDbIdBuffer
  3
AutoCAD 2000
 90
    32768
280
     0
281
     0
  0
CLASS
  1
SPATIAL_FILTER
  2
AcDbSpatialFilter
  3
AutoCAD 2000
 90
    32768
280
     0
281
     0
  0
CLASS
  1
XRECORD
  2
AcDbXrecord
  3
AutoCAD 2000
 90
    32768
280
     0
281
     0
  0
CLASS
  1
SORTENTSTABLE
  2
AcDbSortentsTable
  3
AutoCAD 2000
 90
    32768
280
     0
281
     0
  0
CLASS
  1
LAYER_INDEX
  2
AcDbLayerIndex
  3
AutoCAD 2000
 90
    32768
280
     0
281
     0
  0
CLASS
  1
SPATIAL_INDEX
  2
AcDbSpatialIndex
  3
AutoCAD 2000
 90
    32768
280
     0
281
     0
  0
CLASS
  1
OBJECT_PTR
  2
CAseDLPNTableRecord
  3
ASE-LPNTableRecord
 90
    32769
280
     0
281
     0
  0
CLASS
  1
ACDBDICTIONARYWDFLT
  2
AcDbDictionaryWithDefault
  3
AutoCAD 2000
 90
    32768
280
     0
281
     0
  0
CLASS
  1
ACDBPLACEHOLDER
  2
AcDbPlaceHolder
  3
AutoCAD 2000
 90
    32768
280
     0
281
     0
  0
CLASS
  1
LAYOUT
  2
AcDbLayout
  3
AutoCAD 2000
 90
    32768
280
     0
281
     0
  0
CLASS
  1
LONG_TRANSACTION
  2
AcDbLongTransaction
  3
AutoCAD 2000
 90
    32768
280
     0
281
     0
  0
CLASS
  1
LWPOLYLINE
  2
AcDbPolyline
  3
AutoCAD 2000
 90
    32768
280
     0
281
     1
  0
CLASS
  1
HATCH
  2
AcDbHatch
  3
AutoCAD 2000
 90
    32768
280
     0
281
     1
  0
CLASS
  1
XRECORD
  2
AcDbXrecord
  3
AutoCAD 2000
 90
    32768
280
     0
281
     0
  0
CLASS
  1
LONG_TRANSACTION
  2
AcDbLongTransaction
  3
AutoCAD 2000
 90
    32768
280
     0
281
     0
  0
CLASS
  1
LWPOLYLINE
  2
AcDbPolyline
  3
AutoCAD 2000
 90
    32768
280
     0
281
     1
  0
CLASS
  1
HATCH
  2
AcDbHatch
  3
AutoCAD 2000
 90
    32768
280
     0
281
     1
  0
CLASS
  1
XRECORD
  2
AcDbXrecord
  3
AutoCAD 2000
 90
    32768
280
     0
281
     0
  0
ENDSEC
  0
SECTION
  2
TABLES
  0
TABLE
  2
VPORT
  5
7
330
0
100
AcDbSymbolTable
 70
     2
  0
VPORT
  5
1854
330
7
100
AcDbSymbolTableRecord
100
AcDbViewportTableRecord
  2
*ACTIVE
 70
     0
 10
0.0
 20
0.0
 11
1.0
 21
1.0
 12
229.3130357527782
 22
297.0000079528269
 13
0.0
 23
0.0
 14
1.0
 24
1.0
 15
0.0
 25
0.0
 16
0.0
 26
0.0
 36
1.0
 17
0.0
 27
0.0
 37
0.0
 40
600.8461874942432
 41
1.780442804428044
 42
50.0
 43
0.0
 44
0.0
 50
0.0
 51
0.0
 71
     0
 72
   100
 73
     1
 74
     1
 75
     0
 76
     0
 77
     0
 78
     0
  0
ENDTAB
  0
TABLE
  2
LTYPE
  5
4
330
0
100
AcDbSymbolTable
 70
     4
  0
LTYPE
  5
11
330
4
100
AcDbSymbolTableRecord
100
AcDbLinetypeTableRecord
  2
BYBLOCK
 70
     0
  3

 72
    65
 73
     0
 40
0.0
  0
LTYPE
  5
12
330
4
100
AcDbSymbolTableRecord
100
AcDbLinetypeTableRecord
  2
BYLAYER
 70
     0
  3

 72
    65
 73
     0
 40
0.0
  0
LTYPE
  5
13
330
4
100
AcDbSymbolTableRecord
100
AcDbLinetypeTableRecord
  2
CONTINUOUS
 70
     0
  3
Solid line
 72
    65
 73
     0
 40
0.0
  0
LTYPE
  5
F5A
330
4
100
AcDbSymbolTableRecord
100
AcDbLinetypeTableRecord
  2
DASHED2
 70
     0
  3
Dashed (.5x) _ _ _ _ _ _ _ _ _ _ _ _ _ _ _ _ _
 72
    65
 73
     2
 40
9.524999999999996
 49
6.349999999999998
 74
     0
 49
-3.174999999999998
 74
     0
  0
LTYPE
  5
F5B
330
4
100
AcDbSymbolTableRecord
100
AcDbLinetypeTableRecord
  2
PHANTOM2
 70
     0
  3
Phantom (.5x) ___ _ _ ___ _ _ ___ _ _ ___ _ _
 72
    65
 73
     6
 40
31.75
 49
15.875
 74
     0
 49
-3.174999999999998
 74
     0
 49
3.174999999999998
 74
     0
 49
-3.174999999999998
 74
     0
 49
3.174999999999998
 74
     0
 49
-3.174999999999998
 74
     0
  0
LTYPE
  5
F5C
330
4
100
AcDbSymbolTableRecord
100
AcDbLinetypeTableRecord
  2
CENTER2
 70
     0
  3
Center (.5x) ___ _ ___ _ ___ _ ___ _ ___ _ ___
 72
    65
 73
     4
 40
28.57499999999999
 49
19.05
 74
     0
 49
-3.174999999999998
 74
     0
 49
3.174999999999998
 74
     0
 49
-3.174999999999998
 74
     0
  0
ENDTAB
  0
TABLE
  2
LAYER
  5
2
102
{ACAD_XDICTIONARY
360
17FD
102
}
330
0
100
AcDbSymbolTable
 70
    12
  0
LAYER
  5
14
330
2
100
AcDbSymbolTableRecord
100
AcDbLayerTableRecord
  2
0
 70
     0
 62
     7
  6
CONTINUOUS
  0
LAYER
  5
541
330
2
100
AcDbSymbolTableRecord
100
AcDbLayerTableRecord
  2
DEFPOINTS
 70
     0
 62
     7
  6
CONTINUOUS
  0
LAYER
  5
542
330
2
100
AcDbSymbolTableRecord
100
AcDbLayerTableRecord
  2
03
 70
     0
 62
     3
  6
CONTINUOUS
  0
LAYER
  5
543
330
2
100
AcDbSymbolTableRecord
100
AcDbLayerTableRecord
  2
04
 70
     0
 62
     4
  6
CONTINUOUS
  0
LAYER
  5
544
330
2
100
AcDbSymbolTableRecord
100
AcDbLayerTableRecord
  2
06
 70
     0
 62
     6
  6
CONTINUOUS
  0
LAYER
  5
545
330
2
100
AcDbSymbolTableRecord
100
AcDbLayerTableRecord
  2
CHUSIN
 70
     0
 62
     6
  6
CENTER2
  0
LAYER
  5
546
330
2
100
AcDbSymbolTableRecord
100
AcDbLayerTableRecord
  2
HIKIDASI
 70
     0
 62
     6
  6
CONTINUOUS
  0
LAYER
  5
547
330
2
100
AcDbSymbolTableRecord
100
AcDbLayerTableRecord
  2
KAKURE
 70
     0
 62
     6
  6
DASHED2
  0
LAYER
  5
548
330
2
100
AcDbSymbolTableRecord
100
AcDbLayerTableRecord
  2
MOJI
 70
     0
 62
     3
  6
CONTINUOUS
  0
LAYER
  5
549
330
2
100
AcDbSymbolTableRecord
100
AcDbLayerTableRecord
  2
SOUZOU
 70
     0
 62
     6
  6
PHANTOM2
  0
LAYER
  5
54A
330
2
100
AcDbSymbolTableRecord
100
AcDbLayerTableRecord
  2
SUNPOU
 70
     0
 62
     6
  6
CONTINUOUS
  0
LAYER
  5
F86
330
2
100
AcDbSymbolTableRecord
100
AcDbLayerTableRecord
  2
SAISEN
 70
     0
 62
     3
  6
CONTINUOUS
  0
ENDTAB
  0
TABLE
  2
STYLE
  5
3
330
0
100
AcDbSymbolTable
 70
     4
  0
STYLE
  5
17
330
3
100
AcDbSymbolTableRecord
100
AcDbTextStyleTableRecord
  2
STANDARD
 70
     0
 40
0.0
 41
0.9
 50
0.0
 71
     0
 42
7.0
  3
txt.shx
  4
bigfont.shx
  0
STYLE
  5
55C
330
3
100
AcDbSymbolTableRecord
100
AcDbTextStyleTableRecord
  2
SUNPOU
 70
     0
 40
0.0
 41
0.8
 50
0.0
 71
     0
 42
3.5
  3
txt.shx
  4
extfont.shx
  0
STYLE
  5
56A
330
3
100
AcDbSymbolTableRecord
100
AcDbTextStyleTableRecord
  2
0_8
 70
     0
 40
0.0
 41
0.8
 50
0.0
 71
     0
 42
6.0
  3
txt.shx
  4
extfont.shx
  0
STYLE
  5
17FB
330
3
100
AcDbSymbolTableRecord
100
AcDbTextStyleTableRecord
  2
0_80
 70
     0
 40
0.0
 41
0.8
 50
0.0
 71
     0
 42
7.0
  3
txt.shx
  4
extfont.shx
  0
ENDTAB
  0
TABLE
  2
VIEW
  5
5
330
0
100
AcDbSymbolTable
 70
     1
  0
VIEW
  5
136
330
5
100
AcDbSymbolTableRecord
100
AcDbViewTableRecord
  2
QQQQ
 70
     0
 40
618.7999999999998
 10
-6.0
 20
-1.0
 41
419.8999999999999
 11
0.0
 21
0.0
 31
1.0
 12
100.0
 22
100.0
 32
0.0
 42
50.0
 43
0.0
 44
0.0
 50
0.0
 71
     0
  0
ENDTAB
  0
TABLE
  2
UCS
  5
6
330
0
100
AcDbSymbolTable
 70
     0
  0
ENDTAB
  0
TABLE
  2
APPID
  5
8
330
0
100
AcDbSymbolTable
 70
     3
  0
APPID
  5
16
330
8
100
AcDbSymbolTableRecord
100
AcDbRegAppTableRecord
  2
ACAD
 70
     0
  0
APPID
  5
D67
330
8
100
AcDbSymbolTableRecord
100
AcDbRegAppTableRecord
  2
DCO15
 70
     0
  0
APPID
  5
17C0
330
8
100
AcDbSymbolTableRecord
100
AcDbRegAppTableRecord
  2
CONTENTBLOCKICON
 70
     0
  0
ENDTAB
  0
TABLE
  2
DIMSTYLE
  5
9
330
0
100
AcDbSymbolTable
 70
     2
  0
DIMSTYLE
105
56B
102
{ACAD_REACTORS
330
B03
330
B23
330
B26
330
B29
330
B2D
330
B31
330
B38
330
ADA
330
AC4
330
858
330
84D
330
840
330
6E5
330
6D8
330
6C9
330
6BC
330
6AF
330
673
330
645
330
638
330
622
330
615
330
608
330
5FB
330
5EE
330
5E1
330
5B8
330
5A1
102
}
330
9
100
AcDbSymbolTableRecord
100
AcDbDimStyleTableRecord
  2
SUNPOU_2
 70
     0
  3

  4

  5
OPEN30
  6

  7

 40
2.0
 41
2.5
 42
1.5
 43
0.0
 44
1.0
 45
0.0
 46
0.0
 47
0.0
 48
0.0
140
2.5
141
0.0
142
0.0
143
25.4
144
1.0
145
0.0
146
1.0
147
1.0
 71
     0
 72
     0
 73
     0
 74
     0
 75
     0
 76
     0
 77
     1
 78
     8
170
     0
171
     2
172
     1
173
     0
174
     0
175
     0
176
   256
177
   256
178
   256
270
     2
271
     1
272
     1
273
     2
274
     2
340
55C
275
     0
280
     0
281
     0
282
     0
283
     1
284
     0
285
     0
286
     0
287
     3
288
     0
  0
DIMSTYLE
105
1150
330
9
100
AcDbSymbolTableRecord
100
AcDbDimStyleTableRecord
  2
STANDARD
 70
     0
  3

  4

  5

  6

  7

 40
1.0
 41
0.18
 42
0.0625
 43
0.38
 44
0.18
 45
0.0
 46
0.0
 47
0.0
 48
0.0
140
0.18
141
0.09
142
0.0
143
25.4
144
1.0
145
0.0
146
1.0
147
0.09
 71
     0
 72
     0
 73
     1
 74
     1
 75
     0
 76
     0
 77
     0
 78
     0
170
     0
171
     2
172
     0
173
     0
174
     0
175
     0
176
     0
177
     0
178
     0
270
     2
271
     4
272
     4
273
     2
274
     2
340
17
275
     0
280
     0
281
     0
282
     0
283
     1
284
     0
285
     0
286
     0
287
     3
288
     0
  0
ENDTAB
  0
TABLE
  2
BLOCK_RECORD
  5
1
330
0
100
AcDbSymbolTable
 70
    24
  0
BLOCK_RECORD
  5
A
102
{ACAD_XDICTIONARY
360
17B7
102
}
330
1
100
AcDbSymbolTableRecord
100
AcDbBlockTableRecord
  2
*MODEL_SPACE
  0
BLOCK_RECORD
  5
B
102
{ACAD_XDICTIONARY
360
17B9
102
}
330
1
100
AcDbSymbolTableRecord
100
AcDbBlockTableRecord
  2
*PAPER_SPACE
  0
BLOCK_RECORD
  5
564
330
1
100
AcDbSymbolTableRecord
100
AcDbBlockTableRecord
  2
_OPEN30
1001
CONTENTBLOCKICON
1071
        0
1004
2800000020000000200000000100080000000000000400000000000000000000000000000000000000000000000080000080000000808000800000008000800080800000C0C0C000C0DCC000F0CAA6000020400000206000002080000020A0000020C0000020E00000400000004020000040400000406000004080000040A0
1004
000040C0000040E00000600000006020000060400000606000006080000060A0000060C0000060E00000800000008020000080400000806000008080000080A0000080C0000080E00000A0000000A0200000A0400000A0600000A0800000A0A00000A0C00000A0E00000C0000000C0200000C0400000C0600000C0800000C0
1004
A00000C0C00000C0E00000E0000000E0200000E0400000E0600000E0800000E0A00000E0C00000E0E00040000000400020004000400040006000400080004000A0004000C0004000E00040200000402020004020400040206000402080004020A0004020C0004020E000404000004040200040404000404060004040800040
1004
40A0004040C0004040E00040600000406020004060400040606000406080004060A0004060C0004060E00040800000408020004080400040806000408080004080A0004080C0004080E00040A0000040A0200040A0400040A0600040A0800040A0A00040A0C00040A0E00040C0000040C0200040C0400040C0600040C08000
1004
40C0A00040C0C00040C0E00040E0000040E0200040E0400040E0600040E0800040E0A00040E0C00040E0E00080000000800020008000400080006000800080008000A0008000C0008000E00080200000802020008020400080206000802080008020A0008020C0008020E00080400000804020008040400080406000804080
1004
008040A0008040C0008040E00080600000806020008060400080606000806080008060A0008060C0008060E00080800000808020008080400080806000808080008080A0008080C0008080E00080A0000080A0200080A0400080A0600080A0800080A0A00080A0C00080A0E00080C0000080C0200080C0400080C0600080C0
1004
800080C0A00080C0C00080C0E00080E0000080E0200080E0400080E0600080E0800080E0A00080E0C00080E0E000C0000000C0002000C0004000C0006000C0008000C000A000C000C000C000E000C0200000C0202000C0204000C0206000C0208000C020A000C020C000C020E000C0400000C0402000C0404000C0406000C0
1004
408000C040A000C040C000C040E000C0600000C0602000C0604000C0606000C0608000C060A000C060C000C060E000C0800000C0802000C0804000C0806000C0808000C080A000C080C000C080E000C0A00000C0A02000C0A04000C0A06000C0A08000C0A0A000C0A0C000C0A0E000C0C00000C0C02000C0C04000C0C06000
1004
C0C08000C0C0A000F0FBFF00A4A0A000808080000000FF0000FF000000FFFF00FF000000FF00FF00FFFF0000FFFFFF0000000000000000000000000000000000000000000000000000000000000000000000000000000000000000000000000000000000000000000000000000000000000000000000000000000000000000
1004
00000000000000000000000000000000000000000000000000000000000000000000000000000000000000000000000000000000000000000000000000000000000000000000000000000000000000000000000000000000000000000000000000000000000000000000000000000000000000000000000000000000000000
1004
000000000000000000000000000000000000000000000000000000000000000000000000000000000000000000000000000000FFFF0000000000000000000000000000000000000000000000000000000000000000FFFFFFFF0000000000000000000000000000000000000000000000000000000000000000FFFFFFFF0000
1004
000000000000000000000000000000000000000000000000000000000000FFFFFF0000000000000000000000000000000000000000000000000000000000000000FFFFFFFF0000000000000000000000000000000000000000000000000000000000000000FFFFFF0000000000000000000000000000000000000000000000
1004
000000000000000000FFFFFFFF0000000000000000000000000000000000000000000000000000000000000000FFFFFFFF00000000FFFFFFFFFFFFFFFFFFFFFFFFFFFFFFFFFFFFFFFFFFFFFFFFFFFFFFFFFFFF00000000000000000000000000000000000000000000000000FFFFFFFF000000000000000000000000000000
1004
000000000000000000FFFFFFFF000000000000000000000000000000000000000000000000FFFFFFFF000000000000000000000000000000000000000000000000FFFFFFFF000000000000000000000000000000000000000000000000FFFFFFFF000000000000000000000000000000000000000000000000FFFFFFFF0000
1004
0000000000000000000000000000000000000000000000FFFFFF0000000000000000000000000000000000000000000000000000000000000000000000000000000000000000000000000000000000000000000000000000000000000000000000000000000000000000000000000000000000000000000000000000000000
1004
00000000000000000000000000000000000000000000000000000000000000000000000000000000000000000000000000000000000000000000000000000000000000000000000000000000000000000000000000000000000000000000000000000000000000000000000000000000000000000000000000000000000000
1004
0000000000000000000000000000000000000000000000000000000000000000000000000000000000000000000000000000000000000000
  0
BLOCK_RECORD
  5
5A2
330
1
100
AcDbSymbolTableRecord
100
AcDbBlockTableRecord
  2
*D1
  0
BLOCK_RECORD
  5
5B9
330
1
100
AcDbSymbolTableRecord
100
AcDbBlockTableRecord
  2
*D2
  0
BLOCK_RECORD
  5
5E2
330
1
100
AcDbSymbolTableRecord
100
AcDbBlockTableRecord
  2
*D3
  0
BLOCK_RECORD
  5
5EF
330
1
100
AcDbSymbolTableRecord
100
AcDbBlockTableRecord
  2
*D4
  0
BLOCK_RECORD
  5
5FC
330
1
100
AcDbSymbolTableRecord
100
AcDbBlockTableRecord
  2
*D5
  0
BLOCK_RECORD
  5
609
330
1
100
AcDbSymbolTableRecord
100
AcDbBlockTableRecord
  2
*D6
  0
BLOCK_RECORD
  5
616
330
1
100
AcDbSymbolTableRecord
100
AcDbBlockTableRecord
  2
*D7
  0
BLOCK_RECORD
  5
623
330
1
100
AcDbSymbolTableRecord
100
AcDbBlockTableRecord
  2
*D8
  0
BLOCK_RECORD
  5
639
330
1
100
AcDbSymbolTableRecord
100
AcDbBlockTableRecord
  2
*D9
  0
BLOCK_RECORD
  5
646
330
1
100
AcDbSymbolTableRecord
100
AcDbBlockTableRecord
  2
*D10
  0
BLOCK_RECORD
  5
674
330
1
100
AcDbSymbolTableRecord
100
AcDbBlockTableRecord
  2
*D11
  0
BLOCK_RECORD
  5
6B0
330
1
100
AcDbSymbolTableRecord
100
AcDbBlockTableRecord
  2
*D12
  0
BLOCK_RECORD
  5
6BD
330
1
100
AcDbSymbolTableRecord
100
AcDbBlockTableRecord
  2
*D13
  0
BLOCK_RECORD
  5
6CA
330
1
100
AcDbSymbolTableRecord
100
AcDbBlockTableRecord
  2
*D14
  0
BLOCK_RECORD
  5
6D9
330
1
100
AcDbSymbolTableRecord
100
AcDbBlockTableRecord
  2
*D15
  0
BLOCK_RECORD
  5
6E6
330
1
100
AcDbSymbolTableRecord
100
AcDbBlockTableRecord
  2
*D16
  0
BLOCK_RECORD
  5
841
330
1
100
AcDbSymbolTableRecord
100
AcDbBlockTableRecord
  2
*D17
  0
BLOCK_RECORD
  5
84E
330
1
100
AcDbSymbolTableRecord
100
AcDbBlockTableRecord
  2
*D18
  0
BLOCK_RECORD
  5
859
330
1
100
AcDbSymbolTableRecord
100
AcDbBlockTableRecord
  2
*D19
  0
BLOCK_RECORD
  5
AC5
330
1
100
AcDbSymbolTableRecord
100
AcDbBlockTableRecord
  2
*D20
  0
BLOCK_RECORD
  5
ADB
330
1
100
AcDbSymbolTableRecord
100
AcDbBlockTableRecord
  2
*D21
  0
BLOCK_RECORD
  5
17D0
330
1
100
AcDbSymbolTableRecord
100
AcDbBlockTableRecord
  2
*X22
  0
BLOCK_RECORD
  5
17E0
330
1
100
AcDbSymbolTableRecord
100
AcDbBlockTableRecord
  2
*X23
  0
ENDTAB
  0
ENDSEC
  0
SECTION
  2
BLOCKS
  0
BLOCK
  5
D
330
A
100
AcDbEntity
  8
0
100
AcDbBlockBegin
  2
*MODEL_SPACE
 70
     0
 10
0.0
 20
0.0
 30
0.0
  3
*MODEL_SPACE
  1

  0
ENDBLK
  5
E
330
A
100
AcDbEntity
  8
0
100
AcDbBlockEnd
  0
BLOCK
  5
F
330
B
100
AcDbEntity
 67
     1
  8
0
100
AcDbBlockBegin
  2
*PAPER_SPACE
 70
     0
 10
0.0
 20
0.0
 30
0.0
  3
*PAPER_SPACE
  1

  0
ENDBLK
  5
10
330
B
100
AcDbEntity
 67
     1
  8
0
100
AcDbBlockEnd
  0
BLOCK
  5
568
330
564
100
AcDbEntity
  8
0
100
AcDbBlockBegin
  2
_OPEN30
 70
     0
 10
0.0
 20
0.0
 30
0.0
  3
_OPEN30
  1

  0
LINE
  5
565
330
564
100
AcDbEntity
  8
0
  6
BYBLOCK
 62
     0
100
AcDbLine
 10
-1.0
 20
0.26794919
 30
0.0
 11
0.0
 21
0.0
 31
0.0
  0
LINE
  5
566
330
564
100
AcDbEntity
  8
0
  6
BYBLOCK
 62
     0
100
AcDbLine
 10
0.0
 20
0.0
 30
0.0
 11
-1.0
 21
-0.26794919
 31
0.0
  0
LINE
  5
567
330
564
100
AcDbEntity
  8
0
  6
BYBLOCK
 62
     0
100
AcDbLine
 10
0.0
 20
0.0
 30
0.0
 11
-1.0
 21
0.0
 31
0.0
  0
ENDBLK
  5
569
330
564
100
AcDbEntity
  8
0
100
AcDbBlockEnd
  0
BLOCK
  5
5AD
330
5A2
100
AcDbEntity
  8
0
100
AcDbBlockBegin
  2
*D1
 70
     1
 10
0.0
 20
0.0
 30
0.0
  3
*D1
  1

  0
LINE
  5
F08
330
5A2
100
AcDbEntity
  8
SUNPOU
100
AcDbLine
 10
63.26202983777836
 20
525.8443637205555
 30
0.0
 11
63.26202983777836
 21
549.9251790629041
 31
0.0
  0
LINE
  5
F09
330
5A2
100
AcDbEntity
  8
SUNPOU
100
AcDbLine
 10
103.2620298377783
 20
525.8443637205555
 30
0.0
 11
103.2620298377783
 21
549.9251790629041
 31
0.0
  0
LINE
  5
F0A
330
5A2
100
AcDbEntity
  8
SUNPOU
100
AcDbLine
 10
68.26202983777836
 20
547.9251790629041
 30
0.0
 11
98.26202983777832
 21
547.9251790629041
 31
0.0
  0
MTEXT
  5
F0B
330
5A2
100
AcDbEntity
  8
SUNPOU
100
AcDbMText
 10
83.26202983777834
 20
543.3258018874957
 30
0.0
 40
5.0
 41
0.0
 71
     5
 72
     1
  1
\A1;40
  7
SUNPOU
 11
-1.0
 21
0.0000000000000001
 31
0.0
1001
ACAD
1000
MTEXTBEGIN
1070
    73
1070
     1
1070
    44
1040
1.0
1070
    74
1070
     0
1000
MTEXTEND
1000
MTEXTBEGIN
1070
    73
1070
     1
1070
    44
1040
1.0
1070
    74
1070
     0
1000
MTEXTEND
  0
INSERT
  5
F0C
330
5A2
100
AcDbEntity
  8
SUNPOU
100
AcDbBlockReference
  2
_OPEN30
 10
63.26202983777836
 20
547.9251790629041
 30
0.0
 41
5.0
 42
5.0
 43
5.0
 50
180.0
  0
INSERT
  5
F0D
330
5A2
100
AcDbEntity
  8
SUNPOU
100
AcDbBlockReference
  2
_OPEN30
 10
103.2620298377783
 20
547.9251790629041
 30
0.0
 41
5.0
 42
5.0
 43
5.0
  0
POINT
  5
F0E
330
5A2
100
AcDbEntity
  8
DEFPOINTS
 62
     0
100
AcDbPoint
 10
63.26202983777836
 20
522.8443637205555
 30
0.0
  0
POINT
  5
F0F
330
5A2
100
AcDbEntity
  8
DEFPOINTS
 62
     0
100
AcDbPoint
 10
103.2620298377783
 20
522.8443637205555
 30
0.0
  0
POINT
  5
F10
330
5A2
100
AcDbEntity
  8
DEFPOINTS
 62
     0
100
AcDbPoint
 10
103.2620298377783
 20
547.9251790629041
 30
0.0
  0
ENDBLK
  5
5AE
330
5A2
100
AcDbEntity
  8
0
100
AcDbBlockEnd
  0
BLOCK
  5
5C4
330
5B9
100
AcDbEntity
  8
0
100
AcDbBlockBegin
  2
*D2
 70
     1
 10
0.0
 20
0.0
 30
0.0
  3
*D2
  1

  0
LINE
  5
EFF
330
5B9
100
AcDbEntity
  8
SUNPOU
100
AcDbLine
 10
55.15620129654806
 20
458.2532538050866
 30
0.0
 11
55.15620129654806
 21
434.5501790629041
 31
0.0
  0
LINE
  5
F00
330
5B9
100
AcDbEntity
  8
SUNPOU
100
AcDbLine
 10
105.1562012965481
 20
458.2532538050866
 30
0.0
 11
105.1562012965481
 21
434.5501790629041
 31
0.0
  0
LINE
  5
F01
330
5B9
100
AcDbEntity
  8
SUNPOU
100
AcDbLine
 10
60.15620129654806
 20
436.5501790629041
 30
0.0
 11
100.156201296548
 21
436.5501790629041
 31
0.0
  0
MTEXT
  5
F02
330
5B9
100
AcDbEntity
  8
SUNPOU
100
AcDbMText
 10
80.15620129654806
 20
431.8935687406527
 30
0.0
 40
5.0
 41
0.0
 71
     5
 72
     1
  1
\A1;50
  7
SUNPOU
 11
-1.0
 21
0.0000000000000001
 31
0.0
1001
ACAD
1000
MTEXTBEGIN
1070
    73
1070
     1
1070
    44
1040
1.0
1070
    74
1070
     0
1000
MTEXTEND
1000
MTEXTBEGIN
1070
    73
1070
     1
1070
    44
1040
1.0
1070
    74
1070
     0
1000
MTEXTEND
  0
INSERT
  5
F03
330
5B9
100
AcDbEntity
  8
SUNPOU
100
AcDbBlockReference
  2
_OPEN30
 10
55.15620129654806
 20
436.5501790629041
 30
0.0
 41
5.0
 42
5.0
 43
5.0
 50
180.0
  0
INSERT
  5
F04
330
5B9
100
AcDbEntity
  8
SUNPOU
100
AcDbBlockReference
  2
_OPEN30
 10
105.1562012965481
 20
436.5501790629041
 30
0.0
 41
5.0
 42
5.0
 43
5.0
  0
POINT
  5
F05
330
5B9
100
AcDbEntity
  8
DEFPOINTS
 62
     0
100
AcDbPoint
 10
55.15620129654806
 20
461.2532538050866
 30
0.0
  0
POINT
  5
F06
330
5B9
100
AcDbEntity
  8
DEFPOINTS
 62
     0
100
AcDbPoint
 10
105.1562012965481
 20
461.2532538050866
 30
0.0
  0
POINT
  5
F07
330
5B9
100
AcDbEntity
  8
DEFPOINTS
 62
     0
100
AcDbPoint
 10
105.1562012965481
 20
436.5501790629041
 30
0.0
  0
ENDBLK
  5
5C5
330
5B9
100
AcDbEntity
  8
0
100
AcDbBlockEnd
  0
BLOCK
  5
5EC
330
5E2
100
AcDbEntity
  8
0
100
AcDbBlockBegin
  2
*D3
 70
     1
 10
0.0
 20
0.0
 30
0.0
  3
*D3
  1

  0
LINE
  5
EF6
330
5E2
100
AcDbEntity
  8
SUNPOU
100
AcDbLine
 10
131.6935537354511
 20
250.4383862461315
 30
0.0
 11
109.693553735451
 21
250.4383862461315
 31
0.0
  0
LINE
  5
EF7
330
5E2
100
AcDbEntity
  8
SUNPOU
100
AcDbLine
 10
131.6935537354511
 20
320.4383862461316
 30
0.0
 11
109.6935537354512
 21
320.4383862461316
 31
0.0
  0
LINE
  5
EF8
330
5E2
100
AcDbEntity
  8
SUNPOU
100
AcDbLine
 10
111.693553735451
 20
255.4383862461315
 30
0.0
 11
111.6935537354512
 21
315.4383862461316
 31
0.0
  0
INSERT
  5
EF9
330
5E2
100
AcDbEntity
  8
SUNPOU
100
AcDbBlockReference
  2
_OPEN30
 10
111.693553735451
 20
250.4383862461315
 30
0.0
 41
5.0
 42
5.0
 43
5.0
 50
270.0
  0
INSERT
  5
EFA
330
5E2
100
AcDbEntity
  8
SUNPOU
100
AcDbBlockReference
  2
_OPEN30
 10
111.6935537354512
 20
320.4383862461316
 30
0.0
 41
5.0
 42
5.0
 43
5.0
 50
90.0
  0
MTEXT
  5
EFB
330
5E2
100
AcDbEntity
  8
SUNPOU
100
AcDbMText
 10
107.193553735451
 20
285.4383862461316
 30
0.0
 40
5.0
 41
0.0
 71
     5
 72
     1
  1
\A1;70
  7
SUNPOU
 11
0.0000000000000001
 21
1.0
 31
0.0
1001
ACAD
1000
MTEXTBEGIN
1070
    73
1070
     1
1070
    44
1040
1.0
1070
    74
1070
     0
1000
MTEXTEND
1000
MTEXTBEGIN
1070
    73
1070
     1
1070
    44
1040
1.0
1070
    74
1070
     0
1000
MTEXTEND
  0
POINT
  5
EFC
330
5E2
100
AcDbEntity
  8
DEFPOINTS
 62
     0
100
AcDbPoint
 10
134.6935537354511
 20
250.4383862461315
 30
0.0
  0
POINT
  5
EFD
330
5E2
100
AcDbEntity
  8
DEFPOINTS
 62
     0
100
AcDbPoint
 10
134.6935537354511
 20
320.4383862461316
 30
0.0
  0
POINT
  5
EFE
330
5E2
100
AcDbEntity
  8
DEFPOINTS
 62
     0
100
AcDbPoint
 10
111.6935537354512
 20
320.4383862461316
 30
0.0
  0
ENDBLK
  5
5ED
330
5E2
100
AcDbEntity
  8
0
100
AcDbBlockEnd
  0
BLOCK
  5
5F9
330
5EF
100
AcDbEntity
  8
0
100
AcDbBlockBegin
  2
*D4
 70
     1
 10
0.0
 20
0.0
 30
0.0
  3
*D4
  1

  0
LINE
  5
EED
330
5EF
100
AcDbEntity
  8
SUNPOU
100
AcDbLine
 10
276.6935537354512
 20
250.4383862461314
 30
0.0
 11
298.6935537354511
 21
250.4383862461314
 31
0.0
  0
LINE
  5
EEE
330
5EF
100
AcDbEntity
  8
SUNPOU
100
AcDbLine
 10
272.6935537354512
 20
275.4383862461314
 30
0.0
 11
298.6935537354511
 21
275.4383862461314
 31
0.0
  0
LINE
  5
EEF
330
5EF
100
AcDbEntity
  8
SUNPOU
100
AcDbLine
 10
296.6935537354511
 20
255.4383862461313
 30
0.0
 11
296.6935537354511
 21
270.4383862461314
 31
0.0
  0
INSERT
  5
EF0
330
5EF
100
AcDbEntity
  8
SUNPOU
100
AcDbBlockReference
  2
_OPEN30
 10
296.6935537354511
 20
250.4383862461314
 30
0.0
 41
5.0
 42
5.0
 43
5.0
 50
270.0
  0
INSERT
  5
EF1
330
5EF
100
AcDbEntity
  8
SUNPOU
100
AcDbBlockReference
  2
_OPEN30
 10
296.6935537354511
 20
275.4383862461314
 30
0.0
 41
5.0
 42
5.0
 43
5.0
 50
90.0
  0
MTEXT
  5
EF2
330
5EF
100
AcDbEntity
  8
SUNPOU
100
AcDbMText
 10
292.1935537354512
 20
262.9383862461315
 30
0.0
 40
5.0
 41
0.0
 71
     5
 72
     1
  1
\A1;25
  7
SUNPOU
 11
0.0000000000000001
 21
1.0
 31
0.0
1001
ACAD
1000
MTEXTBEGIN
1070
    73
1070
     1
1070
    44
1040
1.0
1070
    74
1070
     0
1000
MTEXTEND
1000
MTEXTBEGIN
1070
    73
1070
     1
1070
    44
1040
1.0
1070
    74
1070
     0
1000
MTEXTEND
  0
POINT
  5
EF3
330
5EF
100
AcDbEntity
  8
DEFPOINTS
 62
     0
100
AcDbPoint
 10
273.6935537354511
 20
250.4383862461314
 30
0.0
  0
POINT
  5
EF4
330
5EF
100
AcDbEntity
  8
DEFPOINTS
 62
     0
100
AcDbPoint
 10
269.6935537354511
 20
275.4383862461314
 30
0.0
  0
POINT
  5
EF5
330
5EF
100
AcDbEntity
  8
DEFPOINTS
 62
     0
100
AcDbPoint
 10
296.6935537354511
 20
275.4383862461314
 30
0.0
  0
ENDBLK
  5
5FA
330
5EF
100
AcDbEntity
  8
0
100
AcDbBlockEnd
  0
BLOCK
  5
606
330
5FC
100
AcDbEntity
  8
0
100
AcDbBlockBegin
  2
*D5
 70
     1
 10
0.0
 20
0.0
 30
0.0
  3
*D5
  1

  0
LINE
  5
EE4
330
5FC
100
AcDbEntity
  8
SUNPOU
100
AcDbLine
 10
272.6935537354512
 20
472.4383862461315
 30
0.0
 11
298.6935537354514
 21
472.4383862461315
 31
0.0
  0
LINE
  5
EE5
330
5FC
100
AcDbEntity
  8
SUNPOU
100
AcDbLine
 10
276.6935537354514
 20
497.4383862461316
 30
0.0
 11
298.6935537354514
 21
497.4383862461316
 31
0.0
  0
LINE
  5
EE6
330
5FC
100
AcDbEntity
  8
SUNPOU
100
AcDbLine
 10
296.6935537354514
 20
477.4383862461315
 30
0.0
 11
296.6935537354514
 21
492.4383862461316
 31
0.0
  0
INSERT
  5
EE7
330
5FC
100
AcDbEntity
  8
SUNPOU
100
AcDbBlockReference
  2
_OPEN30
 10
296.6935537354514
 20
472.4383862461315
 30
0.0
 41
5.0
 42
5.0
 43
5.0
 50
270.0
  0
INSERT
  5
EE8
330
5FC
100
AcDbEntity
  8
SUNPOU
100
AcDbBlockReference
  2
_OPEN30
 10
296.6935537354514
 20
497.4383862461316
 30
0.0
 41
5.0
 42
5.0
 43
5.0
 50
90.0
  0
MTEXT
  5
EE9
330
5FC
100
AcDbEntity
  8
SUNPOU
100
AcDbMText
 10
292.1935537354513
 20
484.9383862461316
 30
0.0
 40
5.0
 41
0.0
 71
     5
 72
     1
  1
\A1;25
  7
SUNPOU
 11
0.0000000000000001
 21
1.0
 31
0.0
1001
ACAD
1000
MTEXTBEGIN
1070
    73
1070
     1
1070
    44
1040
1.0
1070
    74
1070
     0
1000
MTEXTEND
1000
MTEXTBEGIN
1070
    73
1070
     1
1070
    44
1040
1.0
1070
    74
1070
     0
1000
MTEXTEND
  0
POINT
  5
EEA
330
5FC
100
AcDbEntity
  8
DEFPOINTS
 62
     0
100
AcDbPoint
 10
269.6935537354511
 20
472.4383862461315
 30
0.0
  0
POINT
  5
EEB
330
5FC
100
AcDbEntity
  8
DEFPOINTS
 62
     0
100
AcDbPoint
 10
273.6935537354514
 20
497.4383862461316
 30
0.0
  0
POINT
  5
EEC
330
5FC
100
AcDbEntity
  8
DEFPOINTS
 62
     0
100
AcDbPoint
 10
296.6935537354514
 20
497.4383862461316
 30
0.0
  0
ENDBLK
  5
607
330
5FC
100
AcDbEntity
  8
0
100
AcDbBlockEnd
  0
BLOCK
  5
613
330
609
100
AcDbEntity
  8
0
100
AcDbBlockBegin
  2
*D6
 70
     1
 10
0.0
 20
0.0
 30
0.0
  3
*D6
  1

  0
LINE
  5
EDB
330
609
100
AcDbEntity
  8
SUNPOU
100
AcDbLine
 10
329.6935537354511
 20
80.43838624613147
 30
0.0
 11
368.6935537354511
 21
80.43838624613144
 31
0.0
  0
LINE
  5
EDC
330
609
100
AcDbEntity
  8
SUNPOU
100
AcDbLine
 10
326.6935537354511
 20
110.4383862461314
 30
0.0
 11
368.6935537354511
 21
110.4383862461314
 31
0.0
  0
LINE
  5
EDD
330
609
100
AcDbEntity
  8
SUNPOU
100
AcDbLine
 10
366.6935537354511
 20
85.43838624613144
 30
0.0
 11
366.6935537354511
 21
105.4383862461313
 31
0.0
  0
INSERT
  5
EDE
330
609
100
AcDbEntity
  8
SUNPOU
100
AcDbBlockReference
  2
_OPEN30
 10
366.6935537354511
 20
80.43838624613144
 30
0.0
 41
5.0
 42
5.0
 43
5.0
 50
270.0
  0
INSERT
  5
EDF
330
609
100
AcDbEntity
  8
SUNPOU
100
AcDbBlockReference
  2
_OPEN30
 10
366.6935537354511
 20
110.4383862461314
 30
0.0
 41
5.0
 42
5.0
 43
5.0
 50
90.0
  0
MTEXT
  5
EE0
330
609
100
AcDbEntity
  8
SUNPOU
100
AcDbMText
 10
362.1935537354511
 20
95.43838624613151
 30
0.0
 40
5.0
 41
0.0
 71
     5
 72
     1
  1
\A1;30
  7
SUNPOU
 11
0.0000000000000001
 21
1.0
 31
0.0
1001
ACAD
1000
MTEXTBEGIN
1070
    73
1070
     1
1070
    44
1040
1.0
1070
    74
1070
     0
1000
MTEXTEND
1000
MTEXTBEGIN
1070
    73
1070
     1
1070
    44
1040
1.0
1070
    74
1070
     0
1000
MTEXTEND
  0
POINT
  5
EE1
330
609
100
AcDbEntity
  8
DEFPOINTS
 62
     0
100
AcDbPoint
 10
326.6935537354511
 20
80.43838624613147
 30
0.0
  0
POINT
  5
EE2
330
609
100
AcDbEntity
  8
DEFPOINTS
 62
     0
100
AcDbPoint
 10
323.6935537354511
 20
110.4383862461314
 30
0.0
  0
POINT
  5
EE3
330
609
100
AcDbEntity
  8
DEFPOINTS
 62
     0
100
AcDbPoint
 10
366.6935537354511
 20
110.4383862461314
 30
0.0
  0
ENDBLK
  5
614
330
609
100
AcDbEntity
  8
0
100
AcDbBlockEnd
  0
BLOCK
  5
620
330
616
100
AcDbEntity
  8
0
100
AcDbBlockBegin
  2
*D7
 70
     1
 10
0.0
 20
0.0
 30
0.0
  3
*D7
  1

  0
LINE
  5
1112
330
616
100
AcDbEntity
  8
SUNPOU
100
AcDbLine
 10
326.6935537354511
 20
110.4383862461314
 30
0.0
 11
368.6935537354511
 21
110.4383862461314
 31
0.0
  0
LINE
  5
1113
330
616
100
AcDbEntity
  8
SUNPOU
100
AcDbLine
 10
326.6935537354512
 20
500.4383862461313
 30
0.0
 11
368.6935537354512
 21
500.4383862461313
 31
0.0
  0
LINE
  5
1114
330
616
100
AcDbEntity
  8
SUNPOU
100
AcDbLine
 10
366.6935537354511
 20
115.4383862461314
 30
0.0
 11
366.6935537354512
 21
495.4383862461313
 31
0.0
  0
INSERT
  5
1115
330
616
100
AcDbEntity
  8
SUNPOU
100
AcDbBlockReference
  2
_OPEN30
 10
366.6935537354511
 20
110.4383862461314
 30
0.0
 41
5.0
 42
5.0
 43
5.0
 50
270.0
  0
INSERT
  5
1116
330
616
100
AcDbEntity
  8
SUNPOU
100
AcDbBlockReference
  2
_OPEN30
 10
366.6935537354512
 20
500.4383862461313
 30
0.0
 41
5.0
 42
5.0
 43
5.0
 50
90.0
  0
MTEXT
  5
1117
330
616
100
AcDbEntity
  8
SUNPOU
100
AcDbMText
 10
362.1935537354511
 20
305.4383862461315
 30
0.0
 40
5.0
 41
0.0
 71
     5
 72
     1
  1
\A1;W
  7
SUNPOU
 11
0.0000000000000001
 21
1.0
 31
0.0
1001
ACAD
1000
MTEXTBEGIN
1070
    73
1070
     1
1070
    44
1040
1.0
1070
    74
1070
     0
1000
MTEXTEND
1000
MTEXTBEGIN
1070
    73
1070
     1
1070
    44
1040
1.0
1070
    74
1070
     0
1000
MTEXTEND
  0
POINT
  5
1118
330
616
100
AcDbEntity
  8
DEFPOINTS
 62
     0
100
AcDbPoint
 10
323.6935537354511
 20
110.4383862461314
 30
0.0
  0
POINT
  5
1119
330
616
100
AcDbEntity
  8
DEFPOINTS
 62
     0
100
AcDbPoint
 10
323.6935537354511
 20
500.4383862461313
 30
0.0
  0
POINT
  5
111A
330
616
100
AcDbEntity
  8
DEFPOINTS
 62
     0
100
AcDbPoint
 10
366.6935537354512
 20
500.4383862461313
 30
0.0
  0
ENDBLK
  5
621
330
616
100
AcDbEntity
  8
0
100
AcDbBlockEnd
  0
BLOCK
  5
62D
330
623
100
AcDbEntity
  8
0
100
AcDbBlockBegin
  2
*D8
 70
     1
 10
0.0
 20
0.0
 30
0.0
  3
*D8
  1

  0
LINE
  5
112F
330
623
100
AcDbEntity
  8
SUNPOU
100
AcDbLine
 10
326.6935537354512
 20
500.4383862461313
 30
0.0
 11
368.6935537354512
 21
500.4383862461313
 31
0.0
  0
LINE
  5
1130
330
623
100
AcDbEntity
  8
SUNPOU
100
AcDbLine
 10
329.6935537354511
 20
530.4383862461313
 30
0.0
 11
368.6935537354512
 21
530.4383862461313
 31
0.0
  0
LINE
  5
1131
330
623
100
AcDbEntity
  8
SUNPOU
100
AcDbLine
 10
366.6935537354512
 20
505.4383862461313
 30
0.0
 11
366.6935537354512
 21
525.4383862461313
 31
0.0
  0
INSERT
  5
1132
330
623
100
AcDbEntity
  8
SUNPOU
100
AcDbBlockReference
  2
_OPEN30
 10
366.6935537354512
 20
500.4383862461313
 30
0.0
 41
5.0
 42
5.0
 43
5.0
 50
270.0
  0
INSERT
  5
1133
330
623
100
AcDbEntity
  8
SUNPOU
100
AcDbBlockReference
  2
_OPEN30
 10
366.6935537354512
 20
530.4383862461313
 30
0.0
 41
5.0
 42
5.0
 43
5.0
 50
90.0
  0
MTEXT
  5
1134
330
623
100
AcDbEntity
  8
SUNPOU
100
AcDbMText
 10
362.1935537354512
 20
515.4383862461314
 30
0.0
 40
5.0
 41
0.0
 71
     5
 72
     1
  1
\A1;30
  7
SUNPOU
 11
0.0000000000000001
 21
1.0
 31
0.0
1001
ACAD
1000
MTEXTBEGIN
1070
    73
1070
     1
1070
    44
1040
1.0
1070
    74
1070
     0
1000
MTEXTEND
1000
MTEXTBEGIN
1070
    73
1070
     1
1070
    44
1040
1.0
1070
    74
1070
     0
1000
MTEXTEND
  0
POINT
  5
1135
330
623
100
AcDbEntity
  8
DEFPOINTS
 62
     0
100
AcDbPoint
 10
323.6935537354511
 20
500.4383862461313
 30
0.0
  0
POINT
  5
1136
330
623
100
AcDbEntity
  8
DEFPOINTS
 62
     0
100
AcDbPoint
 10
326.6935537354512
 20
530.4383862461313
 30
0.0
  0
POINT
  5
1137
330
623
100
AcDbEntity
  8
DEFPOINTS
 62
     0
100
AcDbPoint
 10
366.6935537354512
 20
530.4383862461313
 30
0.0
  0
ENDBLK
  5
62E
330
623
100
AcDbEntity
  8
0
100
AcDbBlockEnd
  0
BLOCK
  5
643
330
639
100
AcDbEntity
  8
0
100
AcDbBlockBegin
  2
*D9
 70
     1
 10
0.0
 20
0.0
 30
0.0
  3
*D9
  1

  0
LINE
  5
EC0
330
639
100
AcDbEntity
  8
SUNPOU
100
AcDbLine
 10
276.6935537354512
 20
250.4383862461314
 30
0.0
 11
348.6935537354511
 21
250.4383862461314
 31
0.0
  0
LINE
  5
EC1
330
639
100
AcDbEntity
  8
SUNPOU
100
AcDbLine
 10
276.6935537354516
 20
497.4383862461313
 30
0.0
 11
348.6935537354511
 21
497.4383862461313
 31
0.0
  0
LINE
  5
EC2
330
639
100
AcDbEntity
  8
SUNPOU
100
AcDbLine
 10
346.6935537354511
 20
255.4383862461313
 30
0.0
 11
346.6935537354511
 21
492.4383862461313
 31
0.0
  0
INSERT
  5
EC3
330
639
100
AcDbEntity
  8
SUNPOU
100
AcDbBlockReference
  2
_OPEN30
 10
346.6935537354511
 20
250.4383862461314
 30
0.0
 41
5.0
 42
5.0
 43
5.0
 50
270.0
  0
INSERT
  5
EC4
330
639
100
AcDbEntity
  8
SUNPOU
100
AcDbBlockReference
  2
_OPEN30
 10
346.6935537354511
 20
497.4383862461313
 30
0.0
 41
5.0
 42
5.0
 43
5.0
 50
90.0
  0
MTEXT
  5
EC5
330
639
100
AcDbEntity
  8
SUNPOU
100
AcDbMText
 10
342.1935537354511
 20
373.9383862461313
 30
0.0
 40
5.0
 41
0.0
 71
     5
 72
     1
  1
\A1;DW
  7
SUNPOU
 11
0.0000000000000001
 21
1.0
 31
0.0
1001
ACAD
1000
MTEXTBEGIN
1070
    73
1070
     1
1070
    44
1040
1.0
1070
    74
1070
     0
1000
MTEXTEND
1000
MTEXTBEGIN
1070
    73
1070
     1
1070
    44
1040
1.0
1070
    74
1070
     0
1000
MTEXTEND
  0
POINT
  5
EC6
330
639
100
AcDbEntity
  8
DEFPOINTS
 62
     0
100
AcDbPoint
 10
273.6935537354511
 20
250.4383862461314
 30
0.0
  0
POINT
  5
EC7
330
639
100
AcDbEntity
  8
DEFPOINTS
 62
     0
100
AcDbPoint
 10
273.6935537354515
 20
497.4383862461313
 30
0.0
  0
POINT
  5
EC8
330
639
100
AcDbEntity
  8
DEFPOINTS
 62
     0
100
AcDbPoint
 10
346.6935537354511
 20
497.4383862461313
 30
0.0
  0
ENDBLK
  5
644
330
639
100
AcDbEntity
  8
0
100
AcDbBlockEnd
  0
BLOCK
  5
652
330
646
100
AcDbEntity
  8
0
100
AcDbBlockBegin
  2
*D10
 70
     1
 10
0.0
 20
0.0
 30
0.0
  3
*D10
  1

  0
LINE
  5
1138
330
646
100
AcDbEntity
  8
SUNPOU
100
AcDbLine
 10
276.6935537354516
 20
497.4383862461313
 30
0.0
 11
348.6935537354511
 21
497.4383862461313
 31
0.0
  0
LINE
  5
1139
330
646
100
AcDbEntity
  8
SUNPOU
100
AcDbLine
 10
326.6935537354512
 20
500.4383862461313
 30
0.0
 11
348.6935537354511
 21
500.4383862461313
 31
0.0
  0
LINE
  5
113A
330
646
100
AcDbEntity
  8
SUNPOU
100
AcDbLine
 10
346.6935537354511
 20
492.4383862461313
 30
0.0
 11
346.6935537354511
 21
487.4383862461312
 31
0.0
  0
LINE
  5
113B
330
646
100
AcDbEntity
  8
SUNPOU
100
AcDbLine
 10
346.6935537354511
 20
505.4383862461313
 30
0.0
 11
346.6935537354511
 21
510.4383862461315
 31
0.0
  0
MTEXT
  5
113C
330
646
100
AcDbEntity
  8
SUNPOU
100
AcDbMText
 10
341.4030305383731
 20
507.6131240741831
 30
0.0
 40
5.0
 41
0.0
 71
     5
 72
     1
  1
\A1;3
  7
SUNPOU
 11
0.0000000000000001
 21
1.0
 31
0.0
1001
ACAD
1000
MTEXTBEGIN
1070
    73
1070
     1
1070
    44
1040
1.0
1070
    74
1070
     0
1000
MTEXTEND
1000
MTEXTBEGIN
1070
    73
1070
     1
1070
    44
1040
1.0
1070
    74
1070
     0
1000
MTEXTEND
  0
LINE
  5
113D
330
646
100
AcDbEntity
  8
SUNPOU
100
AcDbLine
 10
346.6935537354511
 20
497.4383862461313
 30
0.0
 11
346.6935537354511
 21
500.4383862461313
 31
0.0
  0
INSERT
  5
113E
330
646
100
AcDbEntity
  8
SUNPOU
100
AcDbBlockReference
  2
_OPEN30
 10
346.6935537354511
 20
497.4383862461313
 30
0.0
 41
5.0
 42
5.0
 43
5.0
 50
90.0
  0
INSERT
  5
113F
330
646
100
AcDbEntity
  8
SUNPOU
100
AcDbBlockReference
  2
_OPEN30
 10
346.6935537354511
 20
500.4383862461313
 30
0.0
 41
5.0
 42
5.0
 43
5.0
 50
270.0
  0
POINT
  5
1140
330
646
100
AcDbEntity
  8
DEFPOINTS
 62
     0
100
AcDbPoint
 10
273.6935537354515
 20
497.4383862461313
 30
0.0
  0
POINT
  5
1141
330
646
100
AcDbEntity
  8
DEFPOINTS
 62
     0
100
AcDbPoint
 10
323.6935537354511
 20
500.4383862461313
 30
0.0
  0
POINT
  5
1142
330
646
100
AcDbEntity
  8
DEFPOINTS
 62
     0
100
AcDbPoint
 10
346.6935537354511
 20
500.4383862461313
 30
0.0
  0
ENDBLK
  5
653
330
646
100
AcDbEntity
  8
0
100
AcDbBlockEnd
  0
BLOCK
  5
67F
330
674
100
AcDbEntity
  8
0
100
AcDbBlockBegin
  2
*D11
 70
     1
 10
0.0
 20
0.0
 30
0.0
  3
*D11
  1

  0
LINE
  5
EAC
330
674
100
AcDbEntity
  8
SUNPOU
100
AcDbLine
 10
326.6935537354511
 20
77.43838624613147
 30
0.0
 11
326.6935537354511
 21
58.43838624613153
 31
0.0
  0
LINE
  5
EAD
330
674
100
AcDbEntity
  8
SUNPOU
100
AcDbLine
 10
126.6935537354511
 20
77.43838624613153
 30
0.0
 11
126.6935537354511
 21
58.43838624613153
 31
0.0
  0
LINE
  5
EAE
330
674
100
AcDbEntity
  8
SUNPOU
100
AcDbLine
 10
321.6935537354511
 20
60.43838624613154
 30
0.0
 11
131.693553735451
 21
60.43838624613154
 31
0.0
  0
MTEXT
  5
EAF
330
674
100
AcDbEntity
  8
SUNPOU
100
AcDbMText
 10
226.693553735451
 20
55.90232069401849
 30
0.0
 40
5.0
 41
0.0
 71
     5
 72
     1
  1
\A1;200
  7
SUNPOU
 11
-1.0
 21
0.0000000000000001
 31
0.0
1001
ACAD
1000
MTEXTBEGIN
1070
    73
1070
     1
1070
    44
1040
1.0
1070
    74
1070
     0
1000
MTEXTEND
1000
MTEXTBEGIN
1070
    73
1070
     1
1070
    44
1040
1.0
1070
    74
1070
     0
1000
MTEXTEND
  0
INSERT
  5
EB0
330
674
100
AcDbEntity
  8
SUNPOU
100
AcDbBlockReference
  2
_OPEN30
 10
326.6935537354511
 20
60.43838624613154
 30
0.0
 41
5.0
 42
5.0
 43
5.0
  0
INSERT
  5
EB1
330
674
100
AcDbEntity
  8
SUNPOU
100
AcDbBlockReference
  2
_OPEN30
 10
126.6935537354511
 20
60.43838624613154
 30
0.0
 41
5.0
 42
5.0
 43
5.0
 50
180.0
  0
POINT
  5
EB2
330
674
100
AcDbEntity
  8
DEFPOINTS
 62
     0
100
AcDbPoint
 10
326.6935537354511
 20
80.43838624613147
 30
0.0
  0
POINT
  5
EB3
330
674
100
AcDbEntity
  8
DEFPOINTS
 62
     0
100
AcDbPoint
 10
126.6935537354511
 20
80.43838624613153
 30
0.0
  0
POINT
  5
EB4
330
674
100
AcDbEntity
  8
DEFPOINTS
 62
     0
100
AcDbPoint
 10
126.6935537354511
 20
60.43838624613154
 30
0.0
  0
ENDBLK
  5
680
330
674
100
AcDbEntity
  8
0
100
AcDbBlockEnd
  0
BLOCK
  5
6BA
330
6B0
100
AcDbEntity
  8
0
100
AcDbBlockBegin
  2
*D12
 70
     1
 10
0.0
 20
0.0
 30
0.0
  3
*D12
  1

  0
LINE
  5
EA3
330
6B0
100
AcDbEntity
  8
SUNPOU
100
AcDbLine
 10
326.6935537354512
 20
213.5639134920004
 30
0.0
 11
326.6935537354512
 21
212.5639134920005
 31
0.0
  0
LINE
  5
EA4
330
6B0
100
AcDbEntity
  8
SUNPOU
100
AcDbLine
 10
276.6935537354512
 20
250.4383862461314
 30
0.0
 11
276.6935537354512
 21
208.5639134920004
 31
0.0
  0
LINE
  5
EA5
330
6B0
100
AcDbEntity
  8
SUNPOU
100
AcDbLine
 10
321.6935537354511
 20
210.5639134920004
 30
0.0
 11
281.6935537354511
 21
210.5639134920004
 31
0.0
  0
MTEXT
  5
EA6
330
6B0
100
AcDbEntity
  8
SUNPOU
100
AcDbMText
 10
301.6935537354512
 20
206.0629096104111
 30
0.0
 40
5.0
 41
0.0
 71
     5
 72
     1
  1
\A1;50
  7
SUNPOU
 11
-1.0
 21
0.0000000000000001
 31
0.0
1001
ACAD
1000
MTEXTBEGIN
1070
    73
1070
     1
1070
    44
1040
1.0
1070
    74
1070
     0
1000
MTEXTEND
1000
MTEXTBEGIN
1070
    73
1070
     1
1070
    44
1040
1.0
1070
    74
1070
     0
1000
MTEXTEND
  0
INSERT
  5
EA7
330
6B0
100
AcDbEntity
  8
SUNPOU
100
AcDbBlockReference
  2
_OPEN30
 10
326.6935537354512
 20
210.5639134920004
 30
0.0
 41
5.0
 42
5.0
 43
5.0
  0
INSERT
  5
EA8
330
6B0
100
AcDbEntity
  8
SUNPOU
100
AcDbBlockReference
  2
_OPEN30
 10
276.6935537354512
 20
210.5639134920004
 30
0.0
 41
5.0
 42
5.0
 43
5.0
 50
180.0
  0
POINT
  5
EA9
330
6B0
100
AcDbEntity
  8
DEFPOINTS
 62
     0
100
AcDbPoint
 10
326.6935537354512
 20
210.5639134920004
 30
0.0
  0
POINT
  5
EAA
330
6B0
100
AcDbEntity
  8
DEFPOINTS
 62
     0
100
AcDbPoint
 10
276.6935537354512
 20
253.4383862461314
 30
0.0
  0
POINT
  5
EAB
330
6B0
100
AcDbEntity
  8
DEFPOINTS
 62
     0
100
AcDbPoint
 10
276.6935537354512
 20
210.5639134920004
 30
0.0
  0
ENDBLK
  5
6BB
330
6B0
100
AcDbEntity
  8
0
100
AcDbBlockEnd
  0
BLOCK
  5
6C7
330
6BD
100
AcDbEntity
  8
0
100
AcDbBlockBegin
  2
*D13
 70
     1
 10
0.0
 20
0.0
 30
0.0
  3
*D13
  1

  0
LINE
  5
E9A
330
6BD
100
AcDbEntity
  8
SUNPOU
100
AcDbLine
 10
276.6935537354512
 20
250.4383862461314
 30
0.0
 11
276.6935537354512
 21
208.5639134920004
 31
0.0
  0
LINE
  5
E9B
330
6BD
100
AcDbEntity
  8
SUNPOU
100
AcDbLine
 10
236.6935537354511
 20
250.4383862461315
 30
0.0
 11
236.6935537354511
 21
208.5639134920004
 31
0.0
  0
LINE
  5
E9C
330
6BD
100
AcDbEntity
  8
SUNPOU
100
AcDbLine
 10
271.6935537354511
 20
210.5639134920004
 30
0.0
 11
241.6935537354512
 21
210.5639134920004
 31
0.0
  0
MTEXT
  5
E9D
330
6BD
100
AcDbEntity
  8
SUNPOU
100
AcDbMText
 10
261.2302514813076
 20
206.0609308209365
 30
0.0
 40
5.0
 41
0.0
 71
     5
 72
     1
  1
\A1;40
  7
SUNPOU
 11
-1.0
 21
0.0000000000000001
 31
0.0
1001
ACAD
1000
MTEXTBEGIN
1070
    73
1070
     1
1070
    44
1040
1.0
1070
    74
1070
     0
1000
MTEXTEND
1000
MTEXTBEGIN
1070
    73
1070
     1
1070
    44
1040
1.0
1070
    74
1070
     0
1000
MTEXTEND
  0
INSERT
  5
E9E
330
6BD
100
AcDbEntity
  8
SUNPOU
100
AcDbBlockReference
  2
_OPEN30
 10
276.6935537354512
 20
210.5639134920004
 30
0.0
 41
5.0
 42
5.0
 43
5.0
  0
INSERT
  5
E9F
330
6BD
100
AcDbEntity
  8
SUNPOU
100
AcDbBlockReference
  2
_OPEN30
 10
236.6935537354511
 20
210.5639134920004
 30
0.0
 41
5.0
 42
5.0
 43
5.0
 50
180.0
  0
POINT
  5
EA0
330
6BD
100
AcDbEntity
  8
DEFPOINTS
 62
     0
100
AcDbPoint
 10
276.6935537354512
 20
253.4383862461314
 30
0.0
  0
POINT
  5
EA1
330
6BD
100
AcDbEntity
  8
DEFPOINTS
 62
     0
100
AcDbPoint
 10
236.6935537354511
 20
253.4383862461314
 30
0.0
  0
POINT
  5
EA2
330
6BD
100
AcDbEntity
  8
DEFPOINTS
 62
     0
100
AcDbPoint
 10
236.6935537354511
 20
210.5639134920004
 30
0.0
  0
ENDBLK
  5
6C8
330
6BD
100
AcDbEntity
  8
0
100
AcDbBlockEnd
  0
BLOCK
  5
6D6
330
6CA
100
AcDbEntity
  8
0
100
AcDbBlockBegin
  2
*D14
 70
     1
 10
0.0
 20
0.0
 30
0.0
  3
*D14
  1

  0
LINE
  5
E8F
330
6CA
100
AcDbEntity
  8
SUNPOU
100
AcDbLine
 10
236.6935537354511
 20
250.4383862461315
 30
0.0
 11
236.6935537354511
 21
208.5639134920004
 31
0.0
  0
LINE
  5
E90
330
6CA
100
AcDbEntity
  8
SUNPOU
100
AcDbLine
 10
231.6935537354511
 20
250.4383862461315
 30
0.0
 11
231.6935537354511
 21
208.5639134920004
 31
0.0
  0
LINE
  5
E91
330
6CA
100
AcDbEntity
  8
SUNPOU
100
AcDbLine
 10
241.6935537354512
 20
210.5639134920004
 30
0.0
 11
246.6935537354511
 21
210.5639134920004
 31
0.0
  0
LINE
  5
E92
330
6CA
100
AcDbEntity
  8
SUNPOU
100
AcDbLine
 10
226.6935537354512
 20
210.5639134920004
 30
0.0
 11
221.6935537354511
 21
210.5639134920004
 31
0.0
  0
MTEXT
  5
E93
330
6CA
100
AcDbEntity
  8
SUNPOU
100
AcDbMText
 10
234.1935537354511
 20
206.0916349210816
 30
0.0
 40
5.0
 41
0.0
 71
     5
 72
     1
  1
\A1;5
  7
SUNPOU
 11
-1.0
 21
0.0000000000000001
 31
0.0
1001
ACAD
1000
MTEXTBEGIN
1070
    73
1070
     1
1070
    44
1040
1.0
1070
    74
1070
     0
1000
MTEXTEND
1000
MTEXTBEGIN
1070
    73
1070
     1
1070
    44
1040
1.0
1070
    74
1070
     0
1000
MTEXTEND
  0
LINE
  5
E94
330
6CA
100
AcDbEntity
  8
SUNPOU
100
AcDbLine
 10
236.6935537354511
 20
210.5639134920004
 30
0.0
 11
231.6935537354511
 21
210.5639134920004
 31
0.0
  0
INSERT
  5
E95
330
6CA
100
AcDbEntity
  8
SUNPOU
100
AcDbBlockReference
  2
_OPEN30
 10
236.6935537354511
 20
210.5639134920004
 30
0.0
 41
5.0
 42
5.0
 43
5.0
 50
180.0
  0
INSERT
  5
E96
330
6CA
100
AcDbEntity
  8
SUNPOU
100
AcDbBlockReference
  2
_OPEN30
 10
231.6935537354511
 20
210.5639134920004
 30
0.0
 41
5.0
 42
5.0
 43
5.0
  0
POINT
  5
E97
330
6CA
100
AcDbEntity
  8
DEFPOINTS
 62
     0
100
AcDbPoint
 10
236.6935537354511
 20
253.4383862461314
 30
0.0
  0
POINT
  5
E98
330
6CA
100
AcDbEntity
  8
DEFPOINTS
 62
     0
100
AcDbPoint
 10
231.6935537354511
 20
253.4383862461314
 30
0.0
  0
POINT
  5
E99
330
6CA
100
AcDbEntity
  8
DEFPOINTS
 62
     0
100
AcDbPoint
 10
231.6935537354511
 20
210.5639134920004
 30
0.0
  0
ENDBLK
  5
6D7
330
6CA
100
AcDbEntity
  8
0
100
AcDbBlockEnd
  0
BLOCK
  5
6E3
330
6D9
100
AcDbEntity
  8
0
100
AcDbBlockBegin
  2
*D15
 70
     1
 10
0.0
 20
0.0
 30
0.0
  3
*D15
  1

  0
LINE
  5
E86
330
6D9
100
AcDbEntity
  8
SUNPOU
100
AcDbLine
 10
231.6935537354511
 20
250.4383862461315
 30
0.0
 11
231.6935537354511
 21
208.5639134920004
 31
0.0
  0
LINE
  5
E87
330
6D9
100
AcDbEntity
  8
SUNPOU
100
AcDbLine
 10
131.6935537354511
 20
250.4383862461315
 30
0.0
 11
131.6935537354511
 21
208.5639134920004
 31
0.0
  0
LINE
  5
E88
330
6D9
100
AcDbEntity
  8
SUNPOU
100
AcDbLine
 10
226.6935537354512
 20
210.5639134920004
 30
0.0
 11
136.6935537354512
 21
210.5639134920004
 31
0.0
  0
MTEXT
  5
E89
330
6D9
100
AcDbEntity
  8
SUNPOU
100
AcDbMText
 10
187.8993209013964
 20
206.06290401666
 30
0.0
 40
5.0
 41
0.0
 71
     5
 72
     1
  1
\A1;100
  7
SUNPOU
 11
-1.0
 21
0.0000000000000001
 31
0.0
1001
ACAD
1000
MTEXTBEGIN
1070
    73
1070
     1
1070
    44
1040
1.0
1070
    74
1070
     0
1000
MTEXTEND
1000
MTEXTBEGIN
1070
    73
1070
     1
1070
    44
1040
1.0
1070
    74
1070
     0
1000
MTEXTEND
  0
INSERT
  5
E8A
330
6D9
100
AcDbEntity
  8
SUNPOU
100
AcDbBlockReference
  2
_OPEN30
 10
231.6935537354511
 20
210.5639134920004
 30
0.0
 41
5.0
 42
5.0
 43
5.0
  0
INSERT
  5
E8B
330
6D9
100
AcDbEntity
  8
SUNPOU
100
AcDbBlockReference
  2
_OPEN30
 10
131.6935537354511
 20
210.5639134920004
 30
0.0
 41
5.0
 42
5.0
 43
5.0
 50
180.0
  0
POINT
  5
E8C
330
6D9
100
AcDbEntity
  8
DEFPOINTS
 62
     0
100
AcDbPoint
 10
231.6935537354511
 20
253.4383862461314
 30
0.0
  0
POINT
  5
E8D
330
6D9
100
AcDbEntity
  8
DEFPOINTS
 62
     0
100
AcDbPoint
 10
131.6935537354511
 20
253.4383862461315
 30
0.0
  0
POINT
  5
E8E
330
6D9
100
AcDbEntity
  8
DEFPOINTS
 62
     0
100
AcDbPoint
 10
131.6935537354511
 20
210.5639134920004
 30
0.0
  0
ENDBLK
  5
6E4
330
6D9
100
AcDbEntity
  8
0
100
AcDbBlockEnd
  0
BLOCK
  5
6F1
330
6E6
100
AcDbEntity
  8
0
100
AcDbBlockBegin
  2
*D16
 70
     1
 10
0.0
 20
0.0
 30
0.0
  3
*D16
  1

  0
LINE
  5
10B2
330
6E6
100
AcDbEntity
  8
SUNPOU
100
AcDbLine
 10
131.6935537354511
 20
174.4383862461314
 30
0.0
 11
131.6935537354511
 21
142.5639134920005
 31
0.0
  0
LINE
  5
10B3
330
6E6
100
AcDbEntity
  8
SUNPOU
100
AcDbLine
 10
126.6935537354511
 20
110.4383862461314
 30
0.0
 11
126.6935537354511
 21
146.5639134920005
 31
0.0
  0
LINE
  5
10B4
330
6E6
100
AcDbEntity
  8
SUNPOU
100
AcDbLine
 10
136.6935537354512
 20
144.5639134920005
 30
0.0
 11
141.6935537354511
 21
144.5639134920005
 31
0.0
  0
LINE
  5
10B5
330
6E6
100
AcDbEntity
  8
SUNPOU
100
AcDbLine
 10
121.693553735451
 20
144.5639134920005
 30
0.0
 11
116.693553735451
 21
144.5639134920005
 31
0.0
  0
MTEXT
  5
10B6
330
6E6
100
AcDbEntity
  8
SUNPOU
100
AcDbMText
 10
119.2956344607043
 20
140.0787818793421
 30
0.0
 40
5.0
 41
0.0
 71
     5
 72
     1
  1
\A1;5
  7
SUNPOU
 11
-1.0
 21
0.0000000000000001
 31
0.0
1001
ACAD
1000
MTEXTBEGIN
1070
    73
1070
     1
1070
    44
1040
1.0
1070
    74
1070
     0
1000
MTEXTEND
1000
MTEXTBEGIN
1070
    73
1070
     1
1070
    44
1040
1.0
1070
    74
1070
     0
1000
MTEXTEND
  0
LINE
  5
10B7
330
6E6
100
AcDbEntity
  8
SUNPOU
100
AcDbLine
 10
131.6935537354511
 20
144.5639134920005
 30
0.0
 11
126.6935537354511
 21
144.5639134920005
 31
0.0
  0
INSERT
  5
10B8
330
6E6
100
AcDbEntity
  8
SUNPOU
100
AcDbBlockReference
  2
_OPEN30
 10
131.6935537354511
 20
144.5639134920005
 30
0.0
 41
5.0
 42
5.0
 43
5.0
 50
180.0
  0
INSERT
  5
10B9
330
6E6
100
AcDbEntity
  8
SUNPOU
100
AcDbBlockReference
  2
_OPEN30
 10
126.6935537354511
 20
144.5639134920005
 30
0.0
 41
5.0
 42
5.0
 43
5.0
  0
POINT
  5
10BA
330
6E6
100
AcDbEntity
  8
DEFPOINTS
 62
     0
100
AcDbPoint
 10
131.6935537354511
 20
177.4383862461314
 30
0.0
  0
POINT
  5
10BB
330
6E6
100
AcDbEntity
  8
DEFPOINTS
 62
     0
100
AcDbPoint
 10
126.6935537354511
 20
107.4383862461315
 30
0.0
  0
POINT
  5
10BC
330
6E6
100
AcDbEntity
  8
DEFPOINTS
 62
     0
100
AcDbPoint
 10
126.6935537354511
 20
144.5639134920005
 30
0.0
  0
ENDBLK
  5
6F2
330
6E6
100
AcDbEntity
  8
0
100
AcDbBlockEnd
  0
BLOCK
  5
84B
330
841
100
AcDbEntity
  8
0
100
AcDbBlockBegin
  2
*D17
 70
     1
 10
0.0
 20
0.0
 30
0.0
  3
*D17
  1

  0
LINE
  5
E70
330
841
100
AcDbEntity
  8
SUNPOU
100
AcDbLine
 10
276.6935537354513
 20
396.9764868063413
 30
0.0
 11
276.6935537354513
 21
395.9764868063413
 31
0.0
  0
LINE
  5
E71
330
841
100
AcDbEntity
  8
SUNPOU
100
AcDbLine
 10
269.6935537354511
 20
396.9764868063413
 30
0.0
 11
269.6935537354511
 21
395.9764868063413
 31
0.0
  0
LINE
  5
E72
330
841
100
AcDbEntity
  8
SUNPOU
100
AcDbLine
 10
281.6935537354513
 20
393.9764868063413
 30
0.0
 11
286.6935537354513
 21
393.9764868063413
 31
0.0
  0
LINE
  5
E73
330
841
100
AcDbEntity
  8
SUNPOU
100
AcDbLine
 10
264.6935537354512
 20
393.9764868063413
 30
0.0
 11
259.6935537354511
 21
393.9764868063413
 31
0.0
  0
MTEXT
  5
E74
330
841
100
AcDbEntity
  8
SUNPOU
100
AcDbMText
 10
284.0122445799209
 20
389.4928733780951
 30
0.0
 40
5.0
 41
0.0
 71
     5
 72
     1
  1
\A1;7
  7
SUNPOU
 11
-1.0
 21
0.0000000000000001
 31
0.0
1001
ACAD
1000
MTEXTBEGIN
1070
    73
1070
     1
1070
    44
1040
1.0
1070
    74
1070
     0
1000
MTEXTEND
1000
MTEXTBEGIN
1070
    73
1070
     1
1070
    44
1040
1.0
1070
    74
1070
     0
1000
MTEXTEND
  0
LINE
  5
E75
330
841
100
AcDbEntity
  8
SUNPOU
100
AcDbLine
 10
276.6935537354513
 20
393.9764868063413
 30
0.0
 11
269.6935537354511
 21
393.9764868063413
 31
0.0
  0
INSERT
  5
E76
330
841
100
AcDbEntity
  8
SUNPOU
100
AcDbBlockReference
  2
_OPEN30
 10
276.6935537354513
 20
393.9764868063413
 30
0.0
 41
5.0
 42
5.0
 43
5.0
 50
180.0
  0
INSERT
  5
E77
330
841
100
AcDbEntity
  8
SUNPOU
100
AcDbBlockReference
  2
_OPEN30
 10
269.6935537354511
 20
393.9764868063413
 30
0.0
 41
5.0
 42
5.0
 43
5.0
  0
POINT
  5
E78
330
841
100
AcDbEntity
  8
DEFPOINTS
 62
     0
100
AcDbPoint
 10
276.6935537354513
 20
393.9764868063413
 30
0.0
  0
POINT
  5
E79
330
841
100
AcDbEntity
  8
DEFPOINTS
 62
     0
100
AcDbPoint
 10
269.6935537354511
 20
393.9764868063413
 30
0.0
  0
POINT
  5
E7A
330
841
100
AcDbEntity
  8
DEFPOINTS
 62
     0
100
AcDbPoint
 10
269.6935537354511
 20
393.9764868063413
 30
0.0
  0
ENDBLK
  5
84C
330
841
100
AcDbEntity
  8
0
100
AcDbBlockEnd
  0
BLOCK
  5
856
330
84E
100
AcDbEntity
  8
0
100
AcDbBlockBegin
  2
*D18
 70
     1
 10
0.0
 20
0.0
 30
0.0
  3
*D18
  1

  0
LINE
  5
E67
330
84E
100
AcDbEntity
  8
SUNPOU
100
AcDbLine
 10
269.6935537354511
 20
396.9764868063413
 30
0.0
 11
269.6935537354511
 21
395.9764868063413
 31
0.0
  0
LINE
  5
E68
330
84E
100
AcDbEntity
  8
SUNPOU
100
AcDbLine
 10
243.6935537354512
 20
396.9764868063413
 30
0.0
 11
243.6935537354512
 21
395.9764868063413
 31
0.0
  0
LINE
  5
E69
330
84E
100
AcDbEntity
  8
SUNPOU
100
AcDbLine
 10
264.6935537354512
 20
393.9764868063413
 30
0.0
 11
248.6935537354511
 21
393.9764868063413
 31
0.0
  0
MTEXT
  5
E6A
330
84E
100
AcDbEntity
  8
SUNPOU
100
AcDbMText
 10
261.3228620632576
 20
389.3248818431056
 30
0.0
 40
5.0
 41
0.0
 71
     5
 72
     1
  1
\A1;26
  7
SUNPOU
 11
-1.0
 21
0.0000000000000001
 31
0.0
1001
ACAD
1000
MTEXTBEGIN
1070
    73
1070
     1
1070
    44
1040
1.0
1070
    74
1070
     0
1000
MTEXTEND
1000
MTEXTBEGIN
1070
    73
1070
     1
1070
    44
1040
1.0
1070
    74
1070
     0
1000
MTEXTEND
  0
INSERT
  5
E6B
330
84E
100
AcDbEntity
  8
SUNPOU
100
AcDbBlockReference
  2
_OPEN30
 10
269.6935537354511
 20
393.9764868063413
 30
0.0
 41
5.0
 42
5.0
 43
5.0
  0
INSERT
  5
E6C
330
84E
100
AcDbEntity
  8
SUNPOU
100
AcDbBlockReference
  2
_OPEN30
 10
243.6935537354512
 20
393.9764868063413
 30
0.0
 41
5.0
 42
5.0
 43
5.0
 50
180.0
  0
POINT
  5
E6D
330
84E
100
AcDbEntity
  8
DEFPOINTS
 62
     0
100
AcDbPoint
 10
269.6935537354511
 20
393.9764868063413
 30
0.0
  0
POINT
  5
E6E
330
84E
100
AcDbEntity
  8
DEFPOINTS
 62
     0
100
AcDbPoint
 10
243.6935537354512
 20
393.9764868063413
 30
0.0
  0
POINT
  5
E6F
330
84E
100
AcDbEntity
  8
DEFPOINTS
 62
     0
100
AcDbPoint
 10
243.6935537354512
 20
393.9764868063413
 30
0.0
  0
ENDBLK
  5
857
330
84E
100
AcDbEntity
  8
0
100
AcDbBlockEnd
  0
BLOCK
  5
863
330
859
100
AcDbEntity
  8
0
100
AcDbBlockBegin
  2
*D19
 70
     1
 10
0.0
 20
0.0
 30
0.0
  3
*D19
  1

  0
LINE
  5
E5C
330
859
100
AcDbEntity
  8
SUNPOU
100
AcDbLine
 10
243.6935537354512
 20
396.9764868063413
 30
0.0
 11
243.6935537354512
 21
395.9764868063413
 31
0.0
  0
LINE
  5
E5D
330
859
100
AcDbEntity
  8
SUNPOU
100
AcDbLine
 10
236.6935537354513
 20
396.9764868063413
 30
0.0
 11
236.6935537354513
 21
395.9764868063413
 31
0.0
  0
LINE
  5
E5E
330
859
100
AcDbEntity
  8
SUNPOU
100
AcDbLine
 10
248.6935537354511
 20
393.9764868063413
 30
0.0
 11
253.6935537354512
 21
393.9764868063413
 31
0.0
  0
LINE
  5
E5F
330
859
100
AcDbEntity
  8
SUNPOU
100
AcDbLine
 10
231.6935537354513
 20
393.9764868063413
 30
0.0
 11
226.6935537354513
 21
393.9764868063413
 31
0.0
  0
MTEXT
  5
E60
330
859
100
AcDbEntity
  8
SUNPOU
100
AcDbMText
 10
229.3885248036442
 20
389.5780508255238
 30
0.0
 40
5.0
 41
0.0
 71
     5
 72
     1
  1
\A1;7
  7
SUNPOU
 11
-1.0
 21
0.0000000000000001
 31
0.0
1001
ACAD
1000
MTEXTBEGIN
1070
    73
1070
     1
1070
    44
1040
1.0
1070
    74
1070
     0
1000
MTEXTEND
1000
MTEXTBEGIN
1070
    73
1070
     1
1070
    44
1040
1.0
1070
    74
1070
     0
1000
MTEXTEND
  0
LINE
  5
E61
330
859
100
AcDbEntity
  8
SUNPOU
100
AcDbLine
 10
243.6935537354512
 20
393.9764868063413
 30
0.0
 11
236.6935537354513
 21
393.9764868063413
 31
0.0
  0
INSERT
  5
E62
330
859
100
AcDbEntity
  8
SUNPOU
100
AcDbBlockReference
  2
_OPEN30
 10
243.6935537354512
 20
393.9764868063413
 30
0.0
 41
5.0
 42
5.0
 43
5.0
 50
180.0
  0
INSERT
  5
E63
330
859
100
AcDbEntity
  8
SUNPOU
100
AcDbBlockReference
  2
_OPEN30
 10
236.6935537354513
 20
393.9764868063413
 30
0.0
 41
5.0
 42
5.0
 43
5.0
  0
POINT
  5
E64
330
859
100
AcDbEntity
  8
DEFPOINTS
 62
     0
100
AcDbPoint
 10
243.6935537354512
 20
393.9764868063413
 30
0.0
  0
POINT
  5
E65
330
859
100
AcDbEntity
  8
DEFPOINTS
 62
     0
100
AcDbPoint
 10
236.6935537354513
 20
393.9764868063413
 30
0.0
  0
POINT
  5
E66
330
859
100
AcDbEntity
  8
DEFPOINTS
 62
     0
100
AcDbPoint
 10
236.6935537354513
 20
393.9764868063413
 30
0.0
  0
ENDBLK
  5
864
330
859
100
AcDbEntity
  8
0
100
AcDbBlockEnd
  0
BLOCK
  5
ACF
330
AC5
100
AcDbEntity
  8
0
100
AcDbBlockBegin
  2
*D20
 70
     1
 10
0.0
 20
0.0
 30
0.0
  3
*D20
  1

  0
LINE
  5
E53
330
AC5
100
AcDbEntity
  8
SUNPOU
100
AcDbLine
 10
51.6203029116858
 20
463.2532538050866
 30
0.0
 11
41.8290412251356
 21
463.2532538050866
 31
0.0
  0
LINE
  5
E54
330
AC5
100
AcDbEntity
  8
SUNPOU
100
AcDbLine
 10
57.83195999414633
 20
486.4354736360243
 30
0.0
 11
41.82904122513561
 21
486.4354736360243
 31
0.0
  0
LINE
  5
E55
330
AC5
100
AcDbEntity
  8
SUNPOU
100
AcDbLine
 10
43.8290412251356
 20
468.2532538050867
 30
0.0
 11
43.8290412251356
 21
481.4354736360242
 31
0.0
  0
INSERT
  5
E56
330
AC5
100
AcDbEntity
  8
SUNPOU
100
AcDbBlockReference
  2
_OPEN30
 10
43.8290412251356
 20
463.2532538050866
 30
0.0
 41
5.0
 42
5.0
 43
5.0
 50
270.0
  0
INSERT
  5
E57
330
AC5
100
AcDbEntity
  8
SUNPOU
100
AcDbBlockReference
  2
_OPEN30
 10
43.8290412251356
 20
486.4354736360243
 30
0.0
 41
5.0
 42
5.0
 43
5.0
 50
90.0
  0
MTEXT
  5
E58
330
AC5
100
AcDbEntity
  8
SUNPOU
100
AcDbMText
 10
39.32904122513555
 20
474.8443637205553
 30
0.0
 40
5.0
 41
0.0
 71
     5
 72
     1
  1
\A1;24
  7
SUNPOU
 11
0.0000000000000001
 21
1.0
 31
0.0
1001
ACAD
1000
MTEXTBEGIN
1070
    73
1070
     1
1070
    44
1040
1.0
1070
    74
1070
     0
1000
MTEXTEND
1000
MTEXTBEGIN
1070
    73
1070
     1
1070
    44
1040
1.0
1070
    74
1070
     0
1000
MTEXTEND
  0
POINT
  5
E59
330
AC5
100
AcDbEntity
  8
DEFPOINTS
 62
     0
100
AcDbPoint
 10
54.6203029116858
 20
463.2532538050866
 30
0.0
  0
POINT
  5
E5A
330
AC5
100
AcDbEntity
  8
DEFPOINTS
 62
     0
100
AcDbPoint
 10
60.83195999414633
 20
486.4354736360243
 30
0.0
  0
POINT
  5
E5B
330
AC5
100
AcDbEntity
  8
DEFPOINTS
 62
     0
100
AcDbPoint
 10
43.8290412251356
 20
486.4354736360243
 30
0.0
  0
ENDBLK
  5
AD0
330
AC5
100
AcDbEntity
  8
0
100
AcDbBlockEnd
  0
BLOCK
  5
AE7
330
ADB
100
AcDbEntity
  8
0
100
AcDbBlockBegin
  2
*D21
 70
     1
 10
0.0
 20
0.0
 30
0.0
  3
*D21
  1

  0
LINE
  5
E48
330
ADB
100
AcDbEntity
  8
SUNPOU
100
AcDbLine
 10
58.36785837900859
 20
484.4354736360243
 30
0.0
 11
52.38844825288535
 21
484.4354736360243
 31
0.0
  0
LINE
  5
E49
330
ADB
100
AcDbEntity
  8
SUNPOU
100
AcDbLine
 10
57.83195999414633
 20
486.4354736360243
 30
0.0
 11
52.38844825288535
 21
486.4354736360243
 31
0.0
  0
LINE
  5
E4A
330
ADB
100
AcDbEntity
  8
SUNPOU
100
AcDbLine
 10
54.38844825288535
 20
479.4354736360244
 30
0.0
 11
54.38844825288535
 21
474.4354736360243
 31
0.0
  0
LINE
  5
E4B
330
ADB
100
AcDbEntity
  8
SUNPOU
100
AcDbLine
 10
54.38844825288535
 20
491.4354736360244
 30
0.0
 11
54.38844825288536
 21
496.4354736360244
 31
0.0
  0
MTEXT
  5
E4C
330
ADB
100
AcDbEntity
  8
SUNPOU
100
AcDbMText
 10
50.03957480610143
 20
494.3858715691826
 30
0.0
 40
5.0
 41
0.0
 71
     5
 72
     1
  1
\A1;2
  7
SUNPOU
 11
0.0000000000000001
 21
1.0
 31
0.0
1001
ACAD
1000
MTEXTBEGIN
1070
    73
1070
     1
1070
    44
1040
1.0
1070
    74
1070
     0
1000
MTEXTEND
1000
MTEXTBEGIN
1070
    73
1070
     1
1070
    44
1040
1.0
1070
    74
1070
     0
1000
MTEXTEND
  0
LINE
  5
E4D
330
ADB
100
AcDbEntity
  8
SUNPOU
100
AcDbLine
 10
54.38844825288535
 20
484.4354736360243
 30
0.0
 11
54.38844825288535
 21
486.4354736360243
 31
0.0
  0
INSERT
  5
E4E
330
ADB
100
AcDbEntity
  8
SUNPOU
100
AcDbBlockReference
  2
_OPEN30
 10
54.38844825288535
 20
484.4354736360243
 30
0.0
 41
5.0
 42
5.0
 43
5.0
 50
90.0
  0
INSERT
  5
E4F
330
ADB
100
AcDbEntity
  8
SUNPOU
100
AcDbBlockReference
  2
_OPEN30
 10
54.38844825288535
 20
486.4354736360243
 30
0.0
 41
5.0
 42
5.0
 43
5.0
 50
270.0
  0
POINT
  5
E50
330
ADB
100
AcDbEntity
  8
DEFPOINTS
 62
     0
100
AcDbPoint
 10
61.36785837900859
 20
484.4354736360243
 30
0.0
  0
POINT
  5
E51
330
ADB
100
AcDbEntity
  8
DEFPOINTS
 62
     0
100
AcDbPoint
 10
60.83195999414633
 20
486.4354736360243
 30
0.0
  0
POINT
  5
E52
330
ADB
100
AcDbEntity
  8
DEFPOINTS
 62
     0
100
AcDbPoint
 10
54.38844825288535
 20
486.4354736360243
 30
0.0
  0
ENDBLK
  5
AE8
330
ADB
100
AcDbEntity
  8
0
100
AcDbBlockEnd
  0
BLOCK
  5
17DE
330
17D0
100
AcDbEntity
  8
0
100
AcDbBlockBegin
  2
*X22
 70
     1
 10
0.0
 20
0.0
 30
0.0
  3
*X22
  1

  0
LINE
  5
17D1
330
17D0
100
AcDbEntity
  8
0
 62
     0
100
AcDbLine
 10
266.2369374353398
 20
497.4383862461315
 30
0.0
 11
263.2369374353398
 21
500.4383862461313
 31
0.0
  0
LINE
  5
17D2
330
17D0
100
AcDbEntity
  8
0
 62
     0
100
AcDbLine
 10
262.701403529407
 20
497.4383862461315
 30
0.0
 11
259.701403529407
 21
500.4383862461316
 31
0.0
  0
LINE
  5
17D3
330
17D0
100
AcDbEntity
  8
0
 62
     0
100
AcDbLine
 10
256.6935537354511
 20
499.9107021341544
 30
0.0
 11
256.1658696234743
 21
500.4383862461316
 31
0.0
  0
LINE
  5
17D4
330
17D0
100
AcDbEntity
  8
0
 62
     0
100
AcDbLine
 10
259.165869623474
 20
497.4383862461316
 30
0.0
 11
256.6935537354511
 21
499.9107021341544
 31
0.0
  0
LINE
  5
17D5
330
17D0
100
AcDbEntity
  8
0
 62
     0
100
AcDbLine
 10
255.6303357175417
 20
497.4383862461313
 30
0.0
 11
252.6303357175414
 21
500.4383862461315
 31
0.0
  0
LINE
  5
17D6
330
17D0
100
AcDbEntity
  8
0
 62
     0
100
AcDbLine
 10
252.0948018116088
 20
497.4383862461315
 30
0.0
 11
249.0948018116088
 21
500.4383862461315
 31
0.0
  0
LINE
  5
17D7
330
17D0
100
AcDbEntity
  8
0
 62
     0
100
AcDbLine
 10
248.5592679056761
 20
497.4383862461315
 30
0.0
 11
246.6935537354513
 21
499.3041004163562
 31
0.0
  0
LINE
  5
17D8
330
17D0
100
AcDbEntity
  8
0
 62
     0
100
AcDbLine
 10
264.0931484545709
 20
497.4383862461315
 30
0.0
 11
266.6935537354512
 21
500.0387915270119
 31
0.0
  0
LINE
  5
17D9
330
17D0
100
AcDbEntity
  8
0
 62
     0
100
AcDbLine
 10
260.557614548638
 20
497.4383862461315
 30
0.0
 11
263.557614548638
 21
500.4383862461315
 31
0.0
  0
LINE
  5
17DA
330
17D0
100
AcDbEntity
  8
0
 62
     0
100
AcDbLine
 10
257.0220806427054
 20
497.4383862461316
 30
0.0
 11
260.0220806427054
 21
500.4383862461316
 31
0.0
  0
LINE
  5
17DB
330
17D0
100
AcDbEntity
  8
0
 62
     0
100
AcDbLine
 10
253.4865467367725
 20
497.4383862461313
 30
0.0
 11
256.4865467367726
 21
500.4383862461315
 31
0.0
  0
LINE
  5
17DC
330
17D0
100
AcDbEntity
  8
0
 62
     0
100
AcDbLine
 10
249.9510128308399
 20
497.4383862461315
 30
0.0
 11
252.9510128308399
 21
500.4383862461313
 31
0.0
  0
LINE
  5
17DD
330
17D0
100
AcDbEntity
  8
0
 62
     0
100
AcDbLine
 10
246.6935537354511
 20
497.7164610566754
 30
0.0
 11
249.4154789249071
 21
500.4383862461315
 31
0.0
  0
ENDBLK
  5
17DF
330
17D0
100
AcDbEntity
  8
0
100
AcDbBlockEnd
  0
BLOCK
  5
17EA
330
17E0
100
AcDbEntity
  8
0
100
AcDbBlockBegin
  2
*X23
 70
     1
 10
0.0
 20
0.0
 30
0.0
  3
*X23
  1

  0
LINE
  5
17E1
330
17E0
100
AcDbEntity
  8
0
 62
     0
100
AcDbLine
 10
187.193553735451
 20
290.1035235654683
 30
0.0
 11
186.858691054788
 21
290.4383862461313
 31
0.0
  0
LINE
  5
17E2
330
17E0
100
AcDbEntity
  8
0
 62
     0
100
AcDbLine
 10
187.193553735451
 20
284.8002227065693
 30
0.0
 11
181.555390195889
 21
290.4383862461313
 31
0.0
  0
LINE
  5
17E3
330
17E0
100
AcDbEntity
  8
0
 62
     0
100
AcDbLine
 10
181.193553735451
 20
285.4969218476702
 30
0.0
 11
176.2520893369898
 21
290.4383862461315
 31
0.0
  0
LINE
  5
17E4
330
17E0
100
AcDbEntity
  8
0
 62
     0
100
AcDbLine
 10
187.193553735451
 20
279.4969218476702
 30
0.0
 11
181.193553735451
 21
285.4969218476702
 31
0.0
  0
LINE
  5
17E5
330
17E0
100
AcDbEntity
  8
0
 62
     0
100
AcDbLine
 10
181.193553735451
 20
280.193620988771
 30
0.0
 11
175.1935537354512
 21
286.193620988771
 31
0.0
  0
LINE
  5
17E6
330
17E0
100
AcDbEntity
  8
0
 62
     0
100
AcDbLine
 10
187.193553735451
 20
274.193620988771
 30
0.0
 11
181.193553735451
 21
280.193620988771
 31
0.0
  0
LINE
  5
17E7
330
17E0
100
AcDbEntity
  8
0
 62
     0
100
AcDbLine
 10
181.193553735451
 20
274.8903201298718
 30
0.0
 11
175.1935537354512
 21
280.8903201298718
 31
0.0
  0
LINE
  5
17E8
330
17E0
100
AcDbEntity
  8
0
 62
     0
100
AcDbLine
 10
185.6454876191915
 20
270.4383862461314
 30
0.0
 11
181.193553735451
 21
274.8903201298718
 31
0.0
  0
LINE
  5
17E9
330
17E0
100
AcDbEntity
  8
0
 62
     0
100
AcDbLine
 10
180.3421867602925
 20
270.4383862461314
 30
0.0
 11
175.193553735451
 21
275.5870192709727
 31
0.0
  0
ENDBLK
  5
17EB
330
17E0
100
AcDbEntity
  8
0
100
AcDbBlockEnd
  0
ENDSEC
  0
SECTION
  2
ENTITIES
  0
LINE
  5
276
330
A
100
AcDbEntity
  8
06
100
AcDbLine
 10
258.6935537354511
 20
312.4383862461313
 30
0.0
 11
258.6935537354511
 21
370.4383862461313
 31
0.0
  0
LINE
  5
277
330
A
100
AcDbEntity
  8
06
100
AcDbLine
 10
254.6935537354511
 20
312.4383862461313
 30
0.0
 11
254.6935537354511
 21
370.4383862461313
 31
0.0
  0
LINE
  5
278
330
A
100
AcDbEntity
  8
03
100
AcDbLine
 10
175.1935537354512
 20
290.4383862461315
 30
0.0
 11
175.1935537354512
 21
250.4383862461315
 31
0.0
  0
LINE
  5
279
330
A
100
AcDbEntity
  8
03
100
AcDbLine
 10
187.193553735451
 20
250.4383862461315
 30
0.0
 11
187.193553735451
 21
290.4383862461313
 31
0.0
  0
LINE
  5
27A
330
A
100
AcDbEntity
  8
06
100
AcDbLine
 10
258.6935537354512
 20
435.4383862461315
 30
0.0
 11
258.6935537354511
 21
394.0386087423621
 31
0.0
  0
LINE
  5
27B
330
A
100
AcDbEntity
  8
06
100
AcDbLine
 10
258.6935537354511
 20
384.4703552004297
 30
0.0
 11
258.6935537354511
 21
377.4383862461313
 31
0.0
  0
LINE
  5
27C
330
A
100
AcDbEntity
  8
06
100
AcDbLine
 10
254.6935537354513
 20
435.4383862461315
 30
0.0
 11
254.6935537354511
 21
394.0386087423621
 31
0.0
  0
LINE
  5
27D
330
A
100
AcDbEntity
  8
06
100
AcDbLine
 10
254.6935537354511
 20
384.4703552004297
 30
0.0
 11
254.6935537354511
 21
377.4383862461313
 31
0.0
  0
LINE
  5
27E
330
A
100
AcDbEntity
  8
06
100
AcDbLine
 10
183.193553735451
 20
102.4383862461315
 30
0.0
 11
183.193553735451
 21
177.4383862461315
 31
0.0
  0
LINE
  5
280
330
A
100
AcDbEntity
  8
06
100
AcDbLine
 10
183.1935537354511
 20
183.4383862461314
 30
0.0
 11
183.193553735451
 21
258.4383862461315
 31
0.0
  0
LINE
  5
281
330
A
100
AcDbEntity
  8
06
100
AcDbLine
 10
179.193553735451
 20
102.4383862461315
 30
0.0
 11
179.193553735451
 21
177.4383862461315
 31
0.0
  0
LINE
  5
283
330
A
100
AcDbEntity
  8
06
100
AcDbLine
 10
179.1935537354511
 20
183.4383862461314
 30
0.0
 11
179.193553735451
 21
258.4383862461315
 31
0.0
  0
LINE
  5
284
330
A
100
AcDbEntity
  8
06
100
AcDbLine
 10
236.6935537354511
 20
317.4383862461313
 30
0.0
 11
236.6935537354511
 21
370.4383862461315
 31
0.0
  0
LINE
  5
285
330
A
100
AcDbEntity
  8
06
100
AcDbLine
 10
236.6935537354511
 20
377.4383862461315
 30
0.0
 11
236.6935537354513
 21
430.4383862461315
 31
0.0
  0
LINE
  5
286
330
A
100
AcDbEntity
  8
06
100
AcDbLine
 10
246.6935537354511
 20
497.4383862461315
 30
0.0
 11
246.6935537354511
 21
500.4383862461313
 31
0.0
1001
ACAD
1000
ASC_BOUNDS
1002
{
1070
    19
1005
B4C
1002
}
  0
LINE
  5
287
330
A
100
AcDbEntity
  8
06
100
AcDbLine
 10
266.6935537354512
 20
497.4383862461315
 30
0.0
 11
266.6935537354512
 21
500.4383862461313
 31
0.0
1001
ACAD
1000
ASC_BOUNDS
1002
{
1070
    19
1005
B4C
1002
}
  0
LINE
  5
288
330
A
100
AcDbEntity
  8
03
100
AcDbLine
 10
131.6935537354511
 20
253.4383862461315
 30
0.0
 11
131.693553735451
 21
183.4383862461315
 31
0.0
  0
LINE
  5
289
330
A
100
AcDbEntity
  8
03
100
AcDbLine
 10
131.693553735451
 20
177.4383862461315
 30
0.0
 11
131.693553735451
 21
110.4383862461314
 31
0.0
  0
LINE
  5
28A
330
A
100
AcDbEntity
  8
03
100
AcDbLine
 10
231.693553735451
 20
110.4383862461314
 30
0.0
 11
231.693553735451
 21
177.4383862461315
 31
0.0
  0
LINE
  5
28B
330
A
100
AcDbEntity
  8
03
100
AcDbLine
 10
231.693553735451
 20
183.4383862461315
 30
0.0
 11
231.6935537354511
 21
253.4383862461315
 31
0.0
  0
LINE
  5
28C
330
A
100
AcDbEntity
  8
03
100
AcDbLine
 10
231.6935537354511
 20
317.4383862461313
 30
0.0
 11
231.6935537354511
 21
370.4383862461315
 31
0.0
  0
LINE
  5
28D
330
A
100
AcDbEntity
  8
03
100
AcDbLine
 10
231.6935537354511
 20
377.4383862461315
 30
0.0
 11
231.6935537354511
 21
500.4383862461313
 31
0.0
  0
LINE
  5
28E
330
A
100
AcDbEntity
  8
03
100
AcDbLine
 10
248.1935537354512
 20
110.4383862461314
 30
0.0
 11
248.1935537354512
 21
177.4383862461315
 31
0.0
  0
LINE
  5
28F
330
A
100
AcDbEntity
  8
03
100
AcDbLine
 10
248.1935537354512
 20
183.4383862461315
 30
0.0
 11
248.1935537354512
 21
250.4383862461315
 31
0.0
  0
LINE
  5
290
330
A
100
AcDbEntity
  8
03
100
AcDbLine
 10
265.193553735451
 20
110.4383862461314
 30
0.0
 11
265.193553735451
 21
177.4383862461315
 31
0.0
  0
LINE
  5
291
330
A
100
AcDbEntity
  8
03
100
AcDbLine
 10
265.193553735451
 20
183.4383862461315
 30
0.0
 11
265.1935537354511
 21
250.4383862461315
 31
0.0
  0
LINE
  5
292
330
A
100
AcDbEntity
  8
03
100
AcDbLine
 10
276.6935537354512
 20
110.4383862461314
 30
0.0
 11
276.6935537354512
 21
177.4383862461315
 31
0.0
  0
LINE
  5
293
330
A
100
AcDbEntity
  8
03
100
AcDbLine
 10
276.6935537354512
 20
183.4383862461315
 30
0.0
 11
276.6935537354512
 21
253.4383862461314
 31
0.0
  0
LINE
  5
294
330
A
100
AcDbEntity
  8
03
100
AcDbLine
 10
175.1935537354512
 20
250.4383862461315
 30
0.0
 11
178.193553735451
 21
249.4383862461315
 31
0.0
  0
LINE
  5
295
330
A
100
AcDbEntity
  8
03
100
AcDbLine
 10
187.193553735451
 20
250.4383862461315
 30
0.0
 11
184.193553735451
 21
249.4383862461315
 31
0.0
  0
LINE
  5
2A3
330
A
100
AcDbEntity
  8
06
100
AcDbLine
 10
276.6935537354512
 20
303.4383862461313
 30
0.0
 11
276.6935537354513
 21
370.4383862461316
 31
0.0
  0
LINE
  5
2B2
330
A
100
AcDbEntity
  8
CHUSIN
100
AcDbLine
 10
256.693553735451
 20
102.1008638133839
 30
0.0
 11
256.6935537354513
 21
528.6099143587896
 31
0.0
1001
ACAD
1000
ASC_BOUNDS
1002
{
1070
    19
1005
B4C
1005
B4C
1002
}
  0
LINE
  5
2B3
330
A
100
AcDbEntity
  8
CHUSIN
100
AcDbLine
 10
181.193553735451
 20
84.01918228820131
 30
0.0
 11
181.1935537354511
 21
524.3763055248653
 31
0.0
  0
LINE
  5
2B4
330
A
100
AcDbEntity
  8
CHUSIN
100
AcDbLine
 10
63.26202983777832
 20
458.4669250271183
 30
0.0
 11
63.26202983777836
 21
522.8443637205555
 31
0.0
  0
LINE
  5
2B5
330
A
100
AcDbEntity
  8
CHUSIN
100
AcDbLine
 10
103.2620298377783
 20
458.4669250271183
 30
0.0
 11
103.2620298377783
 21
522.8443637205555
 31
0.0
  0
LINE
  5
2B6
330
A
100
AcDbEntity
  8
CHUSIN
100
AcDbLine
 10
83.26202983777836
 20
472.8443637205555
 30
0.0
 11
83.26202983777836
 21
497.8443637205555
 31
0.0
  0
LINE
  5
2B7
330
A
100
AcDbEntity
  8
CHUSIN
 48
0.5
100
AcDbLine
 10
83.26202983777836
 20
518.4866820123503
 30
0.0
 11
83.26202983777836
 21
522.8443637205555
 31
0.0
  0
LINE
  5
2BB
330
A
100
AcDbEntity
  8
CHUSIN
 48
0.6
100
AcDbLine
 10
103.2620298377783
 20
444.1668274076315
 30
0.0
 11
103.2620298377783
 21
438.2569378492172
 31
0.0
  0
LINE
  5
2BC
330
A
100
AcDbEntity
  8
KAKURE
100
AcDbLine
 10
175.1935537354512
 20
290.4383862461315
 30
0.0
 11
175.1935537354512
 21
320.4383862461315
 31
0.0
  0
LINE
  5
2BD
330
A
100
AcDbEntity
  8
KAKURE
100
AcDbLine
 10
187.193553735451
 20
290.4383862461313
 30
0.0
 11
187.1935537354511
 21
320.4383862461315
 31
0.0
  0
LINE
  5
2BE
330
A
100
AcDbEntity
  8
SOUZOU
100
AcDbLine
 10
326.6935537354511
 20
107.4383862461314
 30
0.0
 11
326.6935537354512
 21
177.4383862461315
 31
0.0
  0
LINE
  5
2C0
330
A
100
AcDbEntity
  8
SOUZOU
100
AcDbLine
 10
326.6935537354513
 20
183.4383862461315
 30
0.0
 11
326.6935537354512
 21
503.4383862461313
 31
0.0
  0
LINE
  5
2C1
330
A
100
AcDbEntity
  8
SOUZOU
100
AcDbLine
 10
131.693553735451
 20
317.4383862461315
 30
0.0
 11
131.6935537354511
 21
370.4383862461315
 31
0.0
  0
LINE
  5
2C2
330
A
100
AcDbEntity
  8
SOUZOU
100
AcDbLine
 10
131.6935537354511
 20
377.4383862461315
 30
0.0
 11
131.6935537354511
 21
500.4383862461315
 31
0.0
  0
TEXT
  5
316
330
A
100
AcDbEntity
  8
MOJI
100
AcDbText
 10
31.29729623304706
 20
451.4078116191929
 30
0.0
 40
6.0
  1
補助光電スイッチプレート取付詳細
 50
90.0
 41
0.8
  7
0_8
 11
25.29729623304706
 21
451.4078116191929
 31
0.0
100
AcDbText
 73
     3
  0
LINE
  5
31A
330
A
100
AcDbEntity
  8
03
100
AcDbLine
 10
131.6935537354511
 20
253.4383862461315
 30
0.0
 11
131.693553735451
 21
317.4383862461315
 31
0.0
  0
LINE
  5
31B
330
A
100
AcDbEntity
  8
03
100
AcDbLine
 10
134.693553735451
 20
320.4383862461315
 30
0.0
 11
176.1935537354512
 21
320.4383862461315
 31
0.0
  0
LINE
  5
31C
330
A
100
AcDbEntity
  8
03
100
AcDbLine
 10
186.193553735451
 20
320.4383862461313
 30
0.0
 11
228.6935537354512
 21
320.4383862461313
 31
0.0
  0
ARC
  5
31D
330
A
100
AcDbEntity
  8
03
100
AcDbCircle
 10
134.693553735451
 20
317.4383862461315
 30
0.0
 40
3.0
100
AcDbArc
 50
89.99999999999998
 51
179.9999999999999
  0
LINE
  5
31E
330
A
100
AcDbEntity
  8
03
100
AcDbLine
 10
231.6935537354511
 20
317.4383862461313
 30
0.0
 11
231.6935537354511
 21
253.4383862461315
 31
0.0
  0
ARC
  5
31F
330
A
100
AcDbEntity
  8
03
100
AcDbCircle
 10
228.6935537354512
 20
317.4383862461313
 30
0.0
 40
3.0
100
AcDbArc
 50
359.9999999999998
 51
90.0
  0
LINE
  5
320
330
A
100
AcDbEntity
  8
03
100
AcDbLine
 10
228.6935537354512
 20
250.4383862461315
 30
0.0
 11
187.193553735451
 21
250.4383862461315
 31
0.0
  0
LINE
  5
321
330
A
100
AcDbEntity
  8
03
100
AcDbLine
 10
175.1935537354512
 20
250.4383862461315
 30
0.0
 11
134.6935537354511
 21
250.4383862461315
 31
0.0
  0
ARC
  5
322
330
A
100
AcDbEntity
  8
03
100
AcDbCircle
 10
228.6935537354512
 20
253.4383862461315
 30
0.0
 40
3.0
100
AcDbArc
 50
269.9999999999999
 51
359.9999999999998
  0
ARC
  5
323
330
A
100
AcDbEntity
  8
03
100
AcDbCircle
 10
134.6935537354511
 20
253.4383862461315
 30
0.0
 40
3.0
100
AcDbArc
 50
179.9999999999999
 51
269.9999999999999
  0
LINE
  5
324
330
A
100
AcDbEntity
  8
06
100
AcDbLine
 10
236.6935537354511
 20
317.4383862461313
 30
0.0
 11
236.6935537354511
 21
253.4383862461314
 31
0.0
  0
LINE
  5
325
330
A
100
AcDbEntity
  8
06
100
AcDbLine
 10
276.6935537354512
 20
303.4383862461313
 30
0.0
 11
276.6935537354512
 21
253.4383862461314
 31
0.0
  0
LINE
  5
326
330
A
100
AcDbEntity
  8
06
100
AcDbLine
 10
239.6935537354512
 20
250.4383862461315
 30
0.0
 11
273.6935537354511
 21
250.4383862461314
 31
0.0
  0
ARC
  5
327
330
A
100
AcDbEntity
  8
06
100
AcDbCircle
 10
273.6935537354511
 20
253.4383862461314
 30
0.0
 40
3.0
100
AcDbArc
 50
269.9999999999999
 51
359.9999999999998
  0
ARC
  5
328
330
A
100
AcDbEntity
  8
06
100
AcDbCircle
 10
239.6935537354512
 20
253.4383862461314
 30
0.0
 40
3.0
100
AcDbArc
 50
179.9999999999999
 51
269.9999999999999
  0
LINE
  5
329
330
A
100
AcDbEntity
  8
06
100
AcDbLine
 10
239.6935537354512
 20
320.4383862461313
 30
0.0
 11
253.6935537354512
 21
320.4383862461313
 31
0.0
  0
ARC
  5
32A
330
A
100
AcDbEntity
  8
06
100
AcDbCircle
 10
239.6935537354512
 20
317.4383862461313
 30
0.0
 40
3.0
100
AcDbArc
 50
89.99999999999998
 51
179.9999999999999
  0
LINE
  5
32B
330
A
100
AcDbEntity
  8
06
100
AcDbLine
 10
253.6935537354512
 20
306.4383862461313
 30
0.0
 11
253.6935537354512
 21
370.4383862461313
 31
0.0
  0
LINE
  5
32C
330
A
100
AcDbEntity
  8
06
100
AcDbLine
 10
259.6935537354511
 20
306.4383862461313
 30
0.0
 11
259.6935537354511
 21
370.4383862461313
 31
0.0
  0
LINE
  5
32D
330
A
100
AcDbEntity
  8
06
100
AcDbLine
 10
253.6935537354512
 20
312.4383862461313
 30
0.0
 11
259.6935537354511
 21
312.4383862461313
 31
0.0
  0
LINE
  5
32E
330
A
100
AcDbEntity
  8
06
100
AcDbLine
 10
253.6935537354512
 20
306.4383862461313
 30
0.0
 11
273.6935537354511
 21
306.4383862461313
 31
0.0
  0
ARC
  5
32F
330
A
100
AcDbEntity
  8
06
100
AcDbCircle
 10
273.6935537354511
 20
303.4383862461313
 30
0.0
 40
3.0
100
AcDbArc
 50
359.9999999999998
 51
90.0
  0
LINE
  5
330
330
A
100
AcDbEntity
  8
06
100
AcDbLine
 10
273.6935537354511
 20
306.4383862461313
 30
0.0
 11
273.6935537354511
 21
317.4383862461313
 31
0.0
  0
LINE
  5
331
330
A
100
AcDbEntity
  8
06
100
AcDbLine
 10
270.6935537354512
 20
320.4383862461313
 30
0.0
 11
259.6935537354511
 21
320.4383862461313
 31
0.0
  0
ARC
  5
332
330
A
100
AcDbEntity
  8
06
100
AcDbCircle
 10
270.6935537354512
 20
317.4383862461313
 30
0.0
 40
3.0
100
AcDbArc
 50
359.9999999999998
 51
90.0
  0
LINE
  5
333
330
A
100
AcDbEntity
  8
03
100
AcDbLine
 10
175.1935537354512
 20
290.4383862461315
 30
0.0
 11
187.193553735451
 21
290.4383862461313
 31
0.0
  0
LINE
  5
334
330
A
100
AcDbEntity
  8
03
100
AcDbLine
 10
175.1935537354512
 20
270.4383862461315
 30
0.0
 11
187.193553735451
 21
270.4383862461315
 31
0.0
  0
LINE
  5
335
330
A
100
AcDbEntity
  8
03
100
AcDbLine
 10
126.6935537354511
 20
80.43838624613153
 30
0.0
 11
126.6935537354511
 21
107.4383862461315
 31
0.0
  0
LINE
  5
336
330
A
100
AcDbEntity
  8
03
100
AcDbLine
 10
326.6935537354511
 20
80.43838624613147
 30
0.0
 11
326.6935537354511
 21
107.4383862461314
 31
0.0
  0
LINE
  5
337
330
A
100
AcDbEntity
  8
03
100
AcDbLine
 10
126.6935537354511
 20
80.43838624613153
 30
0.0
 11
326.6935537354511
 21
80.43838624613147
 31
0.0
  0
LINE
  5
338
330
A
100
AcDbEntity
  8
03
100
AcDbLine
 10
129.693553735451
 20
110.4383862461314
 30
0.0
 11
175.193553735451
 21
110.4383862461314
 31
0.0
  0
ARC
  5
339
330
A
100
AcDbEntity
  8
03
100
AcDbCircle
 10
129.693553735451
 20
107.4383862461315
 30
0.0
 40
3.0
100
AcDbArc
 50
89.99999999999998
 51
179.9999999999999
  0
LINE
  5
33A
330
A
100
AcDbEntity
  8
03
100
AcDbLine
 10
187.193553735451
 20
110.4383862461314
 30
0.0
 11
323.6935537354511
 21
110.4383862461314
 31
0.0
  0
ARC
  5
33B
330
A
100
AcDbEntity
  8
03
100
AcDbCircle
 10
323.6935537354511
 20
107.4383862461314
 30
0.0
 40
3.0
100
AcDbArc
 50
0.0
 51
90.0
  0
LINE
  5
33C
330
A
100
AcDbEntity
  8
03
100
AcDbLine
 10
126.6935537354511
 20
503.4383862461315
 30
0.0
 11
126.6935537354512
 21
530.4383862461313
 31
0.0
  0
LINE
  5
33D
330
A
100
AcDbEntity
  8
03
100
AcDbLine
 10
326.6935537354512
 20
503.4383862461313
 30
0.0
 11
326.6935537354512
 21
530.4383862461313
 31
0.0
  0
LINE
  5
33E
330
A
100
AcDbEntity
  8
03
100
AcDbLine
 10
126.6935537354512
 20
530.4383862461313
 30
0.0
 11
175.1935537354513
 21
530.4383862461313
 31
0.0
  0
LINE
  5
33F
330
A
100
AcDbEntity
  8
03
100
AcDbLine
 10
187.1935537354511
 20
530.4383862461313
 30
0.0
 11
326.6935537354512
 21
530.4383862461313
 31
0.0
  0
LINE
  5
340
330
A
100
AcDbEntity
  8
03
100
AcDbLine
 10
129.693553735451
 20
500.4383862461315
 30
0.0
 11
175.1935537354512
 21
500.4383862461313
 31
0.0
  0
ARC
  5
341
330
A
100
AcDbEntity
  8
03
100
AcDbCircle
 10
129.693553735451
 20
503.4383862461315
 30
0.0
 40
3.0
100
AcDbArc
 50
179.9999999999998
 51
269.9999999999999
  0
LINE
  5
342
330
A
100
AcDbEntity
  8
03
100
AcDbLine
 10
187.1935537354511
 20
500.4383862461313
 30
0.0
 11
323.6935537354511
 21
500.4383862461313
 31
0.0
1001
ACAD
1000
ASC_BOUNDS
1002
{
1070
    19
1005
B4C
1005
B4C
1002
}
  0
ARC
  5
343
330
A
100
AcDbEntity
  8
03
100
AcDbCircle
 10
323.6935537354511
 20
503.4383862461313
 30
0.0
 40
3.0
100
AcDbArc
 50
269.9999999999999
 51
359.9999999999998
  0
LINE
  5
344
330
A
100
AcDbEntity
  8
06
100
AcDbLine
 10
236.6935537354513
 20
430.4383862461315
 30
0.0
 11
236.6935537354514
 21
494.4383862461315
 31
0.0
  0
LINE
  5
345
330
A
100
AcDbEntity
  8
06
100
AcDbLine
 10
276.6935537354513
 20
444.4383862461315
 30
0.0
 11
276.6935537354514
 21
494.4383862461315
 31
0.0
  0
LINE
  5
346
330
A
100
AcDbEntity
  8
06
100
AcDbLine
 10
239.6935537354513
 20
497.4383862461315
 30
0.0
 11
273.6935537354514
 21
497.4383862461315
 31
0.0
1001
ACAD
1000
ASC_BOUNDS
1002
{
1070
    19
1005
B4C
1005
B4C
1002
}
  0
ARC
  5
347
330
A
100
AcDbEntity
  8
06
100
AcDbCircle
 10
273.6935537354514
 20
494.4383862461315
 30
0.0
 40
3.0
100
AcDbArc
 50
0.0000000000000241
 51
89.99999999999998
  0
ARC
  5
348
330
A
100
AcDbEntity
  8
06
100
AcDbCircle
 10
239.6935537354513
 20
494.4383862461315
 30
0.0
 40
3.0
100
AcDbArc
 50
89.99999999999998
 51
179.9999999999999
  0
LINE
  5
349
330
A
100
AcDbEntity
  8
06
100
AcDbLine
 10
239.6935537354512
 20
427.4383862461315
 30
0.0
 11
253.6935537354513
 21
427.4383862461315
 31
0.0
  0
ARC
  5
34A
330
A
100
AcDbEntity
  8
06
100
AcDbCircle
 10
239.6935537354512
 20
430.4383862461315
 30
0.0
 40
3.0
100
AcDbArc
 50
179.9999999999999
 51
269.9999999999999
  0
LINE
  5
34B
330
A
100
AcDbEntity
  8
06
100
AcDbLine
 10
253.6935537354513
 20
441.4383862461313
 30
0.0
 11
253.6935537354512
 21
394.0386087423621
 31
0.0
  0
LINE
  5
34C
330
A
100
AcDbEntity
  8
06
100
AcDbLine
 10
253.6935537354512
 20
384.4703552004297
 30
0.0
 11
253.6935537354512
 21
377.4383862461313
 31
0.0
  0
LINE
  5
34D
330
A
100
AcDbEntity
  8
06
100
AcDbLine
 10
259.6935537354513
 20
441.4383862461315
 30
0.0
 11
259.6935537354511
 21
394.0386087423621
 31
0.0
  0
LINE
  5
34E
330
A
100
AcDbEntity
  8
06
100
AcDbLine
 10
259.6935537354511
 20
384.4703552004297
 30
0.0
 11
259.6935537354511
 21
377.4383862461313
 31
0.0
  0
LINE
  5
34F
330
A
100
AcDbEntity
  8
06
100
AcDbLine
 10
253.6935537354513
 20
435.4383862461315
 30
0.0
 11
259.6935537354513
 21
435.4383862461315
 31
0.0
  0
LINE
  5
350
330
A
100
AcDbEntity
  8
06
100
AcDbLine
 10
253.6935537354513
 20
441.4383862461313
 30
0.0
 11
273.6935537354513
 21
441.4383862461313
 31
0.0
  0
ARC
  5
351
330
A
100
AcDbEntity
  8
06
100
AcDbCircle
 10
273.6935537354513
 20
444.4383862461315
 30
0.0
 40
3.0
100
AcDbArc
 50
269.9999999999999
 51
0.0
  0
LINE
  5
352
330
A
100
AcDbEntity
  8
06
100
AcDbLine
 10
273.6935537354513
 20
441.4383862461313
 30
0.0
 11
273.6935537354513
 21
430.4383862461313
 31
0.0
  0
LINE
  5
353
330
A
100
AcDbEntity
  8
06
100
AcDbLine
 10
270.6935537354512
 20
427.4383862461315
 30
0.0
 11
259.6935537354513
 21
427.4383862461315
 31
0.0
  0
ARC
  5
354
330
A
100
AcDbEntity
  8
06
100
AcDbCircle
 10
270.6935537354512
 20
430.4383862461313
 30
0.0
 40
3.0
100
AcDbArc
 50
269.9999999999999
 51
0.0
  0
LINE
  5
355
330
A
100
AcDbEntity
  8
03
100
AcDbLine
 10
175.193553735451
 20
95.43838624613156
 30
0.0
 11
175.193553735451
 21
110.4383862461314
 31
0.0
  0
LINE
  5
356
330
A
100
AcDbEntity
  8
03
100
AcDbLine
 10
187.193553735451
 20
95.43838624613156
 30
0.0
 11
187.193553735451
 21
110.4383862461314
 31
0.0
  0
LINE
  5
357
330
A
100
AcDbEntity
  8
03
100
AcDbLine
 10
175.193553735451
 20
95.43838624613151
 30
0.0
 11
187.193553735451
 21
95.43838624613151
 31
0.0
  0
LINE
  5
358
330
A
100
AcDbEntity
  8
03
100
AcDbLine
 10
178.193553735451
 20
102.4383862461315
 30
0.0
 11
178.193553735451
 21
177.4383862461315
 31
0.0
  0
LINE
  5
35A
330
A
100
AcDbEntity
  8
03
100
AcDbLine
 10
178.1935537354511
 20
183.4383862461314
 30
0.0
 11
178.193553735451
 21
258.4383862461315
 31
0.0
  0
LINE
  5
35B
330
A
100
AcDbEntity
  8
03
100
AcDbLine
 10
184.193553735451
 20
102.4383862461315
 30
0.0
 11
184.193553735451
 21
177.4383862461315
 31
0.0
  0
LINE
  5
35D
330
A
100
AcDbEntity
  8
03
100
AcDbLine
 10
184.193553735451
 20
183.4383862461314
 30
0.0
 11
184.193553735451
 21
258.4383862461315
 31
0.0
  0
LINE
  5
35E
330
A
100
AcDbEntity
  8
03
100
AcDbLine
 10
178.193553735451
 20
102.4383862461315
 30
0.0
 11
184.193553735451
 21
102.4383862461315
 31
0.0
  0
LINE
  5
35F
330
A
100
AcDbEntity
  8
03
100
AcDbLine
 10
178.193553735451
 20
258.4383862461315
 30
0.0
 11
184.193553735451
 21
258.4383862461315
 31
0.0
  0
LINE
  5
360
330
A
100
AcDbEntity
  8
03
100
AcDbLine
 10
175.193553735451
 20
110.4383862461314
 30
0.0
 11
178.193553735451
 21
111.4383862461314
 31
0.0
  0
LINE
  5
361
330
A
100
AcDbEntity
  8
03
100
AcDbLine
 10
187.193553735451
 20
110.4383862461314
 30
0.0
 11
184.193553735451
 21
111.4383862461314
 31
0.0
  0
LINE
  5
362
330
A
100
AcDbEntity
  8
03
100
AcDbLine
 10
175.1935537354512
 20
500.4383862461313
 30
0.0
 11
175.1935537354513
 21
530.4383862461313
 31
0.0
  0
LINE
  5
363
330
A
100
AcDbEntity
  8
03
100
AcDbLine
 10
187.1935537354511
 20
500.4383862461313
 30
0.0
 11
187.1935537354511
 21
530.4383862461313
 31
0.0
  0
LINE
  5
38F
330
A
100
AcDbEntity
  8
03
100
AcDbLine
 10
101.8971696464614
 20
457.7668274076313
 30
0.0
 11
101.8971696464614
 21
446.9148163796573
 31
0.0
  0
LINE
  5
390
330
A
100
AcDbEntity
  8
03
100
AcDbLine
 10
104.6268900290951
 20
446.9148163796573
 30
0.0
 11
104.626890029095
 21
458.5763972072377
 31
0.0
  0
ELLIPSE
  5
391
330
A
100
AcDbEntity
  8
03
100
AcDbEllipse
 10
103.2620298377783
 20
444.5918274076315
 30
0.0
 11
-2.549999999999954
 21
0.0
 31
0.0
210
0.0
220
0.0
230
1.0
 40
0.8
 41
0.0
 42
6.283185307179585
  0
ELLIPSE
  5
392
330
A
100
AcDbEntity
  8
03
100
AcDbEllipse
 10
103.2620298377783
 20
444.1668274076315
 30
0.0
 11
-2.54999999999999
 21
0.0
 31
0.0
210
0.0
220
0.0
230
1.0
 40
0.8
 41
3.245948626178247
 42
6.178829334591132
  0
ELLIPSE
  5
393
330
A
100
AcDbEntity
  8
03
100
AcDbEllipse
 10
103.2620298377783
 20
445.6118274076315
 30
0.0
 11
2.124999999999868
 21
0.0000000000000407
 31
0.0
210
0.0
220
0.0
230
1.0
 40
0.8000000000000547
 41
0.8733177522920108
 42
2.268274901297733
  0
LINE
  5
394
330
A
100
AcDbEntity
  8
03
100
AcDbLine
 10
100.9808786106252
 20
445.5035638884575
 30
0.0
 11
101.8971696464614
 21
446.9148163796573
 31
0.0
  0
LINE
  5
395
330
A
100
AcDbEntity
  8
03
100
AcDbLine
 10
105.5623032363345
 20
445.4296209234521
 30
0.0
 11
104.6268900290951
 21
446.9148163796573
 31
0.0
  0
ELLIPSE
  5
396
330
A
100
AcDbEntity
  8
03
100
AcDbEllipse
 10
103.2620298377783
 20
449.6918274076313
 30
0.0
 11
-1.436819322016081
 21
0.0000000000000001
 31
0.0
210
0.0
220
0.0
230
1.0
 40
0.9465351552286087
 41
3.459416357517691
 42
5.965361603251686
  0
LINE
  5
397
330
A
100
AcDbEntity
  8
03
100
AcDbLine
 10
102.0845869104942
 20
444.1892466714178
 30
0.0
 11
102.441902192155
 21
444.2849890125821
 31
0.0
  0
ARC
  5
398
330
A
100
AcDbEntity
  8
03
100
AcDbCircle
 10
102.3292641437265
 20
444.7053599321831
 30
0.0
 40
0.4352000000000002
100
AcDbArc
 50
285.0000000000004
 51
15.00000000000058
  0
LINE
  5
399
330
A
100
AcDbEntity
  8
03
100
AcDbLine
 10
102.7496350633275
 20
444.8179979806117
 30
0.0
 11
102.6538927221632
 21
445.1753132622726
 31
0.0
  0
ARC
  5
39A
330
A
100
AcDbEntity
  8
03
100
AcDbCircle
 10
102.8640781819637
 20
445.2316322864869
 30
0.0
 40
0.2176000000000001
100
AcDbArc
 50
104.9999999999998
 51
195.0
  0
LINE
  5
39B
330
A
100
AcDbEntity
  8
03
100
AcDbLine
 10
102.8077591577494
 20
445.4418177462875
 30
0.0
 11
103.0179446175499
 21
445.4981367705017
 31
0.0
  0
ARC
  5
39C
330
A
100
AcDbEntity
  8
03
100
AcDbCircle
 10
103.0742636417641
 20
445.2879513107013
 30
0.0
 40
0.2176000000000001
100
AcDbArc
 50
14.99999999999976
 51
104.9999999999998
  0
LINE
  5
39D
330
A
100
AcDbEntity
  8
03
100
AcDbLine
 10
103.2844491015646
 20
445.3442703349156
 30
0.0
 11
103.380191442729
 21
444.9869550532547
 31
0.0
  0
ARC
  5
39E
330
A
100
AcDbEntity
  8
03
100
AcDbCircle
 10
103.8005623623299
 20
445.0995931016833
 30
0.0
 40
0.4352000000000002
100
AcDbArc
 50
195.0
 51
285.0000000000004
  0
LINE
  5
39F
330
A
100
AcDbEntity
  8
03
100
AcDbLine
 10
103.9132004107585
 20
444.6792221820823
 30
0.0
 11
104.2705156924194
 21
444.7749645232467
 31
0.0
  0
ARC
  5
3A0
330
A
100
AcDbEntity
  8
03
100
AcDbCircle
 10
104.3268347166337
 20
444.5647790634462
 30
0.0
 40
0.2176000000000001
100
AcDbArc
 50
14.99999999999976
 51
104.9999999999998
  0
LINE
  5
3A1
330
A
100
AcDbEntity
  8
03
100
AcDbLine
 10
104.5370201764342
 20
444.6210980876605
 30
0.0
 11
104.5933392006485
 21
444.4109126278599
 31
0.0
  0
ARC
  5
3A2
330
A
100
AcDbEntity
  8
03
100
AcDbCircle
 10
104.3831537408481
 20
444.3545936036456
 30
0.0
 40
0.2176000000000001
100
AcDbArc
 50
285.0000000000004
 51
15.00000000000058
  0
LINE
  5
3A3
330
A
100
AcDbEntity
  8
03
100
AcDbLine
 10
104.4394727650624
 20
444.1444081438452
 30
0.0
 11
104.0821574834015
 21
444.0486658026808
 31
0.0
  0
ARC
  5
3A4
330
A
100
AcDbEntity
  8
03
100
AcDbCircle
 10
104.1947955318301
 20
443.6282948830799
 30
0.0
 40
0.4352000000000002
100
AcDbArc
 50
104.9999999999998
 51
195.0
  0
LINE
  5
3A5
330
A
100
AcDbEntity
  8
03
100
AcDbLine
 10
103.774424612229
 20
443.5156568346512
 30
0.0
 11
103.8701669533935
 21
443.1583415529903
 31
0.0
  0
ARC
  5
3A6
330
A
100
AcDbEntity
  8
03
100
AcDbCircle
 10
103.659981493593
 20
443.102022528776
 30
0.0
 40
0.2176000000000001
100
AcDbArc
 50
285.0000000000004
 51
15.00000000000058
  0
LINE
  5
3A7
330
A
100
AcDbEntity
  8
03
100
AcDbLine
 10
103.7163005178072
 20
442.8918370689755
 30
0.0
 11
103.5061150580067
 21
442.8355180447613
 31
0.0
  0
ARC
  5
3A8
330
A
100
AcDbEntity
  8
03
100
AcDbCircle
 10
103.4497960337924
 20
443.0457035045616
 30
0.0
 40
0.2176000000000001
100
AcDbArc
 50
195.0
 51
285.0000000000004
  0
LINE
  5
3A9
330
A
100
AcDbEntity
  8
03
100
AcDbLine
 10
103.239610573992
 20
442.9893844803474
 30
0.0
 11
103.1438682328275
 21
443.3466997620083
 31
0.0
  0
ARC
  5
3AA
330
A
100
AcDbEntity
  8
03
100
AcDbCircle
 10
102.7234973132265
 20
443.2340617135797
 30
0.0
 40
0.4352000000000002
100
AcDbArc
 50
14.99999999999976
 51
104.9999999999998
  0
LINE
  5
3AB
330
A
100
AcDbEntity
  8
03
100
AcDbLine
 10
102.610859264798
 20
443.6544326331807
 30
0.0
 11
102.253543983137
 21
443.5586902920163
 31
0.0
  0
ARC
  5
3AC
330
A
100
AcDbEntity
  8
03
100
AcDbCircle
 10
102.1972249589228
 20
443.7688757518167
 30
0.0
 40
0.2176000000000001
100
AcDbArc
 50
195.0
 51
285.0000000000004
  0
LINE
  5
3AD
330
A
100
AcDbEntity
  8
03
100
AcDbLine
 10
101.9870394991222
 20
443.7125567276025
 30
0.0
 11
101.930720474908
 21
443.9227421874029
 31
0.0
  0
ARC
  5
3AE
330
A
100
AcDbEntity
  8
03
100
AcDbCircle
 10
102.1409059347085
 20
443.9790612116174
 30
0.0
 40
0.2176000000000001
100
AcDbArc
 50
104.9999999999998
 51
195.0
  0
ELLIPSE
  5
3AF
330
A
100
AcDbEntity
  8
03
100
AcDbEllipse
 10
103.3227516198875
 20
457.9226562654727
 30
0.0
 11
1.198334562066612
 21
0.83637616784059
 31
0.0
210
0.0
220
0.0
230
1.0
 40
0.9257823955967291
 41
-0.1560929817159899
 42
2.6079954443948
  0
ELLIPSE
  5
3B0
330
A
100
AcDbEntity
  8
03
100
AcDbEllipse
 10
103.3227516198875
 20
457.0726562654725
 30
0.0
 11
1.198334562066612
 21
0.83637616784059
 31
0.0
210
0.0
220
0.0
230
1.0
 40
0.9257823955967291
 41
-0.1560929817159899
 42
2.6079954443948
  0
ELLIPSE
  5
3B1
330
A
100
AcDbEntity
  8
03
100
AcDbEllipse
 10
103.3227516198875
 20
456.2226562654727
 30
0.0
 11
1.198334562066768
 21
0.8363761678404245
 31
0.0
210
0.0
220
0.0
230
0.9999999999999998
 40
0.9257823955967163
 41
-0.1560929817158403
 42
2.607995444394951
  0
ELLIPSE
  5
3B2
330
A
100
AcDbEntity
  8
03
100
AcDbEllipse
 10
103.3227516198875
 20
455.3726562654726
 30
0.0
 11
1.198334562066819
 21
0.8363761678403232
 31
0.0
210
0.0
220
0.0
230
1.0
 40
0.9257823955967376
 41
-0.1560929817157497
 42
2.607995444395041
  0
ELLIPSE
  5
3B3
330
A
100
AcDbEntity
  8
03
100
AcDbEllipse
 10
103.3227516198875
 20
454.5226562654725
 30
0.0
 11
1.198334562066612
 21
0.83637616784059
 31
0.0
210
0.0
220
0.0
230
1.0
 40
0.9257823955967291
 41
-0.1560929817159899
 42
2.6079954443948
  0
ELLIPSE
  5
3B4
330
A
100
AcDbEntity
  8
03
100
AcDbEllipse
 10
103.3227516198875
 20
453.6726562654727
 30
0.0
 11
1.198334562066792
 21
0.836376167840293
 31
0.0
210
0.0
220
0.0
230
1.0
 40
0.9257823955967239
 41
-0.1560929817157302
 42
2.607995444395045
  0
ELLIPSE
  5
3B5
330
A
100
AcDbEntity
  8
03
100
AcDbEllipse
 10
103.3227516198875
 20
452.8226562654727
 30
0.0
 11
1.198334562066612
 21
0.83637616784059
 31
0.0
210
0.0
220
0.0
230
1.0
 40
0.9257823955967291
 41
-0.1560929817159899
 42
2.6079954443948
  0
ELLIPSE
  5
3B6
330
A
100
AcDbEntity
  8
03
100
AcDbEllipse
 10
103.3227516198875
 20
451.9726562654726
 30
0.0
 11
1.198334562066778
 21
0.8363761678404081
 31
0.0
210
0.0
220
0.0
230
1.0
 40
0.925782395596714
 41
-0.1560929817158263
 42
2.607995444394965
  0
ELLIPSE
  5
3B7
330
A
100
AcDbEntity
  8
03
100
AcDbEllipse
 10
103.3227516198875
 20
451.1226562654726
 30
0.0
 11
1.198334562066819
 21
0.8363761678403232
 31
0.0
210
0.0
220
0.0
230
1.0
 40
0.9257823955967376
 41
-0.1560929817157497
 42
2.607995444395041
  0
ELLIPSE
  5
3B8
330
A
100
AcDbEntity
  8
03
100
AcDbEllipse
 10
103.3227516198875
 20
450.2726562654727
 30
0.0
 11
1.198334562066612
 21
0.83637616784059
 31
0.0
210
0.0
220
0.0
230
1.0
 40
0.9257823955967291
 41
-0.1560929817159899
 42
2.6079954443948
  0
LINE
  5
3BA
330
A
100
AcDbEntity
  8
KAKURE
100
AcDbLine
 10
243.6935537354512
 20
275.4383862461314
 30
0.0
 11
269.6935537354511
 21
275.4383862461314
 31
0.0
  0
LINE
  5
3BB
330
A
100
AcDbEntity
  8
KAKURE
100
AcDbLine
 10
243.6935537354512
 20
472.4383862461315
 30
0.0
 11
269.6935537354511
 21
472.4383862461315
 31
0.0
  0
LINE
  5
3BC
330
A
100
AcDbEntity
  8
KAKURE
100
AcDbLine
 10
243.6935537354512
 20
275.4383862461314
 30
0.0
 11
243.6935537354512
 21
370.4383862461313
 31
0.0
  0
LINE
  5
3BD
330
A
100
AcDbEntity
  8
KAKURE
100
AcDbLine
 10
243.6935537354512
 20
377.4383862461313
 30
0.0
 11
243.6935537354512
 21
472.4383862461315
 31
0.0
  0
LINE
  5
3BE
330
A
100
AcDbEntity
  8
KAKURE
100
AcDbLine
 10
269.6935537354511
 20
275.4383862461314
 30
0.0
 11
269.6935537354511
 21
370.4383862461313
 31
0.0
  0
LINE
  5
3BF
330
A
100
AcDbEntity
  8
KAKURE
100
AcDbLine
 10
269.6935537354511
 20
377.4383862461313
 30
0.0
 11
269.6935537354511
 21
472.4383862461315
 31
0.0
  0
LINE
  5
3CF
330
A
100
AcDbEntity
  8
04
100
AcDbLine
 10
187.1935537354511
 20
306.4383862461315
 30
0.0
 11
175.1935537354512
 21
306.4383862461315
 31
0.0
  0
LINE
  5
3D0
330
A
100
AcDbEntity
  8
04
100
AcDbLine
 10
169.1935537354511
 20
322.4383862461313
 30
0.0
 11
193.1935537354512
 21
322.4383862461313
 31
0.0
  0
LINE
  5
3D1
330
A
100
AcDbEntity
  8
04
100
AcDbLine
 10
169.1935537354511
 20
320.4383862461313
 30
0.0
 11
193.1935537354512
 21
320.4383862461313
 31
0.0
  0
LINE
  5
3D2
330
A
100
AcDbEntity
  8
04
100
AcDbLine
 10
175.1935537354512
 20
310.9383862461315
 30
0.0
 11
187.1935537354511
 21
310.9383862461315
 31
0.0
  0
LINE
  5
3D3
330
A
100
AcDbEntity
  8
04
100
AcDbLine
 10
175.1935537354512
 20
306.4383862461315
 30
0.0
 11
175.1935537354512
 21
310.9383862461315
 31
0.0
  0
LINE
  5
3D4
330
A
100
AcDbEntity
  8
04
100
AcDbLine
 10
187.1935537354511
 20
310.9383862461315
 30
0.0
 11
187.1935537354511
 21
306.4383862461315
 31
0.0
  0
LINE
  5
3D5
330
A
100
AcDbEntity
  8
04
100
AcDbLine
 10
176.1935537354512
 20
320.4383862461313
 30
0.0
 11
176.1935537354512
 21
310.9383862461315
 31
0.0
  0
LINE
  5
3D6
330
A
100
AcDbEntity
  8
04
100
AcDbLine
 10
186.1935537354511
 20
320.4383862461313
 30
0.0
 11
186.1935537354511
 21
310.9383862461313
 31
0.0
  0
LINE
  5
3D7
330
A
100
AcDbEntity
  8
04
100
AcDbLine
 10
179.9435537354511
 20
306.4383862461315
 30
0.0
 11
179.9435537354511
 21
300.4383862461315
 31
0.0
  0
LINE
  5
3D8
330
A
100
AcDbEntity
  8
04
100
AcDbLine
 10
182.4435537354512
 20
300.4383862461315
 30
0.0
 11
182.4435537354512
 21
306.4383862461315
 31
0.0
  0
LINE
  5
3D9
330
A
100
AcDbEntity
  8
04
100
AcDbLine
 10
169.1935537354511
 20
320.4383862461313
 30
0.0
 11
169.1935537354511
 21
322.4383862461313
 31
0.0
  0
LINE
  5
3DA
330
A
100
AcDbEntity
  8
04
100
AcDbLine
 10
193.1935537354512
 20
320.4383862461313
 30
0.0
 11
193.1935537354512
 21
322.4383862461313
 31
0.0
  0
LINE
  5
3DB
330
A
100
AcDbEntity
  8
04
100
AcDbLine
 10
187.1935537354511
 20
514.4383862461316
 30
0.0
 11
175.1935537354512
 21
514.4383862461316
 31
0.0
  0
LINE
  5
3DC
330
A
100
AcDbEntity
  8
04
100
AcDbLine
 10
175.1935537354512
 20
509.9383862461316
 30
0.0
 11
187.1935537354511
 21
509.9383862461316
 31
0.0
  0
LINE
  5
3DD
330
A
100
AcDbEntity
  8
04
100
AcDbLine
 10
175.1935537354512
 20
514.4383862461316
 30
0.0
 11
175.1935537354512
 21
509.9383862461316
 31
0.0
  0
LINE
  5
3DE
330
A
100
AcDbEntity
  8
04
100
AcDbLine
 10
187.1935537354511
 20
509.9383862461316
 30
0.0
 11
187.1935537354511
 21
514.4383862461316
 31
0.0
  0
LINE
  5
3DF
330
A
100
AcDbEntity
  8
04
100
AcDbLine
 10
176.1935537354512
 20
500.4383862461316
 30
0.0
 11
176.1935537354512
 21
509.9383862461316
 31
0.0
  0
LINE
  5
3E0
330
A
100
AcDbEntity
  8
04
100
AcDbLine
 10
186.1935537354511
 20
500.4383862461316
 30
0.0
 11
186.1935537354511
 21
509.9383862461316
 31
0.0
  0
LINE
  5
3E1
330
A
100
AcDbEntity
  8
04
100
AcDbLine
 10
179.9435537354511
 20
514.4383862461316
 30
0.0
 11
179.9435537354511
 21
520.4383862461314
 31
0.0
  0
LINE
  5
3E2
330
A
100
AcDbEntity
  8
04
100
AcDbLine
 10
182.4435537354512
 20
520.4383862461314
 30
0.0
 11
182.4435537354512
 21
514.4383862461316
 31
0.0
  0
LINE
  5
3E3
330
A
100
AcDbEntity
  8
04
100
AcDbLine
 10
169.1935537354511
 20
498.4383862461315
 30
0.0
 11
193.1935537354512
 21
498.4383862461315
 31
0.0
  0
LINE
  5
3E4
330
A
100
AcDbEntity
  8
04
100
AcDbLine
 10
169.1935537354511
 20
500.4383862461316
 30
0.0
 11
193.1935537354512
 21
500.4383862461316
 31
0.0
  0
LINE
  5
3E5
330
A
100
AcDbEntity
  8
04
100
AcDbLine
 10
169.1935537354511
 20
500.4383862461316
 30
0.0
 11
169.1935537354511
 21
498.4383862461315
 31
0.0
  0
LINE
  5
3E6
330
A
100
AcDbEntity
  8
04
100
AcDbLine
 10
193.1935537354512
 20
500.4383862461316
 30
0.0
 11
193.1935537354512
 21
498.4383862461315
 31
0.0
  0
LINE
  5
3E7
330
A
100
AcDbEntity
  8
04
100
AcDbLine
 10
55.15620129654806
 20
461.2532538050866
 30
0.0
 11
61.36785837900859
 21
484.4354736360243
 31
0.0
  0
LINE
  5
3E8
330
A
100
AcDbEntity
  8
04
100
AcDbLine
 10
111.3678583790085
 20
484.4354736360243
 30
0.0
 11
105.1562012965481
 21
461.2532538050866
 31
0.0
  0
LINE
  5
3E9
330
A
100
AcDbEntity
  8
04
100
AcDbLine
 10
105.1562012965481
 20
461.2532538050866
 30
0.0
 11
55.15620129654806
 21
461.2532538050866
 31
0.0
  0
LINE
  5
3EA
330
A
100
AcDbEntity
  8
04
100
AcDbLine
 10
61.36785837900859
 20
484.4354736360243
 30
0.0
 11
111.3678583790085
 21
484.4354736360243
 31
0.0
  0
LINE
  5
3EB
330
A
100
AcDbEntity
  8
04
100
AcDbLine
 10
55.15620129654806
 20
461.2532538050866
 30
0.0
 11
54.6203029116858
 21
463.2532538050866
 31
0.0
  0
LINE
  5
3EC
330
A
100
AcDbEntity
  8
04
100
AcDbLine
 10
61.36785837900859
 20
484.4354736360243
 30
0.0
 11
60.83195999414633
 21
486.4354736360243
 31
0.0
  0
LINE
  5
3ED
330
A
100
AcDbEntity
  8
04
100
AcDbLine
 10
111.3678583790085
 20
484.4354736360243
 30
0.0
 11
110.8319599941463
 21
486.4354736360243
 31
0.0
  0
ELLIPSE
  5
3EE
330
A
100
AcDbEntity
  8
04
100
AcDbEllipse
 10
63.26202983777832
 20
472.8443637205555
 30
0.0
 11
-2.749999999999984
 21
0.0
 31
0.0
210
0.0
220
0.0
230
1.0
 40
0.8
 41
0.0
 42
6.283185307179585
  0
ELLIPSE
  5
3EF
330
A
100
AcDbEntity
  8
04
100
AcDbEllipse
 10
63.26202983777832
 20
472.8443637205555
 30
0.0
 11
-1.999999999999992
 21
0.0
 31
0.0
210
0.0
220
0.0
230
1.0
 40
0.8
 41
0.0
 42
6.283185307179585
  0
ELLIPSE
  5
3F0
330
A
100
AcDbEntity
  8
04
100
AcDbEllipse
 10
103.2620298377783
 20
472.8443637205555
 30
0.0
 11
-2.749999999999984
 21
0.0
 31
0.0
210
0.0
220
0.0
230
1.0
 40
0.8
 41
0.0
 42
6.283185307179585
  0
ELLIPSE
  5
3F1
330
A
100
AcDbEntity
  8
04
100
AcDbEllipse
 10
103.2620298377783
 20
472.8443637205555
 30
0.0
 11
-1.999999999999992
 21
0.0
 31
0.0
210
0.0
220
0.0
230
1.0
 40
0.8
 41
0.0
 42
6.283185307179585
  0
ELLIPSE
  5
3F2
330
A
100
AcDbEntity
  8
04
100
AcDbEllipse
 10
83.26202983777834
 20
472.8443637205555
 30
0.0
 11
-5.0
 21
0.0
 31
0.0
210
0.0
220
0.0
230
1.0
 40
0.8
 41
0.0
 42
6.283185307179585
  0
ELLIPSE
  5
3F3
330
A
100
AcDbEntity
  8
04
100
AcDbEllipse
 10
83.48857438286421
 20
473.5943637205555
 30
0.0
 11
-5.0
 21
0.0
 31
0.0
210
0.0
220
0.0
230
1.0
 40
0.8
 41
6.142681648227337
 42
9.091077252638717
  0
ELLIPSE
  5
3F4
330
A
100
AcDbEntity
  8
04
100
AcDbEllipse
 10
63.42373364701497
 20
473.4443637205554
 30
0.0
 11
-1.999999999999992
 21
0.0
 31
0.0
210
0.0
220
0.0
230
1.0
 40
0.8
 41
6.263835423322124
 42
9.019418978554996
  0
ELLIPSE
  5
3F5
330
A
100
AcDbEntity
  8
04
100
AcDbEllipse
 10
103.4237336470148
 20
473.4443637205554
 30
0.0
 11
-1.999999999999992
 21
0.0
 31
0.0
210
0.0
220
0.0
230
1.0
 40
0.8
 41
6.263835423322124
 42
9.019418978554996
  0
ELLIPSE
  5
3F6
330
A
100
AcDbEntity
  8
04
100
AcDbEllipse
 10
83.26202983777834
 20
497.8443637205555
 30
0.0
 11
-5.0
 21
0.0
 31
0.0
210
0.0
220
0.0
230
1.0
 40
0.8
 41
0.0
 42
6.283185307179585
  0
LINE
  5
3F7
330
A
100
AcDbEntity
  8
04
100
AcDbLine
 10
78.26202983777831
 20
511.6443637205555
 30
0.0
 11
78.26202983777831
 21
497.8443637205555
 31
0.0
  0
LINE
  5
3F8
330
A
100
AcDbEntity
  8
04
100
AcDbLine
 10
88.26202983777831
 20
511.6443637205555
 30
0.0
 11
88.26202983777831
 21
497.8443637205555
 31
0.0
  0
ELLIPSE
  5
3F9
330
A
100
AcDbEntity
  8
04
100
AcDbEllipse
 10
83.26202983777834
 20
511.6443637205555
 30
0.0
 11
-5.0
 21
0.0
 31
0.0
210
0.0
220
0.0
230
1.0
 40
0.8
 41
3.141592653589792
 42
6.283185307179585
  0
ELLIPSE
  5
3FA
330
A
100
AcDbEntity
  8
04
100
AcDbEllipse
 10
83.26202983777834
 20
507.9443637205555
 30
0.0
 11
-5.0
 21
0.0
 31
0.0
210
0.0
220
0.0
230
1.0
 40
0.8
 41
3.066522162513073
 42
6.357928210937777
  0
ELLIPSE
  5
3FB
330
A
100
AcDbEntity
  8
04
100
AcDbEllipse
 10
83.26202983777834
 20
507.6443637205555
 30
0.0
 11
-5.0
 21
0.0
 31
0.0
210
0.0
220
0.0
230
1.0
 40
0.8
 41
3.141592653589792
 42
6.283185307179585
  0
ELLIPSE
  5
3FC
330
A
100
AcDbEntity
  8
04
100
AcDbEllipse
 10
83.26202983777834
 20
499.6443637205555
 30
0.0
 11
-5.0
 21
0.0
 31
0.0
210
0.0
220
0.0
230
1.0
 40
0.8
 41
3.141592653589792
 42
6.283185307179585
  0
ELLIPSE
  5
3FD
330
A
100
AcDbEntity
  8
04
100
AcDbEllipse
 10
83.26202983777834
 20
499.0443637205554
 30
0.0
 11
-5.0
 21
0.0
 31
0.0
210
0.0
220
0.0
230
1.0
 40
0.8
 41
3.141592653589792
 42
6.283185307179585
  0
ELLIPSE
  5
3FE
330
A
100
AcDbEntity
  8
04
100
AcDbEllipse
 10
83.26202983777834
 20
498.4443637205554
 30
0.0
 11
-5.0
 21
0.0
 31
0.0
210
0.0
220
0.0
230
1.0
 40
0.8
 41
3.141592653589792
 42
6.283185307179585
  0
ELLIPSE
  5
3FF
330
A
100
AcDbEntity
  8
04
100
AcDbEllipse
 10
83.26202983777834
 20
497.8443637205555
 30
0.0
 11
-3.999999999999984
 21
0.0
 31
0.0
210
0.0
220
0.0
230
1.0
 40
0.8
 41
0.0
 42
6.283185307179585
  0
LINE
  5
400
330
A
100
AcDbEntity
  8
04
100
AcDbLine
 10
56.06286061279313
 20
534.4354736360243
 30
0.0
 11
114.3678583790086
 21
534.4354736360243
 31
0.0
  0
ELLIPSE
  5
401
330
A
100
AcDbEntity
  8
04
100
AcDbEllipse
 10
63.26202983777836
 20
522.8443637205555
 30
0.0
 11
-1.999999999999956
 21
0.0
 31
0.0
210
0.0
220
0.0
230
1.0
 40
0.8
 41
0.0
 42
6.283185307179585
  0
ELLIPSE
  5
402
330
A
100
AcDbEntity
  8
04
100
AcDbEllipse
 10
103.2620298377783
 20
522.8443637205555
 30
0.0
 11
-1.999999999999956
 21
0.0
 31
0.0
210
0.0
220
0.0
230
1.0
 40
0.8
 41
0.0
 42
6.283185307179585
  0
ELLIPSE
  5
403
330
A
100
AcDbEntity
  8
04
100
AcDbEllipse
 10
63.42373364701501
 20
523.4443637205555
 30
0.0
 11
-1.999999999999956
 21
0.0
 31
0.0
210
0.0
220
0.0
230
1.0
 40
0.8
 41
6.263835423322124
 42
9.019418978554996
  0
ELLIPSE
  5
404
330
A
100
AcDbEntity
  8
04
100
AcDbEllipse
 10
103.4237336470148
 20
523.4443637205555
 30
0.0
 11
-1.999999999999956
 21
0.0
 31
0.0
210
0.0
220
0.0
230
1.0
 40
0.8
 41
6.263835423322124
 42
9.019418978554996
  0
ELLIPSE
  5
405
330
A
100
AcDbEntity
  8
04
100
AcDbEllipse
 10
79.26641797131646
 20
517.4195829023591
 30
0.0
 11
3.213938048432715
 21
-3.830222215594965
 31
0.0
210
0.0
220
0.0
230
1.0
 40
0.8000000000000001
 41
0.5819730160262752
 42
2.412969425713709
  0
ELLIPSE
  5
406
330
A
100
AcDbEntity
  8
04
100
AcDbEllipse
 10
78.54626461235405
 20
517.1110353849761
 30
0.0
 11
3.213938048432608
 21
-3.830222215595036
 31
0.0
210
0.0
220
0.0
230
1.0
 40
0.8
 41
0.6544051526176538
 42
2.153344690132888
  0
ELLIPSE
  5
407
330
A
100
AcDbEntity
  8
04
100
AcDbEllipse
 10
83.48857438286421
 20
523.5943637205555
 30
0.0
 11
-5.0
 21
0.0
 31
0.0
210
0.0
220
0.0
230
1.0
 40
0.8
 41
6.142681648227337
 42
7.410312568486413
  0
ELLIPSE
  5
408
330
A
100
AcDbEntity
  8
04
100
AcDbEllipse
 10
83.48857438286421
 20
523.5943637205555
 30
0.0
 11
-5.0
 21
0.0
 31
0.0
210
0.0
220
0.0
230
1.0
 40
0.8
 41
1.390109479059521
 42
2.807891945459127
  0
ELLIPSE
  5
409
330
A
100
AcDbEntity
  8
04
100
AcDbEllipse
 10
83.26202983777834
 20
522.8443637205555
 30
0.0
 11
-5.0
 21
0.0
 31
0.0
210
0.0
220
0.0
230
1.0
 40
0.8
 41
1.536780627651696
 42
7.628017618254412
  0
LINE
  5
40A
330
A
100
AcDbEntity
  8
04
100
AcDbLine
 10
111.1809094903339
 20
511.2532538050866
 30
0.0
 11
88.26202983777831
 21
511.2532538050866
 31
0.0
  0
LINE
  5
40B
330
A
100
AcDbEntity
  8
04
100
AcDbLine
 10
78.26202983777831
 20
511.2532538050866
 30
0.0
 11
55.15620129654806
 21
511.2532538050866
 31
0.0
  0
ELLIPSE
  5
40C
330
A
100
AcDbEntity
  8
04
100
AcDbEllipse
 10
83.26202983777831
 20
499.8443637205553
 30
0.0
 11
-7.5
 21
0.0
 31
0.0
210
0.0
220
0.0
230
1.0
 40
0.8
 41
3.141592653589788
 42
6.283185307179585
  0
LINE
  5
40D
330
A
100
AcDbEntity
  8
04
100
AcDbLine
 10
75.76202983777825
 20
499.8443637205553
 30
0.0
 11
75.51634395718045
 21
502.6525661858387
 31
0.0
  0
LINE
  5
40E
330
A
100
AcDbEntity
  8
04
100
AcDbLine
 10
75.76202983777825
 20
499.8443637205553
 30
0.0
 11
77.04890092337244
 21
502.073289823596
 31
0.0
  0
LINE
  5
40F
330
A
100
AcDbEntity
  8
04
100
AcDbLine
 10
54.6203029116858
 20
463.2532538050866
 30
0.0
 11
60.83195999414633
 21
486.4354736360243
 31
0.0
  0
LINE
  5
410
330
A
100
AcDbEntity
  8
04
100
AcDbLine
 10
60.83195999414633
 20
486.4354736360243
 30
0.0
 11
110.8319599941463
 21
486.4354736360243
 31
0.0
  0
LINE
  5
43F
330
A
100
AcDbEntity
  8
03
100
AcDbLine
 10
236.6935537354511
 20
379.4383862461315
 30
0.0
 11
236.6935537354511
 21
395.9764868063413
 31
0.0
  0
LINE
  5
48C
330
A
100
AcDbEntity
  8
04
100
AcDbLine
 10
111.1809094903339
 20
511.2532538050866
 30
0.0
 11
110.8712892288707
 21
512.3547330618979
 31
0.0
  0
LINE
  5
48D
330
A
100
AcDbEntity
  8
04
100
AcDbLine
 10
110.8712892288707
 20
512.3547330618979
 30
0.0
 11
110.569273074455
 21
513.4555506982922
 31
0.0
  0
LINE
  5
48E
330
A
100
AcDbEntity
  8
04
100
AcDbLine
 10
110.569273074455
 20
513.4555506982922
 30
0.0
 11
110.2824651341349
 21
514.5550450938526
 31
0.0
  0
LINE
  5
48F
330
A
100
AcDbEntity
  8
04
100
AcDbLine
 10
110.2824651341349
 20
514.5550450938526
 30
0.0
 11
110.0184695149577
 21
515.6525546281621
 31
0.0
  0
LINE
  5
490
330
A
100
AcDbEntity
  8
04
100
AcDbLine
 10
110.0184695149577
 20
515.6525546281621
 30
0.0
 11
109.7848903239712
 21
516.7474176808037
 31
0.0
  0
LINE
  5
491
330
A
100
AcDbEntity
  8
04
100
AcDbLine
 10
109.7848903239712
 20
516.7474176808037
 30
0.0
 11
109.5891729967294
 21
517.8384921952068
 31
0.0
  0
LINE
  5
492
330
A
100
AcDbEntity
  8
04
100
AcDbLine
 10
109.5891729967294
 20
517.8384921952068
 30
0.0
 11
109.438128282811
 21
518.9227143701862
 31
0.0
  0
LINE
  5
493
330
A
100
AcDbEntity
  8
04
100
AcDbLine
 10
109.438128282811
 20
518.9227143701862
 30
0.0
 11
109.3384082603017
 21
519.9965399684031
 31
0.0
  0
LINE
  5
494
330
A
100
AcDbEntity
  8
04
100
AcDbLine
 10
109.3384082603017
 20
519.9965399684031
 30
0.0
 11
109.2966650072864
 21
521.0564247525186
 31
0.0
  0
LINE
  5
495
330
A
100
AcDbEntity
  8
04
100
AcDbLine
 10
109.2966650072864
 20
521.0564247525186
 30
0.0
 11
109.3195506018503
 21
522.0988244851942
 31
0.0
  0
LINE
  5
496
330
A
100
AcDbEntity
  8
04
100
AcDbLine
 10
109.3195506018503
 20
522.0988244851942
 30
0.0
 11
109.4143518080537
 21
523.1206780690696
 31
0.0
  0
LINE
  5
497
330
A
100
AcDbEntity
  8
04
100
AcDbLine
 10
109.4143518080537
 20
523.1206780690696
 30
0.0
 11
109.5908941338566
 21
524.1208569667003
 31
0.0
  0
LINE
  5
498
330
A
100
AcDbEntity
  8
04
100
AcDbLine
 10
109.5908941338566
 20
524.1208569667003
 30
0.0
 11
109.8596377731942
 21
525.0987157806202
 31
0.0
  0
LINE
  5
499
330
A
100
AcDbEntity
  8
04
100
AcDbLine
 10
109.8596377731942
 20
525.0987157806202
 30
0.0
 11
110.2310429200012
 21
526.0536091133633
 31
0.0
  0
LINE
  5
49A
330
A
100
AcDbEntity
  8
04
100
AcDbLine
 10
110.2310429200012
 20
526.0536091133633
 30
0.0
 11
110.7155697682129
 21
526.9848915674636
 31
0.0
  0
LINE
  5
49B
330
A
100
AcDbEntity
  8
04
100
AcDbLine
 10
110.7155697682129
 20
526.9848915674636
 30
0.0
 11
111.3119916449157
 21
527.8911849240115
 31
0.0
  0
LINE
  5
49C
330
A
100
AcDbEntity
  8
04
100
AcDbLine
 10
111.3119916449157
 20
527.8911849240115
 30
0.0
 11
111.972334409802
 21
528.7681796783223
 31
0.0
  0
LINE
  5
49D
330
A
100
AcDbEntity
  8
04
100
AcDbLine
 10
111.972334409802
 20
528.7681796783223
 30
0.0
 11
112.6369370557154
 21
529.6108335042681
 31
0.0
  0
LINE
  5
49E
330
A
100
AcDbEntity
  8
04
100
AcDbLine
 10
112.6369370557154
 20
529.6108335042681
 30
0.0
 11
113.2461385754998
 21
530.4141040757208
 31
0.0
  0
LINE
  5
49F
330
A
100
AcDbEntity
  8
04
100
AcDbLine
 10
113.2461385754998
 20
530.4141040757208
 30
0.0
 11
113.7402779619989
 21
531.1729490665515
 31
0.0
  0
LINE
  5
4A0
330
A
100
AcDbEntity
  8
04
100
AcDbLine
 10
113.7402779619989
 20
531.1729490665515
 30
0.0
 11
114.0754618139306
 21
531.884815468546
 31
0.0
  0
LINE
  5
4A1
330
A
100
AcDbEntity
  8
04
100
AcDbLine
 10
114.0754618139306
 20
531.884815468546
 30
0.0
 11
114.2708671535091
 21
532.5571075451404
 31
0.0
  0
LINE
  5
4A2
330
A
100
AcDbEntity
  8
04
100
AcDbLine
 10
114.2708671535091
 20
532.5571075451404
 30
0.0
 11
114.3614386088227
 21
533.1997188776848
 31
0.0
  0
LINE
  5
4A3
330
A
100
AcDbEntity
  8
04
100
AcDbLine
 10
114.3614386088227
 20
533.1997188776848
 30
0.0
 11
114.3821208079598
 21
533.8225430475296
 31
0.0
  0
LINE
  5
4A4
330
A
100
AcDbEntity
  8
04
100
AcDbLine
 10
114.3821208079598
 20
533.8225430475296
 30
0.0
 11
114.3678583790086
 21
534.4354736360243
 31
0.0
  0
LINE
  5
4A5
330
A
100
AcDbEntity
  8
04
100
AcDbLine
 10
55.15620129654806
 20
511.2532538050866
 30
0.0
 11
54.39232297405485
 21
512.8149118381299
 31
0.0
  0
LINE
  5
4A6
330
A
100
AcDbEntity
  8
04
100
AcDbLine
 10
54.39232297405485
 20
512.8149118381299
 30
0.0
 11
53.67861130914882
 21
514.3306645150164
 31
0.0
  0
LINE
  5
4A7
330
A
100
AcDbEntity
  8
04
100
AcDbLine
 10
53.67861130914882
 20
514.3306645150164
 30
0.0
 11
53.06523295941715
 21
515.7546064795893
 31
0.0
  0
LINE
  5
4A8
330
A
100
AcDbEntity
  8
04
100
AcDbLine
 10
53.06523295941715
 20
515.7546064795893
 30
0.0
 11
52.60235458244715
 21
517.0408323756913
 31
0.0
  0
LINE
  5
4A9
330
A
100
AcDbEntity
  8
04
100
AcDbLine
 10
52.60235458244715
 20
517.0408323756913
 30
0.0
 11
52.3401428358259
 21
518.1434368471665
 31
0.0
  0
LINE
  5
4AA
330
A
100
AcDbEntity
  8
04
100
AcDbLine
 10
52.3401428358259
 20
518.1434368471665
 30
0.0
 11
52.31601705834709
 21
519.0370801718931
 31
0.0
  0
LINE
  5
4AB
330
A
100
AcDbEntity
  8
04
100
AcDbLine
 10
52.31601705834709
 20
519.0370801718931
 30
0.0
 11
52.51640731363014
 21
519.7786851638944
 31
0.0
  0
LINE
  5
4AC
330
A
100
AcDbEntity
  8
04
100
AcDbLine
 10
52.51640731363014
 20
519.7786851638944
 30
0.0
 11
52.91499634650097
 21
520.4457402712291
 31
0.0
  0
LINE
  5
4AD
330
A
100
AcDbEntity
  8
04
100
AcDbLine
 10
52.91499634650097
 20
520.4457402712291
 30
0.0
 11
53.48546690178546
 21
521.115733941956
 31
0.0
  0
LINE
  5
4AE
330
A
100
AcDbEntity
  8
04
100
AcDbLine
 10
53.48546690178546
 20
521.115733941956
 30
0.0
 11
54.20150172430947
 21
521.8661546241336
 31
0.0
  0
LINE
  5
4AF
330
A
100
AcDbEntity
  8
04
100
AcDbLine
 10
54.20150172430947
 20
521.8661546241336
 30
0.0
 11
55.02596366870522
 21
522.7577985450267
 31
0.0
  0
LINE
  5
4B0
330
A
100
AcDbEntity
  8
04
100
AcDbLine
 10
55.02596366870522
 20
522.7577985450267
 30
0.0
 11
55.87843602883012
 21
523.7846930487238
 31
0.0
  0
LINE
  5
4B1
330
A
100
AcDbEntity
  8
04
100
AcDbLine
 10
55.87843602883012
 20
523.7846930487238
 30
0.0
 11
56.6676822083478
 21
524.9241732585195
 31
0.0
  0
LINE
  5
4B2
330
A
100
AcDbEntity
  8
04
100
AcDbLine
 10
56.6676822083478
 20
524.9241732585195
 30
0.0
 11
57.30246561092195
 21
526.1535742977082
 31
0.0
  0
LINE
  5
4B3
330
A
100
AcDbEntity
  8
04
100
AcDbLine
 10
57.30246561092195
 20
526.1535742977082
 30
0.0
 11
57.69154964021627
 21
527.4502312895845
 31
0.0
  0
LINE
  5
4B4
330
A
100
AcDbEntity
  8
04
100
AcDbLine
 10
57.69154964021627
 20
527.4502312895845
 30
0.0
 11
57.77013499827102
 21
528.7937704676941
 31
0.0
  0
LINE
  5
4B5
330
A
100
AcDbEntity
  8
04
100
AcDbLine
 10
57.77013499827102
 20
528.7937704676941
 30
0.0
 11
57.57917158063285
 21
530.1729825065891
 31
0.0
  0
LINE
  5
4B6
330
A
100
AcDbEntity
  8
04
100
AcDbLine
 10
57.57917158063285
 20
530.1729825065891
 30
0.0
 11
57.18604658122497
 21
531.5789491910736
 31
0.0
  0
LINE
  5
4B7
330
A
100
AcDbEntity
  8
04
100
AcDbLine
 10
57.18604658122497
 20
531.5789491910736
 30
0.0
 11
56.65814719397068
 21
533.0027523059507
 31
0.0
  0
LINE
  5
4B8
330
A
100
AcDbEntity
  8
04
100
AcDbLine
 10
56.65814719397068
 20
533.0027523059507
 30
0.0
 11
56.06286061279313
 21
534.4354736360243
 31
0.0
  0
POLYLINE
  5
561
330
A
100
AcDbEntity
  8
DEFPOINTS
100
AcDb2dPolyline
 66
     1
 10
0.0
 20
0.0
 30
0.0
 70
     1
  0
VERTEX
  5
1857
330
561
100
AcDbEntity
  8
DEFPOINTS
100
AcDbVertex
100
AcDb2dVertex
 10
0.0000000000000568
 20
0.0
 30
0.0
  0
VERTEX
  5
1858
330
561
100
AcDbEntity
  8
DEFPOINTS
100
AcDbVertex
100
AcDb2dVertex
 10
420.0
 20
0.0
 30
0.0
  0
VERTEX
  5
1859
330
561
100
AcDbEntity
  8
DEFPOINTS
100
AcDbVertex
100
AcDb2dVertex
 10
420.0
 20
594.0
 30
0.0
  0
VERTEX
  5
185A
330
561
100
AcDbEntity
  8
DEFPOINTS
100
AcDbVertex
100
AcDb2dVertex
 10
0.0000000000000568
 20
594.0
 30
0.0
  0
SEQEND
  5
185B
330
561
100
AcDbEntity
  8
DEFPOINTS
  0
MTEXT
  5
58C
330
A
100
AcDbEntity
  8
MOJI
100
AcDbMText
 10
66.69355373545119
 20
285.4383862461315
 30
0.0
 40
6.0
 41
30.0
 71
     5
 72
     1
  1
外　部
  7
0_8
 11
0.0000000000000001
 21
1.0
 31
0.0
1001
ACAD
1000
MTEXTBEGIN
1070
    73
1070
     1
1070
    44
1040
1.0
1070
    74
1070
     0
1000
MTEXTEND
1000
MTEXTBEGIN
1070
    73
1070
     1
1070
    44
1040
1.0
1070
    74
1070
     0
1000
MTEXTEND
  0
POLYLINE
  5
58D
330
A
100
AcDbEntity
  8
SAISEN
100
AcDb2dPolyline
 66
     1
 10
0.0
 20
0.0
 30
0.0
 70
     1
  0
VERTEX
  5
185D
330
58D
100
AcDbEntity
  8
SAISEN
100
AcDbVertex
100
AcDb2dVertex
 10
61.69355373545118
 20
270.4383862461315
 30
0.0
  0
VERTEX
  5
185E
330
58D
100
AcDbEntity
  8
SAISEN
100
AcDbVertex
100
AcDb2dVertex
 10
71.69355373545119
 20
270.4383862461315
 30
0.0
  0
VERTEX
  5
185F
330
58D
100
AcDbEntity
  8
SAISEN
100
AcDbVertex
100
AcDb2dVertex
 10
71.69355373545119
 20
300.4383862461315
 30
0.0
  0
VERTEX
  5
1860
330
58D
100
AcDbEntity
  8
SAISEN
100
AcDbVertex
100
AcDb2dVertex
 10
61.69355373545118
 20
300.4383862461315
 30
0.0
  0
SEQEND
  5
1861
330
58D
100
AcDbEntity
  8
SAISEN
  0
MTEXT
  5
590
330
A
100
AcDbEntity
  8
MOJI
100
AcDbMText
 10
386.6935537354511
 20
285.4383862461315
 30
0.0
 40
6.0
 41
30.0
 71
     5
 72
     1
  1
内　部
  7
0_8
 11
0.0000000000000001
 21
1.0
 31
0.0
1001
ACAD
1000
MTEXTBEGIN
1070
    73
1070
     1
1070
    44
1040
1.0
1070
    74
1070
     0
1000
MTEXTEND
1000
MTEXTBEGIN
1070
    73
1070
     1
1070
    44
1040
1.0
1070
    74
1070
     0
1000
MTEXTEND
  0
POLYLINE
  5
591
330
A
100
AcDbEntity
  8
SAISEN
100
AcDb2dPolyline
 66
     1
 10
0.0
 20
0.0
 30
0.0
 70
     1
  0
VERTEX
  5
1862
330
591
100
AcDbEntity
  8
SAISEN
100
AcDbVertex
100
AcDb2dVertex
 10
381.6935537354511
 20
270.4383862461315
 30
0.0
  0
VERTEX
  5
1863
330
591
100
AcDbEntity
  8
SAISEN
100
AcDbVertex
100
AcDb2dVertex
 10
391.6935537354511
 20
270.4383862461315
 30
0.0
  0
VERTEX
  5
1864
330
591
100
AcDbEntity
  8
SAISEN
100
AcDbVertex
100
AcDb2dVertex
 10
391.6935537354511
 20
300.4383862461315
 30
0.0
  0
VERTEX
  5
1865
330
591
100
AcDbEntity
  8
SAISEN
100
AcDbVertex
100
AcDb2dVertex
 10
381.6935537354511
 20
300.4383862461315
 30
0.0
  0
SEQEND
  5
1866
330
591
100
AcDbEntity
  8
SAISEN
  0
DIMENSION
  5
5A1
330
A
100
AcDbEntity
  8
SUNPOU
100
AcDbDimension
  2
*D1
 10
103.2620298377783
 20
547.9251790629041
 30
0.0
 11
83.26202983777834
 21
543.3258018874957
 31
0.0
 70
   160
 53
180.0
  3
SUNPOU_2
100
AcDbAlignedDimension
 13
63.26202983777836
 23
522.8443637205555
 33
0.0
 14
103.2620298377783
 24
522.8443637205555
 34
0.0
100
AcDbRotatedDimension
  0
DIMENSION
  5
5B8
330
A
100
AcDbEntity
  8
SUNPOU
100
AcDbDimension
  2
*D2
 10
105.1562012965481
 20
436.5501790629041
 30
0.0
 11
80.15620129654806
 21
431.8935687406527
 31
0.0
 70
   160
 53
180.0
  3
SUNPOU_2
100
AcDbAlignedDimension
 13
55.15620129654806
 23
461.2532538050866
 33
0.0
 14
105.1562012965481
 24
461.2532538050866
 34
0.0
100
AcDbRotatedDimension
  0
DIMENSION
  5
5E1
330
A
100
AcDbEntity
  8
SUNPOU
100
AcDbDimension
  2
*D3
 10
111.6935537354512
 20
320.4383862461316
 30
0.0
 11
107.193553735451
 21
285.4383862461316
 31
0.0
 70
    32
  3
SUNPOU_2
100
AcDbAlignedDimension
 13
134.6935537354511
 23
250.4383862461315
 33
0.0
 14
134.6935537354511
 24
320.4383862461316
 34
0.0
 50
90.0
100
AcDbRotatedDimension
  0
DIMENSION
  5
5EE
330
A
100
AcDbEntity
  8
SUNPOU
100
AcDbDimension
  2
*D4
 10
296.6935537354511
 20
275.4383862461314
 30
0.0
 11
292.1935537354512
 21
262.9383862461315
 31
0.0
 70
    32
  3
SUNPOU_2
100
AcDbAlignedDimension
 13
273.6935537354511
 23
250.4383862461314
 33
0.0
 14
269.6935537354511
 24
275.4383862461314
 34
0.0
 50
90.0
100
AcDbRotatedDimension
  0
DIMENSION
  5
5FB
330
A
100
AcDbEntity
  8
SUNPOU
100
AcDbDimension
  2
*D5
 10
296.6935537354514
 20
497.4383862461316
 30
0.0
 11
292.1935537354513
 21
484.9383862461316
 31
0.0
 70
    32
  3
SUNPOU_2
100
AcDbAlignedDimension
 13
269.6935537354511
 23
472.4383862461315
 33
0.0
 14
273.6935537354514
 24
497.4383862461316
 34
0.0
 50
90.0
100
AcDbRotatedDimension
  0
DIMENSION
  5
608
330
A
100
AcDbEntity
  8
SUNPOU
100
AcDbDimension
  2
*D6
 10
366.6935537354511
 20
110.4383862461314
 30
0.0
 11
362.1935537354511
 21
95.43838624613151
 31
0.0
 70
    32
  3
SUNPOU_2
100
AcDbAlignedDimension
 13
326.6935537354511
 23
80.43838624613147
 33
0.0
 14
323.6935537354511
 24
110.4383862461314
 34
0.0
 50
90.0
100
AcDbRotatedDimension
  0
DIMENSION
  5
615
330
A
100
AcDbEntity
  8
SUNPOU
100
AcDbDimension
  2
*D7
 10
366.6935537354512
 20
500.4383862461313
 30
0.0
 11
362.1935537354511
 21
305.4383862461315
 31
0.0
 70
    32
  1
W
  3
SUNPOU_2
100
AcDbAlignedDimension
 13
323.6935537354511
 23
110.4383862461314
 33
0.0
 14
323.6935537354511
 24
500.4383862461313
 34
0.0
 50
90.0
100
AcDbRotatedDimension
  0
DIMENSION
  5
622
330
A
100
AcDbEntity
  8
SUNPOU
100
AcDbDimension
  2
*D8
 10
366.6935537354512
 20
530.4383862461313
 30
0.0
 11
362.1935537354512
 21
515.4383862461314
 31
0.0
 70
    32
  1
<>
  3
SUNPOU_2
100
AcDbAlignedDimension
 13
323.6935537354511
 23
500.4383862461313
 33
0.0
 14
326.6935537354512
 24
530.4383862461313
 34
0.0
 50
90.0
100
AcDbRotatedDimension
  0
DIMENSION
  5
638
330
A
100
AcDbEntity
  8
SUNPOU
100
AcDbDimension
  2
*D9
 10
346.6935537354511
 20
497.4383862461313
 30
0.0
 11
342.1935537354511
 21
373.9383862461313
 31
0.0
 70
    32
  1
DW
  3
SUNPOU_2
100
AcDbAlignedDimension
 13
273.6935537354511
 23
250.4383862461314
 33
0.0
 14
273.6935537354515
 24
497.4383862461313
 34
0.0
 50
90.0
100
AcDbRotatedDimension
  0
DIMENSION
  5
645
330
A
100
AcDbEntity
  8
SUNPOU
100
AcDbDimension
  2
*D10
 10
346.6935537354511
 20
500.4383862461313
 30
0.0
 11
341.4030305383731
 21
507.6131240741831
 31
0.0
 70
   160
  1
<>
  3
SUNPOU_2
100
AcDbAlignedDimension
 13
273.6935537354515
 23
497.4383862461313
 33
0.0
 14
323.6935537354511
 24
500.4383862461313
 34
0.0
 50
90.0
100
AcDbRotatedDimension
  0
DIMENSION
  5
673
330
A
100
AcDbEntity
  8
SUNPOU
100
AcDbDimension
  2
*D11
 10
126.6935537354511
 20
60.43838624613154
 30
0.0
 11
226.693553735451
 21
55.90232069401849
 31
0.0
 70
   160
 53
180.0
  3
SUNPOU_2
100
AcDbAlignedDimension
 13
326.6935537354511
 23
80.43838624613147
 33
0.0
 14
126.6935537354511
 24
80.43838624613153
 34
0.0
100
AcDbRotatedDimension
  0
DIMENSION
  5
6AF
330
A
100
AcDbEntity
  8
SUNPOU
100
AcDbDimension
  2
*D12
 10
276.6935537354512
 20
210.5639134920004
 30
0.0
 11
301.6935537354512
 21
206.0629096104111
 31
0.0
 70
   160
 53
180.0
  3
SUNPOU_2
100
AcDbAlignedDimension
 13
326.6935537354512
 23
210.5639134920004
 33
0.0
 14
276.6935537354512
 24
253.4383862461314
 34
0.0
100
AcDbRotatedDimension
  0
DIMENSION
  5
6BC
330
A
100
AcDbEntity
  8
SUNPOU
100
AcDbDimension
  2
*D13
 10
236.6935537354511
 20
210.5639134920004
 30
0.0
 11
261.2302514813076
 21
206.0609308209365
 31
0.0
 70
   160
 53
180.0
  3
SUNPOU_2
100
AcDbAlignedDimension
 13
276.6935537354512
 23
253.4383862461314
 33
0.0
 14
236.6935537354511
 24
253.4383862461314
 34
0.0
100
AcDbRotatedDimension
  0
DIMENSION
  5
6C9
330
A
100
AcDbEntity
  8
SUNPOU
100
AcDbDimension
  2
*D14
 10
231.6935537354511
 20
210.5639134920004
 30
0.0
 11
234.1935537354511
 21
206.0916349210816
 31
0.0
 70
   160
 53
180.0
  3
SUNPOU_2
100
AcDbAlignedDimension
 13
236.6935537354511
 23
253.4383862461314
 33
0.0
 14
231.6935537354511
 24
253.4383862461314
 34
0.0
100
AcDbRotatedDimension
  0
DIMENSION
  5
6D8
330
A
100
AcDbEntity
  8
SUNPOU
100
AcDbDimension
  2
*D15
 10
131.6935537354511
 20
210.5639134920004
 30
0.0
 11
187.8993209013964
 21
206.06290401666
 31
0.0
 70
   160
 53
180.0
  3
SUNPOU_2
100
AcDbAlignedDimension
 13
231.6935537354511
 23
253.4383862461314
 33
0.0
 14
131.6935537354511
 24
253.4383862461315
 34
0.0
100
AcDbRotatedDimension
  0
DIMENSION
  5
6E5
330
A
100
AcDbEntity
  8
SUNPOU
100
AcDbDimension
  2
*D16
 10
126.6935537354511
 20
144.5639134920005
 30
0.0
 11
119.2956344607043
 21
140.0787818793421
 31
0.0
 70
   160
 53
180.0
  3
SUNPOU_2
100
AcDbAlignedDimension
 13
131.6935537354511
 23
177.4383862461314
 33
0.0
 14
126.6935537354511
 24
107.4383862461315
 34
0.0
100
AcDbRotatedDimension
  0
DIMENSION
  5
840
330
A
100
AcDbEntity
  8
SUNPOU
100
AcDbDimension
  2
*D17
 10
269.6935537354511
 20
393.9764868063413
 30
0.0
 11
284.0122445799209
 21
389.4928733780951
 31
0.0
 70
   160
 53
180.0
  3
SUNPOU_2
100
AcDbAlignedDimension
 13
276.6935537354513
 23
393.9764868063413
 33
0.0
 14
269.6935537354511
 24
393.9764868063413
 34
0.0
100
AcDbRotatedDimension
  0
DIMENSION
  5
84D
330
A
100
AcDbEntity
  8
SUNPOU
100
AcDbDimension
  2
*D18
 10
243.6935537354512
 20
393.9764868063413
 30
0.0
 11
261.3228620632576
 21
389.3248818431056
 31
0.0
 70
   160
 53
180.0
  3
SUNPOU_2
100
AcDbAlignedDimension
 13
269.6935537354511
 23
393.9764868063413
 33
0.0
 14
243.6935537354512
 24
393.9764868063413
 34
0.0
100
AcDbRotatedDimension
  0
DIMENSION
  5
858
330
A
100
AcDbEntity
  8
SUNPOU
100
AcDbDimension
  2
*D19
 10
236.6935537354513
 20
393.9764868063413
 30
0.0
 11
229.3885248036442
 21
389.5780508255238
 31
0.0
 70
   160
 53
180.0
  3
SUNPOU_2
100
AcDbAlignedDimension
 13
243.6935537354512
 23
393.9764868063413
 33
0.0
 14
236.6935537354513
 24
393.9764868063413
 34
0.0
100
AcDbRotatedDimension
  0
DIMENSION
  5
AC4
330
A
100
AcDbEntity
  8
SUNPOU
100
AcDbDimension
  2
*D20
 10
43.8290412251356
 20
486.4354736360243
 30
0.0
 11
39.32904122513555
 21
474.8443637205553
 31
0.0
 70
    32
  1
24
  3
SUNPOU_2
100
AcDbAlignedDimension
 13
54.6203029116858
 23
463.2532538050866
 33
0.0
 14
60.83195999414633
 24
486.4354736360243
 34
0.0
 50
90.0
100
AcDbRotatedDimension
  0
DIMENSION
  5
ADA
330
A
100
AcDbEntity
  8
SUNPOU
100
AcDbDimension
  2
*D21
 10
54.38844825288535
 20
486.4354736360243
 30
0.0
 11
50.03957480610143
 21
494.3858715691826
 31
0.0
 70
   160
  3
SUNPOU_2
100
AcDbAlignedDimension
 13
61.36785837900859
 23
484.4354736360243
 33
0.0
 14
60.83195999414633
 24
486.4354736360243
 34
0.0
 50
90.0
100
AcDbRotatedDimension
  0
LEADER
  5
B03
330
A
100
AcDbEntity
  8
HIKIDASI
100
AcDbLeader
  3
SUNPOU_2
 73
     0
 74
     0
 75
     1
 40
5.0
 41
32.53333333333333
 76
     3
 10
78.26202983777834
 20
498.4443637205554
 30
0.0
 10
47.97290637331303
 20
506.5387790662035
 30
0.0
 10
47.97290637331303
 20
511.5387790662035
 30
0.0
340
B04
211
0.0000000000000001
221
1.0
231
0.0
1001
ACAD
1000
DSTYLE
1002
{
1070
     5
1000
OPEN30
1070
    77
1070
     1
1070
   147
1040
1.0
1070
   342
1005
564
1002
}
1000
LEANOF
1010
0.0
1020
0.0
1030
0.0
1000
LEANOF
1010
0.0
1020
0.0
1030
0.0
  0
MTEXT
  5
B04
330
A
100
AcDbEntity
  8
HIKIDASI
100
AcDbMText
 10
43.47290637331304
 20
513.5387790662035
 30
0.0
 40
5.0
 41
0.0
 71
     4
 72
     1
  1
M10 P＝0.75
  7
SUNPOU
 11
0.0000000000000001
 21
1.0
 31
0.0
1001
ACAD
1000
MTEXTBEGIN
1070
    73
1070
     1
1070
    44
1040
1.0
1070
    74
1070
     0
1000
MTEXTEND
1000
MTEXTBEGIN
1070
    73
1070
     1
1070
    44
1040
1.0
1070
    74
1070
     0
1000
MTEXTEND
  0
LEADER
  5
B23
330
A
100
AcDbEntity
  8
HIKIDASI
100
AcDbLeader
  3
SUNPOU_2
 73
     0
 75
     1
 40
5.0
 41
21.06666666666666
 76
     3
 10
63.26202983777832
 20
472.8443637205555
 30
0.0
 10
47.12021636160135
 20
453.7010531529118
 30
0.0
 10
47.12021636160135
 20
448.7010531529119
 30
0.0
340
B24
211
0.0000000000000001
221
1.0
231
0.0
1001
ACAD
1000
DSTYLE
1002
{
1070
     5
1000
OPEN30
1070
    77
1070
     1
1070
   147
1040
1.0
1070
   342
1005
564
1002
}
1000
LEANOF
1010
0.0
1020
0.0
1030
0.0
1000
LEANOF
1010
0.0
1020
0.0
1030
0.0
  0
MTEXT
  5
B24
330
A
100
AcDbEntity
  8
HIKIDASI
100
AcDbMText
 10
45.12021636160135
 20
446.7010531529119
 30
0.0
 40
5.0
 41
0.0
 71
     9
 72
     1
  1
2－φ4皿
  7
SUNPOU
 11
0.0000000000000001
 21
1.0
 31
0.0
1001
ACAD
1000
MTEXTBEGIN
1070
    73
1070
     1
1070
    44
1040
1.0
1070
    74
1070
     0
1000
MTEXTEND
1000
MTEXTBEGIN
1070
    73
1070
     1
1070
    44
1040
1.0
1070
    74
1070
     0
1000
MTEXTEND
  0
LEADER
  5
B26
330
A
100
AcDbEntity
  8
HIKIDASI
100
AcDbLeader
  3
SUNPOU_2
 73
     0
 75
     1
 40
13.33333333333333
 41
27.46666666666667
 76
     3
 10
246.693553735451
 20
497.4383862461313
 30
0.0
 10
212.1425599780054
 20
471.4170302124148
 30
0.0
 10
212.1425599780054
 20
466.4170302124148
 30
0.0
340
B27
211
0.0000000000000001
221
1.0
231
0.0
213
-8.301702944576334
223
-5.812914981770062
233
0.0
1001
ACAD
1000
DSTYLE
1002
{
1070
     5
1000
OPEN30
1070
    77
1070
     1
1070
   147
1040
1.0
1070
   342
1005
564
1002
}
1000
LEANOF
1010
-8.301702944576334
1020
-5.812914981770062
1030
0.0
1000
LEANOF
1010
-8.301702944576334
1020
-5.812914981770062
1030
0.0
  0
MTEXT
  5
B27
330
A
100
AcDbEntity
  8
HIKIDASI
100
AcDbMText
 10
218.4442629225818
 20
470.2299451941849
 30
0.0
 40
5.0
 41
0.0
 71
     9
 72
     1
  1
戸当たりゴム\P（建具工事）
  7
SUNPOU
 11
0.0000000000000001
 21
1.0
 31
0.0
1001
ACAD
1000
MTEXTBEGIN
1070
    73
1070
     1
1070
    44
1040
1.0
1070
    74
1070
     0
1000
MTEXTEND
1000
MTEXTBEGIN
1070
    73
1070
     1
1070
    44
1040
1.0
1070
    74
1070
     0
1000
MTEXTEND
  0
LEADER
  5
B29
330
A
100
AcDbEntity
  8
HIKIDASI
100
AcDbLeader
  3
SUNPOU_2
 73
     0
 74
     0
 75
     1
 40
13.33333333333333
 41
85.86666666666666
 76
     3
 10
269.6935537354511
 20
325.6979873094741
 30
0.0
 10
310.0305819774716
 20
348.3770632880065
 30
0.0
 10
310.0305819774716
 20
353.3770632880065
 30
0.0
340
B2A
211
0.0000000000000001
221
1.0
231
0.0
213
-8.379375296258785
223
0.0
233
0.0
1001
ACAD
1000
DSTYLE
1002
{
1070
     5
1000
OPEN30
1070
    77
1070
     1
1070
   147
1040
1.0
1070
   342
1005
564
1002
}
1000
LEANOF
1010
-8.379375296258785
1020
0.0
1030
0.0
1000
LEANOF
1010
-8.379375296258785
1020
0.0
1030
0.0
  0
MTEXT
  5
B2A
330
A
100
AcDbEntity
  8
HIKIDASI
100
AcDbMText
 10
316.4099572737304
 20
355.3770632880065
 30
0.0
 40
5.0
 41
0.0
 71
     7
 72
     1
  1
FB補強用埋込み溝（上下共深さ7mm）\P（建具工事）
  7
SUNPOU
 11
0.0000000000000001
 21
1.0
 31
0.0
1001
ACAD
1000
MTEXTBEGIN
1070
    73
1070
     1
1070
    44
1040
1.0
1070
    74
1070
     0
1000
MTEXTEND
1000
MTEXTBEGIN
1070
    73
1070
     1
1070
    44
1040
1.0
1070
    74
1070
     0
1000
MTEXTEND
  0
LEADER
  5
B2D
330
A
100
AcDbEntity
  8
HIKIDASI
100
AcDbLeader
  3
SUNPOU_2
 73
     0
 74
     0
 75
     1
 40
13.33333333333333
 41
94.13333333333337
 76
     3
 10
181.1935537354512
 20
288.5453139049971
 30
0.0
 10
117.1499043215702
 20
351.3655122387202
 30
0.0
 10
117.1499043215702
 20
356.3655122387202
 30
0.0
340
B2E
211
0.0000000000000001
221
1.0
231
0.0
213
-8.368324723711777
223
7.021858189238287
233
0.0
1001
ACAD
1000
DSTYLE
1002
{
1070
     5
1000
OPEN30
1070
    77
1070
     1
1070
   147
1040
1.0
1070
   342
1005
564
1002
}
1000
LEANOF
1010
-8.368324723711777
1020
7.021858189238287
1030
0.0
1000
LEANOF
1010
-8.368324723711777
1020
7.021858189238287
1030
0.0
  0
MTEXT
  5
B2E
330
A
100
AcDbEntity
  8
HIKIDASI
100
AcDbMText
 10
116.8515623786154
 20
351.343654049482
 30
0.0
 40
5.0
 41
0.0
 71
     4
 72
     1
  1
補助光電スイッチケーブル通し穴\Pガラスポケットの溝を深く加工（建具工事）
  7
SUNPOU
 11
0.0000000000000001
 21
1.0
 31
0.0
1001
ACAD
1000
MTEXTBEGIN
1070
    73
1070
     1
1070
    44
1040
1.0
1070
    74
1070
     0
1000
MTEXTEND
1000
MTEXTBEGIN
1070
    73
1070
     1
1070
    44
1040
1.0
1070
    74
1070
     0
1000
MTEXTEND
  0
LEADER
  5
B31
330
A
100
AcDbEntity
  8
HIKIDASI
100
AcDbLeader
  3
SUNPOU_2
 73
     0
 74
     0
 75
     1
 40
13.33333333333333
 41
70.13333333333332
 76
     3
 10
181.1935537354511
 20
321.9383862461313
 30
0.0
 10
161.4057688158864
 20
370.1834642268544
 30
0.0
 10
161.4057688158864
 20
375.1834642268544
 30
0.0
340
B32
211
0.0000000000000001
221
1.0
231
0.0
213
-8.454451586231384
223
5.076073567909247
233
0.0
1001
ACAD
1000
DSTYLE
1002
{
1070
     5
1000
OPEN30
1070
    77
1070
     1
1070
   147
1040
1.0
1070
   342
1005
564
1002
}
1000
LEANOF
1010
-8.454451586231384
1020
5.076073567909247
1030
0.0
1000
LEANOF
1010
-8.454451586231384
1020
5.076073567909247
1030
0.0
  0
MTEXT
  5
B32
330
A
100
AcDbEntity
  8
HIKIDASI
100
AcDbMText
 10
161.1935537354511
 20
372.1073906589452
 30
0.0
 40
5.0
 41
0.0
 71
     4
 72
     1
  1
プレート取付型補助光電スイッチ\Pφ12穴加工（建具工事）
  7
SUNPOU
 11
0.0000000000000001
 21
1.0
 31
0.0
1001
ACAD
1000
MTEXTBEGIN
1070
    73
1070
     1
1070
    44
1040
1.0
1070
    74
1070
     0
1000
MTEXTEND
1000
MTEXTBEGIN
1070
    73
1070
     1
1070
    44
1040
1.0
1070
    74
1070
     0
1000
MTEXTEND
  0
LEADER
  5
B38
330
A
100
AcDbEntity
  8
HIKIDASI
100
AcDbLeader
  3
SUNPOU_2
 76
     2
 10
181.1935537354512
 20
500.4383862461316
 30
0.0
 10
161.4057688158864
 20
447.3167975601876
 30
0.0
1001
ACAD
1000
DSTYLE
1002
{
1070
     5
1000
OPEN30
1070
    77
1070
     1
1070
   147
1040
1.0
1070
   342
1005
564
1002
}
1000
LEANOF
1010
0.0
1020
0.0
1030
0.0
1000
LEANOF
1010
0.0
1020
0.0
1030
0.0
  0
INSERT
  5
B4C
330
A
100
AcDbEntity
  8
06
  6
CONTINUOUS
100
AcDbBlockReference
  2
*X22
 10
0.0
 20
0.0
 30
0.0
1001
ACAD
1000
HATCH
1002
{
1070
    19
1000
ANSI37
1040
20.0
1040
0.0
1000
ASC_BOUNDS
1070
     2
1070
     1
1070
     4
1005
287
1005
346
1005
2B2
1005
342
1070
     1
1070
     4
1005
2B2
1005
346
1005
286
1005
342
1000
ASC_SEEDPOINT
1011
249.3208204340048
1021
498.8949706099099
1031
0.0
1000
R14_HATCH_DATA
1000
B4C
1011
1.0
1021
0.0
1031
0.0
1011
0.0
1021
1.0
1031
0.0
1011
0.0
1021
0.0
1031
1.0
1040
0.0
1010
0.0
1020
0.0
1030
1.0
1000
ANSI37
1070
     0
1070
     1
1071
        2
1071
        7
1070
     0
1070
     1
1071
        4
1040
256.6935537354511
1040
497.4383862461313
1040
256.6935537354513
1040
500.4383862461315
1040
246.6935537354511
1040
500.4383862461315
1040
246.6935537354511
1040
497.4383862461316
1071
        4
1005
342
1005
286
1005
346
1005
2B2
1071
        7
1070
     0
1070
     1
1071
        4
1040
256.6935537354513
1040
500.4383862461316
1040
256.6935537354513
1040
497.4383862461316
1040
266.6935537354512
1040
497.4383862461315
1040
266.6935537354512
1040
500.4383862461313
1071
        4
1005
342
1005
2B2
1005
346
1005
287
1070
     0
1070
     1
1040
0.0
1040
20.0
1070
     0
1070
     2
1040
0.7853981633974483
1040
0.0
1040
0.0
1040
-1.767766952966368
1040
1.767766952966368
1070
     0
1040
2.356194490192344
1040
0.0
1040
0.0
1040
-1.767766952966368
1040
-1.767766952966368
1070
     0
1040
0.0460668698507979
1071
        2
1040
249.3208204340048
1040
498.8949706099099
1040
0.0
1040
259.3680804431335
1040
498.9871038869122
1040
0.0
1002
}
  0
INSERT
  5
B59
330
A
100
AcDbEntity
  8
KAKURE
  6
CONTINUOUS
100
AcDbBlockReference
  2
*X23
 10
0.0
 20
0.0
 30
0.0
1001
ACAD
1000
HATCH
1002
{
1070
    19
1000
ANSI31
1040
30.0
1040
1.570796326794896
1000
R14_HATCH_DATA
1000
B59
1011
1.0
1021
0.0
1031
0.0
1011
0.0
1021
1.0
1031
0.0
1011
0.0
1021
0.0
1031
1.0
1040
0.0
1010
0.0
1020
0.0
1030
1.0
1000
ANSI31
1070
     0
1070
     0
1071
        2
1071
        7
1070
     0
1070
     1
1071
        4
1040
187.193553735451
1040
290.4383862461313
1040
181.193553735451
1040
290.4383862461313
1040
181.193553735451
1040
270.4383862461315
1040
187.193553735451
1040
270.4383862461314
1071
        0
1071
        7
1070
     0
1070
     1
1071
        4
1040
181.1935537354511
1040
290.4383862461313
1040
175.1935537354512
1040
290.4383862461315
1040
175.1935537354512
1040
270.4383862461315
1040
181.193553735451
1040
270.4383862461314
1071
        0
1070
     0
1070
     1
1040
1.570796326794896
1040
30.0
1070
     0
1070
     1
1040
2.356194490192344
1040
0.0
1040
0.0
1040
-2.651650429449553
1040
-2.651650429449551
1070
     0
1040
0.0550985885613101
1071
        2
1040
181.3675088850868
1040
280.2287474172051
1040
0.0
1040
179.1074140150439
1040
280.2838458661809
1040
0.0
1002
}
  0
LINE
  5
F9D
330
A
100
AcDbEntity
  8
SAISEN
100
AcDbLine
 10
221.6935537354511
 20
377.4383862461315
 30
0.0
 11
286.6935537354513
 21
377.4383862461315
 31
0.0
  0
LINE
  5
F9E
330
A
100
AcDbEntity
  8
SAISEN
100
AcDbLine
 10
221.6935537354511
 20
370.4383862461315
 30
0.0
 11
286.6935537354513
 21
370.4383862461316
 31
0.0
  0
LINE
  5
F9F
330
A
100
AcDbEntity
  8
06
100
AcDbLine
 10
276.6935537354513
 20
377.4383862461315
 30
0.0
 11
276.6935537354513
 21
444.4383862461315
 31
0.0
  0
LINE
  5
FCE
330
A
100
AcDbEntity
  8
SAISEN
100
AcDbLine
 10
116.693553735451
 20
183.4383862461314
 30
0.0
 11
336.6935537354513
 21
183.4383862461314
 31
0.0
  0
LINE
  5
FCF
330
A
100
AcDbEntity
  8
SAISEN
100
AcDbLine
 10
116.693553735451
 20
177.4383862461314
 30
0.0
 11
336.6935537354513
 21
177.4383862461314
 31
0.0
  0
ARC
  5
11FC
330
A
100
AcDbEntity
  8
03
100
AcDbCircle
 10
99.83211101408631
 20
758.2224805161658
 30
0.0
 40
270.0
100
AcDbArc
 50
288.8784102671952
 51
302.4729738591553
  0
ARC
  5
11FD
330
A
100
AcDbEntity
  8
03
100
AcDbCircle
 10
99.83211101408631
 20
758.2224805161658
 30
0.0
 40
340.0
100
AcDbArc
 50
310.6952396344459
 51
311.8543668246368
  0
ARC
  5
11FE
330
A
100
AcDbEntity
  8
03
100
AcDbCircle
 10
99.83211101408631
 20
758.2224805161658
 30
0.0
 40
330.0
100
AcDbArc
 50
308.6327331207256
 51
313.4292952320115
  0
ARC
  5
11FF
330
A
100
AcDbEntity
  8
03
100
AcDbCircle
 10
99.83211101408631
 20
758.2224805161658
 30
0.0
 40
320.0
100
AcDbArc
 50
306.334148737323
 51
314.6163789660525
  0
ARC
  5
1200
330
A
100
AcDbEntity
  8
03
100
AcDbCircle
 10
99.83211101408631
 20
758.2224805161658
 30
0.0
 40
280.0
100
AcDbArc
 50
292.9776090068992
 51
305.5592452159294
  0
ARC
  5
1201
330
A
100
AcDbEntity
  8
03
100
AcDbCircle
 10
99.83211101408631
 20
758.2224805161658
 30
0.0
 40
290.0
100
AcDbArc
 50
297.2633202526403
 51
308.2365356990265
  0
ARC
  5
1202
330
A
100
AcDbEntity
  8
03
100
AcDbCircle
 10
99.83211101408631
 20
758.2224805161658
 30
0.0
 40
260.0
100
AcDbArc
 50
289.6336964528631
 51
298.8254422701923
  0
ARC
  5
1203
330
A
100
AcDbEntity
  8
03
100
AcDbCircle
 10
99.83211101408631
 20
758.2224805161658
 30
0.0
 40
250.0
100
AcDbArc
 50
290.4534197402133
 51
294.3371341883217
  0
ARC
  5
1204
330
A
100
AcDbEntity
  8
03
100
AcDbCircle
 10
99.83211101408631
 20
758.2224805161658
 30
0.0
 40
300.0
100
AcDbArc
 50
300.7641276005255
 51
310.5992070038608
  0
ARC
  5
1205
330
A
100
AcDbEntity
  8
03
100
AcDbCircle
 10
99.83211101408631
 20
758.2224805161658
 30
0.0
 40
310.0
100
AcDbArc
 50
303.7405127382754
 51
312.7107451906145
  0
ARC
  5
1206
330
A
100
AcDbEntity
  8
03
100
AcDbCircle
 10
99.83211101408631
 20
758.2224805161658
 30
0.0
 40
240.0
100
AcDbArc
 50
276.4261614260695
 51
288.3008180393678
  0
ARC
  5
1207
330
A
100
AcDbEntity
  8
03
100
AcDbCircle
 10
99.83211101408631
 20
758.2224805161658
 30
0.0
 40
230.0
100
AcDbArc
 50
276.7068157641976
 51
277.9597357399619
  0
ARC
  5
1208
330
A
100
AcDbEntity
  8
03
100
AcDbCircle
 10
99.83211101408631
 20
758.2224805161658
 30
0.0
 40
250.0
100
AcDbArc
 50
276.1680962778132
 51
287.5444601813009
  0
ARC
  5
1209
330
A
100
AcDbEntity
  8
03
100
AcDbCircle
 10
99.83211101408631
 20
758.2224805161658
 30
0.0
 40
260.0
100
AcDbArc
 50
277.4857535839684
 51
286.8490778938296
  0
ARC
  5
121C
330
A
100
AcDbEntity
  8
03
100
AcDbCircle
 10
105.2337979093828
 20
302.3498068402243
 30
0.0
 40
240.0
100
AcDbArc
 50
292.3872335980443
 51
306.9051278322088
  0
ARC
  5
121D
330
A
100
AcDbEntity
  8
03
100
AcDbCircle
 10
105.2337979093828
 20
302.3498068402243
 30
0.0
 40
220.0
100
AcDbArc
 50
275.5977803665391
 51
289.8632160495728
  0
ARC
  5
121E
330
A
100
AcDbEntity
  8
03
100
AcDbCircle
 10
105.2337979093828
 20
302.3498068402243
 30
0.0
 40
200.0
100
AcDbArc
 50
276.1596252989251
 51
286.3505893561185
  0
ARC
  5
121F
330
A
100
AcDbEntity
  8
03
100
AcDbCircle
 10
105.2337979093828
 20
302.3498068402243
 30
0.0
 40
210.0
100
AcDbArc
 50
275.8652548786403
 51
289.4595748965036
  0
ARC
  5
1220
330
A
100
AcDbEntity
  8
03
100
AcDbCircle
 10
105.2337979093828
 20
302.3498068402243
 30
0.0
 40
230.0
100
AcDbArc
 50
285.2402077854001
 51
303.446848187599
  0
ARC
  5
1221
330
A
100
AcDbEntity
  8
03
100
AcDbCircle
 10
105.2337979093828
 20
302.3498068402243
 30
0.0
 40
220.0
100
AcDbArc
 50
291.8726194342169
 51
299.2700883434043
  0
ARC
  5
1222
330
A
100
AcDbEntity
  8
03
100
AcDbCircle
 10
105.2337979093828
 20
302.3498068402243
 30
0.0
 40
210.0
100
AcDbArc
 50
292.972206186025
 51
293.9551013875401
  0
ARC
  5
1223
330
A
100
AcDbEntity
  8
03
100
AcDbCircle
 10
105.2337979093828
 20
302.3498068402243
 30
0.0
 40
310.0
100
AcDbArc
 50
314.2876472896584
 51
315.5929275211054
  0
ARC
  5
1224
330
A
100
AcDbEntity
  8
03
100
AcDbCircle
 10
105.2337979093828
 20
302.3498068402243
 30
0.0
 40
290.0
100
AcDbArc
 50
310.0741620705578
 51
318.5654921240411
  0
ARC
  5
1225
330
A
100
AcDbEntity
  8
03
100
AcDbCircle
 10
105.2337979093828
 20
302.3498068402243
 30
0.0
 40
300.0
100
AcDbArc
 50
312.2937303779085
 51
317.578238957793
  0
ARC
  5
1226
330
A
100
AcDbEntity
  8
03
100
AcDbCircle
 10
105.2337979093828
 20
302.3498068402243
 30
0.0
 40
280.0
100
AcDbArc
 50
307.5764099305228
 51
316.7330898177224
  0
ARC
  5
1227
330
A
100
AcDbEntity
  8
03
100
AcDbCircle
 10
105.2337979093828
 20
302.3498068402243
 30
0.0
 40
270.0
100
AcDbArc
 50
304.7251425633902
 51
314.7013386852911
  0
ARC
  5
1228
330
A
100
AcDbEntity
  8
03
100
AcDbCircle
 10
105.2337979093828
 20
302.3498068402243
 30
0.0
 40
260.0
100
AcDbArc
 50
301.4049849949208
 51
312.4284142379717
  0
ARC
  5
1229
330
A
100
AcDbEntity
  8
03
100
AcDbCircle
 10
105.2337979093828
 20
302.3498068402243
 30
0.0
 40
250.0
100
AcDbArc
 50
297.4211208182206
 51
309.8570586384238
  0
ARC
  5
1269
330
A
100
AcDbEntity
  8
06
100
AcDbCircle
 10
216.3221871833151
 20
607.6309722521186
 30
0.0
 40
120.0
100
AcDbArc
 50
279.7739459416094
 51
293.3253117793408
  0
ARC
  5
126A
330
A
100
AcDbEntity
  8
06
100
AcDbCircle
 10
216.3221871833151
 20
607.6309722521186
 30
0.0
 40
170.0
100
AcDbArc
 50
276.8823819908376
 51
290.8011475551287
  0
ARC
  5
126B
330
A
100
AcDbEntity
  8
06
100
AcDbCircle
 10
216.3221871833151
 20
607.6309722521186
 30
0.0
 40
150.0
100
AcDbArc
 50
277.8054094110519
 51
293.7330427646065
  0
ARC
  5
126C
330
A
100
AcDbEntity
  8
06
100
AcDbCircle
 10
216.3221871833151
 20
607.6309722521186
 30
0.0
 40
160.0
100
AcDbArc
 50
277.3148128008303
 51
292.1678401750124
  0
ARC
  5
126D
330
A
100
AcDbEntity
  8
06
100
AcDbCircle
 10
216.3221871833151
 20
607.6309722521186
 30
0.0
 40
160.0
100
AcDbArc
 50
277.3148128008303
 51
292.1678401750124
  0
ARC
  5
126E
330
A
100
AcDbEntity
  8
06
100
AcDbCircle
 10
216.3221871833151
 20
607.6309722521186
 30
0.0
 40
140.0
100
AcDbArc
 50
278.3667994318315
 51
295.5452663350738
  0
ARC
  5
126F
330
A
100
AcDbEntity
  8
06
100
AcDbCircle
 10
216.3221871833151
 20
607.6309722521186
 30
0.0
 40
130.0
100
AcDbArc
 50
279.0155675792787
 51
297.6710827519043
  0
ARC
  5
1270
330
A
100
AcDbEntity
  8
06
100
AcDbCircle
 10
216.3221871833151
 20
607.6309722521186
 30
0.0
 40
180.0
100
AcDbArc
 50
283.9427371223317
 51
288.5861268153266
  0
ARC
  5
1271
330
A
100
AcDbEntity
  8
06
100
AcDbCircle
 10
216.3221871833151
 20
607.6309722521186
 30
0.0
 40
180.0
100
AcDbArc
 50
276.6460170763173
 51
281.9828385537899
  0
ARC
  5
1280
330
A
100
AcDbEntity
  8
06
100
AcDbCircle
 10
170.7171723879596
 20
427.6486225539954
 30
0.0
 40
130.0
100
AcDbArc
 50
300.4981555753701
 51
304.4425074120248
  0
ARC
  5
1281
330
A
100
AcDbEntity
  8
06
100
AcDbCircle
 10
170.7171723879596
 20
427.6486225539954
 30
0.0
 40
170.0
100
AcDbArc
 50
292.8361011635698
 51
308.5641501229056
  0
ARC
  5
1282
330
A
100
AcDbEntity
  8
06
100
AcDbCircle
 10
170.7171723879596
 20
427.6486225539954
 30
0.0
 40
180.0
100
AcDbArc
 50
291.5021076279563
 51
306.0688984675798
  0
ARC
  5
1283
330
A
100
AcDbEntity
  8
06
100
AcDbCircle
 10
170.7171723879596
 20
427.6486225539954
 30
0.0
 40
190.0
100
AcDbArc
 50
291.1630342575811
 51
303.9017478008332
  0
ARC
  5
1284
330
A
100
AcDbEntity
  8
06
100
AcDbCircle
 10
170.7171723879596
 20
427.6486225539954
 30
0.0
 40
150.0
100
AcDbArc
 50
296.0938351511284
 51
313.2670691203488
  0
ARC
  5
1285
330
A
100
AcDbEntity
  8
06
100
AcDbCircle
 10
170.7171723879596
 20
427.6486225539954
 30
0.0
 40
160.0
100
AcDbArc
 50
294.3526937574183
 51
310.6166138428296
  0
ARC
  5
1286
330
A
100
AcDbEntity
  8
06
100
AcDbCircle
 10
170.7171723879596
 20
427.6486225539954
 30
0.0
 40
160.0
100
AcDbArc
 50
294.3526937574183
 51
310.6166138428296
  0
ARC
  5
1287
330
A
100
AcDbEntity
  8
06
100
AcDbCircle
 10
170.7171723879596
 20
427.6486225539954
 30
0.0
 40
140.0
100
AcDbArc
 50
298.1161083315638
 51
306.3480209373876
  0
ARC
  5
1288
330
A
100
AcDbEntity
  8
06
100
AcDbCircle
 10
170.7171723879596
 20
427.6486225539954
 30
0.0
 40
200.0
100
AcDbArc
 50
297.6188410837373
 51
301.9974760896311
  0
ARC
  5
1289
330
A
100
AcDbEntity
  8
06
100
AcDbCircle
 10
170.7171723879596
 20
427.6486225539954
 30
0.0
 40
140.0
100
AcDbArc
 50
309.4604609484759
 51
310.0229062484253
  0
ARC
  5
129E
330
A
100
AcDbEntity
  8
03
100
AcDbCircle
 10
15.60701034073848
 20
430.6914155349624
 30
0.0
 40
280.0
100
AcDbArc
 50
320.0389811450623
 51
320.4512217316936
  0
ARC
  5
129F
330
A
100
AcDbEntity
  8
03
100
AcDbCircle
 10
15.60701034073848
 20
430.6914155349624
 30
0.0
 40
250.0
100
AcDbArc
 50
313.8618939559552
 51
329.8081304757668
  0
ARC
  5
12A0
330
A
100
AcDbEntity
  8
03
100
AcDbCircle
 10
15.60701034073848
 20
430.6914155349624
 30
0.0
 40
260.0
100
AcDbArc
 50
316.1096164704476
 51
326.2121162821403
  0
ARC
  5
12A1
330
A
100
AcDbEntity
  8
03
100
AcDbCircle
 10
15.60701034073848
 20
430.6914155349624
 30
0.0
 40
240.0
100
AcDbArc
 50
315.6386042772066
 51
332.6520431024088
  0
ARC
  5
12A2
330
A
100
AcDbEntity
  8
03
100
AcDbCircle
 10
15.60701034073848
 20
430.6914155349624
 30
0.0
 40
230.0
100
AcDbArc
 50
318.2475111646055
 51
331.3563239695257
  0
ARC
  5
12A3
330
A
100
AcDbEntity
  8
03
100
AcDbCircle
 10
15.60701034073848
 20
430.6914155349624
 30
0.0
 40
220.0
100
AcDbArc
 50
321.2549754067338
 51
329.9238785877051
  0
ARC
  5
12A4
330
A
100
AcDbEntity
  8
03
100
AcDbCircle
 10
15.60701034073848
 20
430.6914155349624
 30
0.0
 40
270.0
100
AcDbArc
 50
318.1176058250538
 51
323.160721729037
  0
ARC
  5
12A5
330
A
100
AcDbEntity
  8
03
100
AcDbCircle
 10
15.60701034073848
 20
430.6914155349624
 30
0.0
 40
210.0
100
AcDbArc
 50
324.7934283625818
 51
328.3307856450927
  0
ARC
  5
12A6
330
A
100
AcDbEntity
  8
03
100
AcDbCircle
 10
15.60701034073848
 20
430.6914155349624
 30
0.0
 40
240.0
100
AcDbArc
 50
311.3182136611251
 51
311.6780240623089
  0
ARC
  5
12A7
330
A
100
AcDbEntity
  8
03
100
AcDbCircle
 10
15.60701034073848
 20
430.6914155349624
 30
0.0
 40
200.0
100
AcDbArc
 50
305.480983402908
 51
322.9331423581813
  0
ARC
  5
12A8
330
A
100
AcDbEntity
  8
03
100
AcDbCircle
 10
15.60701034073848
 20
430.6914155349624
 30
0.0
 40
190.0
100
AcDbArc
 50
307.6605279324645
 51
324.5298244526725
  0
ARC
  5
12A9
330
A
100
AcDbEntity
  8
03
100
AcDbCircle
 10
15.60701034073848
 20
430.6914155349624
 30
0.0
 40
180.0
100
AcDbArc
 50
310.1600705342698
 51
322.2282905550503
  0
ARC
  5
12AA
330
A
100
AcDbEntity
  8
03
100
AcDbCircle
 10
15.60701034073848
 20
430.6914155349624
 30
0.0
 40
220.0
100
AcDbArc
 50
304.9820246745841
 51
316.5015821746363
  0
ARC
  5
12AB
330
A
100
AcDbEntity
  8
03
100
AcDbCircle
 10
15.60701034073848
 20
430.6914155349624
 30
0.0
 40
230.0
100
AcDbArc
 50
308.3985826211498
 51
313.9360087130514
  0
ARC
  5
12AC
330
A
100
AcDbEntity
  8
03
100
AcDbCircle
 10
15.60701034073848
 20
430.6914155349624
 30
0.0
 40
210.0
100
AcDbArc
 50
303.55884063106
 51
319.4585491450637
  0
ARC
  5
12AD
330
A
100
AcDbEntity
  8
03
100
AcDbCircle
 10
15.60701034073848
 20
430.6914155349624
 30
0.0
 40
170.0
100
AcDbArc
 50
313.067698235856
 51
319.5678413305464
  0
LINE
  5
12E5
330
A
100
AcDbEntity
  8
SAISEN
100
AcDbLine
 10
33.16332163909977
 20
450.9078116231216
 30
0.0
 11
33.16332163909977
 21
542.3261745289319
 31
0.0
  0
ELLIPSE
  5
16ED
330
A
100
AcDbEntity
  8
03
100
AcDbEllipse
 10
63.32275161988768
 20
450.2726562654727
 30
0.0
 11
1.198334562066612
 21
0.83637616784059
 31
0.0
210
0.0
220
0.0
230
1.0
 40
0.9257823955967291
 41
-0.1560929817159899
 42
2.6079954443948
  0
ELLIPSE
  5
16EE
330
A
100
AcDbEntity
  8
03
100
AcDbEllipse
 10
63.32275161988768
 20
451.1226562654726
 30
0.0
 11
1.198334562066819
 21
0.8363761678403232
 31
0.0
210
0.0
220
0.0
230
1.0
 40
0.9257823955967376
 41
-0.1560929817157497
 42
2.607995444395041
  0
ELLIPSE
  5
16EF
330
A
100
AcDbEntity
  8
03
100
AcDbEllipse
 10
63.32275161988768
 20
451.9726562654726
 30
0.0
 11
1.198334562066778
 21
0.8363761678404081
 31
0.0
210
0.0
220
0.0
230
1.0
 40
0.925782395596714
 41
-0.1560929817158263
 42
2.607995444394965
  0
ELLIPSE
  5
16F0
330
A
100
AcDbEntity
  8
03
100
AcDbEllipse
 10
63.32275161988768
 20
452.8226562654727
 30
0.0
 11
1.198334562066612
 21
0.83637616784059
 31
0.0
210
0.0
220
0.0
230
1.0
 40
0.9257823955967291
 41
-0.1560929817159899
 42
2.6079954443948
  0
ELLIPSE
  5
16F1
330
A
100
AcDbEntity
  8
03
100
AcDbEllipse
 10
63.32275161988768
 20
453.6726562654727
 30
0.0
 11
1.198334562066792
 21
0.836376167840293
 31
0.0
210
0.0
220
0.0
230
1.0
 40
0.9257823955967239
 41
-0.1560929817157302
 42
2.607995444395045
  0
ELLIPSE
  5
16F2
330
A
100
AcDbEntity
  8
03
100
AcDbEllipse
 10
63.32275161988768
 20
454.5226562654725
 30
0.0
 11
1.198334562066612
 21
0.83637616784059
 31
0.0
210
0.0
220
0.0
230
1.0
 40
0.9257823955967291
 41
-0.1560929817159899
 42
2.6079954443948
  0
ELLIPSE
  5
16F3
330
A
100
AcDbEntity
  8
03
100
AcDbEllipse
 10
63.32275161988768
 20
455.3726562654726
 30
0.0
 11
1.198334562066819
 21
0.8363761678403232
 31
0.0
210
0.0
220
0.0
230
1.0
 40
0.9257823955967376
 41
-0.1560929817157497
 42
2.607995444395041
  0
ELLIPSE
  5
16F4
330
A
100
AcDbEntity
  8
03
100
AcDbEllipse
 10
63.32275161988768
 20
456.2226562654727
 30
0.0
 11
1.198334562066768
 21
0.8363761678404245
 31
0.0
210
0.0
220
0.0
230
0.9999999999999998
 40
0.9257823955967163
 41
-0.1560929817158403
 42
2.607995444394951
  0
ELLIPSE
  5
16F5
330
A
100
AcDbEntity
  8
03
100
AcDbEllipse
 10
63.32275161988768
 20
457.0726562654725
 30
0.0
 11
1.198334562066612
 21
0.83637616784059
 31
0.0
210
0.0
220
0.0
230
1.0
 40
0.9257823955967291
 41
-0.1560929817159899
 42
2.6079954443948
  0
ARC
  5
16F7
330
A
100
AcDbEntity
  8
03
100
AcDbCircle
 10
62.14090593470853
 20
443.9790612116174
 30
0.0
 40
0.2176000000000001
100
AcDbArc
 50
104.9999999999998
 51
195.0
  0
LINE
  5
16F8
330
A
100
AcDbEntity
  8
03
100
AcDbLine
 10
61.98703949912236
 20
443.7125567276025
 30
0.0
 11
61.93072047490804
 21
443.9227421874029
 31
0.0
  0
ARC
  5
16F9
330
A
100
AcDbEntity
  8
03
100
AcDbCircle
 10
62.19722495892282
 20
443.7688757518167
 30
0.0
 40
0.2176000000000001
100
AcDbArc
 50
195.0
 51
285.0000000000004
  0
LINE
  5
16FA
330
A
100
AcDbEntity
  8
03
100
AcDbLine
 10
62.61085926479807
 20
443.6544326331807
 30
0.0
 11
62.25354398313712
 21
443.5586902920163
 31
0.0
  0
ARC
  5
16FB
330
A
100
AcDbEntity
  8
03
100
AcDbCircle
 10
62.72349731322667
 20
443.2340617135797
 30
0.0
 40
0.4352000000000002
100
AcDbArc
 50
14.99999999999976
 51
104.9999999999998
  0
LINE
  5
16FC
330
A
100
AcDbEntity
  8
03
100
AcDbLine
 10
63.239610573992
 20
442.9893844803474
 30
0.0
 11
63.14386823282767
 21
443.3466997620083
 31
0.0
  0
ARC
  5
16FD
330
A
100
AcDbEntity
  8
03
100
AcDbCircle
 10
63.44979603379254
 20
443.0457035045616
 30
0.0
 40
0.2176000000000001
100
AcDbArc
 50
195.0
 51
285.0000000000004
  0
LINE
  5
16FE
330
A
100
AcDbEntity
  8
03
100
AcDbLine
 10
63.71630051780731
 20
442.8918370689755
 30
0.0
 11
63.50611505800684
 21
442.8355180447613
 31
0.0
  0
ARC
  5
16FF
330
A
100
AcDbEntity
  8
03
100
AcDbCircle
 10
63.65998149359301
 20
443.102022528776
 30
0.0
 40
0.2176000000000001
100
AcDbArc
 50
285.0000000000004
 51
15.00000000000058
  0
LINE
  5
1700
330
A
100
AcDbEntity
  8
03
100
AcDbLine
 10
63.77442461222914
 20
443.5156568346512
 30
0.0
 11
63.87016695339347
 21
443.1583415529903
 31
0.0
  0
ARC
  5
1701
330
A
100
AcDbEntity
  8
03
100
AcDbCircle
 10
64.19479553183021
 20
443.6282948830799
 30
0.0
 40
0.4352000000000002
100
AcDbArc
 50
104.9999999999998
 51
195.0
  0
LINE
  5
1702
330
A
100
AcDbEntity
  8
03
100
AcDbLine
 10
64.4394727650624
 20
444.1444081438452
 30
0.0
 11
64.08215748340158
 21
444.0486658026808
 31
0.0
  0
ARC
  5
1703
330
A
100
AcDbEntity
  8
03
100
AcDbCircle
 10
64.3831537408481
 20
444.3545936036456
 30
0.0
 40
0.2176000000000001
100
AcDbArc
 50
285.0000000000004
 51
15.00000000000058
  0
LINE
  5
1704
330
A
100
AcDbEntity
  8
03
100
AcDbLine
 10
64.53702017643433
 20
444.6210980876605
 30
0.0
 11
64.59333920064863
 21
444.4109126278599
 31
0.0
  0
ARC
  5
1705
330
A
100
AcDbEntity
  8
03
100
AcDbCircle
 10
64.3268347166338
 20
444.5647790634462
 30
0.0
 40
0.2176000000000001
100
AcDbArc
 50
14.99999999999976
 51
104.9999999999998
  0
LINE
  5
1706
330
A
100
AcDbEntity
  8
03
100
AcDbLine
 10
63.91320041075862
 20
444.6792221820823
 30
0.0
 11
64.27051569241943
 21
444.7749645232467
 31
0.0
  0
ARC
  5
1707
330
A
100
AcDbEntity
  8
03
100
AcDbCircle
 10
63.80056236233
 20
445.0995931016833
 30
0.0
 40
0.4352000000000002
100
AcDbArc
 50
195.0
 51
285.0000000000004
  0
LINE
  5
1708
330
A
100
AcDbEntity
  8
03
100
AcDbLine
 10
63.28444910156467
 20
445.3442703349156
 30
0.0
 11
63.38019144272902
 21
444.9869550532547
 31
0.0
  0
ARC
  5
1709
330
A
100
AcDbEntity
  8
03
100
AcDbCircle
 10
63.0742636417642
 20
445.2879513107013
 30
0.0
 40
0.2176000000000001
100
AcDbArc
 50
14.99999999999976
 51
104.9999999999998
  0
LINE
  5
170A
330
A
100
AcDbEntity
  8
03
100
AcDbLine
 10
62.80775915774943
 20
445.4418177462875
 30
0.0
 11
63.01794461754989
 21
445.4981367705017
 31
0.0
  0
ARC
  5
170B
330
A
100
AcDbEntity
  8
03
100
AcDbCircle
 10
62.86407818196373
 20
445.2316322864869
 30
0.0
 40
0.2176000000000001
100
AcDbArc
 50
104.9999999999998
 51
195.0
  0
LINE
  5
170C
330
A
100
AcDbEntity
  8
03
100
AcDbLine
 10
62.74963506332749
 20
444.8179979806117
 30
0.0
 11
62.65389272216321
 21
445.1753132622726
 31
0.0
  0
ARC
  5
170D
330
A
100
AcDbEntity
  8
03
100
AcDbCircle
 10
62.32926414372649
 20
444.7053599321831
 30
0.0
 40
0.4352000000000002
100
AcDbArc
 50
285.0000000000004
 51
15.00000000000058
  0
LINE
  5
170E
330
A
100
AcDbEntity
  8
03
100
AcDbLine
 10
62.08458691049422
 20
444.1892466714178
 30
0.0
 11
62.44190219215511
 21
444.2849890125821
 31
0.0
  0
ELLIPSE
  5
170F
330
A
100
AcDbEntity
  8
03
100
AcDbEllipse
 10
63.26202983777832
 20
449.6918274076313
 30
0.0
 11
-1.436819322016081
 21
0.0000000000000001
 31
0.0
210
0.0
220
0.0
230
1.0
 40
0.9465351552286087
 41
3.459416357517691
 42
5.965361603251686
  0
LINE
  5
1710
330
A
100
AcDbEntity
  8
03
100
AcDbLine
 10
65.56230323633461
 20
445.4296209234521
 30
0.0
 11
64.62689002909524
 21
446.9148163796573
 31
0.0
  0
LINE
  5
1711
330
A
100
AcDbEntity
  8
03
100
AcDbLine
 10
60.9808786106252
 20
445.5035638884575
 30
0.0
 11
61.89716964646144
 21
446.9148163796573
 31
0.0
  0
ELLIPSE
  5
1712
330
A
100
AcDbEntity
  8
03
100
AcDbEllipse
 10
63.26202983777832
 20
445.6118274076315
 30
0.0
 11
2.124999999999868
 21
0.0000000000000407
 31
0.0
210
0.0
220
0.0
230
1.0
 40
0.8000000000000547
 41
0.8733177522920108
 42
2.268274901297733
  0
ELLIPSE
  5
1713
330
A
100
AcDbEntity
  8
03
100
AcDbEllipse
 10
63.26202983777832
 20
444.1668274076315
 30
0.0
 11
-2.54999999999999
 21
0.0
 31
0.0
210
0.0
220
0.0
230
1.0
 40
0.8
 41
3.245948626178247
 42
6.178829334591132
  0
ELLIPSE
  5
1714
330
A
100
AcDbEntity
  8
03
100
AcDbEllipse
 10
63.26202983777832
 20
444.5918274076315
 30
0.0
 11
-2.549999999999954
 21
0.0
 31
0.0
210
0.0
220
0.0
230
1.0
 40
0.8
 41
0.0
 42
6.283185307179585
  0
LINE
  5
1715
330
A
100
AcDbEntity
  8
03
100
AcDbLine
 10
64.62689002909524
 20
446.9148163796573
 30
0.0
 11
64.62689002909513
 21
458.6074398704168
 31
0.0
  0
LINE
  5
1716
330
A
100
AcDbEntity
  8
03
100
AcDbLine
 10
61.8971696464616
 20
457.7668274076312
 30
0.0
 11
61.89716964646144
 21
446.9148163796573
 31
0.0
  0
LINE
  5
1717
330
A
100
AcDbEntity
  8
CHUSIN
 48
0.6
100
AcDbLine
 10
63.26202983777834
 20
444.1668274076315
 30
0.0
 11
63.26202983777834
 21
438.2569378492172
 31
0.0
  0
ELLIPSE
  5
1786
330
A
100
AcDbEntity
  8
03
100
AcDbEllipse
 10
103.3227516198875
 20
457.9226562654726
 30
0.0
 11
1.198334562066612
 21
0.83637616784059
 31
0.0
210
0.0
220
0.0
230
1.0
 40
0.9257823955967291
 41
-0.1560929817159899
 42
2.6079954443948
  0
ELLIPSE
  5
178A
330
A
100
AcDbEntity
  8
03
100
AcDbEllipse
 10
63.29152536590805
 20
459.109693806681
 30
0.0
 11
0.6718061263854775
 21
0.8603514394692478
 31
0.0
210
0.0
220
0.0
230
1.0
 40
0.8750091957681405
 41
0.2680932133219484
 42
1.265817178021009
  0
LINE
  5
178B
330
A
100
AcDbEntity
  8
03
100
AcDbLine
 10
64.3291396186407
 20
458.9757119890732
 30
0.0
 11
63.26202983777832
 21
461.0028423594116
 31
0.0
  0
LINE
  5
178C
330
A
100
AcDbEntity
  8
03
100
AcDbLine
 10
62.24079243571132
 20
458.7497885175257
 30
0.0
 11
63.26202983777832
 21
461.0028423594116
 31
0.0
  0
ELLIPSE
  5
17A0
330
A
100
AcDbEntity
  8
03
100
AcDbEllipse
 10
63.32275161988778
 20
457.9226562654724
 30
0.0
 11
1.198334562066612
 21
0.83637616784059
 31
0.0
210
0.0
220
0.0
230
1.0
 40
0.9257823955967291
 41
-0.1560929817159899
 42
2.6079954443948
  0
LINE
  5
17A1
330
A
100
AcDbEntity
  8
03
100
AcDbLine
 10
104.3291396186407
 20
458.975711989073
 30
0.0
 11
103.2620298377783
 21
461.0028423594116
 31
0.0
  0
ELLIPSE
  5
17A2
330
A
100
AcDbEntity
  8
03
100
AcDbEllipse
 10
103.2915253659079
 20
459.109693806681
 30
0.0
 11
0.6718061263854775
 21
0.8603514394692478
 31
0.0
210
0.0
220
0.0
230
1.0
 40
0.8750091957681405
 41
0.2680932133219484
 42
1.265817178021009
  0
LINE
  5
17A3
330
A
100
AcDbEntity
  8
03
100
AcDbLine
 10
102.2407924357112
 20
458.7497885175257
 30
0.0
 11
103.2620298377783
 21
461.0028423594116
 31
0.0
  0
MTEXT
  5
180D
330
A
100
AcDbEntity
  8
MOJI
100
AcDbMText
 10
359.9999999999972
 20
29.00000000000005
 30
0.0
 40
7.0
 41
49.99999999999994
 71
     5
 72
     1
  1
よこ断面図　
  7
0_80
1001
ACAD
1000
MTEXTBEGIN
1070
    73
1070
     1
1070
    44
1040
1.0
1070
    74
1070
     0
1000
MTEXTEND
1000
MTEXTBEGIN
1070
    73
1070
     1
1070
    44
1040
1.0
1070
    74
1070
     0
1000
MTEXTEND
  0
MTEXT
  5
180E
330
A
100
AcDbEntity
  8
MOJI
100
AcDbMText
 10
309.9999999999968
 20
29.00000000000005
 30
0.0
 40
7.0
 41
50.0
 71
     5
 72
     1
  1
図番２－４
  7
0_80
1001
ACAD
1000
MTEXTBEGIN
1070
    73
1070
     1
1070
    44
1040
1.0
1070
    74
1070
     0
1000
MTEXTEND
1000
MTEXTBEGIN
1070
    73
1070
     1
1070
    44
1040
1.0
1070
    74
1070
     0
1000
MTEXTEND
  0
MTEXT
  5
180F
330
A
100
AcDbEntity
  8
MOJI
100
AcDbMText
 10
254.9999999999999
 20
29.00000000000005
 30
0.0
 40
7.0
 41
60.0
 71
     5
 72
     1
  1
片引き又は両引き
  7
0_80
1001
ACAD
1000
MTEXTBEGIN
1070
    73
1070
     1
1070
    44
1040
1.0
1070
    74
1070
     0
1000
MTEXTEND
1000
MTEXTBEGIN
1070
    73
1070
     1
1070
    44
1040
1.0
1070
    74
1070
     0
1000
MTEXTEND
  0
MTEXT
  5
1810
330
A
100
AcDbEntity
  8
MOJI
100
AcDbMText
 10
184.9999999999969
 20
29.50000000000006
 30
0.0
 40
7.0
 41
80.0
 71
     5
 72
     1
  1
Ｍ３台板
  7
0_8
1001
ACAD
1000
MTEXTBEGIN
1070
    73
1070
     1
1070
    44
1040
1.0
1070
    74
1070
     0
1000
MTEXTEND
1000
MTEXTBEGIN
1070
    73
1070
     1
1070
    44
1040
1.0
1070
    74
1070
     0
1000
MTEXTEND
  0
POLYLINE
  5
1811
330
A
100
AcDbEntity
  8
SAISEN
100
AcDb2dPolyline
 66
     1
 10
0.0
 20
0.0
 30
0.0
 70
     1
  0
VERTEX
  5
1867
330
1811
100
AcDbEntity
  8
SAISEN
100
AcDbVertex
100
AcDb2dVertex
 10
34.99999999999707
 20
17.0
 30
0.0
  0
VERTEX
  5
1868
330
1811
100
AcDbEntity
  8
SAISEN
100
AcDbVertex
100
AcDb2dVertex
 10
384.999999999997
 20
17.0
 30
0.0
  0
VERTEX
  5
1869
330
1811
100
AcDbEntity
  8
SAISEN
100
AcDbVertex
100
AcDb2dVertex
 10
384.999999999997
 20
42.00000000000017
 30
0.0
  0
VERTEX
  5
186A
330
1811
100
AcDbEntity
  8
SAISEN
100
AcDbVertex
100
AcDb2dVertex
 10
34.99999999999707
 20
42.00000000000017
 30
0.0
  0
SEQEND
  5
186B
330
1811
100
AcDbEntity
  8
SAISEN
  0
MTEXT
  5
1812
330
A
100
AcDbEntity
  8
MOJI
100
AcDbMText
 10
89.99999999999706
 20
29.50000000000006
 30
0.0
 40
7.0
 41
110.0
 71
     5
 72
     1
  1
木製建具ユニット台板納り
  7
0_8
1001
ACAD
1000
MTEXTBEGIN
1070
    73
1070
     1
1070
    44
1040
1.0
1070
    74
1070
     0
1000
MTEXTEND
1000
MTEXTBEGIN
1070
    73
1070
     1
1070
    44
1040
1.0
1070
    74
1070
     0
1000
MTEXTEND
  0
LINE
  5
1813
330
A
100
AcDbEntity
  8
SAISEN
100
AcDbLine
 10
144.999999999997
 20
42.00000000000017
 30
0.0
 11
144.999999999997
 21
17.0
 31
0.0
  0
LINE
  5
1814
330
A
100
AcDbEntity
  8
SAISEN
100
AcDbLine
 10
224.9999999999969
 20
42.00000000000017
 30
0.0
 11
224.9999999999969
 21
17.0
 31
0.0
  0
LINE
  5
1815
330
A
100
AcDbEntity
  8
SAISEN
100
AcDbLine
 10
284.9999999999969
 20
42.00000000000017
 30
0.0
 11
284.9999999999969
 21
17.0
 31
0.0
  0
VIEWPORT
  5
599
102
{ACAD_XDICTIONARY
360
1847
102
}
330
B
100
AcDbEntity
 67
     1
  8
0
100
AcDbViewport
 10
200.8632633104637
 20
282.0278084014519
 30
0.0
 40
1030.552740959996
 41
600.5058674350679
 68
     1
 69
     1
1001
ACAD
1000
MVIEW
1002
{
1070
    16
1010
0.0
1020
0.0
1030
0.0
1010
0.0
1020
0.0
1030
1.0
1040
0.0
1040
600.5058674350679
1040
200.8632633104637
1040
282.0278084014519
1040
50.0
1040
0.0
1040
0.0
1070
     0
1070
   100
1070
     1
1070
     1
1070
     0
1070
     0
1070
     0
1070
     0
1040
0.0
1040
0.0
1040
0.0
1040
10.0
1040
10.0
1040
10.0
1040
10.0
1070
     0
1002
{
1002
}
1002
}
  0
VIEWPORT
  5
182F
102
{ACAD_XDICTIONARY
360
184D
102
}
330
B
100
AcDbEntity
 67
     1
  8
DEFPOINTS
100
AcDbViewport
 10
200.8632642642261
 20
282.0278074476894
 30
0.0
 40
396.4883172119752
 41
570.409736121624
 68
     2
 69
     2
1001
ACAD
1000
MVIEW
1002
{
1070
    16
1010
0.0
1020
0.0
1030
0.0
1010
0.0
1020
0.0
1030
1.0
1040
0.0
1040
570.409736121624
1040
210.0
1040
297.0
1040
50.0
1040
0.0
1040
0.0
1070
     0
1070
   100
1070
     1
1070
     1
1070
     0
1070
     0
1070
     0
1070
     0
1040
0.0
1040
0.0
1040
0.0
1040
1.0
1040
1.0
1040
0.0
1040
0.0
1070
     0
1002
{
1002
}
1002
}
  0
ENDSEC
  0
SECTION
  2
OBJECTS
  0
DICTIONARY
  5
19
330
0
100
AcDbDictionary
  3
ACAD_COLOR
350
CFD
  3
ACAD_GROUP
350
1A
  3
ACAD_IMAGE_VARS
350
534
  3
ACAD_LAYOUT
350
420
  3
ACAD_MATERIAL
350
CFC
  3
ACAD_MLINESTYLE
350
1B
  3
ACAD_PLOTSETTINGS
350
421
  3
ACADDIM
350
B02
  3
ASE_INDEX_DICTIONARY
350
1816
  3
DWGPROPS
350
1843
1001
ACAD
1000
TREAT_AS_HARD
1070
     0
1000
TREAT_AS_HARD
1070
     0
  0
DICTIONARY
  5
17FD
330
2
100
AcDbDictionary
  3
ACAD_LAYERSTATES
350
17FE
1001
ACAD
1000
TREAT_AS_HARD
1070
     1
  0
DICTIONARY
  5
17B7
330
A
100
AcDbDictionary
  3
ACAD_LAYOUTSELFREF
350
1855
1001
ACAD
1000
TREAT_AS_HARD
1070
     1
  0
DICTIONARY
  5
17B9
330
B
100
AcDbDictionary
  3
ACAD_LAYOUTSELFREF
350
1856
1001
ACAD
1000
TREAT_AS_HARD
1070
     1
  0
DICTIONARY
  5
1847
330
599
100
AcDbDictionary
  3
ACAD_XREC_ROUNDTRIP
350
1848
1001
ACAD
1000
TREAT_AS_HARD
1070
     1
  0
DICTIONARY
  5
184D
330
182F
100
AcDbDictionary
  3
ACAD_XREC_ROUNDTRIP
350
184E
1001
ACAD
1000
TREAT_AS_HARD
1070
     1
  0
DICTIONARY
  5
CFD
102
{ACAD_REACTORS
330
19
102
}
330
19
100
AcDbDictionary
1001
ACAD
1000
TREAT_AS_HARD
1070
     0
1000
TREAT_AS_HARD
1070
     0
  0
DICTIONARY
  5
1A
102
{ACAD_REACTORS
330
19
102
}
330
19
100
AcDbDictionary
  3
*A1
350
11E7
  3
*A2
350
11E8
  3
DAGROUP2C8
350
2C8
  3
DAGROUP2CE
350
2CE
  3
DAGROUP2D4
350
2D4
  3
DAGROUP2DA
350
2DA
  3
DAGROUP2E0
350
2E0
  3
DAGROUP2E6
350
2E6
  3
DAGROUP2EC
350
2EC
  3
DAGROUP2F2
350
2F2
  3
DAGROUP2F6
350
2F6
  3
DAGROUP2FA
350
2FA
  3
DAGROUP2FE
350
2FE
  3
DAGROUP302
350
302
  3
DAGROUP306
350
306
1001
ACAD
1000
TREAT_AS_HARD
1070
     0
1000
TREAT_AS_HARD
1070
     0
  0
RASTERVARIABLES
  5
534
102
{ACAD_REACTORS
330
19
102
}
330
19
100
AcDbRasterVariables
 90
        0
 70
     1
 71
     1
 72
     0
  0
DICTIONARY
  5
420
102
{ACAD_REACTORS
330
19
102
}
330
19
100
AcDbDictionary
1001
ACAD
1000
TREAT_AS_HARD
1070
     0
1000
TREAT_AS_HARD
1070
     0
  0
DICTIONARY
  5
CFC
102
{ACAD_REACTORS
330
19
102
}
330
19
100
AcDbDictionary
1001
ACAD
1000
TREAT_AS_HARD
1070
     0
1000
TREAT_AS_HARD
1070
     0
  0
DICTIONARY
  5
1B
102
{ACAD_REACTORS
330
19
102
}
330
19
100
AcDbDictionary
  3
STANDARD
350
1C
1001
ACAD
1000
TREAT_AS_HARD
1070
     0
1000
TREAT_AS_HARD
1070
     0
  0
DICTIONARY
  5
421
102
{ACAD_REACTORS
330
19
102
}
330
19
100
AcDbDictionary
1001
ACAD
1000
TREAT_AS_HARD
1070
     0
1000
TREAT_AS_HARD
1070
     0
  0
XRECORD
  5
B02
102
{ACAD_REACTORS
330
19
102
}
330
19
100
AcDbXrecord
 90
   990106
  3

 60
     0
 61
     0
 62
     1
 63
     3
 64
     1
 65
     0
 66
     0
 67
     3
 68
     1
 69
     0
 70
     0
 71
     0
 72
     0
 40
0.0
170
     2
340
0
  0
DICTIONARY
  5
1816
102
{ACAD_REACTORS
330
19
102
}
330
19
100
AcDbDictionary
  3
ASEBLOCKHIERARCHYINDEXRECORD
350
1817
1001
DCO15
1040
1508667674.078
1001
ACAD
1000
TREAT_AS_HARD
1070
     0
  0
XRECORD
  5
1843
102
{ACAD_REACTORS
330
19
102
}
330
19
100
AcDbXrecord
  1
DWGPROPS COOKIE
  2

  3

  4

  6

  7

  8
watanabe
  9

300
=
301
=
302
=
303
=
304
=
305
=
306
=
307
=
308
=
309
=
 40
0.3704600925925926
 41
2444972.375
 42
2453265.75661169
  1

 90
        0
  0
DICTIONARY
  5
17FE
102
{ACAD_REACTORS
330
17FD
102
}
330
17FD
100
AcDbDictionary
1001
ACAD
1000
TREAT_AS_HARD
1070
     0
  0
XRECORD
  5
1855
102
{ACAD_REACTORS
330
17B7
102
}
330
17B7
100
AcDbXrecord
340
A
  0
XRECORD
  5
1856
102
{ACAD_REACTORS
330
17B9
102
}
330
17B9
100
AcDbXrecord
340
B
  0
XRECORD
  5
1848
102
{ACAD_REACTORS
330
1847
102
}
330
1847
100
AcDbXrecord
102
SHADEPLOT
 70
     0
  0
XRECORD
  5
184E
102
{ACAD_REACTORS
330
184D
102
}
330
184D
100
AcDbXrecord
102
SHADEPLOT
 70
     0
  0
GROUP
  5
11E7
102
{ACAD_REACTORS
330
1A
102
}
330
1A
100
AcDbGroup
300

 70
     1
 71
     1
  0
GROUP
  5
11E8
102
{ACAD_REACTORS
330
1A
102
}
330
1A
100
AcDbGroup
300

 70
     1
 71
     1
  0
GROUP
  5
2C8
102
{ACAD_REACTORS
330
1A
102
}
330
1A
100
AcDbGroup
300

 70
     0
 71
     1
  0
GROUP
  5
2CE
102
{ACAD_REACTORS
330
1A
102
}
330
1A
100
AcDbGroup
300

 70
     0
 71
     1
  0
GROUP
  5
2D4
102
{ACAD_REACTORS
330
1A
102
}
330
1A
100
AcDbGroup
300

 70
     0
 71
     1
  0
GROUP
  5
2DA
102
{ACAD_REACTORS
330
1A
102
}
330
1A
100
AcDbGroup
300

 70
     0
 71
     1
  0
GROUP
  5
2E0
102
{ACAD_REACTORS
330
1A
102
}
330
1A
100
AcDbGroup
300

 70
     0
 71
     1
  0
GROUP
  5
2E6
102
{ACAD_REACTORS
330
1A
102
}
330
1A
100
AcDbGroup
300

 70
     0
 71
     1
  0
GROUP
  5
2EC
102
{ACAD_REACTORS
330
1A
102
}
330
1A
100
AcDbGroup
300

 70
     0
 71
     1
  0
GROUP
  5
2F2
102
{ACAD_REACTORS
330
1A
102
}
330
1A
100
AcDbGroup
300

 70
     0
 71
     1
  0
GROUP
  5
2F6
102
{ACAD_REACTORS
330
1A
102
}
330
1A
100
AcDbGroup
300

 70
     0
 71
     1
  0
GROUP
  5
2FA
102
{ACAD_REACTORS
330
1A
102
}
330
1A
100
AcDbGroup
300

 70
     0
 71
     1
  0
GROUP
  5
2FE
102
{ACAD_REACTORS
330
1A
102
}
330
1A
100
AcDbGroup
300

 70
     0
 71
     1
  0
GROUP
  5
302
102
{ACAD_REACTORS
330
1A
102
}
330
1A
100
AcDbGroup
300

 70
     0
 71
     1
  0
GROUP
  5
306
102
{ACAD_REACTORS
330
1A
102
}
330
1A
100
AcDbGroup
300

 70
     0
 71
     1
  0
MLINESTYLE
  5
1C
102
{ACAD_REACTORS
330
1B
102
}
330
1B
100
AcDbMlineStyle
  2
STANDARD
 70
     0
  3

 62
     0
 51
90.00000000000019
 52
90.00000000000019
 71
     2
 49
0.5
 62
   256
  6
BYLAYER
 49
-0.5
 62
   256
  6
BYLAYER
  0
XRECORD
  5
1817
102
{ACAD_REACTORS
330
1816
102
}
330
1816
100
AcDbXrecord
330
B4C
330
B59
330
F0C
330
F0D
330
F03
330
F04
330
EF9
330
EFA
330
EF0
330
EF1
330
EE8
330
EE7
330
EDE
330
EDF
330
1115
330
1116
330
1132
330
1133
330
EC3
330
EC4
330
113E
330
113F
330
EB0
330
EB1
330
EA7
330
EA8
330
E9E
330
E9F
330
E95
330
E96
330
E8A
330
E8B
330
10B8
330
10B9
330
E76
330
E77
330
E6B
330
E6C
330
E62
330
E63
330
E56
330
E57
330
E4E
330
E4F
  0
ENDSEC
  0
EOF
