  0
SECTION
  2
HEADER
  9
$ACADVER
  1
AC1012
  9
$DWGCODEPAGE
  3
dos932
  9
$INSBASE
 10
0.0
 20
0.0
 30
0.0
  9
$EXTMIN
 10
0.0
 20
0.0
 30
0.0
  9
$EXTMAX
 10
420.0000000000001
 20
594.0
 30
0.0
  9
$LIMMIN
 10
0.0
 20
0.0000000000000257
  9
$LIMMAX
 10
420.0000000000001
 20
594.0
  9
$ORTHOMODE
 70
     1
  9
$REGENMODE
 70
     1
  9
$FILLMODE
 70
     1
  9
$QTEXTMODE
 70
     0
  9
$MIRRTEXT
 70
     1
  9
$DRAGMODE
 70
     2
  9
$LTSCALE
 40
0.5
  9
$OSMODE
 70
    37
  9
$ATTMODE
 70
     1
  9
$TEXTSIZE
 40
3.5
  9
$TRACEWID
 40
0.05
  9
$TEXTSTYLE
  7
SUNPOU
  9
$CLAYER
  8
DEFPOINTS
  9
$CELTYPE
  6
BYLAYER
  9
$CECOLOR
 62
   256
  9
$CELTSCALE
 40
1.0
  9
$DELOBJ
 70
     1
  9
$DISPSILH
 70
     0
  9
$DIMSCALE
 40
2.0
  9
$DIMASZ
 40
2.5
  9
$DIMEXO
 40
1.5
  9
$DIMDLI
 40
0.0
  9
$DIMRND
 40
0.0
  9
$DIMDLE
 40
0.0
  9
$DIMEXE
 40
1.0
  9
$DIMTP
 40
0.0
  9
$DIMTM
 40
0.0
  9
$DIMTXT
 40
2.5
  9
$DIMCEN
 40
0.0
  9
$DIMTSZ
 40
0.0
  9
$DIMTOL
 70
     0
  9
$DIMLIM
 70
     0
  9
$DIMTIH
 70
     0
  9
$DIMTOH
 70
     0
  9
$DIMSE1
 70
     0
  9
$DIMSE2
 70
     0
  9
$DIMTAD
 70
     1
  9
$DIMZIN
 70
     8
  9
$DIMBLK
  1
OPEN30
  9
$DIMASO
 70
     1
  9
$DIMSHO
 70
     1
  9
$DIMPOST
  1

  9
$DIMAPOST
  1

  9
$DIMALT
 70
     0
  9
$DIMALTD
 70
     2
  9
$DIMALTF
 40
25.4
  9
$DIMLFAC
 40
1.0
  9
$DIMTOFL
 70
     1
  9
$DIMTVP
 40
0.0
  9
$DIMTIX
 70
     0
  9
$DIMSOXD
 70
     0
  9
$DIMSAH
 70
     0
  9
$DIMBLK1
  1

  9
$DIMBLK2
  1

  9
$DIMSTYLE
  2
SUNPOU_2
  9
$DIMCLRD
 70
   256
  9
$DIMCLRE
 70
   256
  9
$DIMCLRT
 70
   256
  9
$DIMTFAC
 40
1.0
  9
$DIMGAP
 40
1.0
  9
$DIMJUST
 70
     0
  9
$DIMSD1
 70
     0
  9
$DIMSD2
 70
     0
  9
$DIMTOLJ
 70
     1
  9
$DIMTZIN
 70
     0
  9
$DIMALTZ
 70
     0
  9
$DIMALTTZ
 70
     0
  9
$DIMFIT
 70
     3
  9
$DIMUPT
 70
     0
  9
$DIMUNIT
 70
     2
  9
$DIMDEC
 70
     1
  9
$DIMTDEC
 70
     1
  9
$DIMALTU
 70
     2
  9
$DIMALTTD
 70
     2
  9
$DIMTXSTY
  7
SUNPOU
  9
$DIMAUNIT
 70
     0
  9
$LUNITS
 70
     2
  9
$LUPREC
 70
     4
  9
$SKETCHINC
 40
0.1
  9
$FILLETRAD
 40
0.0
  9
$AUNITS
 70
     0
  9
$AUPREC
 70
     0
  9
$MENU
  1
acad
  9
$ELEVATION
 40
0.0
  9
$PELEVATION
 40
0.0
  9
$THICKNESS
 40
0.0
  9
$LIMCHECK
 70
     0
  9
$BLIPMODE
 70
     0
  9
$CHAMFERA
 40
0.0
  9
$CHAMFERB
 40
0.0
  9
$CHAMFERC
 40
0.0
  9
$CHAMFERD
 40
0.0
  9
$SKPOLY
 70
     0
  9
$TDCREATE
 40
2444972.375000000
  9
$TDUPDATE
 40
2453266.401511493
  9
$TDINDWG
 40
0.6662790972
  9
$TDUSRTIMER
 40
0.6662790972
  9
$USRTIMER
 70
     1
  9
$ANGBASE
 50
0.0
  9
$ANGDIR
 70
     0
  9
$PDMODE
 70
     0
  9
$PDSIZE
 40
1.0
  9
$PLINEWID
 40
0.0
  9
$COORDS
 70
     1
  9
$SPLFRAME
 70
     0
  9
$SPLINETYPE
 70
     6
  9
$SPLINESEGS
 70
     8
  9
$ATTDIA
 70
     0
  9
$ATTREQ
 70
     1
  9
$HANDLING
 70
-16383
  9
$HANDSEED
  5
2376
  9
$SURFTAB1
 70
     6
  9
$SURFTAB2
 70
     6
  9
$SURFTYPE
 70
     6
  9
$SURFU
 70
     6
  9
$SURFV
 70
     6
  9
$UCSNAME
  2

  9
$UCSORG
 10
0.0
 20
0.0
 30
0.0
  9
$UCSXDIR
 10
1.0
 20
0.0
 30
0.0
  9
$UCSYDIR
 10
0.0
 20
1.0
 30
0.0
  9
$PUCSNAME
  2

  9
$PUCSORG
 10
0.0
 20
0.0
 30
0.0
  9
$PUCSXDIR
 10
1.0
 20
0.0
 30
0.0
  9
$PUCSYDIR
 10
0.0
 20
1.0
 30
0.0
  9
$USERI1
 70
     0
  9
$USERI2
 70
     0
  9
$USERI3
 70
     0
  9
$USERI4
 70
     0
  9
$USERI5
 70
     0
  9
$USERR1
 40
0.0
  9
$USERR2
 40
0.0
  9
$USERR3
 40
0.0
  9
$USERR4
 40
0.0
  9
$USERR5
 40
0.0
  9
$WORLDVIEW
 70
     1
  9
$SHADEDGE
 70
     3
  9
$SHADEDIF
 70
    70
  9
$TILEMODE
 70
     1
  9
$MAXACTVP
 70
    16
  9
$PINSBASE
 10
0.0
 20
0.0
 30
0.0
  9
$PLIMCHECK
 70
     0
  9
$PEXTMIN
 10
-0.1933276983398855
 20
-0.0174202791267817
 30
-0.0015258207003583
  9
$PEXTMAX
 10
396.2949895136353
 20
570.3923158424973
 30
0.0000000349246037
  9
$PLIMMIN
 10
-11.94191342824454
 20
-11.76600219398141
  9
$PLIMMAX
 10
408.0435733360149
 20
582.1408996648768
  9
$UNITMODE
 70
     0
  9
$VISRETAIN
 70
     0
  9
$PLINEGEN
 70
     1
  9
$PSLTSCALE
 70
     0
  9
$TREEDEPTH
 70
  3020
  9
$PICKSTYLE
 70
     1
  9
$CMLSTYLE
  2
STANDARD
  9
$CMLJUST
 70
     0
  9
$CMLSCALE
 40
1.0
  9
$SAVEIMAGES
 70
     1
  0
ENDSEC
  0
SECTION
  2
CLASSES
  0
CLASS
  1
LWPOLYLINE
  2
AcDbPolyline
  3
AutoCAD 2000
 90
    32768
280
     0
281
     1
  0
CLASS
  1
IMAGE
  2
AcDbRasterImage
  3
ISM
 90
    32895
280
     0
281
     1
  0
CLASS
  1
OLE2FRAME
  2
AcDbOle2Frame
  3
AutoCAD 2000
 90
    32768
280
     0
281
     1
  0
CLASS
  1
HATCH
  2
AcDbHatch
  3
AutoCAD 2000
 90
    32768
280
     0
281
     1
  0
CLASS
  1
DICTIONARYVAR
  2
AcDbDictionaryVar
  3
AutoCAD 2000
 90
    32768
280
     0
281
     0
  0
CLASS
  1
RASTERVARIABLES
  2
AcDbRasterVariables
  3
ISM
 90
    32768
280
     0
281
     0
  0
CLASS
  1
IMAGEDEF
  2
AcDbRasterImageDef
  3
ISM
 90
    32768
280
     0
281
     0
  0
CLASS
  1
IMAGEDEF_REACTOR
  2
AcDbRasterImageDefReactor
  3
ISM
 90
    32769
280
     0
281
     0
  0
CLASS
  1
IDBUFFER
  2
AcDbIdBuffer
  3
AutoCAD 2000
 90
    32768
280
     0
281
     0
  0
CLASS
  1
SPATIAL_FILTER
  2
AcDbSpatialFilter
  3
AutoCAD 2000
 90
    32768
280
     0
281
     0
  0
CLASS
  1
XRECORD
  2
AcDbXrecord
  3
AutoCAD 2000
 90
    32768
280
     0
281
     0
  0
CLASS
  1
SORTENTSTABLE
  2
AcDbSortentsTable
  3
AutoCAD 2000
 90
    32768
280
     0
281
     0
  0
CLASS
  1
LAYER_INDEX
  2
AcDbLayerIndex
  3
AutoCAD 2000
 90
    32768
280
     0
281
     0
  0
CLASS
  1
SPATIAL_INDEX
  2
AcDbSpatialIndex
  3
AutoCAD 2000
 90
    32768
280
     0
281
     0
  0
CLASS
  1
OBJECT_PTR
  2
CAseDLPNTableRecord
  3
ASE-LPNTableRecord
 90
    32769
280
     0
281
     0
  0
CLASS
  1
ACDBDICTIONARYWDFLT
  2
AcDbDictionaryWithDefault
  3
AutoCAD 2000
 90
    32768
280
     0
281
     0
  0
CLASS
  1
ACDBPLACEHOLDER
  2
AcDbPlaceHolder
  3
AutoCAD 2000
 90
    32768
280
     0
281
     0
  0
CLASS
  1
LAYOUT
  2
AcDbLayout
  3
AutoCAD 2000
 90
    32768
280
     0
281
     0
  0
CLASS
  1
LONG_TRANSACTION
  2
AcDbLongTransaction
  3
AutoCAD 2000
 90
    32768
280
     0
281
     0
  0
CLASS
  1
LWPOLYLINE
  2
AcDbPolyline
  3
AutoCAD 2000
 90
    32768
280
     0
281
     1
  0
CLASS
  1
HATCH
  2
AcDbHatch
  3
AutoCAD 2000
 90
    32768
280
     0
281
     1
  0
CLASS
  1
XRECORD
  2
AcDbXrecord
  3
AutoCAD 2000
 90
    32768
280
     0
281
     0
  0
CLASS
  1
LONG_TRANSACTION
  2
AcDbLongTransaction
  3
AutoCAD 2000
 90
    32768
280
     0
281
     0
  0
CLASS
  1
LWPOLYLINE
  2
AcDbPolyline
  3
AutoCAD 2000
 90
    32768
280
     0
281
     1
  0
CLASS
  1
HATCH
  2
AcDbHatch
  3
AutoCAD 2000
 90
    32768
280
     0
281
     1
  0
CLASS
  1
XRECORD
  2
AcDbXrecord
  3
AutoCAD 2000
 90
    32768
280
     0
281
     0
  0
ENDSEC
  0
SECTION
  2
TABLES
  0
TABLE
  2
VPORT
  5
7
330
0
100
AcDbSymbolTable
 70
     2
  0
VPORT
  5
2318
330
7
100
AcDbSymbolTableRecord
100
AcDbViewportTableRecord
  2
*ACTIVE
 70
     0
 10
0.0
 20
0.0
 11
1.0
 21
1.0
 12
229.3227250069835
 22
297.0000145226395
 13
0.0
 23
0.0
 14
1.0
 24
1.0
 15
0.0
 25
0.0
 16
0.0
 26
0.0
 36
1.0
 17
0.0
 27
0.0
 37
0.0
 40
601.3774384689145
 41
1.780442804428044
 42
50.0
 43
0.0
 44
0.0
 50
0.0
 51
0.0
 71
     0
 72
   100
 73
     1
 74
     1
 75
     0
 76
     0
 77
     0
 78
     0
  0
ENDTAB
  0
TABLE
  2
LTYPE
  5
4
330
0
100
AcDbSymbolTable
 70
     3
  0
LTYPE
  5
11
330
4
100
AcDbSymbolTableRecord
100
AcDbLinetypeTableRecord
  2
BYBLOCK
 70
     0
  3

 72
    65
 73
     0
 40
0.0
  0
LTYPE
  5
12
330
4
100
AcDbSymbolTableRecord
100
AcDbLinetypeTableRecord
  2
BYLAYER
 70
     0
  3

 72
    65
 73
     0
 40
0.0
  0
LTYPE
  5
13
330
4
100
AcDbSymbolTableRecord
100
AcDbLinetypeTableRecord
  2
CONTINUOUS
 70
     0
  3
Solid line
 72
    65
 73
     0
 40
0.0
  0
LTYPE
  5
71B
330
4
100
AcDbSymbolTableRecord
100
AcDbLinetypeTableRecord
  2
CENTER2
 70
     0
  3
Center (.5x) ___ _ ___ _ ___ _ ___ _ ___ _ ___
 72
    65
 73
     4
 40
28.57499999999999
 49
19.05
 74
     0
 49
-3.174999999999998
 74
     0
 49
3.174999999999998
 74
     0
 49
-3.174999999999998
 74
     0
  0
LTYPE
  5
71C
330
4
100
AcDbSymbolTableRecord
100
AcDbLinetypeTableRecord
  2
DASHED2
 70
     0
  3
Dashed (.5x) _ _ _ _ _ _ _ _ _ _ _ _ _ _ _ _ _
 72
    65
 73
     2
 40
9.524999999999996
 49
6.349999999999998
 74
     0
 49
-3.174999999999998
 74
     0
  0
ENDTAB
  0
TABLE
  2
LAYER
  5
2
102
{ACAD_XDICTIONARY
360
22AE
102
}
330
0
100
AcDbSymbolTable
 70
    11
  0
LAYER
  5
14
330
2
100
AcDbSymbolTableRecord
100
AcDbLayerTableRecord
  2
0
 70
     0
 62
     7
  6
CONTINUOUS
  0
LAYER
  5
71E
330
2
100
AcDbSymbolTableRecord
100
AcDbLayerTableRecord
  2
DEFPOINTS
 70
     0
 62
     7
  6
CONTINUOUS
  0
LAYER
  5
71F
330
2
100
AcDbSymbolTableRecord
100
AcDbLayerTableRecord
  2
03
 70
     0
 62
     3
  6
CONTINUOUS
  0
LAYER
  5
720
330
2
100
AcDbSymbolTableRecord
100
AcDbLayerTableRecord
  2
04
 70
     0
 62
     4
  6
CONTINUOUS
  0
LAYER
  5
721
330
2
100
AcDbSymbolTableRecord
100
AcDbLayerTableRecord
  2
06
 70
     0
 62
     6
  6
CONTINUOUS
  0
LAYER
  5
722
330
2
100
AcDbSymbolTableRecord
100
AcDbLayerTableRecord
  2
CHUSIN
 70
     0
 62
     6
  6
CENTER2
  0
LAYER
  5
723
330
2
100
AcDbSymbolTableRecord
100
AcDbLayerTableRecord
  2
HIKIDASI
 70
     0
 62
     6
  6
CONTINUOUS
  0
LAYER
  5
724
330
2
100
AcDbSymbolTableRecord
100
AcDbLayerTableRecord
  2
KAKURE
 70
     0
 62
     6
  6
DASHED2
  0
LAYER
  5
725
330
2
100
AcDbSymbolTableRecord
100
AcDbLayerTableRecord
  2
MOJI
 70
     0
 62
     3
  6
CONTINUOUS
  0
LAYER
  5
727
330
2
100
AcDbSymbolTableRecord
100
AcDbLayerTableRecord
  2
SUNPOU
 70
     0
 62
     6
  6
CONTINUOUS
  0
LAYER
  5
174C
330
2
100
AcDbSymbolTableRecord
100
AcDbLayerTableRecord
  2
SAISEN
 70
     0
 62
     3
  6
CONTINUOUS
  0
ENDTAB
  0
TABLE
  2
STYLE
  5
3
330
0
100
AcDbSymbolTable
 70
     4
  0
STYLE
  5
17
330
3
100
AcDbSymbolTableRecord
100
AcDbTextStyleTableRecord
  2
STANDARD
 70
     0
 40
0.0
 41
0.9
 50
0.0
 71
     0
 42
6.0
  3
txt.shx
  4
bigfont.shx
  0
STYLE
  5
732
330
3
100
AcDbSymbolTableRecord
100
AcDbTextStyleTableRecord
  2
SUNPOU
 70
     0
 40
0.0
 41
0.8
 50
0.0
 71
     0
 42
3.5
  3
txt.shx
  4
extfont.shx
  0
STYLE
  5
73A
330
3
100
AcDbSymbolTableRecord
100
AcDbTextStyleTableRecord
  2
0_8
 70
     0
 40
0.0
 41
0.8
 50
0.0
 71
     0
 42
6.0
  3
txt.shx
  4
extfont.shx
  0
STYLE
  5
22AC
330
3
100
AcDbSymbolTableRecord
100
AcDbTextStyleTableRecord
  2
0_80
 70
     0
 40
0.0
 41
0.8
 50
0.0
 71
     0
 42
7.0
  3
txt.shx
  4
extfont.shx
  0
ENDTAB
  0
TABLE
  2
VIEW
  5
5
330
0
100
AcDbSymbolTable
 70
     2
  0
VIEW
  5
136
330
5
100
AcDbSymbolTableRecord
100
AcDbViewTableRecord
  2
QQQQ
 70
     0
 40
618.7999999999998
 10
-6.0
 20
-1.0
 41
419.8999999999999
 11
0.0
 21
0.0
 31
1.0
 12
100.0
 22
100.0
 32
0.0
 42
50.0
 43
0.0
 44
0.0
 50
0.0
 71
     0
  0
VIEW
  5
C4D
330
5
100
AcDbSymbolTableRecord
100
AcDbViewTableRecord
  2
OLE1
 70
     0
 40
70.81768729956434
 10
142.5574739654288
 20
518.9961637755815
 41
93.03754881924415
 11
0.0
 21
0.0
 31
1.0
 12
0.0
 22
0.0
 32
0.0
 42
50.0
 43
0.0
 44
0.0
 50
0.0
 71
     0
  0
ENDTAB
  0
TABLE
  2
UCS
  5
6
330
0
100
AcDbSymbolTable
 70
     0
  0
ENDTAB
  0
TABLE
  2
APPID
  5
8
330
0
100
AcDbSymbolTable
 70
     3
  0
APPID
  5
16
330
8
100
AcDbSymbolTableRecord
100
AcDbRegAppTableRecord
  2
ACAD
 70
     0
  0
APPID
  5
842
330
8
100
AcDbSymbolTableRecord
100
AcDbRegAppTableRecord
  2
DCO15
 70
     0
  0
APPID
  5
223F
330
8
100
AcDbSymbolTableRecord
100
AcDbRegAppTableRecord
  2
CONTENTBLOCKICON
 70
     0
  0
ENDTAB
  0
TABLE
  2
DIMSTYLE
  5
9
330
0
100
AcDbSymbolTable
 70
     3
  0
DIMSTYLE
105
733
102
{ACAD_REACTORS
330
78F
330
79C
330
7A9
330
7B8
330
7C5
330
7D2
330
7DF
330
7EC
330
7F9
330
806
330
813
330
820
330
B4D
330
B7C
330
B89
330
B98
330
A84
330
A6E
330
A46
330
A26
330
90A
330
8FD
330
C43
330
114E
330
1156
330
1168
330
116C
330
1170
330
1174
330
1188
330
176D
330
1771
102
}
330
9
100
AcDbSymbolTableRecord
100
AcDbDimStyleTableRecord
  2
SUNPOU_2
 70
     0
  3

  4

  5
OPEN30
  6

  7

 40
2.0
 41
2.5
 42
1.5
 43
0.0
 44
1.0
 45
0.0
 46
0.0
 47
0.0
 48
0.0
140
2.5
141
0.0
142
0.0
143
25.4
144
1.0
145
0.0
146
1.0
147
1.0
 71
     0
 72
     0
 73
     0
 74
     0
 75
     0
 76
     0
 77
     1
 78
     8
170
     0
171
     2
172
     1
173
     0
174
     0
175
     0
176
   256
177
   256
178
   256
270
     2
271
     1
272
     1
273
     2
274
     2
340
732
275
     0
280
     0
281
     0
282
     0
283
     1
284
     0
285
     0
286
     0
287
     3
288
     0
  0
DIMSTYLE
105
734
102
{ACAD_REACTORS
330
864
330
88F
330
8B1
330
8EE
330
917
102
}
330
9
100
AcDbSymbolTableRecord
100
AcDbDimStyleTableRecord
  2
SUNPOU_2_20
 70
     0
  3

  4

  5
OPEN30
  6

  7

 40
2.0
 41
2.5
 42
1.5
 43
0.0
 44
1.0
 45
0.0
 46
0.0
 47
0.0
 48
0.0
140
2.5
141
0.0
142
0.0
143
25.4
144
20.0
145
0.0
146
1.0
147
1.0
 71
     0
 72
     0
 73
     0
 74
     0
 75
     0
 76
     0
 77
     1
 78
     8
170
     0
171
     2
172
     1
173
     0
174
     0
175
     0
176
   256
177
   256
178
   256
270
     2
271
     1
272
     1
273
     2
274
     2
340
732
275
     0
280
     0
281
     0
282
     0
283
     1
284
     0
285
     0
286
     0
287
     3
288
     0
  0
DIMSTYLE
105
2207
330
9
100
AcDbSymbolTableRecord
100
AcDbDimStyleTableRecord
  2
STANDARD
 70
     0
  3

  4

  5

  6

  7

 40
1.0
 41
0.18
 42
0.0625
 43
0.38
 44
0.18
 45
0.0
 46
0.0
 47
0.0
 48
0.0
140
0.18
141
0.09
142
0.0
143
25.4
144
1.0
145
0.0
146
1.0
147
0.09
 71
     0
 72
     0
 73
     1
 74
     1
 75
     0
 76
     0
 77
     0
 78
     0
170
     0
171
     2
172
     0
173
     0
174
     0
175
     0
176
     0
177
     0
178
     0
270
     2
271
     4
272
     4
273
     2
274
     2
340
17
275
     0
280
     0
281
     0
282
     0
283
     1
284
     0
285
     0
286
     0
287
     3
288
     0
  0
ENDTAB
  0
TABLE
  2
BLOCK_RECORD
  5
1
330
0
100
AcDbSymbolTable
 70
    28
  0
BLOCK_RECORD
  5
A
102
{ACAD_XDICTIONARY
360
223B
102
}
330
1
100
AcDbSymbolTableRecord
100
AcDbBlockTableRecord
  2
*MODEL_SPACE
  0
BLOCK_RECORD
  5
B
102
{ACAD_XDICTIONARY
360
223D
102
}
330
1
100
AcDbSymbolTableRecord
100
AcDbBlockTableRecord
  2
*PAPER_SPACE
  0
BLOCK_RECORD
  5
72C
330
1
100
AcDbSymbolTableRecord
100
AcDbBlockTableRecord
  2
_OPEN30
1001
CONTENTBLOCKICON
1071
        0
1004
2800000020000000200000000100080000000000000400000000000000000000000000000000000000000000000080000080000000808000800000008000800080800000C0C0C000C0DCC000F0CAA6000020400000206000002080000020A0000020C0000020E00000400000004020000040400000406000004080000040A0
1004
000040C0000040E00000600000006020000060400000606000006080000060A0000060C0000060E00000800000008020000080400000806000008080000080A0000080C0000080E00000A0000000A0200000A0400000A0600000A0800000A0A00000A0C00000A0E00000C0000000C0200000C0400000C0600000C0800000C0
1004
A00000C0C00000C0E00000E0000000E0200000E0400000E0600000E0800000E0A00000E0C00000E0E00040000000400020004000400040006000400080004000A0004000C0004000E00040200000402020004020400040206000402080004020A0004020C0004020E000404000004040200040404000404060004040800040
1004
40A0004040C0004040E00040600000406020004060400040606000406080004060A0004060C0004060E00040800000408020004080400040806000408080004080A0004080C0004080E00040A0000040A0200040A0400040A0600040A0800040A0A00040A0C00040A0E00040C0000040C0200040C0400040C0600040C08000
1004
40C0A00040C0C00040C0E00040E0000040E0200040E0400040E0600040E0800040E0A00040E0C00040E0E00080000000800020008000400080006000800080008000A0008000C0008000E00080200000802020008020400080206000802080008020A0008020C0008020E00080400000804020008040400080406000804080
1004
008040A0008040C0008040E00080600000806020008060400080606000806080008060A0008060C0008060E00080800000808020008080400080806000808080008080A0008080C0008080E00080A0000080A0200080A0400080A0600080A0800080A0A00080A0C00080A0E00080C0000080C0200080C0400080C0600080C0
1004
800080C0A00080C0C00080C0E00080E0000080E0200080E0400080E0600080E0800080E0A00080E0C00080E0E000C0000000C0002000C0004000C0006000C0008000C000A000C000C000C000E000C0200000C0202000C0204000C0206000C0208000C020A000C020C000C020E000C0400000C0402000C0404000C0406000C0
1004
408000C040A000C040C000C040E000C0600000C0602000C0604000C0606000C0608000C060A000C060C000C060E000C0800000C0802000C0804000C0806000C0808000C080A000C080C000C080E000C0A00000C0A02000C0A04000C0A06000C0A08000C0A0A000C0A0C000C0A0E000C0C00000C0C02000C0C04000C0C06000
1004
C0C08000C0C0A000F0FBFF00A4A0A000808080000000FF0000FF000000FFFF00FF000000FF00FF00FFFF0000FFFFFF0000000000000000000000000000000000000000000000000000000000000000000000000000000000000000000000000000000000000000000000000000000000000000000000000000000000000000
1004
00000000000000000000000000000000000000000000000000000000000000000000000000000000000000000000000000000000000000000000000000000000000000000000000000000000000000000000000000000000000000000000000000000000000000000000000000000000000000000000000000000000000000
1004
000000000000000000000000000000000000000000000000000000000000000000000000000000000000000000000000000000FFFF0000000000000000000000000000000000000000000000000000000000000000FFFFFFFF0000000000000000000000000000000000000000000000000000000000000000FFFFFFFF0000
1004
000000000000000000000000000000000000000000000000000000000000FFFFFF0000000000000000000000000000000000000000000000000000000000000000FFFFFFFF0000000000000000000000000000000000000000000000000000000000000000FFFFFF0000000000000000000000000000000000000000000000
1004
000000000000000000FFFFFFFF0000000000000000000000000000000000000000000000000000000000000000FFFFFFFF00000000FFFFFFFFFFFFFFFFFFFFFFFFFFFFFFFFFFFFFFFFFFFFFFFFFFFFFFFFFFFF00000000000000000000000000000000000000000000000000FFFFFFFF000000000000000000000000000000
1004
000000000000000000FFFFFFFF000000000000000000000000000000000000000000000000FFFFFFFF000000000000000000000000000000000000000000000000FFFFFFFF000000000000000000000000000000000000000000000000FFFFFFFF000000000000000000000000000000000000000000000000FFFFFFFF0000
1004
0000000000000000000000000000000000000000000000FFFFFF0000000000000000000000000000000000000000000000000000000000000000000000000000000000000000000000000000000000000000000000000000000000000000000000000000000000000000000000000000000000000000000000000000000000
1004
00000000000000000000000000000000000000000000000000000000000000000000000000000000000000000000000000000000000000000000000000000000000000000000000000000000000000000000000000000000000000000000000000000000000000000000000000000000000000000000000000000000000000
1004
0000000000000000000000000000000000000000000000000000000000000000000000000000000000000000000000000000000000000000
  0
BLOCK_RECORD
  5
790
330
1
100
AcDbSymbolTableRecord
100
AcDbBlockTableRecord
  2
*D1
  0
BLOCK_RECORD
  5
79D
330
1
100
AcDbSymbolTableRecord
100
AcDbBlockTableRecord
  2
*D2
  0
BLOCK_RECORD
  5
7AA
330
1
100
AcDbSymbolTableRecord
100
AcDbBlockTableRecord
  2
*D3
  0
BLOCK_RECORD
  5
7B9
330
1
100
AcDbSymbolTableRecord
100
AcDbBlockTableRecord
  2
*D4
  0
BLOCK_RECORD
  5
7C6
330
1
100
AcDbSymbolTableRecord
100
AcDbBlockTableRecord
  2
*D5
  0
BLOCK_RECORD
  5
7D3
330
1
100
AcDbSymbolTableRecord
100
AcDbBlockTableRecord
  2
*D6
  0
BLOCK_RECORD
  5
7E0
330
1
100
AcDbSymbolTableRecord
100
AcDbBlockTableRecord
  2
*D7
  0
BLOCK_RECORD
  5
7ED
330
1
100
AcDbSymbolTableRecord
100
AcDbBlockTableRecord
  2
*D8
  0
BLOCK_RECORD
  5
7FA
330
1
100
AcDbSymbolTableRecord
100
AcDbBlockTableRecord
  2
*D9
  0
BLOCK_RECORD
  5
807
330
1
100
AcDbSymbolTableRecord
100
AcDbBlockTableRecord
  2
*D10
  0
BLOCK_RECORD
  5
814
330
1
100
AcDbSymbolTableRecord
100
AcDbBlockTableRecord
  2
*D11
  0
BLOCK_RECORD
  5
821
330
1
100
AcDbSymbolTableRecord
100
AcDbBlockTableRecord
  2
*D12
  0
BLOCK_RECORD
  5
865
330
1
100
AcDbSymbolTableRecord
100
AcDbBlockTableRecord
  2
*D13
  0
BLOCK_RECORD
  5
890
330
1
100
AcDbSymbolTableRecord
100
AcDbBlockTableRecord
  2
*D14
  0
BLOCK_RECORD
  5
8B2
330
1
100
AcDbSymbolTableRecord
100
AcDbBlockTableRecord
  2
*D15
  0
BLOCK_RECORD
  5
8EF
330
1
100
AcDbSymbolTableRecord
100
AcDbBlockTableRecord
  2
*D16
  0
BLOCK_RECORD
  5
8FE
330
1
100
AcDbSymbolTableRecord
100
AcDbBlockTableRecord
  2
*D17
  0
BLOCK_RECORD
  5
90B
330
1
100
AcDbSymbolTableRecord
100
AcDbBlockTableRecord
  2
*D18
  0
BLOCK_RECORD
  5
918
330
1
100
AcDbSymbolTableRecord
100
AcDbBlockTableRecord
  2
*D19
  0
BLOCK_RECORD
  5
A27
330
1
100
AcDbSymbolTableRecord
100
AcDbBlockTableRecord
  2
*D20
  0
BLOCK_RECORD
  5
A47
330
1
100
AcDbSymbolTableRecord
100
AcDbBlockTableRecord
  2
*D21
  0
BLOCK_RECORD
  5
A6F
330
1
100
AcDbSymbolTableRecord
100
AcDbBlockTableRecord
  2
*D22
  0
BLOCK_RECORD
  5
A85
330
1
100
AcDbSymbolTableRecord
100
AcDbBlockTableRecord
  2
*D23
  0
BLOCK_RECORD
  5
B4E
330
1
100
AcDbSymbolTableRecord
100
AcDbBlockTableRecord
  2
*D24
  0
BLOCK_RECORD
  5
B7D
330
1
100
AcDbSymbolTableRecord
100
AcDbBlockTableRecord
  2
*D25
  0
BLOCK_RECORD
  5
B8A
330
1
100
AcDbSymbolTableRecord
100
AcDbBlockTableRecord
  2
*D26
  0
BLOCK_RECORD
  5
B99
330
1
100
AcDbSymbolTableRecord
100
AcDbBlockTableRecord
  2
*D27
  0
ENDTAB
  0
ENDSEC
  0
SECTION
  2
BLOCKS
  0
BLOCK
  5
D
330
A
100
AcDbEntity
  8
0
100
AcDbBlockBegin
  2
*MODEL_SPACE
 70
     0
 10
0.0
 20
0.0
 30
0.0
  3
*MODEL_SPACE
  1

  0
ENDBLK
  5
E
330
A
100
AcDbEntity
  8
0
100
AcDbBlockEnd
  0
BLOCK
  5
F
330
B
100
AcDbEntity
 67
     1
  8
0
100
AcDbBlockBegin
  2
*PAPER_SPACE
 70
     0
 10
0.0
 20
0.0
 30
0.0
  3
*PAPER_SPACE
  1

  0
ENDBLK
  5
10
330
B
100
AcDbEntity
 67
     1
  8
0
100
AcDbBlockEnd
  0
BLOCK
  5
730
330
72C
100
AcDbEntity
  8
0
100
AcDbBlockBegin
  2
_OPEN30
 70
     0
 10
0.0
 20
0.0
 30
0.0
  3
_OPEN30
  1

  0
LINE
  5
72D
330
72C
100
AcDbEntity
  8
0
  6
BYBLOCK
 62
     0
100
AcDbLine
 10
-1.0
 20
0.26794919
 30
0.0
 11
0.0
 21
0.0
 31
0.0
  0
LINE
  5
72E
330
72C
100
AcDbEntity
  8
0
  6
BYBLOCK
 62
     0
100
AcDbLine
 10
0.0
 20
0.0
 30
0.0
 11
-1.0
 21
-0.26794919
 31
0.0
  0
LINE
  5
72F
330
72C
100
AcDbEntity
  8
0
  6
BYBLOCK
 62
     0
100
AcDbLine
 10
0.0
 20
0.0
 30
0.0
 11
-1.0
 21
0.0
 31
0.0
  0
ENDBLK
  5
731
330
72C
100
AcDbEntity
  8
0
100
AcDbBlockEnd
  0
BLOCK
  5
79A
330
790
100
AcDbEntity
  8
0
100
AcDbBlockBegin
  2
*D1
 70
     1
 10
0.0
 20
0.0
 30
0.0
  3
*D1
  1

  0
LINE
  5
1A2F
330
790
100
AcDbEntity
  8
SUNPOU
100
AcDbLine
 10
332.9894551845345
 20
203.996314938489
 30
0.0
 11
348.6299097224524
 21
203.996314938489
 31
0.0
  0
LINE
  5
1A30
330
790
100
AcDbEntity
  8
SUNPOU
100
AcDbLine
 10
332.9894551845342
 20
228.9963149384891
 30
0.0
 11
348.6299097224524
 21
228.9963149384891
 31
0.0
  0
LINE
  5
1A31
330
790
100
AcDbEntity
  8
SUNPOU
100
AcDbLine
 10
346.6299097224524
 20
208.996314938489
 30
0.0
 11
346.6299097224524
 21
223.996314938489
 31
0.0
  0
INSERT
  5
1A32
330
790
100
AcDbEntity
  8
SUNPOU
100
AcDbBlockReference
  2
_OPEN30
 10
346.6299097224524
 20
203.996314938489
 30
0.0
 41
5.0
 42
5.0
 43
5.0
 50
270.0
  0
INSERT
  5
1A33
330
790
100
AcDbEntity
  8
SUNPOU
100
AcDbBlockReference
  2
_OPEN30
 10
346.6299097224524
 20
228.9963149384891
 30
0.0
 41
5.0
 42
5.0
 43
5.0
 50
90.0
  0
MTEXT
  5
1A34
330
790
100
AcDbEntity
  8
SUNPOU
100
AcDbMText
 10
342.1299097224523
 20
216.4963149384891
 30
0.0
 40
5.0
 41
0.0
 71
     5
 72
     1
  1
\A1;25
  7
SUNPOU
 11
0.0000000000000001
 21
1.0
 31
0.0
1001
ACAD
1000
MTEXTBEGIN
1070
    73
1070
     1
1070
    44
1040
1.0
1070
    74
1070
     0
1000
MTEXTEND
1000
MTEXTBEGIN
1070
    73
1070
     1
1070
    44
1040
1.0
1070
    74
1070
     0
1000
MTEXTEND
  0
POINT
  5
1A35
330
790
100
AcDbEntity
  8
DEFPOINTS
 62
     0
100
AcDbPoint
 10
329.9894551845345
 20
203.996314938489
 30
0.0
  0
POINT
  5
1A36
330
790
100
AcDbEntity
  8
DEFPOINTS
 62
     0
100
AcDbPoint
 10
329.9894551845344
 20
228.9963149384891
 30
0.0
  0
POINT
  5
1A37
330
790
100
AcDbEntity
  8
DEFPOINTS
 62
     0
100
AcDbPoint
 10
346.6299097224524
 20
228.9963149384891
 30
0.0
  0
ENDBLK
  5
79B
330
790
100
AcDbEntity
  8
0
100
AcDbBlockEnd
  0
BLOCK
  5
7A7
330
79D
100
AcDbEntity
  8
0
100
AcDbBlockBegin
  2
*D2
 70
     1
 10
0.0
 20
0.0
 30
0.0
  3
*D2
  1

  0
LINE
  5
1A38
330
79D
100
AcDbEntity
  8
SUNPOU
100
AcDbLine
 10
332.9894551845345
 20
203.996314938489
 30
0.0
 11
360.5650118546273
 21
203.996314938489
 31
0.0
  0
LINE
  5
1A39
330
79D
100
AcDbEntity
  8
SUNPOU
100
AcDbLine
 10
332.9894551845345
 20
318.9964000000001
 30
0.0
 11
360.5650118546273
 21
318.9964000000001
 31
0.0
  0
LINE
  5
1A3A
330
79D
100
AcDbEntity
  8
SUNPOU
100
AcDbLine
 10
358.5650118546273
 20
208.996314938489
 30
0.0
 11
358.5650118546273
 21
313.9964000000001
 31
0.0
  0
INSERT
  5
1A3B
330
79D
100
AcDbEntity
  8
SUNPOU
100
AcDbBlockReference
  2
_OPEN30
 10
358.5650118546273
 20
203.996314938489
 30
0.0
 41
5.0
 42
5.0
 43
5.0
 50
270.0
  0
INSERT
  5
1A3C
330
79D
100
AcDbEntity
  8
SUNPOU
100
AcDbBlockReference
  2
_OPEN30
 10
358.5650118546273
 20
318.9964000000001
 30
0.0
 41
5.0
 42
5.0
 43
5.0
 50
90.0
  0
MTEXT
  5
1A3D
330
79D
100
AcDbEntity
  8
SUNPOU
100
AcDbMText
 10
354.0650118546273
 20
261.4963574692446
 30
0.0
 40
5.0
 41
0.0
 71
     5
 72
     1
  1
\A1;DW
  7
SUNPOU
 11
0.0000000000000001
 21
1.0
 31
0.0
1001
ACAD
1000
MTEXTBEGIN
1070
    73
1070
     1
1070
    44
1040
1.0
1070
    74
1070
     0
1000
MTEXTEND
1000
MTEXTBEGIN
1070
    73
1070
     1
1070
    44
1040
1.0
1070
    74
1070
     0
1000
MTEXTEND
  0
POINT
  5
1A3E
330
79D
100
AcDbEntity
  8
DEFPOINTS
 62
     0
100
AcDbPoint
 10
329.9894551845345
 20
203.996314938489
 30
0.0
  0
POINT
  5
1A3F
330
79D
100
AcDbEntity
  8
DEFPOINTS
 62
     0
100
AcDbPoint
 10
329.9894551845345
 20
318.9964000000001
 30
0.0
  0
POINT
  5
1A40
330
79D
100
AcDbEntity
  8
DEFPOINTS
 62
     0
100
AcDbPoint
 10
358.5650118546273
 20
318.9964000000001
 30
0.0
  0
ENDBLK
  5
7A8
330
79D
100
AcDbEntity
  8
0
100
AcDbBlockEnd
  0
BLOCK
  5
7B6
330
7AA
100
AcDbEntity
  8
0
100
AcDbBlockBegin
  2
*D3
 70
     1
 10
0.0
 20
0.0
 30
0.0
  3
*D3
  1

  0
LINE
  5
1A41
330
7AA
100
AcDbEntity
  8
SUNPOU
100
AcDbLine
 10
332.9894551845345
 20
318.9964000000001
 30
0.0
 11
360.5650118546273
 21
318.9964000000001
 31
0.0
  0
LINE
  5
1A42
330
7AA
100
AcDbEntity
  8
SUNPOU
100
AcDbLine
 10
332.9894551845342
 20
323.9964000000001
 30
0.0
 11
360.5650118546273
 21
323.9964000000001
 31
0.0
  0
LINE
  5
1A43
330
7AA
100
AcDbEntity
  8
SUNPOU
100
AcDbLine
 10
358.5650118546273
 20
313.9964000000001
 30
0.0
 11
358.5650118546273
 21
308.9964000000001
 31
0.0
  0
LINE
  5
1A44
330
7AA
100
AcDbEntity
  8
SUNPOU
100
AcDbLine
 10
358.5650118546273
 20
328.9964000000001
 30
0.0
 11
358.5650118546273
 21
333.9964000000001
 31
0.0
  0
MTEXT
  5
1A45
330
7AA
100
AcDbEntity
  8
SUNPOU
100
AcDbMText
 10
354.0376396420136
 20
321.4964000000001
 30
0.0
 40
5.0
 41
0.0
 71
     5
 72
     1
  1
\A1;5
  7
SUNPOU
 11
0.0000000000000001
 21
1.0
 31
0.0
1001
ACAD
1000
MTEXTBEGIN
1070
    73
1070
     1
1070
    44
1040
1.0
1070
    74
1070
     0
1000
MTEXTEND
1000
MTEXTBEGIN
1070
    73
1070
     1
1070
    44
1040
1.0
1070
    74
1070
     0
1000
MTEXTEND
  0
LINE
  5
1A46
330
7AA
100
AcDbEntity
  8
SUNPOU
100
AcDbLine
 10
358.5650118546273
 20
318.9964000000001
 30
0.0
 11
358.5650118546273
 21
323.9964000000001
 31
0.0
  0
INSERT
  5
1A47
330
7AA
100
AcDbEntity
  8
SUNPOU
100
AcDbBlockReference
  2
_OPEN30
 10
358.5650118546273
 20
318.9964000000001
 30
0.0
 41
5.0
 42
5.0
 43
5.0
 50
90.0
  0
INSERT
  5
1A48
330
7AA
100
AcDbEntity
  8
SUNPOU
100
AcDbBlockReference
  2
_OPEN30
 10
358.5650118546273
 20
323.9964000000001
 30
0.0
 41
5.0
 42
5.0
 43
5.0
 50
270.0
  0
POINT
  5
1A49
330
7AA
100
AcDbEntity
  8
DEFPOINTS
 62
     0
100
AcDbPoint
 10
329.9894551845345
 20
318.9964000000001
 30
0.0
  0
POINT
  5
1A4A
330
7AA
100
AcDbEntity
  8
DEFPOINTS
 62
     0
100
AcDbPoint
 10
329.9894551845342
 20
323.9964000000001
 30
0.0
  0
POINT
  5
1A4B
330
7AA
100
AcDbEntity
  8
DEFPOINTS
 62
     0
100
AcDbPoint
 10
358.5650118546273
 20
323.9964000000001
 30
0.0
  0
ENDBLK
  5
7B7
330
7AA
100
AcDbEntity
  8
0
100
AcDbBlockEnd
  0
BLOCK
  5
7C3
330
7B9
100
AcDbEntity
  8
0
100
AcDbBlockBegin
  2
*D4
 70
     1
 10
0.0
 20
0.0
 30
0.0
  3
*D4
  1

  0
LINE
  5
1A4C
330
7B9
100
AcDbEntity
  8
SUNPOU
100
AcDbLine
 10
332.9894551845342
 20
323.9964000000001
 30
0.0
 11
360.5650118546273
 21
323.9964000000001
 31
0.0
  0
LINE
  5
1A4D
330
7B9
100
AcDbEntity
  8
SUNPOU
100
AcDbLine
 10
332.989455184534
 20
438.9964850615115
 30
0.0
 11
360.5650118546273
 21
438.9964850615115
 31
0.0
  0
LINE
  5
1A4E
330
7B9
100
AcDbEntity
  8
SUNPOU
100
AcDbLine
 10
358.5650118546273
 20
328.9964000000001
 30
0.0
 11
358.5650118546273
 21
433.9964850615115
 31
0.0
  0
INSERT
  5
1A4F
330
7B9
100
AcDbEntity
  8
SUNPOU
100
AcDbBlockReference
  2
_OPEN30
 10
358.5650118546273
 20
323.9964000000001
 30
0.0
 41
5.0
 42
5.0
 43
5.0
 50
270.0
  0
INSERT
  5
1A50
330
7B9
100
AcDbEntity
  8
SUNPOU
100
AcDbBlockReference
  2
_OPEN30
 10
358.5650118546273
 20
438.9964850615115
 30
0.0
 41
5.0
 42
5.0
 43
5.0
 50
90.0
  0
MTEXT
  5
1A51
330
7B9
100
AcDbEntity
  8
SUNPOU
100
AcDbMText
 10
354.0650118546273
 20
381.4964425307558
 30
0.0
 40
5.0
 41
0.0
 71
     5
 72
     1
  1
\A1;DW
  7
SUNPOU
 11
0.0000000000000001
 21
1.0
 31
0.0
1001
ACAD
1000
MTEXTBEGIN
1070
    73
1070
     1
1070
    44
1040
1.0
1070
    74
1070
     0
1000
MTEXTEND
1000
MTEXTBEGIN
1070
    73
1070
     1
1070
    44
1040
1.0
1070
    74
1070
     0
1000
MTEXTEND
  0
POINT
  5
1A52
330
7B9
100
AcDbEntity
  8
DEFPOINTS
 62
     0
100
AcDbPoint
 10
329.9894551845342
 20
323.9964000000001
 30
0.0
  0
POINT
  5
1A53
330
7B9
100
AcDbEntity
  8
DEFPOINTS
 62
     0
100
AcDbPoint
 10
329.989455184534
 20
438.9964850615115
 30
0.0
  0
POINT
  5
1A54
330
7B9
100
AcDbEntity
  8
DEFPOINTS
 62
     0
100
AcDbPoint
 10
358.5650118546273
 20
438.9964850615115
 30
0.0
  0
ENDBLK
  5
7C4
330
7B9
100
AcDbEntity
  8
0
100
AcDbBlockEnd
  0
BLOCK
  5
7D0
330
7C6
100
AcDbEntity
  8
0
100
AcDbBlockBegin
  2
*D5
 70
     1
 10
0.0
 20
0.0
 30
0.0
  3
*D5
  1

  0
LINE
  5
1A55
330
7C6
100
AcDbEntity
  8
SUNPOU
100
AcDbLine
 10
332.9894551845341
 20
413.9964850615115
 30
0.0
 11
348.6299097224524
 21
413.9964850615115
 31
0.0
  0
LINE
  5
1A56
330
7C6
100
AcDbEntity
  8
SUNPOU
100
AcDbLine
 10
332.989455184534
 20
438.9964850615115
 30
0.0
 11
348.6299097224524
 21
438.9964850615115
 31
0.0
  0
LINE
  5
1A57
330
7C6
100
AcDbEntity
  8
SUNPOU
100
AcDbLine
 10
346.6299097224524
 20
418.9964850615115
 30
0.0
 11
346.6299097224524
 21
433.9964850615115
 31
0.0
  0
INSERT
  5
1A58
330
7C6
100
AcDbEntity
  8
SUNPOU
100
AcDbBlockReference
  2
_OPEN30
 10
346.6299097224524
 20
413.9964850615115
 30
0.0
 41
5.0
 42
5.0
 43
5.0
 50
270.0
  0
INSERT
  5
1A59
330
7C6
100
AcDbEntity
  8
SUNPOU
100
AcDbBlockReference
  2
_OPEN30
 10
346.6299097224524
 20
438.9964850615115
 30
0.0
 41
5.0
 42
5.0
 43
5.0
 50
90.0
  0
MTEXT
  5
1A5A
330
7C6
100
AcDbEntity
  8
SUNPOU
100
AcDbMText
 10
342.1299097224523
 20
426.4964850615116
 30
0.0
 40
5.0
 41
0.0
 71
     5
 72
     1
  1
\A1;25
  7
SUNPOU
 11
0.0000000000000001
 21
1.0
 31
0.0
1001
ACAD
1000
MTEXTBEGIN
1070
    73
1070
     1
1070
    44
1040
1.0
1070
    74
1070
     0
1000
MTEXTEND
1000
MTEXTBEGIN
1070
    73
1070
     1
1070
    44
1040
1.0
1070
    74
1070
     0
1000
MTEXTEND
  0
POINT
  5
1A5B
330
7C6
100
AcDbEntity
  8
DEFPOINTS
 62
     0
100
AcDbPoint
 10
329.9894551845341
 20
413.9964850615115
 30
0.0
  0
POINT
  5
1A5C
330
7C6
100
AcDbEntity
  8
DEFPOINTS
 62
     0
100
AcDbPoint
 10
329.989455184534
 20
438.9964850615115
 30
0.0
  0
POINT
  5
1A5D
330
7C6
100
AcDbEntity
  8
DEFPOINTS
 62
     0
100
AcDbPoint
 10
346.6299097224524
 20
438.9964850615115
 30
0.0
  0
ENDBLK
  5
7D1
330
7C6
100
AcDbEntity
  8
0
100
AcDbBlockEnd
  0
BLOCK
  5
7DD
330
7D3
100
AcDbEntity
  8
0
100
AcDbBlockBegin
  2
*D6
 70
     1
 10
0.0
 20
0.0
 30
0.0
  3
*D6
  1

  0
LINE
  5
1A5E
330
7D3
100
AcDbEntity
  8
SUNPOU
100
AcDbLine
 10
332.9894551845342
 20
293.9964000000001
 30
0.0
 11
348.6299097224524
 21
293.9964000000001
 31
0.0
  0
LINE
  5
1A5F
330
7D3
100
AcDbEntity
  8
SUNPOU
100
AcDbLine
 10
332.9894551845345
 20
318.9964000000001
 30
0.0
 11
348.6299097224524
 21
318.9964000000001
 31
0.0
  0
LINE
  5
1A60
330
7D3
100
AcDbEntity
  8
SUNPOU
100
AcDbLine
 10
346.6299097224524
 20
298.9964000000001
 30
0.0
 11
346.6299097224524
 21
313.9964000000001
 31
0.0
  0
INSERT
  5
1A61
330
7D3
100
AcDbEntity
  8
SUNPOU
100
AcDbBlockReference
  2
_OPEN30
 10
346.6299097224524
 20
293.9964000000001
 30
0.0
 41
5.0
 42
5.0
 43
5.0
 50
270.0
  0
INSERT
  5
1A62
330
7D3
100
AcDbEntity
  8
SUNPOU
100
AcDbBlockReference
  2
_OPEN30
 10
346.6299097224524
 20
318.9964000000001
 30
0.0
 41
5.0
 42
5.0
 43
5.0
 50
90.0
  0
MTEXT
  5
1A63
330
7D3
100
AcDbEntity
  8
SUNPOU
100
AcDbMText
 10
342.1299097224523
 20
306.4964000000001
 30
0.0
 40
5.0
 41
0.0
 71
     5
 72
     1
  1
\A1;25
  7
SUNPOU
 11
0.0000000000000001
 21
1.0
 31
0.0
1001
ACAD
1000
MTEXTBEGIN
1070
    73
1070
     1
1070
    44
1040
1.0
1070
    74
1070
     0
1000
MTEXTEND
1000
MTEXTBEGIN
1070
    73
1070
     1
1070
    44
1040
1.0
1070
    74
1070
     0
1000
MTEXTEND
  0
POINT
  5
1A64
330
7D3
100
AcDbEntity
  8
DEFPOINTS
 62
     0
100
AcDbPoint
 10
329.9894551845342
 20
293.9964000000001
 30
0.0
  0
POINT
  5
1A65
330
7D3
100
AcDbEntity
  8
DEFPOINTS
 62
     0
100
AcDbPoint
 10
329.9894551845345
 20
318.9964000000001
 30
0.0
  0
POINT
  5
1A66
330
7D3
100
AcDbEntity
  8
DEFPOINTS
 62
     0
100
AcDbPoint
 10
346.6299097224524
 20
318.9964000000001
 30
0.0
  0
ENDBLK
  5
7DE
330
7D3
100
AcDbEntity
  8
0
100
AcDbBlockEnd
  0
BLOCK
  5
7EA
330
7E0
100
AcDbEntity
  8
0
100
AcDbBlockBegin
  2
*D7
 70
     1
 10
0.0
 20
0.0
 30
0.0
  3
*D7
  1

  0
LINE
  5
1A67
330
7E0
100
AcDbEntity
  8
SUNPOU
100
AcDbLine
 10
332.9894551845342
 20
323.9964000000001
 30
0.0
 11
348.6299097224524
 21
323.9964000000001
 31
0.0
  0
LINE
  5
1A68
330
7E0
100
AcDbEntity
  8
SUNPOU
100
AcDbLine
 10
332.9894551845342
 20
348.9964000000001
 30
0.0
 11
348.6299097224524
 21
348.9964000000001
 31
0.0
  0
LINE
  5
1A69
330
7E0
100
AcDbEntity
  8
SUNPOU
100
AcDbLine
 10
346.6299097224524
 20
328.9964000000001
 30
0.0
 11
346.6299097224524
 21
343.9964000000001
 31
0.0
  0
INSERT
  5
1A6A
330
7E0
100
AcDbEntity
  8
SUNPOU
100
AcDbBlockReference
  2
_OPEN30
 10
346.6299097224524
 20
323.9964000000001
 30
0.0
 41
5.0
 42
5.0
 43
5.0
 50
270.0
  0
INSERT
  5
1A6B
330
7E0
100
AcDbEntity
  8
SUNPOU
100
AcDbBlockReference
  2
_OPEN30
 10
346.6299097224524
 20
348.9964000000001
 30
0.0
 41
5.0
 42
5.0
 43
5.0
 50
90.0
  0
MTEXT
  5
1A6C
330
7E0
100
AcDbEntity
  8
SUNPOU
100
AcDbMText
 10
342.1299097224523
 20
336.4964000000001
 30
0.0
 40
5.0
 41
0.0
 71
     5
 72
     1
  1
\A1;25
  7
SUNPOU
 11
0.0000000000000001
 21
1.0
 31
0.0
1001
ACAD
1000
MTEXTBEGIN
1070
    73
1070
     1
1070
    44
1040
1.0
1070
    74
1070
     0
1000
MTEXTEND
1000
MTEXTBEGIN
1070
    73
1070
     1
1070
    44
1040
1.0
1070
    74
1070
     0
1000
MTEXTEND
  0
POINT
  5
1A6D
330
7E0
100
AcDbEntity
  8
DEFPOINTS
 62
     0
100
AcDbPoint
 10
329.9894551845342
 20
323.9964000000001
 30
0.0
  0
POINT
  5
1A6E
330
7E0
100
AcDbEntity
  8
DEFPOINTS
 62
     0
100
AcDbPoint
 10
329.9894551845342
 20
348.9964000000001
 30
0.0
  0
POINT
  5
1A6F
330
7E0
100
AcDbEntity
  8
DEFPOINTS
 62
     0
100
AcDbPoint
 10
346.6299097224524
 20
348.9964000000001
 30
0.0
  0
ENDBLK
  5
7EB
330
7E0
100
AcDbEntity
  8
0
100
AcDbBlockEnd
  0
BLOCK
  5
7F7
330
7ED
100
AcDbEntity
  8
0
100
AcDbBlockBegin
  2
*D8
 70
     1
 10
0.0
 20
0.0
 30
0.0
  3
*D8
  1

  0
LINE
  5
1A70
330
7ED
100
AcDbEntity
  8
SUNPOU
100
AcDbLine
 10
356.4894551845342
 20
78.99631493848855
 30
0.0
 11
375.7747268461716
 21
78.99631493848855
 31
0.0
  0
LINE
  5
1A71
330
7ED
100
AcDbEntity
  8
SUNPOU
100
AcDbLine
 10
356.4894551845342
 20
108.9963149384884
 30
0.0
 11
375.7747268461716
 21
108.9963149384884
 31
0.0
  0
LINE
  5
1A72
330
7ED
100
AcDbEntity
  8
SUNPOU
100
AcDbLine
 10
373.7747268461716
 20
83.99631493848856
 30
0.0
 11
373.7747268461716
 21
103.9963149384884
 31
0.0
  0
INSERT
  5
1A73
330
7ED
100
AcDbEntity
  8
SUNPOU
100
AcDbBlockReference
  2
_OPEN30
 10
373.7747268461716
 20
78.99631493848855
 30
0.0
 41
5.0
 42
5.0
 43
5.0
 50
270.0
  0
INSERT
  5
1A74
330
7ED
100
AcDbEntity
  8
SUNPOU
100
AcDbBlockReference
  2
_OPEN30
 10
373.7747268461716
 20
108.9963149384884
 30
0.0
 41
5.0
 42
5.0
 43
5.0
 50
90.0
  0
MTEXT
  5
1A75
330
7ED
100
AcDbEntity
  8
SUNPOU
100
AcDbMText
 10
369.2747268461716
 20
93.99631493848859
 30
0.0
 40
5.0
 41
0.0
 71
     5
 72
     1
  1
\A1;30
  7
SUNPOU
 11
0.0000000000000001
 21
1.0
 31
0.0
1001
ACAD
1000
MTEXTBEGIN
1070
    73
1070
     1
1070
    44
1040
1.0
1070
    74
1070
     0
1000
MTEXTEND
1000
MTEXTBEGIN
1070
    73
1070
     1
1070
    44
1040
1.0
1070
    74
1070
     0
1000
MTEXTEND
  0
POINT
  5
1A76
330
7ED
100
AcDbEntity
  8
DEFPOINTS
 62
     0
100
AcDbPoint
 10
353.4894551845342
 20
78.99631493848855
 30
0.0
  0
POINT
  5
1A77
330
7ED
100
AcDbEntity
  8
DEFPOINTS
 62
     0
100
AcDbPoint
 10
353.4894551845342
 20
108.9963149384884
 30
0.0
  0
POINT
  5
1A78
330
7ED
100
AcDbEntity
  8
DEFPOINTS
 62
     0
100
AcDbPoint
 10
373.7747268461716
 20
108.9963149384884
 30
0.0
  0
ENDBLK
  5
7F8
330
7ED
100
AcDbEntity
  8
0
100
AcDbBlockEnd
  0
BLOCK
  5
804
330
7FA
100
AcDbEntity
  8
0
100
AcDbBlockBegin
  2
*D9
 70
     1
 10
0.0
 20
0.0
 30
0.0
  3
*D9
  1

  0
LINE
  5
1A79
330
7FA
100
AcDbEntity
  8
SUNPOU
100
AcDbLine
 10
356.4894551845342
 20
108.9963149384884
 30
0.0
 11
375.7747268461716
 21
108.9963149384884
 31
0.0
  0
LINE
  5
1A7A
330
7FA
100
AcDbEntity
  8
SUNPOU
100
AcDbLine
 10
356.4894551845342
 20
533.9964850615114
 30
0.0
 11
375.7747268461717
 21
533.9964850615114
 31
0.0
  0
LINE
  5
1A7B
330
7FA
100
AcDbEntity
  8
SUNPOU
100
AcDbLine
 10
373.7747268461716
 20
113.9963149384884
 30
0.0
 11
373.7747268461717
 21
528.9964850615112
 31
0.0
  0
INSERT
  5
1A7C
330
7FA
100
AcDbEntity
  8
SUNPOU
100
AcDbBlockReference
  2
_OPEN30
 10
373.7747268461716
 20
108.9963149384884
 30
0.0
 41
5.0
 42
5.0
 43
5.0
 50
270.0
  0
INSERT
  5
1A7D
330
7FA
100
AcDbEntity
  8
SUNPOU
100
AcDbBlockReference
  2
_OPEN30
 10
373.7747268461717
 20
533.9964850615114
 30
0.0
 41
5.0
 42
5.0
 43
5.0
 50
90.0
  0
MTEXT
  5
1A7E
330
7FA
100
AcDbEntity
  8
SUNPOU
100
AcDbMText
 10
369.2747268461716
 20
321.4964000000001
 30
0.0
 40
5.0
 41
0.0
 71
     5
 72
     1
  1
\A1;W
  7
SUNPOU
 11
0.0000000000000001
 21
1.0
 31
0.0
1001
ACAD
1000
MTEXTBEGIN
1070
    73
1070
     1
1070
    44
1040
1.0
1070
    74
1070
     0
1000
MTEXTEND
1000
MTEXTBEGIN
1070
    73
1070
     1
1070
    44
1040
1.0
1070
    74
1070
     0
1000
MTEXTEND
  0
POINT
  5
1A7F
330
7FA
100
AcDbEntity
  8
DEFPOINTS
 62
     0
100
AcDbPoint
 10
353.4894551845342
 20
108.9963149384884
 30
0.0
  0
POINT
  5
1A80
330
7FA
100
AcDbEntity
  8
DEFPOINTS
 62
     0
100
AcDbPoint
 10
353.4894551845342
 20
533.9964850615114
 30
0.0
  0
POINT
  5
1A81
330
7FA
100
AcDbEntity
  8
DEFPOINTS
 62
     0
100
AcDbPoint
 10
373.7747268461717
 20
533.9964850615114
 30
0.0
  0
ENDBLK
  5
805
330
7FA
100
AcDbEntity
  8
0
100
AcDbBlockEnd
  0
BLOCK
  5
811
330
807
100
AcDbEntity
  8
0
100
AcDbBlockBegin
  2
*D10
 70
     1
 10
0.0
 20
0.0
 30
0.0
  3
*D10
  1

  0
LINE
  5
1A82
330
807
100
AcDbEntity
  8
SUNPOU
100
AcDbLine
 10
356.4894551845342
 20
533.9964850615114
 30
0.0
 11
375.7747268461717
 21
533.9964850615114
 31
0.0
  0
LINE
  5
1A83
330
807
100
AcDbEntity
  8
SUNPOU
100
AcDbLine
 10
356.4894551845342
 20
563.9964850615114
 30
0.0
 11
375.7747268461717
 21
563.9964850615114
 31
0.0
  0
LINE
  5
1A84
330
807
100
AcDbEntity
  8
SUNPOU
100
AcDbLine
 10
373.7747268461717
 20
538.9964850615114
 30
0.0
 11
373.7747268461717
 21
558.9964850615114
 31
0.0
  0
INSERT
  5
1A85
330
807
100
AcDbEntity
  8
SUNPOU
100
AcDbBlockReference
  2
_OPEN30
 10
373.7747268461717
 20
533.9964850615114
 30
0.0
 41
5.0
 42
5.0
 43
5.0
 50
270.0
  0
INSERT
  5
1A86
330
807
100
AcDbEntity
  8
SUNPOU
100
AcDbBlockReference
  2
_OPEN30
 10
373.7747268461717
 20
563.9964850615114
 30
0.0
 41
5.0
 42
5.0
 43
5.0
 50
90.0
  0
MTEXT
  5
1A87
330
807
100
AcDbEntity
  8
SUNPOU
100
AcDbMText
 10
369.2747268461717
 20
548.9964850615115
 30
0.0
 40
5.0
 41
0.0
 71
     5
 72
     1
  1
\A1;30
  7
SUNPOU
 11
0.0000000000000001
 21
1.0
 31
0.0
1001
ACAD
1000
MTEXTBEGIN
1070
    73
1070
     1
1070
    44
1040
1.0
1070
    74
1070
     0
1000
MTEXTEND
1000
MTEXTBEGIN
1070
    73
1070
     1
1070
    44
1040
1.0
1070
    74
1070
     0
1000
MTEXTEND
  0
POINT
  5
1A88
330
807
100
AcDbEntity
  8
DEFPOINTS
 62
     0
100
AcDbPoint
 10
353.4894551845342
 20
533.9964850615114
 30
0.0
  0
POINT
  5
1A89
330
807
100
AcDbEntity
  8
DEFPOINTS
 62
     0
100
AcDbPoint
 10
353.4894551845342
 20
563.9964850615114
 30
0.0
  0
POINT
  5
1A8A
330
807
100
AcDbEntity
  8
DEFPOINTS
 62
     0
100
AcDbPoint
 10
373.7747268461717
 20
563.9964850615114
 30
0.0
  0
ENDBLK
  5
812
330
807
100
AcDbEntity
  8
0
100
AcDbBlockEnd
  0
BLOCK
  5
81E
330
814
100
AcDbEntity
  8
0
100
AcDbBlockBegin
  2
*D11
 70
     1
 10
0.0
 20
0.0
 30
0.0
  3
*D11
  1

  0
LINE
  5
1A8B
330
814
100
AcDbEntity
  8
SUNPOU
100
AcDbLine
 10
322.4894551845341
 20
111.9963149384884
 30
0.0
 11
322.4894551845341
 21
122.22692983642
 31
0.0
  0
LINE
  5
1A8C
330
814
100
AcDbEntity
  8
SUNPOU
100
AcDbLine
 10
305.4894551845341
 20
111.9963149384884
 30
0.0
 11
305.4894551845341
 21
122.22692983642
 31
0.0
  0
LINE
  5
1A8D
330
814
100
AcDbEntity
  8
SUNPOU
100
AcDbLine
 10
317.4894551845341
 20
120.22692983642
 30
0.0
 11
310.4894551845341
 21
120.22692983642
 31
0.0
  0
MTEXT
  5
1A8E
330
814
100
AcDbEntity
  8
SUNPOU
100
AcDbMText
 10
310.0701632675777
 20
115.6684177344237
 30
0.0
 40
5.0
 41
0.0
 71
     5
 72
     1
  1
\A1;17
  7
SUNPOU
 11
-1.0
 21
0.0000000000000001
 31
0.0
1001
ACAD
1000
MTEXTBEGIN
1070
    73
1070
     1
1070
    44
1040
1.0
1070
    74
1070
     0
1000
MTEXTEND
1000
MTEXTBEGIN
1070
    73
1070
     1
1070
    44
1040
1.0
1070
    74
1070
     0
1000
MTEXTEND
  0
INSERT
  5
1A8F
330
814
100
AcDbEntity
  8
SUNPOU
100
AcDbBlockReference
  2
_OPEN30
 10
322.4894551845341
 20
120.22692983642
 30
0.0
 41
5.0
 42
5.0
 43
5.0
  0
INSERT
  5
1A90
330
814
100
AcDbEntity
  8
SUNPOU
100
AcDbBlockReference
  2
_OPEN30
 10
305.4894551845341
 20
120.22692983642
 30
0.0
 41
5.0
 42
5.0
 43
5.0
 50
180.0
  0
POINT
  5
1A91
330
814
100
AcDbEntity
  8
DEFPOINTS
 62
     0
100
AcDbPoint
 10
322.4894551845341
 20
108.9963149384884
 30
0.0
  0
POINT
  5
1A92
330
814
100
AcDbEntity
  8
DEFPOINTS
 62
     0
100
AcDbPoint
 10
305.4894551845341
 20
108.9963149384884
 30
0.0
  0
POINT
  5
1A93
330
814
100
AcDbEntity
  8
DEFPOINTS
 62
     0
100
AcDbPoint
 10
305.4894551845341
 20
120.22692983642
 30
0.0
  0
ENDBLK
  5
81F
330
814
100
AcDbEntity
  8
0
100
AcDbBlockEnd
  0
BLOCK
  5
82B
330
821
100
AcDbEntity
  8
0
100
AcDbBlockBegin
  2
*D12
 70
     1
 10
0.0
 20
0.0
 30
0.0
  3
*D12
  1

  0
LINE
  5
1A94
330
821
100
AcDbEntity
  8
SUNPOU
100
AcDbLine
 10
234.9894551845341
 20
110.4963149384885
 30
0.0
 11
234.9894551845341
 21
151.2455787355713
 31
0.0
  0
LINE
  5
1A95
330
821
100
AcDbEntity
  8
SUNPOU
100
AcDbLine
 10
354.9894551845342
 20
110.4963149384885
 30
0.0
 11
354.9894551845342
 21
151.2455787355713
 31
0.0
  0
LINE
  5
1A96
330
821
100
AcDbEntity
  8
SUNPOU
100
AcDbLine
 10
239.9894551845342
 20
149.2455787355713
 30
0.0
 11
349.9894551845342
 21
149.2455787355713
 31
0.0
  0
MTEXT
  5
1A97
330
821
100
AcDbEntity
  8
SUNPOU
100
AcDbMText
 10
298.1920437160033
 20
144.6235912361553
 30
0.0
 40
5.0
 41
0.0
 71
     5
 72
     1
  1
\A1;120
  7
SUNPOU
 11
-1.0
 21
0.0000000000000001
 31
0.0
1001
ACAD
1000
MTEXTBEGIN
1070
    73
1070
     1
1070
    44
1040
1.0
1070
    74
1070
     0
1000
MTEXTEND
1000
MTEXTBEGIN
1070
    73
1070
     1
1070
    44
1040
1.0
1070
    74
1070
     0
1000
MTEXTEND
  0
INSERT
  5
1A98
330
821
100
AcDbEntity
  8
SUNPOU
100
AcDbBlockReference
  2
_OPEN30
 10
234.9894551845341
 20
149.2455787355713
 30
0.0
 41
5.0
 42
5.0
 43
5.0
 50
180.0
  0
INSERT
  5
1A99
330
821
100
AcDbEntity
  8
SUNPOU
100
AcDbBlockReference
  2
_OPEN30
 10
354.9894551845342
 20
149.2455787355713
 30
0.0
 41
5.0
 42
5.0
 43
5.0
  0
POINT
  5
1A9A
330
821
100
AcDbEntity
  8
DEFPOINTS
 62
     0
100
AcDbPoint
 10
234.9894551845341
 20
107.4963149384885
 30
0.0
  0
POINT
  5
1A9B
330
821
100
AcDbEntity
  8
DEFPOINTS
 62
     0
100
AcDbPoint
 10
354.9894551845342
 20
107.4963149384885
 30
0.0
  0
POINT
  5
1A9C
330
821
100
AcDbEntity
  8
DEFPOINTS
 62
     0
100
AcDbPoint
 10
354.9894551845342
 20
149.2455787355713
 30
0.0
  0
ENDBLK
  5
82C
330
821
100
AcDbEntity
  8
0
100
AcDbBlockEnd
  0
BLOCK
  5
86F
330
865
100
AcDbEntity
  8
0
100
AcDbBlockBegin
  2
*D13
 70
     1
 10
0.0
 20
0.0
 30
0.0
  3
*D13
  1

  0
LINE
  5
19FC
330
865
100
AcDbEntity
  8
SUNPOU
100
AcDbLine
 10
148.6537785588754
 20
379.2249560632686
 30
0.0
 11
148.6537785588754
 21
370.7761299200848
 31
0.0
  0
LINE
  5
19FD
330
865
100
AcDbEntity
  8
SUNPOU
100
AcDbLine
 10
178.6537785588754
 20
377.3749560632686
 30
0.0
 11
178.6537785588754
 21
370.7761299200848
 31
0.0
  0
LINE
  5
19FE
330
865
100
AcDbEntity
  8
SUNPOU
100
AcDbLine
 10
153.6537785588754
 20
372.7761299200848
 30
0.0
 11
173.6537785588755
 21
372.7761299200848
 31
0.0
  0
MTEXT
  5
19FF
330
865
100
AcDbEntity
  8
SUNPOU
100
AcDbMText
 10
163.6537785588755
 20
368.2543816405011
 30
0.0
 40
5.0
 41
0.0
 71
     5
 72
     1
  1
\A1;600
  7
SUNPOU
 11
-1.0
 21
0.0000000000000001
 31
0.0
1001
ACAD
1000
MTEXTBEGIN
1070
    73
1070
     1
1070
    44
1040
1.0
1070
    74
1070
     0
1000
MTEXTEND
1000
MTEXTBEGIN
1070
    73
1070
     1
1070
    44
1040
1.0
1070
    74
1070
     0
1000
MTEXTEND
  0
INSERT
  5
1A00
330
865
100
AcDbEntity
  8
SUNPOU
100
AcDbBlockReference
  2
_OPEN30
 10
148.6537785588754
 20
372.7761299200848
 30
0.0
 41
5.0
 42
5.0
 43
5.0
 50
180.0
  0
INSERT
  5
1A01
330
865
100
AcDbEntity
  8
SUNPOU
100
AcDbBlockReference
  2
_OPEN30
 10
178.6537785588754
 20
372.7761299200848
 30
0.0
 41
5.0
 42
5.0
 43
5.0
  0
POINT
  5
1A02
330
865
100
AcDbEntity
  8
DEFPOINTS
 62
     0
100
AcDbPoint
 10
148.6537785588754
 20
382.2249560632688
 30
0.0
  0
POINT
  5
1A03
330
865
100
AcDbEntity
  8
DEFPOINTS
 62
     0
100
AcDbPoint
 10
178.6537785588754
 20
380.3749560632686
 30
0.0
  0
POINT
  5
1A04
330
865
100
AcDbEntity
  8
DEFPOINTS
 62
     0
100
AcDbPoint
 10
178.6537785588754
 20
372.7761299200848
 30
0.0
  0
ENDBLK
  5
870
330
865
100
AcDbEntity
  8
0
100
AcDbBlockEnd
  0
BLOCK
  5
89A
330
890
100
AcDbEntity
  8
0
100
AcDbBlockBegin
  2
*D14
 70
     1
 10
0.0
 20
0.0
 30
0.0
  3
*D14
  1

  0
LINE
  5
1A05
330
890
100
AcDbEntity
  8
SUNPOU
100
AcDbLine
 10
148.6537785588754
 20
309.2249560632688
 30
0.0
 11
148.6537785588754
 21
334.2188725158848
 31
0.0
  0
LINE
  5
1A06
330
890
100
AcDbEntity
  8
SUNPOU
100
AcDbLine
 10
178.6537785588753
 20
310.7249560632688
 30
0.0
 11
178.6537785588753
 21
334.2188725158848
 31
0.0
  0
LINE
  5
1A07
330
890
100
AcDbEntity
  8
SUNPOU
100
AcDbLine
 10
153.6537785588754
 20
332.2188725158848
 30
0.0
 11
173.6537785588755
 21
332.2188725158848
 31
0.0
  0
MTEXT
  5
1A08
330
890
100
AcDbEntity
  8
SUNPOU
100
AcDbMText
 10
163.6537785588755
 20
327.6680378381623
 30
0.0
 40
5.0
 41
0.0
 71
     5
 72
     1
  1
\A1;600
  7
SUNPOU
 11
-1.0
 21
0.0000000000000001
 31
0.0
1001
ACAD
1000
MTEXTBEGIN
1070
    73
1070
     1
1070
    44
1040
1.0
1070
    74
1070
     0
1000
MTEXTEND
1000
MTEXTBEGIN
1070
    73
1070
     1
1070
    44
1040
1.0
1070
    74
1070
     0
1000
MTEXTEND
  0
INSERT
  5
1A09
330
890
100
AcDbEntity
  8
SUNPOU
100
AcDbBlockReference
  2
_OPEN30
 10
148.6537785588754
 20
332.2188725158848
 30
0.0
 41
5.0
 42
5.0
 43
5.0
 50
180.0
  0
INSERT
  5
1A0A
330
890
100
AcDbEntity
  8
SUNPOU
100
AcDbBlockReference
  2
_OPEN30
 10
178.6537785588753
 20
332.2188725158848
 30
0.0
 41
5.0
 42
5.0
 43
5.0
  0
POINT
  5
1A0B
330
890
100
AcDbEntity
  8
DEFPOINTS
 62
     0
100
AcDbPoint
 10
148.6537785588754
 20
306.2249560632686
 30
0.0
  0
POINT
  5
1A0C
330
890
100
AcDbEntity
  8
DEFPOINTS
 62
     0
100
AcDbPoint
 10
178.6537785588753
 20
307.7249560632687
 30
0.0
  0
POINT
  5
1A0D
330
890
100
AcDbEntity
  8
DEFPOINTS
 62
     0
100
AcDbPoint
 10
178.6537785588753
 20
332.2188725158848
 30
0.0
  0
ENDBLK
  5
89B
330
890
100
AcDbEntity
  8
0
100
AcDbBlockEnd
  0
BLOCK
  5
8BE
330
8B2
100
AcDbEntity
  8
0
100
AcDbBlockBegin
  2
*D15
 70
     1
 10
0.0
 20
0.0
 30
0.0
  3
*D15
  1

  0
LINE
  5
1A0E
330
8B2
100
AcDbEntity
  8
SUNPOU
100
AcDbLine
 10
83.30377855887551
 20
155.4499560632685
 30
0.0
 11
83.30377855887551
 21
93.40584020548869
 31
0.0
  0
LINE
  5
1A0F
330
8B2
100
AcDbEntity
  8
SUNPOU
100
AcDbLine
 10
83.65377855887549
 20
101.2249560632688
 30
0.0
 11
83.65377855887549
 21
93.40584020548869
 31
0.0
  0
LINE
  5
1A10
330
8B2
100
AcDbEntity
  8
SUNPOU
100
AcDbLine
 10
78.30377855887551
 20
95.40584020548868
 30
0.0
 11
73.30377855887551
 21
95.40584020548868
 31
0.0
  0
LINE
  5
1A11
330
8B2
100
AcDbEntity
  8
SUNPOU
100
AcDbLine
 10
88.65377855887549
 20
95.40584020548868
 30
0.0
 11
93.65377855887549
 21
95.40584020548868
 31
0.0
  0
MTEXT
  5
1A12
330
8B2
100
AcDbEntity
  8
SUNPOU
100
AcDbMText
 10
76.51031689544288
 20
90.89315420850677
 30
0.0
 40
5.0
 41
0.0
 71
     5
 72
     1
  1
\A1;7
  7
SUNPOU
 11
-1.0
 21
0.0000000000000001
 31
0.0
1001
ACAD
1000
MTEXTBEGIN
1070
    73
1070
     1
1070
    44
1040
1.0
1070
    74
1070
     0
1000
MTEXTEND
1000
MTEXTBEGIN
1070
    73
1070
     1
1070
    44
1040
1.0
1070
    74
1070
     0
1000
MTEXTEND
  0
LINE
  5
1A13
330
8B2
100
AcDbEntity
  8
SUNPOU
100
AcDbLine
 10
83.30377855887551
 20
95.40584020548868
 30
0.0
 11
83.65377855887549
 21
95.40584020548868
 31
0.0
  0
INSERT
  5
1A14
330
8B2
100
AcDbEntity
  8
SUNPOU
100
AcDbBlockReference
  2
_OPEN30
 10
83.30377855887551
 20
95.40584020548868
 30
0.0
 41
5.0
 42
5.0
 43
5.0
  0
INSERT
  5
1A15
330
8B2
100
AcDbEntity
  8
SUNPOU
100
AcDbBlockReference
  2
_OPEN30
 10
83.65377855887549
 20
95.40584020548868
 30
0.0
 41
5.0
 42
5.0
 43
5.0
 50
180.0
  0
POINT
  5
1A16
330
8B2
100
AcDbEntity
  8
DEFPOINTS
 62
     0
100
AcDbPoint
 10
83.30377855887551
 20
158.4499560632685
 30
0.0
  0
POINT
  5
1A17
330
8B2
100
AcDbEntity
  8
DEFPOINTS
 62
     0
100
AcDbPoint
 10
83.65377855887549
 20
104.2249560632688
 30
0.0
  0
POINT
  5
1A18
330
8B2
100
AcDbEntity
  8
DEFPOINTS
 62
     0
100
AcDbPoint
 10
83.65377855887549
 20
95.40584020548868
 30
0.0
  0
ENDBLK
  5
8BF
330
8B2
100
AcDbEntity
  8
0
100
AcDbBlockEnd
  0
BLOCK
  5
8FB
330
8EF
100
AcDbEntity
  8
0
100
AcDbBlockBegin
  2
*D16
 70
     1
 10
0.0
 20
0.0
 30
0.0
  3
*D16
  1

  0
LINE
  5
1A19
330
8EF
100
AcDbEntity
  8
SUNPOU
100
AcDbLine
 10
73.6537785588755
 20
99.22495606326879
 30
0.0
 11
73.6537785588755
 21
75.98994186832496
 31
0.0
  0
LINE
  5
1A1A
330
8EF
100
AcDbEntity
  8
SUNPOU
100
AcDbLine
 10
83.65377855887549
 20
99.22495606326879
 30
0.0
 11
83.65377855887549
 21
75.98994186832496
 31
0.0
  0
LINE
  5
1A1B
330
8EF
100
AcDbEntity
  8
SUNPOU
100
AcDbLine
 10
68.6537785588755
 20
77.98994186832496
 30
0.0
 11
63.6537785588755
 21
77.98994186832496
 31
0.0
  0
LINE
  5
1A1C
330
8EF
100
AcDbEntity
  8
SUNPOU
100
AcDbLine
 10
88.65377855887549
 20
77.98994186832496
 30
0.0
 11
93.65377855887549
 21
77.98994186832496
 31
0.0
  0
MTEXT
  5
1A1D
330
8EF
100
AcDbEntity
  8
SUNPOU
100
AcDbMText
 10
78.6537785588755
 20
73.48975193644378
 30
0.0
 40
5.0
 41
0.0
 71
     5
 72
     1
  1
\A1;200
  7
SUNPOU
 11
-1.0
 21
0.0000000000000001
 31
0.0
1001
ACAD
1000
MTEXTBEGIN
1070
    73
1070
     1
1070
    44
1040
1.0
1070
    74
1070
     0
1000
MTEXTEND
1000
MTEXTBEGIN
1070
    73
1070
     1
1070
    44
1040
1.0
1070
    74
1070
     0
1000
MTEXTEND
  0
LINE
  5
1A1E
330
8EF
100
AcDbEntity
  8
SUNPOU
100
AcDbLine
 10
73.6537785588755
 20
77.98994186832496
 30
0.0
 11
83.65377855887549
 21
77.98994186832496
 31
0.0
  0
INSERT
  5
1A1F
330
8EF
100
AcDbEntity
  8
SUNPOU
100
AcDbBlockReference
  2
_OPEN30
 10
73.6537785588755
 20
77.98994186832496
 30
0.0
 41
5.0
 42
5.0
 43
5.0
  0
INSERT
  5
1A20
330
8EF
100
AcDbEntity
  8
SUNPOU
100
AcDbBlockReference
  2
_OPEN30
 10
83.65377855887549
 20
77.98994186832496
 30
0.0
 41
5.0
 42
5.0
 43
5.0
 50
180.0
  0
POINT
  5
1A21
330
8EF
100
AcDbEntity
  8
DEFPOINTS
 62
     0
100
AcDbPoint
 10
73.6537785588755
 20
102.2249560632688
 30
0.0
  0
POINT
  5
1A22
330
8EF
100
AcDbEntity
  8
DEFPOINTS
 62
     0
100
AcDbPoint
 10
83.65377855887549
 20
102.2249560632688
 30
0.0
  0
POINT
  5
1A23
330
8EF
100
AcDbEntity
  8
DEFPOINTS
 62
     0
100
AcDbPoint
 10
83.65377855887549
 20
77.98994186832496
 30
0.0
  0
ENDBLK
  5
8FC
330
8EF
100
AcDbEntity
  8
0
100
AcDbBlockEnd
  0
BLOCK
  5
908
330
8FE
100
AcDbEntity
  8
0
100
AcDbBlockBegin
  2
*D17
 70
     1
 10
0.0
 20
0.0
 30
0.0
  3
*D17
  1

  0
LINE
  5
1AF0
330
8FE
100
AcDbEntity
  8
SUNPOU
100
AcDbLine
 10
83.65377855887549
 20
99.22495606326879
 30
0.0
 11
83.65377855887549
 21
75.98994186832496
 31
0.0
  0
LINE
  5
1AF1
330
8FE
100
AcDbEntity
  8
SUNPOU
100
AcDbLine
 10
178.6537785588753
 20
97.72495606326879
 30
0.0
 11
178.6537785588753
 21
75.98994186832496
 31
0.0
  0
LINE
  5
1AF2
330
8FE
100
AcDbEntity
  8
SUNPOU
100
AcDbLine
 10
88.65377855887549
 20
77.98994186832496
 30
0.0
 11
173.6537785588755
 21
77.98994186832496
 31
0.0
  0
MTEXT
  5
1AF3
330
8FE
100
AcDbEntity
  8
SUNPOU
100
AcDbMText
 10
131.1537785588755
 20
73.25715317313779
 30
0.0
 40
5.0
 41
0.0
 71
     5
 72
     1
  1
\A1;H
  7
SUNPOU
 11
-1.0
 21
0.0000000000000001
 31
0.0
1001
ACAD
1000
MTEXTBEGIN
1070
    73
1070
     1
1070
    44
1040
1.0
1070
    74
1070
     0
1000
MTEXTEND
1000
MTEXTBEGIN
1070
    73
1070
     1
1070
    44
1040
1.0
1070
    74
1070
     0
1000
MTEXTEND
  0
INSERT
  5
1AF4
330
8FE
100
AcDbEntity
  8
SUNPOU
100
AcDbBlockReference
  2
_OPEN30
 10
83.65377855887549
 20
77.98994186832496
 30
0.0
 41
5.0
 42
5.0
 43
5.0
 50
180.0
  0
INSERT
  5
1AF5
330
8FE
100
AcDbEntity
  8
SUNPOU
100
AcDbBlockReference
  2
_OPEN30
 10
178.6537785588753
 20
77.98994186832496
 30
0.0
 41
5.0
 42
5.0
 43
5.0
  0
POINT
  5
1AF6
330
8FE
100
AcDbEntity
  8
DEFPOINTS
 62
     0
100
AcDbPoint
 10
83.65377855887549
 20
102.2249560632688
 30
0.0
  0
POINT
  5
1AF7
330
8FE
100
AcDbEntity
  8
DEFPOINTS
 62
     0
100
AcDbPoint
 10
178.6537785588753
 20
100.7249560632687
 30
0.0
  0
POINT
  5
1AF8
330
8FE
100
AcDbEntity
  8
DEFPOINTS
 62
     0
100
AcDbPoint
 10
178.6537785588753
 20
77.98994186832496
 30
0.0
  0
ENDBLK
  5
909
330
8FE
100
AcDbEntity
  8
0
100
AcDbBlockEnd
  0
BLOCK
  5
915
330
90B
100
AcDbEntity
  8
0
100
AcDbBlockBegin
  2
*D18
 70
     1
 10
0.0
 20
0.0
 30
0.0
  3
*D18
  1

  0
LINE
  5
1AE7
330
90B
100
AcDbEntity
  8
SUNPOU
100
AcDbLine
 10
83.30377855887551
 20
153.4499560632685
 30
0.0
 11
83.30377855887551
 21
85.16766256590505
 31
0.0
  0
LINE
  5
1AE8
330
90B
100
AcDbEntity
  8
SUNPOU
100
AcDbLine
 10
178.1537785588754
 20
155.4499560632686
 30
0.0
 11
178.1537785588754
 21
85.16766256590505
 31
0.0
  0
LINE
  5
1AE9
330
90B
100
AcDbEntity
  8
SUNPOU
100
AcDbLine
 10
88.30377855887553
 20
87.16766256590506
 30
0.0
 11
173.1537785588753
 21
87.16766256590506
 31
0.0
  0
MTEXT
  5
1AEA
330
90B
100
AcDbEntity
  8
SUNPOU
100
AcDbMText
 10
130.7287785588755
 20
82.44816205837514
 30
0.0
 40
5.0
 41
0.0
 71
     5
 72
     1
  1
\A1;DH
  7
SUNPOU
 11
-1.0
 21
0.0000000000000001
 31
0.0
1001
ACAD
1000
MTEXTBEGIN
1070
    73
1070
     1
1070
    44
1040
1.0
1070
    74
1070
     0
1000
MTEXTEND
1000
MTEXTBEGIN
1070
    73
1070
     1
1070
    44
1040
1.0
1070
    74
1070
     0
1000
MTEXTEND
  0
INSERT
  5
1AEB
330
90B
100
AcDbEntity
  8
SUNPOU
100
AcDbBlockReference
  2
_OPEN30
 10
83.30377855887551
 20
87.16766256590506
 30
0.0
 41
5.0
 42
5.0
 43
5.0
 50
180.0
  0
INSERT
  5
1AEC
330
90B
100
AcDbEntity
  8
SUNPOU
100
AcDbBlockReference
  2
_OPEN30
 10
178.1537785588754
 20
87.16766256590506
 30
0.0
 41
5.0
 42
5.0
 43
5.0
  0
POINT
  5
1AED
330
90B
100
AcDbEntity
  8
DEFPOINTS
 62
     0
100
AcDbPoint
 10
83.30377855887551
 20
156.4499560632684
 30
0.0
  0
POINT
  5
1AEE
330
90B
100
AcDbEntity
  8
DEFPOINTS
 62
     0
100
AcDbPoint
 10
178.1537785588754
 20
158.4499560632686
 30
0.0
  0
POINT
  5
1AEF
330
90B
100
AcDbEntity
  8
DEFPOINTS
 62
     0
100
AcDbPoint
 10
178.1537785588754
 20
87.16766256590506
 30
0.0
  0
ENDBLK
  5
916
330
90B
100
AcDbEntity
  8
0
100
AcDbBlockEnd
  0
BLOCK
  5
924
330
918
100
AcDbEntity
  8
0
100
AcDbBlockBegin
  2
*D19
 70
     1
 10
0.0
 20
0.0
 30
0.0
  3
*D19
  1

  0
LINE
  5
2029
330
918
100
AcDbEntity
  8
SUNPOU
100
AcDbLine
 10
178.1537785588754
 20
155.4499560632686
 30
0.0
 11
178.1537785588754
 21
85.16766256590505
 31
0.0
  0
LINE
  5
202A
330
918
100
AcDbEntity
  8
SUNPOU
100
AcDbLine
 10
178.6537785588753
 20
97.72495606326879
 30
0.0
 11
178.6537785588753
 21
85.16766256590505
 31
0.0
  0
LINE
  5
202B
330
918
100
AcDbEntity
  8
SUNPOU
100
AcDbLine
 10
173.1537785588753
 20
87.16766256590506
 30
0.0
 11
168.1537785588754
 21
87.16766256590506
 31
0.0
  0
LINE
  5
202C
330
918
100
AcDbEntity
  8
SUNPOU
100
AcDbLine
 10
183.6537785588753
 20
87.16766256590506
 30
0.0
 11
188.6537785588755
 21
87.16766256590506
 31
0.0
  0
MTEXT
  5
202D
330
918
100
AcDbEntity
  8
SUNPOU
100
AcDbMText
 10
187.0537785588755
 20
82.66819946627242
 30
0.0
 40
5.0
 41
0.0
 71
     5
 72
     1
  1
\A1;10
  7
SUNPOU
 11
-1.0
 21
0.0000000000000001
 31
0.0
1001
ACAD
1000
MTEXTBEGIN
1070
    73
1070
     1
1070
    44
1040
1.0
1070
    74
1070
     0
1000
MTEXTEND
1000
MTEXTBEGIN
1070
    73
1070
     1
1070
    44
1040
1.0
1070
    74
1070
     0
1000
MTEXTEND
  0
LINE
  5
202E
330
918
100
AcDbEntity
  8
SUNPOU
100
AcDbLine
 10
178.1537785588754
 20
87.16766256590506
 30
0.0
 11
178.6537785588753
 21
87.16766256590506
 31
0.0
  0
INSERT
  5
202F
330
918
100
AcDbEntity
  8
SUNPOU
100
AcDbBlockReference
  2
_OPEN30
 10
178.1537785588754
 20
87.16766256590506
 30
0.0
 41
5.0
 42
5.0
 43
5.0
  0
INSERT
  5
2030
330
918
100
AcDbEntity
  8
SUNPOU
100
AcDbBlockReference
  2
_OPEN30
 10
178.6537785588753
 20
87.16766256590506
 30
0.0
 41
5.0
 42
5.0
 43
5.0
 50
180.0
  0
POINT
  5
2031
330
918
100
AcDbEntity
  8
DEFPOINTS
 62
     0
100
AcDbPoint
 10
178.1537785588754
 20
158.4499560632686
 30
0.0
  0
POINT
  5
2032
330
918
100
AcDbEntity
  8
DEFPOINTS
 62
     0
100
AcDbPoint
 10
178.6537785588753
 20
100.7249560632687
 30
0.0
  0
POINT
  5
2033
330
918
100
AcDbEntity
  8
DEFPOINTS
 62
     0
100
AcDbPoint
 10
178.6537785588753
 20
87.16766256590506
 30
0.0
  0
ENDBLK
  5
925
330
918
100
AcDbEntity
  8
0
100
AcDbBlockEnd
  0
BLOCK
  5
A31
330
A27
100
AcDbEntity
  8
0
100
AcDbBlockBegin
  2
*D20
 70
     1
 10
0.0
 20
0.0
 30
0.0
  3
*D20
  1

  0
LINE
  5
1ADE
330
A27
100
AcDbEntity
  8
SUNPOU
100
AcDbLine
 10
181.6537785588753
 20
159.6999560632686
 30
0.0
 11
193.6940013927114
 21
159.6999560632686
 31
0.0
  0
LINE
  5
1ADF
330
A27
100
AcDbEntity
  8
SUNPOU
100
AcDbLine
 10
181.6537785588755
 20
248.7499560632687
 30
0.0
 11
193.6940013927114
 21
248.7499560632687
 31
0.0
  0
LINE
  5
1AE0
330
A27
100
AcDbEntity
  8
SUNPOU
100
AcDbLine
 10
191.6940013927114
 20
164.6999560632686
 30
0.0
 11
191.6940013927114
 21
243.7499560632688
 31
0.0
  0
INSERT
  5
1AE1
330
A27
100
AcDbEntity
  8
SUNPOU
100
AcDbBlockReference
  2
_OPEN30
 10
191.6940013927114
 20
159.6999560632686
 30
0.0
 41
5.0
 42
5.0
 43
5.0
 50
270.0
  0
INSERT
  5
1AE2
330
A27
100
AcDbEntity
  8
SUNPOU
100
AcDbBlockReference
  2
_OPEN30
 10
191.6940013927114
 20
248.7499560632687
 30
0.0
 41
5.0
 42
5.0
 43
5.0
 50
90.0
  0
MTEXT
  5
1AE3
330
A27
100
AcDbEntity
  8
SUNPOU
100
AcDbMText
 10
187.1940013927113
 20
204.2249560632688
 30
0.0
 40
5.0
 41
0.0
 71
     5
 72
     1
  1
\A1;開口W
  7
SUNPOU
 11
0.0000000000000001
 21
1.0
 31
0.0
1001
ACAD
1000
MTEXTBEGIN
1070
    73
1070
     1
1070
    44
1040
1.0
1070
    74
1070
     0
1000
MTEXTEND
1000
MTEXTBEGIN
1070
    73
1070
     1
1070
    44
1040
1.0
1070
    74
1070
     0
1000
MTEXTEND
  0
POINT
  5
1AE4
330
A27
100
AcDbEntity
  8
DEFPOINTS
 62
     0
100
AcDbPoint
 10
178.6537785588753
 20
159.6999560632686
 30
0.0
  0
POINT
  5
1AE5
330
A27
100
AcDbEntity
  8
DEFPOINTS
 62
     0
100
AcDbPoint
 10
178.6537785588753
 20
248.7499560632687
 30
0.0
  0
POINT
  5
1AE6
330
A27
100
AcDbEntity
  8
DEFPOINTS
 62
     0
100
AcDbPoint
 10
191.6940013927114
 20
248.7499560632687
 30
0.0
  0
ENDBLK
  5
A32
330
A27
100
AcDbEntity
  8
0
100
AcDbBlockEnd
  0
BLOCK
  5
A51
330
A47
100
AcDbEntity
  8
0
100
AcDbBlockBegin
  2
*D21
 70
     1
 10
0.0
 20
0.0
 30
0.0
  3
*D21
  1

  0
LINE
  5
1AD5
330
A47
100
AcDbEntity
  8
SUNPOU
100
AcDbLine
 10
181.6537785588755
 20
104.2249560632688
 30
0.0
 11
206.4182113605464
 21
104.2249560632688
 31
0.0
  0
LINE
  5
1AD6
330
A47
100
AcDbEntity
  8
SUNPOU
100
AcDbLine
 10
181.6537785588755
 20
304.2249560632686
 30
0.0
 11
206.4182113605464
 21
304.2249560632686
 31
0.0
  0
LINE
  5
1AD7
330
A47
100
AcDbEntity
  8
SUNPOU
100
AcDbLine
 10
204.4182113605464
 20
109.2249560632687
 30
0.0
 11
204.4182113605464
 21
299.2249560632686
 31
0.0
  0
INSERT
  5
1AD8
330
A47
100
AcDbEntity
  8
SUNPOU
100
AcDbBlockReference
  2
_OPEN30
 10
204.4182113605464
 20
104.2249560632688
 30
0.0
 41
5.0
 42
5.0
 43
5.0
 50
270.0
  0
INSERT
  5
1AD9
330
A47
100
AcDbEntity
  8
SUNPOU
100
AcDbBlockReference
  2
_OPEN30
 10
204.4182113605464
 20
304.2249560632686
 30
0.0
 41
5.0
 42
5.0
 43
5.0
 50
90.0
  0
MTEXT
  5
1ADA
330
A47
100
AcDbEntity
  8
SUNPOU
100
AcDbMText
 10
199.9182113605463
 20
204.2249560632688
 30
0.0
 40
5.0
 41
0.0
 71
     5
 72
     1
  1
\A1;W
  7
SUNPOU
 11
0.0000000000000001
 21
1.0
 31
0.0
1001
ACAD
1000
MTEXTBEGIN
1070
    73
1070
     1
1070
    44
1040
1.0
1070
    74
1070
     0
1000
MTEXTEND
1000
MTEXTBEGIN
1070
    73
1070
     1
1070
    44
1040
1.0
1070
    74
1070
     0
1000
MTEXTEND
  0
POINT
  5
1ADB
330
A47
100
AcDbEntity
  8
DEFPOINTS
 62
     0
100
AcDbPoint
 10
178.6537785588753
 20
104.2249560632688
 30
0.0
  0
POINT
  5
1ADC
330
A47
100
AcDbEntity
  8
DEFPOINTS
 62
     0
100
AcDbPoint
 10
178.6537785588753
 20
304.2249560632686
 30
0.0
  0
POINT
  5
1ADD
330
A47
100
AcDbEntity
  8
DEFPOINTS
 62
     0
100
AcDbPoint
 10
204.4182113605464
 20
304.2249560632686
 30
0.0
  0
ENDBLK
  5
A52
330
A47
100
AcDbEntity
  8
0
100
AcDbBlockEnd
  0
BLOCK
  5
A79
330
A6F
100
AcDbEntity
  8
0
100
AcDbBlockBegin
  2
*D22
 70
     1
 10
0.0
 20
0.0
 30
0.0
  3
*D22
  1

  0
LINE
  5
1ACC
330
A6F
100
AcDbEntity
  8
SUNPOU
100
AcDbLine
 10
181.6537785588755
 20
382.2249560632688
 30
0.0
 11
193.6940013927114
 21
382.2249560632688
 31
0.0
  0
LINE
  5
1ACD
330
A6F
100
AcDbEntity
  8
SUNPOU
100
AcDbLine
 10
181.6537785588755
 20
442.0749560632686
 30
0.0
 11
193.6940013927114
 21
442.0749560632686
 31
0.0
  0
LINE
  5
1ACE
330
A6F
100
AcDbEntity
  8
SUNPOU
100
AcDbLine
 10
191.6940013927114
 20
387.2249560632686
 30
0.0
 11
191.6940013927114
 21
437.0749560632686
 31
0.0
  0
INSERT
  5
1ACF
330
A6F
100
AcDbEntity
  8
SUNPOU
100
AcDbBlockReference
  2
_OPEN30
 10
191.6940013927114
 20
382.2249560632688
 30
0.0
 41
5.0
 42
5.0
 43
5.0
 50
270.0
  0
INSERT
  5
1AD0
330
A6F
100
AcDbEntity
  8
SUNPOU
100
AcDbBlockReference
  2
_OPEN30
 10
191.6940013927114
 20
442.0749560632686
 30
0.0
 41
5.0
 42
5.0
 43
5.0
 50
90.0
  0
MTEXT
  5
1AD1
330
A6F
100
AcDbEntity
  8
SUNPOU
100
AcDbMText
 10
187.1940013927114
 20
412.1499560632687
 30
0.0
 40
5.0
 41
0.0
 71
     5
 72
     1
  1
\A1;開口W
  7
SUNPOU
 11
0.0000000000000001
 21
1.0
 31
0.0
1001
ACAD
1000
MTEXTBEGIN
1070
    73
1070
     1
1070
    44
1040
1.0
1070
    74
1070
     0
1000
MTEXTEND
1000
MTEXTBEGIN
1070
    73
1070
     1
1070
    44
1040
1.0
1070
    74
1070
     0
1000
MTEXTEND
  0
POINT
  5
1AD2
330
A6F
100
AcDbEntity
  8
DEFPOINTS
 62
     0
100
AcDbPoint
 10
178.6537785588754
 20
382.2249560632688
 30
0.0
  0
POINT
  5
1AD3
330
A6F
100
AcDbEntity
  8
DEFPOINTS
 62
     0
100
AcDbPoint
 10
178.6537785588754
 20
442.0749560632686
 30
0.0
  0
POINT
  5
1AD4
330
A6F
100
AcDbEntity
  8
DEFPOINTS
 62
     0
100
AcDbPoint
 10
191.6940013927114
 20
442.0749560632686
 30
0.0
  0
ENDBLK
  5
A7A
330
A6F
100
AcDbEntity
  8
0
100
AcDbBlockEnd
  0
BLOCK
  5
A8F
330
A85
100
AcDbEntity
  8
0
100
AcDbBlockBegin
  2
*D23
 70
     1
 10
0.0
 20
0.0
 30
0.0
  3
*D23
  1

  0
LINE
  5
1AC3
330
A85
100
AcDbEntity
  8
SUNPOU
100
AcDbLine
 10
181.6537785588755
 20
382.2249560632688
 30
0.0
 11
206.4182113605464
 21
382.2249560632688
 31
0.0
  0
LINE
  5
1AC4
330
A85
100
AcDbEntity
  8
SUNPOU
100
AcDbLine
 10
181.6537785588755
 20
507.2249560632688
 30
0.0
 11
206.4182113605464
 21
507.2249560632688
 31
0.0
  0
LINE
  5
1AC5
330
A85
100
AcDbEntity
  8
SUNPOU
100
AcDbLine
 10
204.4182113605464
 20
387.2249560632686
 30
0.0
 11
204.4182113605464
 21
502.2249560632688
 31
0.0
  0
INSERT
  5
1AC6
330
A85
100
AcDbEntity
  8
SUNPOU
100
AcDbBlockReference
  2
_OPEN30
 10
204.4182113605464
 20
382.2249560632688
 30
0.0
 41
5.0
 42
5.0
 43
5.0
 50
270.0
  0
INSERT
  5
1AC7
330
A85
100
AcDbEntity
  8
SUNPOU
100
AcDbBlockReference
  2
_OPEN30
 10
204.4182113605464
 20
507.2249560632688
 30
0.0
 41
5.0
 42
5.0
 43
5.0
 50
90.0
  0
MTEXT
  5
1AC8
330
A85
100
AcDbEntity
  8
SUNPOU
100
AcDbMText
 10
199.9182113605463
 20
444.7249560632688
 30
0.0
 40
5.0
 41
0.0
 71
     5
 72
     1
  1
\A1;W
  7
SUNPOU
 11
0.0000000000000001
 21
1.0
 31
0.0
1001
ACAD
1000
MTEXTBEGIN
1070
    73
1070
     1
1070
    44
1040
1.0
1070
    74
1070
     0
1000
MTEXTEND
1000
MTEXTBEGIN
1070
    73
1070
     1
1070
    44
1040
1.0
1070
    74
1070
     0
1000
MTEXTEND
  0
POINT
  5
1AC9
330
A85
100
AcDbEntity
  8
DEFPOINTS
 62
     0
100
AcDbPoint
 10
178.6537785588754
 20
382.2249560632688
 30
0.0
  0
POINT
  5
1ACA
330
A85
100
AcDbEntity
  8
DEFPOINTS
 62
     0
100
AcDbPoint
 10
178.6537785588754
 20
507.2249560632688
 30
0.0
  0
POINT
  5
1ACB
330
A85
100
AcDbEntity
  8
DEFPOINTS
 62
     0
100
AcDbPoint
 10
204.4182113605464
 20
507.2249560632688
 30
0.0
  0
ENDBLK
  5
A90
330
A85
100
AcDbEntity
  8
0
100
AcDbBlockEnd
  0
BLOCK
  5
B58
330
B4E
100
AcDbEntity
  8
0
100
AcDbBlockBegin
  2
*D24
 70
     1
 10
0.0
 20
0.0
 30
0.0
  3
*D24
  1

  0
LINE
  5
1A9D
330
B4E
100
AcDbEntity
  8
SUNPOU
100
AcDbLine
 10
234.9894551845341
 20
110.4963149384885
 30
0.0
 11
234.9894551845341
 21
248.8721804511278
 31
0.0
  0
LINE
  5
1A9E
330
B4E
100
AcDbEntity
  8
SUNPOU
100
AcDbLine
 10
260.9894551845341
 20
231.9963149384887
 30
0.0
 11
260.9894551845341
 21
248.8721804511278
 31
0.0
  0
LINE
  5
1A9F
330
B4E
100
AcDbEntity
  8
SUNPOU
100
AcDbLine
 10
239.9894551845342
 20
246.8721804511277
 30
0.0
 11
255.9894551845341
 21
246.8721804511277
 31
0.0
  0
MTEXT
  5
1AA0
330
B4E
100
AcDbEntity
  8
SUNPOU
100
AcDbMText
 10
247.9894551845341
 20
242.3448754021208
 30
0.0
 40
5.0
 41
0.0
 71
     5
 72
     1
  1
\A1;26
  7
SUNPOU
 11
-1.0
 21
0.0000000000000001
 31
0.0
1001
ACAD
1000
MTEXTBEGIN
1070
    73
1070
     1
1070
    44
1040
1.0
1070
    74
1070
     0
1000
MTEXTEND
1000
MTEXTBEGIN
1070
    73
1070
     1
1070
    44
1040
1.0
1070
    74
1070
     0
1000
MTEXTEND
  0
INSERT
  5
1AA1
330
B4E
100
AcDbEntity
  8
SUNPOU
100
AcDbBlockReference
  2
_OPEN30
 10
234.9894551845341
 20
246.8721804511277
 30
0.0
 41
5.0
 42
5.0
 43
5.0
 50
180.0
  0
INSERT
  5
1AA2
330
B4E
100
AcDbEntity
  8
SUNPOU
100
AcDbBlockReference
  2
_OPEN30
 10
260.9894551845341
 20
246.8721804511277
 30
0.0
 41
5.0
 42
5.0
 43
5.0
  0
POINT
  5
1AA3
330
B4E
100
AcDbEntity
  8
DEFPOINTS
 62
     0
100
AcDbPoint
 10
234.9894551845341
 20
107.4963149384885
 30
0.0
  0
POINT
  5
1AA4
330
B4E
100
AcDbEntity
  8
DEFPOINTS
 62
     0
100
AcDbPoint
 10
260.9894551845341
 20
228.9963149384885
 30
0.0
  0
POINT
  5
1AA5
330
B4E
100
AcDbEntity
  8
DEFPOINTS
 62
     0
100
AcDbPoint
 10
260.9894551845341
 20
246.8721804511277
 30
0.0
  0
ENDBLK
  5
B59
330
B4E
100
AcDbEntity
  8
0
100
AcDbBlockEnd
  0
BLOCK
  5
B87
330
B7D
100
AcDbEntity
  8
0
100
AcDbBlockBegin
  2
*D25
 70
     1
 10
0.0
 20
0.0
 30
0.0
  3
*D25
  1

  0
LINE
  5
1AA6
330
B7D
100
AcDbEntity
  8
SUNPOU
100
AcDbLine
 10
260.9894551845341
 20
231.9963149384887
 30
0.0
 11
260.9894551845341
 21
248.8721804511278
 31
0.0
  0
LINE
  5
1AA7
330
B7D
100
AcDbEntity
  8
SUNPOU
100
AcDbLine
 10
292.989455184534
 20
231.9963149384884
 30
0.0
 11
292.989455184534
 21
248.8721804511278
 31
0.0
  0
LINE
  5
1AA8
330
B7D
100
AcDbEntity
  8
SUNPOU
100
AcDbLine
 10
265.989455184534
 20
246.8721804511277
 30
0.0
 11
287.9894551845341
 21
246.8721804511277
 31
0.0
  0
MTEXT
  5
1AA9
330
B7D
100
AcDbEntity
  8
SUNPOU
100
AcDbMText
 10
276.9894551845341
 20
242.3091788978705
 30
0.0
 40
5.0
 41
0.0
 71
     5
 72
     1
  1
\A1;32
  7
SUNPOU
 11
-1.0
 21
0.0000000000000001
 31
0.0
1001
ACAD
1000
MTEXTBEGIN
1070
    73
1070
     1
1070
    44
1040
1.0
1070
    74
1070
     0
1000
MTEXTEND
1000
MTEXTBEGIN
1070
    73
1070
     1
1070
    44
1040
1.0
1070
    74
1070
     0
1000
MTEXTEND
  0
INSERT
  5
1AAA
330
B7D
100
AcDbEntity
  8
SUNPOU
100
AcDbBlockReference
  2
_OPEN30
 10
260.9894551845341
 20
246.8721804511277
 30
0.0
 41
5.0
 42
5.0
 43
5.0
 50
180.0
  0
INSERT
  5
1AAB
330
B7D
100
AcDbEntity
  8
SUNPOU
100
AcDbBlockReference
  2
_OPEN30
 10
292.989455184534
 20
246.8721804511277
 30
0.0
 41
5.0
 42
5.0
 43
5.0
  0
POINT
  5
1AAC
330
B7D
100
AcDbEntity
  8
DEFPOINTS
 62
     0
100
AcDbPoint
 10
260.9894551845341
 20
228.9963149384885
 30
0.0
  0
POINT
  5
1AAD
330
B7D
100
AcDbEntity
  8
DEFPOINTS
 62
     0
100
AcDbPoint
 10
292.989455184534
 20
228.9963149384885
 30
0.0
  0
POINT
  5
1AAE
330
B7D
100
AcDbEntity
  8
DEFPOINTS
 62
     0
100
AcDbPoint
 10
292.989455184534
 20
246.8721804511277
 30
0.0
  0
ENDBLK
  5
B88
330
B7D
100
AcDbEntity
  8
0
100
AcDbBlockEnd
  0
BLOCK
  5
B96
330
B8A
100
AcDbEntity
  8
0
100
AcDbBlockBegin
  2
*D26
 70
     1
 10
0.0
 20
0.0
 30
0.0
  3
*D26
  1

  0
LINE
  5
1AAF
330
B8A
100
AcDbEntity
  8
SUNPOU
100
AcDbLine
 10
292.989455184534
 20
231.9963149384884
 30
0.0
 11
292.989455184534
 21
248.8721804511278
 31
0.0
  0
LINE
  5
1AB0
330
B8A
100
AcDbEntity
  8
SUNPOU
100
AcDbLine
 10
297.9894551845343
 20
231.996314938489
 30
0.0
 11
297.9894551845343
 21
248.8721804511278
 31
0.0
  0
LINE
  5
1AB1
330
B8A
100
AcDbEntity
  8
SUNPOU
100
AcDbLine
 10
287.9894551845341
 20
246.8721804511277
 30
0.0
 11
282.9894551845341
 21
246.8721804511277
 31
0.0
  0
LINE
  5
1AB2
330
B8A
100
AcDbEntity
  8
SUNPOU
100
AcDbLine
 10
302.9894551845344
 20
246.8721804511277
 30
0.0
 11
307.9894551845343
 21
246.8721804511277
 31
0.0
  0
MTEXT
  5
1AB3
330
B8A
100
AcDbEntity
  8
SUNPOU
100
AcDbMText
 10
295.4894551845341
 20
242.1834217408795
 30
0.0
 40
5.0
 41
0.0
 71
     5
 72
     1
  1
\A1;5
  7
SUNPOU
 11
-1.0
 21
0.0000000000000001
 31
0.0
1001
ACAD
1000
MTEXTBEGIN
1070
    73
1070
     1
1070
    44
1040
1.0
1070
    74
1070
     0
1000
MTEXTEND
1000
MTEXTBEGIN
1070
    73
1070
     1
1070
    44
1040
1.0
1070
    74
1070
     0
1000
MTEXTEND
  0
LINE
  5
1AB4
330
B8A
100
AcDbEntity
  8
SUNPOU
100
AcDbLine
 10
292.989455184534
 20
246.8721804511277
 30
0.0
 11
297.9894551845343
 21
246.8721804511277
 31
0.0
  0
INSERT
  5
1AB5
330
B8A
100
AcDbEntity
  8
SUNPOU
100
AcDbBlockReference
  2
_OPEN30
 10
292.989455184534
 20
246.8721804511277
 30
0.0
 41
5.0
 42
5.0
 43
5.0
  0
INSERT
  5
1AB6
330
B8A
100
AcDbEntity
  8
SUNPOU
100
AcDbBlockReference
  2
_OPEN30
 10
297.9894551845343
 20
246.8721804511277
 30
0.0
 41
5.0
 42
5.0
 43
5.0
 50
180.0
  0
POINT
  5
1AB7
330
B8A
100
AcDbEntity
  8
DEFPOINTS
 62
     0
100
AcDbPoint
 10
292.989455184534
 20
228.9963149384885
 30
0.0
  0
POINT
  5
1AB8
330
B8A
100
AcDbEntity
  8
DEFPOINTS
 62
     0
100
AcDbPoint
 10
297.9894551845343
 20
228.996314938489
 30
0.0
  0
POINT
  5
1AB9
330
B8A
100
AcDbEntity
  8
DEFPOINTS
 62
     0
100
AcDbPoint
 10
297.9894551845343
 20
246.8721804511277
 30
0.0
  0
ENDBLK
  5
B97
330
B8A
100
AcDbEntity
  8
0
100
AcDbBlockEnd
  0
BLOCK
  5
BA3
330
B99
100
AcDbEntity
  8
0
100
AcDbBlockBegin
  2
*D27
 70
     1
 10
0.0
 20
0.0
 30
0.0
  3
*D27
  1

  0
LINE
  5
1ABA
330
B99
100
AcDbEntity
  8
SUNPOU
100
AcDbLine
 10
297.9894551845343
 20
231.996314938489
 30
0.0
 11
297.9894551845343
 21
248.8721804511278
 31
0.0
  0
LINE
  5
1ABB
330
B99
100
AcDbEntity
  8
SUNPOU
100
AcDbLine
 10
329.9894551845344
 20
231.9963149384892
 30
0.0
 11
329.9894551845344
 21
248.8721804511278
 31
0.0
  0
LINE
  5
1ABC
330
B99
100
AcDbEntity
  8
SUNPOU
100
AcDbLine
 10
302.9894551845344
 20
246.8721804511277
 30
0.0
 11
324.9894551845343
 21
246.8721804511277
 31
0.0
  0
MTEXT
  5
1ABD
330
B99
100
AcDbEntity
  8
SUNPOU
100
AcDbMText
 10
321.713067914598
 20
242.2717672794981
 30
0.0
 40
5.0
 41
0.0
 71
     5
 72
     1
  1
\A1;32
  7
SUNPOU
 11
-1.0
 21
0.0000000000000001
 31
0.0
1001
ACAD
1000
MTEXTBEGIN
1070
    73
1070
     1
1070
    44
1040
1.0
1070
    74
1070
     0
1000
MTEXTEND
1000
MTEXTBEGIN
1070
    73
1070
     1
1070
    44
1040
1.0
1070
    74
1070
     0
1000
MTEXTEND
  0
INSERT
  5
1ABE
330
B99
100
AcDbEntity
  8
SUNPOU
100
AcDbBlockReference
  2
_OPEN30
 10
297.9894551845343
 20
246.8721804511277
 30
0.0
 41
5.0
 42
5.0
 43
5.0
 50
180.0
  0
INSERT
  5
1ABF
330
B99
100
AcDbEntity
  8
SUNPOU
100
AcDbBlockReference
  2
_OPEN30
 10
329.9894551845344
 20
246.8721804511277
 30
0.0
 41
5.0
 42
5.0
 43
5.0
  0
POINT
  5
1AC0
330
B99
100
AcDbEntity
  8
DEFPOINTS
 62
     0
100
AcDbPoint
 10
297.9894551845343
 20
228.996314938489
 30
0.0
  0
POINT
  5
1AC1
330
B99
100
AcDbEntity
  8
DEFPOINTS
 62
     0
100
AcDbPoint
 10
329.9894551845344
 20
228.9963149384893
 30
0.0
  0
POINT
  5
1AC2
330
B99
100
AcDbEntity
  8
DEFPOINTS
 62
     0
100
AcDbPoint
 10
329.9894551845344
 20
246.8721804511277
 30
0.0
  0
ENDBLK
  5
BA4
330
B99
100
AcDbEntity
  8
0
100
AcDbBlockEnd
  0
ENDSEC
  0
SECTION
  2
ENTITIES
  0
LINE
  5
2AD
330
A
100
AcDbEntity
  8
03
100
AcDbLine
 10
43.65377855887553
 20
102.7249560632687
 30
0.0
 11
43.65377855887553
 21
305.7249560632687
 31
0.0
  0
LINE
  5
2AE
330
A
100
AcDbEntity
  8
03
100
AcDbLine
 10
178.6537785588753
 20
339.7138028930646
 30
0.0
 11
178.6537785588753
 21
65.488062728133
 31
0.0
  0
LINE
  5
2AF
330
A
100
AcDbEntity
  8
03
100
AcDbLine
 10
178.6537785588753
 20
102.7249560632687
 30
0.0
 11
43.65377855887553
 21
102.7249560632687
 31
0.0
  0
LINE
  5
2B0
330
A
100
AcDbEntity
  8
03
100
AcDbLine
 10
43.65377855887553
 20
305.7249560632687
 30
0.0
 11
178.6537785588753
 21
305.7249560632687
 31
0.0
  0
LINE
  5
2B1
330
A
100
AcDbEntity
  8
03
100
AcDbLine
 10
178.6537785588753
 20
104.2249560632688
 30
0.0
 11
43.65377855887553
 21
104.2249560632688
 31
0.0
  0
LINE
  5
2B2
330
A
100
AcDbEntity
  8
03
100
AcDbLine
 10
45.15377855887552
 20
104.2249560632688
 30
0.0
 11
45.15377855887552
 21
304.2249560632686
 31
0.0
  0
LINE
  5
2B3
330
A
100
AcDbEntity
  8
03
100
AcDbLine
 10
43.65377855887553
 20
304.2249560632686
 30
0.0
 11
178.6537785588753
 21
304.2249560632686
 31
0.0
  0
LINE
  5
2B4
330
A
100
AcDbEntity
  8
03
100
AcDbLine
 10
83.65377855887549
 20
249.9999560632688
 30
0.0
 11
178.6537785588753
 21
249.9999560632688
 31
0.0
  0
LINE
  5
2B5
330
A
100
AcDbEntity
  8
03
100
AcDbLine
 10
73.6537785588755
 20
160.9499560632686
 30
0.0
 11
45.1537785588755
 21
160.9499560632686
 31
0.0
  0
LINE
  5
2B6
330
A
100
AcDbEntity
  8
03
100
AcDbLine
 10
45.1537785588755
 20
158.4499560632686
 30
0.0
 11
73.6537785588755
 21
158.4499560632686
 31
0.0
  0
LINE
  5
2B7
330
A
100
AcDbEntity
  8
03
100
AcDbLine
 10
73.6537785588755
 20
247.4999560632688
 30
0.0
 11
45.15377855887552
 21
247.4999560632688
 31
0.0
  0
LINE
  5
2B8
330
A
100
AcDbEntity
  8
03
100
AcDbLine
 10
45.15377855887552
 20
249.9999560632688
 30
0.0
 11
73.6537785588755
 21
249.9999560632688
 31
0.0
  0
LINE
  5
2B9
330
A
100
AcDbEntity
  8
SAISEN
100
AcDbLine
 10
50.40467474849865
 20
141.5113517352265
 30
0.0
 11
68.21045145614633
 21
123.7055750275787
 31
0.0
  0
LINE
  5
2BA
330
A
100
AcDbEntity
  8
SAISEN
100
AcDbLine
 10
53.75938630211343
 20
136.6566401816116
 30
0.0
 11
64.33963043274466
 21
126.0763960509804
 31
0.0
  0
LINE
  5
2BB
330
A
100
AcDbEntity
  8
SAISEN
100
AcDbLine
 10
53.75938630211343
 20
139.6566401816117
 30
0.0
 11
64.33963043274466
 21
129.0763960509804
 31
0.0
  0
LINE
  5
2BC
330
A
100
AcDbEntity
  8
SAISEN
100
AcDbLine
 10
105.3703332808022
 20
136.3502570373576
 30
0.0
 11
123.1761099884499
 21
118.5444803297099
 31
0.0
  0
LINE
  5
2BD
330
A
100
AcDbEntity
  8
SAISEN
100
AcDbLine
 10
108.725044834417
 20
131.4955454837428
 30
0.0
 11
119.3052889650482
 21
120.9153013531115
 31
0.0
  0
LINE
  5
2BE
330
A
100
AcDbEntity
  8
SAISEN
100
AcDbLine
 10
108.725044834417
 20
134.4955454837428
 30
0.0
 11
119.3052889650482
 21
123.9153013531115
 31
0.0
  0
LINE
  5
2BF
330
A
100
AcDbEntity
  8
SAISEN
100
AcDbLine
 10
50.50089020505166
 20
213.1278444170926
 30
0.0
 11
68.30666691269934
 21
195.3220677094449
 31
0.0
  0
LINE
  5
2C0
330
A
100
AcDbEntity
  8
SAISEN
100
AcDbLine
 10
53.85560175866643
 20
208.2731328634778
 30
0.0
 11
64.43584588929765
 21
197.6928887328466
 31
0.0
  0
LINE
  5
2C1
330
A
100
AcDbEntity
  8
SAISEN
100
AcDbLine
 10
53.85560175866643
 20
211.2731328634779
 30
0.0
 11
64.43584588929765
 21
200.6928887328466
 31
0.0
  0
LINE
  5
2C2
330
A
100
AcDbEntity
  8
SAISEN
100
AcDbLine
 10
50.40467474849865
 20
281.5113517352265
 30
0.0
 11
68.21045145614633
 21
263.7055750275786
 31
0.0
  0
LINE
  5
2C3
330
A
100
AcDbEntity
  8
SAISEN
100
AcDbLine
 10
53.75938630211343
 20
276.6566401816116
 30
0.0
 11
64.33963043274466
 21
266.0763960509803
 31
0.0
  0
LINE
  5
2C4
330
A
100
AcDbEntity
  8
SAISEN
100
AcDbLine
 10
53.75938630211343
 20
279.6566401816117
 30
0.0
 11
64.33963043274466
 21
269.0763960509804
 31
0.0
  0
LINE
  5
2C5
330
A
100
AcDbEntity
  8
SAISEN
100
AcDbLine
 10
105.3703332808022
 20
190.7371875305461
 30
0.0
 11
123.1761099884499
 21
172.9314108228984
 31
0.0
  0
LINE
  5
2C6
330
A
100
AcDbEntity
  8
SAISEN
100
AcDbLine
 10
108.725044834417
 20
185.8824759769314
 30
0.0
 11
119.3052889650482
 21
175.3022318463002
 31
0.0
  0
LINE
  5
2C7
330
A
100
AcDbEntity
  8
SAISEN
100
AcDbLine
 10
108.725044834417
 20
188.8824759769314
 30
0.0
 11
119.3052889650482
 21
178.3022318463002
 31
0.0
  0
LINE
  5
2C8
330
A
100
AcDbEntity
  8
SAISEN
100
AcDbLine
 10
105.3703332808022
 20
236.3502570373575
 30
0.0
 11
123.1761099884499
 21
218.5444803297099
 31
0.0
  0
LINE
  5
2C9
330
A
100
AcDbEntity
  8
SAISEN
100
AcDbLine
 10
108.725044834417
 20
231.4955454837428
 30
0.0
 11
119.3052889650482
 21
220.9153013531115
 31
0.0
  0
LINE
  5
2CA
330
A
100
AcDbEntity
  8
SAISEN
100
AcDbLine
 10
108.725044834417
 20
234.4955454837428
 30
0.0
 11
119.3052889650482
 21
223.9153013531114
 31
0.0
  0
LINE
  5
2CB
330
A
100
AcDbEntity
  8
SAISEN
100
AcDbLine
 10
105.3703332808022
 20
286.3502570373576
 30
0.0
 11
123.1761099884499
 21
268.5444803297098
 31
0.0
  0
LINE
  5
2CC
330
A
100
AcDbEntity
  8
SAISEN
100
AcDbLine
 10
108.725044834417
 20
281.4955454837429
 30
0.0
 11
119.3052889650482
 21
270.9153013531115
 31
0.0
  0
LINE
  5
2CD
330
A
100
AcDbEntity
  8
SAISEN
100
AcDbLine
 10
108.725044834417
 20
284.4955454837428
 30
0.0
 11
119.3052889650482
 21
273.9153013531116
 31
0.0
  0
LINE
  5
2CE
330
A
100
AcDbEntity
  8
03
100
AcDbLine
 10
173.6537785588755
 20
304.2249560632686
 30
0.0
 11
173.6537785588755
 21
249.9999560632688
 31
0.0
  0
LINE
  5
2CF
330
A
100
AcDbEntity
  8
03
100
AcDbLine
 10
173.6537785588755
 20
158.4499560632686
 30
0.0
 11
173.6537785588755
 21
104.2249560632688
 31
0.0
  0
LINE
  5
2D0
330
A
100
AcDbEntity
  8
03
100
AcDbLine
 10
73.6537785588755
 20
204.2249560632688
 30
0.0
 11
83.65377855887549
 21
104.2249560632688
 31
0.0
  0
LINE
  5
2D1
330
A
100
AcDbEntity
  8
03
100
AcDbLine
 10
73.6537785588755
 20
204.2249560632688
 30
0.0
 11
83.65377855887549
 21
304.2249560632686
 31
0.0
  0
LINE
  5
2D2
330
A
100
AcDbEntity
  8
03
100
AcDbLine
 10
73.6537785588755
 20
104.2249560632688
 30
0.0
 11
73.6537785588755
 21
304.2249560632686
 31
0.0
  0
LINE
  5
2D3
330
A
100
AcDbEntity
  8
03
100
AcDbLine
 10
83.65377855887549
 20
104.2249560632688
 30
0.0
 11
83.65377855887549
 21
304.2249560632686
 31
0.0
  0
LINE
  5
2D4
330
A
100
AcDbEntity
  8
03
100
AcDbLine
 10
178.6537785588754
 20
527.9250712935637
 30
0.0
 11
178.6537785588754
 21
361.9452863348476
 31
0.0
  0
LINE
  5
2D5
330
A
100
AcDbEntity
  8
03
100
AcDbLine
 10
43.65377855887553
 20
380.7249560632687
 30
0.0
 11
43.65377855887553
 21
508.7249560632686
 31
0.0
  0
LINE
  5
2D6
330
A
100
AcDbEntity
  8
03
100
AcDbLine
 10
43.65377855887553
 20
508.7249560632686
 30
0.0
 11
178.6537785588754
 21
508.7249560632686
 31
0.0
  0
LINE
  5
2D7
330
A
100
AcDbEntity
  8
03
100
AcDbLine
 10
178.6537785588754
 20
380.7249560632687
 30
0.0
 11
43.65377855887553
 21
380.7249560632687
 31
0.0
  0
LINE
  5
2D8
330
A
100
AcDbEntity
  8
03
100
AcDbLine
 10
73.6537785588755
 20
382.2249560632688
 30
0.0
 11
73.6537785588755
 21
507.2249560632688
 31
0.0
  0
LINE
  5
2D9
330
A
100
AcDbEntity
  8
03
100
AcDbLine
 10
83.65377855887549
 20
382.2249560632688
 30
0.0
 11
83.65377855887549
 21
507.2249560632688
 31
0.0
  0
LINE
  5
2DA
330
A
100
AcDbEntity
  8
03
100
AcDbLine
 10
178.6537785588754
 20
382.2249560632688
 30
0.0
 11
43.65377855887553
 21
382.2249560632688
 31
0.0
  0
LINE
  5
2DB
330
A
100
AcDbEntity
  8
03
100
AcDbLine
 10
45.15377855887552
 20
382.2249560632688
 30
0.0
 11
45.15377855887552
 21
507.2249560632688
 31
0.0
  0
LINE
  5
2DC
330
A
100
AcDbEntity
  8
03
100
AcDbLine
 10
43.65377855887553
 20
507.2249560632688
 30
0.0
 11
178.6537785588754
 21
507.2249560632688
 31
0.0
  0
LINE
  5
2DD
330
A
100
AcDbEntity
  8
03
100
AcDbLine
 10
73.6537785588755
 20
444.7249560632688
 30
0.0
 11
83.65377855887549
 21
382.2249560632688
 31
0.0
  0
LINE
  5
2DE
330
A
100
AcDbEntity
  8
03
100
AcDbLine
 10
73.6537785588755
 20
444.7249560632688
 30
0.0
 11
83.65377855887549
 21
507.2249560632688
 31
0.0
  0
LINE
  5
2DF
330
A
100
AcDbEntity
  8
03
100
AcDbLine
 10
83.65377855887549
 20
443.3249560632686
 30
0.0
 11
178.6537785588754
 21
443.3249560632686
 31
0.0
  0
LINE
  5
2E0
330
A
100
AcDbEntity
  8
SAISEN
100
AcDbLine
 10
105.3703332808024
 20
423.5418211849852
 30
0.0
 11
123.1761099884499
 21
405.7360444773376
 31
0.0
  0
LINE
  5
2E1
330
A
100
AcDbEntity
  8
SAISEN
100
AcDbLine
 10
108.725044834417
 20
418.6871096313704
 30
0.0
 11
119.3052889650482
 21
408.1068655007392
 31
0.0
  0
LINE
  5
2E2
330
A
100
AcDbEntity
  8
SAISEN
100
AcDbLine
 10
108.725044834417
 20
421.6871096313704
 30
0.0
 11
119.3052889650482
 21
411.1068655007392
 31
0.0
  0
LINE
  5
2E3
330
A
100
AcDbEntity
  8
SAISEN
100
AcDbLine
 10
105.3703332808024
 20
481.661329093597
 30
0.0
 11
123.1761099884499
 21
463.8555523859493
 31
0.0
  0
LINE
  5
2E4
330
A
100
AcDbEntity
  8
SAISEN
100
AcDbLine
 10
108.725044834417
 20
476.8066175399821
 30
0.0
 11
119.3052889650484
 21
466.2263734093509
 31
0.0
  0
LINE
  5
2E5
330
A
100
AcDbEntity
  8
SAISEN
100
AcDbLine
 10
108.725044834417
 20
479.8066175399823
 30
0.0
 11
119.3052889650484
 21
469.226373409351
 31
0.0
  0
LINE
  5
2E6
330
A
100
AcDbEntity
  8
03
100
AcDbLine
 10
173.6537785588755
 20
507.2249560632688
 30
0.0
 11
173.6537785588755
 21
443.3249560632686
 31
0.0
  0
LINE
  5
2E7
330
A
100
AcDbEntity
  8
SAISEN
100
AcDbLine
 10
49.99580880490126
 20
484.9233954864357
 30
0.0
 11
67.80158551254894
 21
467.1176187787879
 31
0.0
  0
LINE
  5
2E8
330
A
100
AcDbEntity
  8
SAISEN
100
AcDbLine
 10
53.35052035851603
 20
480.0686839328208
 30
0.0
 11
63.93076448914726
 21
469.4884398021896
 31
0.0
  0
LINE
  5
2E9
330
A
100
AcDbEntity
  8
SAISEN
100
AcDbLine
 10
53.35052035851603
 20
483.0686839328208
 30
0.0
 11
63.93076448914726
 21
472.4884398021896
 31
0.0
  0
LINE
  5
2EA
330
A
100
AcDbEntity
  8
SAISEN
100
AcDbLine
 10
49.99580880490126
 20
419.2399474155625
 30
0.0
 11
67.80158551254894
 21
401.4341707079148
 31
0.0
  0
LINE
  5
2EB
330
A
100
AcDbEntity
  8
SAISEN
100
AcDbLine
 10
53.35052035851603
 20
414.3852358619477
 30
0.0
 11
63.93076448914726
 21
403.8049917313164
 31
0.0
  0
LINE
  5
2EC
330
A
100
AcDbEntity
  8
SAISEN
100
AcDbLine
 10
53.35052035851603
 20
417.3852358619479
 30
0.0
 11
63.93076448914726
 21
406.8049917313166
 31
0.0
  0
LINE
  5
2ED
330
A
100
AcDbEntity
  8
03
100
AcDbLine
 10
118.6537785588755
 20
516.3499560632686
 30
0.0
 11
118.6537785588755
 21
519.8499560632686
 31
0.0
  0
LINE
  5
2EE
330
A
100
AcDbEntity
  8
03
100
AcDbLine
 10
124.6537785588754
 20
519.8499560632686
 30
0.0
 11
124.6537785588754
 21
516.3499560632686
 31
0.0
  0
LINE
  5
2EF
330
A
100
AcDbEntity
  8
03
100
AcDbLine
 10
124.6537785588754
 20
516.3499560632686
 30
0.0
 11
118.6537785588755
 21
516.3499560632686
 31
0.0
  0
LINE
  5
2F0
330
A
100
AcDbEntity
  8
03
100
AcDbLine
 10
118.6537785588755
 20
519.8499560632686
 30
0.0
 11
124.6537785588754
 21
519.8499560632686
 31
0.0
  0
LINE
  5
2F1
330
A
100
AcDbEntity
  8
03
100
AcDbLine
 10
118.6537785588755
 20
313.3499560632687
 30
0.0
 11
118.6537785588755
 21
316.8499560632688
 31
0.0
  0
LINE
  5
2F2
330
A
100
AcDbEntity
  8
03
100
AcDbLine
 10
124.6537785588754
 20
316.8499560632688
 30
0.0
 11
124.6537785588754
 21
313.3499560632687
 31
0.0
  0
LINE
  5
2F3
330
A
100
AcDbEntity
  8
03
100
AcDbLine
 10
124.6537785588754
 20
313.3499560632687
 30
0.0
 11
118.6537785588755
 21
313.3499560632687
 31
0.0
  0
LINE
  5
2F4
330
A
100
AcDbEntity
  8
03
100
AcDbLine
 10
118.6537785588755
 20
316.8499560632688
 30
0.0
 11
124.6537785588754
 21
316.8499560632688
 31
0.0
  0
LINE
  5
2F5
330
A
100
AcDbEntity
  8
03
100
AcDbLine
 10
83.65377855887549
 20
158.4499560632686
 30
0.0
 11
178.6537785588753
 21
158.4499560632686
 31
0.0
  0
LINE
  5
2F6
330
A
100
AcDbEntity
  8
03
100
AcDbLine
 10
234.9894551845341
 20
535.4964850615114
 30
0.0
 11
234.9894551845341
 21
562.4964850615112
 31
0.0
  0
LINE
  5
2F7
330
A
100
AcDbEntity
  8
03
100
AcDbLine
 10
354.9894551845342
 20
562.4964850615112
 30
0.0
 11
354.9894551845342
 21
535.4964850615114
 31
0.0
  0
LINE
  5
2F8
330
A
100
AcDbEntity
  8
03
100
AcDbLine
 10
236.4894551845341
 20
563.9964850615114
 30
0.0
 11
251.4894551845341
 21
563.9964850615114
 31
0.0
  0
LINE
  5
2F9
330
A
100
AcDbEntity
  8
03
100
AcDbLine
 10
236.4894551845341
 20
535.4964850615114
 30
0.0
 11
236.4894551845341
 21
562.4964850615112
 31
0.0
  0
LINE
  5
2FA
330
A
100
AcDbEntity
  8
03
100
AcDbLine
 10
236.4894551845341
 20
562.4964850615112
 30
0.0
 11
251.4894551845341
 21
562.4964850615112
 31
0.0
  0
LINE
  5
2FB
330
A
100
AcDbEntity
  8
03
100
AcDbLine
 10
353.4894551845342
 20
562.4964850615112
 30
0.0
 11
353.4894551845342
 21
535.4964850615114
 31
0.0
  0
LINE
  5
2FC
330
A
100
AcDbEntity
  8
03
100
AcDbLine
 10
251.4894551845341
 20
562.4964850615112
 30
0.0
 11
251.4894551845341
 21
563.9964850615114
 31
0.0
  0
LINE
  5
2FD
330
A
100
AcDbEntity
  8
03
100
AcDbLine
 10
353.4894551845342
 20
562.4964850615112
 30
0.0
 11
339.9894551845341
 21
562.4964850615112
 31
0.0
  0
LINE
  5
2FE
330
A
100
AcDbEntity
  8
03
100
AcDbLine
 10
353.4894551845342
 20
563.9964850615114
 30
0.0
 11
339.9894551845341
 21
563.9964850615114
 31
0.0
  0
LINE
  5
2FF
330
A
100
AcDbEntity
  8
03
100
AcDbLine
 10
339.9894551845341
 20
562.4964850615112
 30
0.0
 11
339.9894551845341
 21
563.9964850615114
 31
0.0
  0
ARC
  5
300
330
A
100
AcDbEntity
  8
03
100
AcDbCircle
 10
353.4894551845342
 20
562.4964850615112
 30
0.0
 40
1.5
100
AcDbArc
 50
0.0
 51
90.0
  0
ARC
  5
301
330
A
100
AcDbEntity
  8
03
100
AcDbCircle
 10
353.4894551845342
 20
535.4964850615114
 30
0.0
 40
1.5
100
AcDbArc
 50
270.0
 51
0.0
  0
ARC
  5
302
330
A
100
AcDbEntity
  8
03
100
AcDbCircle
 10
236.4894551845341
 20
562.4964850615112
 30
0.0
 40
1.5
100
AcDbArc
 50
90.0
 51
180.0
  0
ARC
  5
303
330
A
100
AcDbEntity
  8
03
100
AcDbCircle
 10
236.4894551845341
 20
535.4964850615114
 30
0.0
 40
1.5
100
AcDbArc
 50
180.0
 51
270.0
  0
LINE
  5
304
330
A
100
AcDbEntity
  8
03
100
AcDbLine
 10
268.9894551845341
 20
535.4964850615114
 30
0.0
 11
268.9894551845341
 21
548.9964850615113
 31
0.0
  0
LINE
  5
305
330
A
100
AcDbEntity
  8
03
100
AcDbLine
 10
284.9894551845341
 20
548.9964850615113
 30
0.0
 11
284.9894551845341
 21
535.4964850615114
 31
0.0
  0
LINE
  5
306
330
A
100
AcDbEntity
  8
03
100
AcDbLine
 10
353.4894551845342
 20
533.9964850615114
 30
0.0
 11
286.4894551845342
 21
533.9964850615114
 31
0.0
  0
LINE
  5
307
330
A
100
AcDbEntity
  8
03
100
AcDbLine
 10
353.4894551845342
 20
535.4964850615114
 30
0.0
 11
286.4894551845342
 21
535.4964850615114
 31
0.0
  0
LINE
  5
308
330
A
100
AcDbEntity
  8
03
100
AcDbLine
 10
268.9894551845341
 20
548.9964850615113
 30
0.0
 11
284.9894551845341
 21
548.9964850615113
 31
0.0
  0
LINE
  5
309
330
A
100
AcDbEntity
  8
03
100
AcDbLine
 10
267.4894551845341
 20
535.4964850615114
 30
0.0
 11
267.4894551845341
 21
548.9964850615113
 31
0.0
  0
LINE
  5
30A
330
A
100
AcDbEntity
  8
03
100
AcDbLine
 10
286.4894551845342
 20
548.9964850615113
 30
0.0
 11
286.4894551845342
 21
535.4964850615114
 31
0.0
  0
LINE
  5
30B
330
A
100
AcDbEntity
  8
03
100
AcDbLine
 10
268.9894551845341
 20
550.4964850615114
 30
0.0
 11
284.9894551845341
 21
550.4964850615114
 31
0.0
  0
ARC
  5
30C
330
A
100
AcDbEntity
  8
03
100
AcDbCircle
 10
267.4894551845341
 20
535.4964850615114
 30
0.0
 40
1.5
100
AcDbArc
 50
270.0
 51
0.0
  0
ARC
  5
30D
330
A
100
AcDbEntity
  8
03
100
AcDbCircle
 10
268.9894551845341
 20
548.9964850615113
 30
0.0
 40
1.5
100
AcDbArc
 50
90.0
 51
180.0
  0
ARC
  5
30E
330
A
100
AcDbEntity
  8
03
100
AcDbCircle
 10
284.9894551845341
 20
548.9964850615113
 30
0.0
 40
1.5
100
AcDbArc
 50
0.0
 51
90.0
  0
ARC
  5
30F
330
A
100
AcDbEntity
  8
03
100
AcDbCircle
 10
286.4894551845342
 20
535.4964850615114
 30
0.0
 40
1.5
100
AcDbArc
 50
180.0
 51
270.0
  0
LINE
  5
310
330
A
100
AcDbEntity
  8
03
100
AcDbLine
 10
283.3861255466969
 20
533.9964850615114
 30
0.0
 11
270.5927848223714
 21
533.9964850615114
 31
0.0
  0
LINE
  5
311
330
A
100
AcDbEntity
  8
03
100
AcDbLine
 10
283.4894551845343
 20
535.4964850615114
 30
0.0
 11
270.4894551845341
 21
535.4964850615114
 31
0.0
  0
LINE
  5
312
330
A
100
AcDbEntity
  8
03
100
AcDbLine
 10
269.9894551845341
 20
548.9964850615113
 30
0.0
 11
271.4894551845341
 21
548.9964850615113
 31
0.0
  0
LINE
  5
313
330
A
100
AcDbEntity
  8
03
100
AcDbLine
 10
282.4894551845341
 20
548.9964850615113
 30
0.0
 11
283.9894551845341
 21
548.9964850615113
 31
0.0
  0
LINE
  5
314
330
A
100
AcDbEntity
  8
03
100
AcDbLine
 10
269.0961070855867
 20
535.5962635772974
 30
0.0
 11
269.9894551845341
 21
548.9964850615113
 31
0.0
  0
LINE
  5
315
330
A
100
AcDbEntity
  8
03
100
AcDbLine
 10
270.4894551845341
 20
535.4964850615114
 30
0.0
 11
271.4894551845341
 21
548.9964850615113
 31
0.0
  0
LINE
  5
316
330
A
100
AcDbEntity
  8
03
100
AcDbLine
 10
283.4894551845343
 20
535.4964850615114
 30
0.0
 11
282.4894551845341
 21
548.9964850615113
 31
0.0
  0
LINE
  5
317
330
A
100
AcDbEntity
  8
03
100
AcDbLine
 10
284.8828032834818
 20
535.5962635772971
 30
0.0
 11
283.9894551845341
 21
548.9964850615113
 31
0.0
  0
ARC
  5
318
330
A
100
AcDbEntity
  8
03
100
AcDbCircle
 10
270.5927848223714
 20
535.4964850615115
 30
0.0
 40
1.5
100
AcDbArc
 50
176.1859251656945
 51
270.0
  0
ARC
  5
319
330
A
100
AcDbEntity
  8
03
100
AcDbCircle
 10
283.3861255466969
 20
535.4964850615115
 30
0.0
 40
1.5
100
AcDbArc
 50
270.0
 51
3.814074834288012
  0
LINE
  5
31A
330
A
100
AcDbEntity
  8
03
100
AcDbLine
 10
241.9894551845342
 20
533.9964850615114
 30
0.0
 11
241.9894551845342
 21
535.4964850615114
 31
0.0
  0
LINE
  5
31B
330
A
100
AcDbEntity
  8
03
100
AcDbLine
 10
253.9894551845342
 20
533.9964850615114
 30
0.0
 11
253.9894551845342
 21
535.4964850615114
 31
0.0
  0
LINE
  5
31C
330
A
100
AcDbEntity
  8
03
100
AcDbLine
 10
267.4894551845341
 20
533.9964850615114
 30
0.0
 11
253.9894551845342
 21
533.9964850615114
 31
0.0
  0
LINE
  5
31D
330
A
100
AcDbEntity
  8
03
100
AcDbLine
 10
241.9894551845342
 20
533.9964850615114
 30
0.0
 11
236.4894551845341
 21
533.9964850615114
 31
0.0
  0
LINE
  5
31E
330
A
100
AcDbEntity
  8
03
100
AcDbLine
 10
267.4894551845341
 20
535.4964850615114
 30
0.0
 11
253.9894551845342
 21
535.4964850615114
 31
0.0
  0
LINE
  5
31F
330
A
100
AcDbEntity
  8
03
100
AcDbLine
 10
241.9894551845342
 20
535.4964850615114
 30
0.0
 11
236.4894551845341
 21
535.4964850615114
 31
0.0
  0
LINE
  5
320
330
A
100
AcDbEntity
  8
03
100
AcDbLine
 10
234.9894551845341
 20
107.4963149384885
 30
0.0
 11
234.9894551845341
 21
80.49631493848854
 31
0.0
  0
LINE
  5
321
330
A
100
AcDbEntity
  8
03
100
AcDbLine
 10
354.9894551845342
 20
80.49631493848854
 30
0.0
 11
354.9894551845342
 21
107.4963149384885
 31
0.0
  0
LINE
  5
322
330
A
100
AcDbEntity
  8
03
100
AcDbLine
 10
236.4894551845341
 20
78.99631493848855
 30
0.0
 11
251.4894551845341
 21
78.99631493848855
 31
0.0
  0
LINE
  5
323
330
A
100
AcDbEntity
  8
03
100
AcDbLine
 10
236.4894551845341
 20
107.4963149384885
 30
0.0
 11
236.4894551845341
 21
80.49631493848854
 31
0.0
  0
LINE
  5
324
330
A
100
AcDbEntity
  8
03
100
AcDbLine
 10
236.4894551845341
 20
80.49631493848854
 30
0.0
 11
251.4894551845341
 21
80.49631493848854
 31
0.0
  0
LINE
  5
325
330
A
100
AcDbEntity
  8
03
100
AcDbLine
 10
353.4894551845342
 20
80.49631493848854
 30
0.0
 11
353.4894551845342
 21
107.4963149384885
 31
0.0
  0
LINE
  5
326
330
A
100
AcDbEntity
  8
03
100
AcDbLine
 10
251.4894551845341
 20
80.49631493848854
 30
0.0
 11
251.4894551845341
 21
78.99631493848855
 31
0.0
  0
LINE
  5
327
330
A
100
AcDbEntity
  8
03
100
AcDbLine
 10
353.4894551845342
 20
80.49631493848854
 30
0.0
 11
339.9894551845341
 21
80.49631493848854
 31
0.0
  0
LINE
  5
328
330
A
100
AcDbEntity
  8
03
100
AcDbLine
 10
353.4894551845342
 20
78.99631493848855
 30
0.0
 11
339.9894551845341
 21
78.99631493848855
 31
0.0
  0
LINE
  5
329
330
A
100
AcDbEntity
  8
03
100
AcDbLine
 10
339.9894551845341
 20
80.49631493848854
 30
0.0
 11
339.9894551845341
 21
78.99631493848855
 31
0.0
  0
ARC
  5
32A
330
A
100
AcDbEntity
  8
03
100
AcDbCircle
 10
353.4894551845342
 20
80.49631493848854
 30
0.0
 40
1.5
100
AcDbArc
 50
270.0
 51
0.0
  0
ARC
  5
32B
330
A
100
AcDbEntity
  8
03
100
AcDbCircle
 10
353.4894551845342
 20
107.4963149384885
 30
0.0
 40
1.5
100
AcDbArc
 50
0.0
 51
90.0
  0
ARC
  5
32C
330
A
100
AcDbEntity
  8
03
100
AcDbCircle
 10
236.4894551845341
 20
80.49631493848854
 30
0.0
 40
1.5
100
AcDbArc
 50
180.0
 51
270.0
  0
ARC
  5
32D
330
A
100
AcDbEntity
  8
03
100
AcDbCircle
 10
236.4894551845341
 20
107.4963149384885
 30
0.0
 40
1.5
100
AcDbArc
 50
90.0
 51
180.0
  0
LINE
  5
32E
330
A
100
AcDbEntity
  8
03
100
AcDbLine
 10
268.9894551845341
 20
107.4963149384885
 30
0.0
 11
268.9894551845341
 21
93.99631493848856
 31
0.0
  0
LINE
  5
32F
330
A
100
AcDbEntity
  8
03
100
AcDbLine
 10
284.9894551845341
 20
93.99631493848856
 30
0.0
 11
284.9894551845341
 21
107.4963149384885
 31
0.0
  0
LINE
  5
330
330
A
100
AcDbEntity
  8
03
100
AcDbLine
 10
353.4894551845342
 20
108.9963149384884
 30
0.0
 11
286.4894551845342
 21
108.9963149384884
 31
0.0
  0
LINE
  5
331
330
A
100
AcDbEntity
  8
03
100
AcDbLine
 10
353.4894551845342
 20
107.4963149384885
 30
0.0
 11
286.4894551845342
 21
107.4963149384885
 31
0.0
  0
LINE
  5
332
330
A
100
AcDbEntity
  8
03
100
AcDbLine
 10
268.9894551845341
 20
93.99631493848856
 30
0.0
 11
284.9894551845341
 21
93.99631493848856
 31
0.0
  0
LINE
  5
333
330
A
100
AcDbEntity
  8
03
100
AcDbLine
 10
267.4894551845341
 20
107.4963149384885
 30
0.0
 11
267.4894551845341
 21
93.99631493848856
 31
0.0
  0
LINE
  5
334
330
A
100
AcDbEntity
  8
03
100
AcDbLine
 10
286.4894551845342
 20
93.99631493848856
 30
0.0
 11
286.4894551845342
 21
107.4963149384885
 31
0.0
  0
LINE
  5
335
330
A
100
AcDbEntity
  8
03
100
AcDbLine
 10
268.9894551845341
 20
92.49631493848857
 30
0.0
 11
284.9894551845341
 21
92.49631493848857
 31
0.0
  0
ARC
  5
336
330
A
100
AcDbEntity
  8
03
100
AcDbCircle
 10
267.4894551845341
 20
107.4963149384885
 30
0.0
 40
1.5
100
AcDbArc
 50
0.0
 51
90.0
  0
ARC
  5
337
330
A
100
AcDbEntity
  8
03
100
AcDbCircle
 10
268.9894551845341
 20
93.99631493848856
 30
0.0
 40
1.5
100
AcDbArc
 50
180.0
 51
270.0
  0
ARC
  5
338
330
A
100
AcDbEntity
  8
03
100
AcDbCircle
 10
284.9894551845341
 20
93.99631493848856
 30
0.0
 40
1.5
100
AcDbArc
 50
270.0
 51
0.0
  0
ARC
  5
339
330
A
100
AcDbEntity
  8
03
100
AcDbCircle
 10
286.4894551845342
 20
107.4963149384885
 30
0.0
 40
1.5
100
AcDbArc
 50
90.0
 51
180.0
  0
LINE
  5
33A
330
A
100
AcDbEntity
  8
03
100
AcDbLine
 10
283.3861255466969
 20
108.9963149384884
 30
0.0
 11
270.5927848223714
 21
108.9963149384884
 31
0.0
  0
LINE
  5
33B
330
A
100
AcDbEntity
  8
03
100
AcDbLine
 10
283.4894551845341
 20
107.4963149384885
 30
0.0
 11
270.4894551845341
 21
107.4963149384885
 31
0.0
  0
LINE
  5
33C
330
A
100
AcDbEntity
  8
03
100
AcDbLine
 10
269.9894551845341
 20
93.99631493848856
 30
0.0
 11
271.4894551845341
 21
93.99631493848856
 31
0.0
  0
LINE
  5
33D
330
A
100
AcDbEntity
  8
03
100
AcDbLine
 10
282.4894551845341
 20
93.99631493848856
 30
0.0
 11
283.9894551845341
 21
93.99631493848856
 31
0.0
  0
LINE
  5
33E
330
A
100
AcDbEntity
  8
03
100
AcDbLine
 10
269.0961070855866
 20
107.3965364227023
 30
0.0
 11
269.9894551845341
 21
93.99631493848856
 31
0.0
  0
LINE
  5
33F
330
A
100
AcDbEntity
  8
03
100
AcDbLine
 10
270.4894551845341
 20
107.4963149384885
 30
0.0
 11
271.4894551845341
 21
93.99631493848856
 31
0.0
  0
LINE
  5
340
330
A
100
AcDbEntity
  8
03
100
AcDbLine
 10
283.4894551845341
 20
107.4963149384885
 30
0.0
 11
282.4894551845341
 21
93.99631493848856
 31
0.0
  0
LINE
  5
341
330
A
100
AcDbEntity
  8
03
100
AcDbLine
 10
284.8828032834818
 20
107.3965364227027
 30
0.0
 11
283.9894551845341
 21
93.99631493848856
 31
0.0
  0
ARC
  5
342
330
A
100
AcDbEntity
  8
03
100
AcDbCircle
 10
270.5927848223714
 20
107.4963149384883
 30
0.0
 40
1.5
100
AcDbArc
 50
90.0
 51
183.8140748343054
  0
ARC
  5
343
330
A
100
AcDbEntity
  8
03
100
AcDbCircle
 10
283.3861255466969
 20
107.4963149384883
 30
0.0
 40
1.5
100
AcDbArc
 50
356.1859251657119
 51
90.0
  0
LINE
  5
344
330
A
100
AcDbEntity
  8
03
100
AcDbLine
 10
241.9894551845342
 20
108.9963149384884
 30
0.0
 11
241.9894551845342
 21
107.4963149384885
 31
0.0
  0
LINE
  5
345
330
A
100
AcDbEntity
  8
03
100
AcDbLine
 10
253.9894551845342
 20
108.9963149384884
 30
0.0
 11
253.9894551845342
 21
107.4963149384885
 31
0.0
  0
LINE
  5
346
330
A
100
AcDbEntity
  8
03
100
AcDbLine
 10
267.4894551845341
 20
108.9963149384884
 30
0.0
 11
253.9894551845342
 21
108.9963149384884
 31
0.0
  0
LINE
  5
347
330
A
100
AcDbEntity
  8
03
100
AcDbLine
 10
241.9894551845342
 20
108.9963149384884
 30
0.0
 11
236.4894551845341
 21
108.9963149384884
 31
0.0
  0
LINE
  5
348
330
A
100
AcDbEntity
  8
03
100
AcDbLine
 10
267.5989584383328
 20
107.4963149384885
 30
0.0
 11
253.9894551845342
 21
107.4963149384885
 31
0.0
  0
LINE
  5
349
330
A
100
AcDbEntity
  8
03
100
AcDbLine
 10
241.9894551845342
 20
107.4963149384885
 30
0.0
 11
236.4894551845341
 21
107.4963149384885
 31
0.0
  0
LINE
  5
34A
330
A
100
AcDbEntity
  8
06
100
AcDbLine
 10
299.9894551845341
 20
383.9964850615114
 30
0.0
 11
299.9894551845341
 21
413.9964850615114
 31
0.0
  0
LINE
  5
34B
330
A
100
AcDbEntity
  8
06
100
AcDbLine
 10
327.9894551845341
 20
383.9964850615115
 30
0.0
 11
327.9894551845341
 21
413.9964850615114
 31
0.0
  0
LINE
  5
34C
330
A
100
AcDbEntity
  8
06
100
AcDbLine
 10
299.9894551845341
 20
348.9964000000001
 30
0.0
 11
299.9894551845341
 21
378.9964000000001
 31
0.0
  0
LINE
  5
34D
330
A
100
AcDbEntity
  8
06
100
AcDbLine
 10
327.9894551845341
 20
348.9964000000001
 30
0.0
 11
327.9894551845341
 21
378.9964000000001
 31
0.0
  0
LINE
  5
34E
330
A
100
AcDbEntity
  8
06
100
AcDbLine
 10
299.9894551845343
 20
293.9964000000001
 30
0.0
 11
299.9894551845343
 21
263.9964
 31
0.0
  0
LINE
  5
34F
330
A
100
AcDbEntity
  8
06
100
AcDbLine
 10
327.9894551845342
 20
293.9964000000001
 30
0.0
 11
327.9894551845342
 21
263.9963574692445
 31
0.0
  0
LINE
  5
350
330
A
100
AcDbEntity
  8
06
100
AcDbLine
 10
299.9894551845343
 20
258.9963574692445
 30
0.0
 11
299.9894551845343
 21
228.996314938489
 31
0.0
  0
LINE
  5
351
330
A
100
AcDbEntity
  8
06
100
AcDbLine
 10
327.9894551845344
 20
258.9963574692445
 30
0.0
 11
327.9894551845344
 21
228.996314938489
 31
0.0
  0
LINE
  5
352
330
A
100
AcDbEntity
  8
03
100
AcDbLine
 10
262.9894551845339
 20
476.4964850615114
 30
0.0
 11
262.9894551845339
 21
508.9964850615111
 31
0.0
  0
LINE
  5
353
330
A
100
AcDbEntity
  8
03
100
AcDbLine
 10
262.9894551845341
 20
438.9964850615114
 30
0.0
 11
262.9894551845341
 21
471.4964850615112
 31
0.0
  0
LINE
  5
354
330
A
100
AcDbEntity
  8
03
100
AcDbLine
 10
290.989455184534
 20
438.9964850615114
 30
0.0
 11
290.989455184534
 21
471.4964850615112
 31
0.0
  0
LINE
  5
355
330
A
100
AcDbEntity
  8
03
100
AcDbLine
 10
290.989455184534
 20
476.4964850615114
 30
0.0
 11
290.989455184534
 21
508.9964850615111
 31
0.0
  0
LINE
  5
356
330
A
100
AcDbEntity
  8
03
100
AcDbLine
 10
262.9894551845339
 20
171.4963149384884
 30
0.0
 11
262.9894551845339
 21
203.9963149384883
 31
0.0
  0
LINE
  5
357
330
A
100
AcDbEntity
  8
03
100
AcDbLine
 10
262.9894551845341
 20
133.9963149384887
 30
0.0
 11
262.9894551845341
 21
166.4963149384886
 31
0.0
  0
LINE
  5
358
330
A
100
AcDbEntity
  8
03
100
AcDbLine
 10
290.989455184534
 20
133.9963149384887
 30
0.0
 11
290.989455184534
 21
166.4963149384886
 31
0.0
  0
LINE
  5
359
330
A
100
AcDbEntity
  8
03
100
AcDbLine
 10
290.989455184534
 20
171.4963149384884
 30
0.0
 11
290.989455184534
 21
203.9963149384883
 31
0.0
  0
LINE
  5
35A
330
A
100
AcDbEntity
  8
03
100
AcDbLine
 10
305.4894551845341
 20
108.9963149384884
 30
0.0
 11
305.4894551845341
 21
166.4963149384886
 31
0.0
  0
LINE
  5
35B
330
A
100
AcDbEntity
  8
03
100
AcDbLine
 10
322.4894551845341
 20
166.4963149384886
 30
0.0
 11
322.4894551845341
 21
108.9963149384884
 31
0.0
  0
LINE
  5
35C
330
A
100
AcDbEntity
  8
03
100
AcDbLine
 10
305.4894551845341
 20
171.4963149384884
 30
0.0
 11
305.4894551845341
 21
203.9963149384889
 31
0.0
  0
LINE
  5
35D
330
A
100
AcDbEntity
  8
03
100
AcDbLine
 10
322.4894551845341
 20
203.9963149384889
 30
0.0
 11
322.4894551845341
 21
171.4963149384884
 31
0.0
  0
LINE
  5
35E
330
A
100
AcDbEntity
  8
03
100
AcDbLine
 10
322.4894551845341
 20
533.9964850615118
 30
0.0
 11
322.4894551845341
 21
476.4964850615114
 31
0.0
  0
LINE
  5
35F
330
A
100
AcDbEntity
  8
03
100
AcDbLine
 10
305.4894551845341
 20
476.4964850615114
 30
0.0
 11
305.4894551845341
 21
533.9964850615118
 31
0.0
  0
LINE
  5
360
330
A
100
AcDbEntity
  8
03
100
AcDbLine
 10
322.4894551845341
 20
471.4964850615112
 30
0.0
 11
322.4894551845341
 21
438.9964850615114
 31
0.0
  0
LINE
  5
361
330
A
100
AcDbEntity
  8
03
100
AcDbLine
 10
305.4894551845341
 20
438.9964850615114
 30
0.0
 11
305.4894551845341
 21
471.4964850615112
 31
0.0
  0
LINE
  5
362
330
A
100
AcDbEntity
  8
SAISEN
100
AcDbLine
 10
136.3708260105447
 20
222.2379613356765
 30
0.0
 11
136.3708260105447
 21
227.2379613356765
 31
0.0
  0
LINE
  5
363
330
A
100
AcDbEntity
  8
SAISEN
100
AcDbLine
 10
141.3708260105446
 20
227.2379613356765
 30
0.0
 11
141.3708260105446
 21
222.2379613356765
 31
0.0
  0
LINE
  5
364
330
A
100
AcDbEntity
  8
SAISEN
100
AcDbLine
 10
141.3708260105446
 20
222.2379613356765
 30
0.0
 11
136.3708260105447
 21
222.2379613356765
 31
0.0
  0
LINE
  5
365
330
A
100
AcDbEntity
  8
SAISEN
100
AcDbLine
 10
136.3708260105447
 20
227.2379613356765
 30
0.0
 11
132.6208260105447
 21
227.2379613356765
 31
0.0
  0
LINE
  5
366
330
A
100
AcDbEntity
  8
SAISEN
100
AcDbLine
 10
141.3708260105446
 20
227.2379613356765
 30
0.0
 11
145.1208260105446
 21
227.2379613356765
 31
0.0
  0
LINE
  5
367
330
A
100
AcDbEntity
  8
SAISEN
100
AcDbLine
 10
132.6208260105447
 20
227.2379613356765
 30
0.0
 11
138.8691710975358
 21
230.8454450536405
 31
0.0
  0
LINE
  5
368
330
A
100
AcDbEntity
  8
SAISEN
100
AcDbLine
 10
138.8691710975358
 20
230.8454450536405
 30
0.0
 11
145.1208260105446
 21
227.2379613356765
 31
0.0
  0
LINE
  5
369
330
A
100
AcDbEntity
  8
SAISEN
100
AcDbLine
 10
136.3708260105447
 20
184.2379613356764
 30
0.0
 11
136.3708260105447
 21
179.2379613356764
 31
0.0
  0
LINE
  5
36A
330
A
100
AcDbEntity
  8
SAISEN
100
AcDbLine
 10
141.3708260105446
 20
179.2379613356764
 30
0.0
 11
141.3708260105446
 21
184.2379613356764
 31
0.0
  0
LINE
  5
36B
330
A
100
AcDbEntity
  8
SAISEN
100
AcDbLine
 10
141.3708260105446
 20
184.2379613356764
 30
0.0
 11
136.3708260105447
 21
184.2379613356764
 31
0.0
  0
LINE
  5
36C
330
A
100
AcDbEntity
  8
SAISEN
100
AcDbLine
 10
136.3708260105447
 20
179.2379613356764
 30
0.0
 11
132.6208260105447
 21
179.2379613356764
 31
0.0
  0
LINE
  5
36D
330
A
100
AcDbEntity
  8
SAISEN
100
AcDbLine
 10
141.3708260105446
 20
179.2379613356764
 30
0.0
 11
145.1208260105446
 21
179.2379613356764
 31
0.0
  0
LINE
  5
36E
330
A
100
AcDbEntity
  8
SAISEN
100
AcDbLine
 10
132.6208260105447
 20
179.2379613356764
 30
0.0
 11
138.8691710975358
 21
175.6304776177126
 31
0.0
  0
LINE
  5
36F
330
A
100
AcDbEntity
  8
SAISEN
100
AcDbLine
 10
138.8691710975358
 20
175.6304776177126
 30
0.0
 11
145.1208260105446
 21
179.2379613356764
 31
0.0
  0
LINE
  5
370
330
A
100
AcDbEntity
  8
SAISEN
100
AcDbLine
 10
136.3708260105447
 20
409.2379613356766
 30
0.0
 11
136.3708260105447
 21
414.2379613356766
 31
0.0
  0
LINE
  5
371
330
A
100
AcDbEntity
  8
SAISEN
100
AcDbLine
 10
141.3708260105446
 20
414.2379613356766
 30
0.0
 11
141.3708260105446
 21
409.2379613356766
 31
0.0
  0
LINE
  5
372
330
A
100
AcDbEntity
  8
SAISEN
100
AcDbLine
 10
141.3708260105446
 20
409.2379613356766
 30
0.0
 11
136.3708260105447
 21
409.2379613356766
 31
0.0
  0
LINE
  5
373
330
A
100
AcDbEntity
  8
SAISEN
100
AcDbLine
 10
136.3708260105447
 20
414.2379613356766
 30
0.0
 11
132.6208260105447
 21
414.2379613356766
 31
0.0
  0
LINE
  5
374
330
A
100
AcDbEntity
  8
SAISEN
100
AcDbLine
 10
141.3708260105446
 20
414.2379613356766
 30
0.0
 11
145.1208260105446
 21
414.2379613356766
 31
0.0
  0
LINE
  5
375
330
A
100
AcDbEntity
  8
SAISEN
100
AcDbLine
 10
132.6208260105447
 20
414.2379613356766
 30
0.0
 11
138.8691710975358
 21
417.8454450536404
 31
0.0
  0
LINE
  5
376
330
A
100
AcDbEntity
  8
SAISEN
100
AcDbLine
 10
138.8691710975358
 20
417.8454450536404
 30
0.0
 11
145.1208260105446
 21
414.2379613356766
 31
0.0
  0
LINE
  5
377
330
A
100
AcDbEntity
  8
KAKURE
100
AcDbLine
 10
83.65377855887549
 20
442.0749560632686
 30
0.0
 11
178.6537785588754
 21
442.0749560632686
 31
0.0
  0
LINE
  5
378
330
A
100
AcDbEntity
  8
KAKURE
100
AcDbLine
 10
78.6537785588755
 20
492.2249560632686
 30
0.0
 11
78.6537785588755
 21
517.2249560632686
 31
0.0
  0
LINE
  5
379
330
A
100
AcDbEntity
  8
KAKURE
100
AcDbLine
 10
78.6537785588755
 20
517.2249560632686
 30
0.0
 11
118.6537785588755
 21
517.2249560632686
 31
0.0
  0
LINE
  5
37A
330
A
100
AcDbEntity
  8
KAKURE
100
AcDbLine
 10
28.65377855887547
 20
518.9749560632686
 30
0.0
 11
118.6537785588755
 21
518.9749560632686
 31
0.0
  0
LINE
  5
37B
330
A
100
AcDbEntity
  8
KAKURE
100
AcDbLine
 10
78.6537785588755
 20
314.2249560632687
 30
0.0
 11
118.6537785588755
 21
314.2249560632687
 31
0.0
  0
LINE
  5
37C
330
A
100
AcDbEntity
  8
KAKURE
100
AcDbLine
 10
28.65377855887547
 20
315.9749560632687
 30
0.0
 11
118.6537785588755
 21
315.9749560632687
 31
0.0
  0
LINE
  5
37D
330
A
100
AcDbEntity
  8
KAKURE
100
AcDbLine
 10
78.6537785588755
 20
289.2249560632687
 30
0.0
 11
78.6537785588755
 21
314.2249560632687
 31
0.0
  0
LINE
  5
37E
330
A
100
AcDbEntity
  8
KAKURE
100
AcDbLine
 10
178.6537785588753
 20
159.6999560632686
 30
0.0
 11
83.65377855887549
 21
159.6999560632686
 31
0.0
  0
LINE
  5
37F
330
A
100
AcDbEntity
  8
KAKURE
100
AcDbLine
 10
178.6537785588753
 20
248.7499560632687
 30
0.0
 11
83.65377855887549
 21
248.7499560632687
 31
0.0
  0
LINE
  5
380
330
A
100
AcDbEntity
  8
CHUSIN
100
AcDbLine
 10
148.6537785588754
 20
304.2249560632686
 30
0.0
 11
148.6537785588754
 21
104.2249560632688
 31
0.0
  0
LINE
  5
381
330
A
100
AcDbEntity
  8
CHUSIN
100
AcDbLine
 10
148.6537785588754
 20
507.2249560632688
 30
0.0
 11
148.6537785588754
 21
382.2249560632688
 31
0.0
  0
LINE
  5
382
330
A
100
AcDbEntity
  8
CHUSIN
100
AcDbLine
 10
247.9894551845342
 20
525.4964850615114
 30
0.0
 11
247.9894551845342
 21
555.4785273308998
 31
0.0
  0
LINE
  5
383
330
A
100
AcDbEntity
  8
CHUSIN
100
AcDbLine
 10
247.9894551845342
 20
117.4963149384884
 30
0.0
 11
247.9894551845342
 21
87.51427266910017
 31
0.0
  0
LINE
  5
384
330
A
100
AcDbEntity
  8
CHUSIN
100
AcDbLine
 10
313.9894551845341
 20
66.33391915641474
 30
0.0
 11
313.9894551845341
 21
570.5553602811951
 31
0.0
  0
LINE
  5
385
330
A
100
AcDbEntity
  8
CHUSIN
100
AcDbLine
 10
276.9894551845341
 20
66.33391915641474
 30
0.0
 11
276.9894551845341
 21
222.4963149384885
 31
0.0
  0
LINE
  5
386
330
A
100
AcDbEntity
  8
CHUSIN
100
AcDbLine
 10
276.9894551845343
 20
420.4964850615112
 30
0.0
 11
276.9894551845343
 21
570.5553602811951
 31
0.0
  0
LINE
  5
387
330
A
100
AcDbEntity
  8
CHUSIN
100
AcDbLine
 10
83.1537785588755
 20
382.3749560632686
 30
0.0
 11
83.1537785588755
 21
443.3249560632686
 31
0.0
  0
LINE
  5
388
330
A
100
AcDbEntity
  8
CHUSIN
100
AcDbLine
 10
290.094328520011
 20
426.9964850615113
 30
0.0
 11
304.5387729644553
 21
426.9964850615114
 31
0.0
  0
LINE
  5
389
330
A
100
AcDbEntity
  8
CHUSIN
100
AcDbLine
 10
290.0943285200113
 20
215.996314938489
 30
0.0
 11
304.5387729644557
 21
215.996314938489
 31
0.0
  0
LINE
  5
38A
330
A
100
AcDbEntity
  8
06
100
AcDbLine
 10
178.1537785588755
 20
382.3749560632686
 30
0.0
 11
178.1537785588755
 21
443.3249560632686
 31
0.0
  0
LINE
  5
38B
330
A
100
AcDbEntity
  8
06
100
AcDbLine
 10
83.1537785588755
 20
382.3749560632686
 30
0.0
 11
178.1537785588755
 21
382.3749560632686
 31
0.0
  0
LINE
  5
38C
330
A
100
AcDbEntity
  8
06
100
AcDbLine
 10
88.15377855887552
 20
442.0749560632686
 30
0.0
 11
88.1537785588755
 21
383.6249560632686
 31
0.0
  0
LINE
  5
38D
330
A
100
AcDbEntity
  8
06
100
AcDbLine
 10
173.9037785588755
 20
383.6249560632686
 30
0.0
 11
173.9037785588755
 21
442.0749560632686
 31
0.0
  0
LINE
  5
38E
330
A
100
AcDbEntity
  8
06
100
AcDbLine
 10
83.1537785588755
 20
443.3249560632686
 30
0.0
 11
178.1537785588755
 21
443.3249560632686
 31
0.0
  0
LINE
  5
38F
330
A
100
AcDbEntity
  8
06
100
AcDbLine
 10
310.9894551845341
 20
422.9964850615115
 30
0.0
 11
310.9894551845341
 21
383.9964850615114
 31
0.0
  0
LINE
  5
390
330
A
100
AcDbEntity
  8
06
100
AcDbLine
 10
316.9894551845341
 20
422.9964850615114
 30
0.0
 11
316.9894551845341
 21
383.9964850615114
 31
0.0
  0
LINE
  5
3A3
330
A
100
AcDbEntity
  8
06
100
AcDbLine
 10
316.6309025382821
 20
422.9964850615111
 30
0.0
 11
316.6309025382821
 21
383.9964850615114
 31
0.0
  0
LINE
  5
3A4
330
A
100
AcDbEntity
  8
06
100
AcDbLine
 10
298.4320018523835
 20
414.4390317293607
 30
0.0
 11
299.4894551845341
 21
415.4964850615114
 31
0.0
  0
LINE
  5
3A5
330
A
100
AcDbEntity
  8
06
100
AcDbLine
 10
298.4961840750001
 20
438.4897561710451
 30
0.0
 11
299.4894551845339
 21
437.4964850615112
 31
0.0
  0
LINE
  5
3A6
330
A
100
AcDbEntity
  8
06
100
AcDbLine
 10
329.4506351827598
 20
438.4576650597369
 30
0.0
 11
328.489455184534
 21
437.4964850615113
 31
0.0
  0
LINE
  5
3A7
330
A
100
AcDbEntity
  8
06
100
AcDbLine
 10
329.482726294068
 20
414.5032139519774
 30
0.0
 11
328.489455184534
 21
415.4964850615114
 31
0.0
  0
ARC
  5
3B7
330
A
100
AcDbEntity
  8
06
100
AcDbCircle
 10
309.9894551845341
 20
411.1680579367652
 30
0.0
 40
3.0
100
AcDbArc
 50
70.52877936550924
 51
109.4712206344908
  0
ARC
  5
3B8
330
A
100
AcDbEntity
  8
06
100
AcDbCircle
 10
317.989455184534
 20
411.1680579367652
 30
0.0
 40
3.0
100
AcDbArc
 50
70.52877936550955
 51
109.471220634491
  0
LINE
  5
3B9
330
A
100
AcDbEntity
  8
06
100
AcDbLine
 10
310.9894551845341
 20
422.9964850615115
 30
0.0
 11
316.9894551845341
 21
422.9964850615114
 31
0.0
  0
LINE
  5
3BA
330
A
100
AcDbEntity
  8
06
100
AcDbLine
 10
311.4894551845341
 20
422.9964850615111
 30
0.0
 11
311.4894551845341
 21
383.9964850615114
 31
0.0
  0
LINE
  5
3BB
330
A
100
AcDbEntity
  8
06
100
AcDbLine
 10
316.9894551845342
 20
304.4964000000001
 30
0.0
 11
310.9894551845342
 21
304.4964000000001
 31
0.0
  0
LINE
  5
3BC
330
A
100
AcDbEntity
  8
06
100
AcDbLine
 10
304.4894551845342
 20
314.4964000000001
 30
0.0
 11
304.4894551845342
 21
312.4964000000001
 31
0.0
  0
LINE
  5
3BD
330
A
100
AcDbEntity
  8
06
100
AcDbLine
 10
304.4894551845342
 20
314.4964000000001
 30
0.0
 11
306.9894551845341
 21
314.4964000000001
 31
0.0
  0
LINE
  5
3BE
330
A
100
AcDbEntity
  8
06
100
AcDbLine
 10
307.4894551845341
 20
318.4964000000001
 30
0.0
 11
307.4894551845341
 21
314.9964000000001
 31
0.0
  0
ARC
  5
3BF
330
A
100
AcDbEntity
  8
06
100
AcDbCircle
 10
306.9894551845341
 20
314.9964000000001
 30
0.0
 40
0.5
100
AcDbArc
 50
270.0000000000007
 51
0.0
  0
ARC
  5
3C0
330
A
100
AcDbEntity
  8
06
100
AcDbCircle
 10
306.9894551845341
 20
318.4964000000001
 30
0.0
 40
0.5
100
AcDbArc
 50
0.0000000000000241
 51
90.00000000000019
  0
LINE
  5
3C1
330
A
100
AcDbEntity
  8
06
100
AcDbLine
 10
307.0959742301496
 20
318.9964000000001
 30
0.0
 11
303.4894551845341
 21
318.9964000000001
 31
0.0
  0
LINE
  5
3C2
330
A
100
AcDbEntity
  8
06
100
AcDbLine
 10
303.4894551845344
 20
318.9964000000001
 30
0.0
 11
303.4894551845342
 21
320.9964000000001
 31
0.0
  0
LINE
  5
3C3
330
A
100
AcDbEntity
  8
06
100
AcDbLine
 10
303.9894551845343
 20
321.4964000000001
 30
0.0
 11
309.5658916403428
 21
321.4964000000001
 31
0.0
  0
ARC
  5
3C4
330
A
100
AcDbEntity
  8
06
100
AcDbCircle
 10
303.9894551845343
 20
320.9964000000001
 30
0.0
 40
0.5
100
AcDbArc
 50
90.00000000000019
 51
179.999999999999
  0
LINE
  5
3C5
330
A
100
AcDbEntity
  8
06
100
AcDbLine
 10
323.4894551845342
 20
312.4964000000001
 30
0.0
 11
323.4894551845342
 21
314.4964000000001
 31
0.0
  0
LINE
  5
3C6
330
A
100
AcDbEntity
  8
06
100
AcDbLine
 10
304.4894551845342
 20
312.4964000000001
 30
0.0
 11
323.4894551845341
 21
312.4964000000001
 31
0.0
  0
LINE
  5
3C7
330
A
100
AcDbEntity
  8
06
100
AcDbLine
 10
323.4894551845342
 20
314.4964000000001
 30
0.0
 11
320.9894551845341
 21
314.4964000000001
 31
0.0
  0
LINE
  5
3C8
330
A
100
AcDbEntity
  8
06
100
AcDbLine
 10
320.4894551845341
 20
318.4964000000001
 30
0.0
 11
320.4894551845341
 21
314.9964000000001
 31
0.0
  0
ARC
  5
3C9
330
A
100
AcDbEntity
  8
06
100
AcDbCircle
 10
320.9894551845341
 20
314.9964000000001
 30
0.0
 40
0.5
100
AcDbArc
 50
180.0000000000001
 51
269.9999999999999
  0
LINE
  5
3CA
330
A
100
AcDbEntity
  8
06
100
AcDbLine
 10
324.4894551845341
 20
318.9964000000001
 30
0.0
 11
320.9894551845341
 21
318.9964000000001
 31
0.0
  0
ARC
  5
3CB
330
A
100
AcDbEntity
  8
06
100
AcDbCircle
 10
320.9894551845341
 20
318.4964000000001
 30
0.0
 40
0.5
100
AcDbArc
 50
90.00000000000019
 51
179.9999999999999
  0
LINE
  5
3CC
330
A
100
AcDbEntity
  8
06
100
AcDbLine
 10
324.4894551845341
 20
318.9964000000001
 30
0.0
 11
324.4894551845344
 21
320.9964000000001
 31
0.0
  0
ARC
  5
3CD
330
A
100
AcDbEntity
  8
06
100
AcDbCircle
 10
323.9894551845344
 20
320.9964000000001
 30
0.0
 40
0.5
100
AcDbArc
 50
359.9999999999983
 51
90.00000000000019
  0
LINE
  5
3CE
330
A
100
AcDbEntity
  8
06
100
AcDbLine
 10
318.9894551845341
 20
320.9964000000001
 30
0.0
 11
318.9894551845341
 21
316.4964000000001
 31
0.0
  0
ARC
  5
3CF
330
A
100
AcDbEntity
  8
06
100
AcDbCircle
 10
319.4894551845341
 20
320.9964000000001
 30
0.0
 40
0.5
100
AcDbArc
 50
90.00000000000019
 51
180.0000000000001
  0
LINE
  5
3D0
330
A
100
AcDbEntity
  8
06
100
AcDbLine
 10
314.3774688027511
 20
315.4964000000001
 30
0.0
 11
317.9894551845341
 21
315.4964
 31
0.0
  0
ARC
  5
3D1
330
A
100
AcDbEntity
  8
06
100
AcDbCircle
 10
317.9894551845341
 20
316.4964000000001
 30
0.0
 40
1.0
100
AcDbArc
 50
269.999999999999
 51
0.0
  0
LINE
  5
3D2
330
A
100
AcDbEntity
  8
06
100
AcDbLine
 10
311.3748005008216
 20
325.9964000000001
 30
0.0
 11
311.5734449708714
 21
325.9964000000002
 31
0.0
  0
LINE
  5
3D3
330
A
100
AcDbEntity
  8
06
100
AcDbLine
 10
310.0590886022587
 20
321.9142005063474
 30
0.0
 11
310.6350050579475
 21
325.3696992404793
 31
0.0
  0
ARC
  5
3D4
330
A
100
AcDbEntity
  8
06
100
AcDbCircle
 10
311.3748005008216
 20
325.2464000000001
 30
0.0
 40
0.75
100
AcDbArc
 50
90.00000000000019
 51
170.5376777919743
  0
ARC
  5
3D5
330
A
100
AcDbEntity
  8
06
100
AcDbCircle
 10
309.5658916403428
 20
321.9964
 30
0.0
 40
0.5
100
AcDbArc
 50
269.9999999999999
 51
350.5376777919749
  0
LINE
  5
3D6
330
A
100
AcDbEntity
  8
06
100
AcDbLine
 10
312.3181861765176
 20
325.3350596673391
 30
0.0
 11
313.3844805285562
 21
316.3781871102151
 31
0.0
  0
ARC
  5
3D7
330
A
100
AcDbEntity
  8
06
100
AcDbCircle
 10
314.3774688027511
 20
316.4964000000001
 30
0.0
 40
1.0
100
AcDbArc
 50
186.7889745744388
 51
269.9999999999999
  0
ARC
  5
3D8
330
A
100
AcDbEntity
  8
06
100
AcDbCircle
 10
311.5734449708714
 20
325.2464000000002
 30
0.0
 40
0.75
100
AcDbArc
 50
6.788974574438784
 51
97.61001495472534
  0
LINE
  5
3D9
330
A
100
AcDbEntity
  8
06
100
AcDbLine
 10
323.5354321960285
 20
328.4964000000001
 30
0.0
 11
323.5354321960282
 21
330.4964000000001
 31
0.0
  0
LINE
  5
3DA
330
A
100
AcDbEntity
  8
06
100
AcDbLine
 10
323.5354321960285
 20
328.4964000000001
 30
0.0
 11
321.0354321960285
 21
328.4964000000001
 31
0.0
  0
LINE
  5
3DB
330
A
100
AcDbEntity
  8
06
100
AcDbLine
 10
320.5354321960286
 20
324.4964000000001
 30
0.0
 11
320.5354321960285
 21
327.9964
 31
0.0
  0
ARC
  5
3DC
330
A
100
AcDbEntity
  8
06
100
AcDbCircle
 10
321.0354321960285
 20
327.9964
 30
0.0
 40
0.5
100
AcDbArc
 50
90.00000000000019
 51
180.0
  0
ARC
  5
3DD
330
A
100
AcDbEntity
  8
06
100
AcDbCircle
 10
321.0354321960286
 20
324.4964000000001
 30
0.0
 40
0.5
100
AcDbArc
 50
180.0000000000009
 51
269.9999999999999
  0
LINE
  5
3DE
330
A
100
AcDbEntity
  8
06
100
AcDbLine
 10
321.0354321960286
 20
323.9964
 30
0.0
 11
324.5354321960285
 21
323.9964
 31
0.0
  0
LINE
  5
3DF
330
A
100
AcDbEntity
  8
06
100
AcDbLine
 10
324.5354321960285
 20
323.9964
 30
0.0
 11
324.5354321960285
 21
321.9964
 31
0.0
  0
LINE
  5
3E0
330
A
100
AcDbEntity
  8
06
100
AcDbLine
 10
324.0354321960285
 20
321.4964000000001
 30
0.0
 11
318.45899574022
 21
321.4964000000001
 31
0.0
  0
ARC
  5
3E1
330
A
100
AcDbEntity
  8
06
100
AcDbCircle
 10
324.0354321960285
 20
321.9964
 30
0.0
 40
0.5
100
AcDbArc
 50
269.9999999999999
 51
359.9999999999987
  0
LINE
  5
3E2
330
A
100
AcDbEntity
  8
06
100
AcDbLine
 10
304.5354321960285
 20
330.4964000000001
 30
0.0
 11
304.5354321960285
 21
328.4964000000001
 31
0.0
  0
LINE
  5
3E3
330
A
100
AcDbEntity
  8
06
100
AcDbLine
 10
323.5354321960285
 20
330.4964000000001
 30
0.0
 11
304.5354321960285
 21
330.4964000000001
 31
0.0
  0
LINE
  5
3E4
330
A
100
AcDbEntity
  8
06
100
AcDbLine
 10
304.5354321960285
 20
328.4964000000001
 30
0.0
 11
307.0354321960286
 21
328.4964000000001
 31
0.0
  0
LINE
  5
3E5
330
A
100
AcDbEntity
  8
06
100
AcDbLine
 10
307.5354321960285
 20
324.4964000000001
 30
0.0
 11
307.5354321960285
 21
327.9964
 31
0.0
  0
ARC
  5
3E6
330
A
100
AcDbEntity
  8
06
100
AcDbCircle
 10
307.0354321960285
 20
327.9964
 30
0.0
 40
0.5
100
AcDbArc
 50
0.0000000000000241
 51
90.00000000000012
  0
LINE
  5
3E7
330
A
100
AcDbEntity
  8
06
100
AcDbLine
 10
303.5354321960285
 20
323.9964
 30
0.0
 11
307.0354321960285
 21
323.9964
 31
0.0
  0
ARC
  5
3E8
330
A
100
AcDbEntity
  8
06
100
AcDbCircle
 10
307.0354321960285
 20
324.4964000000001
 30
0.0
 40
0.5
100
AcDbArc
 50
269.9999999999999
 51
0.0
  0
LINE
  5
3E9
330
A
100
AcDbEntity
  8
06
100
AcDbLine
 10
303.5354321960285
 20
323.9964
 30
0.0
 11
303.5354321960283
 21
321.9964
 31
0.0
  0
ARC
  5
3EA
330
A
100
AcDbEntity
  8
06
100
AcDbCircle
 10
304.0354321960283
 20
321.9964
 30
0.0
 40
0.5
100
AcDbArc
 50
179.999999999998
 51
269.9999999999999
  0
LINE
  5
3EB
330
A
100
AcDbEntity
  8
06
100
AcDbLine
 10
309.0354321960285
 20
321.9964
 30
0.0
 11
309.0354321960286
 21
326.4964000000001
 31
0.0
  0
ARC
  5
3EC
330
A
100
AcDbEntity
  8
06
100
AcDbCircle
 10
308.5354321960285
 20
321.9964
 30
0.0
 40
0.5
100
AcDbArc
 50
269.9999999999999
 51
0.0
  0
LINE
  5
3ED
330
A
100
AcDbEntity
  8
06
100
AcDbLine
 10
313.6474185778114
 20
327.4964000000001
 30
0.0
 11
310.0354321960286
 21
327.4964000000001
 31
0.0
  0
ARC
  5
3EE
330
A
100
AcDbEntity
  8
06
100
AcDbCircle
 10
310.0354321960286
 20
326.4964000000001
 30
0.0
 40
1.0
100
AcDbArc
 50
89.99999999999873
 51
180.0
  0
LINE
  5
3EF
330
A
100
AcDbEntity
  8
06
100
AcDbLine
 10
316.6500868797411
 20
316.9964
 30
0.0
 11
316.4514424096911
 21
316.9964
 31
0.0
  0
LINE
  5
3F0
330
A
100
AcDbEntity
  8
06
100
AcDbLine
 10
317.9657987783038
 20
321.0785994936528
 30
0.0
 11
317.3898823226152
 21
317.6231007595208
 31
0.0
  0
ARC
  5
3F1
330
A
100
AcDbEntity
  8
06
100
AcDbCircle
 10
316.6500868797411
 20
317.7464
 30
0.0
 40
0.75
100
AcDbArc
 50
269.9999999999999
 51
350.5376777919744
  0
ARC
  5
3F2
330
A
100
AcDbEntity
  8
06
100
AcDbCircle
 10
318.45899574022
 20
320.9964000000001
 30
0.0
 40
0.5
100
AcDbArc
 50
90.00000000000019
 51
170.5376777919745
  0
LINE
  5
3F3
330
A
100
AcDbEntity
  8
06
100
AcDbLine
 10
315.706701204045
 20
317.6577403326611
 30
0.0
 11
314.6404068520065
 21
326.6146128897851
 31
0.0
  0
ARC
  5
3F4
330
A
100
AcDbEntity
  8
06
100
AcDbCircle
 10
313.6474185778114
 20
326.4964000000001
 30
0.0
 40
1.0
100
AcDbArc
 50
6.788974574438679
 51
90.00000000000012
  0
ARC
  5
3F5
330
A
100
AcDbEntity
  8
06
100
AcDbCircle
 10
316.4514424096911
 20
317.7464
 30
0.0
 40
0.75
100
AcDbArc
 50
186.7889745744388
 51
277.6100149547251
  0
LINE
  5
3F6
330
A
100
AcDbEntity
  8
06
100
AcDbLine
 10
316.9894551845342
 20
304.4964000000001
 30
0.0
 11
316.9894551845342
 21
263.9963574692445
 31
0.0
  0
LINE
  5
3F7
330
A
100
AcDbEntity
  8
06
100
AcDbLine
 10
310.9894551845342
 20
304.4964000000001
 30
0.0
 11
310.9894551845342
 21
263.9963574692445
 31
0.0
  0
LINE
  5
3F8
330
A
100
AcDbEntity
  8
06
100
AcDbLine
 10
311.4894551845342
 20
304.4964000000001
 30
0.0
 11
311.4894551845342
 21
263.9963574692445
 31
0.0
  0
LINE
  5
3F9
330
A
100
AcDbEntity
  8
06
100
AcDbLine
 10
316.4894551845343
 20
304.4964000000001
 30
0.0
 11
316.4894551845343
 21
263.9963574692445
 31
0.0
  0
LINE
  5
3FA
330
A
100
AcDbEntity
  8
06
100
AcDbLine
 10
310.9894551845341
 20
338.4964
 30
0.0
 11
316.9894551845341
 21
338.4964
 31
0.0
  0
LINE
  5
3FB
330
A
100
AcDbEntity
  8
06
100
AcDbLine
 10
316.9894551845341
 20
338.4964
 30
0.0
 11
316.9894551845341
 21
378.9964000000001
 31
0.0
  0
LINE
  5
3FC
330
A
100
AcDbEntity
  8
06
100
AcDbLine
 10
316.4894551845341
 20
378.9964000000001
 30
0.0
 11
316.4894551845341
 21
338.4964
 31
0.0
  0
LINE
  5
3FD
330
A
100
AcDbEntity
  8
06
100
AcDbLine
 10
311.4894551845341
 20
338.4964
 30
0.0
 11
311.4894551845341
 21
378.9964000000001
 31
0.0
  0
LINE
  5
3FE
330
A
100
AcDbEntity
  8
06
100
AcDbLine
 10
310.9894551845341
 20
378.9964000000001
 30
0.0
 11
310.9894551845341
 21
338.4964
 31
0.0
  0
LINE
  5
3FF
330
A
100
AcDbEntity
  8
06
100
AcDbLine
 10
298.5262309885513
 20
348.4596241959828
 30
0.0
 11
299.4894551845341
 21
347.4964000000001
 31
0.0
  0
LINE
  5
400
330
A
100
AcDbEntity
  8
06
100
AcDbLine
 10
298.4906072593378
 20
324.4975520748038
 30
0.0
 11
299.4894551845341
 21
325.4964000000001
 31
0.0
  0
LINE
  5
401
330
A
100
AcDbEntity
  8
06
100
AcDbLine
 10
298.4547283915088
 20
318.5311267930253
 30
0.0
 11
299.4894551845341
 21
317.4964000000001
 31
0.0
  0
LINE
  5
402
330
A
100
AcDbEntity
  8
06
100
AcDbLine
 10
298.4547283915088
 20
294.4616732069748
 30
0.0
 11
299.4894551845342
 21
295.4964000000001
 31
0.0
  0
LINE
  5
403
330
A
100
AcDbEntity
  8
06
100
AcDbLine
 10
329.4883031097305
 20
318.4952479251963
 30
0.0
 11
328.4894551845341
 21
317.4964000000001
 31
0.0
  0
LINE
  5
404
330
A
100
AcDbEntity
  8
06
100
AcDbLine
 10
329.4883031097306
 20
294.4975520748038
 30
0.0
 11
328.4894551845342
 21
295.4964000000001
 31
0.0
  0
LINE
  5
405
330
A
100
AcDbEntity
  8
06
100
AcDbLine
 10
329.5241819775597
 20
324.4616732069748
 30
0.0
 11
328.4894551845342
 21
325.4964000000001
 31
0.0
  0
LINE
  5
406
330
A
100
AcDbEntity
  8
06
100
AcDbLine
 10
329.5241819775595
 20
348.5311267930256
 30
0.0
 11
328.4894551845341
 21
347.4964000000001
 31
0.0
  0
ARC
  5
453
330
A
100
AcDbEntity
  8
06
100
AcDbCircle
 10
309.9894551845341
 20
291.1679728752539
 30
0.0
 40
3.0
100
AcDbArc
 50
70.52877936550792
 51
109.4712206344891
  0
ARC
  5
454
330
A
100
AcDbEntity
  8
06
100
AcDbCircle
 10
317.9894551845341
 20
291.167972875254
 30
0.0
 40
3.0
100
AcDbArc
 50
70.5287793655075
 51
109.4712206344895
  0
ARC
  5
455
330
A
100
AcDbEntity
  8
06
100
AcDbCircle
 10
309.9894551845341
 20
351.8248271247463
 30
0.0
 40
3.0
100
AcDbArc
 50
250.5287793655109
 51
289.4712206344919
  0
ARC
  5
456
330
A
100
AcDbEntity
  8
06
100
AcDbCircle
 10
317.989455184534
 20
351.8248271247463
 30
0.0
 40
3.0
100
AcDbArc
 50
250.5287793655104
 51
289.4712206344923
  0
LINE
  5
459
330
A
100
AcDbEntity
  8
06
100
AcDbLine
 10
310.9894551845343
 20
219.996314938489
 30
0.0
 11
310.9894551845343
 21
258.9963574692445
 31
0.0
  0
LINE
  5
45A
330
A
100
AcDbEntity
  8
06
100
AcDbLine
 10
316.9894551845343
 20
219.996314938489
 30
0.0
 11
316.9894551845343
 21
258.9963574692445
 31
0.0
  0
LINE
  5
46D
330
A
100
AcDbEntity
  8
06
100
AcDbLine
 10
316.6309025382823
 20
219.9963149384892
 30
0.0
 11
316.6309025382823
 21
258.9963574692445
 31
0.0
  0
LINE
  5
46E
330
A
100
AcDbEntity
  8
06
100
AcDbLine
 10
298.4320018523839
 20
228.5537682706396
 30
0.0
 11
299.4894551845344
 21
227.496314938489
 31
0.0
  0
LINE
  5
46F
330
A
100
AcDbEntity
  8
06
100
AcDbLine
 10
298.4961840750006
 20
204.503043828955
 30
0.0
 11
299.4894551845344
 21
205.496314938489
 31
0.0
  0
LINE
  5
470
330
A
100
AcDbEntity
  8
06
100
AcDbLine
 10
329.4506351827603
 20
204.5351349402634
 30
0.0
 11
328.4894551845344
 21
205.496314938489
 31
0.0
  0
LINE
  5
471
330
A
100
AcDbEntity
  8
06
100
AcDbLine
 10
329.4827262940683
 20
228.4895860480232
 30
0.0
 11
328.4894551845344
 21
227.496314938489
 31
0.0
  0
ARC
  5
485
330
A
100
AcDbEntity
  8
06
100
AcDbCircle
 10
309.9894551845344
 20
231.8247420632353
 30
0.0
 40
3.0
100
AcDbArc
 50
250.5287793655092
 51
289.4712206344907
  0
ARC
  5
486
330
A
100
AcDbEntity
  8
06
100
AcDbCircle
 10
317.9894551845344
 20
231.8247420632353
 30
0.0
 40
3.0
100
AcDbArc
 50
250.528779365509
 51
289.4712206344903
  0
LINE
  5
487
330
A
100
AcDbEntity
  8
06
100
AcDbLine
 10
310.9894551845343
 20
219.996314938489
 30
0.0
 11
316.9894551845343
 21
219.996314938489
 31
0.0
  0
LINE
  5
488
330
A
100
AcDbEntity
  8
06
100
AcDbLine
 10
311.4894551845344
 20
219.9963149384892
 30
0.0
 11
311.4894551845344
 21
258.9963574692445
 31
0.0
  0
LINE
  5
48A
330
A
100
AcDbEntity
  8
03
100
AcDbLine
 10
261.4320018523834
 20
438.5539383936619
 30
0.0
 11
262.4894551845339
 21
437.4964850615112
 31
0.0
  0
LINE
  5
48B
330
A
100
AcDbEntity
  8
03
100
AcDbLine
 10
261.4961840750002
 20
414.5032139519774
 30
0.0
 11
262.4894551845341
 21
415.4964850615114
 31
0.0
  0
LINE
  5
48C
330
A
100
AcDbEntity
  8
03
100
AcDbLine
 10
292.4506351827598
 20
414.5353050632856
 30
0.0
 11
291.4894551845341
 21
415.4964850615114
 31
0.0
  0
LINE
  5
48D
330
A
100
AcDbEntity
  8
03
100
AcDbLine
 10
292.4827262940679
 20
438.4897561710456
 30
0.0
 11
291.4894551845339
 21
437.4964850615112
 31
0.0
  0
ARC
  5
493
330
A
100
AcDbEntity
  8
03
100
AcDbCircle
 10
272.9894551845339
 20
441.8249121862577
 30
0.0
 40
3.0
100
AcDbArc
 50
250.5287793655092
 51
289.4712206344907
  0
ARC
  5
494
330
A
100
AcDbEntity
  8
03
100
AcDbCircle
 10
280.9894551845339
 20
441.8249121862576
 30
0.0
 40
3.0
100
AcDbArc
 50
250.528779365509
 51
289.4712206344903
  0
LINE
  5
495
330
A
100
AcDbEntity
  8
03
100
AcDbLine
 10
273.989455184534
 20
429.9964850615114
 30
0.0
 11
279.989455184534
 21
429.9964850615114
 31
0.0
  0
LINE
  5
496
330
A
100
AcDbEntity
  8
03
100
AcDbLine
 10
261.4320018523834
 20
509.4390317293608
 30
0.0
 11
262.4894551845339
 21
510.4964850615113
 31
0.0
  0
LINE
  5
497
330
A
100
AcDbEntity
  8
03
100
AcDbLine
 10
261.496184075
 20
533.4897561710453
 30
0.0
 11
262.4894551845339
 21
532.4964850615113
 31
0.0
  0
LINE
  5
49F
330
A
100
AcDbEntity
  8
03
100
AcDbLine
 10
273.989455184534
 20
517.9964850615113
 30
0.0
 11
279.989455184534
 21
517.9964850615113
 31
0.0
  0
LINE
  5
4A0
330
A
100
AcDbEntity
  8
03
100
AcDbLine
 10
261.4320018523834
 20
204.4388616063379
 30
0.0
 11
262.4894551845339
 21
205.4963149384884
 31
0.0
  0
LINE
  5
4A1
330
A
100
AcDbEntity
  8
03
100
AcDbLine
 10
261.4961840750002
 20
228.4895860480224
 30
0.0
 11
262.4894551845341
 21
227.4963149384885
 31
0.0
  0
LINE
  5
4A2
330
A
100
AcDbEntity
  8
03
100
AcDbLine
 10
292.4506351827598
 20
228.4574949367141
 30
0.0
 11
291.4894551845341
 21
227.4963149384884
 31
0.0
  0
LINE
  5
4A3
330
A
100
AcDbEntity
  8
03
100
AcDbLine
 10
292.4827262940679
 20
204.5030438289543
 30
0.0
 11
291.4894551845339
 21
205.4963149384884
 31
0.0
  0
ARC
  5
4AB
330
A
100
AcDbEntity
  8
03
100
AcDbCircle
 10
272.9894551845339
 20
201.1678878137423
 30
0.0
 40
3.0
100
AcDbArc
 50
70.52877936550931
 51
109.4712206344907
  0
ARC
  5
4AC
330
A
100
AcDbEntity
  8
03
100
AcDbCircle
 10
280.9894551845339
 20
201.1678878137423
 30
0.0
 40
3.0
100
AcDbArc
 50
70.52877936550958
 51
109.471220634491
  0
LINE
  5
4AD
330
A
100
AcDbEntity
  8
03
100
AcDbLine
 10
273.989455184534
 20
212.9963149384884
 30
0.0
 11
279.989455184534
 21
212.9963149384884
 31
0.0
  0
LINE
  5
4AE
330
A
100
AcDbEntity
  8
03
100
AcDbLine
 10
261.4320018523834
 20
133.5537682706392
 30
0.0
 11
262.4894551845339
 21
132.4963149384886
 31
0.0
  0
ARC
  5
4B6
330
A
100
AcDbEntity
  8
03
100
AcDbCircle
 10
272.9894551845339
 20
136.8247420632349
 30
0.0
 40
3.0
100
AcDbArc
 50
250.5287793655092
 51
289.4712206344907
  0
ARC
  5
4B7
330
A
100
AcDbEntity
  8
03
100
AcDbCircle
 10
280.9894551845339
 20
136.8247420632348
 30
0.0
 40
3.0
100
AcDbArc
 50
250.528779365509
 51
289.4712206344903
  0
LINE
  5
4B8
330
A
100
AcDbEntity
  8
03
100
AcDbLine
 10
273.989455184534
 20
124.9963149384885
 30
0.0
 11
279.9894551845339
 21
124.9963149384885
 31
0.0
  0
LINE
  5
4B9
330
A
100
AcDbEntity
  8
03
100
AcDbLine
 10
261.4961840749999
 20
109.5030438289546
 30
0.0
 11
262.4894551845339
 21
110.4963149384885
 31
0.0
  0
LINE
  5
4BA
330
A
100
AcDbEntity
  8
SAISEN
100
AcDbLine
 10
290.4530214952007
 20
378.9964425307557
 30
0.0
 11
341.8122211707448
 21
378.9964425307558
 31
0.0
  0
LINE
  5
4BB
330
A
100
AcDbEntity
  8
SAISEN
100
AcDbLine
 10
290.4530214952007
 20
383.9964425307556
 30
0.0
 11
341.8122211707448
 21
383.9964425307558
 31
0.0
  0
LINE
  5
4BC
330
A
100
AcDbEntity
  8
SAISEN
100
AcDbLine
 10
290.4530214952008
 20
258.9963574692445
 30
0.0
 11
341.812221170745
 21
258.9963574692446
 31
0.0
  0
LINE
  5
4BD
330
A
100
AcDbEntity
  8
SAISEN
100
AcDbLine
 10
290.4530214952008
 20
263.9963574692445
 30
0.0
 11
341.812221170745
 21
263.9963574692446
 31
0.0
  0
LINE
  5
4BE
330
A
100
AcDbEntity
  8
06
100
AcDbLine
 10
178.1537785588754
 20
158.4499560632686
 30
0.0
 11
178.1537785588754
 21
204.1499560632686
 31
0.0
  0
LINE
  5
4BF
330
A
100
AcDbEntity
  8
06
100
AcDbLine
 10
178.1537785588755
 20
249.9999560632688
 30
0.0
 11
178.1537785588754
 21
204.2999560632688
 31
0.0
  0
LINE
  5
4C0
330
A
100
AcDbEntity
  8
06
100
AcDbLine
 10
83.30377855887551
 20
249.9999560632688
 30
0.0
 11
83.30377855887551
 21
204.2999560632688
 31
0.0
  0
LINE
  5
4C1
330
A
100
AcDbEntity
  8
06
100
AcDbLine
 10
83.30377855887551
 20
158.4499560632685
 30
0.0
 11
83.30377855887551
 21
204.1499560632686
 31
0.0
  0
LINE
  5
4C2
330
A
100
AcDbEntity
  8
06
100
AcDbLine
 10
83.30377855887551
 20
158.4499560632685
 30
0.0
 11
178.1537785588754
 21
158.4499560632686
 31
0.0
  0
LINE
  5
4C3
330
A
100
AcDbEntity
  8
06
100
AcDbLine
 10
83.30377855887551
 20
159.6999560632686
 30
0.0
 11
178.1537785588754
 21
159.6999560632686
 31
0.0
  0
LINE
  5
4C4
330
A
100
AcDbEntity
  8
06
100
AcDbLine
 10
83.30377855887551
 20
249.9999560632688
 30
0.0
 11
178.1537785588755
 21
249.9999560632688
 31
0.0
  0
LINE
  5
4C5
330
A
100
AcDbEntity
  8
06
100
AcDbLine
 10
178.1537785588755
 20
248.7499560632687
 30
0.0
 11
83.30377855887551
 21
248.7499560632687
 31
0.0
  0
LINE
  5
4C6
330
A
100
AcDbEntity
  8
06
100
AcDbLine
 10
87.5537785588755
 20
248.7499560632687
 30
0.0
 11
87.55377855887548
 21
205.5499560632688
 31
0.0
  0
LINE
  5
4C7
330
A
100
AcDbEntity
  8
06
100
AcDbLine
 10
87.5537785588755
 20
159.6999560632686
 30
0.0
 11
87.5537785588755
 21
202.8999560632685
 31
0.0
  0
LINE
  5
4C8
330
A
100
AcDbEntity
  8
06
100
AcDbLine
 10
173.9037785588755
 20
248.7499560632687
 30
0.0
 11
173.9037785588753
 21
205.5499560632688
 31
0.0
  0
LINE
  5
4C9
330
A
100
AcDbEntity
  8
06
100
AcDbLine
 10
173.9037785588753
 20
159.6999560632686
 30
0.0
 11
173.9037785588753
 21
202.8999560632685
 31
0.0
  0
LINE
  5
4CA
330
A
100
AcDbEntity
  8
06
100
AcDbLine
 10
178.1537785588755
 20
442.0749560632686
 30
0.0
 11
83.1537785588755
 21
442.0749560632686
 31
0.0
  0
LINE
  5
4CB
330
A
100
AcDbEntity
  8
06
100
AcDbLine
 10
83.1537785588755
 20
383.6249560632686
 30
0.0
 11
178.1537785588755
 21
383.6249560632686
 31
0.0
  0
LINE
  5
4CC
330
A
100
AcDbEntity
  8
SAISEN
100
AcDbLine
 10
255.1050052963458
 20
471.4964850615112
 30
0.0
 11
352.7251006904191
 21
471.4964850615116
 31
0.0
  0
LINE
  5
4CD
330
A
100
AcDbEntity
  8
SAISEN
100
AcDbLine
 10
255.1050052963458
 20
476.4964850615114
 30
0.0
 11
352.7251006904191
 21
476.4964850615115
 31
0.0
  0
LINE
  5
4CE
330
A
100
AcDbEntity
  8
SAISEN
100
AcDbLine
 10
255.1050052963466
 20
166.4963149384886
 30
0.0
 11
352.72510069042
 21
166.4963149384888
 31
0.0
  0
LINE
  5
4CF
330
A
100
AcDbEntity
  8
SAISEN
100
AcDbLine
 10
255.1050052963466
 20
171.4963149384884
 30
0.0
 11
352.72510069042
 21
171.4963149384888
 31
0.0
  0
LINE
  5
4D0
330
A
100
AcDbEntity
  8
03
100
AcDbLine
 10
273.989455184534
 20
212.9963149384884
 30
0.0
 11
273.989455184534
 21
171.4963149384884
 31
0.0
  0
LINE
  5
4D1
330
A
100
AcDbEntity
  8
03
100
AcDbLine
 10
273.989455184534
 20
166.4963149384886
 30
0.0
 11
273.989455184534
 21
124.9963149384885
 31
0.0
  0
LINE
  5
4D2
330
A
100
AcDbEntity
  8
03
100
AcDbLine
 10
279.989455184534
 20
212.9963149384884
 30
0.0
 11
279.989455184534
 21
171.4963149384884
 31
0.0
  0
LINE
  5
4D3
330
A
100
AcDbEntity
  8
03
100
AcDbLine
 10
279.989455184534
 20
166.4963149384886
 30
0.0
 11
279.9894551845339
 21
124.9963149384885
 31
0.0
  0
LINE
  5
4D4
330
A
100
AcDbEntity
  8
03
100
AcDbLine
 10
273.989455184534
 20
429.9964850615114
 30
0.0
 11
273.989455184534
 21
471.4964850615112
 31
0.0
  0
LINE
  5
4D5
330
A
100
AcDbEntity
  8
03
100
AcDbLine
 10
273.989455184534
 20
476.4964850615114
 30
0.0
 11
273.989455184534
 21
517.9964850615113
 31
0.0
  0
LINE
  5
4D6
330
A
100
AcDbEntity
  8
03
100
AcDbLine
 10
279.989455184534
 20
429.9964850615114
 30
0.0
 11
279.989455184534
 21
471.4964850615112
 31
0.0
  0
LINE
  5
4D7
330
A
100
AcDbEntity
  8
03
100
AcDbLine
 10
279.989455184534
 20
476.4964850615114
 30
0.0
 11
279.989455184534
 21
517.9964850615113
 31
0.0
  0
LINE
  5
4D8
330
A
100
AcDbEntity
  8
06
100
AcDbLine
 10
83.30377855887551
 20
205.5499560632688
 30
0.0
 11
151.137554668433
 21
205.5499560632688
 31
0.0
  0
LINE
  5
4D9
330
A
100
AcDbEntity
  8
06
100
AcDbLine
 10
161.5972347280003
 20
205.5499560632688
 30
0.0
 11
178.1537785588754
 21
205.5499560632688
 31
0.0
  0
LINE
  5
4DA
330
A
100
AcDbEntity
  8
06
100
AcDbLine
 10
83.30377855887551
 20
204.2999560632688
 30
0.0
 11
151.137554668433
 21
204.2999560632686
 31
0.0
  0
LINE
  5
4DB
330
A
100
AcDbEntity
  8
06
100
AcDbLine
 10
161.5972347280003
 20
204.2999560632688
 30
0.0
 11
178.1537785588754
 21
204.2999560632688
 31
0.0
  0
LINE
  5
4DC
330
A
100
AcDbEntity
  8
06
100
AcDbLine
 10
83.30377855887553
 20
204.1499560632686
 30
0.0
 11
151.137554668433
 21
204.1499560632685
 31
0.0
  0
LINE
  5
4DD
330
A
100
AcDbEntity
  8
06
100
AcDbLine
 10
161.5972347280003
 20
204.1499560632685
 30
0.0
 11
178.1537785588755
 21
204.1499560632685
 31
0.0
  0
LINE
  5
4DE
330
A
100
AcDbEntity
  8
06
100
AcDbLine
 10
83.30377855887553
 20
202.8999560632685
 30
0.0
 11
151.137554668433
 21
202.8999560632685
 31
0.0
  0
LINE
  5
4DF
330
A
100
AcDbEntity
  8
06
100
AcDbLine
 10
161.5972347280003
 20
202.8999560632685
 30
0.0
 11
178.1537785588755
 21
202.8999560632685
 31
0.0
  0
LINE
  5
4E0
330
A
100
AcDbEntity
  8
06
100
AcDbLine
 10
83.30377855887551
 20
204.1499560632686
 30
0.0
 11
151.137554668433
 21
204.1499560632686
 31
0.0
  0
LINE
  5
4E1
330
A
100
AcDbEntity
  8
06
100
AcDbLine
 10
161.5972347280003
 20
204.1499560632686
 30
0.0
 11
178.1537785588754
 21
204.1499560632686
 31
0.0
  0
LINE
  5
4E2
330
A
100
AcDbEntity
  8
06
100
AcDbLine
 10
178.1537785588754
 20
204.2999560632688
 30
0.0
 11
161.5972347280003
 21
204.2999560632688
 31
0.0
  0
LINE
  5
4E3
330
A
100
AcDbEntity
  8
06
100
AcDbLine
 10
151.137554668433
 20
204.2999560632686
 30
0.0
 11
83.30377855887551
 21
204.2999560632688
 31
0.0
  0
LINE
  5
4EA
330
A
100
AcDbEntity
  8
03
100
AcDbLine
 10
274.489455184534
 20
517.9964850615109
 30
0.0
 11
274.489455184534
 21
476.4964850615114
 31
0.0
  0
LINE
  5
4EB
330
A
100
AcDbEntity
  8
03
100
AcDbLine
 10
274.489455184534
 20
429.9964850615114
 30
0.0
 11
274.489455184534
 21
471.4964850615114
 31
0.0
  0
LINE
  5
4EC
330
A
100
AcDbEntity
  8
03
100
AcDbLine
 10
279.4894551845339
 20
471.4964850615114
 30
0.0
 11
279.4894551845341
 21
429.9964850615114
 31
0.0
  0
LINE
  5
4ED
330
A
100
AcDbEntity
  8
03
100
AcDbLine
 10
279.6309025382818
 20
517.9964850615109
 30
0.0
 11
279.6309025382818
 21
476.4964850615114
 31
0.0
  0
TEXT
  5
4F3
330
A
100
AcDbEntity
  8
MOJI
100
AcDbText
 10
171.1537785588754
 20
286.4249560632686
 30
0.0
 40
5.0
  1
ＦＩＸ
 50
90.0
 41
0.8
  7
0_8
 72
     2
 11
171.1537785588754
 21
299.2249560632686
 31
0.0
100
AcDbText
 73
     1
  0
TEXT
  5
4F4
330
A
100
AcDbEntity
  8
MOJI
100
AcDbText
 10
171.1537785588754
 20
489.4249560632688
 30
0.0
 40
5.0
  1
ＦＩＸ
 50
90.0
 41
0.8
  7
0_8
 72
     2
 11
171.1537785588754
 21
502.2249560632688
 31
0.0
100
AcDbText
 73
     1
  0
TEXT
  5
4FB
330
A
100
AcDbEntity
  8
MOJI
100
AcDbText
 10
396.0383767453848
 20
72.04602579832203
 30
0.0
 40
6.0
  1
注,ＤＷと引込み寸法（ＦｉＸＷ）が同一の場合
 50
90.0
 41
0.8
  7
0_8
 11
390.0383767453849
 21
72.04602579832203
 31
0.0
100
AcDbText
 73
     3
  0
TEXT
  5
4FC
330
A
100
AcDbEntity
  8
MOJI
100
AcDbText
 10
406.0383767453849
 20
72.04602579832203
 30
0.0
 40
6.0
  1
引き残しが出る場合がありますのでご注意下さい。
 50
90.0
 41
0.8
  7
0_8
 11
400.038376745385
 21
72.04602579832203
 31
0.0
100
AcDbText
 73
     3
  0
LINE
  5
531
330
A
100
AcDbEntity
  8
04
100
AcDbLine
 10
253.9894551845342
 20
531.9964850615114
 30
0.0
 11
255.4894551845341
 21
532.9964850615112
 31
0.0
  0
LINE
  5
532
330
A
100
AcDbEntity
  8
04
100
AcDbLine
 10
241.9894551845342
 20
531.9964850615114
 30
0.0
 11
240.4894551845341
 21
532.9964850615112
 31
0.0
  0
LINE
  5
533
330
A
100
AcDbEntity
  8
04
100
AcDbLine
 10
241.9894551845342
 20
547.9964850615114
 30
0.0
 11
253.9894551845342
 21
547.9964850615114
 31
0.0
  0
LINE
  5
534
330
A
100
AcDbEntity
  8
04
100
AcDbLine
 10
255.4894551845341
 20
533.9964850615114
 30
0.0
 11
255.4894551845341
 21
532.9964850615112
 31
0.0
  0
LINE
  5
535
330
A
100
AcDbEntity
  8
04
100
AcDbLine
 10
253.9894551845342
 20
531.9964850615114
 30
0.0
 11
241.9894551845342
 21
531.9964850615114
 31
0.0
  0
LINE
  5
536
330
A
100
AcDbEntity
  8
04
100
AcDbLine
 10
240.4894551845341
 20
532.9964850615112
 30
0.0
 11
240.4894551845341
 21
533.9964850615114
 31
0.0
  0
LINE
  5
537
330
A
100
AcDbEntity
  8
04
100
AcDbLine
 10
255.4894551845341
 20
533.9964850615114
 30
0.0
 11
240.4894551845341
 21
533.9964850615114
 31
0.0
  0
LINE
  5
539
330
A
100
AcDbEntity
  8
04
100
AcDbLine
 10
253.9894551845342
 20
547.9964850615114
 30
0.0
 11
253.9894551845342
 21
540.9964850615113
 31
0.0
  0
LINE
  5
53A
330
A
100
AcDbEntity
  8
04
100
AcDbLine
 10
241.9894551845342
 20
540.9964850615113
 30
0.0
 11
241.9894551845342
 21
547.9964850615114
 31
0.0
  0
LINE
  5
53B
330
A
100
AcDbEntity
  8
04
100
AcDbLine
 10
255.4894551845341
 20
534.9964850615114
 30
0.0
 11
255.4894551845341
 21
537.4964850615112
 31
0.0
  0
LINE
  5
53C
330
A
100
AcDbEntity
  8
04
100
AcDbLine
 10
253.9894551845342
 20
540.9964850615113
 30
0.0
 11
255.4894551845341
 21
537.4964850615112
 31
0.0
  0
LINE
  5
53D
330
A
100
AcDbEntity
  8
04
100
AcDbLine
 10
240.4894551845341
 20
534.9964850615114
 30
0.0
 11
240.4894551845341
 21
537.4964850615112
 31
0.0
  0
LINE
  5
53E
330
A
100
AcDbEntity
  8
04
100
AcDbLine
 10
241.9894551845342
 20
540.9964850615113
 30
0.0
 11
240.4894551845341
 21
537.4964850615112
 31
0.0
  0
LINE
  5
53F
330
A
100
AcDbEntity
  8
04
100
AcDbLine
 10
252.9894551845341
 20
533.9964850615114
 30
0.0
 11
252.9894551845341
 21
538.9964850615114
 31
0.0
  0
LINE
  5
540
330
A
100
AcDbEntity
  8
04
100
AcDbLine
 10
242.9894551845341
 20
533.9964850615114
 30
0.0
 11
242.9894551845341
 21
538.9964850615114
 31
0.0
  0
LINE
  5
541
330
A
100
AcDbEntity
  8
04
100
AcDbLine
 10
252.9894551845341
 20
538.9964850615114
 30
0.0
 11
255.4894551845341
 21
534.9964850615114
 31
0.0
  0
LINE
  5
542
330
A
100
AcDbEntity
  8
04
100
AcDbLine
 10
242.9894551845341
 20
538.9964850615114
 30
0.0
 11
240.4894551845341
 21
534.9964850615114
 31
0.0
  0
LINE
  5
543
330
A
100
AcDbEntity
  8
04
100
AcDbLine
 10
249.2394551845341
 20
547.9964850615114
 30
0.0
 11
249.2394551845341
 21
553.9964850615112
 31
0.0
  0
LINE
  5
544
330
A
100
AcDbEntity
  8
04
100
AcDbLine
 10
246.7394551845341
 20
553.9964850615112
 30
0.0
 11
246.7394551845341
 21
547.9964850615114
 31
0.0
  0
LINE
  5
545
330
A
100
AcDbEntity
  8
04
100
AcDbLine
 10
253.9894551845342
 20
110.9963149384884
 30
0.0
 11
255.4894551845341
 21
109.9963149384884
 31
0.0
  0
LINE
  5
546
330
A
100
AcDbEntity
  8
04
100
AcDbLine
 10
241.9894551845342
 20
110.9963149384884
 30
0.0
 11
240.4894551845341
 21
109.9963149384884
 31
0.0
  0
LINE
  5
547
330
A
100
AcDbEntity
  8
04
100
AcDbLine
 10
241.9894551845342
 20
94.99631493848857
 30
0.0
 11
253.9894551845342
 21
94.99631493848857
 31
0.0
  0
LINE
  5
548
330
A
100
AcDbEntity
  8
04
100
AcDbLine
 10
255.4894551845341
 20
108.9963149384884
 30
0.0
 11
255.4894551845341
 21
109.9963149384884
 31
0.0
  0
LINE
  5
549
330
A
100
AcDbEntity
  8
04
100
AcDbLine
 10
253.9894551845342
 20
110.9963149384884
 30
0.0
 11
241.9894551845342
 21
110.9963149384884
 31
0.0
  0
LINE
  5
54A
330
A
100
AcDbEntity
  8
04
100
AcDbLine
 10
240.4894551845341
 20
109.9963149384884
 30
0.0
 11
240.4894551845341
 21
108.9963149384884
 31
0.0
  0
LINE
  5
54B
330
A
100
AcDbEntity
  8
04
100
AcDbLine
 10
255.4894551845341
 20
108.9963149384884
 30
0.0
 11
240.4894551845341
 21
108.9963149384884
 31
0.0
  0
LINE
  5
54D
330
A
100
AcDbEntity
  8
04
100
AcDbLine
 10
253.9894551845342
 20
94.99631493848857
 30
0.0
 11
253.9894551845342
 21
101.9963149384885
 31
0.0
  0
LINE
  5
54E
330
A
100
AcDbEntity
  8
04
100
AcDbLine
 10
241.9894551845342
 20
101.9963149384885
 30
0.0
 11
241.9894551845342
 21
94.99631493848857
 31
0.0
  0
LINE
  5
54F
330
A
100
AcDbEntity
  8
04
100
AcDbLine
 10
255.4894551845341
 20
107.9963149384884
 30
0.0
 11
255.4894551845341
 21
105.4963149384885
 31
0.0
  0
LINE
  5
550
330
A
100
AcDbEntity
  8
04
100
AcDbLine
 10
253.9894551845342
 20
101.9963149384885
 30
0.0
 11
255.4894551845341
 21
105.4963149384885
 31
0.0
  0
LINE
  5
551
330
A
100
AcDbEntity
  8
04
100
AcDbLine
 10
240.4894551845341
 20
107.9963149384884
 30
0.0
 11
240.4894551845341
 21
105.4963149384885
 31
0.0
  0
LINE
  5
552
330
A
100
AcDbEntity
  8
04
100
AcDbLine
 10
241.9894551845342
 20
101.9963149384885
 30
0.0
 11
240.4894551845341
 21
105.4963149384885
 31
0.0
  0
LINE
  5
553
330
A
100
AcDbEntity
  8
04
100
AcDbLine
 10
252.9894551845341
 20
108.9963149384884
 30
0.0
 11
252.9894551845341
 21
103.9963149384884
 31
0.0
  0
LINE
  5
554
330
A
100
AcDbEntity
  8
04
100
AcDbLine
 10
242.9894551845341
 20
108.9963149384884
 30
0.0
 11
242.9894551845341
 21
103.9963149384884
 31
0.0
  0
LINE
  5
555
330
A
100
AcDbEntity
  8
04
100
AcDbLine
 10
252.9894551845341
 20
103.9963149384884
 30
0.0
 11
255.4894551845341
 21
107.9963149384884
 31
0.0
  0
LINE
  5
556
330
A
100
AcDbEntity
  8
04
100
AcDbLine
 10
242.9894551845341
 20
103.9963149384884
 30
0.0
 11
240.4894551845341
 21
107.9963149384884
 31
0.0
  0
LINE
  5
557
330
A
100
AcDbEntity
  8
04
100
AcDbLine
 10
249.2394551845341
 20
94.99631493848857
 30
0.0
 11
249.2394551845341
 21
88.99631493848856
 31
0.0
  0
LINE
  5
558
330
A
100
AcDbEntity
  8
04
100
AcDbLine
 10
246.7394551845341
 20
88.99631493848856
 30
0.0
 11
246.7394551845341
 21
94.99631493848857
 31
0.0
  0
LINE
  5
559
330
A
100
AcDbEntity
  8
06
100
AcDbLine
 10
308.9894551845341
 20
413.9964850615114
 30
0.0
 11
297.9894551845341
 21
413.9964850615114
 31
0.0
  0
LINE
  5
55A
330
A
100
AcDbEntity
  8
06
100
AcDbLine
 10
297.9894551845341
 20
413.9964850615114
 30
0.0
 11
297.9894551845341
 21
424.4964850615112
 31
0.0
  0
LINE
  5
55B
330
A
100
AcDbEntity
  8
06
100
AcDbLine
 10
297.9894551845341
 20
429.4964850615114
 30
0.0
 11
297.9894551845339
 21
438.9964850615114
 31
0.0
  0
LINE
  5
55C
330
A
100
AcDbEntity
  8
06
100
AcDbLine
 10
297.9894551845339
 20
438.9964850615114
 30
0.0
 11
329.989455184534
 21
438.9964850615115
 31
0.0
  0
LINE
  5
55D
330
A
100
AcDbEntity
  8
06
100
AcDbLine
 10
329.989455184534
 20
438.9964850615115
 30
0.0
 11
329.9894551845341
 21
413.9964850615115
 31
0.0
  0
LINE
  5
55E
330
A
100
AcDbEntity
  8
06
100
AcDbLine
 10
329.9894551845341
 20
413.9964850615115
 30
0.0
 11
318.9894551845341
 21
413.9964850615114
 31
0.0
  0
LINE
  5
55F
330
A
100
AcDbEntity
  8
06
100
AcDbLine
 10
308.9894551845341
 20
415.4964850615114
 30
0.0
 11
299.4894551845341
 21
415.4964850615114
 31
0.0
  0
LINE
  5
560
330
A
100
AcDbEntity
  8
06
100
AcDbLine
 10
299.4894551845341
 20
415.4964850615114
 30
0.0
 11
299.4894551845341
 21
424.4964850615112
 31
0.0
  0
LINE
  5
561
330
A
100
AcDbEntity
  8
06
100
AcDbLine
 10
299.4894551845341
 20
429.4964850615114
 30
0.0
 11
299.4894551845339
 21
437.4964850615112
 31
0.0
  0
LINE
  5
562
330
A
100
AcDbEntity
  8
06
100
AcDbLine
 10
299.4894551845339
 20
437.4964850615112
 30
0.0
 11
328.489455184534
 21
437.4964850615113
 31
0.0
  0
LINE
  5
563
330
A
100
AcDbEntity
  8
06
100
AcDbLine
 10
328.489455184534
 20
437.4964850615113
 30
0.0
 11
328.489455184534
 21
415.4964850615114
 31
0.0
  0
LINE
  5
564
330
A
100
AcDbEntity
  8
06
100
AcDbLine
 10
328.489455184534
 20
415.4964850615114
 30
0.0
 11
318.9894551845341
 21
415.4964850615114
 31
0.0
  0
LINE
  5
565
330
A
100
AcDbEntity
  8
06
100
AcDbLine
 10
318.9894551845341
 20
413.9964850615114
 30
0.0
 11
318.9894551845341
 21
415.4964850615114
 31
0.0
  0
LINE
  5
566
330
A
100
AcDbEntity
  8
06
100
AcDbLine
 10
308.9894551845341
 20
413.9964850615114
 30
0.0
 11
308.9894551845341
 21
415.4964850615114
 31
0.0
  0
LINE
  5
567
330
A
100
AcDbEntity
  8
06
100
AcDbLine
 10
297.9894551845341
 20
429.4964850615114
 30
0.0
 11
299.4894551845341
 21
429.4964850615112
 31
0.0
  0
LINE
  5
56C
330
A
100
AcDbEntity
  8
06
100
AcDbLine
 10
299.4894551845341
 20
424.4964850615112
 30
0.0
 11
297.9894551845341
 21
424.4964850615112
 31
0.0
  0
LINE
  5
56E
330
A
100
AcDbEntity
  8
06
100
AcDbLine
 10
297.9894551845342
 20
293.9964000000001
 30
0.0
 11
297.9894551845342
 21
318.9964000000001
 31
0.0
  0
LINE
  5
56F
330
A
100
AcDbEntity
  8
06
100
AcDbLine
 10
297.9894551845342
 20
318.9964000000001
 30
0.0
 11
306.9894551845341
 21
318.9964000000001
 31
0.0
  0
LINE
  5
570
330
A
100
AcDbEntity
  8
06
100
AcDbLine
 10
306.9894551845341
 20
318.9964000000001
 30
0.0
 11
306.9894551845341
 21
317.4964000000001
 31
0.0
  0
LINE
  5
571
330
A
100
AcDbEntity
  8
06
100
AcDbLine
 10
306.9894551845341
 20
317.4964000000001
 30
0.0
 11
299.4894551845342
 21
317.4964000000001
 31
0.0
  0
LINE
  5
572
330
A
100
AcDbEntity
  8
06
100
AcDbLine
 10
299.4894551845342
 20
317.4964000000001
 30
0.0
 11
299.4894551845342
 21
295.4964000000001
 31
0.0
  0
LINE
  5
573
330
A
100
AcDbEntity
  8
06
100
AcDbLine
 10
299.4894551845342
 20
295.4964000000001
 30
0.0
 11
308.9894551845342
 21
295.4964000000001
 31
0.0
  0
LINE
  5
574
330
A
100
AcDbEntity
  8
06
100
AcDbLine
 10
308.9894551845342
 20
293.9964000000001
 30
0.0
 11
308.9894551845342
 21
295.4964000000001
 31
0.0
  0
LINE
  5
575
330
A
100
AcDbEntity
  8
06
100
AcDbLine
 10
308.9894551845342
 20
293.9964000000001
 30
0.0
 11
297.9894551845342
 21
293.9964000000001
 31
0.0
  0
LINE
  5
576
330
A
100
AcDbEntity
  8
06
100
AcDbLine
 10
329.9894551845342
 20
293.9964000000001
 30
0.0
 11
329.9894551845341
 21
318.9964000000001
 31
0.0
  0
LINE
  5
577
330
A
100
AcDbEntity
  8
06
100
AcDbLine
 10
329.9894551845341
 20
318.9964000000001
 30
0.0
 11
320.9894551845341
 21
318.9964000000001
 31
0.0
  0
LINE
  5
578
330
A
100
AcDbEntity
  8
06
100
AcDbLine
 10
320.9894551845341
 20
317.4964000000001
 30
0.0
 11
328.4894551845341
 21
317.4964000000001
 31
0.0
  0
LINE
  5
579
330
A
100
AcDbEntity
  8
06
100
AcDbLine
 10
328.4894551845341
 20
317.4964000000001
 30
0.0
 11
328.4894551845342
 21
295.4964000000001
 31
0.0
  0
LINE
  5
57A
330
A
100
AcDbEntity
  8
06
100
AcDbLine
 10
328.4894551845342
 20
295.4964000000001
 30
0.0
 11
318.9894551845342
 21
295.4964000000001
 31
0.0
  0
LINE
  5
57B
330
A
100
AcDbEntity
  8
06
100
AcDbLine
 10
318.9894551845342
 20
293.9964000000001
 30
0.0
 11
329.9894551845342
 21
293.9964000000001
 31
0.0
  0
LINE
  5
57C
330
A
100
AcDbEntity
  8
06
100
AcDbLine
 10
318.9894551845342
 20
293.9964000000001
 30
0.0
 11
318.9894551845342
 21
295.4964000000001
 31
0.0
  0
LINE
  5
584
330
A
100
AcDbEntity
  8
06
100
AcDbLine
 10
320.9894551845343
 20
323.9964000000001
 30
0.0
 11
329.9894551845342
 21
323.9964000000001
 31
0.0
  0
LINE
  5
585
330
A
100
AcDbEntity
  8
06
100
AcDbLine
 10
329.9894551845342
 20
323.9964000000001
 30
0.0
 11
329.9894551845341
 21
348.9964000000001
 31
0.0
  0
LINE
  5
586
330
A
100
AcDbEntity
  8
06
100
AcDbLine
 10
329.9894551845341
 20
348.9964000000001
 30
0.0
 11
318.9894551845341
 21
348.9964000000001
 31
0.0
  0
LINE
  5
587
330
A
100
AcDbEntity
  8
06
100
AcDbLine
 10
308.9894551845341
 20
348.9964000000001
 30
0.0
 11
297.9894551845341
 21
348.9964000000001
 31
0.0
  0
LINE
  5
588
330
A
100
AcDbEntity
  8
06
100
AcDbLine
 10
297.9894551845341
 20
348.9964000000001
 30
0.0
 11
297.9894551845341
 21
323.9964
 31
0.0
  0
LINE
  5
589
330
A
100
AcDbEntity
  8
06
100
AcDbLine
 10
297.9894551845341
 20
323.9964
 30
0.0
 11
306.9894551845341
 21
323.9964
 31
0.0
  0
LINE
  5
58A
330
A
100
AcDbEntity
  8
06
100
AcDbLine
 10
306.9894551845341
 20
323.9964
 30
0.0
 11
306.9894551845341
 21
325.4964000000001
 31
0.0
  0
LINE
  5
58B
330
A
100
AcDbEntity
  8
06
100
AcDbLine
 10
306.9894551845341
 20
325.4964000000001
 30
0.0
 11
299.4894551845341
 21
325.4964000000001
 31
0.0
  0
LINE
  5
58C
330
A
100
AcDbEntity
  8
06
100
AcDbLine
 10
299.4894551845341
 20
325.4964000000001
 30
0.0
 11
299.4894551845341
 21
347.4964000000001
 31
0.0
  0
LINE
  5
58D
330
A
100
AcDbEntity
  8
06
100
AcDbLine
 10
299.4894551845341
 20
347.4964000000001
 30
0.0
 11
308.9894551845341
 21
347.4964000000001
 31
0.0
  0
LINE
  5
58E
330
A
100
AcDbEntity
  8
06
100
AcDbLine
 10
318.9894551845341
 20
347.4964000000001
 30
0.0
 11
328.4894551845341
 21
347.4964000000001
 31
0.0
  0
LINE
  5
58F
330
A
100
AcDbEntity
  8
06
100
AcDbLine
 10
328.4894551845341
 20
347.4964000000001
 30
0.0
 11
328.4894551845342
 21
325.4964000000001
 31
0.0
  0
LINE
  5
590
330
A
100
AcDbEntity
  8
06
100
AcDbLine
 10
328.4894551845342
 20
325.4964000000001
 30
0.0
 11
320.9894551845343
 21
325.4964000000001
 31
0.0
  0
LINE
  5
591
330
A
100
AcDbEntity
  8
06
100
AcDbLine
 10
320.9894551845343
 20
325.4964000000001
 30
0.0
 11
320.9894551845343
 21
323.9964000000001
 31
0.0
  0
LINE
  5
599
330
A
100
AcDbEntity
  8
06
100
AcDbLine
 10
308.9894551845342
 20
348.9964
 30
0.0
 11
308.9894551845341
 21
347.4964000000001
 31
0.0
  0
LINE
  5
59A
330
A
100
AcDbEntity
  8
06
100
AcDbLine
 10
318.9894551845341
 20
348.9964000000001
 30
0.0
 11
318.9894551845341
 21
347.4964000000001
 31
0.0
  0
LINE
  5
59B
330
A
100
AcDbEntity
  8
06
100
AcDbLine
 10
308.9894551845343
 20
228.9963149384891
 30
0.0
 11
297.9894551845343
 21
228.996314938489
 31
0.0
  0
LINE
  5
59C
330
A
100
AcDbEntity
  8
06
100
AcDbLine
 10
297.9894551845343
 20
228.996314938489
 30
0.0
 11
297.9894551845343
 21
218.496314938489
 31
0.0
  0
LINE
  5
59D
330
A
100
AcDbEntity
  8
06
100
AcDbLine
 10
297.9894551845343
 20
213.496314938489
 30
0.0
 11
297.9894551845345
 21
203.9963149384889
 31
0.0
  0
LINE
  5
59E
330
A
100
AcDbEntity
  8
06
100
AcDbLine
 10
297.9894551845345
 20
203.9963149384889
 30
0.0
 11
329.9894551845345
 21
203.996314938489
 31
0.0
  0
LINE
  5
59F
330
A
100
AcDbEntity
  8
06
100
AcDbLine
 10
329.9894551845345
 20
203.996314938489
 30
0.0
 11
329.9894551845344
 21
228.9963149384891
 31
0.0
  0
LINE
  5
5A0
330
A
100
AcDbEntity
  8
06
100
AcDbLine
 10
329.9894551845344
 20
228.9963149384891
 30
0.0
 11
318.9894551845343
 21
228.996314938489
 31
0.0
  0
LINE
  5
5A1
330
A
100
AcDbEntity
  8
06
100
AcDbLine
 10
308.9894551845343
 20
227.496314938489
 30
0.0
 11
299.4894551845344
 21
227.496314938489
 31
0.0
  0
LINE
  5
5A2
330
A
100
AcDbEntity
  8
06
100
AcDbLine
 10
299.4894551845344
 20
227.496314938489
 30
0.0
 11
299.4894551845344
 21
218.496314938489
 31
0.0
  0
LINE
  5
5A3
330
A
100
AcDbEntity
  8
06
100
AcDbLine
 10
299.4894551845344
 20
213.496314938489
 30
0.0
 11
299.4894551845344
 21
205.496314938489
 31
0.0
  0
LINE
  5
5A4
330
A
100
AcDbEntity
  8
06
100
AcDbLine
 10
299.4894551845344
 20
205.496314938489
 30
0.0
 11
328.4894551845344
 21
205.496314938489
 31
0.0
  0
LINE
  5
5A5
330
A
100
AcDbEntity
  8
06
100
AcDbLine
 10
328.4894551845344
 20
205.496314938489
 30
0.0
 11
328.4894551845344
 21
227.496314938489
 31
0.0
  0
LINE
  5
5A6
330
A
100
AcDbEntity
  8
06
100
AcDbLine
 10
328.4894551845344
 20
227.496314938489
 30
0.0
 11
318.9894551845343
 21
227.496314938489
 31
0.0
  0
LINE
  5
5A7
330
A
100
AcDbEntity
  8
06
100
AcDbLine
 10
318.9894551845343
 20
228.996314938489
 30
0.0
 11
318.9894551845343
 21
227.496314938489
 31
0.0
  0
LINE
  5
5A8
330
A
100
AcDbEntity
  8
06
100
AcDbLine
 10
308.9894551845343
 20
228.9963149384891
 30
0.0
 11
308.9894551845343
 21
227.496314938489
 31
0.0
  0
LINE
  5
5A9
330
A
100
AcDbEntity
  8
06
100
AcDbLine
 10
297.9894551845343
 20
213.496314938489
 30
0.0
 11
299.4894551845344
 21
213.496314938489
 31
0.0
  0
LINE
  5
5AE
330
A
100
AcDbEntity
  8
06
100
AcDbLine
 10
299.4894551845344
 20
218.496314938489
 30
0.0
 11
297.9894551845343
 21
218.496314938489
 31
0.0
  0
LINE
  5
5B0
330
A
100
AcDbEntity
  8
03
100
AcDbLine
 10
271.989455184534
 20
438.9964850615114
 30
0.0
 11
260.9894551845339
 21
438.9964850615114
 31
0.0
  0
LINE
  5
5B2
330
A
100
AcDbEntity
  8
03
100
AcDbLine
 10
260.9894551845341
 20
413.9964850615113
 30
0.0
 11
292.989455184534
 21
413.9964850615114
 31
0.0
  0
LINE
  5
5B3
330
A
100
AcDbEntity
  8
03
100
AcDbLine
 10
292.989455184534
 20
413.9964850615114
 30
0.0
 11
292.989455184534
 21
438.9964850615114
 31
0.0
  0
LINE
  5
5B4
330
A
100
AcDbEntity
  8
03
100
AcDbLine
 10
292.989455184534
 20
438.9964850615114
 30
0.0
 11
281.989455184534
 21
438.9964850615114
 31
0.0
  0
LINE
  5
5B5
330
A
100
AcDbEntity
  8
03
100
AcDbLine
 10
271.989455184534
 20
437.4964850615112
 30
0.0
 11
262.4894551845339
 21
437.4964850615112
 31
0.0
  0
LINE
  5
5B7
330
A
100
AcDbEntity
  8
03
100
AcDbLine
 10
262.4894551845341
 20
415.4964850615114
 30
0.0
 11
291.4894551845341
 21
415.4964850615114
 31
0.0
  0
LINE
  5
5B8
330
A
100
AcDbEntity
  8
03
100
AcDbLine
 10
291.4894551845341
 20
415.4964850615114
 30
0.0
 11
291.4894551845339
 21
437.4964850615112
 31
0.0
  0
LINE
  5
5B9
330
A
100
AcDbEntity
  8
03
100
AcDbLine
 10
291.4894551845339
 20
437.4964850615112
 30
0.0
 11
281.989455184534
 21
437.4964850615112
 31
0.0
  0
LINE
  5
5BA
330
A
100
AcDbEntity
  8
03
100
AcDbLine
 10
281.989455184534
 20
438.9964850615114
 30
0.0
 11
281.989455184534
 21
437.4964850615112
 31
0.0
  0
LINE
  5
5BB
330
A
100
AcDbEntity
  8
03
100
AcDbLine
 10
271.989455184534
 20
438.9964850615114
 30
0.0
 11
271.989455184534
 21
437.4964850615112
 31
0.0
  0
LINE
  5
5BC
330
A
100
AcDbEntity
  8
03
100
AcDbLine
 10
271.989455184534
 20
508.9964850615111
 30
0.0
 11
260.9894551845339
 21
508.9964850615111
 31
0.0
  0
LINE
  5
5BD
330
A
100
AcDbEntity
  8
03
100
AcDbLine
 10
260.9894551845339
 20
508.9964850615111
 30
0.0
 11
260.9894551845339
 21
533.9964850615114
 31
0.0
  0
LINE
  5
5BE
330
A
100
AcDbEntity
  8
03
100
AcDbLine
 10
271.989455184534
 20
510.4964850615113
 30
0.0
 11
262.4894551845339
 21
510.4964850615113
 31
0.0
  0
LINE
  5
5BF
330
A
100
AcDbEntity
  8
03
100
AcDbLine
 10
262.4894551845339
 20
510.4964850615113
 30
0.0
 11
262.4894551845339
 21
532.4964850615113
 31
0.0
  0
LINE
  5
5C0
330
A
100
AcDbEntity
  8
03
100
AcDbLine
 10
262.4894551845339
 20
532.4964850615113
 30
0.0
 11
291.4894551845339
 21
532.4964850615113
 31
0.0
  0
LINE
  5
5C1
330
A
100
AcDbEntity
  8
03
100
AcDbLine
 10
291.4894551845339
 20
532.4964850615113
 30
0.0
 11
291.4894551845339
 21
510.4964850615113
 31
0.0
  0
LINE
  5
5C2
330
A
100
AcDbEntity
  8
03
100
AcDbLine
 10
291.4894551845339
 20
510.4964850615113
 30
0.0
 11
281.989455184534
 21
510.4964850615113
 31
0.0
  0
LINE
  5
5C3
330
A
100
AcDbEntity
  8
03
100
AcDbLine
 10
281.989455184534
 20
508.9964850615111
 30
0.0
 11
281.989455184534
 21
510.4964850615113
 31
0.0
  0
LINE
  5
5C4
330
A
100
AcDbEntity
  8
03
100
AcDbLine
 10
271.989455184534
 20
508.9964850615111
 30
0.0
 11
271.989455184534
 21
510.4964850615113
 31
0.0
  0
LINE
  5
5C5
330
A
100
AcDbEntity
  8
03
100
AcDbLine
 10
292.989455184534
 20
508.9964850615111
 30
0.0
 11
281.989455184534
 21
508.9964850615111
 31
0.0
  0
LINE
  5
5C6
330
A
100
AcDbEntity
  8
03
100
AcDbLine
 10
260.9894551845339
 20
533.9964850615114
 30
0.0
 11
292.989455184534
 21
533.9964850615111
 31
0.0
  0
LINE
  5
5C7
330
A
100
AcDbEntity
  8
03
100
AcDbLine
 10
292.989455184534
 20
533.9964850615111
 30
0.0
 11
292.989455184534
 21
508.9964850615111
 31
0.0
  0
LINE
  5
5C8
330
A
100
AcDbEntity
  8
03
100
AcDbLine
 10
271.989455184534
 20
203.9963149384885
 30
0.0
 11
260.9894551845339
 21
203.9963149384885
 31
0.0
  0
LINE
  5
5C9
330
A
100
AcDbEntity
  8
03
100
AcDbLine
 10
260.9894551845339
 20
203.9963149384885
 30
0.0
 11
260.9894551845341
 21
228.9963149384885
 31
0.0
  0
LINE
  5
5CA
330
A
100
AcDbEntity
  8
03
100
AcDbLine
 10
271.989455184534
 20
205.4963149384884
 30
0.0
 11
262.4894551845339
 21
205.4963149384884
 31
0.0
  0
LINE
  5
5CB
330
A
100
AcDbEntity
  8
03
100
AcDbLine
 10
262.4894551845339
 20
205.4963149384884
 30
0.0
 11
262.4894551845339
 21
227.4963149384885
 31
0.0
  0
LINE
  5
5CC
330
A
100
AcDbEntity
  8
03
100
AcDbLine
 10
262.4894551845341
 20
227.4963149384885
 30
0.0
 11
291.4894551845341
 21
227.4963149384884
 31
0.0
  0
LINE
  5
5CD
330
A
100
AcDbEntity
  8
03
100
AcDbLine
 10
291.4894551845341
 20
227.4963149384884
 30
0.0
 11
291.4894551845339
 21
205.4963149384884
 31
0.0
  0
LINE
  5
5CE
330
A
100
AcDbEntity
  8
03
100
AcDbLine
 10
291.4894551845339
 20
205.4963149384884
 30
0.0
 11
281.989455184534
 21
205.4963149384884
 31
0.0
  0
LINE
  5
5CF
330
A
100
AcDbEntity
  8
03
100
AcDbLine
 10
281.989455184534
 20
203.9963149384885
 30
0.0
 11
281.989455184534
 21
205.4963149384884
 31
0.0
  0
LINE
  5
5D0
330
A
100
AcDbEntity
  8
03
100
AcDbLine
 10
271.989455184534
 20
203.9963149384885
 30
0.0
 11
271.989455184534
 21
205.4963149384884
 31
0.0
  0
LINE
  5
5D1
330
A
100
AcDbEntity
  8
03
100
AcDbLine
 10
292.989455184534
 20
203.9963149384885
 30
0.0
 11
281.989455184534
 21
203.9963149384885
 31
0.0
  0
LINE
  5
5D2
330
A
100
AcDbEntity
  8
03
100
AcDbLine
 10
260.9894551845341
 20
228.9963149384885
 30
0.0
 11
292.989455184534
 21
228.9963149384885
 31
0.0
  0
LINE
  5
5D3
330
A
100
AcDbEntity
  8
03
100
AcDbLine
 10
292.989455184534
 20
228.9963149384885
 30
0.0
 11
292.989455184534
 21
203.9963149384885
 31
0.0
  0
LINE
  5
5D4
330
A
100
AcDbEntity
  8
03
100
AcDbLine
 10
271.989455184534
 20
133.9963149384887
 30
0.0
 11
260.9894551845339
 21
133.9963149384886
 31
0.0
  0
LINE
  5
5D5
330
A
100
AcDbEntity
  8
03
100
AcDbLine
 10
271.989455184534
 20
132.4963149384886
 30
0.0
 11
262.4894551845339
 21
132.4963149384886
 31
0.0
  0
LINE
  5
5D7
330
A
100
AcDbEntity
  8
03
100
AcDbLine
 10
262.4894551845339
 20
110.4963149384885
 30
0.0
 11
291.4894551845339
 21
110.4963149384885
 31
0.0
  0
LINE
  5
5D8
330
A
100
AcDbEntity
  8
03
100
AcDbLine
 10
291.4894551845339
 20
110.4963149384885
 30
0.0
 11
291.4894551845339
 21
132.4963149384886
 31
0.0
  0
LINE
  5
5D9
330
A
100
AcDbEntity
  8
03
100
AcDbLine
 10
291.4894551845339
 20
132.4963149384886
 30
0.0
 11
281.9894551845338
 21
132.4963149384886
 31
0.0
  0
LINE
  5
5DA
330
A
100
AcDbEntity
  8
03
100
AcDbLine
 10
281.9894551845338
 20
133.9963149384886
 30
0.0
 11
281.9894551845338
 21
132.4963149384886
 31
0.0
  0
LINE
  5
5DB
330
A
100
AcDbEntity
  8
03
100
AcDbLine
 10
271.989455184534
 20
133.9963149384887
 30
0.0
 11
271.989455184534
 21
132.4963149384886
 31
0.0
  0
LINE
  5
5DC
330
A
100
AcDbEntity
  8
03
100
AcDbLine
 10
292.9894551845338
 20
133.9963149384887
 30
0.0
 11
281.9894551845338
 21
133.9963149384886
 31
0.0
  0
LINE
  5
5DD
330
A
100
AcDbEntity
  8
03
100
AcDbLine
 10
292.989455184534
 20
108.9963149384886
 30
0.0
 11
292.9894551845338
 21
133.9963149384887
 31
0.0
  0
LINE
  5
5DF
330
A
100
AcDbEntity
  8
03
100
AcDbLine
 10
260.9894551845339
 20
108.9963149384884
 30
0.0
 11
292.989455184534
 21
108.9963149384886
 31
0.0
  0
POLYLINE
  5
744
330
A
100
AcDbEntity
  8
DEFPOINTS
100
AcDb2dPolyline
 66
     1
 10
0.0
 20
0.0
 30
0.0
 70
     1
  0
VERTEX
  5
231C
330
744
100
AcDbEntity
  8
DEFPOINTS
100
AcDbVertex
100
AcDb2dVertex
 10
420.0
 20
0.0
 30
0.0
  0
VERTEX
  5
231D
330
744
100
AcDbEntity
  8
DEFPOINTS
100
AcDbVertex
100
AcDb2dVertex
 10
420.0000000000001
 20
594.0
 30
0.0
  0
VERTEX
  5
231E
330
744
100
AcDbEntity
  8
DEFPOINTS
100
AcDbVertex
100
AcDb2dVertex
 10
0.0000000000000568
 20
594.0
 30
0.0
  0
VERTEX
  5
231F
330
744
100
AcDbEntity
  8
DEFPOINTS
100
AcDbVertex
100
AcDb2dVertex
 10
0.0
 20
0.0000000000000257
 30
0.0
  0
SEQEND
  5
2320
330
744
100
AcDbEntity
  8
DEFPOINTS
  0
MTEXT
  5
76D
330
A
100
AcDbEntity
  8
MOJI
100
AcDbMText
 10
255.1050052963458
 20
325.5861496629179
 30
0.0
 40
6.0
 41
30.0
 71
     5
 72
     1
  1
外　部
  7
0_8
 11
0.0000000000000001
 21
1.0
 31
0.0
1001
ACAD
1000
MTEXTBEGIN
1070
    73
1070
     1
1070
    44
1040
1.0
1070
    74
1070
     0
1000
MTEXTEND
1000
MTEXTBEGIN
1070
    73
1070
     1
1070
    44
1040
1.0
1070
    74
1070
     0
1000
MTEXTEND
  0
POLYLINE
  5
76E
330
A
100
AcDbEntity
  8
SAISEN
100
AcDb2dPolyline
 66
     1
 10
0.0
 20
0.0
 30
0.0
 70
     1
  0
VERTEX
  5
2321
330
76E
100
AcDbEntity
  8
SAISEN
100
AcDbVertex
100
AcDb2dVertex
 10
250.105005296346
 20
310.5861496629178
 30
0.0
  0
VERTEX
  5
2322
330
76E
100
AcDbEntity
  8
SAISEN
100
AcDbVertex
100
AcDb2dVertex
 10
260.105005296346
 20
310.5861496629178
 30
0.0
  0
VERTEX
  5
2323
330
76E
100
AcDbEntity
  8
SAISEN
100
AcDbVertex
100
AcDb2dVertex
 10
260.105005296346
 20
340.5861496629178
 30
0.0
  0
VERTEX
  5
2324
330
76E
100
AcDbEntity
  8
SAISEN
100
AcDbVertex
100
AcDb2dVertex
 10
250.105005296346
 20
340.5861496629178
 30
0.0
  0
SEQEND
  5
2325
330
76E
100
AcDbEntity
  8
SAISEN
  0
POLYLINE
  5
770
330
A
100
AcDbEntity
  8
SAISEN
100
AcDb2dPolyline
 66
     1
 10
0.0
 20
0.0
 30
0.0
 70
     1
  0
VERTEX
  5
2326
330
770
100
AcDbEntity
  8
SAISEN
100
AcDbVertex
100
AcDb2dVertex
 10
381.5017068367848
 20
310.5644338219726
 30
0.0
  0
VERTEX
  5
2327
330
770
100
AcDbEntity
  8
SAISEN
100
AcDbVertex
100
AcDb2dVertex
 10
391.5017068367848
 20
310.5644338219726
 30
0.0
  0
VERTEX
  5
2328
330
770
100
AcDbEntity
  8
SAISEN
100
AcDbVertex
100
AcDb2dVertex
 10
391.5017068367848
 20
340.5644338219726
 30
0.0
  0
VERTEX
  5
2329
330
770
100
AcDbEntity
  8
SAISEN
100
AcDbVertex
100
AcDb2dVertex
 10
381.5017068367848
 20
340.5644338219726
 30
0.0
  0
SEQEND
  5
232A
330
770
100
AcDbEntity
  8
SAISEN
  0
MTEXT
  5
771
330
A
100
AcDbEntity
  8
MOJI
100
AcDbMText
 10
386.5017068367848
 20
325.5644338219726
 30
0.0
 40
6.0
 41
30.0
 71
     5
 72
     1
  1
内　部
  7
0_8
 11
0.0000000000000001
 21
1.0
 31
0.0
1001
ACAD
1000
MTEXTBEGIN
1070
    73
1070
     1
1070
    44
1040
1.0
1070
    74
1070
     0
1000
MTEXTEND
1000
MTEXTBEGIN
1070
    73
1070
     1
1070
    44
1040
1.0
1070
    74
1070
     0
1000
MTEXTEND
  0
MTEXT
  5
77B
330
A
100
AcDbEntity
  8
MOJI
100
AcDbMText
 10
32.98047302450504
 20
444.4956187618131
 30
0.0
 40
6.0
 41
35.0
 71
     5
 72
     1
  1
内　観　図
  7
0_8
 11
0.0000000000000001
 21
1.0
 31
0.0
1001
ACAD
1000
MTEXTBEGIN
1070
    73
1070
     1
1070
    44
1040
1.0
1070
    74
1070
     0
1000
MTEXTEND
1000
MTEXTBEGIN
1070
    73
1070
     1
1070
    44
1040
1.0
1070
    74
1070
     0
1000
MTEXTEND
  0
POLYLINE
  5
77C
330
A
100
AcDbEntity
  8
SAISEN
100
AcDb2dPolyline
 66
     1
 10
0.0
 20
0.0
 30
0.0
 70
     1
  0
VERTEX
  5
232B
330
77C
100
AcDbEntity
  8
SAISEN
100
AcDbVertex
100
AcDb2dVertex
 10
37.98047302450504
 20
461.9956187618131
 30
0.0
  0
VERTEX
  5
232C
330
77C
100
AcDbEntity
  8
SAISEN
100
AcDbVertex
100
AcDb2dVertex
 10
27.98047302450504
 20
461.9956187618131
 30
0.0
  0
VERTEX
  5
232D
330
77C
100
AcDbEntity
  8
SAISEN
100
AcDbVertex
100
AcDb2dVertex
 10
27.98047302450504
 20
426.9956187618131
 30
0.0
  0
VERTEX
  5
232E
330
77C
100
AcDbEntity
  8
SAISEN
100
AcDbVertex
100
AcDb2dVertex
 10
37.98047302450504
 20
426.9956187618131
 30
0.0
  0
SEQEND
  5
232F
330
77C
100
AcDbEntity
  8
SAISEN
  0
POLYLINE
  5
77D
330
A
100
AcDbEntity
  8
SAISEN
100
AcDb2dPolyline
 66
     1
 10
0.0
 20
0.0
 30
0.0
 70
     1
  0
VERTEX
  5
2330
330
77D
100
AcDbEntity
  8
SAISEN
100
AcDbVertex
100
AcDb2dVertex
 10
37.98047302450504
 20
222.5008704446728
 30
0.0
  0
VERTEX
  5
2331
330
77D
100
AcDbEntity
  8
SAISEN
100
AcDbVertex
100
AcDb2dVertex
 10
27.98047302450504
 20
222.5008704446728
 30
0.0
  0
VERTEX
  5
2332
330
77D
100
AcDbEntity
  8
SAISEN
100
AcDbVertex
100
AcDb2dVertex
 10
27.98047302450504
 20
187.5008704446728
 30
0.0
  0
VERTEX
  5
2333
330
77D
100
AcDbEntity
  8
SAISEN
100
AcDbVertex
100
AcDb2dVertex
 10
37.98047302450504
 20
187.5008704446728
 30
0.0
  0
SEQEND
  5
2334
330
77D
100
AcDbEntity
  8
SAISEN
  0
MTEXT
  5
77E
330
A
100
AcDbEntity
  8
MOJI
100
AcDbMText
 10
32.98047302450504
 20
205.0008704446728
 30
0.0
 40
6.0
 41
35.0
 71
     5
 72
     1
  1
内　観　図
  7
0_8
 11
0.0000000000000001
 21
1.0
 31
0.0
1001
ACAD
1000
MTEXTBEGIN
1070
    73
1070
     1
1070
    44
1040
1.0
1070
    74
1070
     0
1000
MTEXTEND
1000
MTEXTBEGIN
1070
    73
1070
     1
1070
    44
1040
1.0
1070
    74
1070
     0
1000
MTEXTEND
  0
DIMENSION
  5
78F
330
A
100
AcDbEntity
  8
SUNPOU
100
AcDbDimension
  2
*D1
 10
346.6299097224524
 20
228.9963149384891
 30
0.0
 11
342.1299097224523
 21
216.4963149384891
 31
0.0
 70
    32
  3
SUNPOU_2
100
AcDbAlignedDimension
 13
329.9894551845345
 23
203.996314938489
 33
0.0
 14
329.9894551845344
 24
228.9963149384891
 34
0.0
 50
90.0
100
AcDbRotatedDimension
  0
DIMENSION
  5
79C
330
A
100
AcDbEntity
  8
SUNPOU
100
AcDbDimension
  2
*D2
 10
358.5650118546273
 20
318.9964000000001
 30
0.0
 11
354.0650118546273
 21
261.4963574692446
 31
0.0
 70
    32
  1
DW
  3
SUNPOU_2
100
AcDbAlignedDimension
 13
329.9894551845345
 23
203.996314938489
 33
0.0
 14
329.9894551845345
 24
318.9964000000001
 34
0.0
 50
90.0
100
AcDbRotatedDimension
  0
DIMENSION
  5
7A9
330
A
100
AcDbEntity
  8
SUNPOU
100
AcDbDimension
  2
*D3
 10
358.5650118546273
 20
323.9964000000001
 30
0.0
 11
354.0376396420136
 21
321.4964000000001
 31
0.0
 70
   160
  3
SUNPOU_2
100
AcDbAlignedDimension
 13
329.9894551845345
 23
318.9964000000001
 33
0.0
 14
329.9894551845342
 24
323.9964000000001
 34
0.0
 50
90.0
100
AcDbRotatedDimension
  0
DIMENSION
  5
7B8
330
A
100
AcDbEntity
  8
SUNPOU
100
AcDbDimension
  2
*D4
 10
358.5650118546273
 20
438.9964850615115
 30
0.0
 11
354.0650118546273
 21
381.4964425307558
 31
0.0
 70
    32
  1
DW
  3
SUNPOU_2
100
AcDbAlignedDimension
 13
329.9894551845342
 23
323.9964000000001
 33
0.0
 14
329.989455184534
 24
438.9964850615115
 34
0.0
 50
90.0
100
AcDbRotatedDimension
  0
DIMENSION
  5
7C5
330
A
100
AcDbEntity
  8
SUNPOU
100
AcDbDimension
  2
*D5
 10
346.6299097224524
 20
438.9964850615115
 30
0.0
 11
342.1299097224523
 21
426.4964850615116
 31
0.0
 70
    32
  3
SUNPOU_2
100
AcDbAlignedDimension
 13
329.9894551845341
 23
413.9964850615115
 33
0.0
 14
329.989455184534
 24
438.9964850615115
 34
0.0
 50
90.0
100
AcDbRotatedDimension
  0
DIMENSION
  5
7D2
330
A
100
AcDbEntity
  8
SUNPOU
100
AcDbDimension
  2
*D6
 10
346.6299097224524
 20
318.9964000000001
 30
0.0
 11
342.1299097224523
 21
306.4964000000001
 31
0.0
 70
    32
  3
SUNPOU_2
100
AcDbAlignedDimension
 13
329.9894551845342
 23
293.9964000000001
 33
0.0
 14
329.9894551845345
 24
318.9964000000001
 34
0.0
 50
90.0
100
AcDbRotatedDimension
  0
DIMENSION
  5
7DF
330
A
100
AcDbEntity
  8
SUNPOU
100
AcDbDimension
  2
*D7
 10
346.6299097224524
 20
348.9964000000001
 30
0.0
 11
342.1299097224523
 21
336.4964000000001
 31
0.0
 70
    32
  3
SUNPOU_2
100
AcDbAlignedDimension
 13
329.9894551845342
 23
323.9964000000001
 33
0.0
 14
329.9894551845342
 24
348.9964000000001
 34
0.0
 50
90.0
100
AcDbRotatedDimension
  0
DIMENSION
  5
7EC
330
A
100
AcDbEntity
  8
SUNPOU
100
AcDbDimension
  2
*D8
 10
373.7747268461716
 20
108.9963149384884
 30
0.0
 11
369.2747268461716
 21
93.99631493848859
 31
0.0
 70
    32
  3
SUNPOU_2
100
AcDbAlignedDimension
 13
353.4894551845342
 23
78.99631493848855
 33
0.0
 14
353.4894551845342
 24
108.9963149384884
 34
0.0
 50
90.0
100
AcDbRotatedDimension
  0
DIMENSION
  5
7F9
330
A
100
AcDbEntity
  8
SUNPOU
100
AcDbDimension
  2
*D9
 10
373.7747268461717
 20
533.9964850615114
 30
0.0
 11
369.2747268461716
 21
321.4964000000001
 31
0.0
 70
    32
  1
W
  3
SUNPOU_2
100
AcDbAlignedDimension
 13
353.4894551845342
 23
108.9963149384884
 33
0.0
 14
353.4894551845342
 24
533.9964850615114
 34
0.0
 50
90.0
100
AcDbRotatedDimension
  0
DIMENSION
  5
806
330
A
100
AcDbEntity
  8
SUNPOU
100
AcDbDimension
  2
*D10
 10
373.7747268461717
 20
563.9964850615114
 30
0.0
 11
369.2747268461717
 21
548.9964850615115
 31
0.0
 70
    32
  3
SUNPOU_2
100
AcDbAlignedDimension
 13
353.4894551845342
 23
533.9964850615114
 33
0.0
 14
353.4894551845342
 24
563.9964850615114
 34
0.0
 50
90.0
100
AcDbRotatedDimension
  0
DIMENSION
  5
813
330
A
100
AcDbEntity
  8
SUNPOU
100
AcDbDimension
  2
*D11
 10
305.4894551845341
 20
120.22692983642
 30
0.0
 11
310.0701632675777
 21
115.6684177344237
 31
0.0
 70
   160
 53
180.0
  3
SUNPOU_2
100
AcDbAlignedDimension
 13
322.4894551845341
 23
108.9963149384884
 33
0.0
 14
305.4894551845341
 24
108.9963149384884
 34
0.0
100
AcDbRotatedDimension
  0
DIMENSION
  5
820
330
A
100
AcDbEntity
  8
SUNPOU
100
AcDbDimension
  2
*D12
 10
354.9894551845342
 20
149.2455787355713
 30
0.0
 11
298.1920437160033
 21
144.6235912361553
 31
0.0
 70
   160
 53
180.0
  3
SUNPOU_2
100
AcDbAlignedDimension
 13
234.9894551845341
 23
107.4963149384885
 33
0.0
 14
354.9894551845342
 24
107.4963149384885
 34
0.0
100
AcDbRotatedDimension
  0
DIMENSION
  5
864
330
A
100
AcDbEntity
  8
SUNPOU
100
AcDbDimension
  2
*D13
 10
178.6537785588754
 20
372.7761299200848
 30
0.0
 11
163.6537785588755
 21
368.2543816405011
 31
0.0
 70
   160
 53
180.0
  3
SUNPOU_2_20
100
AcDbAlignedDimension
 13
148.6537785588754
 23
382.2249560632688
 33
0.0
 14
178.6537785588754
 24
380.3749560632686
 34
0.0
100
AcDbRotatedDimension
  0
DIMENSION
  5
88F
330
A
100
AcDbEntity
  8
SUNPOU
100
AcDbDimension
  2
*D14
 10
178.6537785588753
 20
332.2188725158848
 30
0.0
 11
163.6537785588755
 21
327.6680378381623
 31
0.0
 70
   160
 53
180.0
  3
SUNPOU_2_20
100
AcDbAlignedDimension
 13
148.6537785588754
 23
306.2249560632686
 33
0.0
 14
178.6537785588753
 24
307.7249560632687
 34
0.0
100
AcDbRotatedDimension
  0
DIMENSION
  5
8B1
330
A
100
AcDbEntity
  8
SUNPOU
100
AcDbDimension
  2
*D15
 10
83.65377855887549
 20
95.40584020548868
 30
0.0
 11
76.51031689544288
 21
90.89315420850677
 31
0.0
 70
   160
 53
180.0
  3
SUNPOU_2_20
100
AcDbAlignedDimension
 13
83.30377855887551
 23
158.4499560632685
 33
0.0
 14
83.65377855887549
 24
104.2249560632688
 34
0.0
100
AcDbRotatedDimension
  0
DIMENSION
  5
8EE
330
A
100
AcDbEntity
  8
SUNPOU
100
AcDbDimension
  2
*D16
 10
83.65377855887549
 20
77.98994186832496
 30
0.0
 11
78.6537785588755
 21
73.48975193644378
 31
0.0
 70
   160
 53
180.0
  3
SUNPOU_2_20
100
AcDbAlignedDimension
 13
73.6537785588755
 23
102.2249560632688
 33
0.0
 14
83.65377855887549
 24
102.2249560632688
 34
0.0
100
AcDbRotatedDimension
  0
DIMENSION
  5
8FD
330
A
100
AcDbEntity
  8
SUNPOU
100
AcDbDimension
  2
*D17
 10
178.6537785588753
 20
77.98994186832496
 30
0.0
 11
131.1537785588755
 21
73.25715317313779
 31
0.0
 70
   160
  1
H
 53
180.0
  3
SUNPOU_2
100
AcDbAlignedDimension
 13
83.65377855887549
 23
102.2249560632688
 33
0.0
 14
178.6537785588753
 24
100.7249560632687
 34
0.0
100
AcDbRotatedDimension
  0
DIMENSION
  5
90A
330
A
100
AcDbEntity
  8
SUNPOU
100
AcDbDimension
  2
*D18
 10
178.1537785588754
 20
87.16766256590506
 30
0.0
 11
130.7287785588755
 21
82.44816205837514
 31
0.0
 70
   160
  1
DH
 53
180.0
  3
SUNPOU_2
100
AcDbAlignedDimension
 13
83.30377855887551
 23
156.4499560632684
 33
0.0
 14
178.1537785588754
 24
158.4499560632686
 34
0.0
100
AcDbRotatedDimension
  0
DIMENSION
  5
917
330
A
100
AcDbEntity
  8
SUNPOU
100
AcDbDimension
  2
*D19
 10
178.6537785588753
 20
87.16766256590506
 30
0.0
 11
187.0537785588755
 21
82.66819946627242
 31
0.0
 70
   160
 53
180.0
  3
SUNPOU_2_20
100
AcDbAlignedDimension
 13
178.1537785588754
 23
158.4499560632686
 33
0.0
 14
178.6537785588753
 24
100.7249560632687
 34
0.0
100
AcDbRotatedDimension
  0
DIMENSION
  5
A26
330
A
100
AcDbEntity
  8
SUNPOU
100
AcDbDimension
  2
*D20
 10
191.6940013927114
 20
248.7499560632687
 30
0.0
 11
187.1940013927113
 21
204.2249560632688
 31
0.0
 70
    32
  1
開口W
  3
SUNPOU_2
100
AcDbAlignedDimension
 13
178.6537785588753
 23
159.6999560632686
 33
0.0
 14
178.6537785588753
 24
248.7499560632687
 34
0.0
 50
90.0
100
AcDbRotatedDimension
  0
DIMENSION
  5
A46
330
A
100
AcDbEntity
  8
SUNPOU
100
AcDbDimension
  2
*D21
 10
204.4182113605464
 20
304.2249560632686
 30
0.0
 11
199.9182113605463
 21
204.2249560632688
 31
0.0
 70
    32
  1
W
  3
SUNPOU_2
100
AcDbAlignedDimension
 13
178.6537785588753
 23
104.2249560632688
 33
0.0
 14
178.6537785588753
 24
304.2249560632686
 34
0.0
 50
90.0
100
AcDbRotatedDimension
  0
DIMENSION
  5
A6E
330
A
100
AcDbEntity
  8
SUNPOU
100
AcDbDimension
  2
*D22
 10
191.6940013927114
 20
442.0749560632686
 30
0.0
 11
187.1940013927114
 21
412.1499560632687
 31
0.0
 70
    32
  1
開口W
  3
SUNPOU_2
100
AcDbAlignedDimension
 13
178.6537785588754
 23
382.2249560632688
 33
0.0
 14
178.6537785588754
 24
442.0749560632686
 34
0.0
 50
90.0
100
AcDbRotatedDimension
  0
DIMENSION
  5
A84
330
A
100
AcDbEntity
  8
SUNPOU
100
AcDbDimension
  2
*D23
 10
204.4182113605464
 20
507.2249560632688
 30
0.0
 11
199.9182113605463
 21
444.7249560632688
 31
0.0
 70
    32
  1
W
  3
SUNPOU_2
100
AcDbAlignedDimension
 13
178.6537785588754
 23
382.2249560632688
 33
0.0
 14
178.6537785588754
 24
507.2249560632688
 34
0.0
 50
90.0
100
AcDbRotatedDimension
  0
DIMENSION
  5
B4D
330
A
100
AcDbEntity
  8
SUNPOU
100
AcDbDimension
  2
*D24
 10
260.9894551845341
 20
246.8721804511277
 30
0.0
 11
247.9894551845341
 21
242.3448754021208
 31
0.0
 70
   160
 53
180.0
  3
SUNPOU_2
100
AcDbAlignedDimension
 13
234.9894551845341
 23
107.4963149384885
 33
0.0
 14
260.9894551845341
 24
228.9963149384885
 34
0.0
100
AcDbRotatedDimension
  0
DIMENSION
  5
B7C
330
A
100
AcDbEntity
  8
SUNPOU
100
AcDbDimension
  2
*D25
 10
292.989455184534
 20
246.8721804511277
 30
0.0
 11
276.9894551845341
 21
242.3091788978705
 31
0.0
 70
   160
 53
180.0
  3
SUNPOU_2
100
AcDbAlignedDimension
 13
260.9894551845341
 23
228.9963149384885
 33
0.0
 14
292.989455184534
 24
228.9963149384885
 34
0.0
100
AcDbRotatedDimension
  0
DIMENSION
  5
B89
330
A
100
AcDbEntity
  8
SUNPOU
100
AcDbDimension
  2
*D26
 10
297.9894551845343
 20
246.8721804511277
 30
0.0
 11
295.4894551845341
 21
242.1834217408795
 31
0.0
 70
   160
 53
180.0
  3
SUNPOU_2
100
AcDbAlignedDimension
 13
292.989455184534
 23
228.9963149384885
 33
0.0
 14
297.9894551845343
 24
228.996314938489
 34
0.0
100
AcDbRotatedDimension
  0
DIMENSION
  5
B98
330
A
100
AcDbEntity
  8
SUNPOU
100
AcDbDimension
  2
*D27
 10
329.9894551845344
 20
246.8721804511277
 30
0.0
 11
321.713067914598
 21
242.2717672794981
 31
0.0
 70
   160
 53
180.0
  3
SUNPOU_2
100
AcDbAlignedDimension
 13
297.9894551845343
 23
228.996314938489
 33
0.0
 14
329.9894551845344
 24
228.9963149384893
 34
0.0
100
AcDbRotatedDimension
  0
LEADER
  5
C43
330
A
100
AcDbEntity
  8
HIKIDASI
100
AcDbLeader
  3
SUNPOU_2
 73
     0
 74
     0
 75
     1
 40
13.33333333333333
 41
38.93333333333334
 76
     3
 10
53.6537785588755
 20
315.9749560632687
 30
0.0
 10
42.6473156279867
 20
322.9408754604431
 30
0.0
 10
42.6473156279867
 20
327.9408754604431
 30
0.0
340
C44
211
0.0000000000000001
221
1.0
231
0.0
213
-8.411694491781354
223
0.0
233
0.0
1001
ACAD
1000
DSTYLE
1002
{
1070
     5
1000
OPEN30
1070
    77
1070
     1
1070
   147
1040
1.0
1070
   342
1005
72C
1002
}
1000
LEANOF
1010
-8.411694491781354
1020
0.0
1030
0.0
1000
LEANOF
1010
-8.411694491781354
1020
0.0
1030
0.0
  0
MTEXT
  5
C44
330
A
100
AcDbEntity
  8
HIKIDASI
100
AcDbMText
 10
42.39234345310139
 20
329.9408754604431
 30
0.0
 40
5.0
 41
0.0
 71
     4
 72
     1
  1
電源AC100V5A\P（電気工事）
  7
SUNPOU
 11
0.0000000000000001
 21
1.0
 31
0.0
1001
ACAD
1000
MTEXTBEGIN
1070
    73
1070
     1
1070
    44
1040
1.0
1070
    74
1070
     0
1000
MTEXTEND
1000
MTEXTBEGIN
1070
    73
1070
     1
1070
    44
1040
1.0
1070
    74
1070
     0
1000
MTEXTEND
  0
TEXT
  5
C4B
330
A
100
AcDbEntity
  8
MOJI
100
AcDbText
 10
144.0628386503562
 20
306.8385034463371
 30
0.0
 40
5.0
  1
（電気工事）
 50
90.0
 41
0.9
  7
0_8
 11
141.5628386503563
 21
306.8385034463371
 31
0.0
100
AcDbText
 73
     2
  0
TEXT
  5
C4C
330
A
100
AcDbEntity
  8
MOJI
100
AcDbText
 10
134.3372811889497
 20
306.8385034463371
 30
0.0
 40
5.0
  1
電源スイッチ
 50
90.0
 41
0.9
  7
0_8
 11
131.8372811889497
 21
306.8385034463371
 31
0.0
100
AcDbText
 73
     2
  0
TEXT
  5
1125
330
A
100
AcDbEntity
  8
MOJI
100
AcDbText
 10
134.3372811889497
 20
509.8385034463371
 30
0.0
 40
5.0
  1
電源スイッチ
 50
90.0
 41
0.9
  7
0_8
 11
131.8372811889497
 21
509.8385034463371
 31
0.0
100
AcDbText
 73
     2
  0
TEXT
  5
1126
330
A
100
AcDbEntity
  8
MOJI
100
AcDbText
 10
144.0628386503562
 20
509.8385034463371
 30
0.0
 40
5.0
  1
（電気工事）
 50
90.0
 41
0.9
  7
0_8
 11
141.5628386503563
 21
509.8385034463371
 31
0.0
100
AcDbText
 73
     2
  0
TEXT
  5
112C
330
A
100
AcDbEntity
  8
MOJI
100
AcDbText
 10
176.2471430020065
 20
511.2507868754939
 30
0.0
 40
5.0
  1
Ｆ.Ｌ
 50
90.0
 41
0.8
  7
0_8
 11
171.2471430020066
 21
511.2507868754939
 31
0.0
100
AcDbText
 73
     3
  0
TEXT
  5
1132
330
A
100
AcDbEntity
  8
MOJI
100
AcDbText
 10
176.1626528219558
 20
308.2507868754938
 30
0.0
 40
5.0
  1
Ｆ.Ｌ
 50
90.0
 41
0.8
  7
0_8
 11
171.1626528219558
 21
308.2507868754938
 31
0.0
100
AcDbText
 73
     3
  0
MTEXT
  5
114D
330
A
100
AcDbEntity
  8
HIKIDASI
100
AcDbMText
 10
158.3553530245714
 20
401.7473529748632
 30
0.0
 40
5.0
 41
0.0
 71
     7
 72
     1
  1
補助光電スイッチ
  7
SUNPOU
 11
0.0000000000000001
 21
1.0
 31
0.0
1001
ACAD
1000
MTEXTBEGIN
1070
    73
1070
     1
1070
    44
1040
1.0
1070
    74
1070
     0
1000
MTEXTEND
1000
MTEXTBEGIN
1070
    73
1070
     1
1070
    44
1040
1.0
1070
    74
1070
     0
1000
MTEXTEND
  0
LEADER
  5
114E
330
A
100
AcDbEntity
  8
HIKIDASI
100
AcDbLeader
  3
SUNPOU_2
 73
     0
 74
     0
 75
     1
 40
5.000000000000001
 41
37.06666666666665
 76
     3
 10
148.6537785588754
 20
387.8937304417138
 30
0.0
 10
160.3553530245714
 20
394.7473529748632
 30
0.0
 10
160.3553530245714
 20
399.7473529748631
 30
0.0
340
114D
211
0.0000000000000001
221
1.0
231
0.0
1001
ACAD
1000
DSTYLE
1002
{
1070
     5
1000
OPEN30
1070
    77
1070
     1
1070
   147
1040
1.0
1070
   342
1005
72C
1002
}
1000
LEANOF
1010
0.0
1020
0.0
1030
0.0
1000
LEANOF
1010
0.0
1020
0.0
1030
0.0
  0
MTEXT
  5
1155
330
A
100
AcDbEntity
  8
HIKIDASI
100
AcDbMText
 10
158.3553530245714
 20
177.8223529748632
 30
0.0
 40
5.0
 41
0.0
 71
     7
 72
     1
  1
補助光電スイッチ
  7
SUNPOU
 11
0.0000000000000001
 21
1.0
 31
0.0
1001
ACAD
1000
MTEXTBEGIN
1070
    73
1070
     1
1070
    44
1040
1.0
1070
    74
1070
     0
1000
MTEXTEND
1000
MTEXTBEGIN
1070
    73
1070
     1
1070
    44
1040
1.0
1070
    74
1070
     0
1000
MTEXTEND
  0
LEADER
  5
1156
330
A
100
AcDbEntity
  8
HIKIDASI
100
AcDbLeader
  3
SUNPOU_2
 73
     0
 74
     0
 75
     1
 40
5.000000000000001
 41
37.06666666666665
 76
     3
 10
148.6537785588754
 20
163.9687304417139
 30
0.0
 10
160.3553530245714
 20
170.8223529748632
 30
0.0
 10
160.3553530245714
 20
175.8223529748632
 30
0.0
340
1155
211
0.0000000000000001
221
1.0
231
0.0
1001
ACAD
1000
DSTYLE
1002
{
1070
     5
1000
OPEN30
1070
    77
1070
     1
1070
   147
1040
1.0
1070
   342
1005
72C
1002
}
1000
LEANOF
1010
0.0
1020
0.0
1030
0.0
1000
LEANOF
1010
0.0
1020
0.0
1030
0.0
  0
LEADER
  5
1168
330
A
100
AcDbEntity
  8
HIKIDASI
100
AcDbLeader
  3
SUNPOU_2
 73
     0
 74
     0
 75
     1
 40
5.000000000000001
 41
37.06666666666665
 76
     3
 10
243.9894551845342
 20
110.9963149384884
 30
0.0
 10
225.1942003514938
 20
121.8732238277022
 30
0.0
 10
225.1942003514938
 20
126.8732238277021
 30
0.0
340
1169
211
0.0000000000000001
221
1.0
231
0.0
1001
ACAD
1000
DSTYLE
1002
{
1070
     5
1000
OPEN30
1070
    77
1070
     1
1070
   147
1040
1.0
1070
   342
1005
72C
1002
}
1000
LEANOF
1010
0.0
1020
0.0
1030
0.0
1000
LEANOF
1010
0.0
1020
0.0
1030
0.0
  0
MTEXT
  5
1169
330
A
100
AcDbEntity
  8
HIKIDASI
100
AcDbMText
 10
223.1942003514938
 20
128.8732238277021
 30
0.0
 40
5.0
 41
0.0
 71
     7
 72
     1
  1
補助光電スイッチ
  7
SUNPOU
 11
0.0000000000000001
 21
1.0
 31
0.0
1001
ACAD
1000
MTEXTBEGIN
1070
    73
1070
     1
1070
    44
1040
1.0
1070
    74
1070
     0
1000
MTEXTEND
1000
MTEXTBEGIN
1070
    73
1070
     1
1070
    44
1040
1.0
1070
    74
1070
     0
1000
MTEXTEND
  0
LEADER
  5
116C
330
A
100
AcDbEntity
  8
HIKIDASI
100
AcDbLeader
  3
SUNPOU_2
 73
     0
 74
     0
 75
     1
 40
5.000000000000001
 41
71.20000000000008
 76
     3
 10
237.5449170176078
 20
102.0371555526079
 30
0.0
 10
215.9323536384429
 20
114.5140107682655
 30
0.0
 10
215.9323536384429
 20
119.5140107682654
 30
0.0
340
116D
211
0.0000000000000001
221
1.0
231
0.0
1001
ACAD
1000
DSTYLE
1002
{
1070
     5
1000
OPEN30
1070
    77
1070
     1
1070
   147
1040
1.0
1070
   342
1005
72C
1002
}
1000
LEANOF
1010
0.0
1020
0.0
1030
0.0
1000
LEANOF
1010
0.0
1020
0.0
1030
0.0
  0
MTEXT
  5
116D
330
A
100
AcDbEntity
  8
HIKIDASI
100
AcDbMText
 10
213.9323536384429
 20
121.5140107682654
 30
0.0
 40
5.0
 41
0.0
 71
     7
 72
     1
  1
トロよけカバー（スチール1.6t）
  7
SUNPOU
 11
0.0000000000000001
 21
1.0
 31
0.0
1001
ACAD
1000
MTEXTBEGIN
1070
    73
1070
     1
1070
    44
1040
1.0
1070
    74
1070
     0
1000
MTEXTEND
1000
MTEXTBEGIN
1070
    73
1070
     1
1070
    44
1040
1.0
1070
    74
1070
     0
1000
MTEXTEND
  0
LEADER
  5
1170
330
A
100
AcDbEntity
  8
HIKIDASI
100
AcDbLeader
  3
SUNPOU_2
 73
     0
 75
     1
 40
5.000000000000001
 41
71.20000000000008
 76
     3
 10
237.5449170176078
 20
540.9558145704146
 30
0.0
 10
216.1460137778955
 20
528.9231305095014
 30
0.0
 10
216.1460137778955
 20
523.9231305095014
 30
0.0
340
1171
211
0.0000000000000001
221
1.0
231
0.0
1001
ACAD
1000
DSTYLE
1002
{
1070
     5
1000
OPEN30
1070
    77
1070
     1
1070
   147
1040
1.0
1070
   342
1005
72C
1002
}
1000
LEANOF
1010
0.0
1020
0.0
1030
0.0
1000
LEANOF
1010
0.0
1020
0.0
1030
0.0
  0
MTEXT
  5
1171
330
A
100
AcDbEntity
  8
HIKIDASI
100
AcDbMText
 10
214.1460137778955
 20
521.9231305095014
 30
0.0
 40
5.0
 41
0.0
 71
     9
 72
     1
  1
トロよけカバー（スチール1.6t）
  7
SUNPOU
 11
0.0000000000000001
 21
1.0
 31
0.0
1001
ACAD
1000
MTEXTBEGIN
1070
    73
1070
     1
1070
    44
1040
1.0
1070
    74
1070
     0
1000
MTEXTEND
1000
MTEXTBEGIN
1070
    73
1070
     1
1070
    44
1040
1.0
1070
    74
1070
     0
1000
MTEXTEND
  0
LEADER
  5
1174
330
A
100
AcDbEntity
  8
HIKIDASI
100
AcDbLeader
  3
SUNPOU_2
 73
     0
 75
     1
 40
5.000000000000001
 41
37.06666666666665
 76
     3
 10
243.9894551845342
 20
531.9963149384886
 30
0.0
 10
227.6942003514938
 20
522.6482596255518
 30
0.0
 10
227.6942003514938
 20
517.6482596255518
 30
0.0
340
1175
211
0.0000000000000001
221
1.0
231
0.0
1001
ACAD
1000
DSTYLE
1002
{
1070
     5
1000
OPEN30
1070
    77
1070
     1
1070
   147
1040
1.0
1070
   342
1005
72C
1002
}
1000
LEANOF
1010
0.0
1020
0.0
1030
0.0
1000
LEANOF
1010
0.0
1020
0.0
1030
0.0
  0
MTEXT
  5
1175
330
A
100
AcDbEntity
  8
HIKIDASI
100
AcDbMText
 10
225.6942003514938
 20
515.6482596255519
 30
0.0
 40
5.0
 41
0.0
 71
     9
 72
     1
  1
補助光電スイッチ
  7
SUNPOU
 11
0.0000000000000001
 21
1.0
 31
0.0
1001
ACAD
1000
MTEXTBEGIN
1070
    73
1070
     1
1070
    44
1040
1.0
1070
    74
1070
     0
1000
MTEXTEND
1000
MTEXTBEGIN
1070
    73
1070
     1
1070
    44
1040
1.0
1070
    74
1070
     0
1000
MTEXTEND
  0
LEADER
  5
1188
330
A
100
AcDbEntity
  8
HIKIDASI
100
AcDbLeader
  3
SUNPOU_2
 73
     0
 74
     0
 75
     1
 40
5.0
 41
50.93333333333336
 76
     3
 10
297.9894551845342
 20
305.4265055529931
 30
0.0
 10
283.5344926987193
 20
313.8241244384482
 30
0.0
 10
283.5344926987193
 20
318.8241244384482
 30
0.0
340
1189
211
0.0000000000000001
221
1.0
231
0.0
1001
ACAD
1000
DSTYLE
1002
{
1070
     5
1000
OPEN30
1070
    77
1070
     1
1070
   147
1040
1.0
1070
   342
1005
72C
1002
}
1000
LEANOF
1010
0.0
1020
0.0
1030
0.0
1000
LEANOF
1010
0.0
1020
0.0
1030
0.0
  0
MTEXT
  5
1189
330
A
100
AcDbEntity
  8
HIKIDASI
100
AcDbMText
 10
281.5344926987193
 20
320.8241244384482
 30
0.0
 40
5.0
 41
0.0
 71
     7
 72
     1
  1
スリムセナージ･ドアI型
  7
SUNPOU
 11
0.0000000000000001
 21
1.0
 31
0.0
1001
ACAD
1000
MTEXTBEGIN
1070
    73
1070
     1
1070
    44
1040
1.0
1070
    74
1070
     0
1000
MTEXTEND
1000
MTEXTBEGIN
1070
    73
1070
     1
1070
    44
1040
1.0
1070
    74
1070
     0
1000
MTEXTEND
  0
TEXT
  5
16CF
330
A
100
AcDbEntity
  8
MOJI
100
AcDbText
 10
171.1537785588754
 20
108.6370907752512
 30
0.0
 40
5.0
  1
ＦＩＸ
 50
90.0
 41
0.8
  7
0_8
 72
     2
 11
171.1537785588754
 21
121.4370907752512
 31
0.0
100
AcDbText
 73
     1
  0
TEXT
  5
1764
330
A
100
AcDbEntity
  8
MOJI
100
AcDbText
 10
95.27443988869899
 20
161.1645417141789
 30
0.0
 40
4.0
  1
スリムセナージドアI型
 50
90.0
 41
0.8
  7
0_8
 11
93.274439888699
 21
161.1645417141789
 31
0.0
100
AcDbText
 73
     2
  0
TEXT
  5
176A
330
A
100
AcDbEntity
  8
MOJI
100
AcDbText
 10
95.27443988869897
 20
207.014541714179
 30
0.0
 40
4.0
  1
スリムセナージドアI型
 50
90.0
 41
0.8
  7
0_8
 11
93.27443988869898
 21
207.014541714179
 31
0.0
100
AcDbText
 73
     2
  0
MTEXT
  5
176C
330
A
100
AcDbEntity
  8
HIKIDASI
100
AcDbMText
 10
42.39234345310139
 20
532.9408754604433
 30
0.0
 40
5.0
 41
0.0
 71
     4
 72
     1
  1
電源AC100V5A\P（電気工事）
  7
SUNPOU
 11
0.0000000000000001
 21
1.0
 31
0.0
1001
ACAD
1000
MTEXTBEGIN
1070
    73
1070
     1
1070
    44
1040
1.0
1070
    74
1070
     0
1000
MTEXTEND
1000
MTEXTBEGIN
1070
    73
1070
     1
1070
    44
1040
1.0
1070
    74
1070
     0
1000
MTEXTEND
  0
LEADER
  5
176D
330
A
100
AcDbEntity
  8
HIKIDASI
100
AcDbLeader
  3
SUNPOU_2
 73
     0
 74
     0
 75
     1
 40
13.33333333333333
 41
38.93333333333334
 76
     3
 10
53.6537785588755
 20
518.9749560632686
 30
0.0
 10
42.6473156279867
 20
525.9408754604432
 30
0.0
 10
42.6473156279867
 20
530.9408754604432
 30
0.0
340
176C
211
0.0000000000000001
221
1.0
231
0.0
213
-8.411694491781354
223
0.0
233
0.0
1001
ACAD
1000
DSTYLE
1002
{
1070
     5
1000
OPEN30
1070
    77
1070
     1
1070
   147
1040
1.0
1070
   342
1005
72C
1002
}
1000
LEANOF
1010
-8.411694491781354
1020
0.0
1030
0.0
1000
LEANOF
1010
-8.411694491781354
1020
0.0
1030
0.0
  0
TEXT
  5
176F
330
A
100
AcDbEntity
  8
MOJI
100
AcDbText
 10
95.874439888699
 20
394.4863339490208
 30
0.0
 40
4.0
  1
スリムセナージドアI型
 50
90.0
 41
0.8
  7
0_8
 11
93.874439888699
 21
394.4863339490208
 31
0.0
100
AcDbText
 73
     2
  0
MTEXT
  5
1770
330
A
100
AcDbEntity
  8
HIKIDASI
100
AcDbMText
 10
244.534492698719
 20
440.8242094999596
 30
0.0
 40
5.0
 41
0.0
 71
     7
 72
     1
  1
スリムセナージ･ドアFix
  7
SUNPOU
 11
0.0000000000000001
 21
1.0
 31
0.0
1001
ACAD
1000
MTEXTBEGIN
1070
    73
1070
     1
1070
    44
1040
1.0
1070
    74
1070
     0
1000
MTEXTEND
1000
MTEXTBEGIN
1070
    73
1070
     1
1070
    44
1040
1.0
1070
    74
1070
     0
1000
MTEXTEND
  0
LEADER
  5
1771
330
A
100
AcDbEntity
  8
HIKIDASI
100
AcDbLeader
  3
SUNPOU_2
 73
     0
 74
     0
 75
     1
 40
5.0
 41
53.33333333333335
 76
     3
 10
260.9894551845339
 20
425.4265906145043
 30
0.0
 10
246.534492698719
 20
433.8242094999596
 30
0.0
 10
246.534492698719
 20
438.8242094999596
 30
0.0
340
1770
211
0.0000000000000001
221
1.0
231
0.0
1001
ACAD
1000
DSTYLE
1002
{
1070
     5
1000
OPEN30
1070
    77
1070
     1
1070
   147
1040
1.0
1070
   342
1005
72C
1002
}
1000
LEANOF
1010
0.0
1020
0.0
1030
0.0
1000
LEANOF
1010
0.0
1020
0.0
1030
0.0
  0
LINE
  5
1BBA
330
A
100
AcDbEntity
  8
03
100
AcDbLine
 10
288.9894551845338
 20
529.9964850615111
 30
0.0
 11
285.4894551845338
 21
529.9964850615111
 31
0.0
  0
LINE
  5
1BBB
330
A
100
AcDbEntity
  8
03
100
AcDbLine
 10
267.9894551845338
 20
527.4964850615113
 30
0.0
 11
288.9894551845342
 21
527.4964850615113
 31
0.0
  0
LINE
  5
1BBD
330
A
100
AcDbEntity
  8
03
100
AcDbLine
 10
271.4894551845338
 20
529.9964850615111
 30
0.0
 11
267.9894551845338
 21
529.9964850615111
 31
0.0
  0
LINE
  5
1BBE
330
A
100
AcDbEntity
  8
03
100
AcDbLine
 10
269.4894551845338
 20
522.4964850615113
 30
0.0
 11
284.4894551845338
 21
522.4964850615113
 31
0.0
  0
LINE
  5
1BBF
330
A
100
AcDbEntity
  8
03
100
AcDbLine
 10
267.9894551845338
 20
529.9964850615111
 30
0.0
 11
267.9894551845338
 21
527.4964850615113
 31
0.0
  0
LINE
  5
1BC2
330
A
100
AcDbEntity
  8
03
100
AcDbLine
 10
284.4894551845338
 20
522.4964850615113
 30
0.0
 11
284.4894551845338
 21
521.4964850615111
 31
0.0
  0
LINE
  5
1BC3
330
A
100
AcDbEntity
  8
03
100
AcDbLine
 10
271.4894551845338
 20
532.4964850615113
 30
0.0
 11
271.4894551845338
 21
529.9964850615111
 31
0.0
  0
LINE
  5
1BC4
330
A
100
AcDbEntity
  8
03
100
AcDbLine
 10
285.4894551845338
 20
529.9964850615111
 30
0.0
 11
285.4894551845338
 21
532.4964850615113
 31
0.0
  0
LINE
  5
1BC5
330
A
100
AcDbEntity
  8
03
100
AcDbLine
 10
288.9894551845338
 20
527.4964850615113
 30
0.0
 11
288.9894551845338
 21
529.9964850615111
 31
0.0
  0
LINE
  5
1BC9
330
A
100
AcDbEntity
  8
03
100
AcDbLine
 10
271.9894551845339
 20
515.4964850615113
 30
0.0
 11
269.4894551845338
 21
515.4964850615113
 31
0.0
  0
LINE
  5
1BCB
330
A
100
AcDbEntity
  8
03
100
AcDbLine
 10
269.4894551845338
 20
515.4964850615113
 30
0.0
 11
269.4894551845338
 21
522.4964850615113
 31
0.0
  0
LINE
  5
1BCC
330
A
100
AcDbEntity
  8
03
100
AcDbLine
 10
273.989455184534
 20
517.9964850615113
 30
0.0
 11
279.989455184534
 21
517.9964850615113
 31
0.0
  0
LINE
  5
1BCD
330
A
100
AcDbEntity
  8
03
100
AcDbLine
 10
281.9894551845338
 20
515.4964850615113
 30
0.0
 11
284.4894551845338
 21
515.4964850615113
 31
0.0
  0
LINE
  5
1BCE
330
A
100
AcDbEntity
  8
03
100
AcDbLine
 10
284.4894551845338
 20
515.4964850615113
 30
0.0
 11
284.4894551845338
 21
516.4964850615112
 31
0.0
  0
LINE
  5
1BD2
330
A
100
AcDbEntity
  8
03
100
AcDbLine
 10
284.4894551845338
 20
521.4964850615111
 30
0.0
 11
287.2819992589626
 21
519.8751603930473
 31
0.0
  0
LINE
  5
1BD4
330
A
100
AcDbEntity
  8
03
100
AcDbLine
 10
287.2819992589628
 20
518.1178097299749
 30
0.0
 11
284.4894551845333
 21
516.4964850615104
 31
0.0
  0
LINE
  5
1BD7
330
A
100
AcDbEntity
  8
03
100
AcDbLine
 10
271.9894551845338
 20
508.9964850615112
 30
0.0
 11
271.9894551845339
 21
515.4964850615113
 31
0.0
  0
ARC
  5
1BD8
330
A
100
AcDbEntity
  8
03
100
AcDbCircle
 10
272.9894551845339
 20
506.1680579367651
 30
0.0
 40
3.0
100
AcDbArc
 50
70.52877936551118
 51
109.4712206344887
  0
LINE
  5
1BD9
330
A
100
AcDbEntity
  8
03
100
AcDbLine
 10
281.9894551845338
 20
508.9964850615111
 30
0.0
 11
281.9894551845338
 21
515.4964850615113
 31
0.0
  0
ARC
  5
1BDA
330
A
100
AcDbEntity
  8
03
100
AcDbCircle
 10
280.9894551845339
 20
506.1680579367649
 30
0.0
 40
3.0
100
AcDbArc
 50
70.52877936551118
 51
109.4712206344887
  0
ARC
  5
1BDC
330
A
100
AcDbEntity
  8
03
100
AcDbCircle
 10
288.7954158115846
 20
518.9964850615113
 30
0.0
 40
1.75
100
AcDbArc
 50
210.1390449605222
 51
149.8609550394776
  0
LINE
  5
1C1E
330
A
100
AcDbEntity
  8
03
100
AcDbLine
 10
271.9894551845341
 20
127.4963149384886
 30
0.0
 11
269.4894551845341
 21
127.4963149384887
 31
0.0
  0
LINE
  5
1C21
330
A
100
AcDbEntity
  8
03
100
AcDbLine
 10
271.9894551845341
 20
133.9963149384887
 30
0.0
 11
271.9894551845341
 21
127.4963149384886
 31
0.0
  0
LINE
  5
1C23
330
A
100
AcDbEntity
  8
03
100
AcDbLine
 10
284.4894551845341
 20
121.4963149384886
 30
0.0
 11
287.2819992589631
 21
123.1176396069525
 31
0.0
  0
LINE
  5
1C24
330
A
100
AcDbEntity
  8
03
100
AcDbLine
 10
287.2819992589631
 20
124.8749902700247
 30
0.0
 11
284.4894551845338
 21
126.4963149384893
 31
0.0
  0
LINE
  5
1C27
330
A
100
AcDbEntity
  8
03
100
AcDbLine
 10
284.4894551845341
 20
120.4963149384886
 30
0.0
 11
284.4894551845341
 21
121.4963149384886
 31
0.0
  0
LINE
  5
1C28
330
A
100
AcDbEntity
  8
03
100
AcDbLine
 10
281.9894551845341
 20
127.4963149384886
 30
0.0
 11
284.4894551845341
 21
127.4963149384886
 31
0.0
  0
LINE
  5
1C29
330
A
100
AcDbEntity
  8
03
100
AcDbLine
 10
281.9894551845341
 20
133.9963149384886
 30
0.0
 11
281.9894551845341
 21
127.4963149384886
 31
0.0
  0
LINE
  5
1C2A
330
A
100
AcDbEntity
  8
03
100
AcDbLine
 10
284.4894551845341
 20
127.4963149384886
 30
0.0
 11
284.4894551845341
 21
126.4963149384886
 31
0.0
  0
ARC
  5
1C2C
330
A
100
AcDbEntity
  8
03
100
AcDbCircle
 10
288.795415811585
 20
123.9963149384885
 30
0.0
 40
1.75
100
AcDbArc
 50
210.1390449605222
 51
149.8609550394776
  0
LINE
  5
1C50
330
A
100
AcDbEntity
  8
03
100
AcDbLine
 10
269.4894551845341
 20
127.4963149384887
 30
0.0
 11
269.4894551845341
 21
120.4963149384886
 31
0.0
  0
LINE
  5
1C51
330
A
100
AcDbEntity
  8
03
100
AcDbLine
 10
269.4894551845341
 20
120.4963149384886
 30
0.0
 11
284.4894551845341
 21
120.4963149384886
 31
0.0
  0
LINE
  5
1C53
330
A
100
AcDbEntity
  8
03
100
AcDbLine
 10
267.9894551845341
 20
115.4963149384885
 30
0.0
 11
288.9894551845346
 21
115.4963149384885
 31
0.0
  0
LINE
  5
1C54
330
A
100
AcDbEntity
  8
03
100
AcDbLine
 10
288.9894551845341
 20
112.9963149384886
 30
0.0
 11
285.4894551845341
 21
112.9963149384886
 31
0.0
  0
LINE
  5
1C55
330
A
100
AcDbEntity
  8
03
100
AcDbLine
 10
271.4894551845341
 20
112.9963149384886
 30
0.0
 11
267.9894551845341
 21
112.9963149384886
 31
0.0
  0
LINE
  5
1C56
330
A
100
AcDbEntity
  8
03
100
AcDbLine
 10
267.9894551845341
 20
112.9963149384886
 30
0.0
 11
267.9894551845341
 21
115.4963149384885
 31
0.0
  0
LINE
  5
1C57
330
A
100
AcDbEntity
  8
03
100
AcDbLine
 10
271.4894551845342
 20
110.4963149384885
 30
0.0
 11
271.4894551845341
 21
112.9963149384886
 31
0.0
  0
LINE
  5
1C58
330
A
100
AcDbEntity
  8
03
100
AcDbLine
 10
285.4894551845341
 20
112.9963149384886
 30
0.0
 11
285.4894551845342
 21
110.4963149384887
 31
0.0
  0
LINE
  5
1C59
330
A
100
AcDbEntity
  8
03
100
AcDbLine
 10
288.9894551845341
 20
115.4963149384885
 30
0.0
 11
288.9894551845341
 21
112.9963149384886
 31
0.0
  0
LINE
  5
1C63
330
A
100
AcDbEntity
  8
03
100
AcDbLine
 10
262.4894551845339
 20
132.4963149384886
 30
0.0
 11
262.4894551845339
 21
110.4963149384885
 31
0.0
  0
LINE
  5
1C64
330
A
100
AcDbEntity
  8
03
100
AcDbLine
 10
260.9894551845339
 20
133.9963149384886
 30
0.0
 11
260.9894551845339
 21
108.9963149384884
 31
0.0
  0
LINE
  5
1C75
330
A
100
AcDbEntity
  8
03
100
AcDbLine
 10
292.4506351827599
 20
533.4576650597369
 30
0.0
 11
291.4894551845341
 21
532.4964850615113
 31
0.0
  0
LINE
  5
1C76
330
A
100
AcDbEntity
  8
03
100
AcDbLine
 10
292.4827262940681
 20
509.5032139519771
 30
0.0
 11
291.4894551845342
 21
510.4964850615113
 31
0.0
  0
LINE
  5
1C7D
330
A
100
AcDbEntity
  8
03
100
AcDbLine
 10
292.4827262940684
 20
133.4895860480228
 30
0.0
 11
291.4894551845346
 21
132.4963149384886
 31
0.0
  0
LINE
  5
1C7E
330
A
100
AcDbEntity
  8
03
100
AcDbLine
 10
292.4506351827606
 20
109.535134940263
 30
0.0
 11
291.4894551845348
 21
110.4963149384885
 31
0.0
  0
LINE
  5
1D5A
330
A
100
AcDbEntity
  8
03
100
AcDbLine
 10
269.4894551845345
 20
432.4964850615113
 30
0.0
 11
269.4894551845345
 21
425.4964850615114
 31
0.0
  0
LINE
  5
1D5C
330
A
100
AcDbEntity
  8
03
100
AcDbLine
 10
285.4894551845345
 20
417.9964850615114
 30
0.0
 11
285.4894551845346
 21
415.4964850615114
 31
0.0
  0
LINE
  5
1D5D
330
A
100
AcDbEntity
  8
03
100
AcDbLine
 10
271.4894551845346
 20
415.4964850615114
 30
0.0
 11
271.4894551845345
 21
417.9964850615114
 31
0.0
  0
LINE
  5
1D5F
330
A
100
AcDbEntity
  8
03
100
AcDbLine
 10
267.9894551845344
 20
420.4964850615112
 30
0.0
 11
288.9894551845349
 21
420.4964850615112
 31
0.0
  0
LINE
  5
1D60
330
A
100
AcDbEntity
  8
03
100
AcDbLine
 10
269.4894551845345
 20
425.4964850615114
 30
0.0
 11
284.4894551845344
 21
425.4964850615114
 31
0.0
  0
LINE
  5
1D62
330
A
100
AcDbEntity
  8
03
100
AcDbLine
 10
273.9894551845341
 20
429.9964850615114
 30
0.0
 11
279.9894551845341
 21
429.9964850615114
 31
0.0
  0
LINE
  5
1D66
330
A
100
AcDbEntity
  8
03
100
AcDbLine
 10
267.9894551845344
 20
417.9964850615114
 30
0.0
 11
267.9894551845344
 21
420.4964850615112
 31
0.0
  0
LINE
  5
1D67
330
A
100
AcDbEntity
  8
03
100
AcDbLine
 10
271.4894551845345
 20
417.9964850615114
 30
0.0
 11
267.9894551845344
 21
417.9964850615114
 31
0.0
  0
LINE
  5
1D69
330
A
100
AcDbEntity
  8
03
100
AcDbLine
 10
271.9894551845345
 20
432.4964850615113
 30
0.0
 11
269.4894551845345
 21
432.4964850615113
 31
0.0
  0
LINE
  5
1D6A
330
A
100
AcDbEntity
  8
03
100
AcDbLine
 10
271.9894551845345
 20
438.9964850615114
 30
0.0
 11
271.9894551845345
 21
432.4964850615113
 31
0.0
  0
LINE
  5
1D6D
330
A
100
AcDbEntity
  8
03
100
AcDbLine
 10
281.9894551845345
 20
432.4964850615113
 30
0.0
 11
284.4894551845344
 21
432.4964850615113
 31
0.0
  0
LINE
  5
1D70
330
A
100
AcDbEntity
  8
03
100
AcDbLine
 10
281.9894551845345
 20
438.9964850615114
 30
0.0
 11
281.9894551845345
 21
432.4964850615113
 31
0.0
  0
ARC
  5
1D72
330
A
100
AcDbEntity
  8
03
100
AcDbCircle
 10
288.7954158115853
 20
428.9964850615112
 30
0.0
 40
1.75
100
AcDbArc
 50
210.1390449605222
 51
149.8609550394776
  0
LINE
  5
1D74
330
A
100
AcDbEntity
  8
03
100
AcDbLine
 10
284.4894551845344
 20
426.4964850615114
 30
0.0
 11
287.2819992589633
 21
428.1178097299753
 31
0.0
  0
LINE
  5
1D75
330
A
100
AcDbEntity
  8
03
100
AcDbLine
 10
288.9894551845344
 20
417.9964850615114
 30
0.0
 11
285.4894551845345
 21
417.9964850615114
 31
0.0
  0
LINE
  5
1D76
330
A
100
AcDbEntity
  8
03
100
AcDbLine
 10
284.4894551845344
 20
425.4964850615114
 30
0.0
 11
284.4894551845344
 21
426.4964850615114
 31
0.0
  0
LINE
  5
1D77
330
A
100
AcDbEntity
  8
03
100
AcDbLine
 10
288.9894551845344
 20
420.4964850615112
 30
0.0
 11
288.9894551845344
 21
417.9964850615114
 31
0.0
  0
LINE
  5
1D7A
330
A
100
AcDbEntity
  8
03
100
AcDbLine
 10
284.4894551845344
 20
432.4964850615113
 30
0.0
 11
284.4894551845344
 21
431.4964850615114
 31
0.0
  0
LINE
  5
1D7B
330
A
100
AcDbEntity
  8
03
100
AcDbLine
 10
287.2819992589633
 20
429.8751603930476
 30
0.0
 11
284.4894551845341
 21
431.4964850615121
 31
0.0
  0
LINE
  5
1DC1
330
A
100
AcDbEntity
  8
06
100
AcDbLine
 10
308.9894551845341
 20
420.4964850615113
 30
0.0
 11
306.4894551845341
 21
420.4964850615112
 31
0.0
  0
LINE
  5
1DC3
330
A
100
AcDbEntity
  8
06
100
AcDbLine
 10
297.9894551845341
 20
429.2464850615114
 30
0.0
 11
300.4894551845341
 21
429.2464850615114
 31
0.0
  0
LINE
  5
1DC4
330
A
100
AcDbEntity
  8
06
100
AcDbLine
 10
297.9894551845341
 20
424.7464850615114
 30
0.0
 11
300.4894551845341
 21
424.7464850615114
 31
0.0
  0
LINE
  5
1DC5
330
A
100
AcDbEntity
  8
06
100
AcDbLine
 10
294.9894551845341
 20
426.0082617181815
 30
0.0
 11
293.3403176879662
 21
426.5236171858592
 31
0.0
  0
LINE
  5
1DC6
330
A
100
AcDbEntity
  8
06
100
AcDbLine
 10
294.9894551845341
 20
428.0082617181816
 30
0.0
 11
293.3403176879662
 21
427.4929062505042
 31
0.0
  0
LINE
  5
1DC7
330
A
100
AcDbEntity
  8
06
100
AcDbLine
 10
293.4894551845341
 20
427.5395117181815
 30
0.0
 11
293.4894551845341
 21
426.4770117181821
 31
0.0
  0
ARC
  5
1DC8
330
A
100
AcDbEntity
  8
06
100
AcDbCircle
 10
293.4894551845341
 20
427.0008571748768
 30
0.0
 40
0.5
100
AcDbArc
 50
179.9999999999803
 51
252.6459753637336
  0
ARC
  5
1DC9
330
A
100
AcDbEntity
  8
06
100
AcDbCircle
 10
293.4894551845341
 20
427.0156662614867
 30
0.0
 40
0.5
100
AcDbArc
 50
107.3540246362632
 51
179.9999999999771
  0
LINE
  5
1DCA
330
A
100
AcDbEntity
  8
06
100
AcDbLine
 10
292.9894551845341
 20
427.0008571748769
 30
0.0
 11
292.9894551845341
 21
427.0156662614868
 31
0.0
  0
ARC
  5
1DCB
330
A
100
AcDbEntity
  8
06
100
AcDbCircle
 10
292.6436941219063
 20
434.5069830095476
 30
0.0
 40
7.5
100
AcDbArc
 50
288.2261310017257
 51
315.460587600051
  0
ARC
  5
1DCC
330
A
100
AcDbEntity
  8
06
100
AcDbCircle
 10
292.6096030208993
 20
419.5208568028776
 30
0.0
 40
7.5
100
AcDbArc
 50
44.16686885306797
 51
71.49945832719506
  0
LINE
  5
1DCD
330
A
100
AcDbEntity
  8
06
100
AcDbLine
 10
294.9894551845341
 20
428.0082617181816
 30
0.0
 11
294.9894551845341
 21
426.0082617181815
 31
0.0
  0
LINE
  5
1DD0
330
A
100
AcDbEntity
  8
06
100
AcDbLine
 10
303.2894551845344
 20
423.4964850615114
 30
0.0
 11
300.9894551845341
 21
423.4964850615114
 31
0.0
  0
LINE
  5
1DD1
330
A
100
AcDbEntity
  8
06
100
AcDbLine
 10
300.9894551845341
 20
430.4964850615114
 30
0.0
 11
303.2894551845344
 21
430.4964850615114
 31
0.0
  0
ARC
  5
1DD8
330
A
100
AcDbEntity
  8
06
100
AcDbCircle
 10
300.4894551845341
 20
429.7464850615114
 30
0.0
 40
0.5
100
AcDbArc
 50
270.0
 51
0.0000000000032569
  0
LINE
  5
1DD9
330
A
100
AcDbEntity
  8
06
100
AcDbLine
 10
300.9894551845341
 20
430.4964850615114
 30
0.0
 11
300.9894551845341
 21
429.7464850615114
 31
0.0
  0
ARC
  5
1DDA
330
A
100
AcDbEntity
  8
06
100
AcDbCircle
 10
300.4894551845341
 20
424.2464850615114
 30
0.0
 40
0.5
100
AcDbArc
 50
359.9999999999967
 51
90.0
  0
LINE
  5
1DDB
330
A
100
AcDbEntity
  8
06
100
AcDbLine
 10
300.9894551845341
 20
423.4964850615114
 30
0.0
 11
300.9894551845341
 21
424.3113068116874
 31
0.0
  0
LINE
  5
1DDC
330
A
100
AcDbEntity
  8
06
100
AcDbLine
 10
306.4894551845341
 20
420.4964850615112
 30
0.0
 11
306.4894551845341
 21
427.4964850615114
 31
0.0
  0
LINE
  5
1DDE
330
A
100
AcDbEntity
  8
06
100
AcDbLine
 10
303.2894551845344
 20
430.4964850615114
 30
0.0
 11
303.2894551845344
 21
423.4964850615114
 31
0.0
  0
LINE
  5
1DDF
330
A
100
AcDbEntity
  8
06
100
AcDbLine
 10
325.9894551845341
 20
434.9964850615114
 30
0.0
 11
322.4894551845341
 21
434.9964850615114
 31
0.0
  0
LINE
  5
1DE0
330
A
100
AcDbEntity
  8
06
100
AcDbLine
 10
304.9894551845341
 20
432.4964850615113
 30
0.0
 11
325.9894551845346
 21
432.4964850615113
 31
0.0
  0
LINE
  5
1DE3
330
A
100
AcDbEntity
  8
06
100
AcDbLine
 10
321.4894551845341
 20
426.4964850615114
 30
0.0
 11
324.281999258963
 21
424.8751603930474
 31
0.0
  0
LINE
  5
1DE4
330
A
100
AcDbEntity
  8
06
100
AcDbLine
 10
324.281999258963
 20
423.1178097299752
 30
0.0
 11
321.4894551845337
 21
421.4964850615106
 31
0.0
  0
LINE
  5
1DE5
330
A
100
AcDbEntity
  8
06
100
AcDbLine
 10
308.4894551845341
 20
434.9964850615115
 30
0.0
 11
304.9894551845341
 21
434.9964850615114
 31
0.0
  0
LINE
  5
1DE7
330
A
100
AcDbEntity
  8
06
100
AcDbLine
 10
306.4894551845341
 20
427.4964850615114
 30
0.0
 11
321.4894551845341
 21
427.4964850615114
 31
0.0
  0
LINE
  5
1DE8
330
A
100
AcDbEntity
  8
06
100
AcDbLine
 10
304.9894551845341
 20
434.9964850615114
 30
0.0
 11
304.9894551845341
 21
432.4964850615113
 31
0.0
  0
LINE
  5
1DEB
330
A
100
AcDbEntity
  8
06
100
AcDbLine
 10
310.9894551845341
 20
422.9964850615115
 30
0.0
 11
316.9894551845341
 21
422.9964850615114
 31
0.0
  0
LINE
  5
1DEC
330
A
100
AcDbEntity
  8
06
100
AcDbLine
 10
318.9894551845341
 20
420.4964850615112
 30
0.0
 11
321.4894551845341
 21
420.4964850615112
 31
0.0
  0
LINE
  5
1DED
330
A
100
AcDbEntity
  8
06
100
AcDbLine
 10
321.4894551845341
 20
420.4964850615112
 30
0.0
 11
321.4894551845341
 21
421.4964850615114
 31
0.0
  0
LINE
  5
1DEE
330
A
100
AcDbEntity
  8
06
100
AcDbLine
 10
321.4894551845341
 20
427.4964850615114
 30
0.0
 11
321.4894551845341
 21
426.4964850615114
 31
0.0
  0
LINE
  5
1DEF
330
A
100
AcDbEntity
  8
06
100
AcDbLine
 10
308.4894551845341
 20
437.4964850615113
 30
0.0
 11
308.4894551845341
 21
434.9964850615115
 31
0.0
  0
LINE
  5
1DF0
330
A
100
AcDbEntity
  8
06
100
AcDbLine
 10
322.4894551845341
 20
434.9964850615114
 30
0.0
 11
322.4894551845341
 21
437.4964850615112
 31
0.0
  0
ARC
  5
1DF2
330
A
100
AcDbEntity
  8
06
100
AcDbCircle
 10
325.795415811585
 20
423.9964850615113
 30
0.0
 40
1.75
100
AcDbArc
 50
210.1390449605222
 51
149.8609550394776
  0
LINE
  5
1DF3
330
A
100
AcDbEntity
  8
06
100
AcDbLine
 10
325.9894551845341
 20
432.4964850615113
 30
0.0
 11
325.9894551845341
 21
434.9964850615114
 31
0.0
  0
LINE
  5
1DF9
330
A
100
AcDbEntity
  8
06
100
AcDbLine
 10
308.9894551845341
 20
413.9964850615114
 30
0.0
 11
308.9894551845341
 21
420.4964850615113
 31
0.0
  0
ARC
  5
1DFA
330
A
100
AcDbEntity
  8
06
100
AcDbCircle
 10
309.9894551845341
 20
411.1680579367652
 30
0.0
 40
3.0
100
AcDbArc
 50
70.52877936551012
 51
109.4712206344897
  0
LINE
  5
1DFB
330
A
100
AcDbEntity
  8
06
100
AcDbLine
 10
318.9894551845341
 20
413.9964850615114
 30
0.0
 11
318.9894551845341
 21
420.4964850615112
 31
0.0
  0
ARC
  5
1DFC
330
A
100
AcDbEntity
  8
06
100
AcDbCircle
 10
317.9894551845341
 20
411.1680579367652
 30
0.0
 40
3.0
100
AcDbArc
 50
70.52877936551012
 51
109.4712206344897
  0
LINE
  5
1E43
330
A
100
AcDbEntity
  8
03
100
AcDbLine
 10
271.9894551845341
 20
210.4963149384885
 30
0.0
 11
269.4894551845341
 21
210.4963149384885
 31
0.0
  0
LINE
  5
1E5E
330
A
100
AcDbEntity
  8
03
100
AcDbLine
 10
269.4894551845341
 20
210.4963149384885
 30
0.0
 11
269.4894551845341
 21
217.4963149384884
 31
0.0
  0
LINE
  5
1E61
330
A
100
AcDbEntity
  8
03
100
AcDbLine
 10
288.989455184534
 20
224.9963149384885
 30
0.0
 11
285.4894551845339
 21
224.9963149384885
 31
0.0
  0
LINE
  5
1E62
330
A
100
AcDbEntity
  8
03
100
AcDbLine
 10
267.989455184534
 20
222.4963149384886
 30
0.0
 11
288.9894551845344
 21
222.4963149384886
 31
0.0
  0
LINE
  5
1E65
330
A
100
AcDbEntity
  8
03
100
AcDbLine
 10
284.4894551845341
 20
216.4963149384885
 30
0.0
 11
287.2819992589628
 21
214.8749902700244
 31
0.0
  0
LINE
  5
1E66
330
A
100
AcDbEntity
  8
03
100
AcDbLine
 10
287.281999258963
 20
213.1176396069523
 30
0.0
 11
284.4894551845337
 21
211.4963149384879
 31
0.0
  0
LINE
  5
1E67
330
A
100
AcDbEntity
  8
03
100
AcDbLine
 10
271.4894551845339
 20
224.9963149384885
 30
0.0
 11
267.989455184534
 21
224.9963149384885
 31
0.0
  0
LINE
  5
1E69
330
A
100
AcDbEntity
  8
03
100
AcDbLine
 10
269.4894551845341
 20
217.4963149384884
 30
0.0
 11
284.4894551845341
 21
217.4963149384884
 31
0.0
  0
LINE
  5
1E6A
330
A
100
AcDbEntity
  8
03
100
AcDbLine
 10
267.989455184534
 20
224.9963149384885
 30
0.0
 11
267.989455184534
 21
222.4963149384886
 31
0.0
  0
LINE
  5
1E6D
330
A
100
AcDbEntity
  8
03
100
AcDbLine
 10
273.9894551845341
 20
212.9963149384885
 30
0.0
 11
279.9894551845341
 21
212.9963149384884
 31
0.0
  0
LINE
  5
1E6E
330
A
100
AcDbEntity
  8
03
100
AcDbLine
 10
281.9894551845341
 20
210.4963149384885
 30
0.0
 11
284.4894551845341
 21
210.4963149384885
 31
0.0
  0
LINE
  5
1E6F
330
A
100
AcDbEntity
  8
03
100
AcDbLine
 10
284.4894551845341
 20
210.4963149384885
 30
0.0
 11
284.4894551845341
 21
211.4963149384884
 31
0.0
  0
LINE
  5
1E70
330
A
100
AcDbEntity
  8
03
100
AcDbLine
 10
284.4894551845341
 20
217.4963149384884
 30
0.0
 11
284.4894551845341
 21
216.4963149384885
 31
0.0
  0
LINE
  5
1E71
330
A
100
AcDbEntity
  8
03
100
AcDbLine
 10
271.4894551845339
 20
227.4963149384885
 30
0.0
 11
271.4894551845339
 21
224.9963149384885
 31
0.0
  0
LINE
  5
1E72
330
A
100
AcDbEntity
  8
03
100
AcDbLine
 10
285.4894551845339
 20
224.9963149384885
 30
0.0
 11
285.4894551845339
 21
227.4963149384884
 31
0.0
  0
ARC
  5
1E74
330
A
100
AcDbEntity
  8
03
100
AcDbCircle
 10
288.7954158115849
 20
213.9963149384886
 30
0.0
 40
1.75
100
AcDbArc
 50
210.1390449605222
 51
149.8609550394776
  0
LINE
  5
1E75
330
A
100
AcDbEntity
  8
03
100
AcDbLine
 10
288.989455184534
 20
222.4963149384886
 30
0.0
 11
288.989455184534
 21
224.9963149384885
 31
0.0
  0
LINE
  5
1E7B
330
A
100
AcDbEntity
  8
03
100
AcDbLine
 10
271.9894551845341
 20
203.9963149384885
 30
0.0
 11
271.9894551845341
 21
210.4963149384885
 31
0.0
  0
LINE
  5
1E7D
330
A
100
AcDbEntity
  8
03
100
AcDbLine
 10
281.9894551845341
 20
203.9963149384885
 30
0.0
 11
281.9894551845341
 21
210.4963149384885
 31
0.0
  0
LINE
  5
1E83
330
A
100
AcDbEntity
  8
03
100
AcDbLine
 10
262.4894551845339
 20
437.4964850615112
 30
0.0
 11
262.4894551845341
 21
415.4964850615114
 31
0.0
  0
LINE
  5
1E84
330
A
100
AcDbEntity
  8
03
100
AcDbLine
 10
260.9894551845339
 20
438.9964850615113
 30
0.0
 11
260.9894551845341
 21
413.9964850615113
 31
0.0
  0
ARC
  5
1ECB
330
A
100
AcDbEntity
  8
06
100
AcDbCircle
 10
292.6436941219067
 20
208.4858169904526
 30
0.0
 40
7.5
100
AcDbArc
 50
44.53941239994888
 51
71.77386899827476
  0
ARC
  5
1ECC
330
A
100
AcDbEntity
  8
06
100
AcDbCircle
 10
292.6096030208995
 20
223.4719431971228
 30
0.0
 40
7.5
100
AcDbArc
 50
288.5005416728053
 51
315.8331311469319
  0
LINE
  5
1ECF
330
A
100
AcDbEntity
  8
06
100
AcDbLine
 10
293.4894551845345
 20
215.4532882818187
 30
0.0
 11
293.4894551845345
 21
216.5157882818183
 31
0.0
  0
ARC
  5
1ED0
330
A
100
AcDbEntity
  8
06
100
AcDbCircle
 10
293.4894551845345
 20
215.9919428251236
 30
0.0
 40
0.5
100
AcDbArc
 50
107.3540246362662
 51
180.0000000000195
  0
ARC
  5
1ED1
330
A
100
AcDbEntity
  8
06
100
AcDbCircle
 10
293.4894551845345
 20
215.9771337385138
 30
0.0
 40
0.5
100
AcDbArc
 50
180.0000000000228
 51
252.6459753637366
  0
LINE
  5
1ED2
330
A
100
AcDbEntity
  8
06
100
AcDbLine
 10
292.9894551845345
 20
215.9919428251233
 30
0.0
 11
292.9894551845345
 21
215.9771337385135
 31
0.0
  0
LINE
  5
1ED3
330
A
100
AcDbEntity
  8
06
100
AcDbLine
 10
292.9894551845345
 20
215.9919428251233
 30
0.0
 11
292.9894551845345
 21
215.9771337385135
 31
0.0
  0
LINE
  5
1ED4
330
A
100
AcDbEntity
  8
06
100
AcDbLine
 10
294.9894551845344
 20
214.9845382818188
 30
0.0
 11
294.9894551845344
 21
216.9845382818187
 31
0.0
  0
LINE
  5
1ED5
330
A
100
AcDbEntity
  8
06
100
AcDbLine
 10
294.9894551845344
 20
216.9845382818187
 30
0.0
 11
293.3403176879664
 21
216.469182814141
 31
0.0
  0
LINE
  5
1ED6
330
A
100
AcDbEntity
  8
06
100
AcDbLine
 10
294.9894551845344
 20
214.9845382818188
 30
0.0
 11
293.3403176879664
 21
215.4998937494962
 31
0.0
  0
LINE
  5
1ED7
330
A
100
AcDbEntity
  8
06
100
AcDbLine
 10
303.2894551845346
 20
212.4963149384889
 30
0.0
 11
303.2894551845346
 21
219.496314938489
 31
0.0
  0
LINE
  5
1ED9
330
A
100
AcDbEntity
  8
06
100
AcDbLine
 10
297.9894551845345
 20
213.746314938489
 30
0.0
 11
300.4894551845345
 21
213.746314938489
 31
0.0
  0
LINE
  5
1EDB
330
A
100
AcDbEntity
  8
06
100
AcDbLine
 10
300.9894551845345
 20
212.4963149384889
 30
0.0
 11
303.2894551845346
 21
212.4963149384889
 31
0.0
  0
ARC
  5
1EDD
330
A
100
AcDbEntity
  8
06
100
AcDbCircle
 10
300.4894551845345
 20
213.246314938489
 30
0.0
 40
0.5
100
AcDbArc
 50
359.9999999999933
 51
90.0
  0
LINE
  5
1EDE
330
A
100
AcDbEntity
  8
06
100
AcDbLine
 10
300.9894551845345
 20
212.4963149384889
 30
0.0
 11
300.9894551845345
 21
213.246314938489
 31
0.0
  0
LINE
  5
1EE0
330
A
100
AcDbEntity
  8
06
100
AcDbLine
 10
297.9894551845345
 20
218.246314938489
 30
0.0
 11
300.4894551845345
 21
218.246314938489
 31
0.0
  0
LINE
  5
1EE1
330
A
100
AcDbEntity
  8
06
100
AcDbLine
 10
303.2894551845346
 20
219.496314938489
 30
0.0
 11
300.9894551845345
 21
219.496314938489
 31
0.0
  0
ARC
  5
1EE2
330
A
100
AcDbEntity
  8
06
100
AcDbCircle
 10
300.4894551845345
 20
218.7463149384889
 30
0.0
 40
0.5
100
AcDbArc
 50
270.0
 51
0.0000000000065138
  0
LINE
  5
1EE3
330
A
100
AcDbEntity
  8
06
100
AcDbLine
 10
300.9894551845345
 20
219.496314938489
 30
0.0
 11
300.9894551845345
 21
218.6814931883128
 31
0.0
  0
LINE
  5
1EE9
330
A
100
AcDbEntity
  8
06
100
AcDbLine
 10
306.4894551845345
 20
222.496314938489
 30
0.0
 11
306.4894551845345
 21
215.496314938489
 31
0.0
  0
LINE
  5
1EEA
330
A
100
AcDbEntity
  8
06
100
AcDbLine
 10
310.9894551845341
 20
219.996314938489
 30
0.0
 11
316.9894551845341
 21
219.996314938489
 31
0.0
  0
LINE
  5
1EEC
330
A
100
AcDbEntity
  8
06
100
AcDbLine
 10
306.4894551845345
 20
215.496314938489
 30
0.0
 11
321.4894551845345
 21
215.496314938489
 31
0.0
  0
LINE
  5
1EED
330
A
100
AcDbEntity
  8
06
100
AcDbLine
 10
304.9894551845345
 20
210.496314938489
 30
0.0
 11
325.9894551845349
 21
210.496314938489
 31
0.0
  0
LINE
  5
1EEE
330
A
100
AcDbEntity
  8
06
100
AcDbLine
 10
310.9894551845338
 20
219.996314938489
 30
0.0
 11
316.9894551845339
 21
219.996314938489
 31
0.0
  0
LINE
  5
1EEF
330
A
100
AcDbEntity
  8
06
100
AcDbLine
 10
308.9894551845345
 20
228.996314938489
 30
0.0
 11
308.9894551845345
 21
222.496314938489
 31
0.0
  0
LINE
  5
1EF4
330
A
100
AcDbEntity
  8
06
100
AcDbLine
 10
308.4894551845345
 20
207.996314938489
 30
0.0
 11
304.9894551845345
 21
207.996314938489
 31
0.0
  0
LINE
  5
1EF5
330
A
100
AcDbEntity
  8
06
100
AcDbLine
 10
304.9894551845345
 20
207.996314938489
 30
0.0
 11
304.9894551845345
 21
210.496314938489
 31
0.0
  0
LINE
  5
1EF6
330
A
100
AcDbEntity
  8
06
100
AcDbLine
 10
308.4894551845346
 20
205.496314938489
 30
0.0
 11
308.4894551845345
 21
207.996314938489
 31
0.0
  0
LINE
  5
1EF7
330
A
100
AcDbEntity
  8
06
100
AcDbLine
 10
308.9894551845345
 20
222.496314938489
 30
0.0
 11
306.4894551845345
 21
222.496314938489
 31
0.0
  0
ARC
  5
1EF8
330
A
100
AcDbEntity
  8
06
100
AcDbCircle
 10
309.989455184534
 20
231.8247420632353
 30
0.0
 40
3.0
100
AcDbArc
 50
250.5287793655107
 51
289.4712206344893
  0
LINE
  5
1EFA
330
A
100
AcDbEntity
  8
06
100
AcDbLine
 10
318.9894551845345
 20
228.996314938489
 30
0.0
 11
318.9894551845345
 21
222.496314938489
 31
0.0
  0
LINE
  5
1EFC
330
A
100
AcDbEntity
  8
06
100
AcDbLine
 10
318.9894551845345
 20
222.496314938489
 30
0.0
 11
321.4894551845345
 21
222.496314938489
 31
0.0
  0
LINE
  5
1F00
330
A
100
AcDbEntity
  8
06
100
AcDbLine
 10
325.9894551845345
 20
207.996314938489
 30
0.0
 11
322.4894551845345
 21
207.996314938489
 31
0.0
  0
LINE
  5
1F03
330
A
100
AcDbEntity
  8
06
100
AcDbLine
 10
322.4894551845345
 20
207.996314938489
 30
0.0
 11
322.4894551845346
 21
205.496314938489
 31
0.0
  0
LINE
  5
1F04
330
A
100
AcDbEntity
  8
06
100
AcDbLine
 10
325.9894551845345
 20
210.496314938489
 30
0.0
 11
325.9894551845345
 21
207.996314938489
 31
0.0
  0
ARC
  5
1F06
330
A
100
AcDbEntity
  8
06
100
AcDbCircle
 10
325.7954158115853
 20
218.996314938489
 30
0.0
 40
1.75
100
AcDbArc
 50
210.1390449605222
 51
149.8609550394776
  0
LINE
  5
1F07
330
A
100
AcDbEntity
  8
06
100
AcDbLine
 10
324.2819992589633
 20
219.8749902700253
 30
0.0
 11
321.4894551845341
 21
221.4963149384898
 31
0.0
  0
LINE
  5
1F08
330
A
100
AcDbEntity
  8
06
100
AcDbLine
 10
321.4894551845345
 20
222.496314938489
 30
0.0
 11
321.4894551845345
 21
221.496314938489
 31
0.0
  0
LINE
  5
1F09
330
A
100
AcDbEntity
  8
06
100
AcDbLine
 10
321.4894551845345
 20
215.496314938489
 30
0.0
 11
321.4894551845345
 21
216.496314938489
 31
0.0
  0
LINE
  5
1F0A
330
A
100
AcDbEntity
  8
06
100
AcDbLine
 10
321.4894551845345
 20
216.496314938489
 30
0.0
 11
324.2819992589633
 21
218.117639606953
 31
0.0
  0
ARC
  5
1F0B
330
A
100
AcDbEntity
  8
06
100
AcDbCircle
 10
317.989455184534
 20
231.8247420632353
 30
0.0
 40
3.0
100
AcDbArc
 50
250.5287793655107
 51
289.4712206344893
  0
LINE
  5
1F9F
330
A
100
AcDbEntity
  8
06
100
AcDbLine
 10
324.2486150879418
 20
338.1925275634896
 30
0.0
 11
321.4894551845341
 21
336.4964000000001
 31
0.0
  0
LINE
  5
1FA0
330
A
100
AcDbEntity
  8
06
100
AcDbLine
 10
321.4894551845341
 20
341.4964000000001
 30
0.0
 11
324.2137056984907
 21
339.966067246551
 31
0.0
  0
LINE
  5
1FA4
330
A
100
AcDbEntity
  8
06
100
AcDbLine
 10
308.9894551845341
 20
342.4964000000001
 30
0.0
 11
306.4894551845341
 21
342.4964000000001
 31
0.0
  0
LINE
  5
1FA5
330
A
100
AcDbEntity
  8
06
100
AcDbLine
 10
306.4894551845341
 20
335.4964000000001
 30
0.0
 11
321.4894551845341
 21
335.4964000000001
 31
0.0
  0
LINE
  5
1FA6
330
A
100
AcDbEntity
  8
06
100
AcDbLine
 10
306.4894551845341
 20
342.4964000000001
 30
0.0
 11
306.4894551845341
 21
335.4964000000001
 31
0.0
  0
LINE
  5
1FA7
330
A
100
AcDbEntity
  8
06
100
AcDbLine
 10
310.9894551845341
 20
338.4964
 30
0.0
 11
316.9894551845341
 21
338.4964
 31
0.0
  0
LINE
  5
1FA8
330
A
100
AcDbEntity
  8
06
100
AcDbLine
 10
310.9894551845341
 20
338.4964
 30
0.0
 11
316.9894551845342
 21
338.4964
 31
0.0
  0
ARC
  5
1FA9
330
A
100
AcDbEntity
  8
06
100
AcDbCircle
 10
309.9894551845341
 20
351.8248271247463
 30
0.0
 40
3.0
100
AcDbArc
 50
250.5287793655101
 51
289.4712206344928
  0
LINE
  5
1FAA
330
A
100
AcDbEntity
  8
06
100
AcDbLine
 10
308.9894551845342
 20
348.9964
 30
0.0
 11
308.9894551845341
 21
342.4964000000001
 31
0.0
  0
ARC
  5
1FAB
330
A
100
AcDbEntity
  8
06
100
AcDbCircle
 10
309.9894551845341
 20
351.8248271247463
 30
0.0
 40
3.0
100
AcDbArc
 50
250.5287793655101
 51
289.4712206344928
  0
LINE
  5
1FAC
330
A
100
AcDbEntity
  8
06
100
AcDbLine
 10
321.4894551845341
 20
335.4964000000001
 30
0.0
 11
321.4894551845341
 21
336.4964000000001
 31
0.0
  0
LINE
  5
1FAD
330
A
100
AcDbEntity
  8
06
100
AcDbLine
 10
321.4894551845341
 20
342.4964000000001
 30
0.0
 11
318.9894551845341
 21
342.4964000000001
 31
0.0
  0
ARC
  5
1FAE
330
A
100
AcDbEntity
  8
06
100
AcDbCircle
 10
317.989455184534
 20
351.8248271247463
 30
0.0
 40
3.0
100
AcDbArc
 50
250.5287793655101
 51
289.4712206344928
  0
LINE
  5
1FAF
330
A
100
AcDbEntity
  8
06
100
AcDbLine
 10
318.9894551845342
 20
348.9964000000001
 30
0.0
 11
318.9894551845338
 21
342.4964000000001
 31
0.0
  0
ARC
  5
1FB0
330
A
100
AcDbEntity
  8
06
100
AcDbCircle
 10
317.989455184534
 20
351.8248271247463
 30
0.0
 40
3.0
100
AcDbArc
 50
250.5287793655101
 51
289.4712206344928
  0
LINE
  5
1FB1
330
A
100
AcDbEntity
  8
06
100
AcDbLine
 10
321.4894551845341
 20
342.4964000000001
 30
0.0
 11
321.4894551845341
 21
341.4964000000001
 31
0.0
  0
ARC
  5
1FB3
330
A
100
AcDbEntity
  8
06
100
AcDbCircle
 10
325.7394551845341
 20
339.1089858584448
 30
0.0
 40
1.75
100
AcDbArc
 50
211.5801270456541
 51
150.675139579643
  0
LINE
  5
1FBE
330
A
100
AcDbEntity
  8
06
100
AcDbLine
 10
323.5354321960286
 20
330.4964000000001
 30
0.0
 11
304.5354321960285
 21
330.4964000000001
 31
0.0
  0
LINE
  5
1FBF
330
A
100
AcDbEntity
  8
06
100
AcDbLine
 10
324.0354321960285
 20
321.4964000000001
 30
0.0
 11
318.45899574022
 21
321.4964000000001
 31
0.0
  0
LINE
  5
1FC0
330
A
100
AcDbEntity
  8
06
100
AcDbLine
 10
321.0354321960286
 20
323.9964
 30
0.0
 11
324.5354321960286
 21
323.9964
 31
0.0
  0
LINE
  5
1FC1
330
A
100
AcDbEntity
  8
06
100
AcDbLine
 10
323.5354321960286
 20
328.4964000000001
 30
0.0
 11
321.0354321960286
 21
328.4964000000001
 31
0.0
  0
LINE
  5
1FC2
330
A
100
AcDbEntity
  8
06
100
AcDbLine
 10
324.4894551845342
 20
318.9964000000001
 30
0.0
 11
320.9894551845343
 21
318.9964000000001
 31
0.0
  0
LINE
  5
1FC3
330
A
100
AcDbEntity
  8
06
100
AcDbLine
 10
323.4894551845342
 20
314.4964000000001
 30
0.0
 11
320.9894551845343
 21
314.4964000000001
 31
0.0
  0
LINE
  5
1FC4
330
A
100
AcDbEntity
  8
06
100
AcDbLine
 10
304.4894551845342
 20
312.4964000000001
 30
0.0
 11
323.4894551845342
 21
312.4964000000001
 31
0.0
  0
LINE
  5
1FC9
330
A
100
AcDbEntity
  8
06
100
AcDbLine
 10
303.5354321960285
 20
323.9964
 30
0.0
 11
307.0354321960286
 21
323.9964
 31
0.0
  0
LINE
  5
1FCA
330
A
100
AcDbEntity
  8
06
100
AcDbLine
 10
304.5354321960286
 20
328.4964000000001
 30
0.0
 11
307.0354321960286
 21
328.4964000000001
 31
0.0
  0
LINE
  5
1FCB
330
A
100
AcDbEntity
  8
06
100
AcDbLine
 10
303.9894551845343
 20
321.4964000000001
 30
0.0
 11
309.5658916403428
 21
321.4964000000001
 31
0.0
  0
LINE
  5
1FCC
330
A
100
AcDbEntity
  8
06
100
AcDbLine
 10
307.0959742301498
 20
318.9964000000001
 30
0.0
 11
303.4894551845342
 21
318.9964000000001
 31
0.0
  0
LINE
  5
1FCD
330
A
100
AcDbEntity
  8
06
100
AcDbLine
 10
304.4894551845342
 20
314.4964000000001
 30
0.0
 11
306.9894551845342
 21
314.4964000000001
 31
0.0
  0
LINE
  5
1FCF
330
A
100
AcDbEntity
  8
06
100
AcDbLine
 10
304.4894551845342
 20
314.4964000000001
 30
0.0
 11
304.4894551845342
 21
312.4964000000001
 31
0.0
  0
ARC
  5
1FD0
330
A
100
AcDbEntity
  8
06
100
AcDbCircle
 10
304.0354321960283
 20
321.9964
 30
0.0
 40
0.5
100
AcDbArc
 50
179.9999999999966
 51
270.0
  0
LINE
  5
1FD1
330
A
100
AcDbEntity
  8
06
100
AcDbLine
 10
303.5354321960285
 20
323.9964
 30
0.0
 11
303.5354321960283
 21
321.9964
 31
0.0
  0
ARC
  5
1FD2
330
A
100
AcDbEntity
  8
06
100
AcDbCircle
 10
303.9894551845343
 20
320.9964000000001
 30
0.0
 40
0.5
100
AcDbArc
 50
90.0
 51
180.0
  0
LINE
  5
1FD3
330
A
100
AcDbEntity
  8
06
100
AcDbLine
 10
303.4894551845344
 20
318.9964000000001
 30
0.0
 11
303.4894551845344
 21
320.9964000000001
 31
0.0
  0
LINE
  5
1FD5
330
A
100
AcDbEntity
  8
06
100
AcDbLine
 10
304.5354321960285
 20
330.4964000000001
 30
0.0
 11
304.5354321960286
 21
328.4964000000001
 31
0.0
  0
LINE
  5
1FD8
330
A
100
AcDbEntity
  8
06
100
AcDbLine
 10
315.706701204045
 20
317.6577403326611
 30
0.0
 11
314.6404068520065
 21
326.6146128897851
 31
0.0
  0
LINE
  5
1FD9
330
A
100
AcDbEntity
  8
06
100
AcDbLine
 10
309.0354321960286
 20
321.9964
 30
0.0
 11
309.0354321960286
 21
326.4964000000001
 31
0.0
  0
LINE
  5
1FDA
330
A
100
AcDbEntity
  8
06
100
AcDbLine
 10
307.5354321960286
 20
324.4964000000001
 30
0.0
 11
307.5354321960286
 21
327.9964
 31
0.0
  0
LINE
  5
1FDB
330
A
100
AcDbEntity
  8
06
100
AcDbLine
 10
320.5354321960286
 20
324.4964000000001
 30
0.0
 11
320.5354321960286
 21
327.9964
 31
0.0
  0
ARC
  5
1FDC
330
A
100
AcDbEntity
  8
06
100
AcDbCircle
 10
311.5734449708716
 20
325.2464000000002
 30
0.0
 40
0.75
100
AcDbArc
 50
6.788974574439638
 51
97.61001495472648
  0
ARC
  5
1FDD
330
A
100
AcDbEntity
  8
06
100
AcDbCircle
 10
311.3748005008216
 20
325.2464000000001
 30
0.0
 40
0.75
100
AcDbArc
 50
90.0
 51
170.5376777919759
  0
LINE
  5
1FDE
330
A
100
AcDbEntity
  8
06
100
AcDbLine
 10
314.3774688027511
 20
315.4964000000001
 30
0.0
 11
317.9894551845341
 21
315.4964
 31
0.0
  0
ARC
  5
1FDF
330
A
100
AcDbEntity
  8
06
100
AcDbCircle
 10
306.9894551845342
 20
314.9964000000001
 30
0.0
 40
0.5
100
AcDbArc
 50
270.0
 51
0.0
  0
ARC
  5
1FE1
330
A
100
AcDbEntity
  8
06
100
AcDbCircle
 10
308.5354321960286
 20
321.9964
 30
0.0
 40
0.5
100
AcDbArc
 50
270.0
 51
0.0
  0
ARC
  5
1FE2
330
A
100
AcDbEntity
  8
06
100
AcDbCircle
 10
307.0354321960286
 20
324.4964000000001
 30
0.0
 40
0.5
100
AcDbArc
 50
270.0
 51
0.0
  0
ARC
  5
1FE3
330
A
100
AcDbEntity
  8
06
100
AcDbCircle
 10
309.5658916403428
 20
321.9964
 30
0.0
 40
0.5
100
AcDbArc
 50
270.0
 51
350.537677791976
  0
LINE
  5
1FE4
330
A
100
AcDbEntity
  8
06
100
AcDbLine
 10
310.0590886022589
 20
321.9142005063474
 30
0.0
 11
310.6350050579475
 21
325.3696992404793
 31
0.0
  0
ARC
  5
1FE5
330
A
100
AcDbEntity
  8
06
100
AcDbCircle
 10
306.9894551845341
 20
318.4964000000001
 30
0.0
 40
0.5
100
AcDbArc
 50
0.0
 51
90.0
  0
LINE
  5
1FE6
330
A
100
AcDbEntity
  8
06
100
AcDbLine
 10
307.4894551845341
 20
318.4964000000001
 30
0.0
 11
307.4894551845342
 21
314.9964000000001
 31
0.0
  0
ARC
  5
1FE7
330
A
100
AcDbEntity
  8
06
100
AcDbCircle
 10
314.3774688027513
 20
316.4964000000001
 30
0.0
 40
1.0
100
AcDbArc
 50
186.7889745744395
 51
270.0
  0
LINE
  5
1FE8
330
A
100
AcDbEntity
  8
06
100
AcDbLine
 10
312.3181861765176
 20
325.3350596673391
 30
0.0
 11
313.3844805285562
 21
316.3781871102151
 31
0.0
  0
LINE
  5
1FE9
330
A
100
AcDbEntity
  8
06
100
AcDbLine
 10
311.3748005008216
 20
325.9964000000001
 30
0.0
 11
311.5734449708716
 21
325.9964000000002
 31
0.0
  0
ARC
  5
1FEA
330
A
100
AcDbEntity
  8
06
100
AcDbCircle
 10
320.9894551845343
 20
314.9964000000001
 30
0.0
 40
0.5
100
AcDbArc
 50
180.0
 51
270.0
  0
ARC
  5
1FEB
330
A
100
AcDbEntity
  8
06
100
AcDbCircle
 10
319.4894551845342
 20
320.9964000000001
 30
0.0
 40
0.5
100
AcDbArc
 50
90.0
 51
180.0
  0
ARC
  5
1FEC
330
A
100
AcDbEntity
  8
06
100
AcDbCircle
 10
316.4514424096913
 20
317.7464
 30
0.0
 40
0.75
100
AcDbArc
 50
186.7889745744395
 51
277.6100149547264
  0
ARC
  5
1FED
330
A
100
AcDbEntity
  8
06
100
AcDbCircle
 10
318.45899574022
 20
320.9964000000001
 30
0.0
 40
0.5
100
AcDbArc
 50
90.0
 51
170.5376777919759
  0
ARC
  5
1FEE
330
A
100
AcDbEntity
  8
06
100
AcDbCircle
 10
316.6500868797411
 20
317.7464
 30
0.0
 40
0.75
100
AcDbArc
 50
270.0
 51
350.537677791976
  0
LINE
  5
1FEF
330
A
100
AcDbEntity
  8
06
100
AcDbLine
 10
317.9657987783039
 20
321.0785994936528
 30
0.0
 11
317.3898823226153
 21
317.6231007595208
 31
0.0
  0
LINE
  5
1FF0
330
A
100
AcDbEntity
  8
06
100
AcDbLine
 10
316.6500868797411
 20
316.9964
 30
0.0
 11
316.4514424096913
 21
316.9964
 31
0.0
  0
ARC
  5
1FF1
330
A
100
AcDbEntity
  8
06
100
AcDbCircle
 10
317.9894551845341
 20
316.4964000000001
 30
0.0
 40
1.0
100
AcDbArc
 50
270.0
 51
0.0
  0
LINE
  5
1FF2
330
A
100
AcDbEntity
  8
06
100
AcDbLine
 10
318.9894551845342
 20
320.9964000000001
 30
0.0
 11
318.9894551845341
 21
316.4964000000001
 31
0.0
  0
ARC
  5
1FF5
330
A
100
AcDbEntity
  8
06
100
AcDbCircle
 10
321.0354321960286
 20
324.4964000000001
 30
0.0
 40
0.5
100
AcDbArc
 50
180.0
 51
270.0
  0
ARC
  5
1FF6
330
A
100
AcDbEntity
  8
06
100
AcDbCircle
 10
320.9894551845343
 20
318.4964000000001
 30
0.0
 40
0.5
100
AcDbArc
 50
90.0
 51
180.0
  0
LINE
  5
1FF7
330
A
100
AcDbEntity
  8
06
100
AcDbLine
 10
320.4894551845342
 20
318.4964000000001
 30
0.0
 11
320.4894551845342
 21
314.9964000000001
 31
0.0
  0
LINE
  5
1FF8
330
A
100
AcDbEntity
  8
06
100
AcDbLine
 10
313.6474185778116
 20
327.4964000000001
 30
0.0
 11
310.0354321960286
 21
327.4964000000001
 31
0.0
  0
ARC
  5
1FF9
330
A
100
AcDbEntity
  8
06
100
AcDbCircle
 10
310.0354321960286
 20
326.4964000000001
 30
0.0
 40
1.0
100
AcDbArc
 50
90.0
 51
180.0
  0
ARC
  5
1FFA
330
A
100
AcDbEntity
  8
06
100
AcDbCircle
 10
307.0354321960286
 20
327.9964
 30
0.0
 40
0.5
100
AcDbArc
 50
0.0
 51
90.0
  0
ARC
  5
1FFB
330
A
100
AcDbEntity
  8
06
100
AcDbCircle
 10
313.6474185778116
 20
326.4964000000001
 30
0.0
 40
1.0
100
AcDbArc
 50
6.788974574439638
 51
90.0
  0
ARC
  5
1FFC
330
A
100
AcDbEntity
  8
06
100
AcDbCircle
 10
321.0354321960286
 20
327.9964
 30
0.0
 40
0.5
100
AcDbArc
 50
90.0
 51
180.0
  0
LINE
  5
1FFF
330
A
100
AcDbEntity
  8
06
100
AcDbLine
 10
323.4894551845342
 20
312.4964000000001
 30
0.0
 11
323.4894551845342
 21
314.4964000000001
 31
0.0
  0
ARC
  5
2000
330
A
100
AcDbEntity
  8
06
100
AcDbCircle
 10
324.0354321960285
 20
321.9964
 30
0.0
 40
0.5
100
AcDbArc
 50
270.0
 51
0.0
  0
LINE
  5
2001
330
A
100
AcDbEntity
  8
06
100
AcDbLine
 10
324.5354321960286
 20
323.9964
 30
0.0
 11
324.5354321960285
 21
321.9964
 31
0.0
  0
ARC
  5
2002
330
A
100
AcDbEntity
  8
06
100
AcDbCircle
 10
323.9894551845344
 20
320.9964000000001
 30
0.0
 40
0.5
100
AcDbArc
 50
359.9999999999967
 51
90.0
  0
LINE
  5
2003
330
A
100
AcDbEntity
  8
06
100
AcDbLine
 10
324.4894551845341
 20
318.9964000000001
 30
0.0
 11
324.4894551845344
 21
320.9964000000001
 31
0.0
  0
LINE
  5
2005
330
A
100
AcDbEntity
  8
06
100
AcDbLine
 10
323.5354321960286
 20
328.4964000000001
 30
0.0
 11
323.5354321960283
 21
330.4964000000001
 31
0.0
  0
LINE
  5
200A
330
A
100
AcDbEntity
  8
06
100
AcDbLine
 10
306.4894551845342
 20
307.4964000000001
 30
0.0
 11
306.4894551845342
 21
300.4964000000001
 31
0.0
  0
ARC
  5
200B
330
A
100
AcDbEntity
  8
06
100
AcDbCircle
 10
325.7394551845342
 20
303.9964000000001
 30
0.0
 40
1.75
100
AcDbArc
 50
209.8880407989213
 51
149.9999999999993
  0
LINE
  5
200C
330
A
100
AcDbEntity
  8
06
100
AcDbLine
 10
324.2239136213406
 20
303.1214016705222
 30
0.0
 11
321.4894551845342
 21
301.5426613559441
 31
0.0
  0
LINE
  5
2010
330
A
100
AcDbEntity
  8
06
100
AcDbLine
 10
306.4894551845342
 20
300.4964000000001
 30
0.0
 11
308.9894551845342
 21
300.4964000000001
 31
0.0
  0
ARC
  5
2011
330
A
100
AcDbEntity
  8
06
100
AcDbCircle
 10
309.9894551845342
 20
291.1679728752539
 30
0.0
 40
3.0
100
AcDbArc
 50
70.52877936550705
 51
109.4712206344897
  0
LINE
  5
2012
330
A
100
AcDbEntity
  8
06
100
AcDbLine
 10
308.9894551845342
 20
293.9964000000001
 30
0.0
 11
308.9894551845342
 21
300.4964000000001
 31
0.0
  0
ARC
  5
2013
330
A
100
AcDbEntity
  8
06
100
AcDbCircle
 10
309.9894551845342
 20
291.1679728752539
 30
0.0
 40
3.0
100
AcDbArc
 50
70.52877936550705
 51
109.4712206344897
  0
LINE
  5
2014
330
A
100
AcDbEntity
  8
06
100
AcDbLine
 10
318.9894551845342
 20
300.4964000000001
 30
0.0
 11
321.4894551845342
 21
300.4964000000001
 31
0.0
  0
ARC
  5
2015
330
A
100
AcDbEntity
  8
06
100
AcDbCircle
 10
317.9894551845342
 20
291.167972875254
 30
0.0
 40
3.0
100
AcDbArc
 50
70.52877936550705
 51
109.4712206344897
  0
LINE
  5
2016
330
A
100
AcDbEntity
  8
06
100
AcDbLine
 10
318.9894551845342
 20
293.9964000000001
 30
0.0
 11
318.9894551845342
 21
300.4964000000001
 31
0.0
  0
ARC
  5
2017
330
A
100
AcDbEntity
  8
06
100
AcDbCircle
 10
317.9894551845342
 20
291.167972875254
 30
0.0
 40
3.0
100
AcDbArc
 50
70.52877936550705
 51
109.4712206344897
  0
LINE
  5
2018
330
A
100
AcDbEntity
  8
06
100
AcDbLine
 10
321.4894551845342
 20
300.4964000000001
 30
0.0
 11
321.4894551845342
 21
301.5426613559441
 31
0.0
  0
LINE
  5
201A
330
A
100
AcDbEntity
  8
06
100
AcDbLine
 10
324.2418067984231
 20
304.8610676988727
 30
0.0
 11
321.4895096882743
 21
306.450107176307
 31
0.0
  0
LINE
  5
201B
330
A
100
AcDbEntity
  8
06
100
AcDbLine
 10
321.4894551845342
 20
307.4964000000001
 30
0.0
 11
306.4894551845342
 21
307.4964000000001
 31
0.0
  0
LINE
  5
201C
330
A
100
AcDbEntity
  8
06
100
AcDbLine
 10
316.9894551845342
 20
304.4964000000001
 30
0.0
 11
310.9894551845342
 21
304.4964000000001
 31
0.0
  0
LINE
  5
201D
330
A
100
AcDbEntity
  8
06
100
AcDbLine
 10
316.9894551845342
 20
304.4964000000001
 30
0.0
 11
310.9894551845342
 21
304.4964000000001
 31
0.0
  0
LINE
  5
201E
330
A
100
AcDbEntity
  8
06
100
AcDbLine
 10
321.4894551845342
 20
306.4636497550206
 30
0.0
 11
321.4894551845342
 21
307.4964000000001
 31
0.0
  0
LINE
  5
2027
330
A
100
AcDbEntity
  8
06
100
AcDbLine
 10
320.9894551845341
 20
318.9964000000001
 30
0.0
 11
320.9894551845341
 21
317.4964000000001
 31
0.0
  0
LINE
  5
214C
330
A
100
AcDbEntity
  8
03
100
AcDbLine
 10
238.0894551845341
 20
107.4963149384885
 30
0.0
 11
239.7394551845342
 21
107.4963149384884
 31
0.0
  0
ARC
  5
214D
330
A
100
AcDbEntity
  8
03
100
AcDbCircle
 10
239.7394551845342
 20
86.74631493848854
 30
0.0
 40
0.75
100
AcDbArc
 50
180.0
 51
270.0
  0
POLYLINE
  5
214E
330
A
100
AcDbEntity
  8
03
100
AcDb2dPolyline
 66
     1
 10
0.0
 20
0.0
 30
0.0
  0
VERTEX
  5
2335
330
214E
100
AcDbEntity
  8
03
100
AcDbVertex
100
AcDb2dVertex
 10
240.4894551845341
 20
87.49631493848852
 30
0.0
  0
VERTEX
  5
2336
330
214E
100
AcDbEntity
  8
03
100
AcDbVertex
100
AcDb2dVertex
 10
240.4894551845341
 20
106.7463149384884
 30
0.0
  0
SEQEND
  5
2337
330
214E
100
AcDbEntity
  8
03
  0
POLYLINE
  5
214F
330
A
100
AcDbEntity
  8
03
100
AcDb2dPolyline
 66
     1
 10
0.0
 20
0.0
 30
0.0
  0
VERTEX
  5
2338
330
214F
100
AcDbEntity
  8
03
100
AcDbVertex
100
AcDb2dVertex
 10
238.9894551845341
 20
105.9963149384884
 30
0.0
  0
VERTEX
  5
2339
330
214F
100
AcDbEntity
  8
03
100
AcDbVertex
100
AcDb2dVertex
 10
238.9894551845341
 20
86.74631493848854
 30
0.0
  0
SEQEND
  5
233A
330
214F
100
AcDbEntity
  8
03
  0
POLYLINE
  5
2150
330
A
100
AcDbEntity
  8
03
100
AcDb2dPolyline
 66
     1
 10
0.0
 20
0.0
 30
0.0
  0
VERTEX
  5
233B
330
2150
100
AcDbEntity
  8
03
100
AcDbVertex
100
AcDb2dVertex
 10
238.0894551845341
 20
107.4963149384885
 30
0.0
  0
VERTEX
  5
233C
330
2150
100
AcDbEntity
  8
03
100
AcDbVertex
100
AcDb2dVertex
 10
238.0894551845341
 20
105.9963149384884
 30
0.0
  0
SEQEND
  5
233D
330
2150
100
AcDbEntity
  8
03
  0
POLYLINE
  5
2151
330
A
100
AcDbEntity
  8
03
100
AcDb2dPolyline
 66
     1
 10
0.0
 20
0.0
 30
0.0
  0
VERTEX
  5
233E
330
2151
100
AcDbEntity
  8
03
100
AcDbVertex
100
AcDb2dVertex
 10
238.0894551845341
 20
105.9963149384884
 30
0.0
  0
VERTEX
  5
233F
330
2151
100
AcDbEntity
  8
03
100
AcDbVertex
100
AcDb2dVertex
 10
238.9894551845341
 20
105.9963149384884
 30
0.0
  0
SEQEND
  5
2340
330
2151
100
AcDbEntity
  8
03
  0
ARC
  5
2152
330
A
100
AcDbEntity
  8
03
100
AcDbCircle
 10
239.7394551845342
 20
106.7463149384884
 30
0.0
 40
0.75
100
AcDbArc
 50
0.0
 51
90.0
  0
POLYLINE
  5
2153
330
A
100
AcDbEntity
  8
03
100
AcDb2dPolyline
 66
     1
 10
0.0
 20
0.0
 30
0.0
  0
VERTEX
  5
2341
330
2153
100
AcDbEntity
  8
03
100
AcDbVertex
100
AcDb2dVertex
 10
239.7394551845342
 20
85.99631493848852
 30
0.0
  0
VERTEX
  5
2342
330
2153
100
AcDbEntity
  8
03
100
AcDbVertex
100
AcDb2dVertex
 10
258.1299519307354
 20
85.99631493848852
 30
0.0
  0
SEQEND
  5
2343
330
2153
100
AcDbEntity
  8
03
  0
POLYLINE
  5
2154
330
A
100
AcDbEntity
  8
03
100
AcDb2dPolyline
 66
     1
 10
0.0
 20
0.0
 30
0.0
  0
VERTEX
  5
2344
330
2154
100
AcDbEntity
  8
03
100
AcDbVertex
100
AcDb2dVertex
 10
240.4894551845341
 20
87.49631493848852
 30
0.0
  0
VERTEX
  5
2345
330
2154
100
AcDbEntity
  8
03
100
AcDbVertex
100
AcDb2dVertex
 10
257.3799519307355
 20
87.49631493848852
 30
0.0
  0
SEQEND
  5
2346
330
2154
100
AcDbEntity
  8
03
  0
ARC
  5
2155
330
A
100
AcDbEntity
  8
03
100
AcDbCircle
 10
258.1299519307354
 20
86.74631493848854
 30
0.0
 40
0.75
100
AcDbArc
 50
270.0
 51
0.0
  0
LINE
  5
2156
330
A
100
AcDbEntity
  8
03
100
AcDbLine
 10
258.1299519307354
 20
107.4963149384885
 30
0.0
 11
267.4894551845341
 21
107.4963149384884
 31
0.0
  0
POLYLINE
  5
2157
330
A
100
AcDbEntity
  8
03
100
AcDb2dPolyline
 66
     1
 10
0.0
 20
0.0
 30
0.0
  0
VERTEX
  5
2347
330
2157
100
AcDbEntity
  8
03
100
AcDbVertex
100
AcDb2dVertex
 10
267.4894551845341
 20
105.9963149384884
 30
0.0
  0
VERTEX
  5
2348
330
2157
100
AcDbEntity
  8
03
100
AcDbVertex
100
AcDb2dVertex
 10
258.8799519307355
 20
105.9963149384884
 30
0.0
  0
SEQEND
  5
2349
330
2157
100
AcDbEntity
  8
03
  0
POLYLINE
  5
2158
330
A
100
AcDbEntity
  8
03
100
AcDb2dPolyline
 66
     1
 10
0.0
 20
0.0
 30
0.0
  0
VERTEX
  5
234A
330
2158
100
AcDbEntity
  8
03
100
AcDbVertex
100
AcDb2dVertex
 10
267.4894551845341
 20
107.4963149384884
 30
0.0
  0
VERTEX
  5
234B
330
2158
100
AcDbEntity
  8
03
100
AcDbVertex
100
AcDb2dVertex
 10
267.4894551845341
 20
105.9963149384884
 30
0.0
  0
SEQEND
  5
234C
330
2158
100
AcDbEntity
  8
03
  0
ARC
  5
2159
330
A
100
AcDbEntity
  8
03
100
AcDbCircle
 10
258.1299519307354
 20
106.7463149384884
 30
0.0
 40
0.75
100
AcDbArc
 50
90.0
 51
180.0
  0
POLYLINE
  5
215A
330
A
100
AcDbEntity
  8
03
100
AcDb2dPolyline
 66
     1
 10
0.0
 20
0.0
 30
0.0
  0
VERTEX
  5
234D
330
215A
100
AcDbEntity
  8
03
100
AcDbVertex
100
AcDb2dVertex
 10
257.3799519307355
 20
106.7463149384884
 30
0.0
  0
VERTEX
  5
234E
330
215A
100
AcDbEntity
  8
03
100
AcDbVertex
100
AcDb2dVertex
 10
257.3799519307355
 20
87.49631493848852
 30
0.0
  0
SEQEND
  5
234F
330
215A
100
AcDbEntity
  8
03
  0
POLYLINE
  5
215B
330
A
100
AcDbEntity
  8
03
100
AcDb2dPolyline
 66
     1
 10
0.0
 20
0.0
 30
0.0
  0
VERTEX
  5
2350
330
215B
100
AcDbEntity
  8
03
100
AcDbVertex
100
AcDb2dVertex
 10
258.8799519307355
 20
105.9963149384884
 30
0.0
  0
VERTEX
  5
2351
330
215B
100
AcDbEntity
  8
03
100
AcDbVertex
100
AcDb2dVertex
 10
258.8799519307355
 20
86.74631493848854
 30
0.0
  0
SEQEND
  5
2352
330
215B
100
AcDbEntity
  8
03
  0
ARC
  5
215D
330
A
100
AcDbEntity
  8
03
100
AcDbCircle
 10
239.7394551845342
 20
536.2464850615115
 30
0.0
 40
0.75
100
AcDbArc
 50
270.0
 51
0.0
  0
POLYLINE
  5
215E
330
A
100
AcDbEntity
  8
03
100
AcDb2dPolyline
 66
     1
 10
0.0
 20
0.0
 30
0.0
  0
VERTEX
  5
2353
330
215E
100
AcDbEntity
  8
03
100
AcDbVertex
100
AcDb2dVertex
 10
238.0894551845341
 20
536.9964850615115
 30
0.0
  0
VERTEX
  5
2354
330
215E
100
AcDbEntity
  8
03
100
AcDbVertex
100
AcDb2dVertex
 10
238.9894551845341
 20
536.9964850615115
 30
0.0
  0
SEQEND
  5
2355
330
215E
100
AcDbEntity
  8
03
  0
POLYLINE
  5
215F
330
A
100
AcDbEntity
  8
03
100
AcDb2dPolyline
 66
     1
 10
0.0
 20
0.0
 30
0.0
  0
VERTEX
  5
2356
330
215F
100
AcDbEntity
  8
03
100
AcDbVertex
100
AcDb2dVertex
 10
238.0894551845341
 20
535.4964850615115
 30
0.0
  0
VERTEX
  5
2357
330
215F
100
AcDbEntity
  8
03
100
AcDbVertex
100
AcDb2dVertex
 10
238.0894551845341
 20
536.9964850615115
 30
0.0
  0
SEQEND
  5
2358
330
215F
100
AcDbEntity
  8
03
  0
LINE
  5
2160
330
A
100
AcDbEntity
  8
03
100
AcDbLine
 10
238.0894551845341
 20
535.4964850615115
 30
0.0
 11
239.7394551845342
 21
535.4964850615115
 31
0.0
  0
POLYLINE
  5
2161
330
A
100
AcDbEntity
  8
03
100
AcDb2dPolyline
 66
     1
 10
0.0
 20
0.0
 30
0.0
  0
VERTEX
  5
2359
330
2161
100
AcDbEntity
  8
03
100
AcDbVertex
100
AcDb2dVertex
 10
240.4894551845341
 20
555.4964850615115
 30
0.0
  0
VERTEX
  5
235A
330
2161
100
AcDbEntity
  8
03
100
AcDbVertex
100
AcDb2dVertex
 10
240.4894551845341
 20
536.2464850615115
 30
0.0
  0
SEQEND
  5
235B
330
2161
100
AcDbEntity
  8
03
  0
POLYLINE
  5
2162
330
A
100
AcDbEntity
  8
03
100
AcDb2dPolyline
 66
     1
 10
0.0
 20
0.0
 30
0.0
  0
VERTEX
  5
235C
330
2162
100
AcDbEntity
  8
03
100
AcDbVertex
100
AcDb2dVertex
 10
238.9894551845341
 20
536.9964850615115
 30
0.0
  0
VERTEX
  5
235D
330
2162
100
AcDbEntity
  8
03
100
AcDbVertex
100
AcDb2dVertex
 10
238.9894551845341
 20
556.2464850615115
 30
0.0
  0
SEQEND
  5
235E
330
2162
100
AcDbEntity
  8
03
  0
ARC
  5
2163
330
A
100
AcDbEntity
  8
03
100
AcDbCircle
 10
258.1299519307354
 20
556.2464850615115
 30
0.0
 40
0.75
100
AcDbArc
 50
0.0
 51
90.00000000000005
  0
POLYLINE
  5
2164
330
A
100
AcDbEntity
  8
03
100
AcDb2dPolyline
 66
     1
 10
0.0
 20
0.0
 30
0.0
  0
VERTEX
  5
235F
330
2164
100
AcDbEntity
  8
03
100
AcDbVertex
100
AcDb2dVertex
 10
240.4894551845341
 20
555.4964850615115
 30
0.0
  0
VERTEX
  5
2360
330
2164
100
AcDbEntity
  8
03
100
AcDbVertex
100
AcDb2dVertex
 10
257.3799519307355
 20
555.4964850615115
 30
0.0
  0
SEQEND
  5
2361
330
2164
100
AcDbEntity
  8
03
  0
POLYLINE
  5
2165
330
A
100
AcDbEntity
  8
03
100
AcDb2dPolyline
 66
     1
 10
0.0
 20
0.0
 30
0.0
  0
VERTEX
  5
2362
330
2165
100
AcDbEntity
  8
03
100
AcDbVertex
100
AcDb2dVertex
 10
239.7394551845342
 20
556.9964850615114
 30
0.0
  0
VERTEX
  5
2363
330
2165
100
AcDbEntity
  8
03
100
AcDbVertex
100
AcDb2dVertex
 10
258.1299519307354
 20
556.9964850615114
 30
0.0
  0
SEQEND
  5
2364
330
2165
100
AcDbEntity
  8
03
  0
ARC
  5
2166
330
A
100
AcDbEntity
  8
03
100
AcDbCircle
 10
239.7394551845342
 20
556.2464850615112
 30
0.0
 40
0.75
100
AcDbArc
 50
90.00000000000005
 51
180.0
  0
POLYLINE
  5
2167
330
A
100
AcDbEntity
  8
03
100
AcDb2dPolyline
 66
     1
 10
0.0
 20
0.0
 30
0.0
  0
VERTEX
  5
2365
330
2167
100
AcDbEntity
  8
03
100
AcDbVertex
100
AcDb2dVertex
 10
258.8799519307355
 20
536.9964850615115
 30
0.0
  0
VERTEX
  5
2366
330
2167
100
AcDbEntity
  8
03
100
AcDbVertex
100
AcDb2dVertex
 10
258.8799519307355
 20
556.2464850615115
 30
0.0
  0
SEQEND
  5
2367
330
2167
100
AcDbEntity
  8
03
  0
POLYLINE
  5
2168
330
A
100
AcDbEntity
  8
03
100
AcDb2dPolyline
 66
     1
 10
0.0
 20
0.0
 30
0.0
  0
VERTEX
  5
2368
330
2168
100
AcDbEntity
  8
03
100
AcDbVertex
100
AcDb2dVertex
 10
257.3799519307355
 20
536.2464850615115
 30
0.0
  0
VERTEX
  5
2369
330
2168
100
AcDbEntity
  8
03
100
AcDbVertex
100
AcDb2dVertex
 10
257.3799519307355
 20
555.4964850615115
 30
0.0
  0
SEQEND
  5
236A
330
2168
100
AcDbEntity
  8
03
  0
ARC
  5
2169
330
A
100
AcDbEntity
  8
03
100
AcDbCircle
 10
258.1299519307354
 20
536.2464850615115
 30
0.0
 40
0.75
100
AcDbArc
 50
180.0
 51
270.0
  0
POLYLINE
  5
216A
330
A
100
AcDbEntity
  8
03
100
AcDb2dPolyline
 66
     1
 10
0.0
 20
0.0
 30
0.0
  0
VERTEX
  5
236B
330
216A
100
AcDbEntity
  8
03
100
AcDbVertex
100
AcDb2dVertex
 10
267.4894551845341
 20
535.4964850615116
 30
0.0
  0
VERTEX
  5
236C
330
216A
100
AcDbEntity
  8
03
100
AcDbVertex
100
AcDb2dVertex
 10
267.4894551845341
 20
536.9964850615116
 30
0.0
  0
SEQEND
  5
236D
330
216A
100
AcDbEntity
  8
03
  0
POLYLINE
  5
216B
330
A
100
AcDbEntity
  8
03
100
AcDb2dPolyline
 66
     1
 10
0.0
 20
0.0
 30
0.0
  0
VERTEX
  5
236E
330
216B
100
AcDbEntity
  8
03
100
AcDbVertex
100
AcDb2dVertex
 10
267.4894551845341
 20
536.9964850615116
 30
0.0
  0
VERTEX
  5
236F
330
216B
100
AcDbEntity
  8
03
100
AcDbVertex
100
AcDb2dVertex
 10
258.8799519307355
 20
536.9964850615115
 30
0.0
  0
SEQEND
  5
2370
330
216B
100
AcDbEntity
  8
03
  0
LINE
  5
216C
330
A
100
AcDbEntity
  8
03
100
AcDbLine
 10
258.1299519307354
 20
535.4964850615115
 30
0.0
 11
267.4894551845341
 21
535.4964850615116
 31
0.0
  0
LINE
  5
21EC
330
A
100
AcDbEntity
  8
KAKURE
100
AcDbLine
 10
239.9894551845342
 20
562.4964850615112
 30
0.0
 11
239.9894551845342
 21
560.8964850615115
 31
0.0
  0
LINE
  5
21ED
330
A
100
AcDbEntity
  8
KAKURE
100
AcDbLine
 10
239.9894551845342
 20
562.4964850615115
 30
0.0
 11
349.9894551845342
 21
562.4964850615112
 31
0.0
  0
LINE
  5
21EE
330
A
100
AcDbEntity
  8
KAKURE
100
AcDbLine
 10
239.9894551845342
 20
560.8964850615112
 30
0.0
 11
349.9894551845342
 21
560.8964850615115
 31
0.0
  0
LINE
  5
21EF
330
A
100
AcDbEntity
  8
KAKURE
100
AcDbLine
 10
349.9894551845343
 20
562.4964850615112
 30
0.0
 11
349.9894551845342
 21
560.8964850615112
 31
0.0
  0
LINE
  5
21F0
330
A
100
AcDbEntity
  8
KAKURE
100
AcDbLine
 10
239.9894551845342
 20
80.49631493848858
 30
0.0
 11
239.9894551845342
 21
82.09631493848849
 31
0.0
  0
LINE
  5
21F1
330
A
100
AcDbEntity
  8
KAKURE
100
AcDbLine
 10
239.9894551845342
 20
82.0963149384886
 30
0.0
 11
349.9894551845342
 21
82.09631493848849
 31
0.0
  0
LINE
  5
21F2
330
A
100
AcDbEntity
  8
KAKURE
100
AcDbLine
 10
239.9894551845342
 20
80.49631493848847
 30
0.0
 11
349.9894551845342
 21
80.49631493848858
 31
0.0
  0
LINE
  5
21F3
330
A
100
AcDbEntity
  8
KAKURE
100
AcDbLine
 10
349.9894551845343
 20
80.49631493848858
 30
0.0
 11
349.9894551845342
 21
82.0963149384886
 31
0.0
  0
TEXT
  5
2216
330
A
100
AcDbEntity
  8
MOJI
100
AcDbText
 10
388.0488190392131
 20
45.27151320611589
 30
0.0
 40
8.0
  1
Ｓ
 41
0.8
  7
0_8
 11
388.0488190392131
 21
53.27151320611589
 31
0.0
100
AcDbText
 73
     3
  0
CIRCLE
  5
2217
330
A
100
AcDbEntity
  8
SAISEN
100
AcDbCircle
 10
391.0976380784293
 20
49.5430264122316
 30
0.0
 40
5.0
  0
MTEXT
  5
22BE
330
A
100
AcDbEntity
  8
MOJI
100
AcDbMText
 10
359.9999999999972
 20
28.50000000000012
 30
0.0
 40
7.0
 41
49.99999999999977
 71
     5
 72
     1
  1
姿図　　　　\Pよこ断面図　
  7
0_80
1001
ACAD
1000
MTEXTBEGIN
1070
    73
1070
     1
1070
    44
1040
1.0
1070
    74
1070
     0
1000
MTEXTEND
1000
MTEXTBEGIN
1070
    73
1070
     1
1070
    44
1040
1.0
1070
    74
1070
     0
1000
MTEXTEND
  0
MTEXT
  5
22BF
330
A
100
AcDbEntity
  8
MOJI
100
AcDbMText
 10
309.9999999999968
 20
29.00000000000001
 30
0.0
 40
7.0
 41
50.0
 71
     5
 72
     1
  1
図番３－６
  7
0_80
1001
ACAD
1000
MTEXTBEGIN
1070
    73
1070
     1
1070
    44
1040
1.0
1070
    74
1070
     0
1000
MTEXTEND
1000
MTEXTBEGIN
1070
    73
1070
     1
1070
    44
1040
1.0
1070
    74
1070
     0
1000
MTEXTEND
  0
LINE
  5
22C0
330
A
100
AcDbEntity
  8
SAISEN
100
AcDbLine
 10
284.9999999999969
 20
41.00000000000024
 30
0.0
 11
284.9999999999969
 21
17.00000000000001
 31
0.0
  0
LINE
  5
22C2
330
A
100
AcDbEntity
  8
SAISEN
100
AcDbLine
 10
224.9999999999969
 20
41.00000000000024
 30
0.0
 11
224.9999999999969
 21
17.00000000000001
 31
0.0
  0
LINE
  5
22C3
330
A
100
AcDbEntity
  8
SAISEN
100
AcDbLine
 10
154.999999999997
 20
41.00000000000024
 30
0.0
 11
154.999999999997
 21
17.00000000000001
 31
0.0
  0
POLYLINE
  5
22C4
330
A
100
AcDbEntity
  8
SAISEN
100
AcDb2dPolyline
 66
     1
 10
0.0
 20
0.0
 30
0.0
 70
     1
  0
VERTEX
  5
2371
330
22C4
100
AcDbEntity
  8
SAISEN
100
AcDbVertex
100
AcDb2dVertex
 10
34.99999999999703
 20
17.00000000000001
 30
0.0
  0
VERTEX
  5
2372
330
22C4
100
AcDbEntity
  8
SAISEN
100
AcDbVertex
100
AcDb2dVertex
 10
384.999999999997
 20
17.00000000000001
 30
0.0
  0
VERTEX
  5
2373
330
22C4
100
AcDbEntity
  8
SAISEN
100
AcDbVertex
100
AcDb2dVertex
 10
384.999999999997
 20
41.00000000000024
 30
0.0
  0
VERTEX
  5
2374
330
22C4
100
AcDbEntity
  8
SAISEN
100
AcDbVertex
100
AcDb2dVertex
 10
34.99999999999703
 20
41.00000000000024
 30
0.0
  0
SEQEND
  5
2375
330
22C4
100
AcDbEntity
  8
SAISEN
  0
MTEXT
  5
22C5
330
A
100
AcDbEntity
  8
MOJI
100
AcDbMText
 10
189.9999999999969
 20
29.00000000000012
 30
0.0
 40
7.0
 41
70.0
 71
     5
 72
     1
  1
Ｈ１･Ｍ３台板
  7
0_8
1001
ACAD
1000
MTEXTBEGIN
1070
    73
1070
     1
1070
    44
1040
1.0
1070
    74
1070
     0
1000
MTEXTEND
1000
MTEXTBEGIN
1070
    73
1070
     1
1070
    44
1040
1.0
1070
    74
1070
     0
1000
MTEXTEND
  0
MTEXT
  5
22C6
330
A
100
AcDbEntity
  8
MOJI
100
AcDbMText
 10
94.99999999999705
 20
29.00000000000012
 30
0.0
 40
6.0
 41
120.0
 71
     5
 72
     1
  1
ステンレスサッシ 枠見込１２０mm\Pドア･Ｆｉｘ共スリムセナージ･ドアＩ納り
  7
0_8
1001
ACAD
1000
MTEXTBEGIN
1070
    73
1070
     1
1070
    44
1040
1.0
1070
    74
1070
     0
1000
MTEXTEND
1000
MTEXTBEGIN
1070
    73
1070
     1
1070
    44
1040
1.0
1070
    74
1070
     0
1000
MTEXTEND
  0
MTEXT
  5
22E1
330
A
100
AcDbEntity
  8
MOJI
100
AcDbMText
 10
254.9999999999969
 20
29.00000000000012
 30
0.0
 40
7.0
 41
60.0
 71
     5
 72
     1
  1
片引き又は両引き
  7
0_80
1001
ACAD
1000
MTEXTBEGIN
1070
    73
1070
     1
1070
    44
1040
1.0
1070
    74
1070
     0
1000
MTEXTEND
1000
MTEXTBEGIN
1070
    73
1070
     1
1070
    44
1040
1.0
1070
    74
1070
     0
1000
MTEXTEND
  0
VIEWPORT
  5
85F
102
{ACAD_XDICTIONARY
360
230B
102
}
330
B
100
AcDbEntity
 67
     1
  8
0
100
AcDbViewport
 10
198.0508299538852
 20
285.1874487354477
 30
0.0
 40
1078.343208727591
 41
628.3535021666721
 68
     1
 69
     1
1001
ACAD
1000
MVIEW
1002
{
1070
    16
1010
0.0
1020
0.0
1030
0.0
1010
0.0
1020
0.0
1030
1.0
1040
0.0
1040
628.3535021666721
1040
198.0508299538852
1040
285.1874487354477
1040
50.0
1040
0.0
1040
0.0
1070
     0
1070
   100
1070
     1
1070
     1
1070
     0
1070
     0
1070
     0
1070
     0
1040
0.0
1040
0.0
1040
0.0
1040
10.0
1040
10.0
1040
10.0
1040
10.0
1070
     0
1002
{
1002
}
1002
}
  0
VIEWPORT
  5
22F5
102
{ACAD_XDICTIONARY
360
2311
102
}
330
B
100
AcDbEntity
 67
     1
  8
DEFPOINTS
100
AcDbViewport
 10
198.0508309076477
 20
285.1874477816852
 30
0.0
 40
396.4883172119752
 41
570.409736121624
 68
     2
 69
     2
1001
ACAD
1000
MVIEW
1002
{
1070
    16
1010
0.0
1020
0.0
1030
0.0
1010
0.0
1020
0.0
1030
1.0
1040
0.0
1040
570.409736121624
1040
210.0
1040
297.0
1040
50.0
1040
0.0
1040
0.0
1070
     0
1070
   100
1070
     1
1070
     1
1070
     0
1070
     0
1070
     0
1070
     0
1040
0.0
1040
0.0
1040
0.0
1040
1.0
1040
1.0
1040
0.0
1040
0.0
1070
     0
1002
{
1002
}
1002
}
  0
ENDSEC
  0
SECTION
  2
OBJECTS
  0
DICTIONARY
  5
19
330
0
100
AcDbDictionary
  3
ACAD_COLOR
350
74B
  3
ACAD_GROUP
350
1A
  3
ACAD_LAYOUT
350
603
  3
ACAD_MATERIAL
350
74A
  3
ACAD_MLINESTYLE
350
1B
  3
ACAD_PLOTSETTINGS
350
604
  3
ACADDIM
350
1167
  3
ASE_INDEX_DICTIONARY
350
22A8
1001
ACAD
1000
TREAT_AS_HARD
1070
     0
1000
TREAT_AS_HARD
1070
     0
  0
DICTIONARY
  5
22AE
330
2
100
AcDbDictionary
  3
ACAD_LAYERSTATES
350
22AF
1001
ACAD
1000
TREAT_AS_HARD
1070
     1
  0
DICTIONARY
  5
223B
330
A
100
AcDbDictionary
  3
ACAD_LAYOUTSELFREF
350
2319
1001
ACAD
1000
TREAT_AS_HARD
1070
     1
  0
DICTIONARY
  5
223D
330
B
100
AcDbDictionary
  3
ACAD_LAYOUTSELFREF
350
231A
1001
ACAD
1000
TREAT_AS_HARD
1070
     1
  0
DICTIONARY
  5
230B
330
85F
100
AcDbDictionary
  3
ACAD_XREC_ROUNDTRIP
350
230C
1001
ACAD
1000
TREAT_AS_HARD
1070
     1
  0
DICTIONARY
  5
2311
330
22F5
100
AcDbDictionary
  3
ACAD_XREC_ROUNDTRIP
350
2312
1001
ACAD
1000
TREAT_AS_HARD
1070
     1
  0
DICTIONARY
  5
74B
102
{ACAD_REACTORS
330
19
102
}
330
19
100
AcDbDictionary
1001
ACAD
1000
TREAT_AS_HARD
1070
     0
1000
TREAT_AS_HARD
1070
     0
  0
DICTIONARY
  5
1A
102
{ACAD_REACTORS
330
19
102
}
330
19
100
AcDbDictionary
1001
ACAD
1000
TREAT_AS_HARD
1070
     0
1000
TREAT_AS_HARD
1070
     0
  0
DICTIONARY
  5
603
102
{ACAD_REACTORS
330
19
102
}
330
19
100
AcDbDictionary
1001
ACAD
1000
TREAT_AS_HARD
1070
     0
1000
TREAT_AS_HARD
1070
     0
  0
DICTIONARY
  5
74A
102
{ACAD_REACTORS
330
19
102
}
330
19
100
AcDbDictionary
1001
ACAD
1000
TREAT_AS_HARD
1070
     0
1000
TREAT_AS_HARD
1070
     0
  0
DICTIONARY
  5
1B
102
{ACAD_REACTORS
330
19
102
}
330
19
100
AcDbDictionary
  3
STANDARD
350
1C
1001
ACAD
1000
TREAT_AS_HARD
1070
     0
1000
TREAT_AS_HARD
1070
     0
  0
DICTIONARY
  5
604
102
{ACAD_REACTORS
330
19
102
}
330
19
100
AcDbDictionary
1001
ACAD
1000
TREAT_AS_HARD
1070
     0
1000
TREAT_AS_HARD
1070
     0
  0
XRECORD
  5
1167
102
{ACAD_REACTORS
330
19
102
}
330
19
100
AcDbXrecord
 90
   990106
  3

 60
     0
 61
     0
 62
     1
 63
     3
 64
     1
 65
     0
 66
     0
 67
     3
 68
     1
 69
     0
 70
     0
 71
     0
 72
     0
 40
0.0
170
     2
340
1189
  0
DICTIONARY
  5
22A8
102
{ACAD_REACTORS
330
19
102
}
330
19
100
AcDbDictionary
  3
ASEBLOCKHIERARCHYINDEXRECORD
350
22A9
1001
DCO15
1040
1508669069.953
1001
ACAD
1000
TREAT_AS_HARD
1070
     0
  0
DICTIONARY
  5
22AF
102
{ACAD_REACTORS
330
22AE
102
}
330
22AE
100
AcDbDictionary
1001
ACAD
1000
TREAT_AS_HARD
1070
     0
  0
XRECORD
  5
2319
102
{ACAD_REACTORS
330
223B
102
}
330
223B
100
AcDbXrecord
340
A
  0
XRECORD
  5
231A
102
{ACAD_REACTORS
330
223D
102
}
330
223D
100
AcDbXrecord
340
B
  0
XRECORD
  5
230C
102
{ACAD_REACTORS
330
230B
102
}
330
230B
100
AcDbXrecord
102
SHADEPLOT
 70
     0
  0
XRECORD
  5
2312
102
{ACAD_REACTORS
330
2311
102
}
330
2311
100
AcDbXrecord
102
SHADEPLOT
 70
     0
  0
MLINESTYLE
  5
1C
102
{ACAD_REACTORS
330
1B
102
}
330
1B
100
AcDbMlineStyle
  2
STANDARD
 70
     0
  3

 62
     0
 51
90.00000000000019
 52
90.00000000000019
 71
     2
 49
0.5
 62
   256
  6
BYLAYER
 49
-0.5
 62
   256
  6
BYLAYER
  0
XRECORD
  5
22A9
102
{ACAD_REACTORS
330
22A8
102
}
330
22A8
100
AcDbXrecord
330
1A32
330
1A33
330
1A3B
330
1A3C
330
1A47
330
1A48
330
1A4F
330
1A50
330
1A58
330
1A59
330
1A61
330
1A62
330
1A6A
330
1A6B
330
1A73
330
1A74
330
1A7C
330
1A7D
330
1A85
330
1A86
330
1A8F
330
1A90
330
1A98
330
1A99
330
1A00
330
1A01
330
1A09
330
1A0A
330
1A14
330
1A15
330
1A1F
330
1A20
330
1AF4
330
1AF5
330
1AEB
330
1AEC
330
202F
330
2030
330
1AE1
330
1AE2
330
1AD8
330
1AD9
330
1AD0
330
1ACF
330
1AC6
330
1AC7
330
1AA1
330
1AA2
330
1AAA
330
1AAB
330
1AB5
330
1AB6
330
1ABE
330
1ABF
  0
ENDSEC
  0
EOF
