  0
SECTION
  2
HEADER
  9
$ACADVER
  1
AC1012
  9
$DWGCODEPAGE
  3
dos932
  9
$INSBASE
 10
0.0
 20
0.0
 30
0.0
  9
$EXTMIN
 10
0.0
 20
0.0
 30
0.0
  9
$EXTMAX
 10
420.0
 20
594.0
 30
0.0
  9
$LIMMIN
 10
0.0
 20
0.0
  9
$LIMMAX
 10
420.0
 20
594.0
  9
$ORTHOMODE
 70
     0
  9
$REGENMODE
 70
     1
  9
$FILLMODE
 70
     1
  9
$QTEXTMODE
 70
     0
  9
$MIRRTEXT
 70
     1
  9
$DRAGMODE
 70
     2
  9
$LTSCALE
 40
1.0
  9
$OSMODE
 70
    37
  9
$ATTMODE
 70
     1
  9
$TEXTSIZE
 40
4.0
  9
$TRACEWID
 40
0.05
  9
$TEXTSTYLE
  7
1_0
  9
$CLAYER
  8
DEFPOINTS
  9
$CELTYPE
  6
CONTINUOUS
  9
$CECOLOR
 62
   256
  9
$CELTSCALE
 40
1.0
  9
$DELOBJ
 70
     1
  9
$DISPSILH
 70
     0
  9
$DIMSCALE
 40
2.0
  9
$DIMASZ
 40
2.5
  9
$DIMEXO
 40
1.5
  9
$DIMDLI
 40
0.0
  9
$DIMRND
 40
0.0
  9
$DIMDLE
 40
0.0
  9
$DIMEXE
 40
1.0
  9
$DIMTP
 40
0.0
  9
$DIMTM
 40
0.0
  9
$DIMTXT
 40
2.5
  9
$DIMCEN
 40
0.0
  9
$DIMTSZ
 40
0.0
  9
$DIMTOL
 70
     0
  9
$DIMLIM
 70
     0
  9
$DIMTIH
 70
     0
  9
$DIMTOH
 70
     0
  9
$DIMSE1
 70
     0
  9
$DIMSE2
 70
     0
  9
$DIMTAD
 70
     1
  9
$DIMZIN
 70
     8
  9
$DIMBLK
  1
OPEN30
  9
$DIMASO
 70
     1
  9
$DIMSHO
 70
     1
  9
$DIMPOST
  1

  9
$DIMAPOST
  1

  9
$DIMALT
 70
     0
  9
$DIMALTD
 70
     2
  9
$DIMALTF
 40
25.4
  9
$DIMLFAC
 40
1.0
  9
$DIMTOFL
 70
     1
  9
$DIMTVP
 40
0.0
  9
$DIMTIX
 70
     0
  9
$DIMSOXD
 70
     0
  9
$DIMSAH
 70
     0
  9
$DIMBLK1
  1

  9
$DIMBLK2
  1

  9
$DIMSTYLE
  2
SUNPOU_2
  9
$DIMCLRD
 70
   256
  9
$DIMCLRE
 70
   256
  9
$DIMCLRT
 70
     6
  9
$DIMTFAC
 40
1.0
  9
$DIMGAP
 40
1.0
  9
$DIMJUST
 70
     0
  9
$DIMSD1
 70
     0
  9
$DIMSD2
 70
     0
  9
$DIMTOLJ
 70
     1
  9
$DIMTZIN
 70
     0
  9
$DIMALTZ
 70
     0
  9
$DIMALTTZ
 70
     0
  9
$DIMFIT
 70
     3
  9
$DIMUPT
 70
     0
  9
$DIMUNIT
 70
     2
  9
$DIMDEC
 70
     1
  9
$DIMTDEC
 70
     1
  9
$DIMALTU
 70
     2
  9
$DIMALTTD
 70
     2
  9
$DIMTXSTY
  7
SUNPOU
  9
$DIMAUNIT
 70
     0
  9
$LUNITS
 70
     2
  9
$LUPREC
 70
     4
  9
$SKETCHINC
 40
0.1
  9
$FILLETRAD
 40
0.0
  9
$AUNITS
 70
     0
  9
$AUPREC
 70
     0
  9
$MENU
  1
acad
  9
$ELEVATION
 40
0.0
  9
$PELEVATION
 40
0.0
  9
$THICKNESS
 40
0.0
  9
$LIMCHECK
 70
     0
  9
$BLIPMODE
 70
     0
  9
$CHAMFERA
 40
0.0
  9
$CHAMFERB
 40
0.0
  9
$CHAMFERC
 40
0.0
  9
$CHAMFERD
 40
0.0
  9
$SKPOLY
 70
     0
  9
$TDCREATE
 40
2444972.375000000
  9
$TDUPDATE
 40
2453266.401102604
  9
$TDINDWG
 40
0.4325120833
  9
$TDUSRTIMER
 40
0.4325120833
  9
$USRTIMER
 70
     1
  9
$ANGBASE
 50
0.0
  9
$ANGDIR
 70
     0
  9
$PDMODE
 70
     0
  9
$PDSIZE
 40
1.0
  9
$PLINEWID
 40
0.0
  9
$COORDS
 70
     1
  9
$SPLFRAME
 70
     0
  9
$SPLINETYPE
 70
     6
  9
$SPLINESEGS
 70
     8
  9
$ATTDIA
 70
     0
  9
$ATTREQ
 70
     1
  9
$HANDLING
 70
-16383
  9
$HANDSEED
  5
D85
  9
$SURFTAB1
 70
     6
  9
$SURFTAB2
 70
     6
  9
$SURFTYPE
 70
     6
  9
$SURFU
 70
     6
  9
$SURFV
 70
     6
  9
$UCSNAME
  2

  9
$UCSORG
 10
0.0
 20
0.0
 30
0.0
  9
$UCSXDIR
 10
1.0
 20
0.0
 30
0.0
  9
$UCSYDIR
 10
0.0
 20
1.0
 30
0.0
  9
$PUCSNAME
  2

  9
$PUCSORG
 10
0.0
 20
0.0
 30
0.0
  9
$PUCSXDIR
 10
1.0
 20
0.0
 30
0.0
  9
$PUCSYDIR
 10
0.0
 20
1.0
 30
0.0
  9
$USERI1
 70
     0
  9
$USERI2
 70
     0
  9
$USERI3
 70
     0
  9
$USERI4
 70
     0
  9
$USERI5
 70
     0
  9
$USERR1
 40
0.0
  9
$USERR2
 40
0.0
  9
$USERR3
 40
0.0
  9
$USERR4
 40
0.0
  9
$USERR5
 40
0.0
  9
$WORLDVIEW
 70
     1
  9
$SHADEDGE
 70
     3
  9
$SHADEDIF
 70
    70
  9
$TILEMODE
 70
     1
  9
$MAXACTVP
 70
    16
  9
$PINSBASE
 10
0.0
 20
0.0
 30
0.0
  9
$PLIMCHECK
 70
     0
  9
$PEXTMIN
 10
-0.1933276983398855
 20
-0.0174202791267817
 30
-0.0000000349181948
  9
$PEXTMAX
 10
396.2949895136353
 20
570.3923158424973
 30
0.0000000814935747
  9
$PLIMMIN
 10
-11.94191342824454
 20
-11.76600219398141
  9
$PLIMMAX
 10
408.0435733360149
 20
582.1408996648768
  9
$UNITMODE
 70
     0
  9
$VISRETAIN
 70
     0
  9
$PLINEGEN
 70
     1
  9
$PSLTSCALE
 70
     0
  9
$TREEDEPTH
 70
  3020
  9
$PICKSTYLE
 70
     1
  9
$CMLSTYLE
  2
STANDARD
  9
$CMLJUST
 70
     0
  9
$CMLSCALE
 40
1.0
  9
$SAVEIMAGES
 70
     1
  0
ENDSEC
  0
SECTION
  2
CLASSES
  0
CLASS
  1
LWPOLYLINE
  2
AcDbPolyline
  3
AutoCAD 2000
 90
    32768
280
     0
281
     1
  0
CLASS
  1
IMAGE
  2
AcDbRasterImage
  3
ISM
 90
    32895
280
     0
281
     1
  0
CLASS
  1
OLE2FRAME
  2
AcDbOle2Frame
  3
AutoCAD 2000
 90
    32768
280
     0
281
     1
  0
CLASS
  1
HATCH
  2
AcDbHatch
  3
AutoCAD 2000
 90
    32768
280
     0
281
     1
  0
CLASS
  1
DICTIONARYVAR
  2
AcDbDictionaryVar
  3
AutoCAD 2000
 90
    32768
280
     0
281
     0
  0
CLASS
  1
RASTERVARIABLES
  2
AcDbRasterVariables
  3
ISM
 90
    32768
280
     0
281
     0
  0
CLASS
  1
IMAGEDEF
  2
AcDbRasterImageDef
  3
ISM
 90
    32768
280
     0
281
     0
  0
CLASS
  1
IMAGEDEF_REACTOR
  2
AcDbRasterImageDefReactor
  3
ISM
 90
    32769
280
     0
281
     0
  0
CLASS
  1
IDBUFFER
  2
AcDbIdBuffer
  3
AutoCAD 2000
 90
    32768
280
     0
281
     0
  0
CLASS
  1
SPATIAL_FILTER
  2
AcDbSpatialFilter
  3
AutoCAD 2000
 90
    32768
280
     0
281
     0
  0
CLASS
  1
XRECORD
  2
AcDbXrecord
  3
AutoCAD 2000
 90
    32768
280
     0
281
     0
  0
CLASS
  1
SORTENTSTABLE
  2
AcDbSortentsTable
  3
AutoCAD 2000
 90
    32768
280
     0
281
     0
  0
CLASS
  1
LAYER_INDEX
  2
AcDbLayerIndex
  3
AutoCAD 2000
 90
    32768
280
     0
281
     0
  0
CLASS
  1
SPATIAL_INDEX
  2
AcDbSpatialIndex
  3
AutoCAD 2000
 90
    32768
280
     0
281
     0
  0
CLASS
  1
OBJECT_PTR
  2
CAseDLPNTableRecord
  3
ASE-LPNTableRecord
 90
    32769
280
     0
281
     0
  0
CLASS
  1
ACDBDICTIONARYWDFLT
  2
AcDbDictionaryWithDefault
  3
AutoCAD 2000
 90
    32768
280
     0
281
     0
  0
CLASS
  1
ACDBPLACEHOLDER
  2
AcDbPlaceHolder
  3
AutoCAD 2000
 90
    32768
280
     0
281
     0
  0
CLASS
  1
LAYOUT
  2
AcDbLayout
  3
AutoCAD 2000
 90
    32768
280
     0
281
     0
  0
CLASS
  1
LONG_TRANSACTION
  2
AcDbLongTransaction
  3
AutoCAD 2000
 90
    32768
280
     0
281
     0
  0
CLASS
  1
LWPOLYLINE
  2
AcDbPolyline
  3
AutoCAD 2000
 90
    32768
280
     0
281
     1
  0
CLASS
  1
HATCH
  2
AcDbHatch
  3
AutoCAD 2000
 90
    32768
280
     0
281
     1
  0
CLASS
  1
XRECORD
  2
AcDbXrecord
  3
AutoCAD 2000
 90
    32768
280
     0
281
     0
  0
CLASS
  1
LONG_TRANSACTION
  2
AcDbLongTransaction
  3
AutoCAD 2000
 90
    32768
280
     0
281
     0
  0
CLASS
  1
LWPOLYLINE
  2
AcDbPolyline
  3
AutoCAD 2000
 90
    32768
280
     0
281
     1
  0
CLASS
  1
HATCH
  2
AcDbHatch
  3
AutoCAD 2000
 90
    32768
280
     0
281
     1
  0
CLASS
  1
XRECORD
  2
AcDbXrecord
  3
AutoCAD 2000
 90
    32768
280
     0
281
     0
  0
ENDSEC
  0
SECTION
  2
TABLES
  0
TABLE
  2
VPORT
  5
7
330
0
100
AcDbSymbolTable
 70
     2
  0
VPORT
  5
D6D
330
7
100
AcDbSymbolTableRecord
100
AcDbViewportTableRecord
  2
*ACTIVE
 70
     0
 10
0.0
 20
0.0
 11
1.0
 21
1.0
 12
229.3216541199033
 22
297.000001383014
 13
0.0
 23
0.0
 14
1.0
 24
1.0
 15
10.0
 25
10.0
 16
0.0
 26
0.0
 36
1.0
 17
0.0
 27
0.0
 37
0.0
 40
601.080634064533
 41
1.780442804428044
 42
50.0
 43
0.0
 44
0.0
 50
0.0
 51
0.0
 71
     0
 72
   100
 73
     1
 74
     1
 75
     0
 76
     0
 77
     0
 78
     0
  0
ENDTAB
  0
TABLE
  2
LTYPE
  5
4
330
0
100
AcDbSymbolTable
 70
     4
  0
LTYPE
  5
11
330
4
100
AcDbSymbolTableRecord
100
AcDbLinetypeTableRecord
  2
BYBLOCK
 70
     0
  3

 72
    65
 73
     0
 40
0.0
  0
LTYPE
  5
12
330
4
100
AcDbSymbolTableRecord
100
AcDbLinetypeTableRecord
  2
BYLAYER
 70
     0
  3

 72
    65
 73
     0
 40
0.0
  0
LTYPE
  5
13
330
4
100
AcDbSymbolTableRecord
100
AcDbLinetypeTableRecord
  2
CONTINUOUS
 70
     0
  3
Solid line
 72
    65
 73
     0
 40
0.0
  0
LTYPE
  5
41B
330
4
100
AcDbSymbolTableRecord
100
AcDbLinetypeTableRecord
  2
CENTER2
 70
     0
  3
Center (.5x) ___ _ ___ _ ___ _ ___ _ ___ _ ___
 72
    65
 73
     4
 40
28.57499999999999
 49
19.05
 74
     0
 49
-3.174999999999998
 74
     0
 49
3.174999999999998
 74
     0
 49
-3.174999999999998
 74
     0
  0
LTYPE
  5
41C
330
4
100
AcDbSymbolTableRecord
100
AcDbLinetypeTableRecord
  2
DASHED2
 70
     0
  3
Dashed (.5x) _ _ _ _ _ _ _ _ _ _ _ _ _ _ _ _ _
 72
    65
 73
     2
 40
9.524999999999996
 49
6.349999999999998
 74
     0
 49
-3.174999999999998
 74
     0
  0
LTYPE
  5
C82
330
4
100
AcDbSymbolTableRecord
100
AcDbLinetypeTableRecord
  2
PHANTOM2
 70
     0
  3
Phantom (.5x) ___ _ _ ___ _ _ ___ _ _ ___ _ _
 72
    65
 73
     6
 40
31.75
 49
15.875
 74
     0
 49
-3.174999999999998
 74
     0
 49
3.174999999999998
 74
     0
 49
-3.174999999999998
 74
     0
 49
3.174999999999998
 74
     0
 49
-3.174999999999998
 74
     0
  0
ENDTAB
  0
TABLE
  2
LAYER
  5
2
102
{ACAD_XDICTIONARY
360
C88
102
}
330
0
100
AcDbSymbolTable
 70
    12
  0
LAYER
  5
14
330
2
100
AcDbSymbolTableRecord
100
AcDbLayerTableRecord
  2
0
 70
     0
 62
     7
  6
CONTINUOUS
  0
LAYER
  5
405
330
2
100
AcDbSymbolTableRecord
100
AcDbLayerTableRecord
  2
DEFPOINTS
 70
     0
 62
     7
  6
CONTINUOUS
  0
LAYER
  5
420
330
2
100
AcDbSymbolTableRecord
100
AcDbLayerTableRecord
  2
03
 70
     0
 62
     3
  6
CONTINUOUS
  0
LAYER
  5
421
330
2
100
AcDbSymbolTableRecord
100
AcDbLayerTableRecord
  2
04
 70
     0
 62
     4
  6
CONTINUOUS
  0
LAYER
  5
423
330
2
100
AcDbSymbolTableRecord
100
AcDbLayerTableRecord
  2
06
 70
     0
 62
     6
  6
CONTINUOUS
  0
LAYER
  5
425
330
2
100
AcDbSymbolTableRecord
100
AcDbLayerTableRecord
  2
CHUSIN
 70
     0
 62
     6
  6
CENTER2
  0
LAYER
  5
426
330
2
100
AcDbSymbolTableRecord
100
AcDbLayerTableRecord
  2
HIKIDASI
 70
     0
 62
     6
  6
CONTINUOUS
  0
LAYER
  5
427
330
2
100
AcDbSymbolTableRecord
100
AcDbLayerTableRecord
  2
KAKURE
 70
     0
 62
     6
  6
DASHED2
  0
LAYER
  5
428
330
2
100
AcDbSymbolTableRecord
100
AcDbLayerTableRecord
  2
MOJI
 70
     0
 62
     3
  6
CONTINUOUS
  0
LAYER
  5
42A
330
2
100
AcDbSymbolTableRecord
100
AcDbLayerTableRecord
  2
SUNPOU
 70
     0
 62
     6
  6
CONTINUOUS
  0
LAYER
  5
C83
330
2
100
AcDbSymbolTableRecord
100
AcDbLayerTableRecord
  2
SOUZOU
 70
     0
 62
     6
  6
PHANTOM2
  0
LAYER
  5
C87
330
2
100
AcDbSymbolTableRecord
100
AcDbLayerTableRecord
  2
SAISEN
 70
     0
 62
     3
  6
CONTINUOUS
  0
ENDTAB
  0
TABLE
  2
STYLE
  5
3
330
0
100
AcDbSymbolTable
 70
     5
  0
STYLE
  5
17
330
3
100
AcDbSymbolTableRecord
100
AcDbTextStyleTableRecord
  2
STANDARD
 70
     0
 40
0.0
 41
0.7
 50
0.0
 71
     0
 42
6.0
  3
txt.shx
  4
bigfont.shx
  0
STYLE
  5
406
330
3
100
AcDbSymbolTableRecord
100
AcDbTextStyleTableRecord
  2
0_8
 70
     0
 40
0.0
 41
0.8
 50
0.0
 71
     0
 42
2.5
  3
txt.shx
  4
extfont.shx
  0
STYLE
  5
40E
330
3
100
AcDbSymbolTableRecord
100
AcDbTextStyleTableRecord
  2
1_0
 70
     0
 40
0.0
 41
1.0
 50
0.0
 71
     0
 42
4.0
  3
txt.shx
  4
extfont.shx
  0
STYLE
  5
412
330
3
100
AcDbSymbolTableRecord
100
AcDbTextStyleTableRecord
  2
SUNPOU
 70
     0
 40
0.0
 41
0.8
 50
0.0
 71
     0
 42
0.2
  3
txt.shx
  4
extfont.shx
  0
STYLE
  5
D14
330
3
100
AcDbSymbolTableRecord
100
AcDbTextStyleTableRecord
  2
0_80
 70
     0
 40
0.0
 41
0.8
 50
0.0
 71
     0
 42
7.0
  3
txt.shx
  4
extfont.shx
  0
ENDTAB
  0
TABLE
  2
VIEW
  5
5
330
0
100
AcDbSymbolTable
 70
     1
  0
VIEW
  5
135
330
5
100
AcDbSymbolTableRecord
100
AcDbViewTableRecord
  2
QQQQ
 70
     0
 40
593.3849999999998
 10
-0.9999999999999715
 20
1.5
 41
386.75
 11
0.0
 21
0.0
 31
1.0
 12
100.0
 22
100.0
 32
0.0
 42
50.0
 43
0.0
 44
0.0
 50
0.0
 71
     0
  0
ENDTAB
  0
TABLE
  2
UCS
  5
6
330
0
100
AcDbSymbolTable
 70
     0
  0
ENDTAB
  0
TABLE
  2
APPID
  5
8
330
0
100
AcDbSymbolTable
 70
     3
  0
APPID
  5
16
330
8
100
AcDbSymbolTableRecord
100
AcDbRegAppTableRecord
  2
ACAD
 70
     0
  0
APPID
  5
CD1
330
8
100
AcDbSymbolTableRecord
100
AcDbRegAppTableRecord
  2
CONTENTBLOCKICON
 70
     0
  0
APPID
  5
D32
330
8
100
AcDbSymbolTableRecord
100
AcDbRegAppTableRecord
  2
DCO15
 70
     0
  0
ENDTAB
  0
TABLE
  2
DIMSTYLE
  5
9
330
0
100
AcDbSymbolTable
 70
     2
  0
DIMSTYLE
105
18
330
9
100
AcDbSymbolTableRecord
100
AcDbDimStyleTableRecord
  2
STANDARD
 70
     0
  3

  4

  5

  6

  7

 40
1.0
 41
0.18
 42
0.0625
 43
0.38
 44
0.18
 45
0.0
 46
0.0
 47
0.0
 48
0.0
140
0.18
141
0.09
142
0.0
143
25.4
144
1.0
145
0.0
146
1.0
147
0.09
 71
     0
 72
     0
 73
     1
 74
     1
 75
     0
 76
     0
 77
     0
 78
     0
170
     0
171
     2
172
     0
173
     0
174
     0
175
     0
176
     0
177
     0
178
     0
270
     2
271
     4
272
     4
273
     2
274
     2
340
17
275
     0
280
     0
281
     0
282
     0
283
     1
284
     0
285
     0
286
     0
287
     3
288
     0
  0
DIMSTYLE
105
414
102
{ACAD_REACTORS
330
53B
330
58B
330
598
330
5A5
330
5B2
330
5BF
330
5CE
330
55A
330
668
330
684
330
693
330
6A0
330
6AF
330
739
330
7C1
330
7E8
330
83C
330
849
330
44B
330
44E
330
451
330
456
102
}
330
9
100
AcDbSymbolTableRecord
100
AcDbDimStyleTableRecord
  2
SUNPOU_2
 70
     0
  3

  4

  5
OPEN30
  6

  7

 40
2.0
 41
2.5
 42
1.5
 43
0.0
 44
1.0
 45
0.0
 46
0.0
 47
0.0
 48
0.0
140
2.5
141
0.0
142
0.0
143
25.4
144
1.0
145
0.0
146
1.0
147
1.0
 71
     0
 72
     0
 73
     0
 74
     0
 75
     0
 76
     0
 77
     1
 78
     8
170
     0
171
     2
172
     1
173
     0
174
     0
175
     0
176
   256
177
   256
178
     6
270
     2
271
     1
272
     1
273
     2
274
     2
340
412
275
     0
280
     0
281
     0
282
     0
283
     1
284
     0
285
     0
286
     0
287
     3
288
     0
  0
ENDTAB
  0
TABLE
  2
BLOCK_RECORD
  5
1
330
0
100
AcDbSymbolTable
 70
    21
  0
BLOCK_RECORD
  5
A
102
{ACAD_XDICTIONARY
360
CCD
102
}
330
1
100
AcDbSymbolTableRecord
100
AcDbBlockTableRecord
  2
*MODEL_SPACE
  0
BLOCK_RECORD
  5
B
102
{ACAD_XDICTIONARY
360
CCF
102
}
330
1
100
AcDbSymbolTableRecord
100
AcDbBlockTableRecord
  2
*PAPER_SPACE
  0
BLOCK_RECORD
  5
415
330
1
100
AcDbSymbolTableRecord
100
AcDbBlockTableRecord
  2
_OPEN30
1001
CONTENTBLOCKICON
1071
        0
1004
2800000020000000200000000100080000000000000400000000000000000000000000000000000000000000000080000080000000808000800000008000800080800000C0C0C000C0DCC000F0CAA6000020400000206000002080000020A0000020C0000020E00000400000004020000040400000406000004080000040A0
1004
000040C0000040E00000600000006020000060400000606000006080000060A0000060C0000060E00000800000008020000080400000806000008080000080A0000080C0000080E00000A0000000A0200000A0400000A0600000A0800000A0A00000A0C00000A0E00000C0000000C0200000C0400000C0600000C0800000C0
1004
A00000C0C00000C0E00000E0000000E0200000E0400000E0600000E0800000E0A00000E0C00000E0E00040000000400020004000400040006000400080004000A0004000C0004000E00040200000402020004020400040206000402080004020A0004020C0004020E000404000004040200040404000404060004040800040
1004
40A0004040C0004040E00040600000406020004060400040606000406080004060A0004060C0004060E00040800000408020004080400040806000408080004080A0004080C0004080E00040A0000040A0200040A0400040A0600040A0800040A0A00040A0C00040A0E00040C0000040C0200040C0400040C0600040C08000
1004
40C0A00040C0C00040C0E00040E0000040E0200040E0400040E0600040E0800040E0A00040E0C00040E0E00080000000800020008000400080006000800080008000A0008000C0008000E00080200000802020008020400080206000802080008020A0008020C0008020E00080400000804020008040400080406000804080
1004
008040A0008040C0008040E00080600000806020008060400080606000806080008060A0008060C0008060E00080800000808020008080400080806000808080008080A0008080C0008080E00080A0000080A0200080A0400080A0600080A0800080A0A00080A0C00080A0E00080C0000080C0200080C0400080C0600080C0
1004
800080C0A00080C0C00080C0E00080E0000080E0200080E0400080E0600080E0800080E0A00080E0C00080E0E000C0000000C0002000C0004000C0006000C0008000C000A000C000C000C000E000C0200000C0202000C0204000C0206000C0208000C020A000C020C000C020E000C0400000C0402000C0404000C0406000C0
1004
408000C040A000C040C000C040E000C0600000C0602000C0604000C0606000C0608000C060A000C060C000C060E000C0800000C0802000C0804000C0806000C0808000C080A000C080C000C080E000C0A00000C0A02000C0A04000C0A06000C0A08000C0A0A000C0A0C000C0A0E000C0C00000C0C02000C0C04000C0C06000
1004
C0C08000C0C0A000F0FBFF00A4A0A000808080000000FF0000FF000000FFFF00FF000000FF00FF00FFFF0000FFFFFF0000000000000000000000000000000000000000000000000000000000000000000000000000000000000000000000000000000000000000000000000000000000000000000000000000000000000000
1004
00000000000000000000000000000000000000000000000000000000000000000000000000000000000000000000000000000000000000000000000000000000000000000000000000000000000000000000000000000000000000000000000000000000000000000000000000000000000000000000000000000000000000
1004
000000000000000000000000000000000000000000000000000000000000000000000000000000000000000000000000000000FFFF0000000000000000000000000000000000000000000000000000000000000000FFFFFFFF0000000000000000000000000000000000000000000000000000000000000000FFFFFFFF0000
1004
000000000000000000000000000000000000000000000000000000000000FFFFFF0000000000000000000000000000000000000000000000000000000000000000FFFFFFFF0000000000000000000000000000000000000000000000000000000000000000FFFFFF0000000000000000000000000000000000000000000000
1004
000000000000000000FFFFFFFF0000000000000000000000000000000000000000000000000000000000000000FFFFFFFF00000000FFFFFFFFFFFFFFFFFFFFFFFFFFFFFFFFFFFFFFFFFFFFFFFFFFFFFFFFFFFF00000000000000000000000000000000000000000000000000FFFFFFFF000000000000000000000000000000
1004
000000000000000000FFFFFFFF000000000000000000000000000000000000000000000000FFFFFFFF000000000000000000000000000000000000000000000000FFFFFFFF000000000000000000000000000000000000000000000000FFFFFFFF000000000000000000000000000000000000000000000000FFFFFFFF0000
1004
0000000000000000000000000000000000000000000000FFFFFF0000000000000000000000000000000000000000000000000000000000000000000000000000000000000000000000000000000000000000000000000000000000000000000000000000000000000000000000000000000000000000000000000000000000
1004
00000000000000000000000000000000000000000000000000000000000000000000000000000000000000000000000000000000000000000000000000000000000000000000000000000000000000000000000000000000000000000000000000000000000000000000000000000000000000000000000000000000000000
1004
0000000000000000000000000000000000000000000000000000000000000000000000000000000000000000000000000000000000000000
  0
BLOCK_RECORD
  5
53C
330
1
100
AcDbSymbolTableRecord
100
AcDbBlockTableRecord
  2
*D1
  0
BLOCK_RECORD
  5
55B
330
1
100
AcDbSymbolTableRecord
100
AcDbBlockTableRecord
  2
*D2
  0
BLOCK_RECORD
  5
58C
330
1
100
AcDbSymbolTableRecord
100
AcDbBlockTableRecord
  2
*D3
  0
BLOCK_RECORD
  5
599
330
1
100
AcDbSymbolTableRecord
100
AcDbBlockTableRecord
  2
*D4
  0
BLOCK_RECORD
  5
5A6
330
1
100
AcDbSymbolTableRecord
100
AcDbBlockTableRecord
  2
*D5
  0
BLOCK_RECORD
  5
5B3
330
1
100
AcDbSymbolTableRecord
100
AcDbBlockTableRecord
  2
*D6
  0
BLOCK_RECORD
  5
5C0
330
1
100
AcDbSymbolTableRecord
100
AcDbBlockTableRecord
  2
*D7
  0
BLOCK_RECORD
  5
5CF
330
1
100
AcDbSymbolTableRecord
100
AcDbBlockTableRecord
  2
*D8
  0
BLOCK_RECORD
  5
669
330
1
100
AcDbSymbolTableRecord
100
AcDbBlockTableRecord
  2
*D9
  0
BLOCK_RECORD
  5
685
330
1
100
AcDbSymbolTableRecord
100
AcDbBlockTableRecord
  2
*D10
  0
BLOCK_RECORD
  5
694
330
1
100
AcDbSymbolTableRecord
100
AcDbBlockTableRecord
  2
*D11
  0
BLOCK_RECORD
  5
6A1
330
1
100
AcDbSymbolTableRecord
100
AcDbBlockTableRecord
  2
*D12
  0
BLOCK_RECORD
  5
6B0
330
1
100
AcDbSymbolTableRecord
100
AcDbBlockTableRecord
  2
*D13
  0
BLOCK_RECORD
  5
73A
330
1
100
AcDbSymbolTableRecord
100
AcDbBlockTableRecord
  2
*D14
  0
BLOCK_RECORD
  5
7C2
330
1
100
AcDbSymbolTableRecord
100
AcDbBlockTableRecord
  2
*D15
  0
BLOCK_RECORD
  5
7E5
330
1
100
AcDbSymbolTableRecord
100
AcDbBlockTableRecord
  2
_NONE
  0
BLOCK_RECORD
  5
7E9
330
1
100
AcDbSymbolTableRecord
100
AcDbBlockTableRecord
  2
*D17
  0
BLOCK_RECORD
  5
83D
330
1
100
AcDbSymbolTableRecord
100
AcDbBlockTableRecord
  2
*D18
  0
BLOCK_RECORD
  5
84A
330
1
100
AcDbSymbolTableRecord
100
AcDbBlockTableRecord
  2
*D19
  0
BLOCK_RECORD
  5
CF5
330
1
100
AcDbSymbolTableRecord
100
AcDbBlockTableRecord
  2
*X20
  0
ENDTAB
  0
ENDSEC
  0
SECTION
  2
BLOCKS
  0
BLOCK
  5
D
330
A
100
AcDbEntity
  8
0
100
AcDbBlockBegin
  2
*MODEL_SPACE
 70
     0
 10
0.0
 20
0.0
 30
0.0
  3
*MODEL_SPACE
  1

  0
ENDBLK
  5
E
330
A
100
AcDbEntity
  8
0
100
AcDbBlockEnd
  0
BLOCK
  5
F
330
B
100
AcDbEntity
 67
     1
  8
0
100
AcDbBlockBegin
  2
*PAPER_SPACE
 70
     0
 10
0.0
 20
0.0
 30
0.0
  3
*PAPER_SPACE
  1

  0
ENDBLK
  5
10
330
B
100
AcDbEntity
 67
     1
  8
0
100
AcDbBlockEnd
  0
BLOCK
  5
419
330
415
100
AcDbEntity
  8
0
100
AcDbBlockBegin
  2
_OPEN30
 70
     0
 10
0.0
 20
0.0
 30
0.0
  3
_OPEN30
  1

  0
LINE
  5
416
330
415
100
AcDbEntity
  8
0
  6
BYBLOCK
 62
     0
100
AcDbLine
 10
-1.0
 20
0.26794919
 30
0.0
 11
0.0
 21
0.0
 31
0.0
  0
LINE
  5
417
330
415
100
AcDbEntity
  8
0
  6
BYBLOCK
 62
     0
100
AcDbLine
 10
0.0
 20
0.0
 30
0.0
 11
-1.0
 21
-0.26794919
 31
0.0
  0
LINE
  5
418
330
415
100
AcDbEntity
  8
0
  6
BYBLOCK
 62
     0
100
AcDbLine
 10
0.0
 20
0.0
 30
0.0
 11
-1.0
 21
0.0
 31
0.0
  0
ENDBLK
  5
41A
330
415
100
AcDbEntity
  8
0
100
AcDbBlockEnd
  0
BLOCK
  5
546
330
53C
100
AcDbEntity
  8
0
100
AcDbBlockBegin
  2
*D1
 70
     1
 10
0.0
 20
0.0
 30
0.0
  3
*D1
  1

  0
LINE
  5
B9A
330
53C
100
AcDbEntity
  8
SUNPOU
100
AcDbLine
 10
142.6013228486569
 20
529.4999999999999
 30
0.0
 11
142.6013228486569
 21
517.6079942318956
 31
0.0
  0
LINE
  5
B9B
330
53C
100
AcDbEntity
  8
SUNPOU
100
AcDbLine
 10
262.601322848657
 20
529.4999999999999
 30
0.0
 11
262.601322848657
 21
517.6079942318956
 31
0.0
  0
LINE
  5
B9C
330
53C
100
AcDbEntity
  8
SUNPOU
100
AcDbLine
 10
147.6013228486569
 20
519.6079942318958
 30
0.0
 11
257.6013228486569
 21
519.6079942318958
 31
0.0
  0
MTEXT
  5
B9D
330
53C
100
AcDbEntity
  8
SUNPOU
 62
     6
100
AcDbMText
 10
198.7438380532872
 20
513.509716358217
 30
0.0
 40
5.0
 41
0.0
 71
     5
 72
     1
  1
\A1;120
  7
SUNPOU
 11
-1.0
 21
0.0000000000000001
 31
0.0
1001
ACAD
1000
MTEXTBEGIN
1070
    73
1070
     1
1070
    44
1040
1.0
1070
    74
1070
     0
1000
MTEXTEND
1000
MTEXTBEGIN
1070
    73
1070
     1
1070
    44
1040
1.0
1070
    74
1070
     0
1000
MTEXTEND
  0
INSERT
  5
B9E
330
53C
100
AcDbEntity
  8
SUNPOU
100
AcDbBlockReference
  2
_OPEN30
 10
142.6013228486569
 20
519.6079942318958
 30
0.0
 41
5.0
 42
5.0
 43
5.0
 50
180.0
  0
INSERT
  5
B9F
330
53C
100
AcDbEntity
  8
SUNPOU
100
AcDbBlockReference
  2
_OPEN30
 10
262.601322848657
 20
519.6079942318958
 30
0.0
 41
5.0
 42
5.0
 43
5.0
  0
POINT
  5
BA0
330
53C
100
AcDbEntity
  8
DEFPOINTS
 62
     0
100
AcDbPoint
 10
142.6013228486569
 20
532.5
 30
0.0
  0
POINT
  5
BA1
330
53C
100
AcDbEntity
  8
DEFPOINTS
 62
     0
100
AcDbPoint
 10
262.601322848657
 20
532.5
 30
0.0
  0
POINT
  5
BA2
330
53C
100
AcDbEntity
  8
DEFPOINTS
 62
     0
100
AcDbPoint
 10
262.601322848657
 20
519.6079942318958
 30
0.0
  0
ENDBLK
  5
547
330
53C
100
AcDbEntity
  8
0
100
AcDbBlockEnd
  0
BLOCK
  5
565
330
55B
100
AcDbEntity
  8
0
100
AcDbBlockBegin
  2
*D2
 70
     1
 10
0.0
 20
0.0
 30
0.0
  3
*D2
  1

  0
LINE
  5
B91
330
55B
100
AcDbEntity
  8
SUNPOU
100
AcDbLine
 10
148.6013228486569
 20
442.4999999999998
 30
0.0
 11
148.6013228486569
 21
479.2279643080138
 31
0.0
  0
LINE
  5
B92
330
55B
100
AcDbEntity
  8
SUNPOU
100
AcDbLine
 10
205.6013228486569
 20
442.4999999999998
 30
0.0
 11
205.6013228486569
 21
479.2279643080138
 31
0.0
  0
LINE
  5
B93
330
55B
100
AcDbEntity
  8
SUNPOU
100
AcDbLine
 10
153.6013228486569
 20
477.2279643080138
 30
0.0
 11
200.6013228486569
 21
477.2279643080138
 31
0.0
  0
MTEXT
  5
B94
330
55B
100
AcDbEntity
  8
SUNPOU
 62
     6
100
AcDbMText
 10
169.9734640903373
 20
471.3541824283391
 30
0.0
 40
5.0
 41
0.0
 71
     5
 72
     1
  1
\A1;57
  7
SUNPOU
 11
-1.0
 21
0.0000000000000001
 31
0.0
1001
ACAD
1000
MTEXTBEGIN
1070
    73
1070
     1
1070
    44
1040
1.0
1070
    74
1070
     0
1000
MTEXTEND
1000
MTEXTBEGIN
1070
    73
1070
     1
1070
    44
1040
1.0
1070
    74
1070
     0
1000
MTEXTEND
  0
INSERT
  5
B95
330
55B
100
AcDbEntity
  8
SUNPOU
100
AcDbBlockReference
  2
_OPEN30
 10
148.6013228486569
 20
477.2279643080138
 30
0.0
 41
5.0
 42
5.0
 43
5.0
 50
180.0
  0
INSERT
  5
B96
330
55B
100
AcDbEntity
  8
SUNPOU
100
AcDbBlockReference
  2
_OPEN30
 10
205.6013228486569
 20
477.2279643080138
 30
0.0
 41
5.0
 42
5.0
 43
5.0
  0
POINT
  5
B97
330
55B
100
AcDbEntity
  8
DEFPOINTS
 62
     0
100
AcDbPoint
 10
148.6013228486569
 20
439.5
 30
0.0
  0
POINT
  5
B98
330
55B
100
AcDbEntity
  8
DEFPOINTS
 62
     0
100
AcDbPoint
 10
205.6013228486569
 20
439.5
 30
0.0
  0
POINT
  5
B99
330
55B
100
AcDbEntity
  8
DEFPOINTS
 62
     0
100
AcDbPoint
 10
205.6013228486569
 20
477.2279643080138
 30
0.0
  0
ENDBLK
  5
566
330
55B
100
AcDbEntity
  8
0
100
AcDbBlockEnd
  0
BLOCK
  5
596
330
58C
100
AcDbEntity
  8
0
100
AcDbBlockBegin
  2
*D3
 70
     1
 10
0.0
 20
0.0
 30
0.0
  3
*D3
  1

  0
LINE
  5
BBD
330
58C
100
AcDbEntity
  8
SUNPOU
100
AcDbLine
 10
147.101322848657
 20
441.0
 30
0.0
 11
127.3113404233494
 21
441.0000000000001
 31
0.0
  0
LINE
  5
BBE
330
58C
100
AcDbEntity
  8
SUNPOU
100
AcDbLine
 10
147.101322848657
 20
391.0
 30
0.0
 11
127.3113404233494
 21
391.0
 31
0.0
  0
LINE
  5
BBF
330
58C
100
AcDbEntity
  8
SUNPOU
100
AcDbLine
 10
129.3113404233494
 20
436.0
 30
0.0
 11
129.3113404233494
 21
396.0
 31
0.0
  0
INSERT
  5
BC0
330
58C
100
AcDbEntity
  8
SUNPOU
100
AcDbBlockReference
  2
_OPEN30
 10
129.3113404233494
 20
441.0
 30
0.0
 41
5.0
 42
5.0
 43
5.0
 50
90.0
  0
INSERT
  5
BC1
330
58C
100
AcDbEntity
  8
SUNPOU
100
AcDbBlockReference
  2
_OPEN30
 10
129.3113404233494
 20
391.0
 30
0.0
 41
5.0
 42
5.0
 43
5.0
 50
270.0
  0
MTEXT
  5
BC2
330
58C
100
AcDbEntity
  8
SUNPOU
 62
     6
100
AcDbMText
 10
124.8113404233494
 20
416.0000000000001
 30
0.0
 40
5.0
 41
0.0
 71
     5
 72
     1
  1
\A1;50
  7
SUNPOU
 11
0.0000000000000001
 21
1.0
 31
0.0
1001
ACAD
1000
MTEXTBEGIN
1070
    73
1070
     1
1070
    44
1040
1.0
1070
    74
1070
     0
1000
MTEXTEND
1000
MTEXTBEGIN
1070
    73
1070
     1
1070
    44
1040
1.0
1070
    74
1070
     0
1000
MTEXTEND
  0
POINT
  5
BC3
330
58C
100
AcDbEntity
  8
DEFPOINTS
 62
     0
100
AcDbPoint
 10
150.101322848657
 20
441.0
 30
0.0
  0
POINT
  5
BC4
330
58C
100
AcDbEntity
  8
DEFPOINTS
 62
     0
100
AcDbPoint
 10
150.101322848657
 20
391.0
 30
0.0
  0
POINT
  5
BC5
330
58C
100
AcDbEntity
  8
DEFPOINTS
 62
     0
100
AcDbPoint
 10
129.3113404233494
 20
391.0
 30
0.0
  0
ENDBLK
  5
597
330
58C
100
AcDbEntity
  8
0
100
AcDbBlockEnd
  0
BLOCK
  5
5A3
330
599
100
AcDbEntity
  8
0
100
AcDbBlockBegin
  2
*D4
 70
     1
 10
0.0
 20
0.0
 30
0.0
  3
*D4
  1

  0
LINE
  5
BA3
330
599
100
AcDbEntity
  8
HIKIDASI
100
AcDbLine
 10
147.101322848657
 20
391.0
 30
0.0
 11
127.3113404233494
 21
391.0
 31
0.0
  0
LINE
  5
BA4
330
599
100
AcDbEntity
  8
HIKIDASI
100
AcDbLine
 10
147.101322848657
 20
191.0
 30
0.0
 11
127.3113404233494
 21
191.0
 31
0.0
  0
LINE
  5
BA5
330
599
100
AcDbEntity
  8
HIKIDASI
100
AcDbLine
 10
129.3113404233494
 20
386.0
 30
0.0
 11
129.3113404233494
 21
196.0
 31
0.0
  0
INSERT
  5
BA6
330
599
100
AcDbEntity
  8
HIKIDASI
100
AcDbBlockReference
  2
_OPEN30
 10
129.3113404233494
 20
391.0
 30
0.0
 41
5.0
 42
5.0
 43
5.0
 50
90.0
  0
INSERT
  5
BA7
330
599
100
AcDbEntity
  8
HIKIDASI
100
AcDbBlockReference
  2
_OPEN30
 10
129.3113404233494
 20
191.0
 30
0.0
 41
5.0
 42
5.0
 43
5.0
 50
270.0
  0
MTEXT
  5
BA8
330
599
100
AcDbEntity
  8
HIKIDASI
 62
     6
100
AcDbMText
 10
124.8113404233494
 20
291.0
 30
0.0
 40
5.0
 41
0.0
 71
     5
 72
     1
  1
\A1;開口間口W
  7
SUNPOU
 11
0.0000000000000001
 21
1.0
 31
0.0
1001
ACAD
1000
MTEXTBEGIN
1070
    73
1070
     1
1070
    44
1040
1.0
1070
    74
1070
     0
1000
MTEXTEND
1000
MTEXTBEGIN
1070
    73
1070
     1
1070
    44
1040
1.0
1070
    74
1070
     0
1000
MTEXTEND
  0
POINT
  5
BA9
330
599
100
AcDbEntity
  8
DEFPOINTS
 62
     0
100
AcDbPoint
 10
150.101322848657
 20
391.0
 30
0.0
  0
POINT
  5
BAA
330
599
100
AcDbEntity
  8
DEFPOINTS
 62
     0
100
AcDbPoint
 10
150.101322848657
 20
191.0
 30
0.0
  0
POINT
  5
BAB
330
599
100
AcDbEntity
  8
DEFPOINTS
 62
     0
100
AcDbPoint
 10
129.3113404233494
 20
191.0
 30
0.0
  0
ENDBLK
  5
5A4
330
599
100
AcDbEntity
  8
0
100
AcDbBlockEnd
  0
BLOCK
  5
5B0
330
5A6
100
AcDbEntity
  8
0
100
AcDbBlockBegin
  2
*D5
 70
     1
 10
0.0
 20
0.0
 30
0.0
  3
*D5
  1

  0
LINE
  5
BAC
330
5A6
100
AcDbEntity
  8
SUNPOU
100
AcDbLine
 10
147.101322848657
 20
191.0
 30
0.0
 11
127.3113404233494
 21
191.0
 31
0.0
  0
LINE
  5
BAD
330
5A6
100
AcDbEntity
  8
SUNPOU
100
AcDbLine
 10
147.101322848657
 20
141.0
 30
0.0
 11
127.3113404233494
 21
141.0
 31
0.0
  0
LINE
  5
BAE
330
5A6
100
AcDbEntity
  8
SUNPOU
100
AcDbLine
 10
129.3113404233494
 20
186.0
 30
0.0
 11
129.3113404233494
 21
146.0
 31
0.0
  0
INSERT
  5
BAF
330
5A6
100
AcDbEntity
  8
SUNPOU
100
AcDbBlockReference
  2
_OPEN30
 10
129.3113404233494
 20
191.0
 30
0.0
 41
5.0
 42
5.0
 43
5.0
 50
90.0
  0
INSERT
  5
BB0
330
5A6
100
AcDbEntity
  8
SUNPOU
100
AcDbBlockReference
  2
_OPEN30
 10
129.3113404233494
 20
141.0
 30
0.0
 41
5.0
 42
5.0
 43
5.0
 50
270.0
  0
MTEXT
  5
BB1
330
5A6
100
AcDbEntity
  8
SUNPOU
 62
     6
100
AcDbMText
 10
124.8113404233494
 20
166.0
 30
0.0
 40
5.0
 41
0.0
 71
     5
 72
     1
  1
\A1;50
  7
SUNPOU
 11
0.0000000000000001
 21
1.0
 31
0.0
1001
ACAD
1000
MTEXTBEGIN
1070
    73
1070
     1
1070
    44
1040
1.0
1070
    74
1070
     0
1000
MTEXTEND
1000
MTEXTBEGIN
1070
    73
1070
     1
1070
    44
1040
1.0
1070
    74
1070
     0
1000
MTEXTEND
  0
POINT
  5
BB2
330
5A6
100
AcDbEntity
  8
DEFPOINTS
 62
     0
100
AcDbPoint
 10
150.101322848657
 20
191.0
 30
0.0
  0
POINT
  5
BB3
330
5A6
100
AcDbEntity
  8
DEFPOINTS
 62
     0
100
AcDbPoint
 10
150.101322848657
 20
141.0
 30
0.0
  0
POINT
  5
BB4
330
5A6
100
AcDbEntity
  8
DEFPOINTS
 62
     0
100
AcDbPoint
 10
129.3113404233494
 20
141.0
 30
0.0
  0
ENDBLK
  5
5B1
330
5A6
100
AcDbEntity
  8
0
100
AcDbBlockEnd
  0
BLOCK
  5
5BD
330
5B3
100
AcDbEntity
  8
0
100
AcDbBlockBegin
  2
*D6
 70
     1
 10
0.0
 20
0.0
 30
0.0
  3
*D6
  1

  0
LINE
  5
BFD
330
5B3
100
AcDbEntity
  8
SUNPOU
100
AcDbLine
 10
241.601322848657
 20
441.0
 30
0.0
 11
276.248071530555
 21
441.0
 31
0.0
  0
LINE
  5
BFE
330
5B3
100
AcDbEntity
  8
SUNPOU
100
AcDbLine
 10
241.601322848657
 20
292.5
 30
0.0
 11
276.248071530555
 21
292.5
 31
0.0
  0
LINE
  5
BFF
330
5B3
100
AcDbEntity
  8
SUNPOU
100
AcDbLine
 10
274.248071530555
 20
436.0
 30
0.0
 11
274.248071530555
 21
297.5
 31
0.0
  0
INSERT
  5
C00
330
5B3
100
AcDbEntity
  8
SUNPOU
100
AcDbBlockReference
  2
_OPEN30
 10
274.248071530555
 20
441.0
 30
0.0
 41
5.0
 42
5.0
 43
5.0
 50
90.0
  0
INSERT
  5
C01
330
5B3
100
AcDbEntity
  8
SUNPOU
100
AcDbBlockReference
  2
_OPEN30
 10
274.248071530555
 20
292.5
 30
0.0
 41
5.0
 42
5.0
 43
5.0
 50
270.0
  0
MTEXT
  5
C02
330
5B3
100
AcDbEntity
  8
SUNPOU
 62
     6
100
AcDbMText
 10
269.748071530555
 20
366.7499999999999
 30
0.0
 40
5.0
 41
0.0
 71
     5
 72
     1
  1
\A1;DW
  7
SUNPOU
 11
0.0000000000000001
 21
1.0
 31
0.0
1001
ACAD
1000
MTEXTBEGIN
1070
    73
1070
     1
1070
    44
1040
1.0
1070
    74
1070
     0
1000
MTEXTEND
1000
MTEXTBEGIN
1070
    73
1070
     1
1070
    44
1040
1.0
1070
    74
1070
     0
1000
MTEXTEND
  0
POINT
  5
C03
330
5B3
100
AcDbEntity
  8
DEFPOINTS
 62
     0
100
AcDbPoint
 10
238.6013228486569
 20
441.0
 30
0.0
  0
POINT
  5
C04
330
5B3
100
AcDbEntity
  8
DEFPOINTS
 62
     0
100
AcDbPoint
 10
238.6013228486569
 20
292.5
 30
0.0
  0
POINT
  5
C05
330
5B3
100
AcDbEntity
  8
DEFPOINTS
 62
     0
100
AcDbPoint
 10
274.248071530555
 20
292.5
 30
0.0
  0
ENDBLK
  5
5BE
330
5B3
100
AcDbEntity
  8
0
100
AcDbBlockEnd
  0
BLOCK
  5
5CC
330
5C0
100
AcDbEntity
  8
0
100
AcDbBlockBegin
  2
*D7
 70
     1
 10
0.0
 20
0.0
 30
0.0
  3
*D7
  1

  0
LINE
  5
BEA
330
5C0
100
AcDbEntity
  8
SUNPOU
100
AcDbLine
 10
241.601322848657
 20
292.5
 30
0.0
 11
276.248071530555
 21
292.5
 31
0.0
  0
LINE
  5
BEB
330
5C0
100
AcDbEntity
  8
SUNPOU
100
AcDbLine
 10
241.601322848657
 20
289.4999999999999
 30
0.0
 11
276.248071530555
 21
289.4999999999999
 31
0.0
  0
LINE
  5
BEC
330
5C0
100
AcDbEntity
  8
SUNPOU
100
AcDbLine
 10
274.248071530555
 20
297.5
 30
0.0
 11
274.248071530555
 21
302.4999999999999
 31
0.0
  0
LINE
  5
BED
330
5C0
100
AcDbEntity
  8
SUNPOU
100
AcDbLine
 10
274.248071530555
 20
284.5
 30
0.0
 11
274.248071530555
 21
279.4999999999999
 31
0.0
  0
MTEXT
  5
BEE
330
5C0
100
AcDbEntity
  8
SUNPOU
 62
     6
100
AcDbMText
 10
279.9800977077598
 20
290.953429340077
 30
0.0
 40
5.0
 41
0.0
 71
     5
 72
     1
  1
\A1;3
  7
SUNPOU
 11
0.0000000000000001
 21
1.0
 31
0.0
1001
ACAD
1000
MTEXTBEGIN
1070
    73
1070
     1
1070
    44
1040
1.0
1070
    74
1070
     0
1000
MTEXTEND
1000
MTEXTBEGIN
1070
    73
1070
     1
1070
    44
1040
1.0
1070
    74
1070
     0
1000
MTEXTEND
  0
LINE
  5
BEF
330
5C0
100
AcDbEntity
  8
SUNPOU
100
AcDbLine
 10
274.248071530555
 20
292.5
 30
0.0
 11
274.248071530555
 21
289.4999999999999
 31
0.0
  0
INSERT
  5
BF0
330
5C0
100
AcDbEntity
  8
SUNPOU
100
AcDbBlockReference
  2
_OPEN30
 10
274.248071530555
 20
292.5
 30
0.0
 41
5.0
 42
5.0
 43
5.0
 50
270.0
  0
INSERT
  5
BF1
330
5C0
100
AcDbEntity
  8
SUNPOU
100
AcDbBlockReference
  2
_OPEN30
 10
274.248071530555
 20
289.4999999999999
 30
0.0
 41
5.0
 42
5.0
 43
5.0
 50
90.0
  0
POINT
  5
BF2
330
5C0
100
AcDbEntity
  8
DEFPOINTS
 62
     0
100
AcDbPoint
 10
238.6013228486569
 20
292.5
 30
0.0
  0
POINT
  5
BF3
330
5C0
100
AcDbEntity
  8
DEFPOINTS
 62
     0
100
AcDbPoint
 10
238.6013228486569
 20
289.4999999999999
 30
0.0
  0
POINT
  5
BF4
330
5C0
100
AcDbEntity
  8
DEFPOINTS
 62
     0
100
AcDbPoint
 10
274.248071530555
 20
289.4999999999999
 30
0.0
  0
ENDBLK
  5
5CD
330
5C0
100
AcDbEntity
  8
0
100
AcDbBlockEnd
  0
BLOCK
  5
5D9
330
5CF
100
AcDbEntity
  8
0
100
AcDbBlockBegin
  2
*D8
 70
     1
 10
0.0
 20
0.0
 30
0.0
  3
*D8
  1

  0
LINE
  5
C06
330
5CF
100
AcDbEntity
  8
SUNPOU
100
AcDbLine
 10
241.601322848657
 20
289.4999999999999
 30
0.0
 11
276.248071530555
 21
289.4999999999999
 31
0.0
  0
LINE
  5
C07
330
5CF
100
AcDbEntity
  8
SUNPOU
100
AcDbLine
 10
241.601322848657
 20
141.0
 30
0.0
 11
276.248071530555
 21
141.0
 31
0.0
  0
LINE
  5
C08
330
5CF
100
AcDbEntity
  8
SUNPOU
100
AcDbLine
 10
274.248071530555
 20
284.5
 30
0.0
 11
274.248071530555
 21
146.0
 31
0.0
  0
INSERT
  5
C09
330
5CF
100
AcDbEntity
  8
SUNPOU
100
AcDbBlockReference
  2
_OPEN30
 10
274.248071530555
 20
289.4999999999999
 30
0.0
 41
5.0
 42
5.0
 43
5.0
 50
90.0
  0
INSERT
  5
C0A
330
5CF
100
AcDbEntity
  8
SUNPOU
100
AcDbBlockReference
  2
_OPEN30
 10
274.248071530555
 20
141.0
 30
0.0
 41
5.0
 42
5.0
 43
5.0
 50
270.0
  0
MTEXT
  5
C0B
330
5CF
100
AcDbEntity
  8
SUNPOU
 62
     6
100
AcDbMText
 10
269.748071530555
 20
215.2499999999999
 30
0.0
 40
5.0
 41
0.0
 71
     5
 72
     1
  1
\A1;DW
  7
SUNPOU
 11
0.0000000000000001
 21
1.0
 31
0.0
1001
ACAD
1000
MTEXTBEGIN
1070
    73
1070
     1
1070
    44
1040
1.0
1070
    74
1070
     0
1000
MTEXTEND
1000
MTEXTBEGIN
1070
    73
1070
     1
1070
    44
1040
1.0
1070
    74
1070
     0
1000
MTEXTEND
  0
POINT
  5
C0C
330
5CF
100
AcDbEntity
  8
DEFPOINTS
 62
     0
100
AcDbPoint
 10
238.6013228486569
 20
289.4999999999999
 30
0.0
  0
POINT
  5
C0D
330
5CF
100
AcDbEntity
  8
DEFPOINTS
 62
     0
100
AcDbPoint
 10
238.6013228486569
 20
141.0
 30
0.0
  0
POINT
  5
C0E
330
5CF
100
AcDbEntity
  8
DEFPOINTS
 62
     0
100
AcDbPoint
 10
274.248071530555
 20
141.0
 30
0.0
  0
ENDBLK
  5
5DA
330
5CF
100
AcDbEntity
  8
0
100
AcDbBlockEnd
  0
BLOCK
  5
675
330
669
100
AcDbEntity
  8
0
100
AcDbBlockBegin
  2
*D9
 70
     1
 10
0.0
 20
0.0
 30
0.0
  3
*D9
  1

  0
LINE
  5
C77
330
669
100
AcDbEntity
  8
SUNPOU
100
AcDbLine
 10
148.6013228486569
 20
442.4999999999998
 30
0.0
 11
148.6013228486569
 21
460.175431481231
 31
0.0
  0
LINE
  5
C78
330
669
100
AcDbEntity
  8
SUNPOU
100
AcDbLine
 10
145.6013228486569
 20
461.1754314812309
 30
0.0
 11
145.6013228486569
 21
460.175431481231
 31
0.0
  0
LINE
  5
C79
330
669
100
AcDbEntity
  8
SUNPOU
100
AcDbLine
 10
153.6013228486569
 20
458.1754314812309
 30
0.0
 11
158.601322848657
 21
458.1754314812309
 31
0.0
  0
LINE
  5
C7A
330
669
100
AcDbEntity
  8
SUNPOU
100
AcDbLine
 10
140.6013228486569
 20
458.1754314812309
 30
0.0
 11
135.601322848657
 21
458.1754314812309
 31
0.0
  0
MTEXT
  5
C7B
330
669
100
AcDbEntity
  8
SUNPOU
 62
     6
100
AcDbMText
 10
142.2339273183316
 20
453.373843311414
 30
0.0
 40
5.0
 41
0.0
 71
     5
 72
     1
  1
\A1;3
  7
SUNPOU
 11
-1.0
 21
0.0000000000000001
 31
0.0
1001
ACAD
1000
MTEXTBEGIN
1070
    73
1070
     1
1070
    44
1040
1.0
1070
    74
1070
     0
1000
MTEXTEND
1000
MTEXTBEGIN
1070
    73
1070
     1
1070
    44
1040
1.0
1070
    74
1070
     0
1000
MTEXTEND
  0
LINE
  5
C7C
330
669
100
AcDbEntity
  8
SUNPOU
100
AcDbLine
 10
148.6013228486569
 20
458.1754314812309
 30
0.0
 11
145.6013228486569
 21
458.1754314812309
 31
0.0
  0
INSERT
  5
C7D
330
669
100
AcDbEntity
  8
SUNPOU
100
AcDbBlockReference
  2
_OPEN30
 10
148.6013228486569
 20
458.1754314812309
 30
0.0
 41
5.0
 42
5.0
 43
5.0
 50
180.0
  0
INSERT
  5
C7E
330
669
100
AcDbEntity
  8
SUNPOU
100
AcDbBlockReference
  2
_OPEN30
 10
145.6013228486569
 20
458.1754314812309
 30
0.0
 41
5.0
 42
5.0
 43
5.0
  0
POINT
  5
C7F
330
669
100
AcDbEntity
  8
DEFPOINTS
 62
     0
100
AcDbPoint
 10
148.6013228486569
 20
439.5
 30
0.0
  0
POINT
  5
C80
330
669
100
AcDbEntity
  8
DEFPOINTS
 62
     0
100
AcDbPoint
 10
145.6013228486569
 20
458.1754314812309
 30
0.0
  0
POINT
  5
C81
330
669
100
AcDbEntity
  8
DEFPOINTS
 62
     0
100
AcDbPoint
 10
145.6013228486569
 20
458.1754314812309
 30
0.0
  0
ENDBLK
  5
676
330
669
100
AcDbEntity
  8
0
100
AcDbBlockEnd
  0
BLOCK
  5
691
330
685
100
AcDbEntity
  8
0
100
AcDbBlockBegin
  2
*D10
 70
     1
 10
0.0
 20
0.0
 30
0.0
  3
*D10
  1

  0
LINE
  5
BE1
330
685
100
AcDbEntity
  8
SUNPOU
100
AcDbLine
 10
170.6013228486569
 20
442.4999999999998
 30
0.0
 11
170.6013228486569
 21
460.175431481231
 31
0.0
  0
LINE
  5
BE2
330
685
100
AcDbEntity
  8
SUNPOU
100
AcDbLine
 10
186.6013228486569
 20
442.4999999999998
 30
0.0
 11
186.6013228486569
 21
460.175431481231
 31
0.0
  0
LINE
  5
BE3
330
685
100
AcDbEntity
  8
SUNPOU
100
AcDbLine
 10
175.6013228486569
 20
458.1754314812309
 30
0.0
 11
181.6013228486569
 21
458.1754314812309
 31
0.0
  0
MTEXT
  5
BE4
330
685
100
AcDbEntity
  8
SUNPOU
 62
     6
100
AcDbMText
 10
178.5479179534429
 20
453.4576902537256
 30
0.0
 40
5.0
 41
0.0
 71
     5
 72
     1
  1
\A1;16
  7
SUNPOU
 11
-1.0
 21
0.0000000000000001
 31
0.0
1001
ACAD
1000
MTEXTBEGIN
1070
    73
1070
     1
1070
    44
1040
1.0
1070
    74
1070
     0
1000
MTEXTEND
1000
MTEXTBEGIN
1070
    73
1070
     1
1070
    44
1040
1.0
1070
    74
1070
     0
1000
MTEXTEND
  0
INSERT
  5
BE5
330
685
100
AcDbEntity
  8
SUNPOU
100
AcDbBlockReference
  2
_OPEN30
 10
170.6013228486569
 20
458.1754314812309
 30
0.0
 41
5.0
 42
5.0
 43
5.0
 50
180.0
  0
INSERT
  5
BE6
330
685
100
AcDbEntity
  8
SUNPOU
100
AcDbBlockReference
  2
_OPEN30
 10
186.6013228486569
 20
458.1754314812309
 30
0.0
 41
5.0
 42
5.0
 43
5.0
  0
POINT
  5
BE7
330
685
100
AcDbEntity
  8
DEFPOINTS
 62
     0
100
AcDbPoint
 10
170.6013228486569
 20
439.5
 30
0.0
  0
POINT
  5
BE8
330
685
100
AcDbEntity
  8
DEFPOINTS
 62
     0
100
AcDbPoint
 10
186.6013228486569
 20
439.5
 30
0.0
  0
POINT
  5
BE9
330
685
100
AcDbEntity
  8
DEFPOINTS
 62
     0
100
AcDbPoint
 10
186.6013228486569
 20
458.1754314812309
 30
0.0
  0
ENDBLK
  5
692
330
685
100
AcDbEntity
  8
0
100
AcDbBlockEnd
  0
BLOCK
  5
69E
330
694
100
AcDbEntity
  8
0
100
AcDbBlockBegin
  2
*D11
 70
     1
 10
0.0
 20
0.0
 30
0.0
  3
*D11
  1

  0
LINE
  5
B88
330
694
100
AcDbEntity
  8
SUNPOU
100
AcDbLine
 10
186.6013228486569
 20
442.4999999999998
 30
0.0
 11
186.6013228486569
 21
460.175431481231
 31
0.0
  0
LINE
  5
B89
330
694
100
AcDbEntity
  8
SUNPOU
100
AcDbLine
 10
205.6013228486569
 20
442.4999999999998
 30
0.0
 11
205.6013228486569
 21
460.175431481231
 31
0.0
  0
LINE
  5
B8A
330
694
100
AcDbEntity
  8
SUNPOU
100
AcDbLine
 10
191.6013228486569
 20
458.1754314812309
 30
0.0
 11
200.6013228486569
 21
458.1754314812309
 31
0.0
  0
MTEXT
  5
B8B
330
694
100
AcDbEntity
  8
SUNPOU
 62
     6
100
AcDbMText
 10
196.2080035484051
 20
453.3617808743828
 30
0.0
 40
5.0
 41
0.0
 71
     5
 72
     1
  1
\A1;19
  7
SUNPOU
 11
-1.0
 21
0.0000000000000001
 31
0.0
1001
ACAD
1000
MTEXTBEGIN
1070
    73
1070
     1
1070
    44
1040
1.0
1070
    74
1070
     0
1000
MTEXTEND
1000
MTEXTBEGIN
1070
    73
1070
     1
1070
    44
1040
1.0
1070
    74
1070
     0
1000
MTEXTEND
  0
INSERT
  5
B8C
330
694
100
AcDbEntity
  8
SUNPOU
100
AcDbBlockReference
  2
_OPEN30
 10
186.6013228486569
 20
458.1754314812309
 30
0.0
 41
5.0
 42
5.0
 43
5.0
 50
180.0
  0
INSERT
  5
B8D
330
694
100
AcDbEntity
  8
SUNPOU
100
AcDbBlockReference
  2
_OPEN30
 10
205.6013228486569
 20
458.1754314812309
 30
0.0
 41
5.0
 42
5.0
 43
5.0
  0
POINT
  5
B8E
330
694
100
AcDbEntity
  8
DEFPOINTS
 62
     0
100
AcDbPoint
 10
186.6013228486569
 20
439.5
 30
0.0
  0
POINT
  5
B8F
330
694
100
AcDbEntity
  8
DEFPOINTS
 62
     0
100
AcDbPoint
 10
205.6013228486569
 20
439.5
 30
0.0
  0
POINT
  5
B90
330
694
100
AcDbEntity
  8
DEFPOINTS
 62
     0
100
AcDbPoint
 10
205.6013228486569
 20
458.1754314812309
 30
0.0
  0
ENDBLK
  5
69F
330
694
100
AcDbEntity
  8
0
100
AcDbBlockEnd
  0
BLOCK
  5
6AD
330
6A1
100
AcDbEntity
  8
0
100
AcDbBlockBegin
  2
*D12
 70
     1
 10
0.0
 20
0.0
 30
0.0
  3
*D12
  1

  0
LINE
  5
B7D
330
6A1
100
AcDbEntity
  8
SUNPOU
100
AcDbLine
 10
205.6013228486569
 20
442.4999999999998
 30
0.0
 11
205.6013228486569
 21
460.175431481231
 31
0.0
  0
LINE
  5
B7E
330
6A1
100
AcDbEntity
  8
SUNPOU
100
AcDbLine
 10
210.601322848657
 20
444.0
 30
0.0
 11
210.601322848657
 21
460.175431481231
 31
0.0
  0
LINE
  5
B7F
330
6A1
100
AcDbEntity
  8
SUNPOU
100
AcDbLine
 10
200.6013228486569
 20
458.1754314812309
 30
0.0
 11
195.6013228486569
 21
458.1754314812309
 31
0.0
  0
LINE
  5
B80
330
6A1
100
AcDbEntity
  8
SUNPOU
100
AcDbLine
 10
215.6013228486569
 20
458.1754314812309
 30
0.0
 11
220.601322848657
 21
458.1754314812309
 31
0.0
  0
MTEXT
  5
B81
330
6A1
100
AcDbEntity
  8
SUNPOU
 62
     6
100
AcDbMText
 10
208.1421128310645
 20
453.3617808743828
 30
0.0
 40
5.0
 41
0.0
 71
     5
 72
     1
  1
\A1;5
  7
SUNPOU
 11
-1.0
 21
0.0000000000000001
 31
0.0
1001
ACAD
1000
MTEXTBEGIN
1070
    73
1070
     1
1070
    44
1040
1.0
1070
    74
1070
     0
1000
MTEXTEND
1000
MTEXTBEGIN
1070
    73
1070
     1
1070
    44
1040
1.0
1070
    74
1070
     0
1000
MTEXTEND
  0
LINE
  5
B82
330
6A1
100
AcDbEntity
  8
SUNPOU
100
AcDbLine
 10
205.6013228486569
 20
458.1754314812309
 30
0.0
 11
210.601322848657
 21
458.1754314812309
 31
0.0
  0
INSERT
  5
B83
330
6A1
100
AcDbEntity
  8
SUNPOU
100
AcDbBlockReference
  2
_OPEN30
 10
205.6013228486569
 20
458.1754314812309
 30
0.0
 41
5.0
 42
5.0
 43
5.0
  0
INSERT
  5
B84
330
6A1
100
AcDbEntity
  8
SUNPOU
100
AcDbBlockReference
  2
_OPEN30
 10
210.601322848657
 20
458.1754314812309
 30
0.0
 41
5.0
 42
5.0
 43
5.0
 50
180.0
  0
POINT
  5
B85
330
6A1
100
AcDbEntity
  8
DEFPOINTS
 62
     0
100
AcDbPoint
 10
205.6013228486569
 20
439.5
 30
0.0
  0
POINT
  5
B86
330
6A1
100
AcDbEntity
  8
DEFPOINTS
 62
     0
100
AcDbPoint
 10
210.601322848657
 20
441.0
 30
0.0
  0
POINT
  5
B87
330
6A1
100
AcDbEntity
  8
DEFPOINTS
 62
     0
100
AcDbPoint
 10
210.601322848657
 20
458.1754314812309
 30
0.0
  0
ENDBLK
  5
6AE
330
6A1
100
AcDbEntity
  8
0
100
AcDbBlockEnd
  0
BLOCK
  5
6BA
330
6B0
100
AcDbEntity
  8
0
100
AcDbBlockBegin
  2
*D13
 70
     1
 10
0.0
 20
0.0
 30
0.0
  3
*D13
  1

  0
LINE
  5
C0F
330
6B0
100
AcDbEntity
  8
SUNPOU
100
AcDbLine
 10
210.601322848657
 20
444.0
 30
0.0
 11
210.601322848657
 21
460.175431481231
 31
0.0
  0
LINE
  5
C10
330
6B0
100
AcDbEntity
  8
SUNPOU
100
AcDbLine
 10
238.6013228486569
 20
444.0
 30
0.0
 11
238.6013228486569
 21
460.175431481231
 31
0.0
  0
LINE
  5
C11
330
6B0
100
AcDbEntity
  8
SUNPOU
100
AcDbLine
 10
215.6013228486569
 20
458.1754314812309
 30
0.0
 11
233.601322848657
 21
458.1754314812309
 31
0.0
  0
MTEXT
  5
C12
330
6B0
100
AcDbEntity
  8
SUNPOU
 62
     6
100
AcDbMText
 10
224.7362046522631
 20
453.3617808743828
 30
0.0
 40
5.0
 41
0.0
 71
     5
 72
     1
  1
\A1;28
  7
SUNPOU
 11
-1.0
 21
0.0000000000000001
 31
0.0
1001
ACAD
1000
MTEXTBEGIN
1070
    73
1070
     1
1070
    44
1040
1.0
1070
    74
1070
     0
1000
MTEXTEND
1000
MTEXTBEGIN
1070
    73
1070
     1
1070
    44
1040
1.0
1070
    74
1070
     0
1000
MTEXTEND
  0
INSERT
  5
C13
330
6B0
100
AcDbEntity
  8
SUNPOU
100
AcDbBlockReference
  2
_OPEN30
 10
210.601322848657
 20
458.1754314812309
 30
0.0
 41
5.0
 42
5.0
 43
5.0
 50
180.0
  0
INSERT
  5
C14
330
6B0
100
AcDbEntity
  8
SUNPOU
100
AcDbBlockReference
  2
_OPEN30
 10
238.6013228486569
 20
458.1754314812309
 30
0.0
 41
5.0
 42
5.0
 43
5.0
  0
POINT
  5
C15
330
6B0
100
AcDbEntity
  8
DEFPOINTS
 62
     0
100
AcDbPoint
 10
210.601322848657
 20
441.0
 30
0.0
  0
POINT
  5
C16
330
6B0
100
AcDbEntity
  8
DEFPOINTS
 62
     0
100
AcDbPoint
 10
238.6013228486569
 20
441.0
 30
0.0
  0
POINT
  5
C17
330
6B0
100
AcDbEntity
  8
DEFPOINTS
 62
     0
100
AcDbPoint
 10
238.6013228486569
 20
458.1754314812309
 30
0.0
  0
ENDBLK
  5
6BB
330
6B0
100
AcDbEntity
  8
0
100
AcDbBlockEnd
  0
BLOCK
  5
744
330
73A
100
AcDbEntity
  8
0
100
AcDbBlockBegin
  2
*D14
 70
     1
 10
0.0
 20
0.0
 30
0.0
  3
*D14
  1

  0
LINE
  5
CD7
330
73A
100
AcDbEntity
  8
SUNPOU
100
AcDbLine
 10
148.6013228486569
 20
442.4999999999998
 30
0.0
 11
148.6013228486569
 21
460.175431481231
 31
0.0
  0
LINE
  5
CD8
330
73A
100
AcDbEntity
  8
SUNPOU
100
AcDbLine
 10
170.6013228486569
 20
442.4999999999998
 30
0.0
 11
170.6013228486569
 21
460.175431481231
 31
0.0
  0
LINE
  5
CD9
330
73A
100
AcDbEntity
  8
SUNPOU
100
AcDbLine
 10
148.6013228486569
 20
458.1754314812309
 30
0.0
 11
165.6013228486569
 21
458.1754314812309
 31
0.0
  0
MTEXT
  5
CDA
330
73A
100
AcDbEntity
  8
SUNPOU
 62
     6
100
AcDbMText
 10
159.601322848657
 20
453.4903410585298
 30
0.0
 40
5.0
 41
0.0
 71
     5
 72
     1
  1
\A1;22
  7
SUNPOU
 11
-1.0
 21
0.0000000000000001
 31
0.0
1001
ACAD
1000
MTEXTBEGIN
1070
    73
1070
     1
1070
    44
1040
1.0
1070
    74
1070
     0
1000
MTEXTEND
1000
MTEXTBEGIN
1070
    73
1070
     1
1070
    44
1040
1.0
1070
    74
1070
     0
1000
MTEXTEND
  0
INSERT
  5
CDB
330
73A
100
AcDbEntity
  8
SUNPOU
100
AcDbBlockReference
  2
_OPEN30
 10
170.6013228486569
 20
458.1754314812309
 30
0.0
 41
5.0
 42
5.0
 43
5.0
  0
POINT
  5
CDC
330
73A
100
AcDbEntity
  8
DEFPOINTS
 62
     0
100
AcDbPoint
 10
148.6013228486569
 20
439.5
 30
0.0
  0
POINT
  5
CDD
330
73A
100
AcDbEntity
  8
DEFPOINTS
 62
     0
100
AcDbPoint
 10
170.6013228486569
 20
439.5
 30
0.0
  0
POINT
  5
CDE
330
73A
100
AcDbEntity
  8
DEFPOINTS
 62
     0
100
AcDbPoint
 10
170.6013228486569
 20
458.1754314812309
 30
0.0
  0
ENDBLK
  5
745
330
73A
100
AcDbEntity
  8
0
100
AcDbBlockEnd
  0
BLOCK
  5
7CB
330
7C2
100
AcDbEntity
  8
0
100
AcDbBlockBegin
  2
*D15
 70
     1
 10
0.0
 20
0.0
 30
0.0
  3
*D15
  1

  0
LINE
  5
C5F
330
7C2
100
AcDbEntity
  8
SUNPOU
100
AcDbLine
 10
185.5242970472259
 20
178.0748502210465
 30
0.0
 11
189.352921682939
 21
181.290691230613
 31
0.0
  0
LINE
  5
C60
330
7C2
100
AcDbEntity
  8
SUNPOU
100
AcDbLine
 10
168.6783486500881
 20
163.9251497789534
 30
0.0
 11
164.849724014375
 21
160.7093087693868
 31
0.0
  0
LINE
  5
C61
330
7C2
100
AcDbEntity
  8
SUNPOU
100
AcDbLine
 10
181.6956724115127
 20
174.8590092114798
 30
0.0
 11
172.5069732858012
 21
167.1409907885199
 31
0.0
  0
INSERT
  5
C62
330
7C2
100
AcDbEntity
  8
SUNPOU
100
AcDbBlockReference
  2
_OPEN30
 10
181.6956724115127
 20
174.8590092114798
 30
0.0
 41
5.0
 42
5.0
 43
5.0
 50
220.0284720771738
  0
INSERT
  5
C63
330
7C2
100
AcDbEntity
  8
SUNPOU
100
AcDbBlockReference
  2
_OPEN30
 10
172.5069732858012
 20
167.1409907885199
 30
0.0
 41
5.0
 42
5.0
 43
5.0
 50
40.02847207717386
  0
POINT
  5
C64
330
7C2
100
AcDbEntity
  8
DEFPOINTS
 62
     0
100
AcDbPoint
 10
172.5069732858012
 20
167.1409907885199
 30
0.0
  0
POINT
  5
C65
330
7C2
100
AcDbEntity
  8
DEFPOINTS
 62
     0
100
AcDbPoint
 10
181.6956724115127
 20
174.8590092114798
 30
0.0
  0
ENDBLK
  5
7CC
330
7C2
100
AcDbEntity
  8
0
100
AcDbBlockEnd
  0
BLOCK
  5
7E6
330
7E5
100
AcDbEntity
  8
0
100
AcDbBlockBegin
  2
_NONE
 70
     0
 10
0.0
 20
0.0
 30
0.0
  3
_NONE
  1

  0
ENDBLK
  5
7E7
330
7E5
100
AcDbEntity
  8
0
100
AcDbBlockEnd
  0
BLOCK
  5
7F2
330
7E9
100
AcDbEntity
  8
0
100
AcDbBlockBegin
  2
*D17
 70
     1
 10
0.0
 20
0.0
 30
0.0
  3
*D17
  1

  0
LINE
  5
CDF
330
7E9
100
AcDbEntity
  8
SUNPOU
100
AcDbLine
 10
185.9182327145149
 20
404.4226068676613
 30
0.0
 11
189.9259190171778
 21
401.4328827165985
 31
0.0
  0
LINE
  5
CE0
330
7E9
100
AcDbEntity
  8
SUNPOU
100
AcDbLine
 10
168.2844129827989
 20
417.5773931323387
 30
0.0
 11
164.2767266801361
 21
420.5671172834017
 31
0.0
  0
LINE
  5
CE1
330
7E9
100
AcDbEntity
  8
SUNPOU
100
AcDbLine
 10
181.9105464118522
 20
407.4123310187244
 30
0.0
 11
172.2920992854616
 21
414.5876689812757
 31
0.0
  0
INSERT
  5
CE2
330
7E9
100
AcDbEntity
  8
SUNPOU
100
AcDbBlockReference
  2
_OPEN30
 10
181.9105464118522
 20
407.4123310187244
 30
0.0
 41
5.0
 42
5.0
 43
5.0
 50
143.2771516839059
  0
INSERT
  5
CE3
330
7E9
100
AcDbEntity
  8
SUNPOU
100
AcDbBlockReference
  2
_OPEN30
 10
172.2920992854616
 20
414.5876689812757
 30
0.0
 41
5.0
 42
5.0
 43
5.0
 50
323.2771516839058
  0
POINT
  5
CE4
330
7E9
100
AcDbEntity
  8
DEFPOINTS
 62
     0
100
AcDbPoint
 10
172.2920992854616
 20
414.5876689812757
 30
0.0
  0
POINT
  5
CE5
330
7E9
100
AcDbEntity
  8
DEFPOINTS
 62
     0
100
AcDbPoint
 10
181.9105464118522
 20
407.4123310187244
 30
0.0
  0
ENDBLK
  5
7F3
330
7E9
100
AcDbEntity
  8
0
100
AcDbBlockEnd
  0
BLOCK
  5
847
330
83D
100
AcDbEntity
  8
0
100
AcDbBlockBegin
  2
*D18
 70
     1
 10
0.0
 20
0.0
 30
0.0
  3
*D18
  1

  0
LINE
  5
C6E
330
83D
100
AcDbEntity
  8
SUNPOU
100
AcDbLine
 10
264.101322848657
 20
561.0
 30
0.0
 11
301.0828694215919
 21
561.0
 31
0.0
  0
LINE
  5
C6F
330
83D
100
AcDbEntity
  8
SUNPOU
100
AcDbLine
 10
296.0828694215919
 20
531.0
 30
0.0
 11
297.0828694215919
 21
531.0
 31
0.0
  0
LINE
  5
C70
330
83D
100
AcDbEntity
  8
SUNPOU
100
AcDbLine
 10
299.0828694215919
 20
556.0
 30
0.0
 11
299.0828694215919
 21
536.0
 31
0.0
  0
INSERT
  5
C71
330
83D
100
AcDbEntity
  8
SUNPOU
100
AcDbBlockReference
  2
_OPEN30
 10
299.0828694215919
 20
561.0
 30
0.0
 41
5.0
 42
5.0
 43
5.0
 50
90.0
  0
INSERT
  5
C72
330
83D
100
AcDbEntity
  8
SUNPOU
100
AcDbBlockReference
  2
_OPEN30
 10
299.0828694215919
 20
531.0
 30
0.0
 41
5.0
 42
5.0
 43
5.0
 50
270.0
  0
MTEXT
  5
C73
330
83D
100
AcDbEntity
  8
SUNPOU
 62
     6
100
AcDbMText
 10
294.5828694215918
 20
546.0
 30
0.0
 40
5.0
 41
0.0
 71
     5
 72
     1
  1
\A1;30
  7
SUNPOU
 11
0.0000000000000001
 21
1.0
 31
0.0
1001
ACAD
1000
MTEXTBEGIN
1070
    73
1070
     1
1070
    44
1040
1.0
1070
    74
1070
     0
1000
MTEXTEND
1000
MTEXTBEGIN
1070
    73
1070
     1
1070
    44
1040
1.0
1070
    74
1070
     0
1000
MTEXTEND
  0
POINT
  5
C74
330
83D
100
AcDbEntity
  8
DEFPOINTS
 62
     0
100
AcDbPoint
 10
261.1013228486569
 20
561.0
 30
0.0
  0
POINT
  5
C75
330
83D
100
AcDbEntity
  8
DEFPOINTS
 62
     0
100
AcDbPoint
 10
299.0828694215919
 20
531.0
 30
0.0
  0
POINT
  5
C76
330
83D
100
AcDbEntity
  8
DEFPOINTS
 62
     0
100
AcDbPoint
 10
299.0828694215919
 20
531.0
 30
0.0
  0
ENDBLK
  5
848
330
83D
100
AcDbEntity
  8
0
100
AcDbBlockEnd
  0
BLOCK
  5
854
330
84A
100
AcDbEntity
  8
0
100
AcDbBlockBegin
  2
*D19
 70
     1
 10
0.0
 20
0.0
 30
0.0
  3
*D19
  1

  0
LINE
  5
C66
330
84A
100
AcDbEntity
  8
SUNPOU
100
AcDbLine
 10
296.0828694215919
 20
531.0
 30
0.0
 11
297.0828694215919
 21
531.0
 31
0.0
  0
LINE
  5
C67
330
84A
100
AcDbEntity
  8
SUNPOU
100
AcDbLine
 10
299.0828694215919
 20
526.0
 30
0.0
 11
299.0828694215918
 21
89.69068541300524
 31
0.0
  0
MTEXT
  5
C68
330
84A
100
AcDbEntity
  8
SUNPOU
 62
     6
100
AcDbMText
 10
292.7349102633109
 20
291.4195321990439
 30
0.0
 40
5.0
 41
0.0
 71
     5
 72
     1
  1
\A1;W
  7
SUNPOU
 11
0.0000000000000001
 21
1.0
 31
0.0
1001
ACAD
1000
MTEXTBEGIN
1070
    73
1070
     1
1070
    44
1040
1.0
1070
    74
1070
     0
1000
MTEXTEND
1000
MTEXTBEGIN
1070
    73
1070
     1
1070
    44
1040
1.0
1070
    74
1070
     0
1000
MTEXTEND
  0
INSERT
  5
C69
330
84A
100
AcDbEntity
  8
SUNPOU
100
AcDbBlockReference
  2
_OPEN30
 10
299.0828694215919
 20
531.0
 30
0.0
 41
5.0
 42
5.0
 43
5.0
 50
90.0
  0
INSERT
  5
C6A
330
84A
100
AcDbEntity
  8
SUNPOU
100
AcDbBlockReference
  2
_OPEN30
 10
299.0828694215918
 20
84.69068541300524
 30
0.0
 41
5.0
 42
5.0
 43
5.0
 50
270.0
  0
POINT
  5
C6B
330
84A
100
AcDbEntity
  8
DEFPOINTS
 62
     0
100
AcDbPoint
 10
299.0828694215919
 20
531.0
 30
0.0
  0
POINT
  5
C6C
330
84A
100
AcDbEntity
  8
DEFPOINTS
 62
     0
100
AcDbPoint
 10
299.0828694215919
 20
84.69068541300524
 30
0.0
  0
POINT
  5
C6D
330
84A
100
AcDbEntity
  8
DEFPOINTS
 62
     0
100
AcDbPoint
 10
299.0828694215918
 20
84.69068541300524
 30
0.0
  0
ENDBLK
  5
855
330
84A
100
AcDbEntity
  8
0
100
AcDbBlockEnd
  0
BLOCK
  5
D02
330
CF5
100
AcDbEntity
  8
0
100
AcDbBlockBegin
  2
*X20
 70
     1
 10
0.0
 20
0.0
 30
0.0
  3
*X20
  1

  0
LINE
  5
CF6
330
CF5
100
AcDbEntity
  8
0
  6
CONTINUOUS
 62
     0
100
AcDbLine
 10
231.3751346015618
 20
291.0
 30
0.0
 11
229.8751346015619
 21
292.5
 31
0.0
  0
LINE
  5
CF7
330
CF5
100
AcDbEntity
  8
0
  6
CONTINUOUS
 62
     0
100
AcDbLine
 10
232.1013228486569
 20
290.2738117529048
 30
0.0
 11
231.375134601562
 21
291.0
 31
0.0
  0
LINE
  5
CF8
330
CF5
100
AcDbEntity
  8
0
  6
CONTINUOUS
 62
     0
100
AcDbLine
 10
228.7234841721124
 20
290.9999999999998
 30
0.0
 11
227.2234841721123
 21
292.5
 31
0.0
  0
LINE
  5
CF9
330
CF5
100
AcDbEntity
  8
0
  6
CONTINUOUS
 62
     0
100
AcDbLine
 10
230.2234841721122
 20
289.4999999999999
 30
0.0
 11
228.7234841721124
 21
290.9999999999998
 31
0.0
  0
LINE
  5
CFA
330
CF5
100
AcDbEntity
  8
0
  6
CONTINUOUS
 62
     0
100
AcDbLine
 10
226.0718337426628
 20
290.9999999999998
 30
0.0
 11
224.5718337426628
 21
292.5
 31
0.0
  0
LINE
  5
CFB
330
CF5
100
AcDbEntity
  8
0
  6
CONTINUOUS
 62
     0
100
AcDbLine
 10
227.5718337426628
 20
289.4999999999999
 30
0.0
 11
226.0718337426628
 21
290.9999999999998
 31
0.0
  0
LINE
  5
CFC
330
CF5
100
AcDbEntity
  8
0
  6
CONTINUOUS
 62
     0
100
AcDbLine
 10
223.4201833132133
 20
290.9999999999998
 30
0.0
 11
221.9201833132133
 21
292.5
 31
0.0
  0
LINE
  5
CFD
330
CF5
100
AcDbEntity
  8
0
  6
CONTINUOUS
 62
     0
100
AcDbLine
 10
224.9201833132131
 20
289.4999999999999
 30
0.0
 11
223.4201833132133
 21
290.9999999999998
 31
0.0
  0
LINE
  5
CFE
330
CF5
100
AcDbEntity
  8
0
  6
CONTINUOUS
 62
     0
100
AcDbLine
 10
220.7685328837637
 20
291.0
 30
0.0
 11
219.2685328837637
 21
292.5
 31
0.0
  0
LINE
  5
CFF
330
CF5
100
AcDbEntity
  8
0
  6
CONTINUOUS
 62
     0
100
AcDbLine
 10
222.2685328837636
 20
289.4999999999999
 30
0.0
 11
220.7685328837638
 21
290.9999999999998
 31
0.0
  0
LINE
  5
D00
330
CF5
100
AcDbEntity
  8
0
  6
CONTINUOUS
 62
     0
100
AcDbLine
 10
218.1168824543141
 20
290.9999999999998
 30
0.0
 11
217.1013228486569
 21
292.0155596056571
 31
0.0
  0
LINE
  5
D01
330
CF5
100
AcDbEntity
  8
0
  6
CONTINUOUS
 62
     0
100
AcDbLine
 10
219.6168824543141
 20
289.4999999999999
 30
0.0
 11
218.1168824543141
 21
290.9999999999998
 31
0.0
  0
ENDBLK
  5
D03
330
CF5
100
AcDbEntity
  8
0
100
AcDbBlockEnd
  0
ENDSEC
  0
SECTION
  2
ENTITIES
  0
LINE
  5
1D0
330
A
100
AcDbEntity
  8
03
100
AcDbLine
 10
148.6013228486569
 20
392.5
 30
0.0
 11
148.6013228486569
 21
439.5
 31
0.0
  0
LINE
  5
1D1
330
A
100
AcDbEntity
  8
03
100
AcDbLine
 10
205.6013228486569
 20
439.5
 30
0.0
 11
205.6013228486569
 21
392.5
 31
0.0
  0
LINE
  5
1D2
330
A
100
AcDbEntity
  8
03
100
AcDbLine
 10
142.6013228486569
 20
532.5
 30
0.0
 11
142.6013228486569
 21
559.4999999999998
 31
0.0
  0
LINE
  5
1D3
330
A
100
AcDbEntity
  8
03
100
AcDbLine
 10
262.601322848657
 20
559.4999999999998
 30
0.0
 11
262.601322848657
 21
532.5
 31
0.0
  0
LINE
  5
1D4
330
A
100
AcDbEntity
  8
03
100
AcDbLine
 10
150.101322848657
 20
392.5
 30
0.0
 11
150.101322848657
 21
439.5
 31
0.0
  0
LINE
  5
1D5
330
A
100
AcDbEntity
  8
03
100
AcDbLine
 10
204.101322848657
 20
439.5
 30
0.0
 11
204.101322848657
 21
392.5
 31
0.0
  0
LINE
  5
1D6
330
A
100
AcDbEntity
  8
03
100
AcDbLine
 10
170.6013228486569
 20
439.5
 30
0.0
 11
170.6013228486569
 21
426.0
 31
0.0
  0
LINE
  5
1D7
330
A
100
AcDbEntity
  8
03
100
AcDbLine
 10
170.6013228486569
 20
426.0
 30
0.0
 11
186.6013228486569
 21
426.0
 31
0.0
  0
LINE
  5
1D8
330
A
100
AcDbEntity
  8
03
100
AcDbLine
 10
186.6013228486569
 20
424.5
 30
0.0
 11
186.6013228486569
 21
439.5
 31
0.0
  0
LINE
  5
1D9
330
A
100
AcDbEntity
  8
03
100
AcDbLine
 10
169.1013228486569
 20
439.5
 30
0.0
 11
169.1013228486569
 21
426.0
 31
0.0
  0
LINE
  5
1DA
330
A
100
AcDbEntity
  8
03
100
AcDbLine
 10
170.6013228486569
 20
424.5
 30
0.0
 11
186.6013228486569
 21
424.5
 31
0.0
  0
LINE
  5
1DB
330
A
100
AcDbEntity
  8
03
100
AcDbLine
 10
188.1013228486569
 20
424.5
 30
0.0
 11
188.1013228486569
 21
439.5
 31
0.0
  0
LINE
  5
1DC
330
A
100
AcDbEntity
  8
03
100
AcDbLine
 10
150.101322848657
 20
441.0
 30
0.0
 11
169.1013228486569
 21
441.0
 31
0.0
  0
LINE
  5
1DD
330
A
100
AcDbEntity
  8
03
100
AcDbLine
 10
188.1013228486569
 20
441.0
 30
0.0
 11
204.101322848657
 21
441.0
 31
0.0
  0
LINE
  5
1DE
330
A
100
AcDbEntity
  8
03
100
AcDbLine
 10
150.101322848657
 20
439.5
 30
0.0
 11
169.1013228486569
 21
439.5
 31
0.0
  0
LINE
  5
1DF
330
A
100
AcDbEntity
  8
03
100
AcDbLine
 10
188.1013228486569
 20
439.5
 30
0.0
 11
204.101322848657
 21
439.5
 31
0.0
  0
ARC
  5
1E0
330
A
100
AcDbEntity
  8
03
100
AcDbCircle
 10
150.101322848657
 20
439.5
 30
0.0
 40
1.5
100
AcDbArc
 50
90.0
 51
180.0
  0
ARC
  5
1E1
330
A
100
AcDbEntity
  8
03
100
AcDbCircle
 10
150.101322848657
 20
392.5
 30
0.0
 40
1.5
100
AcDbArc
 50
180.0
 51
270.0
  0
ARC
  5
1E2
330
A
100
AcDbEntity
  8
03
100
AcDbCircle
 10
204.101322848657
 20
392.5
 30
0.0
 40
1.5
100
AcDbArc
 50
270.0
 51
0.0
  0
ARC
  5
1E3
330
A
100
AcDbEntity
  8
03
100
AcDbCircle
 10
204.101322848657
 20
439.5
 30
0.0
 40
1.5
100
AcDbArc
 50
0.0
 51
90.0
  0
ARC
  5
1E4
330
A
100
AcDbEntity
  8
03
100
AcDbCircle
 10
188.1013228486569
 20
439.5
 30
0.0
 40
1.5
100
AcDbArc
 50
90.0
 51
180.0
  0
ARC
  5
1E5
330
A
100
AcDbEntity
  8
03
100
AcDbCircle
 10
169.1013228486569
 20
439.5
 30
0.0
 40
1.5
100
AcDbArc
 50
0.0
 51
90.0
  0
ARC
  5
1E6
330
A
100
AcDbEntity
  8
03
100
AcDbCircle
 10
170.6013228486569
 20
426.0
 30
0.0
 40
1.5
100
AcDbArc
 50
180.0
 51
270.0
  0
LINE
  5
1E7
330
A
100
AcDbEntity
  8
03
100
AcDbLine
 10
186.6013228486569
 20
423.0
 30
0.0
 11
170.6013228486569
 21
423.0
 31
0.0
  0
LINE
  5
1E8
330
A
100
AcDbEntity
  8
03
100
AcDbLine
 10
170.6013228486569
 20
423.0
 30
0.0
 11
170.6013228486569
 21
424.5
 31
0.0
  0
ARC
  5
1E9
330
A
100
AcDbEntity
  8
03
100
AcDbCircle
 10
186.6013228486569
 20
424.5
 30
0.0
 40
1.5
100
AcDbArc
 50
270.0
 51
0.0
  0
LINE
  5
1EA
330
A
100
AcDbEntity
  8
03
100
AcDbLine
 10
204.101322848657
 20
391.0
 30
0.0
 11
183.1013228486569
 21
391.0
 31
0.0
  0
LINE
  5
1EB
330
A
100
AcDbEntity
  8
03
100
AcDbLine
 10
171.101322848657
 20
391.0
 30
0.0
 11
150.101322848657
 21
391.0
 31
0.0
  0
LINE
  5
1EC
330
A
100
AcDbEntity
  8
03
100
AcDbLine
 10
204.101322848657
 20
392.5
 30
0.0
 11
183.1013228486569
 21
392.5
 31
0.0
  0
LINE
  5
1ED
330
A
100
AcDbEntity
  8
03
100
AcDbLine
 10
171.101322848657
 20
392.5
 30
0.0
 11
150.101322848657
 21
392.5
 31
0.0
  0
LINE
  5
1EE
330
A
100
AcDbEntity
  8
03
100
AcDbLine
 10
144.1013228486569
 20
532.5
 30
0.0
 11
144.1013228486569
 21
559.4999999999998
 31
0.0
  0
LINE
  5
1EF
330
A
100
AcDbEntity
  8
03
100
AcDbLine
 10
261.1013228486569
 20
559.4999999999998
 30
0.0
 11
261.1013228486569
 21
532.5
 31
0.0
  0
LINE
  5
1F0
330
A
100
AcDbEntity
  8
03
100
AcDbLine
 10
144.1013228486569
 20
561.0
 30
0.0
 11
157.6013228486569
 21
561.0
 31
0.0
  0
LINE
  5
1F1
330
A
100
AcDbEntity
  8
03
100
AcDbLine
 10
247.601322848657
 20
561.0
 30
0.0
 11
261.1013228486569
 21
561.0
 31
0.0
  0
LINE
  5
1F2
330
A
100
AcDbEntity
  8
03
100
AcDbLine
 10
144.1013228486569
 20
559.4999999999998
 30
0.0
 11
157.6013228486569
 21
559.4999999999998
 31
0.0
  0
LINE
  5
1F3
330
A
100
AcDbEntity
  8
03
100
AcDbLine
 10
247.601322848657
 20
559.4999999999998
 30
0.0
 11
261.1013228486569
 21
559.4999999999998
 31
0.0
  0
LINE
  5
1F4
330
A
100
AcDbEntity
  8
03
100
AcDbLine
 10
157.6013228486569
 20
559.4999999999998
 30
0.0
 11
157.6013228486569
 21
561.0
 31
0.0
  0
LINE
  5
1F5
330
A
100
AcDbEntity
  8
03
100
AcDbLine
 10
247.601322848657
 20
559.4999999999998
 30
0.0
 11
247.601322848657
 21
561.0
 31
0.0
  0
LINE
  5
1F6
330
A
100
AcDbEntity
  8
06
100
AcDbLine
 10
238.6013228486569
 20
292.5
 30
0.0
 11
210.601322848657
 21
292.5
 31
0.0
  0
LINE
  5
1F7
330
A
100
AcDbEntity
  8
06
100
AcDbLine
 10
210.601322848657
 20
441.0
 30
0.0
 11
238.6013228486569
 21
441.0
 31
0.0
  0
ARC
  5
1F8
330
A
100
AcDbEntity
  8
03
100
AcDbCircle
 10
144.1013228486569
 20
559.4999999999998
 30
0.0
 40
1.5
100
AcDbArc
 50
90.0
 51
180.0
  0
ARC
  5
1F9
330
A
100
AcDbEntity
  8
03
100
AcDbCircle
 10
144.1013228486569
 20
532.5
 30
0.0
 40
1.5
100
AcDbArc
 50
180.0
 51
270.0
  0
ARC
  5
1FA
330
A
100
AcDbEntity
  8
03
100
AcDbCircle
 10
261.1013228486569
 20
532.5
 30
0.0
 40
1.5
100
AcDbArc
 50
270.0
 51
0.0
  0
ARC
  5
1FB
330
A
100
AcDbEntity
  8
03
100
AcDbCircle
 10
261.1013228486569
 20
559.4999999999998
 30
0.0
 40
1.5
100
AcDbArc
 50
0.0
 51
90.0
  0
LINE
  5
1FC
330
A
100
AcDbEntity
  8
03
100
AcDbLine
 10
170.6013228486569
 20
532.5
 30
0.0
 11
170.6013228486569
 21
551.0
 31
0.0
  0
LINE
  5
1FD
330
A
100
AcDbEntity
  8
03
100
AcDbLine
 10
186.6013228486569
 20
532.5
 30
0.0
 11
186.6013228486569
 21
551.0
 31
0.0
  0
LINE
  5
1FE
330
A
100
AcDbEntity
  8
03
100
AcDbLine
 10
170.6013228486569
 20
551.0
 30
0.0
 11
186.6013228486569
 21
551.0
 31
0.0
  0
LINE
  5
1FF
330
A
100
AcDbEntity
  8
03
100
AcDbLine
 10
169.1013228486569
 20
532.5
 30
0.0
 11
169.1013228486569
 21
551.0
 31
0.0
  0
LINE
  5
200
330
A
100
AcDbEntity
  8
03
100
AcDbLine
 10
188.1013228486569
 20
532.5
 30
0.0
 11
188.1013228486569
 21
551.0
 31
0.0
  0
LINE
  5
201
330
A
100
AcDbEntity
  8
03
100
AcDbLine
 10
170.6013228486569
 20
552.5
 30
0.0
 11
186.6013228486569
 21
552.5
 31
0.0
  0
ARC
  5
202
330
A
100
AcDbEntity
  8
03
100
AcDbCircle
 10
186.6013228486569
 20
551.0
 30
0.0
 40
1.5
100
AcDbArc
 50
0.0
 51
90.0
  0
ARC
  5
203
330
A
100
AcDbEntity
  8
03
100
AcDbCircle
 10
170.6013228486569
 20
551.0
 30
0.0
 40
1.5
100
AcDbArc
 50
90.0
 51
180.0
  0
ARC
  5
204
330
A
100
AcDbEntity
  8
03
100
AcDbCircle
 10
169.1013228486569
 20
532.5
 30
0.0
 40
1.5
100
AcDbArc
 50
270.0
 51
0.0
  0
ARC
  5
205
330
A
100
AcDbEntity
  8
03
100
AcDbCircle
 10
188.1013228486569
 20
532.5
 30
0.0
 40
1.5
100
AcDbArc
 50
180.0
 51
270.0
  0
LINE
  5
206
330
A
100
AcDbEntity
  8
03
100
AcDbLine
 10
261.1013228486569
 20
531.0
 30
0.0
 11
188.1013228486569
 21
531.0
 31
0.0
  0
LINE
  5
207
330
A
100
AcDbEntity
  8
03
100
AcDbLine
 10
169.1013228486569
 20
531.0
 30
0.0
 11
144.1013228486569
 21
531.0
 31
0.0
  0
LINE
  5
208
330
A
100
AcDbEntity
  8
03
100
AcDbLine
 10
261.1013228486569
 20
532.5
 30
0.0
 11
188.1013228486569
 21
532.5
 31
0.0
  0
LINE
  5
209
330
A
100
AcDbEntity
  8
03
100
AcDbLine
 10
169.1013228486569
 20
532.5
 30
0.0
 11
144.1013228486569
 21
532.5
 31
0.0
  0
LINE
  5
20A
330
A
100
AcDbEntity
  8
03
100
AcDbLine
 10
148.6013228486569
 20
189.4999999999999
 30
0.0
 11
148.6013228486569
 21
142.5
 31
0.0
  0
LINE
  5
20B
330
A
100
AcDbEntity
  8
03
100
AcDbLine
 10
205.6013228486569
 20
142.5
 30
0.0
 11
205.6013228486569
 21
189.4999999999999
 31
0.0
  0
LINE
  5
20C
330
A
100
AcDbEntity
  8
03
100
AcDbLine
 10
150.101322848657
 20
189.4999999999999
 30
0.0
 11
150.101322848657
 21
142.5
 31
0.0
  0
LINE
  5
20D
330
A
100
AcDbEntity
  8
03
100
AcDbLine
 10
204.101322848657
 20
142.5
 30
0.0
 11
204.101322848657
 21
189.4999999999999
 31
0.0
  0
LINE
  5
20E
330
A
100
AcDbEntity
  8
03
100
AcDbLine
 10
170.6013228486569
 20
142.5
 30
0.0
 11
170.6013228486569
 21
156.0
 31
0.0
  0
LINE
  5
20F
330
A
100
AcDbEntity
  8
03
100
AcDbLine
 10
170.6013228486569
 20
156.0
 30
0.0
 11
186.6013228486569
 21
156.0
 31
0.0
  0
LINE
  5
210
330
A
100
AcDbEntity
  8
03
100
AcDbLine
 10
186.6013228486569
 20
157.5
 30
0.0
 11
186.6013228486569
 21
142.5
 31
0.0
  0
LINE
  5
211
330
A
100
AcDbEntity
  8
03
100
AcDbLine
 10
169.1013228486569
 20
142.5
 30
0.0
 11
169.1013228486569
 21
156.0
 31
0.0
  0
LINE
  5
212
330
A
100
AcDbEntity
  8
03
100
AcDbLine
 10
170.6013228486569
 20
157.5
 30
0.0
 11
186.6013228486569
 21
157.5
 31
0.0
  0
LINE
  5
213
330
A
100
AcDbEntity
  8
03
100
AcDbLine
 10
188.1013228486569
 20
157.5
 30
0.0
 11
188.1013228486569
 21
142.5
 31
0.0
  0
LINE
  5
214
330
A
100
AcDbEntity
  8
03
100
AcDbLine
 10
150.101322848657
 20
141.0
 30
0.0
 11
169.1013228486569
 21
141.0
 31
0.0
  0
LINE
  5
215
330
A
100
AcDbEntity
  8
03
100
AcDbLine
 10
188.1013228486569
 20
141.0
 30
0.0
 11
204.101322848657
 21
141.0
 31
0.0
  0
LINE
  5
216
330
A
100
AcDbEntity
  8
03
100
AcDbLine
 10
150.101322848657
 20
142.5
 30
0.0
 11
169.1013228486569
 21
142.5
 31
0.0
  0
LINE
  5
217
330
A
100
AcDbEntity
  8
03
100
AcDbLine
 10
188.1013228486569
 20
142.5
 30
0.0
 11
204.101322848657
 21
142.5
 31
0.0
  0
ARC
  5
218
330
A
100
AcDbEntity
  8
03
100
AcDbCircle
 10
150.101322848657
 20
142.5
 30
0.0
 40
1.5
100
AcDbArc
 50
180.0
 51
270.0
  0
ARC
  5
219
330
A
100
AcDbEntity
  8
03
100
AcDbCircle
 10
150.101322848657
 20
189.4999999999999
 30
0.0
 40
1.5
100
AcDbArc
 50
90.0
 51
180.0
  0
ARC
  5
21A
330
A
100
AcDbEntity
  8
03
100
AcDbCircle
 10
204.101322848657
 20
189.4999999999999
 30
0.0
 40
1.5
100
AcDbArc
 50
0.0
 51
90.0
  0
ARC
  5
21B
330
A
100
AcDbEntity
  8
03
100
AcDbCircle
 10
204.101322848657
 20
142.5
 30
0.0
 40
1.5
100
AcDbArc
 50
270.0
 51
0.0
  0
ARC
  5
21C
330
A
100
AcDbEntity
  8
03
100
AcDbCircle
 10
188.1013228486569
 20
142.5
 30
0.0
 40
1.5
100
AcDbArc
 50
180.0
 51
270.0
  0
ARC
  5
21D
330
A
100
AcDbEntity
  8
03
100
AcDbCircle
 10
169.1013228486569
 20
142.5
 30
0.0
 40
1.5
100
AcDbArc
 50
270.0
 51
0.0
  0
ARC
  5
21E
330
A
100
AcDbEntity
  8
03
100
AcDbCircle
 10
170.6013228486569
 20
156.0
 30
0.0
 40
1.5
100
AcDbArc
 50
90.0
 51
180.0
  0
LINE
  5
21F
330
A
100
AcDbEntity
  8
03
100
AcDbLine
 10
186.6013228486569
 20
159.0
 30
0.0
 11
170.6013228486569
 21
159.0
 31
0.0
  0
LINE
  5
220
330
A
100
AcDbEntity
  8
03
100
AcDbLine
 10
170.6013228486569
 20
159.0
 30
0.0
 11
170.6013228486569
 21
157.5
 31
0.0
  0
ARC
  5
221
330
A
100
AcDbEntity
  8
03
100
AcDbCircle
 10
186.6013228486569
 20
157.5
 30
0.0
 40
1.5
100
AcDbArc
 50
0.0
 51
90.0
  0
LINE
  5
222
330
A
100
AcDbEntity
  8
03
100
AcDbLine
 10
204.101322848657
 20
191.0
 30
0.0
 11
183.1013228486569
 21
191.0
 31
0.0
  0
LINE
  5
223
330
A
100
AcDbEntity
  8
03
100
AcDbLine
 10
171.101322848657
 20
191.0
 30
0.0
 11
150.101322848657
 21
191.0
 31
0.0
  0
LINE
  5
224
330
A
100
AcDbEntity
  8
03
100
AcDbLine
 10
204.101322848657
 20
189.4999999999999
 30
0.0
 11
183.1013228486569
 21
189.4999999999999
 31
0.0
  0
LINE
  5
225
330
A
100
AcDbEntity
  8
03
100
AcDbLine
 10
171.101322848657
 20
189.4999999999999
 30
0.0
 11
150.101322848657
 21
189.4999999999999
 31
0.0
  0
LINE
  5
226
330
A
100
AcDbEntity
  8
06
100
AcDbLine
 10
210.601322848657
 20
141.0
 30
0.0
 11
238.6013228486569
 21
141.0
 31
0.0
  0
LINE
  5
227
330
A
100
AcDbEntity
  8
06
100
AcDbLine
 10
238.6013228486569
 20
289.4999999999999
 30
0.0
 11
210.601322848657
 21
289.4999999999999
 31
0.0
  0
LINE
  5
228
330
A
100
AcDbEntity
  8
06
100
AcDbLine
 10
210.601322848657
 20
292.5
 30
0.0
 11
210.601322848657
 21
331.0
 31
0.0
  0
LINE
  5
229
330
A
100
AcDbEntity
  8
06
100
AcDbLine
 10
210.601322848657
 20
336.0
 30
0.0
 11
210.601322848657
 21
441.0
 31
0.0
  0
LINE
  5
22A
330
A
100
AcDbEntity
  8
06
100
AcDbLine
 10
238.6013228486569
 20
292.5
 30
0.0
 11
238.6013228486569
 21
331.0
 31
0.0
  0
LINE
  5
22B
330
A
100
AcDbEntity
  8
06
100
AcDbLine
 10
238.6013228486569
 20
336.0
 30
0.0
 11
238.6013228486569
 21
441.0
 31
0.0
  0
LINE
  5
22C
330
A
100
AcDbEntity
  8
06
100
AcDbLine
 10
210.601322848657
 20
141.0
 30
0.0
 11
210.601322848657
 21
246.0
 31
0.0
  0
LINE
  5
22D
330
A
100
AcDbEntity
  8
06
100
AcDbLine
 10
210.601322848657
 20
251.0
 30
0.0
 11
210.601322848657
 21
289.4999999999999
 31
0.0
  0
LINE
  5
22E
330
A
100
AcDbEntity
  8
06
100
AcDbLine
 10
238.6013228486569
 20
141.0
 30
0.0
 11
238.6013228486569
 21
246.0
 31
0.0
  0
LINE
  5
22F
330
A
100
AcDbEntity
  8
06
100
AcDbLine
 10
238.6013228486569
 20
251.0
 30
0.0
 11
238.6013228486569
 21
289.4999999999999
 31
0.0
  0
LINE
  5
230
330
A
100
AcDbEntity
  8
03
100
AcDbLine
 10
205.6013228486569
 20
251.0
 30
0.0
 11
205.6013228486569
 21
331.0
 31
0.0
  0
LINE
  5
231
330
A
100
AcDbEntity
  8
03
100
AcDbLine
 10
205.6013228486569
 20
336.0
 30
0.0
 11
205.6013228486569
 21
491.0
 31
0.0
  0
LINE
  5
232
330
A
100
AcDbEntity
  8
03
100
AcDbLine
 10
205.6013228486569
 20
496.0
 30
0.0
 11
205.6013228486569
 21
531.0
 31
0.0
  0
LINE
  5
233
330
A
100
AcDbEntity
  8
03
100
AcDbLine
 10
216.101322848657
 20
441.0
 30
0.0
 11
216.101322848657
 21
491.0
 31
0.0
  0
LINE
  5
234
330
A
100
AcDbEntity
  8
03
100
AcDbLine
 10
216.101322848657
 20
496.0
 30
0.0
 11
216.101322848657
 21
531.0
 31
0.0
  0
LINE
  5
235
330
A
100
AcDbEntity
  8
03
100
AcDbLine
 10
233.101322848657
 20
441.0
 30
0.0
 11
233.101322848657
 21
491.0
 31
0.0
  0
LINE
  5
236
330
A
100
AcDbEntity
  8
03
100
AcDbLine
 10
233.101322848657
 20
496.0
 30
0.0
 11
233.101322848657
 21
531.0
 31
0.0
  0
LINE
  5
237
330
A
100
AcDbEntity
  8
03
100
AcDbLine
 10
249.601322848657
 20
251.0
 30
0.0
 11
249.601322848657
 21
331.0
 31
0.0
  0
LINE
  5
238
330
A
100
AcDbEntity
  8
03
100
AcDbLine
 10
249.601322848657
 20
336.0
 30
0.0
 11
249.601322848657
 21
491.0
 31
0.0
  0
LINE
  5
239
330
A
100
AcDbEntity
  8
03
100
AcDbLine
 10
249.601322848657
 20
496.0
 30
0.0
 11
249.601322848657
 21
531.0
 31
0.0
  0
LINE
  5
23A
330
A
100
AcDbEntity
  8
03
100
AcDbLine
 10
205.6013228486569
 20
84.69068541300524
 30
0.0
 11
205.6013228486569
 21
246.0
 31
0.0
  0
LINE
  5
23B
330
A
100
AcDbEntity
  8
03
100
AcDbLine
 10
216.101322848657
 20
84.69068541300524
 30
0.0
 11
216.101322848657
 21
141.0
 31
0.0
  0
LINE
  5
23C
330
A
100
AcDbEntity
  8
03
100
AcDbLine
 10
233.101322848657
 20
84.69068541300524
 30
0.0
 11
233.101322848657
 21
141.0
 31
0.0
  0
LINE
  5
23D
330
A
100
AcDbEntity
  8
03
100
AcDbLine
 10
249.601322848657
 20
84.69068541300524
 30
0.0
 11
249.601322848657
 21
246.0
 31
0.0
  0
CIRCLE
  5
23E
330
A
100
AcDbEntity
  8
KAKURE
100
AcDbCircle
 10
177.101322848657
 20
411.0
 30
0.0
 40
6.0
  0
LINE
  5
23F
330
A
100
AcDbEntity
  8
KAKURE
100
AcDbLine
 10
152.6013228486569
 20
556.5
 30
0.0
 11
152.6013228486569
 21
559.4999999999998
 31
0.0
  0
LINE
  5
240
330
A
100
AcDbEntity
  8
KAKURE
100
AcDbLine
 10
252.6013228486569
 20
559.4999999999998
 30
0.0
 11
252.6013228486569
 21
556.5
 31
0.0
  0
LINE
  5
241
330
A
100
AcDbEntity
  8
KAKURE
100
AcDbLine
 10
252.6013228486569
 20
556.5
 30
0.0
 11
152.6013228486569
 21
556.5
 31
0.0
  0
LINE
  5
242
330
A
100
AcDbEntity
  8
KAKURE
100
AcDbLine
 10
152.6013228486569
 20
559.4999999999998
 30
0.0
 11
252.6013228486569
 21
559.4999999999998
 31
0.0
  0
CIRCLE
  5
243
330
A
100
AcDbEntity
  8
KAKURE
100
AcDbCircle
 10
177.101322848657
 20
171.0
 30
0.0
 40
6.0
  0
LINE
  5
244
330
A
100
AcDbEntity
  8
SOUZOU
100
AcDbLine
 10
315.6013228486569
 20
531.0
 30
0.0
 11
261.1013228486569
 21
531.0
 31
0.0
  0
LINE
  5
245
330
A
100
AcDbEntity
  8
SOUZOU
100
AcDbLine
 10
315.6013228486569
 20
531.0
 30
0.0
 11
315.6013228486569
 21
496.0
 31
0.0
  0
LINE
  5
246
330
A
100
AcDbEntity
  8
SOUZOU
100
AcDbLine
 10
145.6013228486569
 20
531.0
 30
0.0
 11
145.6013228486569
 21
496.0
 31
0.0
  0
LINE
  5
247
330
A
100
AcDbEntity
  8
SOUZOU
100
AcDbLine
 10
145.6013228486569
 20
491.0
 30
0.0
 11
145.6013228486569
 21
336.0
 31
0.0
  0
LINE
  5
248
330
A
100
AcDbEntity
  8
SOUZOU
100
AcDbLine
 10
145.6013228486569
 20
331.0
 30
0.0
 11
145.6013228486569
 21
251.0
 31
0.0
  0
LINE
  5
249
330
A
100
AcDbEntity
  8
SOUZOU
100
AcDbLine
 10
315.6013228486569
 20
491.0
 30
0.0
 11
315.6013228486568
 21
336.0
 31
0.0
  0
LINE
  5
24A
330
A
100
AcDbEntity
  8
SOUZOU
100
AcDbLine
 10
315.6013228486568
 20
331.0
 30
0.0
 11
315.6013228486568
 21
251.0
 31
0.0
  0
LINE
  5
24B
330
A
100
AcDbEntity
  8
SOUZOU
100
AcDbLine
 10
145.6013228486569
 20
84.69068541300524
 30
0.0
 11
145.6013228486569
 21
246.0
 31
0.0
  0
LINE
  5
24C
330
A
100
AcDbEntity
  8
SOUZOU
100
AcDbLine
 10
315.6013228486569
 20
84.6906854130052
 30
0.0
 11
315.6013228486568
 21
246.0
 31
0.0
  0
LINE
  5
24D
330
A
100
AcDbEntity
  8
04
100
AcDbLine
 10
171.101322848657
 20
389.0
 30
0.0
 11
169.6013228486569
 21
390.0
 31
0.0
  0
LINE
  5
24E
330
A
100
AcDbEntity
  8
04
100
AcDbLine
 10
183.1013228486569
 20
389.0
 30
0.0
 11
184.601322848657
 21
390.0
 31
0.0
  0
LINE
  5
24F
330
A
100
AcDbEntity
  8
04
100
AcDbLine
 10
183.1013228486569
 20
405.0
 30
0.0
 11
171.101322848657
 21
405.0
 31
0.0
  0
LINE
  5
250
330
A
100
AcDbEntity
  8
04
100
AcDbLine
 10
169.6013228486569
 20
391.0
 30
0.0
 11
169.6013228486569
 21
390.0
 31
0.0
  0
LINE
  5
251
330
A
100
AcDbEntity
  8
04
100
AcDbLine
 10
171.101322848657
 20
389.0
 30
0.0
 11
183.1013228486569
 21
389.0
 31
0.0
  0
LINE
  5
252
330
A
100
AcDbEntity
  8
04
100
AcDbLine
 10
184.601322848657
 20
390.0
 30
0.0
 11
184.601322848657
 21
391.0
 31
0.0
  0
LINE
  5
253
330
A
100
AcDbEntity
  8
04
100
AcDbLine
 10
169.6013228486569
 20
391.0
 30
0.0
 11
184.601322848657
 21
391.0
 31
0.0
  0
LINE
  5
254
330
A
100
AcDbEntity
  8
04
100
AcDbLine
 10
171.101322848657
 20
400.4999999999998
 30
0.0
 11
183.1013228486569
 21
400.4999999999998
 31
0.0
  0
LINE
  5
255
330
A
100
AcDbEntity
  8
04
100
AcDbLine
 10
171.101322848657
 20
405.0
 30
0.0
 11
171.101322848657
 21
398.0
 31
0.0
  0
LINE
  5
256
330
A
100
AcDbEntity
  8
04
100
AcDbLine
 10
183.1013228486569
 20
398.0
 30
0.0
 11
183.1013228486569
 21
405.0
 31
0.0
  0
LINE
  5
257
330
A
100
AcDbEntity
  8
04
100
AcDbLine
 10
169.6013228486569
 20
392.0
 30
0.0
 11
169.6013228486569
 21
394.5
 31
0.0
  0
LINE
  5
258
330
A
100
AcDbEntity
  8
04
100
AcDbLine
 10
175.6013228486569
 20
392.0
 30
0.0
 11
178.6013228486569
 21
392.0
 31
0.0
  0
LINE
  5
259
330
A
100
AcDbEntity
  8
04
100
AcDbLine
 10
175.101322848657
 20
394.5
 30
0.0
 11
175.101322848657
 21
397.71
 31
0.0
  0
LINE
  5
25A
330
A
100
AcDbEntity
  8
04
100
AcDbLine
 10
179.1013228486569
 20
397.71
 30
0.0
 11
179.1013228486569
 21
394.5
 31
0.0
  0
LINE
  5
25B
330
A
100
AcDbEntity
  8
04
100
AcDbLine
 10
174.5177282785356
 20
391.0
 30
0.0
 11
174.5177282785356
 21
397.71
 31
0.0
  0
LINE
  5
25C
330
A
100
AcDbEntity
  8
04
100
AcDbLine
 10
174.8077282785356
 20
398.0
 30
0.0
 11
174.811322848657
 21
398.0
 31
0.0
  0
LINE
  5
25D
330
A
100
AcDbEntity
  8
04
100
AcDbLine
 10
171.101322848657
 20
398.0
 30
0.0
 11
169.6013228486569
 21
394.5
 31
0.0
  0
ARC
  5
25E
330
A
100
AcDbEntity
  8
04
100
AcDbCircle
 10
174.8077282785356
 20
397.71
 30
0.0
 40
0.29
100
AcDbArc
 50
90.0
 51
180.0
  0
ARC
  5
25F
330
A
100
AcDbEntity
  8
04
100
AcDbCircle
 10
174.811322848657
 20
397.71
 30
0.0
 40
0.29
100
AcDbArc
 50
0.0
 51
90.0
  0
LINE
  5
260
330
A
100
AcDbEntity
  8
04
100
AcDbLine
 10
175.101322848657
 20
394.5
 30
0.0
 11
179.1013228486569
 21
394.5
 31
0.0
  0
LINE
  5
261
330
A
100
AcDbEntity
  8
04
100
AcDbLine
 10
175.101322848657
 20
394.5
 30
0.0
 11
175.6013228486569
 21
392.0
 31
0.0
  0
LINE
  5
262
330
A
100
AcDbEntity
  8
04
100
AcDbLine
 10
179.1013228486569
 20
394.5
 30
0.0
 11
178.6013228486569
 21
392.0
 31
0.0
  0
LINE
  5
263
330
A
100
AcDbEntity
  8
04
100
AcDbLine
 10
184.601322848657
 20
392.0
 30
0.0
 11
184.601322848657
 21
394.5
 31
0.0
  0
LINE
  5
264
330
A
100
AcDbEntity
  8
04
100
AcDbLine
 10
179.6849174187783
 20
391.0
 30
0.0
 11
179.6849174187783
 21
397.71
 31
0.0
  0
LINE
  5
265
330
A
100
AcDbEntity
  8
04
100
AcDbLine
 10
179.3949174187783
 20
398.0
 30
0.0
 11
179.3913228486569
 21
398.0
 31
0.0
  0
LINE
  5
266
330
A
100
AcDbEntity
  8
04
100
AcDbLine
 10
183.1013228486569
 20
398.0
 30
0.0
 11
184.601322848657
 21
394.5
 31
0.0
  0
ARC
  5
267
330
A
100
AcDbEntity
  8
04
100
AcDbCircle
 10
179.3949174187783
 20
397.71
 30
0.0
 40
0.29
100
AcDbArc
 50
0.0
 51
90.0
  0
ARC
  5
268
330
A
100
AcDbEntity
  8
04
100
AcDbCircle
 10
179.3913228486569
 20
397.71
 30
0.0
 40
0.29
100
AcDbArc
 50
90.0
 51
180.0
  0
LINE
  5
269
330
A
100
AcDbEntity
  8
04
100
AcDbLine
 10
172.101322848657
 20
391.0
 30
0.0
 11
172.101322848657
 21
396.0
 31
0.0
  0
LINE
  5
26A
330
A
100
AcDbEntity
  8
04
100
AcDbLine
 10
182.1013228486569
 20
391.0
 30
0.0
 11
182.1013228486569
 21
396.0
 31
0.0
  0
LINE
  5
26B
330
A
100
AcDbEntity
  8
04
100
AcDbLine
 10
172.101322848657
 20
396.0
 30
0.0
 11
169.6013228486569
 21
392.0
 31
0.0
  0
LINE
  5
26C
330
A
100
AcDbEntity
  8
04
100
AcDbLine
 10
182.1013228486569
 20
396.0
 30
0.0
 11
184.601322848657
 21
392.0
 31
0.0
  0
LINE
  5
26D
330
A
100
AcDbEntity
  8
04
100
AcDbLine
 10
175.8513228486569
 20
405.0
 30
0.0
 11
175.8513228486569
 21
411.0
 31
0.0
  0
LINE
  5
26E
330
A
100
AcDbEntity
  8
04
100
AcDbLine
 10
178.351322848657
 20
411.0
 30
0.0
 11
178.351322848657
 21
405.0
 31
0.0
  0
LINE
  5
26F
330
A
100
AcDbEntity
  8
04
100
AcDbLine
 10
171.101322848657
 20
193.0
 30
0.0
 11
169.6013228486569
 21
192.0
 31
0.0
  0
LINE
  5
270
330
A
100
AcDbEntity
  8
04
100
AcDbLine
 10
183.1013228486569
 20
193.0
 30
0.0
 11
184.601322848657
 21
192.0
 31
0.0
  0
LINE
  5
271
330
A
100
AcDbEntity
  8
04
100
AcDbLine
 10
183.1013228486569
 20
177.0
 30
0.0
 11
171.101322848657
 21
177.0
 31
0.0
  0
LINE
  5
272
330
A
100
AcDbEntity
  8
04
100
AcDbLine
 10
169.6013228486569
 20
191.0
 30
0.0
 11
169.6013228486569
 21
192.0
 31
0.0
  0
LINE
  5
273
330
A
100
AcDbEntity
  8
04
100
AcDbLine
 10
171.101322848657
 20
193.0
 30
0.0
 11
183.1013228486569
 21
193.0
 31
0.0
  0
LINE
  5
274
330
A
100
AcDbEntity
  8
04
100
AcDbLine
 10
184.601322848657
 20
192.0
 30
0.0
 11
184.601322848657
 21
191.0
 31
0.0
  0
LINE
  5
275
330
A
100
AcDbEntity
  8
04
100
AcDbLine
 10
169.6013228486569
 20
191.0
 30
0.0
 11
184.601322848657
 21
191.0
 31
0.0
  0
LINE
  5
276
330
A
100
AcDbEntity
  8
04
100
AcDbLine
 10
171.101322848657
 20
181.4999999999999
 30
0.0
 11
183.1013228486569
 21
181.4999999999999
 31
0.0
  0
LINE
  5
277
330
A
100
AcDbEntity
  8
04
100
AcDbLine
 10
171.101322848657
 20
177.0
 30
0.0
 11
171.101322848657
 21
184.0
 31
0.0
  0
LINE
  5
278
330
A
100
AcDbEntity
  8
04
100
AcDbLine
 10
183.1013228486569
 20
184.0
 30
0.0
 11
183.1013228486569
 21
177.0
 31
0.0
  0
LINE
  5
279
330
A
100
AcDbEntity
  8
04
100
AcDbLine
 10
169.6013228486569
 20
190.0
 30
0.0
 11
169.6013228486569
 21
187.5
 31
0.0
  0
LINE
  5
27A
330
A
100
AcDbEntity
  8
04
100
AcDbLine
 10
175.6013228486569
 20
190.0
 30
0.0
 11
178.6013228486569
 21
190.0
 31
0.0
  0
LINE
  5
27B
330
A
100
AcDbEntity
  8
04
100
AcDbLine
 10
175.101322848657
 20
187.5
 30
0.0
 11
175.101322848657
 21
184.29
 31
0.0
  0
LINE
  5
27C
330
A
100
AcDbEntity
  8
04
100
AcDbLine
 10
179.1013228486569
 20
184.29
 30
0.0
 11
179.1013228486569
 21
187.5
 31
0.0
  0
LINE
  5
27D
330
A
100
AcDbEntity
  8
04
100
AcDbLine
 10
174.5177282785356
 20
191.0
 30
0.0
 11
174.5177282785356
 21
184.29
 31
0.0
  0
LINE
  5
27E
330
A
100
AcDbEntity
  8
04
100
AcDbLine
 10
174.8077282785356
 20
184.0
 30
0.0
 11
174.811322848657
 21
184.0
 31
0.0
  0
LINE
  5
27F
330
A
100
AcDbEntity
  8
04
100
AcDbLine
 10
171.101322848657
 20
184.0
 30
0.0
 11
169.6013228486569
 21
187.5
 31
0.0
  0
ARC
  5
280
330
A
100
AcDbEntity
  8
04
100
AcDbCircle
 10
174.8077282785356
 20
184.29
 30
0.0
 40
0.29
100
AcDbArc
 50
180.0
 51
270.0
  0
ARC
  5
281
330
A
100
AcDbEntity
  8
04
100
AcDbCircle
 10
174.811322848657
 20
184.29
 30
0.0
 40
0.29
100
AcDbArc
 50
270.0
 51
0.0
  0
LINE
  5
282
330
A
100
AcDbEntity
  8
04
100
AcDbLine
 10
175.101322848657
 20
187.5
 30
0.0
 11
179.1013228486569
 21
187.5
 31
0.0
  0
LINE
  5
283
330
A
100
AcDbEntity
  8
04
100
AcDbLine
 10
175.101322848657
 20
187.5
 30
0.0
 11
175.6013228486569
 21
190.0
 31
0.0
  0
LINE
  5
284
330
A
100
AcDbEntity
  8
04
100
AcDbLine
 10
179.1013228486569
 20
187.5
 30
0.0
 11
178.6013228486569
 21
190.0
 31
0.0
  0
LINE
  5
285
330
A
100
AcDbEntity
  8
04
100
AcDbLine
 10
184.601322848657
 20
190.0
 30
0.0
 11
184.601322848657
 21
187.5
 31
0.0
  0
LINE
  5
286
330
A
100
AcDbEntity
  8
04
100
AcDbLine
 10
179.6849174187783
 20
191.0
 30
0.0
 11
179.6849174187783
 21
184.29
 31
0.0
  0
LINE
  5
287
330
A
100
AcDbEntity
  8
04
100
AcDbLine
 10
179.3949174187783
 20
184.0
 30
0.0
 11
179.3913228486569
 21
184.0
 31
0.0
  0
LINE
  5
288
330
A
100
AcDbEntity
  8
04
100
AcDbLine
 10
183.1013228486569
 20
184.0
 30
0.0
 11
184.601322848657
 21
187.5
 31
0.0
  0
ARC
  5
289
330
A
100
AcDbEntity
  8
04
100
AcDbCircle
 10
179.3949174187783
 20
184.29
 30
0.0
 40
0.29
100
AcDbArc
 50
270.0
 51
0.0
  0
ARC
  5
28A
330
A
100
AcDbEntity
  8
04
100
AcDbCircle
 10
179.3913228486569
 20
184.29
 30
0.0
 40
0.29
100
AcDbArc
 50
180.0
 51
270.0
  0
LINE
  5
28B
330
A
100
AcDbEntity
  8
04
100
AcDbLine
 10
172.101322848657
 20
191.0
 30
0.0
 11
172.101322848657
 21
186.0
 31
0.0
  0
LINE
  5
28C
330
A
100
AcDbEntity
  8
04
100
AcDbLine
 10
182.1013228486569
 20
191.0
 30
0.0
 11
182.1013228486569
 21
186.0
 31
0.0
  0
LINE
  5
28D
330
A
100
AcDbEntity
  8
04
100
AcDbLine
 10
172.101322848657
 20
186.0
 30
0.0
 11
169.6013228486569
 21
190.0
 31
0.0
  0
LINE
  5
28E
330
A
100
AcDbEntity
  8
04
100
AcDbLine
 10
182.1013228486569
 20
186.0
 30
0.0
 11
184.601322848657
 21
190.0
 31
0.0
  0
LINE
  5
28F
330
A
100
AcDbEntity
  8
04
100
AcDbLine
 10
175.8513228486569
 20
177.0
 30
0.0
 11
175.8513228486569
 21
171.0
 31
0.0
  0
LINE
  5
290
330
A
100
AcDbEntity
  8
04
100
AcDbLine
 10
178.351322848657
 20
171.0
 30
0.0
 11
178.351322848657
 21
177.0
 31
0.0
  0
LINE
  5
2A7
330
A
100
AcDbEntity
  8
03
100
AcDbLine
 10
170.6013228486569
 20
531.0
 30
0.0
 11
175.6013228486569
 21
529.0
 31
0.0
  0
LINE
  5
2A8
330
A
100
AcDbEntity
  8
03
100
AcDbLine
 10
186.6013228486569
 20
531.0
 30
0.0
 11
181.6013228486569
 21
529.0
 31
0.0
  0
LINE
  5
2A9
330
A
100
AcDbEntity
  8
03
100
AcDbLine
 10
170.6013228486569
 20
441.0
 30
0.0
 11
175.6013228486569
 21
443.0
 31
0.0
  0
LINE
  5
2AA
330
A
100
AcDbEntity
  8
03
100
AcDbLine
 10
186.6013228486569
 20
441.0
 30
0.0
 11
181.6013228486569
 21
443.0
 31
0.0
  0
LINE
  5
2AB
330
A
100
AcDbEntity
  8
03
100
AcDbLine
 10
170.6013228486569
 20
141.0
 30
0.0
 11
175.6013228486569
 21
139.0
 31
0.0
  0
LINE
  5
2AC
330
A
100
AcDbEntity
  8
03
100
AcDbLine
 10
186.6013228486569
 20
141.0
 30
0.0
 11
181.6013228486569
 21
139.0
 31
0.0
  0
LINE
  5
2AD
330
A
100
AcDbEntity
  8
03
100
AcDbLine
 10
175.6013228486569
 20
539.0
 30
0.0
 11
181.6013228486569
 21
539.0
 31
0.0
  0
LINE
  5
2AE
330
A
100
AcDbEntity
  8
03
100
AcDbLine
 10
175.6013228486569
 20
432.0
 30
0.0
 11
181.6013228486569
 21
432.0
 31
0.0
  0
LINE
  5
2AF
330
A
100
AcDbEntity
  8
03
100
AcDbLine
 10
175.6013228486569
 20
150.0
 30
0.0
 11
181.6013228486569
 21
150.0
 31
0.0
  0
LINE
  5
2B0
330
A
100
AcDbEntity
  8
03
100
AcDbLine
 10
175.6013228486569
 20
539.0
 30
0.0
 11
175.6013228486569
 21
496.0
 31
0.0
  0
LINE
  5
2B1
330
A
100
AcDbEntity
  8
03
100
AcDbLine
 10
175.6013228486569
 20
491.0
 30
0.0
 11
175.6013228486569
 21
432.0
 31
0.0
  0
LINE
  5
2B2
330
A
100
AcDbEntity
  8
03
100
AcDbLine
 10
181.6013228486569
 20
539.0
 30
0.0
 11
181.6013228486569
 21
496.0
 31
0.0
  0
LINE
  5
2B3
330
A
100
AcDbEntity
  8
03
100
AcDbLine
 10
181.6013228486569
 20
491.0
 30
0.0
 11
181.6013228486569
 21
432.0
 31
0.0
  0
LINE
  5
2B4
330
A
100
AcDbEntity
  8
03
100
AcDbLine
 10
175.6013228486569
 20
84.69068541300524
 30
0.0
 11
175.6013228486569
 21
150.0
 31
0.0
  0
LINE
  5
2B5
330
A
100
AcDbEntity
  8
03
100
AcDbLine
 10
181.6013228486569
 20
84.69068541300524
 30
0.0
 11
181.6013228486569
 21
150.0
 31
0.0
  0
LINE
  5
2B6
330
A
100
AcDbEntity
  8
CHUSIN
100
AcDbLine
 10
177.101322848657
 20
389.0
 30
0.0
 11
177.101322848657
 21
193.0
 31
0.0
  0
LINE
  5
2B7
330
A
100
AcDbEntity
  8
SAISEN
100
AcDbLine
 10
104.6013228486569
 20
331.0
 30
0.0
 11
324.601322848657
 21
331.0
 31
0.0
  0
LINE
  5
2B8
330
A
100
AcDbEntity
  8
SAISEN
100
AcDbLine
 10
104.6013228486569
 20
336.0
 30
0.0
 11
324.601322848657
 21
336.0
 31
0.0
  0
LINE
  5
2B9
330
A
100
AcDbEntity
  8
SAISEN
100
AcDbLine
 10
104.6013228486569
 20
251.0
 30
0.0
 11
324.601322848657
 21
251.0
 31
0.0
  0
LINE
  5
2BA
330
A
100
AcDbEntity
  8
SAISEN
100
AcDbLine
 10
104.6013228486569
 20
246.0
 30
0.0
 11
324.601322848657
 21
246.0
 31
0.0
  0
LINE
  5
2BB
330
A
100
AcDbEntity
  8
SAISEN
100
AcDbLine
 10
104.6013228486569
 20
491.0
 30
0.0
 11
124.7063044541547
 21
491.0
 31
0.0
  0
LINE
  5
2BC
330
A
100
AcDbEntity
  8
SAISEN
100
AcDbLine
 10
104.6013228486569
 20
496.0
 30
0.0
 11
124.7063044541547
 21
496.0
 31
0.0
  0
LINE
  5
2BD
330
A
100
AcDbEntity
  8
06
100
AcDbLine
 10
212.101322848657
 20
293.5
 30
0.0
 11
212.101322848657
 21
331.0
 31
0.0
  0
LINE
  5
2BE
330
A
100
AcDbEntity
  8
06
100
AcDbLine
 10
212.101322848657
 20
336.0
 30
0.0
 11
212.101322848657
 21
440.0
 31
0.0
  0
LINE
  5
2BF
330
A
100
AcDbEntity
  8
06
100
AcDbLine
 10
224.1013228486569
 20
293.5
 30
0.0
 11
224.1013228486569
 21
331.0
 31
0.0
  0
LINE
  5
2C0
330
A
100
AcDbEntity
  8
06
100
AcDbLine
 10
224.1013228486569
 20
336.0
 30
0.0
 11
224.1013228486569
 21
440.0
 31
0.0
  0
LINE
  5
2C1
330
A
100
AcDbEntity
  8
06
100
AcDbLine
 10
212.101322848657
 20
142.0
 30
0.0
 11
212.101322848657
 21
246.0
 31
0.0
  0
LINE
  5
2C2
330
A
100
AcDbEntity
  8
06
100
AcDbLine
 10
212.101322848657
 20
251.0
 30
0.0
 11
212.101322848657
 21
288.5
 31
0.0
  0
LINE
  5
2C3
330
A
100
AcDbEntity
  8
06
100
AcDbLine
 10
224.1013228486569
 20
142.0
 30
0.0
 11
224.1013228486569
 21
246.0
 31
0.0
  0
LINE
  5
2C4
330
A
100
AcDbEntity
  8
06
100
AcDbLine
 10
224.1013228486569
 20
251.0
 30
0.0
 11
224.1013228486569
 21
288.5
 31
0.0
  0
LINE
  5
2C5
330
A
100
AcDbEntity
  8
06
100
AcDbLine
 10
213.1013228486569
 20
289.4999999999999
 30
0.0
 11
212.101322848657
 21
288.5
 31
0.0
  0
LINE
  5
2C6
330
A
100
AcDbEntity
  8
06
100
AcDbLine
 10
223.101322848657
 20
289.4999999999999
 30
0.0
 11
224.1013228486569
 21
288.5
 31
0.0
  0
LINE
  5
2C7
330
A
100
AcDbEntity
  8
06
100
AcDbLine
 10
213.1013228486569
 20
292.5
 30
0.0
 11
212.101322848657
 21
293.5
 31
0.0
  0
LINE
  5
2C8
330
A
100
AcDbEntity
  8
06
100
AcDbLine
 10
223.101322848657
 20
292.5
 30
0.0
 11
224.1013228486569
 21
293.5
 31
0.0
  0
LINE
  5
2C9
330
A
100
AcDbEntity
  8
06
100
AcDbLine
 10
213.1013228486569
 20
441.0
 30
0.0
 11
212.101322848657
 21
440.0
 31
0.0
  0
LINE
  5
2CA
330
A
100
AcDbEntity
  8
06
100
AcDbLine
 10
223.101322848657
 20
441.0
 30
0.0
 11
224.1013228486569
 21
440.0
 31
0.0
  0
LINE
  5
2CB
330
A
100
AcDbEntity
  8
06
100
AcDbLine
 10
213.1013228486569
 20
141.0
 30
0.0
 11
212.101322848657
 21
142.0
 31
0.0
  0
LINE
  5
2CC
330
A
100
AcDbEntity
  8
06
100
AcDbLine
 10
223.101322848657
 20
141.0
 30
0.0
 11
224.1013228486569
 21
142.0
 31
0.0
  0
LINE
  5
2CD
330
A
100
AcDbEntity
  8
06
100
AcDbLine
 10
232.1013228486569
 20
289.4999999999999
 30
0.0
 11
217.1013228486569
 21
289.4999999999999
 31
0.0
  0
LINE
  5
2CE
330
A
100
AcDbEntity
  8
06
100
AcDbLine
 10
217.1013228486569
 20
292.5
 30
0.0
 11
232.1013228486569
 21
292.5
 31
0.0
  0
LINE
  5
2CF
330
A
100
AcDbEntity
  8
06
100
AcDbLine
 10
213.1013228486569
 20
292.5
 30
0.0
 11
213.1013228486569
 21
331.0
 31
0.0
  0
LINE
  5
2D0
330
A
100
AcDbEntity
  8
06
100
AcDbLine
 10
213.1013228486569
 20
336.0
 30
0.0
 11
213.1013228486569
 21
441.0
 31
0.0
  0
LINE
  5
2D1
330
A
100
AcDbEntity
  8
06
100
AcDbLine
 10
214.101322848657
 20
441.0
 30
0.0
 11
214.101322848657
 21
336.0
 31
0.0
  0
LINE
  5
2D2
330
A
100
AcDbEntity
  8
06
100
AcDbLine
 10
214.101322848657
 20
331.0
 30
0.0
 11
214.101322848657
 21
292.5
 31
0.0
  0
LINE
  5
2D3
330
A
100
AcDbEntity
  8
06
100
AcDbLine
 10
215.1013228486569
 20
292.5
 30
0.0
 11
215.1013228486569
 21
331.0
 31
0.0
  0
LINE
  5
2D4
330
A
100
AcDbEntity
  8
06
100
AcDbLine
 10
215.1013228486569
 20
336.0
 30
0.0
 11
215.1013228486569
 21
441.0
 31
0.0
  0
LINE
  5
2D5
330
A
100
AcDbEntity
  8
06
100
AcDbLine
 10
216.101322848657
 20
441.0
 30
0.0
 11
216.101322848657
 21
336.0
 31
0.0
  0
LINE
  5
2D6
330
A
100
AcDbEntity
  8
06
100
AcDbLine
 10
216.101322848657
 20
331.0
 30
0.0
 11
216.101322848657
 21
292.5
 31
0.0
  0
LINE
  5
2D7
330
A
100
AcDbEntity
  8
06
100
AcDbLine
 10
217.1013228486569
 20
292.5
 30
0.0
 11
217.1013228486569
 21
331.0
 31
0.0
  0
LINE
  5
2D8
330
A
100
AcDbEntity
  8
06
100
AcDbLine
 10
217.1013228486569
 20
336.0
 30
0.0
 11
217.1013228486569
 21
441.0
 31
0.0
  0
LINE
  5
2D9
330
A
100
AcDbEntity
  8
06
100
AcDbLine
 10
218.1013228486569
 20
292.5
 30
0.0
 11
218.1013228486569
 21
331.0
 31
0.0
  0
LINE
  5
2DA
330
A
100
AcDbEntity
  8
06
100
AcDbLine
 10
218.1013228486569
 20
336.0
 30
0.0
 11
218.1013228486569
 21
441.0
 31
0.0
  0
LINE
  5
2DB
330
A
100
AcDbEntity
  8
06
100
AcDbLine
 10
219.1013228486569
 20
441.0
 30
0.0
 11
219.1013228486569
 21
336.0
 31
0.0
  0
LINE
  5
2DC
330
A
100
AcDbEntity
  8
06
100
AcDbLine
 10
219.1013228486569
 20
331.0
 30
0.0
 11
219.1013228486569
 21
292.5
 31
0.0
  0
LINE
  5
2DD
330
A
100
AcDbEntity
  8
06
100
AcDbLine
 10
220.1013228486569
 20
292.5
 30
0.0
 11
220.1013228486569
 21
331.0
 31
0.0
  0
LINE
  5
2DE
330
A
100
AcDbEntity
  8
06
100
AcDbLine
 10
220.1013228486569
 20
336.0
 30
0.0
 11
220.1013228486569
 21
441.0
 31
0.0
  0
LINE
  5
2DF
330
A
100
AcDbEntity
  8
06
100
AcDbLine
 10
221.101322848657
 20
441.0
 30
0.0
 11
221.101322848657
 21
336.0
 31
0.0
  0
LINE
  5
2E0
330
A
100
AcDbEntity
  8
06
100
AcDbLine
 10
221.101322848657
 20
331.0
 30
0.0
 11
221.101322848657
 21
292.5
 31
0.0
  0
LINE
  5
2E1
330
A
100
AcDbEntity
  8
06
100
AcDbLine
 10
222.1013228486569
 20
292.5
 30
0.0
 11
222.1013228486569
 21
331.0
 31
0.0
  0
LINE
  5
2E2
330
A
100
AcDbEntity
  8
06
100
AcDbLine
 10
222.1013228486569
 20
336.0
 30
0.0
 11
222.1013228486569
 21
441.0
 31
0.0
  0
LINE
  5
2E3
330
A
100
AcDbEntity
  8
06
100
AcDbLine
 10
223.101322848657
 20
292.5
 30
0.0
 11
223.101322848657
 21
331.0
 31
0.0
  0
LINE
  5
2E4
330
A
100
AcDbEntity
  8
06
100
AcDbLine
 10
223.101322848657
 20
336.0
 30
0.0
 11
223.101322848657
 21
441.0
 31
0.0
  0
LINE
  5
2E5
330
A
100
AcDbEntity
  8
06
100
AcDbLine
 10
213.1013228486569
 20
289.4999999999999
 30
0.0
 11
213.1013228486569
 21
251.0
 31
0.0
  0
LINE
  5
2E6
330
A
100
AcDbEntity
  8
06
100
AcDbLine
 10
213.1013228486569
 20
246.0
 30
0.0
 11
213.1013228486569
 21
141.0
 31
0.0
  0
LINE
  5
2E7
330
A
100
AcDbEntity
  8
06
100
AcDbLine
 10
214.101322848657
 20
141.0
 30
0.0
 11
214.101322848657
 21
246.0
 31
0.0
  0
LINE
  5
2E8
330
A
100
AcDbEntity
  8
06
100
AcDbLine
 10
214.101322848657
 20
251.0
 30
0.0
 11
214.101322848657
 21
289.4999999999999
 31
0.0
  0
LINE
  5
2E9
330
A
100
AcDbEntity
  8
06
100
AcDbLine
 10
215.1013228486569
 20
289.4999999999999
 30
0.0
 11
215.1013228486569
 21
251.0
 31
0.0
  0
LINE
  5
2EA
330
A
100
AcDbEntity
  8
06
100
AcDbLine
 10
215.1013228486569
 20
246.0
 30
0.0
 11
215.1013228486569
 21
141.0
 31
0.0
  0
LINE
  5
2EB
330
A
100
AcDbEntity
  8
06
100
AcDbLine
 10
216.101322848657
 20
141.0
 30
0.0
 11
216.101322848657
 21
246.0
 31
0.0
  0
LINE
  5
2EC
330
A
100
AcDbEntity
  8
06
100
AcDbLine
 10
216.101322848657
 20
251.0
 30
0.0
 11
216.101322848657
 21
289.4999999999999
 31
0.0
  0
LINE
  5
2ED
330
A
100
AcDbEntity
  8
06
100
AcDbLine
 10
217.1013228486569
 20
289.4999999999999
 30
0.0
 11
217.1013228486569
 21
251.0
 31
0.0
  0
LINE
  5
2EE
330
A
100
AcDbEntity
  8
06
100
AcDbLine
 10
217.1013228486569
 20
246.0
 30
0.0
 11
217.1013228486569
 21
141.0
 31
0.0
  0
LINE
  5
2EF
330
A
100
AcDbEntity
  8
06
100
AcDbLine
 10
218.1013228486569
 20
289.4999999999999
 30
0.0
 11
218.1013228486569
 21
251.0
 31
0.0
  0
LINE
  5
2F0
330
A
100
AcDbEntity
  8
06
100
AcDbLine
 10
218.1013228486569
 20
246.0
 30
0.0
 11
218.1013228486569
 21
141.0
 31
0.0
  0
LINE
  5
2F1
330
A
100
AcDbEntity
  8
06
100
AcDbLine
 10
219.1013228486569
 20
141.0
 30
0.0
 11
219.1013228486569
 21
246.0
 31
0.0
  0
LINE
  5
2F2
330
A
100
AcDbEntity
  8
06
100
AcDbLine
 10
219.1013228486569
 20
251.0
 30
0.0
 11
219.1013228486569
 21
289.4999999999999
 31
0.0
  0
LINE
  5
2F3
330
A
100
AcDbEntity
  8
06
100
AcDbLine
 10
220.1013228486569
 20
289.4999999999999
 30
0.0
 11
220.1013228486569
 21
251.0
 31
0.0
  0
LINE
  5
2F4
330
A
100
AcDbEntity
  8
06
100
AcDbLine
 10
220.1013228486569
 20
246.0
 30
0.0
 11
220.1013228486569
 21
141.0
 31
0.0
  0
LINE
  5
2F5
330
A
100
AcDbEntity
  8
06
100
AcDbLine
 10
221.101322848657
 20
141.0
 30
0.0
 11
221.101322848657
 21
246.0
 31
0.0
  0
LINE
  5
2F6
330
A
100
AcDbEntity
  8
06
100
AcDbLine
 10
221.101322848657
 20
251.0
 30
0.0
 11
221.101322848657
 21
289.4999999999999
 31
0.0
  0
LINE
  5
2F7
330
A
100
AcDbEntity
  8
06
100
AcDbLine
 10
222.1013228486569
 20
289.4999999999999
 30
0.0
 11
222.1013228486569
 21
251.0
 31
0.0
  0
LINE
  5
2F8
330
A
100
AcDbEntity
  8
06
100
AcDbLine
 10
222.1013228486569
 20
246.0
 30
0.0
 11
222.1013228486569
 21
141.0
 31
0.0
  0
LINE
  5
2F9
330
A
100
AcDbEntity
  8
06
100
AcDbLine
 10
223.101322848657
 20
289.4999999999999
 30
0.0
 11
223.101322848657
 21
251.0
 31
0.0
  0
LINE
  5
2FA
330
A
100
AcDbEntity
  8
06
100
AcDbLine
 10
223.101322848657
 20
246.0
 30
0.0
 11
223.101322848657
 21
141.0
 31
0.0
  0
LINE
  5
2FB
330
A
100
AcDbEntity
  8
06
100
AcDbLine
 10
217.1013228486569
 20
289.4999999999999
 30
0.0
 11
217.1013228486569
 21
292.5
 31
0.0
1001
ACAD
1000
ASC_BOUNDS
1002
{
1070
    19
1005
C2E
1005
C2E
1002
}
  0
LINE
  5
2FC
330
A
100
AcDbEntity
  8
06
100
AcDbLine
 10
232.1013228486569
 20
292.5
 30
0.0
 11
232.1013228486569
 21
289.4999999999999
 31
0.0
1001
ACAD
1000
ASC_BOUNDS
1002
{
1070
    19
1005
C2E
1005
C2E
1002
}
  0
LINE
  5
304
330
A
100
AcDbEntity
  8
06
100
AcDbLine
 10
217.1013228486569
 20
292.5
 30
0.0
 11
232.1013228486569
 21
292.5
 31
0.0
1001
ACAD
1000
ASC_BOUNDS
1002
{
1070
    19
1005
C2E
1002
}
  0
LINE
  5
305
330
A
100
AcDbEntity
  8
06
100
AcDbLine
 10
217.1013228486569
 20
289.4999999999999
 30
0.0
 11
232.1013228486569
 21
289.4999999999999
 31
0.0
1001
ACAD
1000
ASC_BOUNDS
1002
{
1070
    19
1005
C2E
1002
}
  0
LINE
  5
306
330
A
100
AcDbEntity
  8
06
100
AcDbLine
 10
217.1013228486569
 20
291.0
 30
0.0
 11
232.1013228486569
 21
291.0
 31
0.0
1001
ACAD
1000
ASC_BOUNDS
1002
{
1070
    19
1005
C2E
1005
C2E
1002
}
  0
POLYLINE
  5
436
330
A
100
AcDbEntity
  8
DEFPOINTS
100
AcDb2dPolyline
 66
     1
 10
0.0
 20
0.0
 30
0.0
 70
     1
  0
VERTEX
  5
D71
330
436
100
AcDbEntity
  8
DEFPOINTS
100
AcDbVertex
100
AcDb2dVertex
 10
0.0
 20
0.0
 30
0.0
  0
VERTEX
  5
D72
330
436
100
AcDbEntity
  8
DEFPOINTS
100
AcDbVertex
100
AcDb2dVertex
 10
420.0
 20
0.0
 30
0.0
  0
VERTEX
  5
D73
330
436
100
AcDbEntity
  8
DEFPOINTS
100
AcDbVertex
100
AcDb2dVertex
 10
420.0
 20
594.0
 30
0.0
  0
VERTEX
  5
D74
330
436
100
AcDbEntity
  8
DEFPOINTS
100
AcDbVertex
100
AcDb2dVertex
 10
0.0
 20
594.0
 30
0.0
  0
SEQEND
  5
D75
330
436
100
AcDbEntity
  8
DEFPOINTS
  0
LEADER
  5
44B
330
A
100
AcDbEntity
  8
HIKIDASI
100
AcDbLeader
  3
SUNPOU_2
 73
     0
 74
     0
 75
     1
 40
13.33333333333333
 41
46.66666666666665
 76
     3
 10
165.9983114050888
 20
419.2149779748612
 30
0.0
 10
128.4072240639327
 20
446.5250291647798
 30
0.0
 10
128.4072240639327
 20
451.5250291647799
 30
0.0
340
44C
211
0.0000000000000001
221
1.0
231
0.0
213
-8.496637213987469
223
7.188478616163023
233
0.0
1001
ACAD
1000
DSTYLE
1002
{
1070
     5
1000
NONE
1070
    77
1070
     1
1070
   147
1040
1.0
1070
   341
1005
7E5
1070
   342
1005
7E5
1002
}
1000
LEANOF
1010
-8.496637213987469
1020
7.188478616163023
1030
0.0
1000
LEANOF
1010
-8.496637213987469
1020
7.188478616163023
1030
0.0
  0
MTEXT
  5
44C
330
A
100
AcDbEntity
  8
HIKIDASI
100
AcDbMText
 10
134.9038612779202
 20
446.3365505486168
 30
0.0
 40
5.0
 41
0.0
 71
     7
 72
     1
  1
通線穴\P方立上部φ１２穴加工
  7
SUNPOU
 11
0.0000000000000001
 21
1.0
 31
0.0
1001
ACAD
1000
MTEXTBEGIN
1070
    73
1070
     1
1070
    44
1040
1.0
1070
    74
1070
     0
1000
MTEXTEND
1000
MTEXTBEGIN
1070
    73
1070
     1
1070
    44
1040
1.0
1070
    74
1070
     0
1000
MTEXTEND
  0
LEADER
  5
44E
330
A
100
AcDbEntity
  8
HIKIDASI
100
AcDbLeader
  3
SUNPOU_2
 73
     0
 74
     0
 75
     1
 40
5.000000000000001
 41
37.06666666666665
 76
     3
 10
171.101322848657
 20
401.4999999999998
 30
0.0
 10
118.4718907130068
 20
429.7173008829735
 30
0.0
 10
118.4718907130068
 20
434.7173008829734
 30
0.0
340
44F
211
0.0000000000000001
221
1.0
231
0.0
213
0.0
223
6.923048230788309
233
0.0
1001
ACAD
1000
DSTYLE
1002
{
1070
     5
1000
OPEN30
1070
    77
1070
     1
1070
   147
1040
1.0
1070
   342
1005
415
1002
}
1000
LEANOF
1010
0.0
1020
6.923048230788309
1030
0.0
1000
LEANOF
1010
0.0
1020
6.923048230788309
1030
0.0
  0
MTEXT
  5
44F
330
A
100
AcDbEntity
  8
HIKIDASI
100
AcDbMText
 10
116.4718907130068
 20
429.7942526521851
 30
0.0
 40
5.0
 41
0.0
 71
     7
 72
     1
  1
補助光電スイッチ
  7
SUNPOU
 11
0.0000000000000001
 21
1.0
 31
0.0
1001
ACAD
1000
MTEXTBEGIN
1070
    73
1070
     1
1070
    44
1040
1.0
1070
    74
1070
     0
1000
MTEXTEND
1000
MTEXTBEGIN
1070
    73
1070
     1
1070
    44
1040
1.0
1070
    74
1070
     0
1000
MTEXTEND
  0
LEADER
  5
451
330
A
100
AcDbEntity
  8
HIKIDASI
100
AcDbLeader
  3
SUNPOU_2
 73
     0
 75
     1
 40
5.000000000000001
 41
37.06666666666665
 76
     3
 10
171.101322848657
 20
177.0
 30
0.0
 10
114.6574103179615
 20
144.3199579864924
 30
0.0
 10
114.6574103179615
 20
139.3199579864924
 30
0.0
340
452
211
0.0000000000000001
221
1.0
231
0.0
1001
ACAD
1000
DSTYLE
1002
{
1070
     5
1000
OPEN30
1070
    77
1070
     1
1070
   147
1040
1.0
1070
   342
1005
415
1002
}
1000
LEANOF
1010
0.0
1020
0.0
1030
0.0
1000
LEANOF
1010
0.0
1020
0.0
1030
0.0
  0
MTEXT
  5
452
330
A
100
AcDbEntity
  8
HIKIDASI
100
AcDbMText
 10
112.6574103179615
 20
100.2532913198258
 30
0.0
 40
5.0
 41
0.0
 71
     7
 72
     1
  1
補助光電スイッチ
  7
SUNPOU
 11
0.0000000000000001
 21
1.0
 31
0.0
1001
ACAD
1000
MTEXTBEGIN
1070
    73
1070
     1
1070
    44
1040
1.0
1070
    74
1070
     0
1000
MTEXTEND
1000
MTEXTBEGIN
1070
    73
1070
     1
1070
    44
1040
1.0
1070
    74
1070
     0
1000
MTEXTEND
  0
LEADER
  5
456
330
A
100
AcDbEntity
  8
HIKIDASI
100
AcDbLeader
  3
SUNPOU_2
 73
     0
 75
     1
 40
13.33333333333333
 41
46.66666666666665
 76
     3
 10
165.9983114050888
 20
161.6740610722568
 30
0.0
 10
134.3987389370896
 20
136.5442828797214
 30
0.0
 10
134.3987389370896
 20
131.5442828797214
 30
0.0
340
457
211
0.0000000000000001
221
1.0
231
0.0
213
-8.40706943905252
223
0.0
233
0.0
1001
ACAD
1000
DSTYLE
1002
{
1070
     5
1000
NONE
1070
    77
1070
     1
1070
   147
1040
1.0
1070
   341
1005
7E5
1070
   342
1005
7E5
1002
}
1000
LEANOF
1010
-8.40706943905252
1020
0.0
1030
0.0
1000
LEANOF
1010
-8.40706943905252
1020
0.0
1030
0.0
  0
MTEXT
  5
457
330
A
100
AcDbEntity
  8
HIKIDASI
100
AcDbMText
 10
140.8058083761422
 20
82.87761621305481
 30
0.0
 40
5.0
 41
0.0
 71
     7
 72
     1
  1
通線穴\P方立上部φ１２穴加工
  7
SUNPOU
 11
0.0000000000000001
 21
1.0
 31
0.0
1001
ACAD
1000
MTEXTBEGIN
1070
    73
1070
     1
1070
    44
1040
1.0
1070
    74
1070
     0
1000
MTEXTEND
1000
MTEXTBEGIN
1070
    73
1070
     1
1070
    44
1040
1.0
1070
    74
1070
     0
1000
MTEXTEND
  0
DIMENSION
  5
53B
330
A
100
AcDbEntity
  8
SUNPOU
100
AcDbDimension
  2
*D1
 10
262.601322848657
 20
519.6079942318958
 30
0.0
 11
198.7438380532872
 21
513.509716358217
 31
0.0
 70
   160
 53
180.0
  3
SUNPOU_2
100
AcDbAlignedDimension
 13
142.6013228486569
 23
532.5
 33
0.0
 14
262.601322848657
 24
532.5
 34
0.0
100
AcDbRotatedDimension
  0
DIMENSION
  5
55A
330
A
100
AcDbEntity
  8
SUNPOU
100
AcDbDimension
  2
*D2
 10
205.6013228486569
 20
477.2279643080138
 30
0.0
 11
169.9734640903373
 21
471.3541824283391
 31
0.0
 70
   160
 53
180.0
  3
SUNPOU_2
100
AcDbAlignedDimension
 13
148.6013228486569
 23
439.5
 33
0.0
 14
205.6013228486569
 24
439.5
 34
0.0
100
AcDbRotatedDimension
  0
DIMENSION
  5
58B
330
A
100
AcDbEntity
  8
SUNPOU
100
AcDbDimension
  2
*D3
 10
129.3113404233494
 20
391.0
 30
0.0
 11
124.8113404233494
 21
416.0000000000001
 31
0.0
 70
    32
  3
SUNPOU_2
100
AcDbAlignedDimension
 13
150.101322848657
 23
441.0
 33
0.0
 14
150.101322848657
 24
391.0
 34
0.0
 50
90.0
100
AcDbRotatedDimension
  0
DIMENSION
  5
598
330
A
100
AcDbEntity
  8
HIKIDASI
100
AcDbDimension
  2
*D4
 10
129.3113404233494
 20
191.0
 30
0.0
 11
124.8113404233494
 21
291.0
 31
0.0
 70
    32
  1
開口間口W
  3
SUNPOU_2
100
AcDbAlignedDimension
 13
150.101322848657
 23
391.0
 33
0.0
 14
150.101322848657
 24
191.0
 34
0.0
 50
90.0
100
AcDbRotatedDimension
  0
DIMENSION
  5
5A5
330
A
100
AcDbEntity
  8
SUNPOU
100
AcDbDimension
  2
*D5
 10
129.3113404233494
 20
141.0
 30
0.0
 11
124.8113404233494
 21
166.0
 31
0.0
 70
    32
  3
SUNPOU_2
100
AcDbAlignedDimension
 13
150.101322848657
 23
191.0
 33
0.0
 14
150.101322848657
 24
141.0
 34
0.0
 50
90.0
100
AcDbRotatedDimension
  0
DIMENSION
  5
5B2
330
A
100
AcDbEntity
  8
SUNPOU
100
AcDbDimension
  2
*D6
 10
274.248071530555
 20
292.5
 30
0.0
 11
269.748071530555
 21
366.7499999999999
 31
0.0
 70
    32
  1
DW
  3
SUNPOU_2
100
AcDbAlignedDimension
 13
238.6013228486569
 23
441.0
 33
0.0
 14
238.6013228486569
 24
292.5
 34
0.0
 50
90.0
100
AcDbRotatedDimension
  0
DIMENSION
  5
5BF
330
A
100
AcDbEntity
  8
SUNPOU
100
AcDbDimension
  2
*D7
 10
274.248071530555
 20
289.4999999999999
 30
0.0
 11
279.9800977077598
 21
290.953429340077
 31
0.0
 70
   160
  3
SUNPOU_2
100
AcDbAlignedDimension
 13
238.6013228486569
 23
292.5
 33
0.0
 14
238.6013228486569
 24
289.4999999999999
 34
0.0
 50
90.0
100
AcDbRotatedDimension
  0
DIMENSION
  5
5CE
330
A
100
AcDbEntity
  8
SUNPOU
100
AcDbDimension
  2
*D8
 10
274.248071530555
 20
141.0
 30
0.0
 11
269.748071530555
 21
215.2499999999999
 31
0.0
 70
    32
  1
DW
  3
SUNPOU_2
100
AcDbAlignedDimension
 13
238.6013228486569
 23
289.4999999999999
 33
0.0
 14
238.6013228486569
 24
141.0
 34
0.0
 50
90.0
100
AcDbRotatedDimension
  0
DIMENSION
  5
668
330
A
100
AcDbEntity
  8
SUNPOU
100
AcDbDimension
  2
*D9
 10
145.6013228486569
 20
458.1754314812309
 30
0.0
 11
142.2339273183316
 21
453.373843311414
 31
0.0
 70
   160
 53
180.0
  3
SUNPOU_2
100
AcDbAlignedDimension
 13
148.6013228486569
 23
439.5
 33
0.0
 14
145.6013228486569
 24
458.1754314812309
 34
0.0
100
AcDbRotatedDimension
  0
DIMENSION
  5
684
330
A
100
AcDbEntity
  8
SUNPOU
100
AcDbDimension
  2
*D10
 10
186.6013228486569
 20
458.1754314812309
 30
0.0
 11
178.5479179534429
 21
453.4576902537256
 31
0.0
 70
   160
 53
180.0
  3
SUNPOU_2
100
AcDbAlignedDimension
 13
170.6013228486569
 23
439.5
 33
0.0
 14
186.6013228486569
 24
439.5
 34
0.0
100
AcDbRotatedDimension
  0
DIMENSION
  5
693
330
A
100
AcDbEntity
  8
SUNPOU
100
AcDbDimension
  2
*D11
 10
205.6013228486569
 20
458.1754314812309
 30
0.0
 11
196.2080035484051
 21
453.3617808743828
 31
0.0
 70
   160
 53
180.0
  3
SUNPOU_2
100
AcDbAlignedDimension
 13
186.6013228486569
 23
439.5
 33
0.0
 14
205.6013228486569
 24
439.5
 34
0.0
100
AcDbRotatedDimension
  0
DIMENSION
  5
6A0
330
A
100
AcDbEntity
  8
SUNPOU
100
AcDbDimension
  2
*D12
 10
210.601322848657
 20
458.1754314812309
 30
0.0
 11
208.1421128310645
 21
453.3617808743828
 31
0.0
 70
   160
 53
180.0
  3
SUNPOU_2
100
AcDbAlignedDimension
 13
205.6013228486569
 23
439.5
 33
0.0
 14
210.601322848657
 24
441.0
 34
0.0
100
AcDbRotatedDimension
  0
DIMENSION
  5
6AF
330
A
100
AcDbEntity
  8
SUNPOU
100
AcDbDimension
  2
*D13
 10
238.6013228486569
 20
458.1754314812309
 30
0.0
 11
224.7362046522631
 21
453.3617808743828
 31
0.0
 70
   160
 53
180.0
  3
SUNPOU_2
100
AcDbAlignedDimension
 13
210.601322848657
 23
441.0
 33
0.0
 14
238.6013228486569
 24
441.0
 34
0.0
100
AcDbRotatedDimension
  0
DIMENSION
  5
739
330
A
100
AcDbEntity
  8
SUNPOU
100
AcDbDimension
  2
*D14
 10
170.6013228486569
 20
458.1754314812309
 30
0.0
 11
159.601322848657
 21
453.4903410585298
 31
0.0
 70
   160
 53
180.0
  3
SUNPOU_2
100
AcDbAlignedDimension
 13
148.6013228486569
 23
439.5
 33
0.0
 14
170.6013228486569
 24
439.5
 34
0.0
100
AcDbRotatedDimension
1001
ACAD
1000
DSTYLE
1002
{
1070
     6
1000
NONE
1070
     5
1000

1070
   173
1070
     1
1070
     7
1000
OPEN30
1002
}
  0
DIMENSION
  5
7C1
330
A
100
AcDbEntity
  8
SUNPOU
100
AcDbDimension
  2
*D15
 10
181.6956724115127
 20
174.8590092114798
 30
0.0
 11
159.9729899540531
 21
164.8645904680048
 31
0.0
 70
   163
  1
 
  3
SUNPOU_2
100
AcDbDiametricDimension
 15
172.5069732858012
 25
167.1409907885199
 35
0.0
 40
0.0
1001
ACAD
1000
DSTYLE
1002
{
1070
   288
1070
     1
1002
}
  0
DIMENSION
  5
7E8
330
A
100
AcDbEntity
  8
SUNPOU
100
AcDbDimension
  2
*D17
 10
181.9105464118522
 20
407.4123310187244
 30
0.0
 11
163.8622593774783
 21
414.0422984507605
 31
0.0
 70
   163
  1
 
 53
140.0
  3
SUNPOU_2
100
AcDbDiametricDimension
 15
172.2920992854616
 25
414.5876689812757
 35
0.0
 40
0.0
1001
ACAD
1000
DSTYLE
1002
{
1070
     7
1000
OPEN30
1070
     5
1000

1070
   173
1070
     1
1070
     6
1000
OPEN30
1070
   288
1070
     1
1002
}
  0
DIMENSION
  5
83C
330
A
100
AcDbEntity
  8
SUNPOU
100
AcDbDimension
  2
*D18
 10
299.0828694215919
 20
531.0
 30
0.0
 11
294.5828694215918
 21
546.0
 31
0.0
 70
    32
  3
SUNPOU_2
100
AcDbAlignedDimension
 13
261.1013228486569
 23
561.0
 33
0.0
 14
299.0828694215919
 24
531.0
 34
0.0
 50
90.0
100
AcDbRotatedDimension
  0
DIMENSION
  5
849
330
A
100
AcDbEntity
  8
SUNPOU
100
AcDbDimension
  2
*D19
 10
299.0828694215918
 20
84.69068541300524
 30
0.0
 11
292.7349102633109
 21
291.4195321990439
 31
0.0
 70
   160
  1
W
  3
SUNPOU_2
100
AcDbAlignedDimension
 13
299.0828694215919
 23
531.0
 33
0.0
 14
299.0828694215919
 24
84.69068541300524
 34
0.0
 50
90.0
100
AcDbRotatedDimension
1001
ACAD
1000
DSTYLE
1002
{
1070
    76
1070
     1
1002
}
  0
POLYLINE
  5
B5B
330
A
100
AcDbEntity
  8
SAISEN
100
AcDb2dPolyline
 66
     1
 10
0.0
 20
0.0
 30
0.0
 70
     1
  0
VERTEX
  5
D76
330
B5B
100
AcDbEntity
  8
SAISEN
100
AcDbVertex
100
AcDb2dVertex
 10
76.80014070189179
 20
295.2069585834133
 30
0.0
  0
VERTEX
  5
D77
330
B5B
100
AcDbEntity
  8
SAISEN
100
AcDbVertex
100
AcDb2dVertex
 10
86.80014070189178
 20
295.2069585834133
 30
0.0
  0
VERTEX
  5
D78
330
B5B
100
AcDbEntity
  8
SAISEN
100
AcDbVertex
100
AcDb2dVertex
 10
86.80014070189178
 20
325.2069585834133
 30
0.0
  0
VERTEX
  5
D79
330
B5B
100
AcDbEntity
  8
SAISEN
100
AcDbVertex
100
AcDb2dVertex
 10
76.80014070189179
 20
325.2069585834133
 30
0.0
  0
SEQEND
  5
D7A
330
B5B
100
AcDbEntity
  8
SAISEN
  0
MTEXT
  5
B5C
330
A
100
AcDbEntity
  8
MOJI
100
AcDbMText
 10
81.80014070189178
 20
310.2069585834133
 30
0.0
 40
6.0
 41
30.0
 71
     5
 72
     1
  1
外　　部
  7
0_8
 11
0.0000000000000001
 21
1.0
 31
0.0
1001
ACAD
1000
MTEXTBEGIN
1070
    73
1070
     1
1070
    44
1040
1.0
1070
    74
1070
     0
1000
MTEXTEND
1000
MTEXTBEGIN
1070
    73
1070
     1
1070
    44
1040
1.0
1070
    74
1070
     0
1000
MTEXTEND
  0
MTEXT
  5
B5D
330
A
100
AcDbEntity
  8
MOJI
100
AcDbMText
 10
348.2540320040769
 20
310.7240027191032
 30
0.0
 40
6.0
 41
30.0
 71
     5
 72
     1
  1
内　　部
  7
0_8
 11
0.0000000000000001
 21
1.0
 31
0.0
1001
ACAD
1000
MTEXTBEGIN
1070
    73
1070
     1
1070
    44
1040
1.0
1070
    74
1070
     0
1000
MTEXTEND
1000
MTEXTBEGIN
1070
    73
1070
     1
1070
    44
1040
1.0
1070
    74
1070
     0
1000
MTEXTEND
  0
POLYLINE
  5
B5E
330
A
100
AcDbEntity
  8
SAISEN
100
AcDb2dPolyline
 66
     1
 10
0.0
 20
0.0
 30
0.0
 70
     1
  0
VERTEX
  5
D7B
330
B5E
100
AcDbEntity
  8
SAISEN
100
AcDbVertex
100
AcDb2dVertex
 10
343.2540320040771
 20
295.7240027191033
 30
0.0
  0
VERTEX
  5
D7C
330
B5E
100
AcDbEntity
  8
SAISEN
100
AcDbVertex
100
AcDb2dVertex
 10
353.2540320040769
 20
295.7240027191033
 30
0.0
  0
VERTEX
  5
D7D
330
B5E
100
AcDbEntity
  8
SAISEN
100
AcDbVertex
100
AcDb2dVertex
 10
353.2540320040769
 20
325.7240027191033
 30
0.0
  0
VERTEX
  5
D7E
330
B5E
100
AcDbEntity
  8
SAISEN
100
AcDbVertex
100
AcDb2dVertex
 10
343.2540320040771
 20
325.7240027191033
 30
0.0
  0
SEQEND
  5
D7F
330
B5E
100
AcDbEntity
  8
SAISEN
  0
LINE
  5
B76
330
A
100
AcDbEntity
  8
SAISEN
100
AcDbLine
 10
136.9186848104323
 20
496.0
 30
0.0
 11
324.601322848657
 21
496.0
 31
0.0
  0
LINE
  5
B77
330
A
100
AcDbEntity
  8
SAISEN
100
AcDbLine
 10
136.9186848104323
 20
491.0
 30
0.0
 11
324.601322848657
 21
491.0
 31
0.0
  0
LINE
  5
B78
330
A
100
AcDbEntity
  8
03
  6
CONTINUOUS
100
AcDbLine
 10
171.101322848657
 20
189.4999999999999
 30
0.0
 11
171.101322848657
 21
191.0
 31
0.0
  0
LINE
  5
B79
330
A
100
AcDbEntity
  8
03
  6
CONTINUOUS
100
AcDbLine
 10
183.1013228486569
 20
189.4999999999999
 30
0.0
 11
183.1013228486569
 21
191.0
 31
0.0
  0
LINE
  5
B7A
330
A
100
AcDbEntity
  8
03
  6
CONTINUOUS
100
AcDbLine
 10
171.101322848657
 20
392.5
 30
0.0
 11
171.101322848657
 21
391.0
 31
0.0
  0
LINE
  5
B7B
330
A
100
AcDbEntity
  8
03
  6
CONTINUOUS
100
AcDbLine
 10
183.1013228486569
 20
392.5
 30
0.0
 11
183.1013228486569
 21
391.0
 31
0.0
  0
INSERT
  5
C2E
330
A
100
AcDbEntity
  8
06
  6
CONTINUOUS
100
AcDbBlockReference
  2
*X20
 10
0.0
 20
0.0
 30
0.0
1001
ACAD
1000
HATCH
1002
{
1070
    19
1000
ANSI31
1040
15.0
1040
1.570796326794896
1000
ASC_BOUNDS
1070
     2
1070
     1
1070
     4
1005
2FC
1005
305
1005
2FB
1005
306
1070
     1
1070
     4
1005
2FC
1005
306
1005
2FB
1005
304
1000
ASC_SEEDPOINT
1011
228.3447148866581
1021
291.5510024146608
1031
0.0
1000
R14_HATCH_DATA
1000
C2E
1011
1.0
1021
0.0
1031
0.0
1011
0.0
1021
1.0
1031
0.0
1011
0.0
1021
0.0
1031
1.0
1040
0.0
1010
0.0
1020
0.0
1030
1.0
1000
ANSI31
1070
     0
1070
     1
1071
        2
1071
        7
1070
     0
1070
     1
1071
        4
1040
232.1013228486569
1040
292.5
1040
217.1013228486569
1040
292.5
1040
217.1013228486569
1040
291.0
1040
232.1013228486569
1040
291.0
1071
        4
1005
304
1005
2FB
1005
306
1005
2FC
1071
        7
1070
     0
1070
     1
1071
        4
1040
232.1013228486571
1040
291.0
1040
217.1013228486569
1040
290.9999999999998
1040
217.1013228486569
1040
289.4999999999999
1040
232.1013228486569
1040
289.4999999999999
1071
        4
1005
306
1005
2FB
1005
305
1005
2FC
1070
     0
1070
     1
1040
1.570796326794896
1040
15.0
1070
     0
1070
     1
1040
2.356194490192344
1040
0.0
1040
0.0
1040
-1.325825214724775
1040
-1.325825214724775
1070
     0
1040
0.0643849281781535
1071
        2
1040
228.3447148866581
1040
291.5510024146608
1040
0.0
1040
228.1514792839184
1040
290.2633030012527
1040
0.0
1002
}
  0
MTEXT
  5
D26
330
A
100
AcDbEntity
  8
MOJI
100
AcDbMText
 10
310.999999999997
 20
29.00000000000005
 30
0.0
 40
7.0
 41
50.0
 71
     5
 72
     1
  1
図番４－３
  7
0_80
1001
ACAD
1000
MTEXTBEGIN
1070
    73
1070
     1
1070
    44
1040
1.0
1070
    74
1070
     0
1000
MTEXTEND
1000
MTEXTBEGIN
1070
    73
1070
     1
1070
    44
1040
1.0
1070
    74
1070
     0
1000
MTEXTEND
  0
MTEXT
  5
D27
330
A
100
AcDbEntity
  8
MOJI
100
AcDbMText
 10
360.999999999997
 20
29.00000000000005
 30
0.0
 40
7.0
 41
49.99999999999994
 71
     5
 72
     1
  1
よこ断面図　
  7
0_80
1001
ACAD
1000
MTEXTBEGIN
1070
    73
1070
     1
1070
    44
1040
1.0
1070
    74
1070
     0
1000
MTEXTEND
1000
MTEXTBEGIN
1070
    73
1070
     1
1070
    44
1040
1.0
1070
    74
1070
     0
1000
MTEXTEND
  0
MTEXT
  5
D28
330
A
100
AcDbEntity
  8
MOJI
100
AcDbMText
 10
255.9999999999998
 20
29.00000000000005
 30
0.0
 40
7.0
 41
60.0
 71
     5
 72
     1
  1
片引き又は両引き
  7
0_80
1001
ACAD
1000
MTEXTBEGIN
1070
    73
1070
     1
1070
    44
1040
1.0
1070
    74
1070
     0
1000
MTEXTEND
1000
MTEXTBEGIN
1070
    73
1070
     1
1070
    44
1040
1.0
1070
    74
1070
     0
1000
MTEXTEND
  0
MTEXT
  5
D29
330
A
100
AcDbEntity
  8
MOJI
100
AcDbMText
 10
185.9999999999969
 20
29.00000000000007
 30
0.0
 40
7.0
 41
80.0
 71
     5
 72
     1
  1
ＳＯＶ－２００ＫＤＣ
  7
0_8
1001
ACAD
1000
MTEXTBEGIN
1070
    73
1070
     1
1070
    44
1040
1.0
1070
    74
1070
     0
1000
MTEXTEND
1000
MTEXTBEGIN
1070
    73
1070
     1
1070
    44
1040
1.0
1070
    74
1070
     0
1000
MTEXTEND
  0
POLYLINE
  5
D2A
330
A
100
AcDbEntity
  8
SAISEN
100
AcDb2dPolyline
 66
     1
 10
0.0
 20
0.0
 30
0.0
 70
     1
  0
VERTEX
  5
D80
330
D2A
100
AcDbEntity
  8
SAISEN
100
AcDbVertex
100
AcDb2dVertex
 10
35.99999999999693
 20
17.0
 30
0.0
  0
VERTEX
  5
D81
330
D2A
100
AcDbEntity
  8
SAISEN
100
AcDbVertex
100
AcDb2dVertex
 10
385.9999999999968
 20
17.0
 30
0.0
  0
VERTEX
  5
D82
330
D2A
100
AcDbEntity
  8
SAISEN
100
AcDbVertex
100
AcDb2dVertex
 10
385.9999999999968
 20
41.00000000000017
 30
0.0
  0
VERTEX
  5
D83
330
D2A
100
AcDbEntity
  8
SAISEN
100
AcDbVertex
100
AcDb2dVertex
 10
35.99999999999693
 20
41.00000000000017
 30
0.0
  0
SEQEND
  5
D84
330
D2A
100
AcDbEntity
  8
SAISEN
  0
MTEXT
  5
D2B
330
A
100
AcDbEntity
  8
MOJI
100
AcDbMText
 10
90.99999999999694
 20
29.00000000000007
 30
0.0
 40
7.0
 41
110.0
 71
     5
 72
     1
  1
ステンレスサッシ無目見込170mm
  7
0_8
1001
ACAD
1000
MTEXTBEGIN
1070
    73
1070
     1
1070
    44
1040
1.0
1070
    74
1070
     0
1000
MTEXTEND
1000
MTEXTBEGIN
1070
    73
1070
     1
1070
    44
1040
1.0
1070
    74
1070
     0
1000
MTEXTEND
  0
LINE
  5
D2C
330
A
100
AcDbEntity
  8
SAISEN
100
AcDbLine
 10
145.9999999999969
 20
41.00000000000017
 30
0.0
 11
145.9999999999969
 21
17.0
 31
0.0
  0
LINE
  5
D2D
330
A
100
AcDbEntity
  8
SAISEN
100
AcDbLine
 10
225.9999999999969
 20
41.00000000000017
 30
0.0
 11
225.9999999999969
 21
17.0
 31
0.0
  0
LINE
  5
D2E
330
A
100
AcDbEntity
  8
SAISEN
100
AcDbLine
 10
285.9999999999968
 20
41.00000000000017
 30
0.0
 11
285.9999999999968
 21
17.0
 31
0.0
  0
VIEWPORT
  5
43A
102
{ACAD_XDICTIONARY
360
D60
102
}
330
B
100
AcDbEntity
 67
     1
  8
0
100
AcDbViewport
 10
198.0508299538852
 20
285.1874487354477
 30
0.0
 40
1078.343208727591
 41
628.3535021666721
 68
     1
 69
     1
1001
ACAD
1000
MVIEW
1002
{
1070
    16
1010
0.0
1020
0.0
1030
0.0
1010
0.0
1020
0.0
1030
1.0
1040
0.0
1040
628.3535021666721
1040
198.0508299538852
1040
285.1874487354477
1040
50.0
1040
0.0
1040
0.0
1070
     0
1070
   100
1070
     1
1070
     1
1070
     0
1070
     0
1070
     0
1070
     0
1040
0.0
1040
0.0
1040
0.0
1040
10.0
1040
10.0
1040
10.0
1040
10.0
1070
     0
1002
{
1002
}
1002
}
  0
VIEWPORT
  5
D4A
102
{ACAD_XDICTIONARY
360
D66
102
}
330
B
100
AcDbEntity
 67
     1
  8
DEFPOINTS
  6
CONTINUOUS
100
AcDbViewport
 10
198.0508309076477
 20
285.1874477816852
 30
0.0
 40
396.4883172119752
 41
570.409736121624
 68
     2
 69
     2
1001
ACAD
1000
MVIEW
1002
{
1070
    16
1010
0.0
1020
0.0
1030
0.0
1010
0.0
1020
0.0
1030
1.0
1040
0.0
1040
570.409736121624
1040
210.0
1040
297.0
1040
50.0
1040
0.0
1040
0.0
1070
     0
1070
   100
1070
     1
1070
     1
1070
     0
1070
     0
1070
     0
1070
     0
1040
0.0
1040
0.0
1040
0.0
1040
1.0
1040
1.0
1040
10.0
1040
10.0
1070
     0
1002
{
1002
}
1002
}
  0
ENDSEC
  0
SECTION
  2
OBJECTS
  0
DICTIONARY
  5
19
330
0
100
AcDbDictionary
  3
ACAD_COLOR
350
D0C
  3
ACAD_GROUP
350
1A
  3
ACAD_LAYOUT
350
325
  3
ACAD_MATERIAL
350
D0B
  3
ACAD_MLINESTYLE
350
1B
  3
ACAD_PLOTSETTINGS
350
326
  3
ACADDIM
350
444
  3
ASE_INDEX_DICTIONARY
350
D31
1001
ACAD
1000
TREAT_AS_HARD
1070
     0
1000
TREAT_AS_HARD
1070
     0
  0
DICTIONARY
  5
C88
330
2
100
AcDbDictionary
  3
ACAD_LAYERFILTERS
350
C89
  3
ACAD_LAYERSTATES
350
D16
1001
ACAD
1000
TREAT_AS_HARD
1070
     1
1000
TREAT_AS_HARD
1070
     1
  0
DICTIONARY
  5
CCD
330
A
100
AcDbDictionary
  3
ACAD_LAYOUTSELFREF
350
D6E
1001
ACAD
1000
TREAT_AS_HARD
1070
     1
  0
DICTIONARY
  5
CCF
330
B
100
AcDbDictionary
  3
ACAD_LAYOUTSELFREF
350
D6F
1001
ACAD
1000
TREAT_AS_HARD
1070
     1
  0
DICTIONARY
  5
D60
330
43A
100
AcDbDictionary
  3
ACAD_XREC_ROUNDTRIP
350
D61
1001
ACAD
1000
TREAT_AS_HARD
1070
     1
  0
DICTIONARY
  5
D66
330
D4A
100
AcDbDictionary
  3
ACAD_XREC_ROUNDTRIP
350
D67
1001
ACAD
1000
TREAT_AS_HARD
1070
     1
  0
DICTIONARY
  5
D0C
102
{ACAD_REACTORS
330
19
102
}
330
19
100
AcDbDictionary
1001
ACAD
1000
TREAT_AS_HARD
1070
     0
  0
DICTIONARY
  5
1A
102
{ACAD_REACTORS
330
19
102
}
330
19
100
AcDbDictionary
  3
DAGROUP30C
350
30C
  3
DAGROUP311
350
311
1001
ACAD
1000
TREAT_AS_HARD
1070
     0
1000
TREAT_AS_HARD
1070
     0
  0
DICTIONARY
  5
325
102
{ACAD_REACTORS
330
19
102
}
330
19
100
AcDbDictionary
1001
ACAD
1000
TREAT_AS_HARD
1070
     0
1000
TREAT_AS_HARD
1070
     0
  0
DICTIONARY
  5
D0B
102
{ACAD_REACTORS
330
19
102
}
330
19
100
AcDbDictionary
1001
ACAD
1000
TREAT_AS_HARD
1070
     0
  0
DICTIONARY
  5
1B
102
{ACAD_REACTORS
330
19
102
}
330
19
100
AcDbDictionary
  3
STANDARD
350
1C
1001
ACAD
1000
TREAT_AS_HARD
1070
     0
1000
TREAT_AS_HARD
1070
     0
  0
DICTIONARY
  5
326
102
{ACAD_REACTORS
330
19
102
}
330
19
100
AcDbDictionary
1001
ACAD
1000
TREAT_AS_HARD
1070
     0
1000
TREAT_AS_HARD
1070
     0
  0
XRECORD
  5
444
102
{ACAD_REACTORS
330
19
102
}
330
19
100
AcDbXrecord
 90
   990106
  3

 60
     0
 61
     0
 62
     4
 63
     4
 64
     1
 65
     0
 66
     0
 67
     3
 68
     1
 69
     1
 70
     0
 71
     0
 72
     0
 40
0.0
170
     0
340
457
  0
DICTIONARY
  5
D31
102
{ACAD_REACTORS
330
19
102
}
330
19
100
AcDbDictionary
  3
ASEBLOCKHIERARCHYINDEXRECORD
350
D33
1001
DCO15
1040
1508666638.453
1001
ACAD
1000
TREAT_AS_HARD
1070
     0
  0
DICTIONARY
  5
C89
102
{ACAD_REACTORS
330
C88
102
}
330
C88
100
AcDbDictionary
  3
HIHYOJI
350
C8A
1001
ACAD
1000
TREAT_AS_HARD
1070
     1
1000
TREAT_AS_HARD
1070
     0
  0
DICTIONARY
  5
D16
102
{ACAD_REACTORS
330
C88
102
}
330
C88
100
AcDbDictionary
1001
ACAD
1000
TREAT_AS_HARD
1070
     0
  0
XRECORD
  5
D6E
102
{ACAD_REACTORS
330
CCD
102
}
330
CCD
100
AcDbXrecord
340
A
  0
XRECORD
  5
D6F
102
{ACAD_REACTORS
330
CCF
102
}
330
CCF
100
AcDbXrecord
340
B
  0
XRECORD
  5
D61
102
{ACAD_REACTORS
330
D60
102
}
330
D60
100
AcDbXrecord
102
SHADEPLOT
 70
     0
  0
XRECORD
  5
D67
102
{ACAD_REACTORS
330
D66
102
}
330
D66
100
AcDbXrecord
102
SHADEPLOT
 70
     0
  0
GROUP
  5
30C
102
{ACAD_REACTORS
330
1A
102
}
330
1A
100
AcDbGroup
300

 70
     0
 71
     1
  0
GROUP
  5
311
102
{ACAD_REACTORS
330
1A
102
}
330
1A
100
AcDbGroup
300

 70
     0
 71
     1
  0
MLINESTYLE
  5
1C
102
{ACAD_REACTORS
330
1B
102
}
330
1B
100
AcDbMlineStyle
  2
STANDARD
 70
     0
  3

 62
     0
 51
90.00000000000019
 52
90.00000000000019
 71
     2
 49
0.5
 62
   256
  6
BYLAYER
 49
-0.5
 62
   256
  6
BYLAYER
  0
XRECORD
  5
D33
102
{ACAD_REACTORS
330
D31
102
}
330
D31
100
AcDbXrecord
330
C2E
330
B9E
330
B9F
330
B95
330
B96
330
BC0
330
BC1
330
BA6
330
BA7
330
BB0
330
BAF
330
C00
330
C01
330
BF0
330
BF1
330
C09
330
C0A
330
C7D
330
C7E
330
BE5
330
BE6
330
B8C
330
B8D
330
B83
330
B84
330
C13
330
C14
330
CDB
330
C62
330
C63
330
CE2
330
CE3
330
C71
330
C72
330
C69
330
C6A
  0
XRECORD
  5
C8A
102
{ACAD_REACTORS
330
C89
102
}
330
C89
100
AcDbXrecord
  1
hihyoji
  1
08,09,*_h
  1
*
  1
*
 70
     0
  1
*
  1
*
  0
ENDSEC
  0
EOF
