  0
SECTION
  2
HEADER
  9
$ACADVER
  1
AC1012
  9
$DWGCODEPAGE
  3
dos932
  9
$INSBASE
 10
0.0
 20
0.0
 30
0.0
  9
$EXTMIN
 10
0.0
 20
0.0
 30
0.0
  9
$EXTMAX
 10
420.0000000000001
 20
594.0
 30
0.0
  9
$LIMMIN
 10
0.0
 20
0.0
  9
$LIMMAX
 10
420.0000000000001
 20
594.0
  9
$ORTHOMODE
 70
     0
  9
$REGENMODE
 70
     1
  9
$FILLMODE
 70
     1
  9
$QTEXTMODE
 70
     0
  9
$MIRRTEXT
 70
     1
  9
$DRAGMODE
 70
     2
  9
$LTSCALE
 40
0.3
  9
$OSMODE
 70
    37
  9
$ATTMODE
 70
     1
  9
$TEXTSIZE
 40
7.0
  9
$TRACEWID
 40
0.05
  9
$TEXTSTYLE
  7
0_8
  9
$CLAYER
  8
DEFPOINTS
  9
$CELTYPE
  6
BYLAYER
  9
$CECOLOR
 62
   256
  9
$CELTSCALE
 40
1.0
  9
$DELOBJ
 70
     1
  9
$DISPSILH
 70
     0
  9
$DIMSCALE
 40
2.0
  9
$DIMASZ
 40
2.5
  9
$DIMEXO
 40
1.5
  9
$DIMDLI
 40
0.0
  9
$DIMRND
 40
0.0
  9
$DIMDLE
 40
0.0
  9
$DIMEXE
 40
1.0
  9
$DIMTP
 40
0.0
  9
$DIMTM
 40
0.0
  9
$DIMTXT
 40
2.5
  9
$DIMCEN
 40
0.0
  9
$DIMTSZ
 40
0.0
  9
$DIMTOL
 70
     0
  9
$DIMLIM
 70
     0
  9
$DIMTIH
 70
     0
  9
$DIMTOH
 70
     0
  9
$DIMSE1
 70
     0
  9
$DIMSE2
 70
     0
  9
$DIMTAD
 70
     1
  9
$DIMZIN
 70
     8
  9
$DIMBLK
  1
OPEN30
  9
$DIMASO
 70
     1
  9
$DIMSHO
 70
     1
  9
$DIMPOST
  1

  9
$DIMAPOST
  1

  9
$DIMALT
 70
     0
  9
$DIMALTD
 70
     2
  9
$DIMALTF
 40
25.4
  9
$DIMLFAC
 40
1.0
  9
$DIMTOFL
 70
     1
  9
$DIMTVP
 40
0.0
  9
$DIMTIX
 70
     0
  9
$DIMSOXD
 70
     0
  9
$DIMSAH
 70
     0
  9
$DIMBLK1
  1

  9
$DIMBLK2
  1

  9
$DIMSTYLE
  2
SUNPOU_2
  9
$DIMCLRD
 70
   256
  9
$DIMCLRE
 70
   256
  9
$DIMCLRT
 70
   256
  9
$DIMTFAC
 40
1.0
  9
$DIMGAP
 40
1.0
  9
$DIMJUST
 70
     0
  9
$DIMSD1
 70
     0
  9
$DIMSD2
 70
     0
  9
$DIMTOLJ
 70
     1
  9
$DIMTZIN
 70
     0
  9
$DIMALTZ
 70
     0
  9
$DIMALTTZ
 70
     0
  9
$DIMFIT
 70
     3
  9
$DIMUPT
 70
     0
  9
$DIMUNIT
 70
     2
  9
$DIMDEC
 70
     1
  9
$DIMTDEC
 70
     1
  9
$DIMALTU
 70
     2
  9
$DIMALTTD
 70
     2
  9
$DIMTXSTY
  7
SUNPOU
  9
$DIMAUNIT
 70
     0
  9
$LUNITS
 70
     2
  9
$LUPREC
 70
     4
  9
$SKETCHINC
 40
0.1
  9
$FILLETRAD
 40
0.0
  9
$AUNITS
 70
     0
  9
$AUPREC
 70
     0
  9
$MENU
  1
acad
  9
$ELEVATION
 40
0.0
  9
$PELEVATION
 40
0.0
  9
$THICKNESS
 40
0.0
  9
$LIMCHECK
 70
     0
  9
$BLIPMODE
 70
     0
  9
$CHAMFERA
 40
0.0
  9
$CHAMFERB
 40
0.0
  9
$CHAMFERC
 40
0.0
  9
$CHAMFERD
 40
0.0
  9
$SKPOLY
 70
     0
  9
$TDCREATE
 40
2444972.375000000
  9
$TDUPDATE
 40
2453266.400163298
  9
$TDINDWG
 40
0.3720697917
  9
$TDUSRTIMER
 40
0.3720697917
  9
$USRTIMER
 70
     1
  9
$ANGBASE
 50
0.0
  9
$ANGDIR
 70
     0
  9
$PDMODE
 70
     0
  9
$PDSIZE
 40
1.0
  9
$PLINEWID
 40
0.0
  9
$COORDS
 70
     1
  9
$SPLFRAME
 70
     0
  9
$SPLINETYPE
 70
     6
  9
$SPLINESEGS
 70
     8
  9
$ATTDIA
 70
     0
  9
$ATTREQ
 70
     1
  9
$HANDLING
 70
-16383
  9
$HANDSEED
  5
1318
  9
$SURFTAB1
 70
     6
  9
$SURFTAB2
 70
     6
  9
$SURFTYPE
 70
     6
  9
$SURFU
 70
     6
  9
$SURFV
 70
     6
  9
$UCSNAME
  2

  9
$UCSORG
 10
0.0
 20
0.0
 30
0.0
  9
$UCSXDIR
 10
1.0
 20
0.0
 30
0.0
  9
$UCSYDIR
 10
0.0
 20
1.0
 30
0.0
  9
$PUCSNAME
  2

  9
$PUCSORG
 10
0.0
 20
0.0
 30
0.0
  9
$PUCSXDIR
 10
1.0
 20
0.0
 30
0.0
  9
$PUCSYDIR
 10
0.0
 20
1.0
 30
0.0
  9
$USERI1
 70
     0
  9
$USERI2
 70
     0
  9
$USERI3
 70
     0
  9
$USERI4
 70
     0
  9
$USERI5
 70
     0
  9
$USERR1
 40
0.0
  9
$USERR2
 40
0.0
  9
$USERR3
 40
0.0
  9
$USERR4
 40
0.0
  9
$USERR5
 40
0.0
  9
$WORLDVIEW
 70
     1
  9
$SHADEDGE
 70
     3
  9
$SHADEDIF
 70
    70
  9
$TILEMODE
 70
     1
  9
$MAXACTVP
 70
    16
  9
$PINSBASE
 10
0.0
 20
0.0
 30
0.0
  9
$PLIMCHECK
 70
     0
  9
$PEXTMIN
 10
-0.1951870149786146
 20
-0.0484467188152849
 30
-0.0000000349181948
  9
$PEXTMAX
 10
396.296848878459
 20
570.4233469553055
 30
0.0000000814935746
  9
$PLIMMIN
 10
-11.94191342824454
 20
-11.76600219398141
  9
$PLIMMAX
 10
408.0435733360149
 20
582.1408996648768
  9
$UNITMODE
 70
     0
  9
$VISRETAIN
 70
     0
  9
$PLINEGEN
 70
     1
  9
$PSLTSCALE
 70
     0
  9
$TREEDEPTH
 70
  3020
  9
$PICKSTYLE
 70
     1
  9
$CMLSTYLE
  2
STANDARD
  9
$CMLJUST
 70
     0
  9
$CMLSCALE
 40
1.0
  9
$SAVEIMAGES
 70
     1
  0
ENDSEC
  0
SECTION
  2
CLASSES
  0
CLASS
  1
LWPOLYLINE
  2
AcDbPolyline
  3
AutoCAD 2000
 90
    32768
280
     0
281
     1
  0
CLASS
  1
IMAGE
  2
AcDbRasterImage
  3
ISM
 90
    32895
280
     0
281
     1
  0
CLASS
  1
OLE2FRAME
  2
AcDbOle2Frame
  3
AutoCAD 2000
 90
    32768
280
     0
281
     1
  0
CLASS
  1
HATCH
  2
AcDbHatch
  3
AutoCAD 2000
 90
    32768
280
     0
281
     1
  0
CLASS
  1
DICTIONARYVAR
  2
AcDbDictionaryVar
  3
AutoCAD 2000
 90
    32768
280
     0
281
     0
  0
CLASS
  1
RASTERVARIABLES
  2
AcDbRasterVariables
  3
ISM
 90
    32768
280
     0
281
     0
  0
CLASS
  1
IMAGEDEF
  2
AcDbRasterImageDef
  3
ISM
 90
    32768
280
     0
281
     0
  0
CLASS
  1
IMAGEDEF_REACTOR
  2
AcDbRasterImageDefReactor
  3
ISM
 90
    32769
280
     0
281
     0
  0
CLASS
  1
IDBUFFER
  2
AcDbIdBuffer
  3
AutoCAD 2000
 90
    32768
280
     0
281
     0
  0
CLASS
  1
SPATIAL_FILTER
  2
AcDbSpatialFilter
  3
AutoCAD 2000
 90
    32768
280
     0
281
     0
  0
CLASS
  1
XRECORD
  2
AcDbXrecord
  3
AutoCAD 2000
 90
    32768
280
     0
281
     0
  0
CLASS
  1
SORTENTSTABLE
  2
AcDbSortentsTable
  3
AutoCAD 2000
 90
    32768
280
     0
281
     0
  0
CLASS
  1
LAYER_INDEX
  2
AcDbLayerIndex
  3
AutoCAD 2000
 90
    32768
280
     0
281
     0
  0
CLASS
  1
SPATIAL_INDEX
  2
AcDbSpatialIndex
  3
AutoCAD 2000
 90
    32768
280
     0
281
     0
  0
CLASS
  1
OBJECT_PTR
  2
CAseDLPNTableRecord
  3
ASE-LPNTableRecord
 90
    32769
280
     0
281
     0
  0
CLASS
  1
ACDBDICTIONARYWDFLT
  2
AcDbDictionaryWithDefault
  3
AutoCAD 2000
 90
    32768
280
     0
281
     0
  0
CLASS
  1
ACDBPLACEHOLDER
  2
AcDbPlaceHolder
  3
AutoCAD 2000
 90
    32768
280
     0
281
     0
  0
CLASS
  1
LAYOUT
  2
AcDbLayout
  3
AutoCAD 2000
 90
    32768
280
     0
281
     0
  0
CLASS
  1
LONG_TRANSACTION
  2
AcDbLongTransaction
  3
AutoCAD 2000
 90
    32768
280
     0
281
     0
  0
CLASS
  1
LWPOLYLINE
  2
AcDbPolyline
  3
AutoCAD 2000
 90
    32768
280
     0
281
     1
  0
CLASS
  1
HATCH
  2
AcDbHatch
  3
AutoCAD 2000
 90
    32768
280
     0
281
     1
  0
CLASS
  1
XRECORD
  2
AcDbXrecord
  3
AutoCAD 2000
 90
    32768
280
     0
281
     0
  0
CLASS
  1
LONG_TRANSACTION
  2
AcDbLongTransaction
  3
AutoCAD 2000
 90
    32768
280
     0
281
     0
  0
CLASS
  1
LWPOLYLINE
  2
AcDbPolyline
  3
AutoCAD 2000
 90
    32768
280
     0
281
     1
  0
CLASS
  1
HATCH
  2
AcDbHatch
  3
AutoCAD 2000
 90
    32768
280
     0
281
     1
  0
CLASS
  1
XRECORD
  2
AcDbXrecord
  3
AutoCAD 2000
 90
    32768
280
     0
281
     0
  0
ENDSEC
  0
SECTION
  2
TABLES
  0
TABLE
  2
VPORT
  5
7
330
0
100
AcDbSymbolTable
 70
     2
  0
VPORT
  5
1300
330
7
100
AcDbSymbolTableRecord
100
AcDbViewportTableRecord
  2
*ACTIVE
 70
     0
 10
0.0
 20
0.0
 11
1.0
 21
1.0
 12
228.3242006818763
 22
297.0000093359256
 13
0.0
 23
0.0
 14
1.0
 24
1.0
 15
0.0
 25
0.0
 16
0.0
 26
0.0
 36
1.0
 17
0.0
 27
0.0
 37
0.0
 40
599.7584441676411
 41
1.780442804428044
 42
50.0
 43
0.0
 44
0.0
 50
0.0
 51
0.0
 71
     0
 72
   100
 73
     1
 74
     1
 75
     0
 76
     0
 77
     0
 78
     0
  0
ENDTAB
  0
TABLE
  2
LTYPE
  5
4
330
0
100
AcDbSymbolTable
 70
     4
  0
LTYPE
  5
11
330
4
100
AcDbSymbolTableRecord
100
AcDbLinetypeTableRecord
  2
BYBLOCK
 70
     0
  3

 72
    65
 73
     0
 40
0.0
  0
LTYPE
  5
12
330
4
100
AcDbSymbolTableRecord
100
AcDbLinetypeTableRecord
  2
BYLAYER
 70
     0
  3

 72
    65
 73
     0
 40
0.0
  0
LTYPE
  5
13
330
4
100
AcDbSymbolTableRecord
100
AcDbLinetypeTableRecord
  2
CONTINUOUS
 70
     0
  3
Solid line
 72
    65
 73
     0
 40
0.0
  0
LTYPE
  5
731
330
4
100
AcDbSymbolTableRecord
100
AcDbLinetypeTableRecord
  2
CENTER2
 70
     0
  3
Center (.5x) ___ _ ___ _ ___ _ ___ _ ___ _ ___
 72
    65
 73
     4
 40
28.57499999999999
 49
19.05
 74
     0
 49
-3.174999999999998
 74
     0
 49
3.174999999999998
 74
     0
 49
-3.174999999999998
 74
     0
  0
LTYPE
  5
732
330
4
100
AcDbSymbolTableRecord
100
AcDbLinetypeTableRecord
  2
DASHED2
 70
     0
  3
Dashed (.5x) _ _ _ _ _ _ _ _ _ _ _ _ _ _ _ _ _
 72
    65
 73
     2
 40
9.524999999999996
 49
6.349999999999998
 74
     0
 49
-3.174999999999998
 74
     0
  0
LTYPE
  5
78D
330
4
100
AcDbSymbolTableRecord
100
AcDbLinetypeTableRecord
  2
PHANTOM2
 70
     0
  3
Phantom (.5x) ___ _ _ ___ _ _ ___ _ _ ___ _ _
 72
    65
 73
     6
 40
31.75
 49
15.875
 74
     0
 49
-3.174999999999998
 74
     0
 49
3.174999999999998
 74
     0
 49
-3.174999999999998
 74
     0
 49
3.174999999999998
 74
     0
 49
-3.174999999999998
 74
     0
  0
ENDTAB
  0
TABLE
  2
LAYER
  5
2
102
{ACAD_XDICTIONARY
360
12AB
102
}
330
0
100
AcDbSymbolTable
 70
    13
  0
LAYER
  5
14
330
2
100
AcDbSymbolTableRecord
100
AcDbLayerTableRecord
  2
0
 70
     0
 62
     7
  6
CONTINUOUS
  0
LAYER
  5
733
330
2
100
AcDbSymbolTableRecord
100
AcDbLayerTableRecord
  2
DEFPOINTS
 70
     0
 62
     7
  6
CONTINUOUS
  0
LAYER
  5
735
330
2
100
AcDbSymbolTableRecord
100
AcDbLayerTableRecord
  2
03
 70
     0
 62
     3
  6
CONTINUOUS
  0
LAYER
  5
736
330
2
100
AcDbSymbolTableRecord
100
AcDbLayerTableRecord
  2
04
 70
     0
 62
     4
  6
CONTINUOUS
  0
LAYER
  5
738
330
2
100
AcDbSymbolTableRecord
100
AcDbLayerTableRecord
  2
06
 70
     0
 62
     6
  6
CONTINUOUS
  0
LAYER
  5
739
330
2
100
AcDbSymbolTableRecord
100
AcDbLayerTableRecord
  2
CHUSIN
 70
     0
 62
     6
  6
CENTER2
  0
LAYER
  5
73A
330
2
100
AcDbSymbolTableRecord
100
AcDbLayerTableRecord
  2
HIKIDASI
 70
     0
 62
     6
  6
CONTINUOUS
  0
LAYER
  5
73B
330
2
100
AcDbSymbolTableRecord
100
AcDbLayerTableRecord
  2
KAKURE
 70
     0
 62
     6
  6
DASHED2
  0
LAYER
  5
73C
330
2
100
AcDbSymbolTableRecord
100
AcDbLayerTableRecord
  2
MOJI
 70
     0
 62
     3
  6
CONTINUOUS
  0
LAYER
  5
73D
330
2
100
AcDbSymbolTableRecord
100
AcDbLayerTableRecord
  2
SUNPOU
 70
     0
 62
     6
  6
CONTINUOUS
  0
LAYER
  5
78E
330
2
100
AcDbSymbolTableRecord
100
AcDbLayerTableRecord
  2
SOUZOU
 70
     0
 62
     6
  6
PHANTOM2
  0
LAYER
  5
793
330
2
100
AcDbSymbolTableRecord
100
AcDbLayerTableRecord
  2
02
 70
     0
 62
     2
  6
CONTINUOUS
  0
LAYER
  5
C3C
330
2
100
AcDbSymbolTableRecord
100
AcDbLayerTableRecord
  2
SAISEN
 70
     0
 62
     3
  6
CONTINUOUS
  0
ENDTAB
  0
TABLE
  2
STYLE
  5
3
330
0
100
AcDbSymbolTable
 70
     4
  0
STYLE
  5
17
330
3
100
AcDbSymbolTableRecord
100
AcDbTextStyleTableRecord
  2
STANDARD
 70
     0
 40
0.0
 41
0.8
 50
0.0
 71
     0
 42
6.0
  3
txt.shx
  4
bigfont.shx
  0
STYLE
  5
748
330
3
100
AcDbSymbolTableRecord
100
AcDbTextStyleTableRecord
  2
SUNPOU
 70
     0
 40
0.0
 41
0.8
 50
0.0
 71
     0
 42
3.5
  3
txt.shx
  4
extfont.shx
  0
STYLE
  5
74F
330
3
100
AcDbSymbolTableRecord
100
AcDbTextStyleTableRecord
  2
0_8
 70
     0
 40
0.0
 41
0.8
 50
0.0
 71
     0
 42
7.0
  3
txt.shx
  4
extfont.shx
  0
STYLE
  5
12A9
330
3
100
AcDbSymbolTableRecord
100
AcDbTextStyleTableRecord
  2
0_80
 70
     0
 40
0.0
 41
0.8
 50
0.0
 71
     0
 42
7.0
  3
txt.shx
  4
extfont.shx
  0
ENDTAB
  0
TABLE
  2
VIEW
  5
5
330
0
100
AcDbSymbolTable
 70
     1
  0
VIEW
  5
135
330
5
100
AcDbSymbolTableRecord
100
AcDbViewTableRecord
  2
QQQQ
 70
     0
 40
612.8749472759227
 10
-0.9999999999999715
 20
3.681019332161696
 41
386.75
 11
0.0
 21
0.0
 31
1.0
 12
100.0
 22
100.0
 32
0.0
 42
50.0
 43
0.0
 44
0.0
 50
0.0
 71
     0
  0
ENDTAB
  0
TABLE
  2
UCS
  5
6
330
0
100
AcDbSymbolTable
 70
     0
  0
ENDTAB
  0
TABLE
  2
APPID
  5
8
330
0
100
AcDbSymbolTable
 70
     3
  0
APPID
  5
16
330
8
100
AcDbSymbolTableRecord
100
AcDbRegAppTableRecord
  2
ACAD
 70
     0
  0
APPID
  5
768
330
8
100
AcDbSymbolTableRecord
100
AcDbRegAppTableRecord
  2
DCO15
 70
     0
  0
APPID
  5
1253
330
8
100
AcDbSymbolTableRecord
100
AcDbRegAppTableRecord
  2
CONTENTBLOCKICON
 70
     0
  0
ENDTAB
  0
TABLE
  2
DIMSTYLE
  5
9
330
0
100
AcDbSymbolTable
 70
     2
  0
DIMSTYLE
105
7BF
102
{ACAD_REACTORS
330
883
330
890
330
89D
330
8AA
330
8B7
330
8C4
330
8D1
330
8DE
330
8EB
330
901
330
90E
330
91D
330
92C
330
942
330
94F
330
9A5
330
9B3
330
9CD
330
9DA
330
9F6
330
A03
330
A12
330
A1F
330
A2C
330
A39
330
A46
330
A6B
330
AA6
330
AC5
330
AD4
330
AE1
330
D1E
330
D60
330
10A5
102
}
330
9
100
AcDbSymbolTableRecord
100
AcDbDimStyleTableRecord
  2
SUNPOU_2
 70
     0
  3

  4

  5
OPEN30
  6

  7

 40
2.0
 41
2.5
 42
1.5
 43
0.0
 44
1.0
 45
0.0
 46
0.0
 47
0.0
 48
0.0
140
2.5
141
0.0
142
0.0
143
25.4
144
1.0
145
0.0
146
1.0
147
1.0
 71
     0
 72
     0
 73
     0
 74
     0
 75
     0
 76
     0
 77
     1
 78
     8
170
     0
171
     2
172
     1
173
     0
174
     0
175
     0
176
   256
177
   256
178
   256
270
     2
271
     1
272
     1
273
     2
274
     2
340
748
275
     0
280
     0
281
     0
282
     0
283
     1
284
     0
285
     0
286
     0
287
     3
288
     0
  0
DIMSTYLE
105
1056
330
9
100
AcDbSymbolTableRecord
100
AcDbDimStyleTableRecord
  2
STANDARD
 70
     0
  3

  4

  5

  6

  7

 40
1.0
 41
0.18
 42
0.0625
 43
0.38
 44
0.18
 45
0.0
 46
0.0
 47
0.0
 48
0.0
140
0.18
141
0.09
142
0.0
143
25.4
144
1.0
145
0.0
146
1.0
147
0.09
 71
     0
 72
     0
 73
     1
 74
     1
 75
     0
 76
     0
 77
     0
 78
     0
170
     0
171
     2
172
     0
173
     0
174
     0
175
     0
176
     0
177
     0
178
     0
270
     2
271
     4
272
     4
273
     2
274
     2
340
17
275
     0
280
     0
281
     0
282
     0
283
     1
284
     0
285
     0
286
     0
287
     3
288
     0
  0
ENDTAB
  0
TABLE
  2
BLOCK_RECORD
  5
1
330
0
100
AcDbSymbolTable
 70
    37
  0
BLOCK_RECORD
  5
A
102
{ACAD_XDICTIONARY
360
124F
102
}
330
1
100
AcDbSymbolTableRecord
100
AcDbBlockTableRecord
  2
*MODEL_SPACE
  0
BLOCK_RECORD
  5
B
102
{ACAD_XDICTIONARY
360
1251
102
}
330
1
100
AcDbSymbolTableRecord
100
AcDbBlockTableRecord
  2
*PAPER_SPACE
  0
BLOCK_RECORD
  5
742
330
1
100
AcDbSymbolTableRecord
100
AcDbBlockTableRecord
  2
_OPEN30
1001
CONTENTBLOCKICON
1071
        0
1004
2800000020000000200000000100080000000000000400000000000000000000000000000000000000000000000080000080000000808000800000008000800080800000C0C0C000C0DCC000F0CAA6000020400000206000002080000020A0000020C0000020E00000400000004020000040400000406000004080000040A0
1004
000040C0000040E00000600000006020000060400000606000006080000060A0000060C0000060E00000800000008020000080400000806000008080000080A0000080C0000080E00000A0000000A0200000A0400000A0600000A0800000A0A00000A0C00000A0E00000C0000000C0200000C0400000C0600000C0800000C0
1004
A00000C0C00000C0E00000E0000000E0200000E0400000E0600000E0800000E0A00000E0C00000E0E00040000000400020004000400040006000400080004000A0004000C0004000E00040200000402020004020400040206000402080004020A0004020C0004020E000404000004040200040404000404060004040800040
1004
40A0004040C0004040E00040600000406020004060400040606000406080004060A0004060C0004060E00040800000408020004080400040806000408080004080A0004080C0004080E00040A0000040A0200040A0400040A0600040A0800040A0A00040A0C00040A0E00040C0000040C0200040C0400040C0600040C08000
1004
40C0A00040C0C00040C0E00040E0000040E0200040E0400040E0600040E0800040E0A00040E0C00040E0E00080000000800020008000400080006000800080008000A0008000C0008000E00080200000802020008020400080206000802080008020A0008020C0008020E00080400000804020008040400080406000804080
1004
008040A0008040C0008040E00080600000806020008060400080606000806080008060A0008060C0008060E00080800000808020008080400080806000808080008080A0008080C0008080E00080A0000080A0200080A0400080A0600080A0800080A0A00080A0C00080A0E00080C0000080C0200080C0400080C0600080C0
1004
800080C0A00080C0C00080C0E00080E0000080E0200080E0400080E0600080E0800080E0A00080E0C00080E0E000C0000000C0002000C0004000C0006000C0008000C000A000C000C000C000E000C0200000C0202000C0204000C0206000C0208000C020A000C020C000C020E000C0400000C0402000C0404000C0406000C0
1004
408000C040A000C040C000C040E000C0600000C0602000C0604000C0606000C0608000C060A000C060C000C060E000C0800000C0802000C0804000C0806000C0808000C080A000C080C000C080E000C0A00000C0A02000C0A04000C0A06000C0A08000C0A0A000C0A0C000C0A0E000C0C00000C0C02000C0C04000C0C06000
1004
C0C08000C0C0A000F0FBFF00A4A0A000808080000000FF0000FF000000FFFF00FF000000FF00FF00FFFF0000FFFFFF0000000000000000000000000000000000000000000000000000000000000000000000000000000000000000000000000000000000000000000000000000000000000000000000000000000000000000
1004
00000000000000000000000000000000000000000000000000000000000000000000000000000000000000000000000000000000000000000000000000000000000000000000000000000000000000000000000000000000000000000000000000000000000000000000000000000000000000000000000000000000000000
1004
000000000000000000000000000000000000000000000000000000000000000000000000000000000000000000000000000000FFFF0000000000000000000000000000000000000000000000000000000000000000FFFFFFFF0000000000000000000000000000000000000000000000000000000000000000FFFFFFFF0000
1004
000000000000000000000000000000000000000000000000000000000000FFFFFF0000000000000000000000000000000000000000000000000000000000000000FFFFFFFF0000000000000000000000000000000000000000000000000000000000000000FFFFFF0000000000000000000000000000000000000000000000
1004
000000000000000000FFFFFFFF0000000000000000000000000000000000000000000000000000000000000000FFFFFFFF00000000FFFFFFFFFFFFFFFFFFFFFFFFFFFFFFFFFFFFFFFFFFFFFFFFFFFFFFFFFFFF00000000000000000000000000000000000000000000000000FFFFFFFF000000000000000000000000000000
1004
000000000000000000FFFFFFFF000000000000000000000000000000000000000000000000FFFFFFFF000000000000000000000000000000000000000000000000FFFFFFFF000000000000000000000000000000000000000000000000FFFFFFFF000000000000000000000000000000000000000000000000FFFFFFFF0000
1004
0000000000000000000000000000000000000000000000FFFFFF0000000000000000000000000000000000000000000000000000000000000000000000000000000000000000000000000000000000000000000000000000000000000000000000000000000000000000000000000000000000000000000000000000000000
1004
00000000000000000000000000000000000000000000000000000000000000000000000000000000000000000000000000000000000000000000000000000000000000000000000000000000000000000000000000000000000000000000000000000000000000000000000000000000000000000000000000000000000000
1004
0000000000000000000000000000000000000000000000000000000000000000000000000000000000000000000000000000000000000000
  0
BLOCK_RECORD
  5
884
330
1
100
AcDbSymbolTableRecord
100
AcDbBlockTableRecord
  2
*D1
  0
BLOCK_RECORD
  5
891
330
1
100
AcDbSymbolTableRecord
100
AcDbBlockTableRecord
  2
*D2
  0
BLOCK_RECORD
  5
89E
330
1
100
AcDbSymbolTableRecord
100
AcDbBlockTableRecord
  2
*D3
  0
BLOCK_RECORD
  5
8AB
330
1
100
AcDbSymbolTableRecord
100
AcDbBlockTableRecord
  2
*D4
  0
BLOCK_RECORD
  5
8B8
330
1
100
AcDbSymbolTableRecord
100
AcDbBlockTableRecord
  2
*D5
  0
BLOCK_RECORD
  5
8C5
330
1
100
AcDbSymbolTableRecord
100
AcDbBlockTableRecord
  2
*D6
  0
BLOCK_RECORD
  5
8D2
330
1
100
AcDbSymbolTableRecord
100
AcDbBlockTableRecord
  2
*D7
  0
BLOCK_RECORD
  5
8DF
330
1
100
AcDbSymbolTableRecord
100
AcDbBlockTableRecord
  2
*D8
  0
BLOCK_RECORD
  5
8EC
330
1
100
AcDbSymbolTableRecord
100
AcDbBlockTableRecord
  2
*D9
  0
BLOCK_RECORD
  5
902
330
1
100
AcDbSymbolTableRecord
100
AcDbBlockTableRecord
  2
*D10
  0
BLOCK_RECORD
  5
90F
330
1
100
AcDbSymbolTableRecord
100
AcDbBlockTableRecord
  2
*D11
  0
BLOCK_RECORD
  5
91E
330
1
100
AcDbSymbolTableRecord
100
AcDbBlockTableRecord
  2
*D12
  0
BLOCK_RECORD
  5
92D
330
1
100
AcDbSymbolTableRecord
100
AcDbBlockTableRecord
  2
*D13
  0
BLOCK_RECORD
  5
943
330
1
100
AcDbSymbolTableRecord
100
AcDbBlockTableRecord
  2
*D14
  0
BLOCK_RECORD
  5
950
330
1
100
AcDbSymbolTableRecord
100
AcDbBlockTableRecord
  2
*D15
  0
BLOCK_RECORD
  5
9A6
330
1
100
AcDbSymbolTableRecord
100
AcDbBlockTableRecord
  2
*D16
  0
BLOCK_RECORD
  5
9B4
330
1
100
AcDbSymbolTableRecord
100
AcDbBlockTableRecord
  2
*D17
  0
BLOCK_RECORD
  5
9CE
330
1
100
AcDbSymbolTableRecord
100
AcDbBlockTableRecord
  2
*D18
  0
BLOCK_RECORD
  5
9DB
330
1
100
AcDbSymbolTableRecord
100
AcDbBlockTableRecord
  2
*D19
  0
BLOCK_RECORD
  5
9F7
330
1
100
AcDbSymbolTableRecord
100
AcDbBlockTableRecord
  2
*D20
  0
BLOCK_RECORD
  5
A04
330
1
100
AcDbSymbolTableRecord
100
AcDbBlockTableRecord
  2
*D21
  0
BLOCK_RECORD
  5
A13
330
1
100
AcDbSymbolTableRecord
100
AcDbBlockTableRecord
  2
*D22
  0
BLOCK_RECORD
  5
A20
330
1
100
AcDbSymbolTableRecord
100
AcDbBlockTableRecord
  2
*D23
  0
BLOCK_RECORD
  5
A2D
330
1
100
AcDbSymbolTableRecord
100
AcDbBlockTableRecord
  2
*D24
  0
BLOCK_RECORD
  5
A3A
330
1
100
AcDbSymbolTableRecord
100
AcDbBlockTableRecord
  2
*D25
  0
BLOCK_RECORD
  5
A47
330
1
100
AcDbSymbolTableRecord
100
AcDbBlockTableRecord
  2
*D26
  0
BLOCK_RECORD
  5
A6C
330
1
100
AcDbSymbolTableRecord
100
AcDbBlockTableRecord
  2
*D27
  0
BLOCK_RECORD
  5
AA7
330
1
100
AcDbSymbolTableRecord
100
AcDbBlockTableRecord
  2
*D28
  0
BLOCK_RECORD
  5
AC6
330
1
100
AcDbSymbolTableRecord
100
AcDbBlockTableRecord
  2
*D29
  0
BLOCK_RECORD
  5
AD5
330
1
100
AcDbSymbolTableRecord
100
AcDbBlockTableRecord
  2
*D30
  0
BLOCK_RECORD
  5
AE2
330
1
100
AcDbSymbolTableRecord
100
AcDbBlockTableRecord
  2
*D31
  0
BLOCK_RECORD
  5
D1F
330
1
100
AcDbSymbolTableRecord
100
AcDbBlockTableRecord
  2
*D32
  0
BLOCK_RECORD
  5
D63
330
1
100
AcDbSymbolTableRecord
100
AcDbBlockTableRecord
  2
*D33
  0
BLOCK_RECORD
  5
10A6
330
1
100
AcDbSymbolTableRecord
100
AcDbBlockTableRecord
  2
*D34
  0
BLOCK_RECORD
  5
1268
330
1
100
AcDbSymbolTableRecord
100
AcDbBlockTableRecord
  2
*X35
  0
BLOCK_RECORD
  5
127E
330
1
100
AcDbSymbolTableRecord
100
AcDbBlockTableRecord
  2
*X36
  0
ENDTAB
  0
ENDSEC
  0
SECTION
  2
BLOCKS
  0
BLOCK
  5
D
330
A
100
AcDbEntity
  8
0
100
AcDbBlockBegin
  2
*MODEL_SPACE
 70
     0
 10
0.0
 20
0.0
 30
0.0
  3
*MODEL_SPACE
  1

  0
ENDBLK
  5
E
330
A
100
AcDbEntity
  8
0
100
AcDbBlockEnd
  0
BLOCK
  5
F
330
B
100
AcDbEntity
 67
     1
  8
0
100
AcDbBlockBegin
  2
*PAPER_SPACE
 70
     0
 10
0.0
 20
0.0
 30
0.0
  3
*PAPER_SPACE
  1

  0
ENDBLK
  5
10
330
B
100
AcDbEntity
 67
     1
  8
0
100
AcDbBlockEnd
  0
BLOCK
  5
743
330
742
100
AcDbEntity
  8
0
100
AcDbBlockBegin
  2
_OPEN30
 70
     0
 10
0.0
 20
0.0
 30
0.0
  3
_OPEN30
  1

  0
LINE
  5
744
330
742
100
AcDbEntity
  8
0
  6
BYBLOCK
 62
     0
100
AcDbLine
 10
-1.0
 20
0.26794919
 30
0.0
 11
0.0
 21
0.0
 31
0.0
  0
LINE
  5
745
330
742
100
AcDbEntity
  8
0
  6
BYBLOCK
 62
     0
100
AcDbLine
 10
0.0
 20
0.0
 30
0.0
 11
-1.0
 21
-0.26794919
 31
0.0
  0
LINE
  5
746
330
742
100
AcDbEntity
  8
0
  6
BYBLOCK
 62
     0
100
AcDbLine
 10
0.0
 20
0.0
 30
0.0
 11
-1.0
 21
0.0
 31
0.0
  0
ENDBLK
  5
747
330
742
100
AcDbEntity
  8
0
100
AcDbBlockEnd
  0
BLOCK
  5
88E
330
884
100
AcDbEntity
  8
0
100
AcDbBlockBegin
  2
*D1
 70
     1
 10
0.0
 20
0.0
 30
0.0
  3
*D1
  1

  0
LINE
  5
102A
330
884
100
AcDbEntity
  8
SUNPOU
100
AcDbLine
 10
107.5404217926185
 20
305.1379613356766
 30
0.0
 11
73.52259023928613
 21
305.1379613356766
 31
0.0
  0
LINE
  5
102B
330
884
100
AcDbEntity
  8
SUNPOU
100
AcDbLine
 10
103.0404217926184
 20
405.1379613356766
 30
0.0
 11
73.52259023928613
 21
405.1379613356766
 31
0.0
  0
LINE
  5
102C
330
884
100
AcDbEntity
  8
SUNPOU
100
AcDbLine
 10
75.52259023928613
 20
310.1379613356765
 30
0.0
 11
75.52259023928613
 21
400.1379613356766
 31
0.0
  0
INSERT
  5
102D
330
884
100
AcDbEntity
  8
SUNPOU
100
AcDbBlockReference
  2
_OPEN30
 10
75.52259023928613
 20
305.1379613356766
 30
0.0
 41
5.0
 42
5.0
 43
5.0
 50
270.0
  0
INSERT
  5
102E
330
884
100
AcDbEntity
  8
SUNPOU
100
AcDbBlockReference
  2
_OPEN30
 10
75.52259023928613
 20
405.1379613356766
 30
0.0
 41
5.0
 42
5.0
 43
5.0
 50
90.0
  0
MTEXT
  5
102F
330
884
100
AcDbEntity
  8
SUNPOU
100
AcDbMText
 10
71.02259023928606
 20
355.1379613356766
 30
0.0
 40
5.0
 41
0.0
 71
     5
 72
     1
  1
\A1;100
  7
SUNPOU
 11
0.0000000000000001
 21
1.0
 31
0.0
1001
ACAD
1000
MTEXTBEGIN
1070
    73
1070
     1
1070
    44
1040
1.0
1070
    74
1070
     0
1000
MTEXTEND
1000
MTEXTBEGIN
1070
    73
1070
     1
1070
    44
1040
1.0
1070
    74
1070
     0
1000
MTEXTEND
  0
POINT
  5
1030
330
884
100
AcDbEntity
  8
DEFPOINTS
 62
     0
100
AcDbPoint
 10
110.5404217926185
 20
305.1379613356766
 30
0.0
  0
POINT
  5
1031
330
884
100
AcDbEntity
  8
DEFPOINTS
 62
     0
100
AcDbPoint
 10
106.0404217926184
 20
405.1379613356766
 30
0.0
  0
POINT
  5
1032
330
884
100
AcDbEntity
  8
DEFPOINTS
 62
     0
100
AcDbPoint
 10
75.52259023928613
 20
405.1379613356766
 30
0.0
  0
ENDBLK
  5
88F
330
884
100
AcDbEntity
  8
0
100
AcDbBlockEnd
  0
BLOCK
  5
89B
330
891
100
AcDbEntity
  8
0
100
AcDbBlockBegin
  2
*D2
 70
     1
 10
0.0
 20
0.0
 30
0.0
  3
*D2
  1

  0
LINE
  5
1021
330
891
100
AcDbEntity
  8
SUNPOU
100
AcDbLine
 10
107.5404217926185
 20
305.1379613356766
 30
0.0
 11
86.0980127078545
 21
305.1379613356766
 31
0.0
  0
LINE
  5
1022
330
891
100
AcDbEntity
  8
SUNPOU
100
AcDbLine
 10
143.0404217926185
 20
385.1379613356766
 30
0.0
 11
86.09801270785451
 21
385.1379613356766
 31
0.0
  0
LINE
  5
1023
330
891
100
AcDbEntity
  8
SUNPOU
100
AcDbLine
 10
88.09801270785447
 20
310.1379613356765
 30
0.0
 11
88.09801270785452
 21
380.1379613356766
 31
0.0
  0
MTEXT
  5
1024
330
891
100
AcDbEntity
  8
SUNPOU
100
AcDbMText
 10
83.59801270785444
 20
355.5589717611908
 30
0.0
 40
5.0
 41
0.0
 71
     5
 72
     1
  1
\A1;80
  7
SUNPOU
 11
0.0000000000000001
 21
1.0
 31
0.0
1001
ACAD
1000
MTEXTBEGIN
1070
    73
1070
     1
1070
    44
1040
1.0
1070
    74
1070
     0
1000
MTEXTEND
1000
MTEXTBEGIN
1070
    73
1070
     1
1070
    44
1040
1.0
1070
    74
1070
     0
1000
MTEXTEND
  0
INSERT
  5
1025
330
891
100
AcDbEntity
  8
SUNPOU
100
AcDbBlockReference
  2
_OPEN30
 10
88.09801270785447
 20
305.1379613356766
 30
0.0
 41
5.0
 42
5.0
 43
5.0
 50
270.0
  0
INSERT
  5
1026
330
891
100
AcDbEntity
  8
SUNPOU
100
AcDbBlockReference
  2
_OPEN30
 10
88.09801270785452
 20
385.1379613356766
 30
0.0
 41
5.0
 42
5.0
 43
5.0
 50
90.0
  0
POINT
  5
1027
330
891
100
AcDbEntity
  8
DEFPOINTS
 62
     0
100
AcDbPoint
 10
110.5404217926185
 20
305.1379613356766
 30
0.0
  0
POINT
  5
1028
330
891
100
AcDbEntity
  8
DEFPOINTS
 62
     0
100
AcDbPoint
 10
146.0404217926185
 20
385.1379613356766
 30
0.0
  0
POINT
  5
1029
330
891
100
AcDbEntity
  8
DEFPOINTS
 62
     0
100
AcDbPoint
 10
88.09801270785452
 20
385.1379613356766
 30
0.0
  0
ENDBLK
  5
89C
330
891
100
AcDbEntity
  8
0
100
AcDbBlockEnd
  0
BLOCK
  5
8A8
330
89E
100
AcDbEntity
  8
0
100
AcDbBlockBegin
  2
*D3
 70
     1
 10
0.0
 20
0.0
 30
0.0
  3
*D3
  1

  0
LINE
  5
1018
330
89E
100
AcDbEntity
  8
SUNPOU
100
AcDbLine
 10
107.5404217926185
 20
305.1379613356766
 30
0.0
 11
99.54070569149649
 21
305.1379613356766
 31
0.0
  0
LINE
  5
1019
330
89E
100
AcDbEntity
  8
SUNPOU
100
AcDbLine
 10
177.0581316750033
 20
365.1379613356766
 30
0.0
 11
99.54070569149653
 21
365.1379613356766
 31
0.0
  0
LINE
  5
101A
330
89E
100
AcDbEntity
  8
SUNPOU
100
AcDbLine
 10
101.5407056914964
 20
310.1379613356765
 30
0.0
 11
101.5407056914965
 21
360.1379613356766
 31
0.0
  0
INSERT
  5
101B
330
89E
100
AcDbEntity
  8
SUNPOU
100
AcDbBlockReference
  2
_OPEN30
 10
101.5407056914964
 20
305.1379613356766
 30
0.0
 41
5.0
 42
5.0
 43
5.0
 50
270.0
  0
INSERT
  5
101C
330
89E
100
AcDbEntity
  8
SUNPOU
100
AcDbBlockReference
  2
_OPEN30
 10
101.5407056914965
 20
365.1379613356766
 30
0.0
 41
5.0
 42
5.0
 43
5.0
 50
90.0
  0
MTEXT
  5
101D
330
89E
100
AcDbEntity
  8
SUNPOU
100
AcDbMText
 10
97.04070569149642
 20
335.1379613356765
 30
0.0
 40
5.0
 41
0.0
 71
     5
 72
     1
  1
\A1;60
  7
SUNPOU
 11
0.0000000000000001
 21
1.0
 31
0.0
1001
ACAD
1000
MTEXTBEGIN
1070
    73
1070
     1
1070
    44
1040
1.0
1070
    74
1070
     0
1000
MTEXTEND
1000
MTEXTBEGIN
1070
    73
1070
     1
1070
    44
1040
1.0
1070
    74
1070
     0
1000
MTEXTEND
  0
POINT
  5
101E
330
89E
100
AcDbEntity
  8
DEFPOINTS
 62
     0
100
AcDbPoint
 10
110.5404217926185
 20
305.1379613356766
 30
0.0
  0
POINT
  5
101F
330
89E
100
AcDbEntity
  8
DEFPOINTS
 62
     0
100
AcDbPoint
 10
180.0581316750033
 20
365.1379613356766
 30
0.0
  0
POINT
  5
1020
330
89E
100
AcDbEntity
  8
DEFPOINTS
 62
     0
100
AcDbPoint
 10
101.5407056914965
 20
365.1379613356766
 30
0.0
  0
ENDBLK
  5
8A9
330
89E
100
AcDbEntity
  8
0
100
AcDbBlockEnd
  0
BLOCK
  5
8B5
330
8AB
100
AcDbEntity
  8
0
100
AcDbBlockBegin
  2
*D4
 70
     1
 10
0.0
 20
0.0
 30
0.0
  3
*D4
  1

  0
LINE
  5
100F
330
8AB
100
AcDbEntity
  8
SUNPOU
100
AcDbLine
 10
177.0581316750033
 20
365.1379613356766
 30
0.0
 11
99.54070569149653
 21
365.1379613356766
 31
0.0
  0
LINE
  5
1010
330
8AB
100
AcDbEntity
  8
SUNPOU
100
AcDbLine
 10
143.0404217926185
 20
385.1379613356766
 30
0.0
 11
99.54070569149653
 21
385.1379613356766
 31
0.0
  0
LINE
  5
1011
330
8AB
100
AcDbEntity
  8
SUNPOU
100
AcDbLine
 10
101.5407056914965
 20
370.1379613356766
 30
0.0
 11
101.5407056914965
 21
380.1379613356766
 31
0.0
  0
INSERT
  5
1012
330
8AB
100
AcDbEntity
  8
SUNPOU
100
AcDbBlockReference
  2
_OPEN30
 10
101.5407056914965
 20
365.1379613356766
 30
0.0
 41
5.0
 42
5.0
 43
5.0
 50
270.0
  0
INSERT
  5
1013
330
8AB
100
AcDbEntity
  8
SUNPOU
100
AcDbBlockReference
  2
_OPEN30
 10
101.5407056914965
 20
385.1379613356766
 30
0.0
 41
5.0
 42
5.0
 43
5.0
 50
90.0
  0
MTEXT
  5
1014
330
8AB
100
AcDbEntity
  8
SUNPOU
100
AcDbMText
 10
97.04070569149649
 20
375.1379613356766
 30
0.0
 40
5.0
 41
0.0
 71
     5
 72
     1
  1
\A1;20
  7
SUNPOU
 11
0.0000000000000001
 21
1.0
 31
0.0
1001
ACAD
1000
MTEXTBEGIN
1070
    73
1070
     1
1070
    44
1040
1.0
1070
    74
1070
     0
1000
MTEXTEND
1000
MTEXTBEGIN
1070
    73
1070
     1
1070
    44
1040
1.0
1070
    74
1070
     0
1000
MTEXTEND
  0
POINT
  5
1015
330
8AB
100
AcDbEntity
  8
DEFPOINTS
 62
     0
100
AcDbPoint
 10
180.0581316750033
 20
365.1379613356766
 30
0.0
  0
POINT
  5
1016
330
8AB
100
AcDbEntity
  8
DEFPOINTS
 62
     0
100
AcDbPoint
 10
146.0404217926185
 20
385.1379613356766
 30
0.0
  0
POINT
  5
1017
330
8AB
100
AcDbEntity
  8
DEFPOINTS
 62
     0
100
AcDbPoint
 10
101.5407056914965
 20
385.1379613356766
 30
0.0
  0
ENDBLK
  5
8B6
330
8AB
100
AcDbEntity
  8
0
100
AcDbBlockEnd
  0
BLOCK
  5
8C2
330
8B8
100
AcDbEntity
  8
0
100
AcDbBlockBegin
  2
*D5
 70
     1
 10
0.0
 20
0.0
 30
0.0
  3
*D5
  1

  0
LINE
  5
1173
330
8B8
100
AcDbEntity
  8
SUNPOU
100
AcDbLine
 10
131.4631626676712
 20
352.6379613356766
 30
0.0
 11
119.9115558282462
 21
352.6379613356766
 31
0.0
  0
LINE
  5
1174
330
8B8
100
AcDbEntity
  8
SUNPOU
100
AcDbLine
 10
136.0404217926185
 20
405.1379613356766
 30
0.0
 11
119.9115558282462
 21
405.1379613356766
 31
0.0
  0
LINE
  5
1175
330
8B8
100
AcDbEntity
  8
SUNPOU
100
AcDbLine
 10
121.9115558282462
 20
357.6379613356766
 30
0.0
 11
121.9115558282462
 21
400.1379613356766
 31
0.0
  0
MTEXT
  5
1176
330
8B8
100
AcDbEntity
  8
SUNPOU
100
AcDbMText
 10
117.4115558282462
 20
376.7220821118793
 30
0.0
 40
5.0
 41
0.0
 71
     5
 72
     1
  1
\A1;52.5
  7
SUNPOU
 11
0.0000000000000001
 21
1.0
 31
0.0
1001
ACAD
1000
MTEXTBEGIN
1070
    73
1070
     1
1070
    44
1040
1.0
1070
    74
1070
     0
1000
MTEXTEND
1000
MTEXTBEGIN
1070
    73
1070
     1
1070
    44
1040
1.0
1070
    74
1070
     0
1000
MTEXTEND
  0
INSERT
  5
1177
330
8B8
100
AcDbEntity
  8
SUNPOU
100
AcDbBlockReference
  2
_OPEN30
 10
121.9115558282462
 20
352.6379613356766
 30
0.0
 41
5.0
 42
5.0
 43
5.0
 50
270.0
  0
INSERT
  5
1178
330
8B8
100
AcDbEntity
  8
SUNPOU
100
AcDbBlockReference
  2
_OPEN30
 10
121.9115558282462
 20
405.1379613356766
 30
0.0
 41
5.0
 42
5.0
 43
5.0
 50
90.0
  0
POINT
  5
1179
330
8B8
100
AcDbEntity
  8
DEFPOINTS
 62
     0
100
AcDbPoint
 10
134.4631626676712
 20
352.6379613356766
 30
0.0
  0
POINT
  5
117A
330
8B8
100
AcDbEntity
  8
DEFPOINTS
 62
     0
100
AcDbPoint
 10
139.0404217926185
 20
405.1379613356766
 30
0.0
  0
POINT
  5
117B
330
8B8
100
AcDbEntity
  8
DEFPOINTS
 62
     0
100
AcDbPoint
 10
121.9115558282462
 20
405.1379613356766
 30
0.0
  0
ENDBLK
  5
8C3
330
8B8
100
AcDbEntity
  8
0
100
AcDbBlockEnd
  0
BLOCK
  5
8CF
330
8C5
100
AcDbEntity
  8
0
100
AcDbBlockBegin
  2
*D6
 70
     1
 10
0.0
 20
0.0
 30
0.0
  3
*D6
  1

  0
LINE
  5
116A
330
8C5
100
AcDbEntity
  8
SUNPOU
100
AcDbLine
 10
136.0404217926185
 20
405.1379613356766
 30
0.0
 11
119.9115558282462
 21
405.1379613356766
 31
0.0
  0
LINE
  5
116B
330
8C5
100
AcDbEntity
  8
SUNPOU
100
AcDbLine
 10
131.4631626676712
 20
457.6379613356766
 30
0.0
 11
119.9115558282462
 21
457.6379613356766
 31
0.0
  0
LINE
  5
116C
330
8C5
100
AcDbEntity
  8
SUNPOU
100
AcDbLine
 10
121.9115558282462
 20
410.1379613356766
 30
0.0
 11
121.9115558282462
 21
452.6379613356766
 31
0.0
  0
MTEXT
  5
116D
330
8C5
100
AcDbEntity
  8
SUNPOU
100
AcDbMText
 10
117.4115558282462
 20
441.4345391181757
 30
0.0
 40
5.0
 41
0.0
 71
     5
 72
     1
  1
\A1;52.5
  7
SUNPOU
 11
0.0000000000000001
 21
1.0
 31
0.0
1001
ACAD
1000
MTEXTBEGIN
1070
    73
1070
     1
1070
    44
1040
1.0
1070
    74
1070
     0
1000
MTEXTEND
1000
MTEXTBEGIN
1070
    73
1070
     1
1070
    44
1040
1.0
1070
    74
1070
     0
1000
MTEXTEND
  0
INSERT
  5
116E
330
8C5
100
AcDbEntity
  8
SUNPOU
100
AcDbBlockReference
  2
_OPEN30
 10
121.9115558282462
 20
405.1379613356766
 30
0.0
 41
5.0
 42
5.0
 43
5.0
 50
270.0
  0
INSERT
  5
116F
330
8C5
100
AcDbEntity
  8
SUNPOU
100
AcDbBlockReference
  2
_OPEN30
 10
121.9115558282462
 20
457.6379613356766
 30
0.0
 41
5.0
 42
5.0
 43
5.0
 50
90.0
  0
POINT
  5
1170
330
8C5
100
AcDbEntity
  8
DEFPOINTS
 62
     0
100
AcDbPoint
 10
139.0404217926185
 20
405.1379613356766
 30
0.0
  0
POINT
  5
1171
330
8C5
100
AcDbEntity
  8
DEFPOINTS
 62
     0
100
AcDbPoint
 10
134.4631626676712
 20
457.6379613356766
 30
0.0
  0
POINT
  5
1172
330
8C5
100
AcDbEntity
  8
DEFPOINTS
 62
     0
100
AcDbPoint
 10
121.9115558282462
 20
457.6379613356766
 30
0.0
  0
ENDBLK
  5
8D0
330
8C5
100
AcDbEntity
  8
0
100
AcDbBlockEnd
  0
BLOCK
  5
8DC
330
8D2
100
AcDbEntity
  8
0
100
AcDbBlockBegin
  2
*D7
 70
     1
 10
0.0
 20
0.0
 30
0.0
  3
*D7
  1

  0
LINE
  5
FF4
330
8D2
100
AcDbEntity
  8
SUNPOU
100
AcDbLine
 10
130.4631626676712
 20
380.1379613356766
 30
0.0
 11
128.3263035950124
 21
380.1379613356766
 31
0.0
  0
LINE
  5
FF5
330
8D2
100
AcDbEntity
  8
SUNPOU
100
AcDbLine
 10
136.0404217926185
 20
405.1379613356766
 30
0.0
 11
128.3263035950124
 21
405.1379613356766
 31
0.0
  0
LINE
  5
FF6
330
8D2
100
AcDbEntity
  8
SUNPOU
100
AcDbLine
 10
130.3263035950124
 20
385.1379613356766
 30
0.0
 11
130.3263035950124
 21
400.1379613356766
 31
0.0
  0
INSERT
  5
FF7
330
8D2
100
AcDbEntity
  8
SUNPOU
100
AcDbBlockReference
  2
_OPEN30
 10
130.3263035950124
 20
380.1379613356766
 30
0.0
 41
5.0
 42
5.0
 43
5.0
 50
270.0
  0
INSERT
  5
FF8
330
8D2
100
AcDbEntity
  8
SUNPOU
100
AcDbBlockReference
  2
_OPEN30
 10
130.3263035950124
 20
405.1379613356766
 30
0.0
 41
5.0
 42
5.0
 43
5.0
 50
90.0
  0
MTEXT
  5
FF9
330
8D2
100
AcDbEntity
  8
SUNPOU
100
AcDbMText
 10
125.8263035950123
 20
392.6379613356766
 30
0.0
 40
5.0
 41
0.0
 71
     5
 72
     1
  1
\A1;25
  7
SUNPOU
 11
0.0000000000000001
 21
1.0
 31
0.0
1001
ACAD
1000
MTEXTBEGIN
1070
    73
1070
     1
1070
    44
1040
1.0
1070
    74
1070
     0
1000
MTEXTEND
1000
MTEXTBEGIN
1070
    73
1070
     1
1070
    44
1040
1.0
1070
    74
1070
     0
1000
MTEXTEND
  0
POINT
  5
FFA
330
8D2
100
AcDbEntity
  8
DEFPOINTS
 62
     0
100
AcDbPoint
 10
133.4631626676712
 20
380.1379613356766
 30
0.0
  0
POINT
  5
FFB
330
8D2
100
AcDbEntity
  8
DEFPOINTS
 62
     0
100
AcDbPoint
 10
139.0404217926185
 20
405.1379613356766
 30
0.0
  0
POINT
  5
FFC
330
8D2
100
AcDbEntity
  8
DEFPOINTS
 62
     0
100
AcDbPoint
 10
130.3263035950124
 20
405.1379613356766
 30
0.0
  0
ENDBLK
  5
8DD
330
8D2
100
AcDbEntity
  8
0
100
AcDbBlockEnd
  0
BLOCK
  5
8E9
330
8DF
100
AcDbEntity
  8
0
100
AcDbBlockBegin
  2
*D8
 70
     1
 10
0.0
 20
0.0
 30
0.0
  3
*D8
  1

  0
LINE
  5
FEB
330
8DF
100
AcDbEntity
  8
SUNPOU
100
AcDbLine
 10
136.0404217926185
 20
405.1379613356766
 30
0.0
 11
128.3263035950124
 21
405.1379613356766
 31
0.0
  0
LINE
  5
FEC
330
8DF
100
AcDbEntity
  8
SUNPOU
100
AcDbLine
 10
130.4631626676712
 20
430.1379613356766
 30
0.0
 11
128.3263035950124
 21
430.1379613356766
 31
0.0
  0
LINE
  5
FED
330
8DF
100
AcDbEntity
  8
SUNPOU
100
AcDbLine
 10
130.3263035950124
 20
410.1379613356765
 30
0.0
 11
130.3263035950124
 21
425.1379613356766
 31
0.0
  0
INSERT
  5
FEE
330
8DF
100
AcDbEntity
  8
SUNPOU
100
AcDbBlockReference
  2
_OPEN30
 10
130.3263035950124
 20
405.1379613356766
 30
0.0
 41
5.0
 42
5.0
 43
5.0
 50
270.0
  0
INSERT
  5
FEF
330
8DF
100
AcDbEntity
  8
SUNPOU
100
AcDbBlockReference
  2
_OPEN30
 10
130.3263035950124
 20
430.1379613356766
 30
0.0
 41
5.0
 42
5.0
 43
5.0
 50
90.0
  0
MTEXT
  5
FF0
330
8DF
100
AcDbEntity
  8
SUNPOU
100
AcDbMText
 10
125.8263035950123
 20
417.6379613356766
 30
0.0
 40
5.0
 41
0.0
 71
     5
 72
     1
  1
\A1;25
  7
SUNPOU
 11
0.0000000000000001
 21
1.0
 31
0.0
1001
ACAD
1000
MTEXTBEGIN
1070
    73
1070
     1
1070
    44
1040
1.0
1070
    74
1070
     0
1000
MTEXTEND
1000
MTEXTBEGIN
1070
    73
1070
     1
1070
    44
1040
1.0
1070
    74
1070
     0
1000
MTEXTEND
  0
POINT
  5
FF1
330
8DF
100
AcDbEntity
  8
DEFPOINTS
 62
     0
100
AcDbPoint
 10
139.0404217926185
 20
405.1379613356766
 30
0.0
  0
POINT
  5
FF2
330
8DF
100
AcDbEntity
  8
DEFPOINTS
 62
     0
100
AcDbPoint
 10
133.4631626676712
 20
430.1379613356766
 30
0.0
  0
POINT
  5
FF3
330
8DF
100
AcDbEntity
  8
DEFPOINTS
 62
     0
100
AcDbPoint
 10
130.3263035950124
 20
430.1379613356766
 30
0.0
  0
ENDBLK
  5
8EA
330
8DF
100
AcDbEntity
  8
0
100
AcDbBlockEnd
  0
BLOCK
  5
8F6
330
8EC
100
AcDbEntity
  8
0
100
AcDbBlockBegin
  2
*D9
 70
     1
 10
0.0
 20
0.0
 30
0.0
  3
*D9
  1

  0
LINE
  5
FE2
330
8EC
100
AcDbEntity
  8
SUNPOU
100
AcDbLine
 10
60.76625659050964
 20
101.9758026902535
 30
0.0
 11
61.76625659050961
 21
101.9758026902535
 31
0.0
  0
LINE
  5
FE3
330
8EC
100
AcDbEntity
  8
SUNPOU
100
AcDbLine
 10
159.6017996114256
 20
191.9758026902705
 30
0.0
 11
61.76625659050964
 21
191.9758026902705
 31
0.0
  0
LINE
  5
FE4
330
8EC
100
AcDbEntity
  8
SUNPOU
100
AcDbLine
 10
63.76625659050962
 20
106.9758026902535
 30
0.0
 11
63.76625659050964
 21
186.9758026902705
 31
0.0
  0
INSERT
  5
FE5
330
8EC
100
AcDbEntity
  8
SUNPOU
100
AcDbBlockReference
  2
_OPEN30
 10
63.76625659050962
 20
101.9758026902535
 30
0.0
 41
5.0
 42
5.0
 43
5.0
 50
270.0
  0
INSERT
  5
FE6
330
8EC
100
AcDbEntity
  8
SUNPOU
100
AcDbBlockReference
  2
_OPEN30
 10
63.76625659050964
 20
191.9758026902705
 30
0.0
 41
5.0
 42
5.0
 43
5.0
 50
90.0
  0
MTEXT
  5
FE7
330
8EC
100
AcDbEntity
  8
SUNPOU
100
AcDbMText
 10
59.2662565905096
 20
146.9758026902619
 30
0.0
 40
5.0
 41
0.0
 71
     5
 72
     1
  1
\A1;600
  7
SUNPOU
 11
0.0000000000000001
 21
1.0
 31
0.0
1001
ACAD
1000
MTEXTBEGIN
1070
    73
1070
     1
1070
    44
1040
1.0
1070
    74
1070
     0
1000
MTEXTEND
1000
MTEXTBEGIN
1070
    73
1070
     1
1070
    44
1040
1.0
1070
    74
1070
     0
1000
MTEXTEND
  0
POINT
  5
FE8
330
8EC
100
AcDbEntity
  8
DEFPOINTS
 62
     0
100
AcDbPoint
 10
63.76625659050964
 20
101.9758026902535
 30
0.0
  0
POINT
  5
FE9
330
8EC
100
AcDbEntity
  8
DEFPOINTS
 62
     0
100
AcDbPoint
 10
162.6017996114256
 20
191.9758026902705
 30
0.0
  0
POINT
  5
FEA
330
8EC
100
AcDbEntity
  8
DEFPOINTS
 62
     0
100
AcDbPoint
 10
63.76625659050964
 20
191.9758026902705
 30
0.0
  0
ENDBLK
  5
8F7
330
8EC
100
AcDbEntity
  8
0
100
AcDbBlockEnd
  0
BLOCK
  5
90C
330
902
100
AcDbEntity
  8
0
100
AcDbBlockBegin
  2
*D10
 70
     1
 10
0.0
 20
0.0
 30
0.0
  3
*D10
  1

  0
LINE
  5
FD9
330
902
100
AcDbEntity
  8
SUNPOU
100
AcDbLine
 10
226.3904217908236
 20
79.97580269027991
 30
0.0
 11
267.355132539396
 21
79.97580269027991
 31
0.0
  0
LINE
  5
FDA
330
902
100
AcDbEntity
  8
SUNPOU
100
AcDbLine
 10
242.1404217908236
 20
104.9758026902799
 30
0.0
 11
267.355132539396
 21
104.9758026902799
 31
0.0
  0
LINE
  5
FDB
330
902
100
AcDbEntity
  8
SUNPOU
100
AcDbLine
 10
265.355132539396
 20
84.9758026902799
 30
0.0
 11
265.355132539396
 21
99.97580269028
 31
0.0
  0
INSERT
  5
FDC
330
902
100
AcDbEntity
  8
SUNPOU
100
AcDbBlockReference
  2
_OPEN30
 10
265.355132539396
 20
79.97580269027991
 30
0.0
 41
5.0
 42
5.0
 43
5.0
 50
270.0
  0
INSERT
  5
FDD
330
902
100
AcDbEntity
  8
SUNPOU
100
AcDbBlockReference
  2
_OPEN30
 10
265.355132539396
 20
104.9758026902799
 30
0.0
 41
5.0
 42
5.0
 43
5.0
 50
90.0
  0
MTEXT
  5
FDE
330
902
100
AcDbEntity
  8
SUNPOU
100
AcDbMText
 10
260.855132539396
 20
92.47580269028
 30
0.0
 40
5.0
 41
0.0
 71
     5
 72
     1
  1
\A1;25
  7
SUNPOU
 11
0.0000000000000001
 21
1.0
 31
0.0
1001
ACAD
1000
MTEXTBEGIN
1070
    73
1070
     1
1070
    44
1040
1.0
1070
    74
1070
     0
1000
MTEXTEND
1000
MTEXTBEGIN
1070
    73
1070
     1
1070
    44
1040
1.0
1070
    74
1070
     0
1000
MTEXTEND
  0
POINT
  5
FDF
330
902
100
AcDbEntity
  8
DEFPOINTS
 62
     0
100
AcDbPoint
 10
223.3904217908238
 20
79.97580269027992
 30
0.0
  0
POINT
  5
FE0
330
902
100
AcDbEntity
  8
DEFPOINTS
 62
     0
100
AcDbPoint
 10
239.1404217908236
 20
104.9758026902799
 30
0.0
  0
POINT
  5
FE1
330
902
100
AcDbEntity
  8
DEFPOINTS
 62
     0
100
AcDbPoint
 10
265.355132539396
 20
104.9758026902799
 30
0.0
  0
ENDBLK
  5
90D
330
902
100
AcDbEntity
  8
0
100
AcDbBlockEnd
  0
BLOCK
  5
91B
330
90F
100
AcDbEntity
  8
0
100
AcDbBlockBegin
  2
*D11
 70
     1
 10
0.0
 20
0.0
 30
0.0
  3
*D11
  1

  0
LINE
  5
FCE
330
90F
100
AcDbEntity
  8
SUNPOU
100
AcDbLine
 10
244.9008176919899
 20
101.9758026902784
 30
0.0
 11
245.9008176919899
 21
101.9758026902784
 31
0.0
  0
LINE
  5
FCF
330
90F
100
AcDbEntity
  8
SUNPOU
100
AcDbLine
 10
242.1404217908236
 20
104.9758026902799
 30
0.0
 11
249.9008176919899
 21
104.9758026902799
 31
0.0
  0
LINE
  5
FD0
330
90F
100
AcDbEntity
  8
SUNPOU
100
AcDbLine
 10
247.9008176919899
 20
96.97580269027842
 30
0.0
 11
247.9008176919899
 21
91.97580269027842
 31
0.0
  0
LINE
  5
FD1
330
90F
100
AcDbEntity
  8
SUNPOU
100
AcDbLine
 10
247.9008176919899
 20
109.9758026902799
 30
0.0
 11
247.9008176919899
 21
114.9758026902799
 31
0.0
  0
MTEXT
  5
FD2
330
90F
100
AcDbEntity
  8
SUNPOU
100
AcDbMText
 10
252.9030321693069
 20
108.1607923894875
 30
0.0
 40
5.0
 41
0.0
 71
     5
 72
     1
  1
\A1;3
  7
SUNPOU
 11
0.0000000000000001
 21
1.0
 31
0.0
1001
ACAD
1000
MTEXTBEGIN
1070
    73
1070
     1
1070
    44
1040
1.0
1070
    74
1070
     0
1000
MTEXTEND
1000
MTEXTBEGIN
1070
    73
1070
     1
1070
    44
1040
1.0
1070
    74
1070
     0
1000
MTEXTEND
  0
LINE
  5
FD3
330
90F
100
AcDbEntity
  8
SUNPOU
100
AcDbLine
 10
247.9008176919899
 20
101.9758026902784
 30
0.0
 11
247.9008176919899
 21
104.9758026902799
 31
0.0
  0
INSERT
  5
FD4
330
90F
100
AcDbEntity
  8
SUNPOU
100
AcDbBlockReference
  2
_OPEN30
 10
247.9008176919899
 20
101.9758026902784
 30
0.0
 41
5.0
 42
5.0
 43
5.0
 50
90.0
  0
INSERT
  5
FD5
330
90F
100
AcDbEntity
  8
SUNPOU
100
AcDbBlockReference
  2
_OPEN30
 10
247.9008176919899
 20
104.9758026902799
 30
0.0
 41
5.0
 42
5.0
 43
5.0
 50
270.0
  0
POINT
  5
FD6
330
90F
100
AcDbEntity
  8
DEFPOINTS
 62
     0
100
AcDbPoint
 10
247.9008176919899
 20
101.9758026902784
 30
0.0
  0
POINT
  5
FD7
330
90F
100
AcDbEntity
  8
DEFPOINTS
 62
     0
100
AcDbPoint
 10
239.1404217908236
 20
104.9758026902799
 30
0.0
  0
POINT
  5
FD8
330
90F
100
AcDbEntity
  8
DEFPOINTS
 62
     0
100
AcDbPoint
 10
247.9008176919899
 20
104.9758026902799
 30
0.0
  0
ENDBLK
  5
91C
330
90F
100
AcDbEntity
  8
0
100
AcDbBlockEnd
  0
BLOCK
  5
92A
330
91E
100
AcDbEntity
  8
0
100
AcDbBlockBegin
  2
*D12
 70
     1
 10
0.0
 20
0.0
 30
0.0
  3
*D12
  1

  0
LINE
  5
FC3
330
91E
100
AcDbEntity
  8
SUNPOU
100
AcDbLine
 10
302.9595782073812
 20
101.9758026902896
 30
0.0
 11
303.9595782073813
 21
101.9758026902896
 31
0.0
  0
LINE
  5
FC4
330
91E
100
AcDbEntity
  8
SUNPOU
100
AcDbLine
 10
234.040421792619
 20
111.9758026902802
 30
0.0
 11
307.9595782073813
 21
111.9758026902802
 31
0.0
  0
LINE
  5
FC5
330
91E
100
AcDbEntity
  8
SUNPOU
100
AcDbLine
 10
305.9595782073813
 20
96.97580269028968
 30
0.0
 11
305.9595782073813
 21
91.97580269028968
 31
0.0
  0
LINE
  5
FC6
330
91E
100
AcDbEntity
  8
SUNPOU
100
AcDbLine
 10
305.9595782073813
 20
116.9758026902802
 30
0.0
 11
305.9595782073813
 21
121.9758026902802
 31
0.0
  0
LINE
  5
FC7
330
91E
100
AcDbEntity
  8
SUNPOU
100
AcDbLine
 10
305.9595782073813
 20
101.9758026902896
 30
0.0
 11
305.9595782073813
 21
111.9758026902802
 31
0.0
  0
INSERT
  5
FC8
330
91E
100
AcDbEntity
  8
SUNPOU
100
AcDbBlockReference
  2
_OPEN30
 10
305.9595782073813
 20
101.9758026902896
 30
0.0
 41
5.0
 42
5.0
 43
5.0
 50
90.0
  0
INSERT
  5
FC9
330
91E
100
AcDbEntity
  8
SUNPOU
100
AcDbBlockReference
  2
_OPEN30
 10
305.9595782073813
 20
111.9758026902802
 30
0.0
 41
5.0
 42
5.0
 43
5.0
 50
270.0
  0
MTEXT
  5
FCA
330
91E
100
AcDbEntity
  8
SUNPOU
100
AcDbMText
 10
301.4595782073813
 20
106.9758026902849
 30
0.0
 40
5.0
 41
0.0
 71
     5
 72
     1
  1
\A1;10
  7
SUNPOU
 11
0.0000000000000001
 21
1.0
 31
0.0
1001
ACAD
1000
MTEXTBEGIN
1070
    73
1070
     1
1070
    44
1040
1.0
1070
    74
1070
     0
1000
MTEXTEND
1000
MTEXTBEGIN
1070
    73
1070
     1
1070
    44
1040
1.0
1070
    74
1070
     0
1000
MTEXTEND
  0
POINT
  5
FCB
330
91E
100
AcDbEntity
  8
DEFPOINTS
 62
     0
100
AcDbPoint
 10
305.9595782073813
 20
101.9758026902896
 30
0.0
  0
POINT
  5
FCC
330
91E
100
AcDbEntity
  8
DEFPOINTS
 62
     0
100
AcDbPoint
 10
231.040421792619
 20
111.9758026902802
 30
0.0
  0
POINT
  5
FCD
330
91E
100
AcDbEntity
  8
DEFPOINTS
 62
     0
100
AcDbPoint
 10
305.9595782073813
 20
111.9758026902802
 30
0.0
  0
ENDBLK
  5
92B
330
91E
100
AcDbEntity
  8
0
100
AcDbBlockEnd
  0
BLOCK
  5
937
330
92D
100
AcDbEntity
  8
0
100
AcDbBlockBegin
  2
*D13
 70
     1
 10
0.0
 20
0.0
 30
0.0
  3
*D13
  1

  0
LINE
  5
FBA
330
92D
100
AcDbEntity
  8
SUNPOU
100
AcDbLine
 10
234.040421792619
 20
111.9758026902802
 30
0.0
 11
307.9595782073813
 21
111.9758026902802
 31
0.0
  0
LINE
  5
FBB
330
92D
100
AcDbEntity
  8
SUNPOU
100
AcDbLine
 10
240.5404217926184
 20
315.1379613356766
 30
0.0
 11
307.9595782073813
 21
315.1379613356766
 31
0.0
  0
LINE
  5
FBC
330
92D
100
AcDbEntity
  8
SUNPOU
100
AcDbLine
 10
305.9595782073813
 20
116.9758026902802
 30
0.0
 11
305.9595782073813
 21
310.1379613356765
 31
0.0
  0
INSERT
  5
FBD
330
92D
100
AcDbEntity
  8
SUNPOU
100
AcDbBlockReference
  2
_OPEN30
 10
305.9595782073813
 20
111.9758026902802
 30
0.0
 41
5.0
 42
5.0
 43
5.0
 50
270.0
  0
INSERT
  5
FBE
330
92D
100
AcDbEntity
  8
SUNPOU
100
AcDbBlockReference
  2
_OPEN30
 10
305.9595782073813
 20
315.1379613356766
 30
0.0
 41
5.0
 42
5.0
 43
5.0
 50
90.0
  0
MTEXT
  5
FBF
330
92D
100
AcDbEntity
  8
SUNPOU
100
AcDbMText
 10
301.4595782073813
 20
213.5568820129785
 30
0.0
 40
5.0
 41
0.0
 71
     5
 72
     1
  1
\A1;DH
  7
SUNPOU
 11
0.0000000000000001
 21
1.0
 31
0.0
1001
ACAD
1000
MTEXTBEGIN
1070
    73
1070
     1
1070
    44
1040
1.0
1070
    74
1070
     0
1000
MTEXTEND
1000
MTEXTBEGIN
1070
    73
1070
     1
1070
    44
1040
1.0
1070
    74
1070
     0
1000
MTEXTEND
  0
POINT
  5
FC0
330
92D
100
AcDbEntity
  8
DEFPOINTS
 62
     0
100
AcDbPoint
 10
231.040421792619
 20
111.9758026902802
 30
0.0
  0
POINT
  5
FC1
330
92D
100
AcDbEntity
  8
DEFPOINTS
 62
     0
100
AcDbPoint
 10
237.5404217926186
 20
315.1379613356766
 30
0.0
  0
POINT
  5
FC2
330
92D
100
AcDbEntity
  8
DEFPOINTS
 62
     0
100
AcDbPoint
 10
305.9595782073813
 20
315.1379613356766
 30
0.0
  0
ENDBLK
  5
938
330
92D
100
AcDbEntity
  8
0
100
AcDbBlockEnd
  0
BLOCK
  5
94D
330
943
100
AcDbEntity
  8
0
100
AcDbBlockBegin
  2
*D14
 70
     1
 10
0.0
 20
0.0
 30
0.0
  3
*D14
  1

  0
LINE
  5
FB1
330
943
100
AcDbEntity
  8
SUNPOU
100
AcDbLine
 10
322.7943760984182
 20
101.9758026902969
 30
0.0
 11
323.7943760984181
 21
101.9758026902969
 31
0.0
  0
LINE
  5
FB2
330
943
100
AcDbEntity
  8
SUNPOU
100
AcDbLine
 10
290.5404217926184
 20
305.1379613356766
 30
0.0
 11
327.7943760984181
 21
305.1379613356766
 31
0.0
  0
LINE
  5
FB3
330
943
100
AcDbEntity
  8
SUNPOU
100
AcDbLine
 10
325.7943760984181
 20
106.9758026902968
 30
0.0
 11
325.7943760984181
 21
300.1379613356766
 31
0.0
  0
INSERT
  5
FB4
330
943
100
AcDbEntity
  8
SUNPOU
100
AcDbBlockReference
  2
_OPEN30
 10
325.7943760984181
 20
101.9758026902969
 30
0.0
 41
5.0
 42
5.0
 43
5.0
 50
270.0
  0
INSERT
  5
FB5
330
943
100
AcDbEntity
  8
SUNPOU
100
AcDbBlockReference
  2
_OPEN30
 10
325.7943760984181
 20
305.1379613356766
 30
0.0
 41
5.0
 42
5.0
 43
5.0
 50
90.0
  0
MTEXT
  5
FB6
330
943
100
AcDbEntity
  8
SUNPOU
100
AcDbMText
 10
321.2943760984181
 20
203.5568820129868
 30
0.0
 40
5.0
 41
0.0
 71
     5
 72
     1
  1
\A1;H
  7
SUNPOU
 11
0.0000000000000001
 21
1.0
 31
0.0
1001
ACAD
1000
MTEXTBEGIN
1070
    73
1070
     1
1070
    44
1040
1.0
1070
    74
1070
     0
1000
MTEXTEND
1000
MTEXTBEGIN
1070
    73
1070
     1
1070
    44
1040
1.0
1070
    74
1070
     0
1000
MTEXTEND
  0
POINT
  5
FB7
330
943
100
AcDbEntity
  8
DEFPOINTS
 62
     0
100
AcDbPoint
 10
325.7943760984181
 20
101.9758026902969
 30
0.0
  0
POINT
  5
FB8
330
943
100
AcDbEntity
  8
DEFPOINTS
 62
     0
100
AcDbPoint
 10
287.5404217926186
 20
305.1379613356766
 30
0.0
  0
POINT
  5
FB9
330
943
100
AcDbEntity
  8
DEFPOINTS
 62
     0
100
AcDbPoint
 10
325.7943760984181
 20
305.1379613356766
 30
0.0
  0
ENDBLK
  5
94E
330
943
100
AcDbEntity
  8
0
100
AcDbBlockEnd
  0
BLOCK
  5
95A
330
950
100
AcDbEntity
  8
0
100
AcDbBlockBegin
  2
*D15
 70
     1
 10
0.0
 20
0.0
 30
0.0
  3
*D15
  1

  0
LINE
  5
FA8
330
950
100
AcDbEntity
  8
SUNPOU
100
AcDbLine
 10
290.5404217926184
 20
305.1379613356766
 30
0.0
 11
327.7943760984181
 21
305.1379613356766
 31
0.0
  0
LINE
  5
FA9
330
950
100
AcDbEntity
  8
SUNPOU
100
AcDbLine
 10
290.5404217926184
 20
505.1379613356766
 30
0.0
 11
327.7943760984181
 21
505.1379613356766
 31
0.0
  0
LINE
  5
FAA
330
950
100
AcDbEntity
  8
SUNPOU
100
AcDbLine
 10
325.7943760984181
 20
310.1379613356765
 30
0.0
 11
325.7943760984183
 21
500.1379613356767
 31
0.0
  0
INSERT
  5
FAB
330
950
100
AcDbEntity
  8
SUNPOU
100
AcDbBlockReference
  2
_OPEN30
 10
325.7943760984181
 20
305.1379613356766
 30
0.0
 41
5.0
 42
5.0
 43
5.0
 50
270.0
  0
INSERT
  5
FAC
330
950
100
AcDbEntity
  8
SUNPOU
100
AcDbBlockReference
  2
_OPEN30
 10
325.7943760984183
 20
505.1379613356766
 30
0.0
 41
5.0
 42
5.0
 43
5.0
 50
90.0
  0
MTEXT
  5
FAD
330
950
100
AcDbEntity
  8
SUNPOU
100
AcDbMText
 10
321.2943760984181
 20
405.1379613356766
 30
0.0
 40
5.0
 41
0.0
 71
     5
 72
     1
  1
\A1;200
  7
SUNPOU
 11
0.0000000000000001
 21
1.0
 31
0.0
1001
ACAD
1000
MTEXTBEGIN
1070
    73
1070
     1
1070
    44
1040
1.0
1070
    74
1070
     0
1000
MTEXTEND
1000
MTEXTBEGIN
1070
    73
1070
     1
1070
    44
1040
1.0
1070
    74
1070
     0
1000
MTEXTEND
  0
POINT
  5
FAE
330
950
100
AcDbEntity
  8
DEFPOINTS
 62
     0
100
AcDbPoint
 10
287.5404217926186
 20
305.1379613356766
 30
0.0
  0
POINT
  5
FAF
330
950
100
AcDbEntity
  8
DEFPOINTS
 62
     0
100
AcDbPoint
 10
287.5404217926186
 20
505.1379613356766
 30
0.0
  0
POINT
  5
FB0
330
950
100
AcDbEntity
  8
DEFPOINTS
 62
     0
100
AcDbPoint
 10
325.7943760984183
 20
505.1379613356766
 30
0.0
  0
ENDBLK
  5
95B
330
950
100
AcDbEntity
  8
0
100
AcDbBlockEnd
  0
BLOCK
  5
9B1
330
9A6
100
AcDbEntity
  8
0
100
AcDbBlockBegin
  2
*D16
 70
     1
 10
0.0
 20
0.0
 30
0.0
  3
*D16
  1

  0
LINE
  5
F9E
330
9A6
100
AcDbEntity
  8
SUNPOU
100
AcDbLine
 10
241.5404217926186
 20
315.1379613356766
 30
0.0
 11
251.5075096401476
 21
315.1379613356766
 31
0.0
  0
LINE
  5
F9F
330
9A6
100
AcDbEntity
  8
SUNPOU
100
AcDbLine
 10
249.5075096401476
 20
300.1379613356766
 30
0.0
 11
249.5075096401476
 21
295.1379613356765
 31
0.0
  0
LINE
  5
FA0
330
9A6
100
AcDbEntity
  8
SUNPOU
100
AcDbLine
 10
249.5075096401476
 20
320.1379613356766
 30
0.0
 11
249.5075096401476
 21
325.1379613356766
 31
0.0
  0
LINE
  5
FA1
330
9A6
100
AcDbEntity
  8
SUNPOU
100
AcDbLine
 10
249.5075096401476
 20
305.1379613356766
 30
0.0
 11
249.5075096401476
 21
315.1379613356766
 31
0.0
  0
INSERT
  5
FA2
330
9A6
100
AcDbEntity
  8
SUNPOU
100
AcDbBlockReference
  2
_OPEN30
 10
249.5075096401476
 20
305.1379613356766
 30
0.0
 41
5.0
 42
5.0
 43
5.0
 50
90.0
  0
INSERT
  5
FA3
330
9A6
100
AcDbEntity
  8
SUNPOU
100
AcDbBlockReference
  2
_OPEN30
 10
249.5075096401476
 20
315.1379613356766
 30
0.0
 41
5.0
 42
5.0
 43
5.0
 50
270.0
  0
MTEXT
  5
FA4
330
9A6
100
AcDbEntity
  8
SUNPOU
100
AcDbMText
 10
245.0075096401476
 20
310.1379613356765
 30
0.0
 40
5.0
 41
0.0
 71
     5
 72
     1
  1
\A1;10
  7
SUNPOU
 11
0.0000000000000001
 21
1.0
 31
0.0
1001
ACAD
1000
MTEXTBEGIN
1070
    73
1070
     1
1070
    44
1040
1.0
1070
    74
1070
     0
1000
MTEXTEND
1000
MTEXTBEGIN
1070
    73
1070
     1
1070
    44
1040
1.0
1070
    74
1070
     0
1000
MTEXTEND
  0
POINT
  5
FA5
330
9A6
100
AcDbEntity
  8
DEFPOINTS
 62
     0
100
AcDbPoint
 10
248.5075096401475
 20
305.1379613356766
 30
0.0
  0
POINT
  5
FA6
330
9A6
100
AcDbEntity
  8
DEFPOINTS
 62
     0
100
AcDbPoint
 10
238.5404217926184
 20
315.1379613356766
 30
0.0
  0
POINT
  5
FA7
330
9A6
100
AcDbEntity
  8
DEFPOINTS
 62
     0
100
AcDbPoint
 10
249.5075096401476
 20
315.1379613356766
 30
0.0
  0
ENDBLK
  5
9B2
330
9A6
100
AcDbEntity
  8
0
100
AcDbBlockEnd
  0
BLOCK
  5
9BE
330
9B4
100
AcDbEntity
  8
0
100
AcDbBlockBegin
  2
*D17
 70
     1
 10
0.0
 20
0.0
 30
0.0
  3
*D17
  1

  0
LINE
  5
1128
330
9B4
100
AcDbEntity
  8
SUNPOU
100
AcDbLine
 10
141.0404217926186
 20
388.1379613356766
 30
0.0
 11
141.0404217926186
 21
395.3001942575471
 31
0.0
  0
LINE
  5
1129
330
9B4
100
AcDbEntity
  8
SUNPOU
100
AcDbLine
 10
196.0404217926186
 20
382.1379613356766
 30
0.0
 11
196.0404217926186
 21
395.3001942575471
 31
0.0
  0
LINE
  5
112A
330
9B4
100
AcDbEntity
  8
SUNPOU
100
AcDbLine
 10
146.0404217926185
 20
393.3001942575471
 30
0.0
 11
191.0404217926186
 21
393.3001942575471
 31
0.0
  0
INSERT
  5
112B
330
9B4
100
AcDbEntity
  8
SUNPOU
100
AcDbBlockReference
  2
_OPEN30
 10
141.0404217926186
 20
393.3001942575471
 30
0.0
 41
5.0
 42
5.0
 43
5.0
 50
180.0
  0
INSERT
  5
112C
330
9B4
100
AcDbEntity
  8
SUNPOU
100
AcDbBlockReference
  2
_OPEN30
 10
196.0404217926186
 20
393.3001942575471
 30
0.0
 41
5.0
 42
5.0
 43
5.0
  0
MTEXT
  5
112D
330
9B4
100
AcDbEntity
  8
SUNPOU
100
AcDbMText
 10
168.5404217926184
 20
397.8001942575471
 30
0.0
 40
5.0
 41
0.0
 71
     5
 72
     1
  1
\A1;55
  7
SUNPOU
1001
ACAD
1000
MTEXTBEGIN
1070
    73
1070
     1
1070
    44
1040
1.0
1070
    74
1070
     0
1000
MTEXTEND
1000
MTEXTBEGIN
1070
    73
1070
     1
1070
    44
1040
1.0
1070
    74
1070
     0
1000
MTEXTEND
  0
POINT
  5
112E
330
9B4
100
AcDbEntity
  8
DEFPOINTS
 62
     0
100
AcDbPoint
 10
141.0404217926186
 20
385.1379613356766
 30
0.0
  0
POINT
  5
112F
330
9B4
100
AcDbEntity
  8
DEFPOINTS
 62
     0
100
AcDbPoint
 10
196.0404217926186
 20
379.1379613356766
 30
0.0
  0
POINT
  5
1130
330
9B4
100
AcDbEntity
  8
DEFPOINTS
 62
     0
100
AcDbPoint
 10
196.0404217926186
 20
393.3001942575471
 30
0.0
  0
ENDBLK
  5
9BF
330
9B4
100
AcDbEntity
  8
0
100
AcDbBlockEnd
  0
BLOCK
  5
9D8
330
9CE
100
AcDbEntity
  8
0
100
AcDbBlockBegin
  2
*D18
 70
     1
 10
0.0
 20
0.0
 30
0.0
  3
*D18
  1

  0
LINE
  5
F8C
330
9CE
100
AcDbEntity
  8
SUNPOU
100
AcDbLine
 10
109.0404217926185
 20
303.6379613356765
 30
0.0
 11
109.0404217926185
 21
286.1746946372251
 31
0.0
  0
LINE
  5
F8D
330
9CE
100
AcDbEntity
  8
SUNPOU
100
AcDbLine
 10
194.0404217926186
 20
303.6379613356765
 30
0.0
 11
194.0404217926186
 21
286.1746946372251
 31
0.0
  0
LINE
  5
F8E
330
9CE
100
AcDbEntity
  8
SUNPOU
100
AcDbLine
 10
114.0404217926185
 20
288.1746946372251
 30
0.0
 11
189.0404217926184
 21
288.1746946372251
 31
0.0
  0
INSERT
  5
F8F
330
9CE
100
AcDbEntity
  8
SUNPOU
100
AcDbBlockReference
  2
_OPEN30
 10
109.0404217926185
 20
288.1746946372251
 30
0.0
 41
5.0
 42
5.0
 43
5.0
 50
180.0
  0
INSERT
  5
F90
330
9CE
100
AcDbEntity
  8
SUNPOU
100
AcDbBlockReference
  2
_OPEN30
 10
194.0404217926186
 20
288.1746946372251
 30
0.0
 41
5.0
 42
5.0
 43
5.0
  0
MTEXT
  5
F91
330
9CE
100
AcDbEntity
  8
SUNPOU
100
AcDbMText
 10
151.5404217926185
 20
292.6746946372251
 30
0.0
 40
5.0
 41
0.0
 71
     5
 72
     1
  1
\A1;85
  7
SUNPOU
1001
ACAD
1000
MTEXTBEGIN
1070
    73
1070
     1
1070
    44
1040
1.0
1070
    74
1070
     0
1000
MTEXTEND
1000
MTEXTBEGIN
1070
    73
1070
     1
1070
    44
1040
1.0
1070
    74
1070
     0
1000
MTEXTEND
  0
POINT
  5
F92
330
9CE
100
AcDbEntity
  8
DEFPOINTS
 62
     0
100
AcDbPoint
 10
109.0404217926185
 20
306.6379613356766
 30
0.0
  0
POINT
  5
F93
330
9CE
100
AcDbEntity
  8
DEFPOINTS
 62
     0
100
AcDbPoint
 10
194.0404217926186
 20
306.6379613356766
 30
0.0
  0
POINT
  5
F94
330
9CE
100
AcDbEntity
  8
DEFPOINTS
 62
     0
100
AcDbPoint
 10
194.0404217926186
 20
288.1746946372251
 30
0.0
  0
ENDBLK
  5
9D9
330
9CE
100
AcDbEntity
  8
0
100
AcDbBlockEnd
  0
BLOCK
  5
9E7
330
9DB
100
AcDbEntity
  8
0
100
AcDbBlockBegin
  2
*D19
 70
     1
 10
0.0
 20
0.0
 30
0.0
  3
*D19
  1

  0
LINE
  5
F81
330
9DB
100
AcDbEntity
  8
SUNPOU
100
AcDbLine
 10
194.0404217926186
 20
303.6379613356765
 30
0.0
 11
194.0404217926186
 21
286.1746946372251
 31
0.0
  0
LINE
  5
F82
330
9DB
100
AcDbEntity
  8
SUNPOU
100
AcDbLine
 10
199.0404217926184
 20
310.1379613356766
 30
0.0
 11
199.0404217926184
 21
286.1746946372251
 31
0.0
  0
LINE
  5
F83
330
9DB
100
AcDbEntity
  8
SUNPOU
100
AcDbLine
 10
189.0404217926184
 20
288.1746946372251
 30
0.0
 11
184.0404217926184
 21
288.1746946372251
 31
0.0
  0
LINE
  5
F84
330
9DB
100
AcDbEntity
  8
SUNPOU
100
AcDbLine
 10
204.0404217926186
 20
288.1746946372251
 30
0.0
 11
209.0404217926184
 21
288.1746946372251
 31
0.0
  0
MTEXT
  5
F85
330
9DB
100
AcDbEntity
  8
SUNPOU
100
AcDbMText
 10
196.5404217926184
 20
292.7668418977655
 30
0.0
 40
5.0
 41
0.0
 71
     5
 72
     1
  1
\A1;5
  7
SUNPOU
1001
ACAD
1000
MTEXTBEGIN
1070
    73
1070
     1
1070
    44
1040
1.0
1070
    74
1070
     0
1000
MTEXTEND
1000
MTEXTBEGIN
1070
    73
1070
     1
1070
    44
1040
1.0
1070
    74
1070
     0
1000
MTEXTEND
  0
LINE
  5
F86
330
9DB
100
AcDbEntity
  8
SUNPOU
100
AcDbLine
 10
194.0404217926186
 20
288.1746946372251
 30
0.0
 11
199.0404217926184
 21
288.1746946372251
 31
0.0
  0
INSERT
  5
F87
330
9DB
100
AcDbEntity
  8
SUNPOU
100
AcDbBlockReference
  2
_OPEN30
 10
194.0404217926186
 20
288.1746946372251
 30
0.0
 41
5.0
 42
5.0
 43
5.0
  0
INSERT
  5
F88
330
9DB
100
AcDbEntity
  8
SUNPOU
100
AcDbBlockReference
  2
_OPEN30
 10
199.0404217926184
 20
288.1746946372251
 30
0.0
 41
5.0
 42
5.0
 43
5.0
 50
180.0
  0
POINT
  5
F89
330
9DB
100
AcDbEntity
  8
DEFPOINTS
 62
     0
100
AcDbPoint
 10
194.0404217926186
 20
306.6379613356766
 30
0.0
  0
POINT
  5
F8A
330
9DB
100
AcDbEntity
  8
DEFPOINTS
 62
     0
100
AcDbPoint
 10
199.0404217926184
 20
313.1379613356766
 30
0.0
  0
POINT
  5
F8B
330
9DB
100
AcDbEntity
  8
DEFPOINTS
 62
     0
100
AcDbPoint
 10
199.0404217926184
 20
288.1746946372251
 30
0.0
  0
ENDBLK
  5
9E8
330
9DB
100
AcDbEntity
  8
0
100
AcDbBlockEnd
  0
BLOCK
  5
A01
330
9F7
100
AcDbEntity
  8
0
100
AcDbBlockBegin
  2
*D20
 70
     1
 10
0.0
 20
0.0
 30
0.0
  3
*D20
  1

  0
LINE
  5
F78
330
9F7
100
AcDbEntity
  8
SUNPOU
100
AcDbLine
 10
199.0404217926184
 20
310.1379613356766
 30
0.0
 11
199.0404217926184
 21
286.1746946372251
 31
0.0
  0
LINE
  5
F79
330
9F7
100
AcDbEntity
  8
SUNPOU
100
AcDbLine
 10
231.0404217926186
 20
309.6379613356763
 30
0.0
 11
231.0404217926186
 21
286.1746946372251
 31
0.0
  0
LINE
  5
F7A
330
9F7
100
AcDbEntity
  8
SUNPOU
100
AcDbLine
 10
204.0404217926186
 20
288.1746946372251
 30
0.0
 11
226.0404217926184
 21
288.1746946372251
 31
0.0
  0
MTEXT
  5
F7B
330
9F7
100
AcDbEntity
  8
SUNPOU
100
AcDbMText
 10
215.0404217926184
 20
282.6229564485663
 30
0.0
 40
5.0
 41
0.0
 71
     5
 72
     1
  1
\A1;32
  7
SUNPOU
1001
ACAD
1000
MTEXTBEGIN
1070
    73
1070
     1
1070
    44
1040
1.0
1070
    74
1070
     0
1000
MTEXTEND
1000
MTEXTBEGIN
1070
    73
1070
     1
1070
    44
1040
1.0
1070
    74
1070
     0
1000
MTEXTEND
  0
INSERT
  5
F7C
330
9F7
100
AcDbEntity
  8
SUNPOU
100
AcDbBlockReference
  2
_OPEN30
 10
199.0404217926184
 20
288.1746946372251
 30
0.0
 41
5.0
 42
5.0
 43
5.0
 50
180.0
  0
INSERT
  5
F7D
330
9F7
100
AcDbEntity
  8
SUNPOU
100
AcDbBlockReference
  2
_OPEN30
 10
231.0404217926186
 20
288.1746946372251
 30
0.0
 41
5.0
 42
5.0
 43
5.0
  0
POINT
  5
F7E
330
9F7
100
AcDbEntity
  8
DEFPOINTS
 62
     0
100
AcDbPoint
 10
199.0404217926184
 20
313.1379613356766
 30
0.0
  0
POINT
  5
F7F
330
9F7
100
AcDbEntity
  8
DEFPOINTS
 62
     0
100
AcDbPoint
 10
231.0404217926186
 20
312.6379613356764
 30
0.0
  0
POINT
  5
F80
330
9F7
100
AcDbEntity
  8
DEFPOINTS
 62
     0
100
AcDbPoint
 10
231.0404217926186
 20
288.1746946372251
 30
0.0
  0
ENDBLK
  5
A02
330
9F7
100
AcDbEntity
  8
0
100
AcDbBlockEnd
  0
BLOCK
  5
A10
330
A04
100
AcDbEntity
  8
0
100
AcDbBlockBegin
  2
*D21
 70
     1
 10
0.0
 20
0.0
 30
0.0
  3
*D21
  1

  0
LINE
  5
F6D
330
A04
100
AcDbEntity
  8
SUNPOU
100
AcDbLine
 10
231.0404217926186
 20
309.6379613356763
 30
0.0
 11
231.0404217926186
 21
286.1746946372251
 31
0.0
  0
LINE
  5
F6E
330
A04
100
AcDbEntity
  8
SUNPOU
100
AcDbLine
 10
236.0404217926184
 20
303.6379613356765
 30
0.0
 11
236.0404217926184
 21
286.1746946372251
 31
0.0
  0
LINE
  5
F6F
330
A04
100
AcDbEntity
  8
SUNPOU
100
AcDbLine
 10
226.0404217926184
 20
288.1746946372251
 30
0.0
 11
221.0404217926186
 21
288.1746946372251
 31
0.0
  0
LINE
  5
F70
330
A04
100
AcDbEntity
  8
SUNPOU
100
AcDbLine
 10
241.0404217926184
 20
288.1746946372251
 30
0.0
 11
246.0404217926184
 21
288.1746946372251
 31
0.0
  0
MTEXT
  5
F71
330
A04
100
AcDbEntity
  8
SUNPOU
100
AcDbMText
 10
233.5404217926186
 20
292.6350562647527
 30
0.0
 40
5.0
 41
0.0
 71
     5
 72
     1
  1
\A1;5
  7
SUNPOU
1001
ACAD
1000
MTEXTBEGIN
1070
    73
1070
     1
1070
    44
1040
1.0
1070
    74
1070
     0
1000
MTEXTEND
1000
MTEXTBEGIN
1070
    73
1070
     1
1070
    44
1040
1.0
1070
    74
1070
     0
1000
MTEXTEND
  0
LINE
  5
F72
330
A04
100
AcDbEntity
  8
SUNPOU
100
AcDbLine
 10
231.0404217926186
 20
288.1746946372251
 30
0.0
 11
236.0404217926184
 21
288.1746946372251
 31
0.0
  0
INSERT
  5
F73
330
A04
100
AcDbEntity
  8
SUNPOU
100
AcDbBlockReference
  2
_OPEN30
 10
231.0404217926186
 20
288.1746946372251
 30
0.0
 41
5.0
 42
5.0
 43
5.0
  0
INSERT
  5
F74
330
A04
100
AcDbEntity
  8
SUNPOU
100
AcDbBlockReference
  2
_OPEN30
 10
236.0404217926184
 20
288.1746946372251
 30
0.0
 41
5.0
 42
5.0
 43
5.0
 50
180.0
  0
POINT
  5
F75
330
A04
100
AcDbEntity
  8
DEFPOINTS
 62
     0
100
AcDbPoint
 10
231.0404217926186
 20
312.6379613356764
 30
0.0
  0
POINT
  5
F76
330
A04
100
AcDbEntity
  8
DEFPOINTS
 62
     0
100
AcDbPoint
 10
236.0404217926184
 20
306.6379613356766
 30
0.0
  0
POINT
  5
F77
330
A04
100
AcDbEntity
  8
DEFPOINTS
 62
     0
100
AcDbPoint
 10
236.0404217926184
 20
288.1746946372251
 30
0.0
  0
ENDBLK
  5
A11
330
A04
100
AcDbEntity
  8
0
100
AcDbBlockEnd
  0
BLOCK
  5
A1D
330
A13
100
AcDbEntity
  8
0
100
AcDbBlockBegin
  2
*D22
 70
     1
 10
0.0
 20
0.0
 30
0.0
  3
*D22
  1

  0
LINE
  5
F64
330
A13
100
AcDbEntity
  8
SUNPOU
100
AcDbLine
 10
236.0404217926184
 20
303.6379613356765
 30
0.0
 11
236.0404217926184
 21
286.1746946372251
 31
0.0
  0
LINE
  5
F65
330
A13
100
AcDbEntity
  8
SUNPOU
100
AcDbLine
 10
289.0404217926184
 20
303.6379613356765
 30
0.0
 11
289.0404217926184
 21
286.1746946372251
 31
0.0
  0
LINE
  5
F66
330
A13
100
AcDbEntity
  8
SUNPOU
100
AcDbLine
 10
241.0404217926184
 20
288.1746946372251
 30
0.0
 11
284.0404217926184
 21
288.1746946372251
 31
0.0
  0
INSERT
  5
F67
330
A13
100
AcDbEntity
  8
SUNPOU
100
AcDbBlockReference
  2
_OPEN30
 10
236.0404217926184
 20
288.1746946372251
 30
0.0
 41
5.0
 42
5.0
 43
5.0
 50
180.0
  0
INSERT
  5
F68
330
A13
100
AcDbEntity
  8
SUNPOU
100
AcDbBlockReference
  2
_OPEN30
 10
289.0404217926184
 20
288.1746946372251
 30
0.0
 41
5.0
 42
5.0
 43
5.0
  0
MTEXT
  5
F69
330
A13
100
AcDbEntity
  8
SUNPOU
100
AcDbMText
 10
262.5404217926186
 20
292.6746946372251
 30
0.0
 40
5.0
 41
0.0
 71
     5
 72
     1
  1
\A1;53
  7
SUNPOU
1001
ACAD
1000
MTEXTBEGIN
1070
    73
1070
     1
1070
    44
1040
1.0
1070
    74
1070
     0
1000
MTEXTEND
1000
MTEXTBEGIN
1070
    73
1070
     1
1070
    44
1040
1.0
1070
    74
1070
     0
1000
MTEXTEND
  0
POINT
  5
F6A
330
A13
100
AcDbEntity
  8
DEFPOINTS
 62
     0
100
AcDbPoint
 10
236.0404217926184
 20
306.6379613356766
 30
0.0
  0
POINT
  5
F6B
330
A13
100
AcDbEntity
  8
DEFPOINTS
 62
     0
100
AcDbPoint
 10
289.0404217926184
 20
306.6379613356766
 30
0.0
  0
POINT
  5
F6C
330
A13
100
AcDbEntity
  8
DEFPOINTS
 62
     0
100
AcDbPoint
 10
289.0404217926184
 20
288.1746946372251
 30
0.0
  0
ENDBLK
  5
A1E
330
A13
100
AcDbEntity
  8
0
100
AcDbBlockEnd
  0
BLOCK
  5
A2A
330
A20
100
AcDbEntity
  8
0
100
AcDbBlockBegin
  2
*D23
 70
     1
 10
0.0
 20
0.0
 30
0.0
  3
*D23
  1

  0
LINE
  5
F5B
330
A20
100
AcDbEntity
  8
SUNPOU
100
AcDbLine
 10
94.04042179261855
 20
277.4743581048058
 30
0.0
 11
94.04042179261855
 21
276.4743581048057
 31
0.0
  0
LINE
  5
F5C
330
A20
100
AcDbEntity
  8
SUNPOU
100
AcDbLine
 10
194.0404217926186
 20
303.6379613356765
 30
0.0
 11
194.0404217926186
 21
272.4743581048057
 31
0.0
  0
LINE
  5
F5D
330
A20
100
AcDbEntity
  8
SUNPOU
100
AcDbLine
 10
99.04042179261857
 20
274.4743581048057
 30
0.0
 11
189.0404217926184
 21
274.4743581048057
 31
0.0
  0
MTEXT
  5
F5E
330
A20
100
AcDbEntity
  8
SUNPOU
100
AcDbMText
 10
150.8215464300515
 20
278.9743581048057
 30
0.0
 40
5.0
 41
0.0
 71
     5
 72
     1
  1
\A1;100
  7
SUNPOU
1001
ACAD
1000
MTEXTBEGIN
1070
    73
1070
     1
1070
    44
1040
1.0
1070
    74
1070
     0
1000
MTEXTEND
1000
MTEXTBEGIN
1070
    73
1070
     1
1070
    44
1040
1.0
1070
    74
1070
     0
1000
MTEXTEND
  0
INSERT
  5
F5F
330
A20
100
AcDbEntity
  8
SUNPOU
100
AcDbBlockReference
  2
_OPEN30
 10
94.04042179261855
 20
274.4743581048057
 30
0.0
 41
5.0
 42
5.0
 43
5.0
 50
180.0
  0
INSERT
  5
F60
330
A20
100
AcDbEntity
  8
SUNPOU
100
AcDbBlockReference
  2
_OPEN30
 10
194.0404217926186
 20
274.4743581048057
 30
0.0
 41
5.0
 42
5.0
 43
5.0
  0
POINT
  5
F61
330
A20
100
AcDbEntity
  8
DEFPOINTS
 62
     0
100
AcDbPoint
 10
94.04042179261855
 20
274.4743581048057
 30
0.0
  0
POINT
  5
F62
330
A20
100
AcDbEntity
  8
DEFPOINTS
 62
     0
100
AcDbPoint
 10
194.0404217926186
 20
306.6379613356766
 30
0.0
  0
POINT
  5
F63
330
A20
100
AcDbEntity
  8
DEFPOINTS
 62
     0
100
AcDbPoint
 10
194.0404217926186
 20
274.4743581048057
 30
0.0
  0
ENDBLK
  5
A2B
330
A20
100
AcDbEntity
  8
0
100
AcDbBlockEnd
  0
BLOCK
  5
A37
330
A2D
100
AcDbEntity
  8
0
100
AcDbBlockBegin
  2
*D24
 70
     1
 10
0.0
 20
0.0
 30
0.0
  3
*D24
  1

  0
LINE
  5
F52
330
A2D
100
AcDbEntity
  8
SUNPOU
100
AcDbLine
 10
194.0404217926186
 20
303.6379613356765
 30
0.0
 11
194.0404217926186
 21
272.4743581048057
 31
0.0
  0
LINE
  5
F53
330
A2D
100
AcDbEntity
  8
SUNPOU
100
AcDbLine
 10
289.0404217926184
 20
303.6379613356765
 30
0.0
 11
289.0404217926184
 21
272.4743581048057
 31
0.0
  0
LINE
  5
F54
330
A2D
100
AcDbEntity
  8
SUNPOU
100
AcDbLine
 10
199.0404217926184
 20
274.4743581048057
 30
0.0
 11
284.0404217926184
 21
274.4743581048057
 31
0.0
  0
INSERT
  5
F55
330
A2D
100
AcDbEntity
  8
SUNPOU
100
AcDbBlockReference
  2
_OPEN30
 10
194.0404217926186
 20
274.4743581048057
 30
0.0
 41
5.0
 42
5.0
 43
5.0
 50
180.0
  0
INSERT
  5
F56
330
A2D
100
AcDbEntity
  8
SUNPOU
100
AcDbBlockReference
  2
_OPEN30
 10
289.0404217926184
 20
274.4743581048057
 30
0.0
 41
5.0
 42
5.0
 43
5.0
  0
MTEXT
  5
F57
330
A2D
100
AcDbEntity
  8
SUNPOU
100
AcDbMText
 10
241.5404217926186
 20
278.9743581048057
 30
0.0
 40
5.0
 41
0.0
 71
     5
 72
     1
  1
\A1;95
  7
SUNPOU
1001
ACAD
1000
MTEXTBEGIN
1070
    73
1070
     1
1070
    44
1040
1.0
1070
    74
1070
     0
1000
MTEXTEND
1000
MTEXTBEGIN
1070
    73
1070
     1
1070
    44
1040
1.0
1070
    74
1070
     0
1000
MTEXTEND
  0
POINT
  5
F58
330
A2D
100
AcDbEntity
  8
DEFPOINTS
 62
     0
100
AcDbPoint
 10
194.0404217926186
 20
306.6379613356766
 30
0.0
  0
POINT
  5
F59
330
A2D
100
AcDbEntity
  8
DEFPOINTS
 62
     0
100
AcDbPoint
 10
289.0404217926184
 20
306.6379613356766
 30
0.0
  0
POINT
  5
F5A
330
A2D
100
AcDbEntity
  8
DEFPOINTS
 62
     0
100
AcDbPoint
 10
289.0404217926184
 20
274.4743581048057
 30
0.0
  0
ENDBLK
  5
A38
330
A2D
100
AcDbEntity
  8
0
100
AcDbBlockEnd
  0
BLOCK
  5
A44
330
A3A
100
AcDbEntity
  8
0
100
AcDbBlockBegin
  2
*D25
 70
     1
 10
0.0
 20
0.0
 30
0.0
  3
*D25
  1

  0
LINE
  5
F49
330
A3A
100
AcDbEntity
  8
SUNPOU
100
AcDbLine
 10
94.04042179261855
 20
265.2315041822181
 30
0.0
 11
94.04042179261855
 21
264.2315041822181
 31
0.0
  0
LINE
  5
F4A
330
A3A
100
AcDbEntity
  8
SUNPOU
100
AcDbLine
 10
109.0404217926185
 20
303.6379613356765
 30
0.0
 11
109.0404217926185
 21
260.2315041822181
 31
0.0
  0
LINE
  5
F4B
330
A3A
100
AcDbEntity
  8
SUNPOU
100
AcDbLine
 10
99.04042179261857
 20
262.2315041822181
 30
0.0
 11
104.0404217926184
 21
262.2315041822181
 31
0.0
  0
INSERT
  5
F4C
330
A3A
100
AcDbEntity
  8
SUNPOU
100
AcDbBlockReference
  2
_OPEN30
 10
94.04042179261855
 20
262.2315041822181
 30
0.0
 41
5.0
 42
5.0
 43
5.0
 50
180.0
  0
INSERT
  5
F4D
330
A3A
100
AcDbEntity
  8
SUNPOU
100
AcDbBlockReference
  2
_OPEN30
 10
109.0404217926185
 20
262.2315041822181
 30
0.0
 41
5.0
 42
5.0
 43
5.0
  0
MTEXT
  5
F4E
330
A3A
100
AcDbEntity
  8
SUNPOU
100
AcDbMText
 10
101.5404217926185
 20
266.7315041822181
 30
0.0
 40
5.0
 41
0.0
 71
     5
 72
     1
  1
\A1;15
  7
SUNPOU
1001
ACAD
1000
MTEXTBEGIN
1070
    73
1070
     1
1070
    44
1040
1.0
1070
    74
1070
     0
1000
MTEXTEND
1000
MTEXTBEGIN
1070
    73
1070
     1
1070
    44
1040
1.0
1070
    74
1070
     0
1000
MTEXTEND
  0
POINT
  5
F4F
330
A3A
100
AcDbEntity
  8
DEFPOINTS
 62
     0
100
AcDbPoint
 10
94.04042179261855
 20
262.2315041822181
 30
0.0
  0
POINT
  5
F50
330
A3A
100
AcDbEntity
  8
DEFPOINTS
 62
     0
100
AcDbPoint
 10
109.0404217926185
 20
306.6379613356766
 30
0.0
  0
POINT
  5
F51
330
A3A
100
AcDbEntity
  8
DEFPOINTS
 62
     0
100
AcDbPoint
 10
109.0404217926185
 20
262.2315041822181
 30
0.0
  0
ENDBLK
  5
A45
330
A3A
100
AcDbEntity
  8
0
100
AcDbBlockEnd
  0
BLOCK
  5
A51
330
A47
100
AcDbEntity
  8
0
100
AcDbBlockBegin
  2
*D26
 70
     1
 10
0.0
 20
0.0
 30
0.0
  3
*D26
  1

  0
LINE
  5
F40
330
A47
100
AcDbEntity
  8
SUNPOU
100
AcDbLine
 10
109.0404217926185
 20
303.6379613356765
 30
0.0
 11
109.0404217926185
 21
260.2315041822181
 31
0.0
  0
LINE
  5
F41
330
A47
100
AcDbEntity
  8
SUNPOU
100
AcDbLine
 10
289.0404217926184
 20
303.6379613356765
 30
0.0
 11
289.0404217926184
 21
260.2315041822181
 31
0.0
  0
LINE
  5
F42
330
A47
100
AcDbEntity
  8
SUNPOU
100
AcDbLine
 10
114.0404217926185
 20
262.2315041822181
 30
0.0
 11
284.0404217926184
 21
262.2315041822181
 31
0.0
  0
MTEXT
  5
F43
330
A47
100
AcDbEntity
  8
SUNPOU
100
AcDbMText
 10
186.8760016524739
 20
266.7315041822181
 30
0.0
 40
5.0
 41
0.0
 71
     5
 72
     1
  1
\A1;180
  7
SUNPOU
1001
ACAD
1000
MTEXTBEGIN
1070
    73
1070
     1
1070
    44
1040
1.0
1070
    74
1070
     0
1000
MTEXTEND
1000
MTEXTBEGIN
1070
    73
1070
     1
1070
    44
1040
1.0
1070
    74
1070
     0
1000
MTEXTEND
  0
INSERT
  5
F44
330
A47
100
AcDbEntity
  8
SUNPOU
100
AcDbBlockReference
  2
_OPEN30
 10
109.0404217926185
 20
262.2315041822181
 30
0.0
 41
5.0
 42
5.0
 43
5.0
 50
180.0
  0
INSERT
  5
F45
330
A47
100
AcDbEntity
  8
SUNPOU
100
AcDbBlockReference
  2
_OPEN30
 10
289.0404217926184
 20
262.2315041822181
 30
0.0
 41
5.0
 42
5.0
 43
5.0
  0
POINT
  5
F46
330
A47
100
AcDbEntity
  8
DEFPOINTS
 62
     0
100
AcDbPoint
 10
109.0404217926185
 20
306.6379613356766
 30
0.0
  0
POINT
  5
F47
330
A47
100
AcDbEntity
  8
DEFPOINTS
 62
     0
100
AcDbPoint
 10
289.0404217926184
 20
306.6379613356766
 30
0.0
  0
POINT
  5
F48
330
A47
100
AcDbEntity
  8
DEFPOINTS
 62
     0
100
AcDbPoint
 10
289.0404217926184
 20
262.2315041822181
 30
0.0
  0
ENDBLK
  5
A52
330
A47
100
AcDbEntity
  8
0
100
AcDbBlockEnd
  0
BLOCK
  5
A76
330
A6C
100
AcDbEntity
  8
0
100
AcDbBlockBegin
  2
*D27
 70
     1
 10
0.0
 20
0.0
 30
0.0
  3
*D27
  1

  0
LINE
  5
F37
330
A6C
100
AcDbEntity
  8
SUNPOU
100
AcDbLine
 10
206.3904217908236
 20
76.97580269027992
 30
0.0
 11
206.3904217908236
 21
64.88973127277876
 31
0.0
  0
LINE
  5
F38
330
A6C
100
AcDbEntity
  8
SUNPOU
100
AcDbLine
 10
223.3904217908236
 20
76.97580269028001
 30
0.0
 11
223.3904217908236
 21
64.88973127277876
 31
0.0
  0
LINE
  5
F39
330
A6C
100
AcDbEntity
  8
SUNPOU
100
AcDbLine
 10
211.3904217908236
 20
66.88973127277876
 30
0.0
 11
218.3904217908236
 21
66.88973127277876
 31
0.0
  0
INSERT
  5
F3A
330
A6C
100
AcDbEntity
  8
SUNPOU
100
AcDbBlockReference
  2
_OPEN30
 10
206.3904217908236
 20
66.88973127277876
 30
0.0
 41
5.0
 42
5.0
 43
5.0
 50
180.0
  0
INSERT
  5
F3B
330
A6C
100
AcDbEntity
  8
SUNPOU
100
AcDbBlockReference
  2
_OPEN30
 10
223.3904217908236
 20
66.88973127277876
 30
0.0
 41
5.0
 42
5.0
 43
5.0
  0
MTEXT
  5
F3C
330
A6C
100
AcDbEntity
  8
SUNPOU
100
AcDbMText
 10
214.8904217908238
 20
71.38973127277878
 30
0.0
 40
5.0
 41
0.0
 71
     5
 72
     1
  1
\A1;17
  7
SUNPOU
1001
ACAD
1000
MTEXTBEGIN
1070
    73
1070
     1
1070
    44
1040
1.0
1070
    74
1070
     0
1000
MTEXTEND
1000
MTEXTBEGIN
1070
    73
1070
     1
1070
    44
1040
1.0
1070
    74
1070
     0
1000
MTEXTEND
  0
POINT
  5
F3D
330
A6C
100
AcDbEntity
  8
DEFPOINTS
 62
     0
100
AcDbPoint
 10
206.3904217908236
 20
79.97580269027992
 30
0.0
  0
POINT
  5
F3E
330
A6C
100
AcDbEntity
  8
DEFPOINTS
 62
     0
100
AcDbPoint
 10
223.3904217908236
 20
79.97580269028
 30
0.0
  0
POINT
  5
F3F
330
A6C
100
AcDbEntity
  8
DEFPOINTS
 62
     0
100
AcDbPoint
 10
223.3904217908236
 20
66.88973127277876
 30
0.0
  0
ENDBLK
  5
A77
330
A6C
100
AcDbEntity
  8
0
100
AcDbBlockEnd
  0
BLOCK
  5
AAE
330
AA7
100
AcDbEntity
  8
0
100
AcDbBlockBegin
  2
*D28
 70
     1
 10
0.0
 20
0.0
 30
0.0
  3
*D28
  1

  0
LINE
  5
F2F
330
AA7
100
AcDbEntity
  8
SUNPOU
100
AcDbLine
 10
156.4306119020249
 20
411.4795040669835
 30
0.0
 11
152.7781594293766
 21
408.06488974981
 31
0.0
  0
LINE
  5
F30
330
AA7
100
AcDbEntity
  8
SUNPOU
100
AcDbLine
 10
185.650231683212
 20
438.7964186043696
 30
0.0
 11
189.3026841558604
 21
442.211032921543
 31
0.0
  0
MTEXT
  5
F31
330
AA7
100
AcDbEntity
  8
SUNPOU
100
AcDbMText
 10
168.195828977057
 20
428.2349961301072
 30
0.0
 40
5.0
 41
0.0
 71
     5
 72
     1
  1
\A1;配線孔\U+220530
  7
SUNPOU
 11
0.7304904945296748
 21
0.6829228634346569
 31
0.0
1001
ACAD
1000
MTEXTBEGIN
1070
    73
1070
     1
1070
    44
1040
1.0
1070
    74
1070
     0
1000
MTEXTEND
1000
MTEXTBEGIN
1070
    73
1070
     1
1070
    44
1040
1.0
1070
    74
1070
     0
1000
MTEXTEND
  0
LINE
  5
F32
330
AA7
100
AcDbEntity
  8
SUNPOU
100
AcDbLine
 10
160.0830643746734
 20
414.8941183841567
 30
0.0
 11
181.9977792105636
 21
435.3818042871965
 31
0.0
  0
INSERT
  5
F33
330
AA7
100
AcDbEntity
  8
SUNPOU
100
AcDbBlockReference
  2
_OPEN30
 10
160.0830643746734
 20
414.8941183841567
 30
0.0
 41
5.0
 42
5.0
 43
5.0
 50
43.07247028711795
  0
INSERT
  5
F34
330
AA7
100
AcDbEntity
  8
SUNPOU
100
AcDbBlockReference
  2
_OPEN30
 10
181.9977792105636
 20
435.3818042871965
 30
0.0
 41
5.0
 42
5.0
 43
5.0
 50
223.0724702871178
  0
POINT
  5
F35
330
AA7
100
AcDbEntity
  8
DEFPOINTS
 62
     0
100
AcDbPoint
 10
181.9977792105636
 20
435.3818042871965
 30
0.0
  0
POINT
  5
F36
330
AA7
100
AcDbEntity
  8
DEFPOINTS
 62
     0
100
AcDbPoint
 10
160.0830643746734
 20
414.8941183841567
 30
0.0
  0
ENDBLK
  5
AAF
330
AA7
100
AcDbEntity
  8
0
100
AcDbBlockEnd
  0
BLOCK
  5
AD2
330
AC6
100
AcDbEntity
  8
0
100
AcDbBlockBegin
  2
*D29
 70
     1
 10
0.0
 20
0.0
 30
0.0
  3
*D29
  1

  0
LINE
  5
F24
330
AC6
100
AcDbEntity
  8
SUNPOU
100
AcDbLine
 10
94.0404217926186
 20
540.9170548326414
 30
0.0
 11
94.0404217926186
 21
539.9170548326415
 31
0.0
  0
LINE
  5
F25
330
AC6
100
AcDbEntity
  8
SUNPOU
100
AcDbLine
 10
97.04042179261858
 20
543.6379613356766
 30
0.0
 11
97.04042179261858
 21
535.9170548326415
 31
0.0
  0
LINE
  5
F26
330
AC6
100
AcDbEntity
  8
SUNPOU
100
AcDbLine
 10
89.0404217926186
 20
537.9170548326413
 30
0.0
 11
84.04042179261859
 21
537.9170548326413
 31
0.0
  0
LINE
  5
F27
330
AC6
100
AcDbEntity
  8
SUNPOU
100
AcDbLine
 10
102.0404217926184
 20
537.9170548326413
 30
0.0
 11
107.0404217926185
 21
537.9170548326413
 31
0.0
  0
MTEXT
  5
F28
330
AC6
100
AcDbEntity
  8
SUNPOU
100
AcDbMText
 10
85.46648349889007
 20
542.4926546646036
 30
0.0
 40
5.0
 41
0.0
 71
     5
 72
     1
  1
\A1;3
  7
SUNPOU
1001
ACAD
1000
MTEXTBEGIN
1070
    73
1070
     1
1070
    44
1040
1.0
1070
    74
1070
     0
1000
MTEXTEND
1000
MTEXTBEGIN
1070
    73
1070
     1
1070
    44
1040
1.0
1070
    74
1070
     0
1000
MTEXTEND
  0
LINE
  5
F29
330
AC6
100
AcDbEntity
  8
SUNPOU
100
AcDbLine
 10
94.0404217926186
 20
537.9170548326413
 30
0.0
 11
97.04042179261858
 21
537.9170548326413
 31
0.0
  0
INSERT
  5
F2A
330
AC6
100
AcDbEntity
  8
SUNPOU
100
AcDbBlockReference
  2
_OPEN30
 10
94.0404217926186
 20
537.9170548326413
 30
0.0
 41
5.0
 42
5.0
 43
5.0
  0
INSERT
  5
F2B
330
AC6
100
AcDbEntity
  8
SUNPOU
100
AcDbBlockReference
  2
_OPEN30
 10
97.04042179261858
 20
537.9170548326413
 30
0.0
 41
5.0
 42
5.0
 43
5.0
 50
180.0
  0
POINT
  5
F2C
330
AC6
100
AcDbEntity
  8
DEFPOINTS
 62
     0
100
AcDbPoint
 10
94.0404217926186
 20
537.9170548326413
 30
0.0
  0
POINT
  5
F2D
330
AC6
100
AcDbEntity
  8
DEFPOINTS
 62
     0
100
AcDbPoint
 10
97.04042179261858
 20
546.6379613356767
 30
0.0
  0
POINT
  5
F2E
330
AC6
100
AcDbEntity
  8
DEFPOINTS
 62
     0
100
AcDbPoint
 10
97.04042179261858
 20
537.9170548326413
 30
0.0
  0
ENDBLK
  5
AD3
330
AC6
100
AcDbEntity
  8
0
100
AcDbBlockEnd
  0
BLOCK
  5
ADF
330
AD5
100
AcDbEntity
  8
0
100
AcDbBlockBegin
  2
*D30
 70
     1
 10
0.0
 20
0.0
 30
0.0
  3
*D30
  1

  0
LINE
  5
F1B
330
AD5
100
AcDbEntity
  8
SUNPOU
100
AcDbLine
 10
97.04042179261858
 20
543.6379613356766
 30
0.0
 11
97.04042179261858
 21
535.9170548326415
 31
0.0
  0
LINE
  5
F1C
330
AD5
100
AcDbEntity
  8
SUNPOU
100
AcDbLine
 10
191.0404217926186
 20
543.6379613356766
 30
0.0
 11
191.0404217926186
 21
535.9170548326415
 31
0.0
  0
LINE
  5
F1D
330
AD5
100
AcDbEntity
  8
SUNPOU
100
AcDbLine
 10
102.0404217926184
 20
537.9170548326413
 30
0.0
 11
186.0404217926186
 21
537.9170548326413
 31
0.0
  0
MTEXT
  5
F1E
330
AD5
100
AcDbEntity
  8
SUNPOU
100
AcDbMText
 10
156.3874833418016
 20
542.4170548326413
 30
0.0
 40
5.0
 41
0.0
 71
     5
 72
     1
  1
\A1;94
  7
SUNPOU
1001
ACAD
1000
MTEXTBEGIN
1070
    73
1070
     1
1070
    44
1040
1.0
1070
    74
1070
     0
1000
MTEXTEND
1000
MTEXTBEGIN
1070
    73
1070
     1
1070
    44
1040
1.0
1070
    74
1070
     0
1000
MTEXTEND
  0
INSERT
  5
F1F
330
AD5
100
AcDbEntity
  8
SUNPOU
100
AcDbBlockReference
  2
_OPEN30
 10
97.04042179261858
 20
537.9170548326413
 30
0.0
 41
5.0
 42
5.0
 43
5.0
 50
180.0
  0
INSERT
  5
F20
330
AD5
100
AcDbEntity
  8
SUNPOU
100
AcDbBlockReference
  2
_OPEN30
 10
191.0404217926186
 20
537.9170548326413
 30
0.0
 41
5.0
 42
5.0
 43
5.0
  0
POINT
  5
F21
330
AD5
100
AcDbEntity
  8
DEFPOINTS
 62
     0
100
AcDbPoint
 10
97.04042179261858
 20
546.6379613356767
 30
0.0
  0
POINT
  5
F22
330
AD5
100
AcDbEntity
  8
DEFPOINTS
 62
     0
100
AcDbPoint
 10
191.0404217926186
 20
546.6379613356767
 30
0.0
  0
POINT
  5
F23
330
AD5
100
AcDbEntity
  8
DEFPOINTS
 62
     0
100
AcDbPoint
 10
191.0404217926186
 20
537.9170548326413
 30
0.0
  0
ENDBLK
  5
AE0
330
AD5
100
AcDbEntity
  8
0
100
AcDbBlockEnd
  0
BLOCK
  5
AEE
330
AE2
100
AcDbEntity
  8
0
100
AcDbBlockBegin
  2
*D31
 70
     1
 10
0.0
 20
0.0
 30
0.0
  3
*D31
  1

  0
LINE
  5
F10
330
AE2
100
AcDbEntity
  8
SUNPOU
100
AcDbLine
 10
191.0404217926186
 20
543.6379613356766
 30
0.0
 11
191.0404217926186
 21
535.9170548326415
 31
0.0
  0
LINE
  5
F11
330
AE2
100
AcDbEntity
  8
SUNPOU
100
AcDbLine
 10
194.0404217926186
 20
540.9170548326414
 30
0.0
 11
194.0404217926186
 21
539.9170548326415
 31
0.0
  0
LINE
  5
F12
330
AE2
100
AcDbEntity
  8
SUNPOU
100
AcDbLine
 10
186.0404217926186
 20
537.9170548326413
 30
0.0
 11
181.0404217926184
 21
537.9170548326413
 31
0.0
  0
LINE
  5
F13
330
AE2
100
AcDbEntity
  8
SUNPOU
100
AcDbLine
 10
199.0404217926184
 20
537.9170548326413
 30
0.0
 11
204.0404217926186
 21
537.9170548326413
 31
0.0
  0
MTEXT
  5
F14
330
AE2
100
AcDbEntity
  8
SUNPOU
100
AcDbMText
 10
202.4306734893734
 20
542.4024247483255
 30
0.0
 40
5.0
 41
0.0
 71
     5
 72
     1
  1
\A1;3
  7
SUNPOU
1001
ACAD
1000
MTEXTBEGIN
1070
    73
1070
     1
1070
    44
1040
1.0
1070
    74
1070
     0
1000
MTEXTEND
1000
MTEXTBEGIN
1070
    73
1070
     1
1070
    44
1040
1.0
1070
    74
1070
     0
1000
MTEXTEND
  0
LINE
  5
F15
330
AE2
100
AcDbEntity
  8
SUNPOU
100
AcDbLine
 10
191.0404217926186
 20
537.9170548326413
 30
0.0
 11
194.0404217926186
 21
537.9170548326413
 31
0.0
  0
INSERT
  5
F16
330
AE2
100
AcDbEntity
  8
SUNPOU
100
AcDbBlockReference
  2
_OPEN30
 10
191.0404217926186
 20
537.9170548326413
 30
0.0
 41
5.0
 42
5.0
 43
5.0
  0
INSERT
  5
F17
330
AE2
100
AcDbEntity
  8
SUNPOU
100
AcDbBlockReference
  2
_OPEN30
 10
194.0404217926186
 20
537.9170548326413
 30
0.0
 41
5.0
 42
5.0
 43
5.0
 50
180.0
  0
POINT
  5
F18
330
AE2
100
AcDbEntity
  8
DEFPOINTS
 62
     0
100
AcDbPoint
 10
191.0404217926186
 20
546.6379613356767
 30
0.0
  0
POINT
  5
F19
330
AE2
100
AcDbEntity
  8
DEFPOINTS
 62
     0
100
AcDbPoint
 10
194.0404217926186
 20
537.9170548326413
 30
0.0
  0
POINT
  5
F1A
330
AE2
100
AcDbEntity
  8
DEFPOINTS
 62
     0
100
AcDbPoint
 10
194.0404217926186
 20
537.9170548326413
 30
0.0
  0
ENDBLK
  5
AEF
330
AE2
100
AcDbEntity
  8
0
100
AcDbBlockEnd
  0
BLOCK
  5
D29
330
D1F
100
AcDbEntity
  8
0
100
AcDbBlockBegin
  2
*D32
 70
     1
 10
0.0
 20
0.0
 30
0.0
  3
*D32
  1

  0
LINE
  5
1149
330
D1F
100
AcDbEntity
  8
SUNPOU
100
AcDbLine
 10
141.0404217926186
 20
466.6379613356766
 30
0.0
 11
141.0404217926186
 21
477.8260968782567
 31
0.0
  0
LINE
  5
114A
330
D1F
100
AcDbEntity
  8
SUNPOU
100
AcDbLine
 10
275.0404217926186
 20
458.1379613356766
 30
0.0
 11
275.0404217926186
 21
477.8260968782567
 31
0.0
  0
LINE
  5
114B
330
D1F
100
AcDbEntity
  8
SUNPOU
100
AcDbLine
 10
146.0404217926185
 20
475.8260968782566
 30
0.0
 11
270.0404217926185
 21
475.8260968782566
 31
0.0
  0
INSERT
  5
114C
330
D1F
100
AcDbEntity
  8
SUNPOU
100
AcDbBlockReference
  2
_OPEN30
 10
141.0404217926186
 20
475.8260968782566
 30
0.0
 41
5.0
 42
5.0
 43
5.0
 50
180.0
  0
INSERT
  5
114D
330
D1F
100
AcDbEntity
  8
SUNPOU
100
AcDbBlockReference
  2
_OPEN30
 10
275.0404217926186
 20
475.8260968782566
 30
0.0
 41
5.0
 42
5.0
 43
5.0
  0
MTEXT
  5
114E
330
D1F
100
AcDbEntity
  8
SUNPOU
100
AcDbMText
 10
208.0404217926186
 20
480.3260968782566
 30
0.0
 40
5.0
 41
0.0
 71
     5
 72
     1
  1
\A1;134
  7
SUNPOU
1001
ACAD
1000
MTEXTBEGIN
1070
    73
1070
     1
1070
    44
1040
1.0
1070
    74
1070
     0
1000
MTEXTEND
1000
MTEXTBEGIN
1070
    73
1070
     1
1070
    44
1040
1.0
1070
    74
1070
     0
1000
MTEXTEND
  0
POINT
  5
114F
330
D1F
100
AcDbEntity
  8
DEFPOINTS
 62
     0
100
AcDbPoint
 10
141.0404217926186
 20
463.6379613356766
 30
0.0
  0
POINT
  5
1150
330
D1F
100
AcDbEntity
  8
DEFPOINTS
 62
     0
100
AcDbPoint
 10
275.0404217926186
 20
455.1379613356766
 30
0.0
  0
POINT
  5
1151
330
D1F
100
AcDbEntity
  8
DEFPOINTS
 62
     0
100
AcDbPoint
 10
275.0404217926186
 20
475.8260968782566
 30
0.0
  0
ENDBLK
  5
D2A
330
D1F
100
AcDbEntity
  8
0
100
AcDbBlockEnd
  0
BLOCK
  5
D6F
330
D63
100
AcDbEntity
  8
0
100
AcDbBlockBegin
  2
*D33
 70
     1
 10
0.0
 20
0.0
 30
0.0
  3
*D33
  1

  0
LINE
  5
EFC
330
D63
100
AcDbEntity
  8
SUNPOU
100
AcDbLine
 10
167.3589031684205
 20
302.1379613356766
 30
0.0
 11
167.3589031684205
 21
291.6820922278718
 31
0.0
  0
LINE
  5
EFD
330
D63
100
AcDbEntity
  8
SUNPOU
100
AcDbLine
 10
179.3589031684204
 20
302.1379613356766
 30
0.0
 11
179.3589031684204
 21
291.6820922278718
 31
0.0
  0
LINE
  5
EFE
330
D63
100
AcDbEntity
  8
SUNPOU
100
AcDbLine
 10
162.3589031684205
 20
293.6820922278718
 30
0.0
 11
157.3589031684205
 21
293.6820922278718
 31
0.0
  0
LINE
  5
EFF
330
D63
100
AcDbEntity
  8
SUNPOU
100
AcDbLine
 10
184.3589031684205
 20
293.6820922278718
 30
0.0
 11
189.3589031684204
 21
293.6820922278718
 31
0.0
  0
MTEXT
  5
F00
330
D63
100
AcDbEntity
  8
SUNPOU
100
AcDbMText
 10
173.3589031684204
 20
298.4093171293213
 30
0.0
 40
5.0
 41
0.0
 71
     5
 72
     1
  1
\A1;φ12
  7
SUNPOU
1001
ACAD
1000
MTEXTBEGIN
1070
    73
1070
     1
1070
    44
1040
1.0
1070
    74
1070
     0
1000
MTEXTEND
1000
MTEXTBEGIN
1070
    73
1070
     1
1070
    44
1040
1.0
1070
    74
1070
     0
1000
MTEXTEND
  0
LINE
  5
F01
330
D63
100
AcDbEntity
  8
SUNPOU
100
AcDbLine
 10
167.3589031684205
 20
293.6820922278718
 30
0.0
 11
179.3589031684204
 21
293.6820922278718
 31
0.0
  0
INSERT
  5
F02
330
D63
100
AcDbEntity
  8
SUNPOU
100
AcDbBlockReference
  2
_OPEN30
 10
167.3589031684205
 20
293.6820922278718
 30
0.0
 41
5.0
 42
5.0
 43
5.0
  0
INSERT
  5
F03
330
D63
100
AcDbEntity
  8
SUNPOU
100
AcDbBlockReference
  2
_OPEN30
 10
179.3589031684204
 20
293.6820922278718
 30
0.0
 41
5.0
 42
5.0
 43
5.0
 50
180.0
  0
POINT
  5
F04
330
D63
100
AcDbEntity
  8
DEFPOINTS
 62
     0
100
AcDbPoint
 10
167.3589031684205
 20
305.1379613356766
 30
0.0
  0
POINT
  5
F05
330
D63
100
AcDbEntity
  8
DEFPOINTS
 62
     0
100
AcDbPoint
 10
179.3589031684204
 20
305.1379613356766
 30
0.0
  0
POINT
  5
F06
330
D63
100
AcDbEntity
  8
DEFPOINTS
 62
     0
100
AcDbPoint
 10
179.3589031684204
 20
293.6820922278718
 30
0.0
  0
ENDBLK
  5
D70
330
D63
100
AcDbEntity
  8
0
100
AcDbBlockEnd
  0
BLOCK
  5
10B0
330
10A6
100
AcDbEntity
  8
0
100
AcDbBlockBegin
  2
*D34
 70
     1
 10
0.0
 20
0.0
 30
0.0
  3
*D34
  1

  0
LINE
  5
10C4
330
10A6
100
AcDbEntity
  8
SUNPOU
100
AcDbLine
 10
196.0404217926186
 20
382.1379613356766
 30
0.0
 11
196.0404217926186
 21
395.3001942575471
 31
0.0
  0
LINE
  5
10C5
330
10A6
100
AcDbEntity
  8
SUNPOU
100
AcDbLine
 10
215.5404217926184
 20
396.3001942575471
 30
0.0
 11
215.5404217926184
 21
395.3001942575471
 31
0.0
  0
LINE
  5
10C6
330
10A6
100
AcDbEntity
  8
SUNPOU
100
AcDbLine
 10
201.0404217926184
 20
393.3001942575471
 30
0.0
 11
210.5404217926186
 21
393.3001942575471
 31
0.0
  0
MTEXT
  5
10C7
330
10A6
100
AcDbEntity
  8
SUNPOU
100
AcDbMText
 10
203.9121943432164
 20
397.8001942575471
 30
0.0
 40
5.0
 41
0.0
 71
     5
 72
     1
  1
\A1;19.5
  7
SUNPOU
1001
ACAD
1000
MTEXTBEGIN
1070
    73
1070
     1
1070
    44
1040
1.0
1070
    74
1070
     0
1000
MTEXTEND
1000
MTEXTBEGIN
1070
    73
1070
     1
1070
    44
1040
1.0
1070
    74
1070
     0
1000
MTEXTEND
  0
INSERT
  5
10C8
330
10A6
100
AcDbEntity
  8
SUNPOU
100
AcDbBlockReference
  2
_OPEN30
 10
196.0404217926186
 20
393.3001942575471
 30
0.0
 41
5.0
 42
5.0
 43
5.0
 50
180.0
  0
INSERT
  5
10C9
330
10A6
100
AcDbEntity
  8
SUNPOU
100
AcDbBlockReference
  2
_OPEN30
 10
215.5404217926184
 20
393.3001942575471
 30
0.0
 41
5.0
 42
5.0
 43
5.0
  0
POINT
  5
10CA
330
10A6
100
AcDbEntity
  8
DEFPOINTS
 62
     0
100
AcDbPoint
 10
196.0404217926186
 20
379.1379613356766
 30
0.0
  0
POINT
  5
10CB
330
10A6
100
AcDbEntity
  8
DEFPOINTS
 62
     0
100
AcDbPoint
 10
215.5404217926184
 20
393.3001942575471
 30
0.0
  0
POINT
  5
10CC
330
10A6
100
AcDbEntity
  8
DEFPOINTS
 62
     0
100
AcDbPoint
 10
215.5404217926184
 20
393.3001942575471
 30
0.0
  0
ENDBLK
  5
10B1
330
10A6
100
AcDbEntity
  8
0
100
AcDbBlockEnd
  0
BLOCK
  5
127C
330
1268
100
AcDbEntity
  8
0
100
AcDbBlockBegin
  2
*X35
 70
     1
 10
0.0
 20
0.0
 30
0.0
  3
*X35
  1

  0
LINE
  5
1269
330
1268
100
AcDbEntity
  8
0
 62
     0
100
AcDbLine
 10
226.3616250216566
 20
104.9758026902799
 30
0.0
 11
227.019008244016
 21
105.6331859126392
 31
0.0
  0
LINE
  5
126A
330
1268
100
AcDbEntity
  8
0
 62
     0
100
AcDbLine
 10
225.9621601925946
 20
107.2279882906675
 30
0.0
 11
227.195784939313
 21
108.4616130373857
 31
0.0
  0
LINE
  5
126B
330
1268
100
AcDbEntity
  8
0
 62
     0
100
AcDbLine
 10
225.8061807555685
 20
109.7236592830908
 30
0.0
 11
228.0404217926188
 21
111.9579003201412
 31
0.0
  0
LINE
  5
126C
330
1268
100
AcDbEntity
  8
0
 62
     0
100
AcDbLine
 10
225.5404217926191
 20
112.1095507495911
 30
0.0
 11
226.240421792619
 21
112.8095507495908
 31
0.0
  0
LINE
  5
126D
330
1268
100
AcDbEntity
  8
0
 62
     0
100
AcDbLine
 10
223.4066737333079
 20
109.9758026902797
 30
0.0
 11
225.4066737333079
 21
111.9758026902798
 31
0.0
  0
LINE
  5
126E
330
1268
100
AcDbEntity
  8
0
 62
     0
100
AcDbLine
 10
225.5404217926191
 20
114.7612011790405
 30
0.0
 11
226.240421792619
 21
115.4612011790404
 31
0.0
  0
LINE
  5
126F
330
1268
100
AcDbEntity
  8
0
 62
     0
100
AcDbLine
 10
220.7550233038584
 20
109.9758026902797
 30
0.0
 11
222.7550233038583
 21
111.9758026902798
 31
0.0
  0
LINE
  5
1270
330
1268
100
AcDbEntity
  8
0
 62
     0
100
AcDbLine
 10
225.540421792619
 20
117.4128516084899
 30
0.0
 11
226.2102579705289
 21
118.0826877863998
 31
0.0
  0
LINE
  5
1271
330
1268
100
AcDbEntity
  8
0
 62
     0
100
AcDbLine
 10
218.1033728744087
 20
109.9758026902797
 30
0.0
 11
220.1033728744087
 21
111.9758026902798
 31
0.0
  0
LINE
  5
1272
330
1268
100
AcDbEntity
  8
0
 62
     0
100
AcDbLine
 10
215.4517224449592
 20
109.9758026902797
 30
0.0
 11
217.4517224449592
 21
111.9758026902798
 31
0.0
  0
LINE
  5
1273
330
1268
100
AcDbEntity
  8
0
 62
     0
100
AcDbLine
 10
212.8000720155096
 20
109.9758026902796
 30
0.0
 11
214.8000720155096
 21
111.9758026902798
 31
0.0
  0
LINE
  5
1274
330
1268
100
AcDbEntity
  8
0
 62
     0
100
AcDbLine
 10
210.1484215860601
 20
109.9758026902796
 30
0.0
 11
212.1484215860601
 21
111.9758026902798
 31
0.0
  0
LINE
  5
1275
330
1268
100
AcDbEntity
  8
0
 62
     0
100
AcDbLine
 10
207.4967711566106
 20
109.9758026902796
 30
0.0
 11
209.4967711566106
 21
111.9758026902798
 31
0.0
  0
LINE
  5
1276
330
1268
100
AcDbEntity
  8
0
 62
     0
100
AcDbLine
 10
203.067265872854
 20
105.5462974065231
 30
0.0
 11
204.0766651683534
 21
106.5556967020225
 31
0.0
  0
LINE
  5
1277
330
1268
100
AcDbEntity
  8
0
 62
     0
100
AcDbLine
 10
204.8451207271609
 20
109.9758026902796
 30
0.0
 11
206.8451207271609
 21
111.9758026902798
 31
0.0
  0
LINE
  5
1278
330
1268
100
AcDbEntity
  8
0
 62
     0
100
AcDbLine
 10
202.9112864358276
 20
108.0419683989463
 30
0.0
 11
204.2534418636498
 21
109.3841238267684
 31
0.0
  0
LINE
  5
1279
330
1268
100
AcDbEntity
  8
0
 62
     0
100
AcDbLine
 10
202.1934702977115
 20
109.9758026902796
 30
0.0
 11
204.540421792619
 21
112.3227541851874
 31
0.0
  0
LINE
  5
127A
330
1268
100
AcDbEntity
  8
0
 62
     0
100
AcDbLine
 10
203.840421792619
 20
114.2744046146368
 30
0.0
 11
204.540421792619
 21
114.9744046146369
 31
0.0
  0
LINE
  5
127B
330
1268
100
AcDbEntity
  8
0
 62
     0
100
AcDbLine
 10
203.8404217926188
 20
116.9260550440863
 30
0.0
 11
204.5404217926189
 21
117.6260550440864
 31
0.0
  0
ENDBLK
  5
127D
330
1268
100
AcDbEntity
  8
0
100
AcDbBlockEnd
  0
BLOCK
  5
1298
330
127E
100
AcDbEntity
  8
0
100
AcDbBlockBegin
  2
*X36
 70
     1
 10
0.0
 20
0.0
 30
0.0
  3
*X36
  1

  0
LINE
  5
127F
330
127E
100
AcDbEntity
  8
0
 62
     0
100
AcDbLine
 10
179.358740722098
 20
306.6379613356764
 30
0.0
 11
179.3589031684204
 21
306.638123781999
 31
0.0
  0
LINE
  5
1280
330
127E
100
AcDbEntity
  8
0
 62
     0
100
AcDbLine
 10
177.858740722098
 20
305.1379613356766
 30
0.0
 11
179.358740722098
 21
306.6379613356764
 31
0.0
  0
LINE
  5
1281
330
127E
100
AcDbEntity
  8
0
 62
     0
100
AcDbLine
 10
175.8232068161653
 20
306.6379613356766
 30
0.0
 11
179.3589031684204
 21
310.1736576879316
 31
0.0
  0
LINE
  5
1282
330
127E
100
AcDbEntity
  8
0
 62
     0
100
AcDbLine
 10
174.3232068161653
 20
305.1379613356766
 30
0.0
 11
175.8232068161653
 21
306.6379613356766
 31
0.0
  0
LINE
  5
1283
330
127E
100
AcDbEntity
  8
0
 62
     0
100
AcDbLine
 10
172.2876729102325
 20
306.6379613356764
 30
0.0
 11
173.3589031684204
 21
307.7091915938645
 31
0.0
  0
LINE
  5
1284
330
127E
100
AcDbEntity
  8
0
 62
     0
100
AcDbLine
 10
173.3589031684204
 20
307.7091915938645
 30
0.0
 11
179.3589031684204
 21
313.7091915938643
 31
0.0
  0
LINE
  5
1285
330
127E
100
AcDbEntity
  8
0
 62
     0
100
AcDbLine
 10
170.7876729102325
 20
305.1379613356766
 30
0.0
 11
172.2876729102325
 21
306.6379613356764
 31
0.0
  0
LINE
  5
1286
330
127E
100
AcDbEntity
  8
0
 62
     0
100
AcDbLine
 10
168.7521390042998
 20
306.6379613356766
 30
0.0
 11
173.3589031684204
 21
311.2447254997972
 31
0.0
  0
LINE
  5
1287
330
127E
100
AcDbEntity
  8
0
 62
     0
100
AcDbLine
 10
173.3589031684204
 20
311.2447254997972
 30
0.0
 11
179.3589031684204
 21
317.2447254997972
 31
0.0
  0
LINE
  5
1288
330
127E
100
AcDbEntity
  8
0
 62
     0
100
AcDbLine
 10
167.3589031684205
 20
305.2447254997973
 30
0.0
 11
168.7521390042997
 21
306.6379613356764
 31
0.0
  0
LINE
  5
1289
330
127E
100
AcDbEntity
  8
0
 62
     0
100
AcDbLine
 10
173.3589031684204
 20
314.7802594057299
 30
0.0
 11
178.716605098367
 21
320.1379613356765
 31
0.0
  0
LINE
  5
128A
330
127E
100
AcDbEntity
  8
0
 62
     0
100
AcDbLine
 10
178.716605098367
 20
320.1379613356766
 30
0.0
 11
179.3589031684204
 21
320.7802594057299
 31
0.0
  0
LINE
  5
128B
330
127E
100
AcDbEntity
  8
0
 62
     0
100
AcDbLine
 10
167.3589031684205
 20
308.7802594057299
 30
0.0
 11
173.3589031684204
 21
314.7802594057298
 31
0.0
  0
LINE
  5
128C
330
127E
100
AcDbEntity
  8
0
 62
     0
100
AcDbLine
 10
175.1810711924343
 20
320.1379613356765
 30
0.0
 11
176.6810711924343
 21
321.6379613356766
 31
0.0
  0
LINE
  5
128D
330
127E
100
AcDbEntity
  8
0
 62
     0
100
AcDbLine
 10
173.3589031684204
 20
318.3157933116626
 30
0.0
 11
175.1810711924343
 21
320.1379613356765
 31
0.0
  0
LINE
  5
128E
330
127E
100
AcDbEntity
  8
0
 62
     0
100
AcDbLine
 10
176.6810711924343
 20
321.6379613356766
 30
0.0
 11
178.2810711924343
 21
323.2379613356766
 31
0.0
  0
LINE
  5
128F
330
127E
100
AcDbEntity
  8
0
 62
     0
100
AcDbLine
 10
167.3589031684205
 20
312.3157933116626
 30
0.0
 11
173.3589031684203
 21
318.3157933116626
 31
0.0
  0
LINE
  5
1290
330
127E
100
AcDbEntity
  8
0
 62
     0
100
AcDbLine
 10
173.1455372865015
 20
321.6379613356766
 30
0.0
 11
173.3589031684204
 21
321.8513272175953
 31
0.0
  0
LINE
  5
1291
330
127E
100
AcDbEntity
  8
0
 62
     0
100
AcDbLine
 10
171.6455372865016
 20
320.1379613356765
 30
0.0
 11
173.1455372865015
 21
321.6379613356764
 31
0.0
  0
LINE
  5
1292
330
127E
100
AcDbEntity
  8
0
 62
     0
100
AcDbLine
 10
173.3589031684204
 20
321.8513272175954
 30
0.0
 11
174.7455372865017
 21
323.2379613356767
 31
0.0
  0
LINE
  5
1293
330
127E
100
AcDbEntity
  8
0
 62
     0
100
AcDbLine
 10
167.3589031684205
 20
315.8513272175955
 30
0.0
 11
171.6455372865016
 21
320.1379613356765
 31
0.0
  0
LINE
  5
1294
330
127E
100
AcDbEntity
  8
0
 62
     0
100
AcDbLine
 10
168.1100033805688
 20
320.1379613356765
 30
0.0
 11
169.6100033805689
 21
321.6379613356766
 31
0.0
  0
LINE
  5
1295
330
127E
100
AcDbEntity
  8
0
 62
     0
100
AcDbLine
 10
169.6100033805689
 20
321.6379613356766
 30
0.0
 11
171.2100033805688
 21
323.2379613356765
 31
0.0
  0
LINE
  5
1296
330
127E
100
AcDbEntity
  8
0
 62
     0
100
AcDbLine
 10
167.3589031684205
 20
319.3868611235281
 30
0.0
 11
168.1100033805688
 21
320.1379613356765
 31
0.0
  0
LINE
  5
1297
330
127E
100
AcDbEntity
  8
0
 62
     0
100
AcDbLine
 10
167.3589031684205
 20
322.9223950294608
 30
0.0
 11
167.674469474636
 21
323.2379613356763
 31
0.0
  0
ENDBLK
  5
1299
330
127E
100
AcDbEntity
  8
0
100
AcDbBlockEnd
  0
ENDSEC
  0
SECTION
  2
ENTITIES
  0
LINE
  5
259
330
A
100
AcDbEntity
  8
KAKURE
100
AcDbLine
 10
194.0404217926184
 20
85.13796133567661
 30
0.0
 11
94.04042179261855
 21
85.13796133567661
 31
0.0
  0
LINE
  5
25A
330
A
100
AcDbEntity
  8
KAKURE
100
AcDbLine
 10
194.0404217926186
 20
306.6379613356766
 30
0.0
 11
194.0404217926186
 21
489.1379613356765
 31
0.0
  0
LINE
  5
25B
330
A
100
AcDbEntity
  8
KAKURE
100
AcDbLine
 10
94.04042179261855
 20
101.9758026902535
 30
0.0
 11
94.04042179261855
 21
85.13796133567661
 31
0.0
  0
LINE
  5
25C
330
A
100
AcDbEntity
  8
KAKURE
100
AcDbLine
 10
194.0404217926184
 20
101.9758026902706
 30
0.0
 11
194.0404217926184
 21
85.13796133567661
 31
0.0
  0
LINE
  5
25D
330
A
100
AcDbEntity
  8
03
100
AcDbLine
 10
236.0404217926184
 20
315.1379613356766
 30
0.0
 11
237.5404217926186
 21
315.1379613356766
 31
0.0
  0
LINE
  5
25E
330
A
100
AcDbEntity
  8
02
100
AcDbLine
 10
141.0404217926186
 20
478.0379613356766
 30
0.0
 11
141.0404217926186
 21
329.2379613356766
 31
0.0
  0
LINE
  5
25F
330
A
100
AcDbEntity
  8
02
100
AcDbLine
 10
135.0404217926185
 20
484.0379613356766
 30
0.0
 11
116.0404217926185
 21
484.0379613356766
 31
0.0
  0
LINE
  5
260
330
A
100
AcDbEntity
  8
02
100
AcDbLine
 10
116.0404217926185
 20
478.0379613356766
 30
0.0
 11
116.0404217926185
 21
484.0379613356766
 31
0.0
  0
LINE
  5
261
330
A
100
AcDbEntity
  8
02
100
AcDbLine
 10
116.0404217926185
 20
478.0379613356766
 30
0.0
 11
135.0404217926185
 21
478.0379613356766
 31
0.0
  0
LINE
  5
262
330
A
100
AcDbEntity
  8
02
100
AcDbLine
 10
135.0404217926185
 20
323.2379613356766
 30
0.0
 11
116.0404217926185
 21
323.2379613356766
 31
0.0
  0
LINE
  5
263
330
A
100
AcDbEntity
  8
02
100
AcDbLine
 10
116.0404217926185
 20
329.2379613356766
 30
0.0
 11
116.0404217926185
 21
323.2379613356766
 31
0.0
  0
LINE
  5
264
330
A
100
AcDbEntity
  8
02
100
AcDbLine
 10
116.0404217926185
 20
329.2379613356766
 30
0.0
 11
135.0404217926185
 21
329.2379613356766
 31
0.0
  0
LINE
  5
265
330
A
100
AcDbEntity
  8
02
100
AcDbLine
 10
135.0404217926185
 20
478.0379613356766
 30
0.0
 11
135.0404217926185
 21
329.2379613356766
 31
0.0
  0
ARC
  5
266
330
A
100
AcDbEntity
  8
02
100
AcDbCircle
 10
135.0404217926185
 20
478.0379613356766
 30
0.0
 40
6.0
100
AcDbArc
 50
0.0
 51
90.0
  0
ARC
  5
267
330
A
100
AcDbEntity
  8
02
100
AcDbCircle
 10
135.0404217926185
 20
329.2379613356766
 30
0.0
 40
6.0
100
AcDbArc
 50
270.0
 51
0.0
  0
LINE
  5
268
330
A
100
AcDbEntity
  8
02
100
AcDbLine
 10
141.0404217926186
 20
385.1379613356766
 30
0.0
 11
190.0404217926184
 21
385.1379613356766
 31
0.0
  0
LINE
  5
269
330
A
100
AcDbEntity
  8
02
100
AcDbLine
 10
190.0404217926184
 20
323.2379613356766
 30
0.0
 11
178.0404217926184
 21
323.2379613356766
 31
0.0
  0
LINE
  5
26A
330
A
100
AcDbEntity
  8
02
100
AcDbLine
 10
196.0404217926186
 20
379.1379613356766
 30
0.0
 11
196.0404217926186
 21
329.2379613356766
 31
0.0
  0
LINE
  5
26B
330
A
100
AcDbEntity
  8
02
100
AcDbLine
 10
141.0404217926186
 20
379.1379613356766
 30
0.0
 11
190.0404217926184
 21
379.1379613356766
 31
0.0
  0
LINE
  5
26C
330
A
100
AcDbEntity
  8
02
100
AcDbLine
 10
190.0404217926184
 20
379.1379613356766
 30
0.0
 11
190.0404217926184
 21
329.2379613356766
 31
0.0
  0
LINE
  5
26D
330
A
100
AcDbEntity
  8
02
100
AcDbLine
 10
190.0404217926184
 20
329.2379613356766
 30
0.0
 11
178.0404217926184
 21
329.2379613356766
 31
0.0
  0
LINE
  5
26E
330
A
100
AcDbEntity
  8
02
100
AcDbLine
 10
141.0404217926186
 20
385.1379613356766
 30
0.0
 11
141.0404217926186
 21
379.1379613356766
 31
0.0
  0
LINE
  5
26F
330
A
100
AcDbEntity
  8
02
100
AcDbLine
 10
178.0404217926184
 20
329.2379613356766
 30
0.0
 11
178.0404217926184
 21
323.2379613356766
 31
0.0
  0
ARC
  5
270
330
A
100
AcDbEntity
  8
02
100
AcDbCircle
 10
190.0404217926184
 20
379.1379613356766
 30
0.0
 40
6.0
100
AcDbArc
 50
0.0
 51
90.0
  0
ARC
  5
271
330
A
100
AcDbEntity
  8
02
100
AcDbCircle
 10
190.0404217926184
 20
329.2379613356766
 30
0.0
 40
6.0
100
AcDbArc
 50
270.0
 51
0.0
  0
LINE
  5
272
330
A
100
AcDbEntity
  8
06
100
AcDbLine
 10
196.0404217926186
 20
362.7879613356766
 30
0.0
 11
190.0404217926184
 21
362.7879613356766
 31
0.0
  0
LINE
  5
273
330
A
100
AcDbEntity
  8
06
100
AcDbLine
 10
196.0404217926186
 20
367.4879613356766
 30
0.0
 11
190.0404217926184
 21
367.4879613356766
 31
0.0
  0
LINE
  5
274
330
A
100
AcDbEntity
  8
03
100
AcDbLine
 10
94.0404217926186
 20
575.1379613356768
 30
0.0
 11
112.0404217926185
 21
575.1379613356768
 31
0.0
  0
LINE
  5
275
330
A
100
AcDbEntity
  8
03
100
AcDbLine
 10
176.0404217926184
 20
575.1379613356768
 30
0.0
 11
194.0404217926186
 21
575.1379613356768
 31
0.0
  0
LINE
  5
276
330
A
100
AcDbEntity
  8
03
100
AcDbLine
 10
194.0404217926184
 20
306.6379613356766
 30
0.0
 11
194.0404217926184
 21
227.1693794781667
 31
0.0
  0
LINE
  5
277
330
A
100
AcDbEntity
  8
03
100
AcDbLine
 10
194.0404217926184
 20
222.1693794781668
 30
0.0
 11
194.0404217926184
 21
160.5448019467351
 31
0.0
  0
LINE
  5
278
330
A
100
AcDbEntity
  8
03
100
AcDbLine
 10
194.0404217926184
 20
155.5448019467351
 30
0.0
 11
194.0404217926184
 21
101.9758026902706
 31
0.0
  0
LINE
  5
279
330
A
100
AcDbEntity
  8
03
100
AcDbLine
 10
94.04042179261855
 20
101.9758026902535
 30
0.0
 11
94.04042179261855
 21
155.5448019467348
 31
0.0
  0
LINE
  5
27A
330
A
100
AcDbEntity
  8
03
100
AcDbLine
 10
94.04042179261855
 20
160.5448019467349
 30
0.0
 11
94.04042179261855
 21
222.1693794781665
 31
0.0
  0
LINE
  5
27B
330
A
100
AcDbEntity
  8
03
100
AcDbLine
 10
194.0404217926186
 20
575.1379613356768
 30
0.0
 11
194.0404217926186
 21
527.2560632688929
 31
0.0
  0
LINE
  5
27C
330
A
100
AcDbEntity
  8
03
100
AcDbLine
 10
194.0404217926186
 20
522.2560632688932
 30
0.0
 11
194.0404217926186
 21
489.1379613356765
 31
0.0
  0
LINE
  5
27D
330
A
100
AcDbEntity
  8
03
100
AcDbLine
 10
94.04042179261855
 20
217.1693794781665
 30
0.0
 11
94.04042179261855
 21
522.2560632688927
 31
0.0
  0
LINE
  5
27E
330
A
100
AcDbEntity
  8
03
100
AcDbLine
 10
94.04042179261855
 20
527.2560632688928
 30
0.0
 11
94.0404217926186
 21
575.1379613356768
 31
0.0
  0
LINE
  5
27F
330
A
100
AcDbEntity
  8
03
100
AcDbLine
 10
138.0404217926185
 20
497.1379613356766
 30
0.0
 11
150.0404217926185
 21
497.1379613356766
 31
0.0
  0
LINE
  5
280
330
A
100
AcDbEntity
  8
03
100
AcDbLine
 10
150.0404217926185
 20
487.1379613356766
 30
0.0
 11
138.0404217926185
 21
487.1379613356766
 31
0.0
  0
LINE
  5
281
330
A
100
AcDbEntity
  8
03
100
AcDbLine
 10
138.0404217926185
 20
487.1379613356766
 30
0.0
 11
138.0404217926185
 21
497.1379613356766
 31
0.0
  0
LINE
  5
282
330
A
100
AcDbEntity
  8
03
100
AcDbLine
 10
150.0404217926185
 20
497.1379613356766
 30
0.0
 11
150.0404217926185
 21
487.1379613356766
 31
0.0
  0
LINE
  5
283
330
A
100
AcDbEntity
  8
03
100
AcDbLine
 10
138.0404217926185
 20
497.1379613356766
 30
0.0
 11
150.0404217926185
 21
487.1379613356766
 31
0.0
  0
LINE
  5
28B
330
A
100
AcDbEntity
  8
03
100
AcDbLine
 10
109.0404217926185
 20
306.6379613356766
 30
0.0
 11
109.0404217926185
 21
485.6379613356764
 31
0.0
  0
LINE
  5
28C
330
A
100
AcDbEntity
  8
03
100
AcDbLine
 10
194.0404217926186
 20
315.1379613356766
 30
0.0
 11
192.5404217926184
 21
315.1379613356766
 31
0.0
  0
LINE
  5
28D
330
A
100
AcDbEntity
  8
03
100
AcDbLine
 10
236.0404217926184
 20
315.1379613356766
 30
0.0
 11
236.0404217926184
 21
306.6379613356766
 31
0.0
  0
LINE
  5
28E
330
A
100
AcDbEntity
  8
03
100
AcDbLine
 10
287.5404217926186
 20
305.1379613356766
 30
0.0
 11
237.5404217926186
 21
305.1379613356766
 31
0.0
  0
LINE
  5
28F
330
A
100
AcDbEntity
  8
03
100
AcDbLine
 10
194.0404217926186
 20
315.1379613356766
 30
0.0
 11
194.0404217926186
 21
306.6379613356766
 31
0.0
  0
LINE
  5
290
330
A
100
AcDbEntity
  8
03
100
AcDbLine
 10
192.5404217926184
 20
315.1379613356766
 30
0.0
 11
192.5404217926184
 21
306.6379613356766
 31
0.0
  0
LINE
  5
291
330
A
100
AcDbEntity
  8
03
100
AcDbLine
 10
110.5404217926185
 20
306.6379613356766
 30
0.0
 11
110.5404217926185
 21
485.6379613356764
 31
0.0
  0
LINE
  5
292
330
A
100
AcDbEntity
  8
03
100
AcDbLine
 10
135.5404217926185
 20
320.1379613356766
 30
0.0
 11
152.5404217926185
 21
320.1379613356766
 31
0.0
  0
LINE
  5
293
330
A
100
AcDbEntity
  8
03
100
AcDbLine
 10
154.0404217926185
 20
306.6379613356766
 30
0.0
 11
154.0404217926185
 21
320.1379613356766
 31
0.0
  0
LINE
  5
294
330
A
100
AcDbEntity
  8
03
100
AcDbLine
 10
134.0404217926185
 20
320.1379613356766
 30
0.0
 11
134.0404217926185
 21
306.6379613356766
 31
0.0
  0
LINE
  5
295
330
A
100
AcDbEntity
  8
03
100
AcDbLine
 10
135.5404217926185
 20
320.1379613356766
 30
0.0
 11
135.5404217926185
 21
306.6379613356766
 31
0.0
  0
LINE
  5
296
330
A
100
AcDbEntity
  8
03
100
AcDbLine
 10
152.5404217926185
 20
306.6379613356766
 30
0.0
 11
152.5404217926185
 21
320.1379613356766
 31
0.0
  0
LINE
  5
297
330
A
100
AcDbEntity
  8
03
100
AcDbLine
 10
135.5404217926185
 20
321.6379613356766
 30
0.0
 11
152.5404217926185
 21
321.6379613356766
 31
0.0
  0
LINE
  5
298
330
A
100
AcDbEntity
  8
03
100
AcDbLine
 10
192.5404217926184
 20
306.6379613356766
 30
0.0
 11
154.0404217926185
 21
306.6379613356766
 31
0.0
  0
LINE
  5
299
330
A
100
AcDbEntity
  8
03
100
AcDbLine
 10
134.0404217926185
 20
306.6379613356766
 30
0.0
 11
110.5404217926185
 21
306.6379613356766
 31
0.0
  0
LINE
  5
29A
330
A
100
AcDbEntity
  8
03
100
AcDbLine
 10
192.5404217926184
 20
305.1379613356766
 30
0.0
 11
154.0404217926185
 21
305.1379613356766
 31
0.0
  0
LINE
  5
29B
330
A
100
AcDbEntity
  8
03
100
AcDbLine
 10
134.0404217926185
 20
305.1379613356766
 30
0.0
 11
110.5404217926185
 21
305.1379613356766
 31
0.0
  0
LINE
  5
29C
330
A
100
AcDbEntity
  8
03
100
AcDbLine
 10
237.5404217926186
 20
315.1379613356766
 30
0.0
 11
237.5404217926186
 21
306.6379613356766
 31
0.0
  0
LINE
  5
29D
330
A
100
AcDbEntity
  8
03
100
AcDbLine
 10
287.5404217926186
 20
306.6379613356766
 30
0.0
 11
237.5404217926186
 21
306.6379613356766
 31
0.0
  0
LINE
  5
29E
330
A
100
AcDbEntity
  8
03
100
AcDbLine
 10
289.0404217926184
 20
306.6379613356766
 30
0.0
 11
289.0404217926184
 21
503.6379613356766
 31
0.0
  0
LINE
  5
29F
330
A
100
AcDbEntity
  8
03
100
AcDbLine
 10
287.5404217926186
 20
306.6379613356766
 30
0.0
 11
287.5404217926186
 21
503.6379613356766
 31
0.0
  0
LINE
  5
2A0
330
A
100
AcDbEntity
  8
03
100
AcDbLine
 10
112.0404217926185
 20
487.1379613356766
 30
0.0
 11
112.0404217926185
 21
503.6379613356766
 31
0.0
  0
LINE
  5
2A1
330
A
100
AcDbEntity
  8
03
100
AcDbLine
 10
113.5404217926184
 20
503.6379613356766
 30
0.0
 11
113.5404217926184
 21
487.1379613356766
 31
0.0
  0
LINE
  5
2A2
330
A
100
AcDbEntity
  8
03
100
AcDbLine
 10
134.5404217926185
 20
487.1379613356766
 30
0.0
 11
134.5404217926185
 21
503.6379613356766
 31
0.0
  0
LINE
  5
2A3
330
A
100
AcDbEntity
  8
03
100
AcDbLine
 10
136.0404217926185
 20
503.6379613356766
 30
0.0
 11
136.0404217926185
 21
487.1379613356766
 31
0.0
  0
LINE
  5
2A4
330
A
100
AcDbEntity
  8
03
100
AcDbLine
 10
152.0404217926184
 20
487.1379613356766
 30
0.0
 11
152.0404217926184
 21
503.6379613356766
 31
0.0
  0
LINE
  5
2A5
330
A
100
AcDbEntity
  8
03
100
AcDbLine
 10
153.5404217926185
 20
503.6379613356766
 30
0.0
 11
153.5404217926185
 21
487.1379613356766
 31
0.0
  0
LINE
  5
2A6
330
A
100
AcDbEntity
  8
03
100
AcDbLine
 10
113.5404217926184
 20
505.1379613356766
 30
0.0
 11
134.5404217926185
 21
505.1379613356766
 31
0.0
  0
LINE
  5
2A7
330
A
100
AcDbEntity
  8
03
100
AcDbLine
 10
113.5404217926184
 20
503.6379613356766
 30
0.0
 11
134.5404217926185
 21
503.6379613356766
 31
0.0
  0
LINE
  5
2A8
330
A
100
AcDbEntity
  8
03
100
AcDbLine
 10
190.0404217926184
 20
489.1379613356765
 30
0.0
 11
190.0404217926184
 21
503.6379613356766
 31
0.0
  0
LINE
  5
2A9
330
A
100
AcDbEntity
  8
03
100
AcDbLine
 10
191.5404217926184
 20
489.1379613356765
 30
0.0
 11
191.5404217926184
 21
503.6379613356766
 31
0.0
  0
LINE
  5
2AA
330
A
100
AcDbEntity
  8
03
100
AcDbLine
 10
194.5404217926184
 20
490.1379613356764
 30
0.0
 11
194.5404217926184
 21
503.6379613356766
 31
0.0
  0
LINE
  5
2AB
330
A
100
AcDbEntity
  8
03
100
AcDbLine
 10
196.0404217926184
 20
490.1379613356764
 30
0.0
 11
196.0404217926184
 21
503.6379613356766
 31
0.0
  0
LINE
  5
2AC
330
A
100
AcDbEntity
  8
03
100
AcDbLine
 10
153.5404217926185
 20
505.1379613356766
 30
0.0
 11
190.0404217926184
 21
505.1379613356766
 31
0.0
  0
LINE
  5
2AD
330
A
100
AcDbEntity
  8
03
100
AcDbLine
 10
196.0404217926184
 20
505.1379613356766
 30
0.0
 11
287.5404217926186
 21
505.1379613356766
 31
0.0
  0
LINE
  5
2AE
330
A
100
AcDbEntity
  8
03
100
AcDbLine
 10
153.5404217926185
 20
503.6379613356766
 30
0.0
 11
190.0404217926184
 21
503.6379613356766
 31
0.0
  0
LINE
  5
2AF
330
A
100
AcDbEntity
  8
03
100
AcDbLine
 10
196.0404217926184
 20
503.6379613356766
 30
0.0
 11
287.5404217926186
 21
503.6379613356766
 31
0.0
  0
LINE
  5
2B0
330
A
100
AcDbEntity
  8
03
100
AcDbLine
 10
110.5404217926185
 20
487.1379613356766
 30
0.0
 11
152.0404217926184
 21
487.1379613356766
 31
0.0
  0
LINE
  5
2B1
330
A
100
AcDbEntity
  8
03
100
AcDbLine
 10
191.5404217926184
 20
489.1379613356765
 30
0.0
 11
203.5404217926184
 21
489.1379613356765
 31
0.0
  0
LINE
  5
2B2
330
A
100
AcDbEntity
  8
03
100
AcDbLine
 10
110.5404217926185
 20
485.6379613356764
 30
0.0
 11
152.0404217926184
 21
485.6379613356764
 31
0.0
  0
LINE
  5
2B3
330
A
100
AcDbEntity
  8
03
100
AcDbLine
 10
191.5404217926184
 20
487.6379613356767
 30
0.0
 11
203.5404217926184
 21
487.6379613356767
 31
0.0
  0
LINE
  5
2B4
330
A
100
AcDbEntity
  8
03
100
AcDbLine
 10
203.5404217926184
 20
489.1379613356765
 30
0.0
 11
203.5404217926184
 21
487.6379613356767
 31
0.0
  0
LINE
  5
2B5
330
A
100
AcDbEntity
  8
03
100
AcDbLine
 10
194.5404217926184
 20
490.1379613356764
 30
0.0
 11
196.0404217926184
 21
490.1379613356764
 31
0.0
  0
ARC
  5
2B6
330
A
100
AcDbEntity
  8
03
100
AcDbCircle
 10
190.0404217926184
 20
503.6379613356766
 30
0.0
 40
1.5
100
AcDbArc
 50
0.0
 51
90.0
  0
ARC
  5
2B7
330
A
100
AcDbEntity
  8
03
100
AcDbCircle
 10
153.5404217926185
 20
503.6379613356766
 30
0.0
 40
1.5
100
AcDbArc
 50
90.0
 51
180.0
  0
ARC
  5
2B8
330
A
100
AcDbEntity
  8
03
100
AcDbCircle
 10
134.5404217926185
 20
503.6379613356766
 30
0.0
 40
1.5
100
AcDbArc
 50
0.0
 51
90.0
  0
ARC
  5
2B9
330
A
100
AcDbEntity
  8
03
100
AcDbCircle
 10
113.5404217926184
 20
503.6379613356766
 30
0.0
 40
1.5
100
AcDbArc
 50
90.0
 51
180.0
  0
ARC
  5
2BA
330
A
100
AcDbEntity
  8
03
100
AcDbCircle
 10
110.5404217926185
 20
485.6379613356764
 30
0.0
 40
1.5
100
AcDbArc
 50
90.0
 51
180.0
  0
ARC
  5
2BB
330
A
100
AcDbEntity
  8
03
100
AcDbCircle
 10
196.0404217926184
 20
503.6379613356766
 30
0.0
 40
1.5
100
AcDbArc
 50
90.0
 51
180.0
  0
ARC
  5
2BC
330
A
100
AcDbEntity
  8
03
100
AcDbCircle
 10
191.5404217926184
 20
489.1379613356765
 30
0.0
 40
1.5
100
AcDbArc
 50
180.0
 51
270.0
  0
ARC
  5
2BD
330
A
100
AcDbEntity
  8
03
100
AcDbCircle
 10
152.0404217926184
 20
487.1379613356766
 30
0.0
 40
1.5
100
AcDbArc
 50
270.0
 51
0.0
  0
ARC
  5
2BE
330
A
100
AcDbEntity
  8
03
100
AcDbCircle
 10
134.0404217926185
 20
306.6379613356766
 30
0.0
 40
1.5
100
AcDbArc
 50
270.0
 51
0.0
  0
ARC
  5
2BF
330
A
100
AcDbEntity
  8
03
100
AcDbCircle
 10
110.5404217926185
 20
306.6379613356766
 30
0.0
 40
1.5
100
AcDbArc
 50
180.0
 51
270.0
  0
ARC
  5
2C0
330
A
100
AcDbEntity
  8
03
100
AcDbCircle
 10
154.0404217926185
 20
306.6379613356766
 30
0.0
 40
1.5
100
AcDbArc
 50
180.0
 51
270.0
  0
ARC
  5
2C1
330
A
100
AcDbEntity
  8
03
100
AcDbCircle
 10
192.5404217926184
 20
306.6379613356766
 30
0.0
 40
1.5
100
AcDbArc
 50
270.0
 51
0.0
  0
ARC
  5
2C2
330
A
100
AcDbEntity
  8
03
100
AcDbCircle
 10
152.5404217926185
 20
320.1379613356766
 30
0.0
 40
1.5
100
AcDbArc
 50
0.0
 51
90.0
  0
ARC
  5
2C3
330
A
100
AcDbEntity
  8
03
100
AcDbCircle
 10
135.5404217926185
 20
320.1379613356766
 30
0.0
 40
1.5
100
AcDbArc
 50
90.0
 51
180.0
  0
ARC
  5
2C4
330
A
100
AcDbEntity
  8
03
100
AcDbCircle
 10
287.5404217926186
 20
503.6379613356766
 30
0.0
 40
1.5
100
AcDbArc
 50
0.0
 51
90.0
  0
ARC
  5
2C5
330
A
100
AcDbEntity
  8
03
100
AcDbCircle
 10
287.5404217926186
 20
306.6379613356766
 30
0.0
 40
1.5
100
AcDbArc
 50
270.0
 51
0.0
  0
ARC
  5
2C6
330
A
100
AcDbEntity
  8
03
100
AcDbCircle
 10
237.5404217926186
 20
306.6379613356766
 30
0.0
 40
1.5
100
AcDbArc
 50
180.0
 51
270.0
  0
LINE
  5
2C7
330
A
100
AcDbEntity
  8
06
100
AcDbLine
 10
231.040421792619
 20
111.9758026902802
 30
0.0
 11
228.040421792619
 21
111.9758026902798
 31
0.0
  0
LINE
  5
2C8
330
A
100
AcDbEntity
  8
06
100
AcDbLine
 10
199.040421792619
 20
111.9758026902788
 30
0.0
 11
202.040421792619
 21
111.9758026902798
 31
0.0
  0
CIRCLE
  5
2C9
330
A
100
AcDbEntity
  8
06
100
AcDbCircle
 10
214.9711812834654
 20
162.9758026902798
 30
0.0
 40
1.75
  0
ARC
  5
2CB
330
A
100
AcDbEntity
  8
06
100
AcDbCircle
 10
209.5404217926188
 20
221.0668935238111
 30
0.0
 40
7.5
100
AcDbArc
 50
78.46304384085474
 51
109.4712178961644
  0
ARC
  5
2CC
330
A
100
AcDbEntity
  8
06
100
AcDbCircle
 10
220.5404217926186
 20
221.0668935238111
 30
0.0
 40
7.5
100
AcDbArc
 50
70.5287821038356
 51
101.5369561591455
  0
LINE
  5
2CD
330
A
100
AcDbEntity
  8
06
100
AcDbLine
 10
199.0404217926184
 20
313.1379613356766
 30
0.0
 11
199.0404217926185
 21
216.4404353116128
 31
0.0
  0
LINE
  5
2CE
330
A
100
AcDbEntity
  8
06
100
AcDbLine
 10
199.0404217926186
 20
211.4404353116128
 30
0.0
 11
199.040421792619
 21
111.9758026902788
 31
0.0
  0
LINE
  5
2CF
330
A
100
AcDbEntity
  8
06
100
AcDbLine
 10
231.0404217926186
 20
313.1379613356766
 30
0.0
 11
231.0404217926186
 21
216.4404353116128
 31
0.0
  0
LINE
  5
2D0
330
A
100
AcDbEntity
  8
06
100
AcDbLine
 10
231.0404217926186
 20
211.4404353116129
 30
0.0
 11
231.040421792619
 21
111.9758026902802
 31
0.0
  0
LINE
  5
2D3
330
A
100
AcDbEntity
  8
06
100
AcDbLine
 10
228.0404217926185
 20
312.6379613356766
 30
0.0
 11
228.0404217926185
 21
232.6379613356766
 31
0.0
  0
LINE
  5
2D7
330
A
100
AcDbEntity
  8
06
100
AcDbLine
 10
202.0404217926186
 20
232.6379613356766
 30
0.0
 11
202.0404217926186
 21
312.6379613356766
 31
0.0
  0
LINE
  5
2D9
330
A
100
AcDbEntity
  8
06
100
AcDbLine
 10
223.0404217926186
 20
298.6379613356766
 30
0.0
 11
223.0404217926186
 21
297.6379613356765
 31
0.0
  0
LINE
  5
2DD
330
A
100
AcDbEntity
  8
06
100
AcDbLine
 10
207.0404217926185
 20
298.6379613356766
 30
0.0
 11
207.0404217926185
 21
297.6379613356765
 31
0.0
  0
LINE
  5
2E3
330
A
100
AcDbEntity
  8
06
100
AcDbLine
 10
225.6404217926184
 20
260.1379613356765
 30
0.0
 11
219.5404217926185
 21
260.1379613356765
 31
0.0
  0
LINE
  5
2E4
330
A
100
AcDbEntity
  8
06
100
AcDbLine
 10
210.5404217926186
 20
260.1379613356765
 30
0.0
 11
204.4404217926186
 21
260.1379613356765
 31
0.0
  0
LINE
  5
2E5
330
A
100
AcDbEntity
  8
06
100
AcDbLine
 10
217.5404217926184
 20
263.3379613356765
 30
0.0
 11
212.5404217926186
 21
263.3379613356765
 31
0.0
  0
LINE
  5
2E6
330
A
100
AcDbEntity
  8
06
100
AcDbLine
 10
225.6404217926184
 20
285.6379613356766
 30
0.0
 11
204.4404217926184
 21
285.6379613356766
 31
0.0
  0
LINE
  5
2E7
330
A
100
AcDbEntity
  8
06
100
AcDbLine
 10
223.0404217926184
 20
287.6379613356766
 30
0.0
 11
207.0404217926184
 21
287.6379613356766
 31
0.0
  0
LINE
  5
2E8
330
A
100
AcDbEntity
  8
06
100
AcDbLine
 10
225.0404217926186
 20
297.6379613356765
 30
0.0
 11
223.0404217926186
 21
297.6379613356765
 31
0.0
  0
LINE
  5
2E9
330
A
100
AcDbEntity
  8
06
100
AcDbLine
 10
207.0404217926185
 20
297.6379613356765
 30
0.0
 11
205.0404217926185
 21
297.6379613356765
 31
0.0
  0
LINE
  5
2EA
330
A
100
AcDbEntity
  8
06
100
AcDbLine
 10
225.0404217926186
 20
298.6379613356766
 30
0.0
 11
223.0404217926186
 21
298.6379613356766
 31
0.0
  0
LINE
  5
2EB
330
A
100
AcDbEntity
  8
06
100
AcDbLine
 10
207.0404217926185
 20
298.6379613356766
 30
0.0
 11
205.0404217926185
 21
298.6379613356766
 31
0.0
  0
LINE
  5
2EC
330
A
100
AcDbEntity
  8
06
100
AcDbLine
 10
225.0404217926186
 20
308.6379613356764
 30
0.0
 11
224.7904217926197
 21
308.6379613356764
 31
0.0
  0
LINE
  5
2ED
330
A
100
AcDbEntity
  8
06
100
AcDbLine
 10
205.2904217926174
 20
308.6379613356766
 30
0.0
 11
205.0404217926185
 21
308.6379613356766
 31
0.0
  0
LINE
  5
2EE
330
A
100
AcDbEntity
  8
06
100
AcDbLine
 10
219.2904217926185
 20
308.9379613356765
 30
0.0
 11
219.2904217926185
 21
312.6379613356766
 31
0.0
  0
LINE
  5
2EF
330
A
100
AcDbEntity
  8
06
100
AcDbLine
 10
210.7904217926184
 20
308.9379613356765
 30
0.0
 11
210.7904217926184
 21
312.6379613356766
 31
0.0
  0
LINE
  5
2F0
330
A
100
AcDbEntity
  8
06
100
AcDbLine
 10
225.0404217926186
 20
308.6379613356764
 30
0.0
 11
225.0404217926186
 21
298.6379613356766
 31
0.0
  0
LINE
  5
2F1
330
A
100
AcDbEntity
  8
06
100
AcDbLine
 10
225.0404217926186
 20
297.6379613356765
 30
0.0
 11
225.0404217926184
 21
289.6379613356766
 31
0.0
  0
ARC
  5
2F2
330
A
100
AcDbEntity
  8
06
100
AcDbCircle
 10
223.0404217926184
 20
289.6379613356766
 30
0.0
 40
2.0
100
AcDbArc
 50
270.0
 51
0.0000015352347393
  0
LINE
  5
2F3
330
A
100
AcDbEntity
  8
06
100
AcDbLine
 10
225.6404217926184
 20
285.6379613356766
 30
0.0
 11
225.6404217926184
 21
260.1379613356765
 31
0.0
  0
LINE
  5
2F4
330
A
100
AcDbEntity
  8
06
100
AcDbLine
 10
205.0404217926185
 20
308.6379613356766
 30
0.0
 11
205.0404217926185
 21
298.6379613356766
 31
0.0
  0
LINE
  5
2F5
330
A
100
AcDbEntity
  8
06
100
AcDbLine
 10
205.0404217926185
 20
297.6379613356765
 30
0.0
 11
205.0404217926184
 21
289.6379613356766
 31
0.0
  0
ARC
  5
2F6
330
A
100
AcDbEntity
  8
06
100
AcDbCircle
 10
207.0404217926184
 20
289.6379613356766
 30
0.0
 40
2.0
100
AcDbArc
 50
179.9999984647652
 51
270.0
  0
LINE
  5
2F7
330
A
100
AcDbEntity
  8
06
100
AcDbLine
 10
204.4404217926184
 20
285.6379613356766
 30
0.0
 11
204.4404217926186
 21
260.1379613356765
 31
0.0
  0
LINE
  5
2F8
330
A
100
AcDbEntity
  8
06
100
AcDbLine
 10
219.2904217926185
 20
308.9379613356765
 30
0.0
 11
219.7904217926176
 21
308.6379613356766
 31
0.0
  0
LINE
  5
2F9
330
A
100
AcDbEntity
  8
06
100
AcDbLine
 10
219.7904217926176
 20
308.6379613356766
 30
0.0
 11
220.2904217926174
 21
308.9379613356765
 31
0.0
  0
LINE
  5
2FA
330
A
100
AcDbEntity
  8
06
100
AcDbLine
 10
220.2904217926174
 20
308.9379613356765
 30
0.0
 11
220.7904217926174
 21
308.6379613356766
 31
0.0
  0
LINE
  5
2FB
330
A
100
AcDbEntity
  8
06
100
AcDbLine
 10
220.7904217926174
 20
308.6379613356766
 30
0.0
 11
221.2904217926174
 21
308.9379613356765
 31
0.0
  0
LINE
  5
2FC
330
A
100
AcDbEntity
  8
06
100
AcDbLine
 10
221.2904217926174
 20
308.9379613356765
 30
0.0
 11
221.7904217926174
 21
308.6379613356766
 31
0.0
  0
LINE
  5
2FD
330
A
100
AcDbEntity
  8
06
100
AcDbLine
 10
221.7904217926174
 20
308.6379613356766
 30
0.0
 11
222.2904217926174
 21
308.9379613356765
 31
0.0
  0
LINE
  5
2FE
330
A
100
AcDbEntity
  8
06
100
AcDbLine
 10
222.2904217926174
 20
308.9379613356765
 30
0.0
 11
222.7904217926174
 21
308.6379613356766
 31
0.0
  0
LINE
  5
2FF
330
A
100
AcDbEntity
  8
06
100
AcDbLine
 10
222.7904217926174
 20
308.6379613356766
 30
0.0
 11
223.2904217926174
 21
308.9379613356765
 31
0.0
  0
LINE
  5
300
330
A
100
AcDbEntity
  8
06
100
AcDbLine
 10
223.2904217926174
 20
308.9379613356765
 30
0.0
 11
223.7904217926174
 21
308.6379613356766
 31
0.0
  0
LINE
  5
301
330
A
100
AcDbEntity
  8
06
100
AcDbLine
 10
223.7904217926174
 20
308.6379613356766
 30
0.0
 11
224.2904217926198
 21
308.9379613356765
 31
0.0
  0
LINE
  5
302
330
A
100
AcDbEntity
  8
06
100
AcDbLine
 10
224.2904217926198
 20
308.9379613356765
 30
0.0
 11
224.7904217926197
 21
308.6379613356764
 31
0.0
  0
LINE
  5
303
330
A
100
AcDbEntity
  8
06
100
AcDbLine
 10
210.7904217926186
 20
308.9379613356765
 30
0.0
 11
210.2904217926197
 21
308.6379613356766
 31
0.0
  0
LINE
  5
304
330
A
100
AcDbEntity
  8
06
100
AcDbLine
 10
210.2904217926197
 20
308.6379613356766
 30
0.0
 11
209.7904217926196
 21
308.9379613356766
 31
0.0
  0
LINE
  5
305
330
A
100
AcDbEntity
  8
06
100
AcDbLine
 10
209.7904217926196
 20
308.9379613356766
 30
0.0
 11
209.2904217926196
 21
308.6379613356766
 31
0.0
  0
LINE
  5
306
330
A
100
AcDbEntity
  8
06
100
AcDbLine
 10
209.2904217926196
 20
308.6379613356766
 30
0.0
 11
208.7904217926197
 21
308.9379613356766
 31
0.0
  0
LINE
  5
307
330
A
100
AcDbEntity
  8
06
100
AcDbLine
 10
208.7904217926197
 20
308.9379613356766
 30
0.0
 11
208.2904217926198
 21
308.6379613356766
 31
0.0
  0
LINE
  5
308
330
A
100
AcDbEntity
  8
06
100
AcDbLine
 10
208.2904217926198
 20
308.6379613356766
 30
0.0
 11
207.7904217926198
 21
308.9379613356766
 31
0.0
  0
LINE
  5
309
330
A
100
AcDbEntity
  8
06
100
AcDbLine
 10
207.7904217926198
 20
308.9379613356766
 30
0.0
 11
207.2904217926198
 21
308.6379613356766
 31
0.0
  0
LINE
  5
30A
330
A
100
AcDbEntity
  8
06
100
AcDbLine
 10
207.2904217926198
 20
308.6379613356766
 30
0.0
 11
206.7904217926197
 21
308.9379613356766
 31
0.0
  0
LINE
  5
30B
330
A
100
AcDbEntity
  8
06
100
AcDbLine
 10
206.7904217926197
 20
308.9379613356766
 30
0.0
 11
206.2904217926198
 21
308.6379613356766
 31
0.0
  0
LINE
  5
30C
330
A
100
AcDbEntity
  8
06
100
AcDbLine
 10
206.2904217926198
 20
308.6379613356766
 30
0.0
 11
205.7904217926174
 21
308.9379613356766
 31
0.0
  0
LINE
  5
30D
330
A
100
AcDbEntity
  8
06
100
AcDbLine
 10
205.7904217926174
 20
308.9379613356766
 30
0.0
 11
205.2904217926174
 21
308.6379613356766
 31
0.0
  0
LINE
  5
30E
330
A
100
AcDbEntity
  8
06
100
AcDbLine
 10
210.5404217926186
 20
260.1379613356765
 30
0.0
 11
212.5404217926186
 21
263.3379613356765
 31
0.0
  0
LINE
  5
30F
330
A
100
AcDbEntity
  8
06
100
AcDbLine
 10
219.5404217926185
 20
260.1379613356765
 30
0.0
 11
217.5404217926184
 21
263.3379613356765
 31
0.0
  0
LINE
  5
31F
330
A
100
AcDbEntity
  8
06
100
AcDbLine
 10
205.0404217926191
 20
193.9758026902795
 30
0.0
 11
207.040421792619
 21
193.9758026902796
 31
0.0
  0
LINE
  5
320
330
A
100
AcDbEntity
  8
06
100
AcDbLine
 10
223.040421792619
 20
193.9758026902796
 30
0.0
 11
225.0404217926189
 21
193.9758026902796
 31
0.0
  0
LINE
  5
321
330
A
100
AcDbEntity
  8
06
100
AcDbLine
 10
228.040421792619
 20
190.9758026902798
 30
0.0
 11
228.040421792619
 21
111.9758026902798
 31
0.0
  0
ARC
  5
322
330
A
100
AcDbEntity
  8
06
100
AcDbCircle
 10
225.040421792619
 20
190.9758026902798
 30
0.0
 40
3.0
100
AcDbArc
 50
0.0000015352347505
 51
89.99999692953121
  0
LINE
  5
323
330
A
100
AcDbEntity
  8
06
100
AcDbLine
 10
228.040421792619
 20
111.9758026902798
 30
0.0
 11
226.8404217926184
 21
111.9758026902798
 31
0.0
  0
LINE
  5
324
330
A
100
AcDbEntity
  8
06
100
AcDbLine
 10
203.2404217926191
 20
111.9758026902798
 30
0.0
 11
202.040421792619
 21
111.9758026902798
 31
0.0
  0
LINE
  5
325
330
A
100
AcDbEntity
  8
06
100
AcDbLine
 10
202.040421792619
 20
111.9758026902798
 30
0.0
 11
202.040421792619
 21
190.9758027706643
 31
0.0
  0
LINE
  5
327
330
A
100
AcDbEntity
  8
06
100
AcDbLine
 10
226.8393447670833
 20
116.9758026902784
 30
0.0
 11
226.2404217926191
 21
116.9758026902797
 31
0.0
  0
LINE
  5
328
330
A
100
AcDbEntity
  8
06
100
AcDbLine
 10
203.8404217926188
 20
116.9758026902797
 30
0.0
 11
203.2414988181539
 21
116.9758026902792
 31
0.0
  0
LINE
  5
329
330
A
100
AcDbEntity
  8
06
100
AcDbLine
 10
225.4404217926189
 20
157.4758026902798
 30
0.0
 11
215.5404217926191
 21
157.4758026902798
 31
0.0
  0
LINE
  5
32A
330
A
100
AcDbEntity
  8
06
100
AcDbLine
 10
214.5404217926188
 20
157.4758026902798
 30
0.0
 11
204.6404217926188
 21
157.4758026902798
 31
0.0
  0
LINE
  5
33F
330
A
100
AcDbEntity
  8
06
100
AcDbLine
 10
204.6404217926188
 20
157.4758026902798
 30
0.0
 11
204.640421792619
 21
119.9758026902788
 31
0.0
  0
LINE
  5
340
330
A
100
AcDbEntity
  8
06
100
AcDbLine
 10
225.4404217926189
 20
157.4758026902798
 30
0.0
 11
225.440421792619
 21
119.9758026902774
 31
0.0
  0
LINE
  5
341
330
A
100
AcDbEntity
  8
06
100
AcDbLine
 10
203.8404217926188
 20
116.9758026902797
 30
0.0
 11
203.8404217926186
 21
113.9758026902798
 31
0.0
  0
LINE
  5
342
330
A
100
AcDbEntity
  8
06
100
AcDbLine
 10
226.2404217926191
 20
116.9758026902797
 30
0.0
 11
226.2404217926193
 21
113.9758026902798
 31
0.0
  0
LINE
  5
343
330
A
100
AcDbEntity
  8
06
100
AcDbLine
 10
225.4404217926189
 20
119.9758026902775
 30
0.0
 11
226.839344767084
 21
116.9758026902797
 31
0.0
1001
ACAD
1000
ASC_BOUNDS
1002
{
1070
    19
1005
880
1002
}
  0
LINE
  5
344
330
A
100
AcDbEntity
  8
06
100
AcDbLine
 10
204.6404217926188
 20
119.9758026902792
 30
0.0
 11
203.2414988181538
 21
116.975802690279
 31
0.0
1001
ACAD
1000
ASC_BOUNDS
1002
{
1070
    19
1005
880
1002
}
  0
LINE
  5
345
330
A
100
AcDbEntity
  8
06
100
AcDbLine
 10
226.2404217926193
 20
113.9758026902798
 30
0.0
 11
226.8404217926184
 21
111.9758026902796
 31
0.0
  0
LINE
  5
346
330
A
100
AcDbEntity
  8
06
100
AcDbLine
 10
203.8404217926186
 20
113.9758026902798
 30
0.0
 11
203.2404217926191
 21
111.9758026902796
 31
0.0
  0
LINE
  5
347
330
A
100
AcDbEntity
  8
06
100
AcDbLine
 10
215.040421792619
 20
157.9758026902798
 30
0.0
 11
214.5404217926188
 21
157.4758026902796
 31
0.0
  0
LINE
  5
348
330
A
100
AcDbEntity
  8
06
100
AcDbLine
 10
215.040421792619
 20
157.9758026902798
 30
0.0
 11
215.5404217926191
 21
157.4758026902796
 31
0.0
  0
LINE
  5
34B
330
A
100
AcDbEntity
  8
03
100
AcDbLine
 10
348.5950918532025
 20
101.9758026902969
 30
0.0
 11
239.8904217908236
 21
101.9758026902784
 31
0.0
  0
LINE
  5
34C
330
A
100
AcDbEntity
  8
03
100
AcDbLine
 10
194.0404217926184
 20
101.9758026902706
 30
0.0
 11
60.36546383423408
 21
101.9758026902477
 31
0.0
  0
LINE
  5
34D
330
A
100
AcDbEntity
  8
03
100
AcDbLine
 10
97.04042179261858
 20
546.6379613356767
 30
0.0
 11
97.04042179261858
 21
573.6379613356766
 31
0.0
  0
LINE
  5
34E
330
A
100
AcDbEntity
  8
03
100
AcDbLine
 10
191.0404217926186
 20
573.6379613356766
 30
0.0
 11
191.0404217926186
 21
546.6379613356767
 31
0.0
  0
LINE
  5
34F
330
A
100
AcDbEntity
  8
03
100
AcDbLine
 10
189.5404217926184
 20
573.6379613356766
 30
0.0
 11
189.5404217926184
 21
546.6379613356767
 31
0.0
  0
LINE
  5
350
330
A
100
AcDbEntity
  8
03
100
AcDbLine
 10
98.54042179261858
 20
546.6379613356767
 30
0.0
 11
98.54042179261858
 21
573.6379613356766
 31
0.0
  0
LINE
  5
351
330
A
100
AcDbEntity
  8
03
100
AcDbLine
 10
176.0404217926184
 20
575.1379613356768
 30
0.0
 11
176.0404217926184
 21
573.6379613356766
 31
0.0
  0
LINE
  5
352
330
A
100
AcDbEntity
  8
03
100
AcDbLine
 10
112.0404217926185
 20
575.1379613356768
 30
0.0
 11
112.0404217926185
 21
573.6379613356766
 31
0.0
  0
LINE
  5
353
330
A
100
AcDbEntity
  8
03
100
AcDbLine
 10
98.54042179261858
 20
575.1379613356768
 30
0.0
 11
112.0404217926185
 21
575.1379613356768
 31
0.0
  0
LINE
  5
354
330
A
100
AcDbEntity
  8
03
100
AcDbLine
 10
176.0404217926184
 20
575.1379613356768
 30
0.0
 11
189.5404217926184
 21
575.1379613356768
 31
0.0
  0
LINE
  5
355
330
A
100
AcDbEntity
  8
03
100
AcDbLine
 10
98.54042179261858
 20
573.6379613356766
 30
0.0
 11
112.0404217926185
 21
573.6379613356766
 31
0.0
  0
LINE
  5
356
330
A
100
AcDbEntity
  8
03
100
AcDbLine
 10
176.0404217926184
 20
573.6379613356766
 30
0.0
 11
189.5404217926184
 21
573.6379613356766
 31
0.0
  0
LINE
  5
357
330
A
100
AcDbEntity
  8
03
100
AcDbLine
 10
136.0404217926185
 20
560.1379613356766
 30
0.0
 11
152.0404217926184
 21
560.1379613356766
 31
0.0
  0
LINE
  5
358
330
A
100
AcDbEntity
  8
03
100
AcDbLine
 10
136.0404217926185
 20
561.6379613356766
 30
0.0
 11
152.0404217926184
 21
561.6379613356766
 31
0.0
  0
LINE
  5
359
330
A
100
AcDbEntity
  8
03
100
AcDbLine
 10
153.5404217926185
 20
546.6379613356767
 30
0.0
 11
153.5404217926185
 21
560.1379613356766
 31
0.0
  0
LINE
  5
35A
330
A
100
AcDbEntity
  8
03
100
AcDbLine
 10
134.5404217926185
 20
560.1379613356766
 30
0.0
 11
134.5404217926185
 21
546.6379613356767
 31
0.0
  0
LINE
  5
35B
330
A
100
AcDbEntity
  8
03
100
AcDbLine
 10
152.0404217926184
 20
546.6379613356767
 30
0.0
 11
152.0404217926184
 21
560.1379613356766
 31
0.0
  0
LINE
  5
35C
330
A
100
AcDbEntity
  8
03
100
AcDbLine
 10
136.0404217926185
 20
560.1379613356766
 30
0.0
 11
136.0404217926185
 21
546.6379613356767
 31
0.0
  0
LINE
  5
35D
330
A
100
AcDbEntity
  8
03
100
AcDbLine
 10
189.5404217926184
 20
546.6379613356767
 30
0.0
 11
153.5404217926185
 21
546.6379613356767
 31
0.0
  0
LINE
  5
35E
330
A
100
AcDbEntity
  8
03
100
AcDbLine
 10
134.5404217926185
 20
546.6379613356767
 30
0.0
 11
98.54042179261858
 21
546.6379613356767
 31
0.0
  0
LINE
  5
35F
330
A
100
AcDbEntity
  8
03
100
AcDbLine
 10
189.5404217926184
 20
545.1379613356766
 30
0.0
 11
153.5404217926185
 21
545.1379613356766
 31
0.0
  0
LINE
  5
360
330
A
100
AcDbEntity
  8
03
100
AcDbLine
 10
134.5404217926185
 20
545.1379613356766
 30
0.0
 11
98.54042179261858
 21
545.1379613356766
 31
0.0
  0
ARC
  5
361
330
A
100
AcDbEntity
  8
03
100
AcDbCircle
 10
152.0404217926184
 20
560.1379613356766
 30
0.0
 40
1.5
100
AcDbArc
 50
0.0
 51
90.0
  0
ARC
  5
362
330
A
100
AcDbEntity
  8
03
100
AcDbCircle
 10
136.0404217926185
 20
560.1379613356766
 30
0.0
 40
1.5
100
AcDbArc
 50
90.0
 51
180.0
  0
ARC
  5
363
330
A
100
AcDbEntity
  8
03
100
AcDbCircle
 10
153.5404217926185
 20
546.6379613356767
 30
0.0
 40
1.5
100
AcDbArc
 50
180.0
 51
270.0
  0
ARC
  5
364
330
A
100
AcDbEntity
  8
03
100
AcDbCircle
 10
134.5404217926185
 20
546.6379613356767
 30
0.0
 40
1.5
100
AcDbArc
 50
270.0
 51
0.0
  0
ARC
  5
365
330
A
100
AcDbEntity
  8
03
100
AcDbCircle
 10
189.5404217926184
 20
546.6379613356767
 30
0.0
 40
1.5
100
AcDbArc
 50
270.0
 51
0.0
  0
ARC
  5
366
330
A
100
AcDbEntity
  8
03
100
AcDbCircle
 10
189.5404217926184
 20
573.6379613356766
 30
0.0
 40
1.5
100
AcDbArc
 50
0.0
 51
90.0
  0
ARC
  5
367
330
A
100
AcDbEntity
  8
03
100
AcDbCircle
 10
98.54042179261858
 20
546.6379613356767
 30
0.0
 40
1.5
100
AcDbArc
 50
180.0
 51
270.0
  0
ARC
  5
368
330
A
100
AcDbEntity
  8
03
100
AcDbCircle
 10
98.54042179261858
 20
573.6379613356766
 30
0.0
 40
1.5
100
AcDbArc
 50
90.0
 51
180.0
  0
CIRCLE
  5
369
330
A
100
AcDbEntity
  8
03
100
AcDbCircle
 10
174.0404217926184
 20
191.9758026902705
 30
0.0
 40
6.0
  0
LINE
  5
36A
330
A
100
AcDbEntity
  8
03
100
AcDbLine
 10
135.6470736936709
 20
306.7377398514621
 30
0.0
 11
136.5404217926185
 21
320.1379613356766
 31
0.0
  0
LINE
  5
36B
330
A
100
AcDbEntity
  8
03
100
AcDbLine
 10
152.433769891566
 20
306.7377398514623
 30
0.0
 11
151.5404217926185
 21
320.1379613356766
 31
0.0
  0
LINE
  5
36C
330
A
100
AcDbEntity
  8
03
100
AcDbLine
 10
137.1437514304558
 20
305.1379613356766
 30
0.0
 11
150.9370921547811
 21
305.1379613356766
 31
0.0
  0
LINE
  5
36D
330
A
100
AcDbEntity
  8
03
100
AcDbLine
 10
150.0437440558336
 20
320.0381828198908
 30
0.0
 11
150.9370921547811
 21
306.6379613356766
 31
0.0
  0
LINE
  5
36E
330
A
100
AcDbEntity
  8
03
100
AcDbLine
 10
150.9370921547811
 20
306.6379613356766
 30
0.0
 11
137.1437514304558
 21
306.6379613356766
 31
0.0
  0
LINE
  5
36F
330
A
100
AcDbEntity
  8
03
100
AcDbLine
 10
137.1437514304558
 20
306.6379613356766
 30
0.0
 11
138.0370995294034
 21
320.0381828198908
 31
0.0
  0
ARC
  5
370
330
A
100
AcDbEntity
  8
03
100
AcDbCircle
 10
150.9370921547811
 20
306.6379613356766
 30
0.0
 40
1.5
100
AcDbArc
 50
270.0
 51
3.814074834294168
  0
ARC
  5
371
330
A
100
AcDbEntity
  8
03
100
AcDbCircle
 10
137.1437514304558
 20
306.6379613356766
 30
0.0
 40
1.5
100
AcDbArc
 50
176.1859251657118
 51
270.0
  0
LINE
  5
372
330
A
100
AcDbEntity
  8
03
100
AcDbLine
 10
194.0404217926186
 20
103.4758026902785
 30
0.0
 11
194.0404217926186
 21
94.97580269028015
 31
0.0
  0
LINE
  5
373
330
A
100
AcDbEntity
  8
03
100
AcDbLine
 10
195.5404217926184
 20
103.4758026902799
 30
0.0
 11
195.5404217926184
 21
94.97580269028015
 31
0.0
  0
LINE
  5
374
330
A
100
AcDbEntity
  8
03
100
AcDbLine
 10
194.0404217926186
 20
94.97580269028015
 30
0.0
 11
195.5404217926184
 21
94.97580269028015
 31
0.0
  0
ARC
  5
375
330
A
100
AcDbEntity
  8
03
100
AcDbCircle
 10
195.5404217926184
 20
103.4758026902785
 30
0.0
 40
1.5
100
AcDbArc
 50
90.0
 51
180.0
  0
LINE
  5
376
330
A
100
AcDbEntity
  8
03
100
AcDbLine
 10
195.5404217926184
 20
78.47580269028004
 30
0.0
 11
195.5404217926184
 21
103.4758026902799
 31
0.0
  0
LINE
  5
377
330
A
100
AcDbEntity
  8
03
100
AcDbLine
 10
197.8404217926184
 20
78.47580269028004
 30
0.0
 11
197.8404217926184
 21
103.4758026902799
 31
0.0
  0
ARC
  5
378
330
A
100
AcDbEntity
  8
03
100
AcDbCircle
 10
197.8404217926184
 20
78.47580269028004
 30
0.0
 40
2.299999999999998
100
AcDbArc
 50
180.0
 51
270.0
  0
LINE
  5
379
330
A
100
AcDbEntity
  8
03
100
AcDbLine
 10
195.5404217926184
 20
99.47580269027866
 30
0.0
 11
194.0404217926184
 21
97.97580269027859
 31
0.0
  0
LINE
  5
37A
330
A
100
AcDbEntity
  8
03
100
AcDbLine
 10
197.8404217926184
 20
91.47580269027992
 30
0.0
 11
195.5404217926184
 21
89.17580269027997
 31
0.0
  0
LINE
  5
37B
330
A
100
AcDbEntity
  8
03
100
AcDbLine
 10
197.8404217926184
 20
93.47580269027991
 30
0.0
 11
195.5404217926184
 21
91.17580269027996
 31
0.0
  0
ARC
  5
37C
330
A
100
AcDbEntity
  8
03
100
AcDbCircle
 10
224.1404217908236
 20
79.22580269027992
 30
0.0
 40
0.75
100
AcDbArc
 50
269.9999999999998
 51
0.0000000000000799
  0
ARC
  5
37D
330
A
100
AcDbEntity
  8
03
100
AcDbCircle
 10
237.3904217908236
 20
77.17580269028002
 30
0.0
 40
1.0
100
AcDbArc
 50
269.9999999999999
 51
0.0000000000000799
  0
LINE
  5
37E
330
A
100
AcDbEntity
  8
03
100
AcDbLine
 10
228.6083906269575
 20
78.47580269028004
 30
0.0
 11
226.3083906269577
 21
76.17580269028002
 31
0.0
  0
LINE
  5
37F
330
A
100
AcDbEntity
  8
03
100
AcDbLine
 10
230.6083906269575
 20
78.47580269028004
 30
0.0
 11
228.3083906269577
 21
76.17580269028008
 31
0.0
  0
LINE
  5
380
330
A
100
AcDbEntity
  8
03
100
AcDbLine
 10
206.3904217908236
 20
79.97580269027992
 30
0.0
 11
223.3904217908238
 21
79.97580269027992
 31
0.0
  0
LINE
  5
381
330
A
100
AcDbEntity
  8
03
100
AcDbLine
 10
197.8404217926184
 20
78.47580269028004
 30
0.0
 11
236.0904217908238
 21
78.47580269027992
 31
0.0
  0
ARC
  5
382
330
A
100
AcDbEntity
  8
03
100
AcDbCircle
 10
205.6404217908238
 20
79.22580269028003
 30
0.0
 40
0.75
100
AcDbArc
 50
180.0
 51
269.9999999999997
  0
LINE
  5
383
330
A
100
AcDbEntity
  8
03
100
AcDbLine
 10
197.8404217926184
 20
76.17580269027995
 30
0.0
 11
237.3904217908236
 21
76.17580269028002
 31
0.0
  0
LINE
  5
384
330
A
100
AcDbEntity
  8
03
100
AcDbLine
 10
218.2288515610447
 20
79.97580269027984
 30
0.0
 11
216.7288515610447
 21
78.47580269027992
 31
0.0
  0
LINE
  5
385
330
A
100
AcDbEntity
  8
03
100
AcDbLine
 10
209.0895264327425
 20
78.47580269027992
 30
0.0
 11
206.7895264327427
 21
76.17580269027995
 31
0.0
  0
LINE
  5
386
330
A
100
AcDbEntity
  8
03
100
AcDbLine
 10
211.0895264327425
 20
78.47580269027992
 30
0.0
 11
208.7895264327427
 21
76.17580269027995
 31
0.0
  0
LINE
  5
387
330
A
100
AcDbEntity
  8
03
100
AcDbLine
 10
239.8904217908236
 20
104.2258026902799
 30
0.0
 11
239.8904217908238
 21
94.97580269027997
 31
0.0
  0
ARC
  5
388
330
A
100
AcDbEntity
  8
03
100
AcDbCircle
 10
239.1404217908236
 20
104.2258026902799
 30
0.0
 40
0.75
100
AcDbArc
 50
0.0000000000000325
 51
90.00000000000005
  0
LINE
  5
389
330
A
100
AcDbEntity
  8
03
100
AcDbLine
 10
238.3904217908236
 20
103.4758026902799
 30
0.0
 11
238.3904217908236
 21
77.17580269028002
 31
0.0
  0
LINE
  5
38A
330
A
100
AcDbEntity
  8
03
100
AcDbLine
 10
238.3904217908236
 20
94.97580269027997
 30
0.0
 11
239.8904217908236
 21
94.97580269027997
 31
0.0
  0
LINE
  5
38B
330
A
100
AcDbEntity
  8
03
100
AcDbLine
 10
236.0904217908236
 20
103.4758026902799
 30
0.0
 11
236.0904217908238
 21
78.47580269027992
 31
0.0
  0
LINE
  5
38C
330
A
100
AcDbEntity
  8
03
100
AcDbLine
 10
239.8904217908236
 20
99.16539005960501
 30
0.0
 11
238.3904217908236
 21
97.6653900596051
 31
0.0
  0
LINE
  5
38D
330
A
100
AcDbEntity
  8
03
100
AcDbLine
 10
238.3904217908236
 20
90.0358715104152
 30
0.0
 11
236.0904217908236
 21
87.73587151041523
 31
0.0
  0
LINE
  5
38E
330
A
100
AcDbEntity
  8
03
100
AcDbLine
 10
238.3904217908236
 20
92.03587151041515
 30
0.0
 11
236.0904217908236
 21
89.7358715104152
 31
0.0
  0
LINE
  5
38F
330
A
100
AcDbEntity
  8
03
100
AcDbLine
 10
224.1404217908236
 20
104.9758026902799
 30
0.0
 11
239.1404217908236
 21
104.9758026902799
 31
0.0
  0
LINE
  5
390
330
A
100
AcDbEntity
  8
03
100
AcDbLine
 10
224.8904217908236
 20
103.4758026902799
 30
0.0
 11
238.3904217908236
 21
103.4758026902799
 31
0.0
  0
LINE
  5
391
330
A
100
AcDbEntity
  8
03
100
AcDbLine
 10
229.7791283088414
 20
104.9758026902799
 30
0.0
 11
228.2791283088415
 21
103.47580269028
 31
0.0
  0
ARC
  5
392
330
A
100
AcDbEntity
  8
03
100
AcDbCircle
 10
224.1404217908236
 20
104.2258026902799
 30
0.0
 40
0.75
100
AcDbArc
 50
90.00000000000005
 51
180.0
  0
LINE
  5
393
330
A
100
AcDbEntity
  8
03
100
AcDbLine
 10
223.3904217908235
 20
104.2258026902799
 30
0.0
 11
223.3904217908238
 21
79.97580269027992
 31
0.0
  0
LINE
  5
394
330
A
100
AcDbEntity
  8
03
100
AcDbLine
 10
224.8904217908236
 20
103.4758026902799
 30
0.0
 11
224.8904217908236
 21
79.22580269027992
 31
0.0
  0
LINE
  5
395
330
A
100
AcDbEntity
  8
03
100
AcDbLine
 10
224.8904217908236
 20
92.46059503202976
 30
0.0
 11
223.3904217908236
 21
90.96059503202974
 31
0.0
  0
LINE
  5
396
330
A
100
AcDbEntity
  8
03
100
AcDbLine
 10
204.8904217908236
 20
103.4758026902799
 30
0.0
 11
204.8904217908237
 21
79.22580269028003
 31
0.0
  0
LINE
  5
397
330
A
100
AcDbEntity
  8
03
100
AcDbLine
 10
206.3904217908236
 20
104.22580269028
 30
0.0
 11
206.3904217908236
 21
79.97580269027992
 31
0.0
  0
ARC
  5
398
330
A
100
AcDbEntity
  8
03
100
AcDbCircle
 10
205.6404217908236
 20
104.22580269028
 30
0.0
 40
0.75
100
AcDbArc
 50
0.0000000000000325
 51
90.00000000000119
  0
LINE
  5
399
330
A
100
AcDbEntity
  8
03
100
AcDbLine
 10
206.3904217908236
 20
92.63081295693103
 30
0.0
 11
204.8904217908235
 21
91.13081295693097
 31
0.0
  0
LINE
  5
39A
330
A
100
AcDbEntity
  8
03
100
AcDbLine
 10
195.5404217926184
 20
104.9758026902785
 30
0.0
 11
205.6404217908236
 21
104.97580269028
 31
0.0
  0
LINE
  5
39B
330
A
100
AcDbEntity
  8
03
100
AcDbLine
 10
195.5404217926184
 20
103.4758026902799
 30
0.0
 11
204.8904217908236
 21
103.4758026902799
 31
0.0
  0
LINE
  5
39C
330
A
100
AcDbEntity
  8
03
100
AcDbLine
 10
202.6224476908031
 20
104.9758026902797
 30
0.0
 11
201.1224476908029
 21
103.4758026902797
 31
0.0
  0
LINE
  5
39D
330
A
100
AcDbEntity
  8
06
100
AcDbLine
 10
207.5404217926184
 20
109.9758026902796
 30
0.0
 11
207.5404217926185
 21
84.97580269027981
 31
0.0
  0
LINE
  5
39E
330
A
100
AcDbEntity
  8
06
100
AcDbLine
 10
207.5404217926185
 20
84.97580269027976
 30
0.0
 11
222.5404217926186
 21
84.97580269027981
 31
0.0
  0
LINE
  5
39F
330
A
100
AcDbEntity
  8
06
100
AcDbLine
 10
207.5404217926184
 20
109.9758026902796
 30
0.0
 11
222.5404217926186
 21
84.97580269027981
 31
0.0
  0
LINE
  5
3A0
330
A
100
AcDbEntity
  8
06
100
AcDbLine
 10
222.5404217926186
 20
109.9758026902796
 30
0.0
 11
207.5404217926185
 21
84.97580269027981
 31
0.0
  0
LINE
  5
3A1
330
A
100
AcDbEntity
  8
06
100
AcDbLine
 10
222.5404217926186
 20
109.9758026902796
 30
0.0
 11
222.5404217926186
 21
84.97580269027981
 31
0.0
  0
LINE
  5
3A2
330
A
100
AcDbEntity
  8
06
100
AcDbLine
 10
207.5404217926184
 20
109.9758026902796
 30
0.0
 11
222.5404217926186
 21
109.9758026902796
 31
0.0
  0
LINE
  5
3A3
330
A
100
AcDbEntity
  8
03
100
AcDbLine
 10
152.0404217926184
 20
503.6379613356766
 30
0.0
 11
152.0404217926184
 21
522.2560632688928
 31
0.0
  0
LINE
  5
3A4
330
A
100
AcDbEntity
  8
03
100
AcDbLine
 10
152.0404217926184
 20
527.2560632688929
 30
0.0
 11
152.0404217926184
 21
546.6379613356767
 31
0.0
  0
LINE
  5
3A5
330
A
100
AcDbEntity
  8
03
100
AcDbLine
 10
136.0404217926185
 20
546.6379613356767
 30
0.0
 11
136.0404217926185
 21
527.2560632688928
 31
0.0
  0
LINE
  5
3A6
330
A
100
AcDbEntity
  8
03
100
AcDbLine
 10
136.0404217926185
 20
522.2560632688928
 30
0.0
 11
136.0404217926185
 21
503.6379613356766
 31
0.0
  0
LINE
  5
3A7
330
A
100
AcDbEntity
  8
03
100
AcDbLine
 10
134.0404217926185
 20
545.1379613356766
 30
0.0
 11
141.0404217926185
 21
545.1379613356766
 31
0.0
  0
LINE
  5
3A8
330
A
100
AcDbEntity
  8
03
100
AcDbLine
 10
147.0404217926185
 20
545.1379613356766
 30
0.0
 11
154.0404217926185
 21
545.1379613356766
 31
0.0
  0
LINE
  5
3A9
330
A
100
AcDbEntity
  8
03
100
AcDbLine
 10
135.0404217926185
 20
505.1379613356766
 30
0.0
 11
141.0404217926185
 21
505.1379613356766
 31
0.0
  0
LINE
  5
3AA
330
A
100
AcDbEntity
  8
03
100
AcDbLine
 10
147.0404217926185
 20
505.1379613356766
 30
0.0
 11
153.0404217926184
 21
505.1379613356766
 31
0.0
  0
LINE
  5
3AB
330
A
100
AcDbEntity
  8
04
100
AcDbLine
 10
196.0404217926186
 20
341.1379613356765
 30
0.0
 11
196.0404217926186
 21
376.1379613356766
 31
0.0
  0
LINE
  5
3AC
330
A
100
AcDbEntity
  8
04
100
AcDbLine
 10
196.0404217926186
 20
376.1379613356766
 30
0.0
 11
202.0404217926186
 21
376.1379613356766
 31
0.0
  0
LINE
  5
3AD
330
A
100
AcDbEntity
  8
04
100
AcDbLine
 10
220.5404217926186
 20
341.1379613356765
 30
0.0
 11
196.0404217926186
 21
341.1379613356765
 31
0.0
  0
LINE
  5
3AE
330
A
100
AcDbEntity
  8
04
100
AcDbLine
 10
202.0404217926186
 20
373.6379613356766
 30
0.0
 11
202.0404217926186
 21
376.1379613356766
 31
0.0
  0
LINE
  5
3AF
330
A
100
AcDbEntity
  8
04
100
AcDbLine
 10
202.0404217926186
 20
373.6379613356766
 30
0.0
 11
199.0404217926184
 21
373.6379613356766
 31
0.0
  0
LINE
  5
3B0
330
A
100
AcDbEntity
  8
04
100
AcDbLine
 10
199.0404217926184
 20
373.6379613356766
 30
0.0
 11
199.0404217926184
 21
356.6379613356766
 31
0.0
  0
LINE
  5
3B1
330
A
100
AcDbEntity
  8
04
100
AcDbLine
 10
199.0404217926184
 20
356.6379613356766
 30
0.0
 11
202.0404217926186
 21
356.6379613356766
 31
0.0
  0
LINE
  5
3B2
330
A
100
AcDbEntity
  8
04
100
AcDbLine
 10
202.0404217926186
 20
356.6379613356766
 30
0.0
 11
202.0404217926186
 21
350.6379613356766
 31
0.0
  0
LINE
  5
3B3
330
A
100
AcDbEntity
  8
04
100
AcDbLine
 10
206.0404217926186
 20
346.6379613356766
 30
0.0
 11
206.5404217926186
 21
346.6379613356766
 31
0.0
  0
LINE
  5
3B4
330
A
100
AcDbEntity
  8
04
100
AcDbLine
 10
211.5404217926184
 20
355.1379613356766
 30
0.0
 11
219.5404217926185
 21
355.1379613356766
 31
0.0
  0
LINE
  5
3B5
330
A
100
AcDbEntity
  8
04
100
AcDbLine
 10
210.5404217926186
 20
354.1379613356766
 30
0.0
 11
210.5404217926186
 21
350.6379613356766
 31
0.0
  0
ARC
  5
3B6
330
A
100
AcDbEntity
  8
04
100
AcDbCircle
 10
206.0404217926186
 20
350.6379613356766
 30
0.0
 40
4.0
100
AcDbArc
 50
180.0
 51
270.0
  0
ARC
  5
3B7
330
A
100
AcDbEntity
  8
04
100
AcDbCircle
 10
206.5404217926186
 20
350.6379613356766
 30
0.0
 40
4.0
100
AcDbArc
 50
270.0
 51
0.0
  0
LINE
  5
3B8
330
A
100
AcDbEntity
  8
04
100
AcDbLine
 10
219.5404217926185
 20
350.1379613356766
 30
0.0
 11
216.5404217926186
 21
350.1379613356766
 31
0.0
  0
LINE
  5
3B9
330
A
100
AcDbEntity
  8
04
100
AcDbLine
 10
216.5404217926186
 20
350.1379613356766
 30
0.0
 11
216.5404217926186
 21
345.1379613356766
 31
0.0
  0
LINE
  5
3BA
330
A
100
AcDbEntity
  8
04
100
AcDbLine
 10
216.5404217926186
 20
345.1379613356766
 30
0.0
 11
219.5404217926185
 21
345.1379613356766
 31
0.0
  0
LINE
  5
3BB
330
A
100
AcDbEntity
  8
04
100
AcDbLine
 10
220.5404217926186
 20
354.1379613356766
 30
0.0
 11
220.5404217926186
 21
351.1379613356766
 31
0.0
  0
LINE
  5
3BC
330
A
100
AcDbEntity
  8
04
100
AcDbLine
 10
220.5404217926186
 20
344.1379613356766
 30
0.0
 11
220.5404217926186
 21
341.1379613356765
 31
0.0
  0
ARC
  5
3BD
330
A
100
AcDbEntity
  8
04
100
AcDbCircle
 10
219.5404217926185
 20
354.1379613356766
 30
0.0
 40
1.0
100
AcDbArc
 50
0.0
 51
90.0
  0
ARC
  5
3BE
330
A
100
AcDbEntity
  8
04
100
AcDbCircle
 10
211.5404217926184
 20
354.1379613356766
 30
0.0
 40
1.0
100
AcDbArc
 50
90.0
 51
180.0
  0
ARC
  5
3BF
330
A
100
AcDbEntity
  8
04
100
AcDbCircle
 10
219.5404217926185
 20
351.1379613356766
 30
0.0
 40
1.0
100
AcDbArc
 50
270.0
 51
0.0
  0
ARC
  5
3C0
330
A
100
AcDbEntity
  8
04
100
AcDbCircle
 10
219.5404217926185
 20
344.1379613356766
 30
0.0
 40
1.0
100
AcDbArc
 50
0.0
 51
90.0
  0
LINE
  5
3C1
330
A
100
AcDbEntity
  8
04
100
AcDbLine
 10
196.0404217926186
 20
368.6379613356766
 30
0.0
 11
199.0404217926184
 21
368.6379613356766
 31
0.0
  0
LINE
  5
3C2
330
A
100
AcDbEntity
  8
04
100
AcDbLine
 10
199.0404217926184
 20
361.6379613356766
 30
0.0
 11
196.0404217926186
 21
361.6379613356766
 31
0.0
  0
LINE
  5
3C4
330
A
100
AcDbEntity
  8
KAKURE
100
AcDbLine
 10
104.0404217926184
 20
573.6379613356766
 30
0.0
 11
184.0404217926184
 21
573.6379613356766
 31
0.0
  0
LINE
  5
3C5
330
A
100
AcDbEntity
  8
KAKURE
100
AcDbLine
 10
184.0404217926184
 20
571.3379613356766
 30
0.0
 11
104.0404217926184
 21
571.3379613356766
 31
0.0
  0
LINE
  5
3C6
330
A
100
AcDbEntity
  8
KAKURE
100
AcDbLine
 10
104.0404217926184
 20
571.3379613356766
 30
0.0
 11
104.0404217926184
 21
573.6379613356766
 31
0.0
  0
LINE
  5
3C7
330
A
100
AcDbEntity
  8
KAKURE
100
AcDbLine
 10
184.0404217926184
 20
573.6379613356766
 30
0.0
 11
184.0404217926184
 21
571.3379613356766
 31
0.0
  0
LINE
  5
3C8
330
A
100
AcDbEntity
  8
KAKURE
100
AcDbLine
 10
169.0404217926185
 20
573.6379613356766
 30
0.0
 11
119.0404217926185
 21
573.6379613356766
 31
0.0
  0
LINE
  5
3C9
330
A
100
AcDbEntity
  8
KAKURE
100
AcDbLine
 10
119.0404217926185
 20
573.6379613356766
 30
0.0
 11
119.0404217926185
 21
581.5
 31
0.0
  0
LINE
  5
3CA
330
A
100
AcDbEntity
  8
KAKURE
100
AcDbLine
 10
169.0404217926185
 20
581.5
 30
0.0
 11
169.0404217926185
 21
573.6379613356766
 31
0.0
  0
LINE
  5
3CB
330
A
100
AcDbEntity
  8
KAKURE
100
AcDbLine
 10
169.0404217926185
 20
576.8379613356764
 30
0.0
 11
119.0404217926185
 21
576.8379613356764
 31
0.0
  0
LINE
  5
3CC
330
A
100
AcDbEntity
  8
03
100
AcDbLine
 10
192.5404217926184
 20
306.6379613356766
 30
0.0
 11
192.5404217926184
 21
321.6379613356766
 31
0.0
  0
LINE
  5
3CD
330
A
100
AcDbEntity
  8
03
100
AcDbLine
 10
190.9404217926184
 20
321.6379613356766
 30
0.0
 11
112.1404217926184
 21
321.6379613356766
 31
0.0
  0
LINE
  5
3CE
330
A
100
AcDbEntity
  8
03
100
AcDbLine
 10
190.9404217926184
 20
323.2379613356766
 30
0.0
 11
112.1404217926184
 21
323.2379613356766
 31
0.0
  0
LINE
  5
3CF
330
A
100
AcDbEntity
  8
03
100
AcDbLine
 10
190.9404217926184
 20
306.6379613356766
 30
0.0
 11
190.9404217926184
 21
321.6379613356766
 31
0.0
  0
LINE
  5
3D0
330
A
100
AcDbEntity
  8
03
100
AcDbLine
 10
112.1404217926184
 20
323.2379613356766
 30
0.0
 11
112.1404217926184
 21
484.0379613356766
 31
0.0
  0
LINE
  5
3D1
330
A
100
AcDbEntity
  8
03
100
AcDbLine
 10
110.5404217926185
 20
323.2379613356766
 30
0.0
 11
110.5404217926185
 21
484.0379613356766
 31
0.0
  0
LINE
  5
3D2
330
A
100
AcDbEntity
  8
03
100
AcDbLine
 10
112.1404217926184
 20
485.6379613356764
 30
0.0
 11
188.4404217926184
 21
485.6379613356764
 31
0.0
  0
LINE
  5
3D3
330
A
100
AcDbEntity
  8
03
100
AcDbLine
 10
112.1404217926184
 20
484.0379613356766
 30
0.0
 11
188.4404217926184
 21
484.0379613356766
 31
0.0
  0
LINE
  5
3D4
330
A
100
AcDbEntity
  8
03
100
AcDbLine
 10
190.0404217926184
 20
503.6379613356766
 30
0.0
 11
190.0404217926184
 21
485.6379613356764
 31
0.0
  0
LINE
  5
3D5
330
A
100
AcDbEntity
  8
03
100
AcDbLine
 10
188.4404217926184
 20
503.6379613356766
 30
0.0
 11
188.4404217926184
 21
485.6379613356764
 31
0.0
  0
LINE
  5
3D6
330
A
100
AcDbEntity
  8
03
100
AcDbLine
 10
188.4404217926184
 20
503.6379613356766
 30
0.0
 11
190.0404217926184
 21
503.6379613356766
 31
0.0
  0
LINE
  5
3D7
330
A
100
AcDbEntity
  8
03
100
AcDbLine
 10
190.9404217926184
 20
306.6379613356766
 30
0.0
 11
192.5404217926184
 21
306.6379613356766
 31
0.0
  0
ARC
  5
3D8
330
A
100
AcDbEntity
  8
03
100
AcDbCircle
 10
190.9404217926184
 20
321.6379613356766
 30
0.0
 40
1.6
100
AcDbArc
 50
0.0
 51
90.0
  0
ARC
  5
3D9
330
A
100
AcDbEntity
  8
03
100
AcDbCircle
 10
112.1404217926184
 20
323.2379613356766
 30
0.0
 40
1.6
100
AcDbArc
 50
180.0
 51
270.0
  0
ARC
  5
3DA
330
A
100
AcDbEntity
  8
03
100
AcDbCircle
 10
188.4404217926184
 20
485.6379613356764
 30
0.0
 40
1.6
100
AcDbArc
 50
270.0
 51
0.0
  0
ARC
  5
3DB
330
A
100
AcDbEntity
  8
03
100
AcDbCircle
 10
112.1404217926184
 20
484.0379613356766
 30
0.0
 40
1.6
100
AcDbArc
 50
90.0
 51
180.0
  0
LINE
  5
3DC
330
A
100
AcDbEntity
  8
06
100
AcDbLine
 10
244.0404217926184
 20
450.1379613356767
 30
0.0
 11
262.0404217926184
 21
450.1379613356767
 31
0.0
  0
LINE
  5
3DD
330
A
100
AcDbEntity
  8
06
100
AcDbLine
 10
248.0404217926184
 20
439.1379613356765
 30
0.0
 11
258.0404217926184
 21
439.1379613356765
 31
0.0
  0
LINE
  5
3DE
330
A
100
AcDbEntity
  8
06
100
AcDbLine
 10
262.0404217926184
 20
450.1379613356767
 30
0.0
 11
258.0404217926184
 21
439.1379613356765
 31
0.0
  0
LINE
  5
3DF
330
A
100
AcDbEntity
  8
06
100
AcDbLine
 10
244.0404217926184
 20
450.1379613356767
 30
0.0
 11
248.0404217926184
 21
439.1379613356765
 31
0.0
  0
LINE
  5
3E0
330
A
100
AcDbEntity
  8
06
100
AcDbLine
 10
244.0404217926184
 20
360.1379613356765
 30
0.0
 11
262.0404217926184
 21
360.1379613356765
 31
0.0
  0
LINE
  5
3E1
330
A
100
AcDbEntity
  8
06
100
AcDbLine
 10
248.0404217926184
 20
371.1379613356766
 30
0.0
 11
258.0404217926184
 21
371.1379613356766
 31
0.0
  0
LINE
  5
3E2
330
A
100
AcDbEntity
  8
06
100
AcDbLine
 10
262.0404217926184
 20
360.1379613356765
 30
0.0
 11
258.0404217926184
 21
371.1379613356766
 31
0.0
  0
LINE
  5
3E3
330
A
100
AcDbEntity
  8
06
100
AcDbLine
 10
244.0404217926184
 20
360.1379613356765
 30
0.0
 11
248.0404217926184
 21
371.1379613356766
 31
0.0
  0
CIRCLE
  5
3E5
330
A
100
AcDbEntity
  8
KAKURE
100
AcDbCircle
 10
171.0404217926186
 20
425.1379613356766
 30
0.0
 40
15.0
  0
LINE
  5
3E6
330
A
100
AcDbEntity
  8
CHUSIN
100
AcDbLine
 10
215.0404217926184
 20
321.7545091078278
 30
0.0
 11
215.0404217926189
 21
81.97882359277775
 31
0.0
1001
ACAD
1000
ASC_BOUNDS
1002
{
1070
    19
1005
880
1005
880
1002
}
  0
LINE
  5
3EA
330
A
100
AcDbEntity
  8
CHUSIN
 48
0.9
100
AcDbLine
 10
211.0441111972671
 20
162.9758026902798
 30
0.0
 11
219.2018327247271
 21
162.9758026902798
 31
0.0
  0
LINE
  5
3EB
330
A
100
AcDbEntity
  8
CHUSIN
100
AcDbLine
 10
210.7797405922103
 20
293.6379613356766
 30
0.0
 11
220.8258235843603
 21
293.6379613356765
 31
0.0
  0
LINE
  5
3ED
330
A
100
AcDbEntity
  8
CHUSIN
100
AcDbLine
 10
144.0404217926185
 20
75.69683655536028
 30
0.0
 11
144.0404217926186
 21
329.2379613356766
 31
0.0
  0
LINE
  5
3EE
330
A
100
AcDbEntity
  8
CHUSIN
100
AcDbLine
 10
144.0404217926186
 20
487.1379613356766
 30
0.0
 11
144.0404217926186
 21
566.9349601189671
 31
0.0
  0
LINE
  5
3EF
330
A
100
AcDbEntity
  8
CHUSIN
100
AcDbLine
 10
143.3558736176079
 20
457.6379613356766
 30
0.0
 11
129.4631626676712
 21
457.6379613356766
 31
0.0
  0
LINE
  5
3F0
330
A
100
AcDbEntity
  8
CHUSIN
100
AcDbLine
 10
143.3558736176079
 20
430.1379613356766
 30
0.0
 11
129.4631626676712
 21
430.1379613356766
 31
0.0
  0
LINE
  5
3F1
330
A
100
AcDbEntity
  8
CHUSIN
100
AcDbLine
 10
143.3558736176079
 20
380.1379613356766
 30
0.0
 11
129.4631626676712
 21
380.1379613356766
 31
0.0
  0
LINE
  5
3F2
330
A
100
AcDbEntity
  8
CHUSIN
100
AcDbLine
 10
143.3558736176079
 20
352.6379613356766
 30
0.0
 11
129.4631626676712
 21
352.6379613356766
 31
0.0
  0
LINE
  5
3F3
330
A
100
AcDbEntity
  8
CHUSIN
100
AcDbLine
 10
180.0581316750033
 20
365.1379613356766
 30
0.0
 11
201.7836157395145
 21
365.1379613356766
 31
0.0
  0
LINE
  5
3F4
330
A
100
AcDbEntity
  8
06
100
AcDbLine
 10
211.0404217926184
 20
253.1379613356765
 30
0.0
 11
219.0404217926184
 21
253.1379613356765
 31
0.0
  0
LINE
  5
3F5
330
A
100
AcDbEntity
  8
06
100
AcDbLine
 10
219.0404217926184
 20
253.1379613356765
 30
0.0
 11
219.0404217926184
 21
216.4404353116128
 31
0.0
  0
LINE
  5
3F6
330
A
100
AcDbEntity
  8
06
100
AcDbLine
 10
219.0404217926188
 20
211.4404353116128
 30
0.0
 11
219.0404217926189
 21
170.4362161857263
 31
0.0
  0
LINE
  5
3F7
330
A
100
AcDbEntity
  8
06
100
AcDbLine
 10
211.0404217926189
 20
170.4362161857263
 30
0.0
 11
211.0404217926188
 21
211.4404353116128
 31
0.0
  0
LINE
  5
3F8
330
A
100
AcDbEntity
  8
06
100
AcDbLine
 10
211.0404217926185
 20
216.4404353116128
 30
0.0
 11
211.0404217926184
 21
253.1379613356765
 31
0.0
  0
LINE
  5
3F9
330
A
100
AcDbEntity
  8
06
100
AcDbLine
 10
211.5404217926184
 20
253.1379613356765
 30
0.0
 11
211.5404217926184
 21
216.4404353116128
 31
0.0
  0
LINE
  5
3FA
330
A
100
AcDbEntity
  8
06
100
AcDbLine
 10
211.5404217926188
 20
211.4404353116128
 30
0.0
 11
211.5404217926188
 21
170.4362161857263
 31
0.0
  0
LINE
  5
3FB
330
A
100
AcDbEntity
  8
06
100
AcDbLine
 10
218.5404217926189
 20
170.4362161857261
 30
0.0
 11
218.5404217926188
 21
211.4404353116128
 31
0.0
  0
LINE
  5
3FC
330
A
100
AcDbEntity
  8
06
100
AcDbLine
 10
218.5404217926186
 20
216.4404353116128
 30
0.0
 11
218.5404217926184
 21
253.1379613356765
 31
0.0
  0
LINE
  5
43F
330
A
100
AcDbEntity
  8
SAISEN
100
AcDbLine
 10
195.918456219865
 20
216.4404353116128
 30
0.0
 11
236.5206038831891
 21
216.4404353116128
 31
0.0
  0
LINE
  5
440
330
A
100
AcDbEntity
  8
SAISEN
100
AcDbLine
 10
236.5206038831891
 20
211.4404353116129
 30
0.0
 11
195.918456219865
 21
211.4404353116128
 31
0.0
  0
LINE
  5
441
330
A
100
AcDbEntity
  8
06
100
AcDbLine
 10
211.0404217926189
 20
170.4362161857263
 30
0.0
 11
219.0404217926189
 21
170.4362161857263
 31
0.0
  0
ARC
  5
442
330
A
100
AcDbEntity
  8
06
100
AcDbCircle
 10
221.0404217926189
 20
203.2217693740737
 30
0.0
 40
8.0
100
AcDbArc
 50
255.5224875671104
 51
284.4775124328898
  0
ARC
  5
443
330
A
100
AcDbEntity
  8
06
100
AcDbCircle
 10
209.0404218260056
 20
203.2217693740737
 30
0.0
 40
8.0
100
AcDbArc
 50
255.5224875671114
 51
284.4775124328905
  0
LINE
  5
444
330
A
100
AcDbEntity
  8
06
100
AcDbLine
 10
196.9522583022643
 20
315.1379613356766
 30
0.0
 11
214.5404217926184
 21
315.1379613356766
 31
0.0
  0
LINE
  5
445
330
A
100
AcDbEntity
  8
06
100
AcDbLine
 10
215.5404217926185
 20
315.1379613356766
 30
0.0
 11
228.0404217926185
 21
315.1379613356766
 31
0.0
  0
LINE
  5
446
330
A
100
AcDbEntity
  8
06
100
AcDbLine
 10
228.0404217926185
 20
315.1379613356766
 30
0.0
 11
228.0404217926185
 21
312.6379613356766
 31
0.0
  0
LINE
  5
447
330
A
100
AcDbEntity
  8
06
100
AcDbLine
 10
228.0404217926185
 20
312.6379613356766
 30
0.0
 11
202.0404217926186
 21
312.6379613356766
 31
0.0
  0
LINE
  5
448
330
A
100
AcDbEntity
  8
06
100
AcDbLine
 10
202.0404217926186
 20
312.6379613356766
 30
0.0
 11
202.0404217926186
 21
315.1379613356766
 31
0.0
  0
LINE
  5
449
330
A
100
AcDbEntity
  8
06
100
AcDbLine
 10
202.0404217926186
 20
314.6379613356766
 30
0.0
 11
197.0404217926185
 21
314.6379613356766
 31
0.0
  0
LINE
  5
44A
330
A
100
AcDbEntity
  8
06
100
AcDbLine
 10
196.9522583022643
 20
315.1379613356766
 30
0.0
 11
194.0404217926186
 21
314.078139519116
 31
0.0
  0
LINE
  5
44B
330
A
100
AcDbEntity
  8
06
100
AcDbLine
 10
197.0404217926185
 20
314.6379613356766
 30
0.0
 11
194.2114318642818
 21
313.6082932087229
 31
0.0
  0
LINE
  5
44C
330
A
100
AcDbEntity
  8
06
100
AcDbLine
 10
194.0404217926186
 20
314.078139519116
 30
0.0
 11
194.2114318642818
 21
313.6082932087229
 31
0.0
  0
LINE
  5
44D
330
A
100
AcDbEntity
  8
06
100
AcDbLine
 10
215.5404217926185
 20
315.1379613356766
 30
0.0
 11
215.0404217926184
 21
314.6379613356766
 31
0.0
  0
LINE
  5
44E
330
A
100
AcDbEntity
  8
06
100
AcDbLine
 10
215.0404217926184
 20
314.6379613356766
 30
0.0
 11
214.5404217926184
 21
315.1379613356766
 31
0.0
  0
LINE
  5
44F
330
A
100
AcDbEntity
  8
06
100
AcDbLine
 10
228.040421792619
 20
111.9758026902798
 30
0.0
 11
228.0404217926192
 21
109.9758026902796
 31
0.0
1001
ACAD
1000
ASC_BOUNDS
1002
{
1070
    19
1005
880
1002
}
  0
LINE
  5
450
330
A
100
AcDbEntity
  8
06
100
AcDbLine
 10
202.040421792619
 20
109.9758026902796
 30
0.0
 11
202.040421792619
 21
111.9758026902798
 31
0.0
1001
ACAD
1000
ASC_BOUNDS
1002
{
1070
    19
1005
880
1002
}
  0
LINE
  5
451
330
A
100
AcDbEntity
  8
06
100
AcDbLine
 10
228.0404217926192
 20
109.9758026902796
 30
0.0
 11
227.290421792619
 21
109.9758026902796
 31
0.0
1001
ACAD
1000
ASC_BOUNDS
1002
{
1070
    19
1005
880
1002
}
  0
LINE
  5
452
330
A
100
AcDbEntity
  8
06
100
AcDbLine
 10
225.7904217926192
 20
109.9758026902796
 30
0.0
 11
204.2904217926191
 21
109.9758026902796
 31
0.0
1001
ACAD
1000
ASC_BOUNDS
1002
{
1070
    19
1005
880
1005
880
1002
}
  0
LINE
  5
453
330
A
100
AcDbEntity
  8
06
100
AcDbLine
 10
202.7904217926191
 20
109.9758026902796
 30
0.0
 11
202.040421792619
 21
109.9758026902796
 31
0.0
1001
ACAD
1000
ASC_BOUNDS
1002
{
1070
    19
1005
880
1002
}
  0
LINE
  5
454
330
A
100
AcDbEntity
  8
06
100
AcDbLine
 10
228.0404217926192
 20
111.9758026902798
 30
0.0
 11
226.240421792619
 21
111.9758026902798
 31
0.0
1001
ACAD
1000
ASC_BOUNDS
1002
{
1070
    19
1005
880
1002
}
  0
LINE
  5
455
330
A
100
AcDbEntity
  8
06
100
AcDbLine
 10
225.5404217926193
 20
111.9758026902798
 30
0.0
 11
204.540421792619
 21
111.9758026902798
 31
0.0
1001
ACAD
1000
ASC_BOUNDS
1002
{
1070
    19
1005
880
1005
880
1002
}
  0
LINE
  5
456
330
A
100
AcDbEntity
  8
06
100
AcDbLine
 10
203.840421792619
 20
111.9758026902798
 30
0.0
 11
202.040421792619
 21
111.9758026902798
 31
0.0
1001
ACAD
1000
ASC_BOUNDS
1002
{
1070
    19
1005
880
1002
}
  0
LINE
  5
457
330
A
100
AcDbEntity
  8
06
100
AcDbLine
 10
227.040421792619
 20
116.9758026902797
 30
0.0
 11
226.240421792619
 21
116.9758026902797
 31
0.0
1001
ACAD
1000
ASC_BOUNDS
1002
{
1070
    19
1005
880
1002
}
  0
LINE
  5
458
330
A
100
AcDbEntity
  8
06
100
AcDbLine
 10
203.840421792619
 20
116.9758026902797
 30
0.0
 11
203.0404217926191
 21
116.9758026902797
 31
0.0
1001
ACAD
1000
ASC_BOUNDS
1002
{
1070
    19
1005
880
1002
}
  0
LINE
  5
459
330
A
100
AcDbEntity
  8
06
100
AcDbLine
 10
225.540421792619
 20
118.9758026902797
 30
0.0
 11
225.5404217926193
 21
111.9758026902798
 31
0.0
1001
ACAD
1000
ASC_BOUNDS
1002
{
1070
    19
1005
880
1002
}
  0
LINE
  5
45A
330
A
100
AcDbEntity
  8
06
100
AcDbLine
 10
204.540421792619
 20
118.9758026902797
 30
0.0
 11
204.540421792619
 21
111.9758026902798
 31
0.0
1001
ACAD
1000
ASC_BOUNDS
1002
{
1070
    19
1005
880
1002
}
  0
LINE
  5
45B
330
A
100
AcDbEntity
  8
06
100
AcDbLine
 10
226.240421792619
 20
116.9758026902797
 30
0.0
 11
226.240421792619
 21
111.9758026902798
 31
0.0
1001
ACAD
1000
ASC_BOUNDS
1002
{
1070
    19
1005
880
1002
}
  0
LINE
  5
45C
330
A
100
AcDbEntity
  8
06
100
AcDbLine
 10
203.840421792619
 20
116.9758026902797
 30
0.0
 11
203.840421792619
 21
111.9758026902798
 31
0.0
1001
ACAD
1000
ASC_BOUNDS
1002
{
1070
    19
1005
880
1002
}
  0
LINE
  5
45D
330
A
100
AcDbEntity
  8
06
100
AcDbLine
 10
227.290421792619
 20
109.9758026902796
 30
0.0
 11
226.9779217926184
 21
104.9758026902799
 31
0.0
1001
ACAD
1000
ASC_BOUNDS
1002
{
1070
    19
1005
880
1002
}
  0
LINE
  5
45E
330
A
100
AcDbEntity
  8
06
100
AcDbLine
 10
226.1029217926189
 20
104.9758026902799
 30
0.0
 11
225.7904217926192
 21
109.9758026902796
 31
0.0
1001
ACAD
1000
ASC_BOUNDS
1002
{
1070
    19
1005
880
1002
}
  0
LINE
  5
45F
330
A
100
AcDbEntity
  8
06
100
AcDbLine
 10
203.9779217926195
 20
104.9758026902797
 30
0.0
 11
204.2904217926191
 21
109.9758026902796
 31
0.0
1001
ACAD
1000
ASC_BOUNDS
1002
{
1070
    19
1005
880
1002
}
  0
LINE
  5
460
330
A
100
AcDbEntity
  8
06
100
AcDbLine
 10
203.1029217926191
 20
104.9758026902795
 30
0.0
 11
202.7904217926191
 21
109.9758026902796
 31
0.0
1001
ACAD
1000
ASC_BOUNDS
1002
{
1070
    19
1005
880
1002
}
  0
LINE
  5
461
330
A
100
AcDbEntity
  8
06
100
AcDbLine
 10
227.040421792619
 20
116.9758026902797
 30
0.0
 11
225.540421792619
 21
118.9758026902797
 31
0.0
1001
ACAD
1000
ASC_BOUNDS
1002
{
1070
    19
1005
880
1002
}
  0
LINE
  5
462
330
A
100
AcDbEntity
  8
06
100
AcDbLine
 10
203.0404217926191
 20
116.9758026902797
 30
0.0
 11
204.540421792619
 21
118.9758026902797
 31
0.0
1001
ACAD
1000
ASC_BOUNDS
1002
{
1070
    19
1005
880
1002
}
  0
LINE
  5
470
330
A
100
AcDbEntity
  8
06
100
AcDbLine
 10
204.2357161914249
 20
118.5695285553532
 30
0.0
 11
204.540421792619
 21
118.8742341565472
 31
0.0
1001
ACAD
1000
ASC_BOUNDS
1002
{
1070
    19
1005
880
1002
}
  0
LINE
  5
48D
330
A
100
AcDbEntity
  8
SAISEN
100
AcDbLine
 10
79.04042179261856
 20
227.1693794781665
 30
0.0
 11
195.9679059078004
 21
227.1693794781667
 31
0.0
  0
LINE
  5
48E
330
A
100
AcDbEntity
  8
SAISEN
100
AcDbLine
 10
195.9679059078004
 20
222.1693794781668
 30
0.0
 11
79.04042179261856
 21
222.1693794781665
 31
0.0
  0
LINE
  5
48F
330
A
100
AcDbEntity
  8
SAISEN
100
AcDbLine
 10
79.04042179261856
 20
160.5448019467348
 30
0.0
 11
195.9679059078004
 21
160.5448019467351
 31
0.0
  0
LINE
  5
490
330
A
100
AcDbEntity
  8
SAISEN
100
AcDbLine
 10
195.9679059078005
 20
155.5448019467351
 30
0.0
 11
79.04042179261856
 21
155.5448019467348
 31
0.0
  0
LINE
  5
491
330
A
100
AcDbEntity
  8
SAISEN
100
AcDbLine
 10
82.27873462214414
 20
527.2560632688928
 30
0.0
 11
202.9042855211571
 21
527.2560632688929
 31
0.0
  0
LINE
  5
492
330
A
100
AcDbEntity
  8
SAISEN
100
AcDbLine
 10
202.9042855211571
 20
522.2560632688932
 30
0.0
 11
82.27873462214416
 21
522.2560632688927
 31
0.0
  0
LINE
  5
493
330
A
100
AcDbEntity
  8
03
100
AcDbLine
 10
141.0404217926185
 20
555.1379613356766
 30
0.0
 11
147.0404217926185
 21
555.1379613356766
 31
0.0
  0
LINE
  5
494
330
A
100
AcDbEntity
  8
03
100
AcDbLine
 10
147.0404217926185
 20
497.1379613356766
 30
0.0
 11
141.0404217926185
 21
497.1379613356766
 31
0.0
  0
LINE
  5
495
330
A
100
AcDbEntity
  8
03
100
AcDbLine
 10
147.0404217926185
 20
555.1379613356766
 30
0.0
 11
147.0404217926185
 21
527.2560632688928
 31
0.0
  0
LINE
  5
496
330
A
100
AcDbEntity
  8
03
100
AcDbLine
 10
147.0404217926185
 20
522.2560632688928
 30
0.0
 11
147.0404217926185
 21
497.1379613356766
 31
0.0
  0
LINE
  5
497
330
A
100
AcDbEntity
  8
03
100
AcDbLine
 10
141.0404217926185
 20
497.1379613356766
 30
0.0
 11
141.0404217926185
 21
522.2560632688928
 31
0.0
  0
LINE
  5
498
330
A
100
AcDbEntity
  8
03
100
AcDbLine
 10
141.0404217926185
 20
527.2560632688928
 30
0.0
 11
141.0404217926185
 21
555.1379613356766
 31
0.0
  0
LINE
  5
499
330
A
100
AcDbEntity
  8
06
100
AcDbLine
 10
141.0404217926185
 20
455.5379613356766
 30
0.0
 11
135.0404217926185
 21
455.5379613356766
 31
0.0
  0
LINE
  5
49A
330
A
100
AcDbEntity
  8
06
100
AcDbLine
 10
141.0404217926185
 20
459.7379613356765
 30
0.0
 11
135.0404217926185
 21
459.7379613356765
 31
0.0
  0
LINE
  5
49B
330
A
100
AcDbEntity
  8
06
100
AcDbLine
 10
141.0404217926185
 20
428.0379613356766
 30
0.0
 11
135.0404217926185
 21
428.0379613356766
 31
0.0
  0
LINE
  5
49C
330
A
100
AcDbEntity
  8
06
100
AcDbLine
 10
141.0404217926185
 20
432.2379613356766
 30
0.0
 11
135.0404217926185
 21
432.2379613356766
 31
0.0
  0
LINE
  5
49D
330
A
100
AcDbEntity
  8
06
100
AcDbLine
 10
141.0404217926185
 20
378.0379613356766
 30
0.0
 11
135.0404217926185
 21
378.0379613356766
 31
0.0
  0
LINE
  5
49E
330
A
100
AcDbEntity
  8
06
100
AcDbLine
 10
141.0404217926185
 20
382.2379613356766
 30
0.0
 11
135.0404217926185
 21
382.2379613356766
 31
0.0
  0
LINE
  5
49F
330
A
100
AcDbEntity
  8
06
100
AcDbLine
 10
141.0404217926185
 20
350.5379613356764
 30
0.0
 11
135.0404217926185
 21
350.5379613356766
 31
0.0
  0
LINE
  5
4A0
330
A
100
AcDbEntity
  8
06
100
AcDbLine
 10
141.0404217926185
 20
354.7379613356766
 30
0.0
 11
135.0404217926185
 21
354.7379613356766
 31
0.0
  0
LINE
  5
4A1
330
A
100
AcDbEntity
  8
06
100
AcDbLine
 10
203.1029217926191
 20
104.9758026902795
 30
0.0
 11
203.9779217926195
 21
104.9758026902797
 31
0.0
1001
ACAD
1000
ASC_BOUNDS
1002
{
1070
    19
1005
880
1002
}
  0
LINE
  5
4A2
330
A
100
AcDbEntity
  8
06
100
AcDbLine
 10
226.1029217926189
 20
104.9758026902799
 30
0.0
 11
226.9779217926184
 21
104.9758026902799
 31
0.0
1001
ACAD
1000
ASC_BOUNDS
1002
{
1070
    19
1005
880
1002
}
  0
LINE
  5
4A3
330
A
100
AcDbEntity
  8
CHUSIN
100
AcDbLine
 10
106.0404217926184
 20
405.1379613356766
 30
0.0
 11
286.0404217926184
 21
405.1379613356766
 31
0.0
  0
LINE
  5
4A4
330
A
100
AcDbEntity
  8
CHUSIN
100
AcDbLine
 10
151.0404217926184
 20
430.1379613356766
 30
0.0
 11
126.0404217926184
 21
430.1379613356766
 31
0.0
  0
LINE
  5
4A5
330
A
100
AcDbEntity
  8
CHUSIN
100
AcDbLine
 10
151.0404217926184
 20
380.1379613356766
 30
0.0
 11
126.0404217926184
 21
380.1379613356766
 31
0.0
  0
LINE
  5
4A6
330
A
100
AcDbEntity
  8
CHUSIN
100
AcDbLine
 10
151.0404217926184
 20
457.6379613356766
 30
0.0
 11
126.0404217926184
 21
457.6379613356766
 31
0.0
  0
LINE
  5
4A7
330
A
100
AcDbEntity
  8
CHUSIN
100
AcDbLine
 10
151.0404217926184
 20
352.6379613356766
 30
0.0
 11
126.0404217926184
 21
352.6379613356766
 31
0.0
  0
LINE
  5
4A8
330
A
100
AcDbEntity
  8
CHUSIN
100
AcDbLine
 10
253.0404217926184
 20
349.1379613356766
 30
0.0
 11
253.0404217926184
 21
469.1379613356766
 31
0.0
  0
LINE
  5
4A9
330
A
100
AcDbEntity
  8
KAKURE
100
AcDbLine
 10
205.0404217926184
 20
308.6379613356766
 30
0.0
 11
225.0404217926186
 21
308.6379613356766
 31
0.0
  0
LINE
  5
4AA
330
A
100
AcDbEntity
  8
KAKURE
100
AcDbLine
 10
225.0404217926186
 20
308.6379613356766
 30
0.0
 11
225.0404217926186
 21
299.6379613356765
 31
0.0
  0
LINE
  5
4AB
330
A
100
AcDbEntity
  8
KAKURE
100
AcDbLine
 10
225.0404217926186
 20
299.6379613356765
 30
0.0
 11
205.0404217926184
 21
299.6379613356765
 31
0.0
  0
LINE
  5
4AC
330
A
100
AcDbEntity
  8
KAKURE
100
AcDbLine
 10
205.0404217926184
 20
299.6379613356765
 30
0.0
 11
205.0404217926184
 21
308.6379613356766
 31
0.0
  0
LINE
  5
4AD
330
A
100
AcDbEntity
  8
KAKURE
100
AcDbLine
 10
225.0404217926186
 20
299.6379613356765
 30
0.0
 11
205.2904217926184
 21
308.6379613356766
 31
0.0
  0
LINE
  5
4AE
330
A
100
AcDbEntity
  8
KAKURE
100
AcDbLine
 10
224.9623407173708
 20
308.6379613356766
 30
0.0
 11
205.0404217926184
 21
299.6379613356765
 31
0.0
  0
LINE
  5
4B3
330
A
100
AcDbEntity
  8
KAKURE
100
AcDbLine
 10
196.0404217926186
 20
362.1379613356765
 30
0.0
 11
190.0404217926184
 21
362.1379613356765
 31
0.0
  0
LINE
  5
4B4
330
A
100
AcDbEntity
  8
KAKURE
100
AcDbLine
 10
196.0404217926186
 20
368.1379613356766
 30
0.0
 11
190.0404217926184
 21
368.1379613356766
 31
0.0
  0
LINE
  5
4B5
330
A
100
AcDbEntity
  8
KAKURE
100
AcDbLine
 10
141.0404217926185
 20
455.1379613356766
 30
0.0
 11
135.0404217926185
 21
455.1379613356766
 31
0.0
  0
LINE
  5
4B6
330
A
100
AcDbEntity
  8
KAKURE
100
AcDbLine
 10
141.0404217926185
 20
460.1379613356765
 30
0.0
 11
135.0404217926185
 21
460.1379613356765
 31
0.0
  0
LINE
  5
4B7
330
A
100
AcDbEntity
  8
KAKURE
100
AcDbLine
 10
141.0404217926185
 20
427.6379613356764
 30
0.0
 11
135.0404217926185
 21
427.6379613356764
 31
0.0
  0
LINE
  5
4B8
330
A
100
AcDbEntity
  8
KAKURE
100
AcDbLine
 10
141.0404217926185
 20
432.6379613356766
 30
0.0
 11
135.0404217926185
 21
432.6379613356766
 31
0.0
  0
LINE
  5
4B9
330
A
100
AcDbEntity
  8
KAKURE
100
AcDbLine
 10
141.0404217926185
 20
377.6379613356766
 30
0.0
 11
135.0404217926185
 21
377.6379613356766
 31
0.0
  0
LINE
  5
4BA
330
A
100
AcDbEntity
  8
KAKURE
100
AcDbLine
 10
141.0404217926185
 20
382.6379613356765
 30
0.0
 11
135.0404217926185
 21
382.6379613356765
 31
0.0
  0
LINE
  5
4BB
330
A
100
AcDbEntity
  8
KAKURE
100
AcDbLine
 10
141.0404217926185
 20
350.1379613356766
 30
0.0
 11
135.0404217926185
 21
350.1379613356766
 31
0.0
  0
LINE
  5
4BC
330
A
100
AcDbEntity
  8
KAKURE
100
AcDbLine
 10
141.0404217926185
 20
355.1379613356766
 30
0.0
 11
135.0404217926185
 21
355.1379613356766
 31
0.0
  0
LINE
  5
4BD
330
A
100
AcDbEntity
  8
CHUSIN
100
AcDbLine
 10
185.4790439738113
 20
191.9758026902705
 30
0.0
 11
162.6017996114256
 21
191.9758026902705
 31
0.0
  0
LINE
  5
4BE
330
A
100
AcDbEntity
  8
CHUSIN
100
AcDbLine
 10
174.0404217926184
 20
203.4144248714633
 30
0.0
 11
174.0404217926184
 21
180.5371805090776
 31
0.0
  0
TEXT
  5
4C0
330
A
100
AcDbEntity
  8
SUNPOU
100
AcDbText
 10
166.207381261757
 20
414.1141141416212
 30
0.0
 40
3.0
  1
（両端及び方立部）
 50
44.83352120439799
 41
0.7
  7
SUNPOU
 72
     1
 11
174.0506727795523
 21
421.9119585980643
 31
0.0
100
AcDbText
 73
     1
  0
TEXT
  5
4C9
330
A
100
AcDbEntity
  8
MOJI
100
AcDbText
 10
301.9544563120978
 20
64.78532818928499
 30
0.0
 40
6.0
  1
100kg×1
 41
0.8
 11
301.9544563120978
 21
70.785328189285
 31
0.0
100
AcDbText
 73
     3
  0
TEXT
  5
4CA
330
A
100
AcDbEntity
  8
MOJI
100
AcDbText
 10
263.4891071333433
 20
64.78532818928499
 30
0.0
 40
6.0
  1
片引き扉重量
 41
0.8
 11
263.4891071333433
 21
70.785328189285
 31
0.0
100
AcDbText
 73
     3
  0
TEXT
  5
4CF
330
A
100
AcDbEntity
  8
MOJI
100
AcDbText
 10
263.4891071333433
 20
54.65730539508606
 30
0.0
 40
6.0
  1
両引き扉重量
 41
0.8
 11
263.4891071333433
 21
60.65730539508606
 31
0.0
100
AcDbText
 73
     3
  0
LINE
  5
57A
330
A
100
AcDbEntity
  8
CHUSIN
100
AcDbLine
 10
226.4827334512883
 20
402.1379613356766
 30
0.0
 11
246.6404217926186
 21
402.1379613356766
 31
0.0
  0
LINE
  5
57B
330
A
100
AcDbEntity
  8
CHUSIN
100
AcDbLine
 10
202.5404217926184
 20
331.6379613356766
 30
0.0
 11
236.0404217926185
 21
331.6379613356766
 31
0.0
  0
LINE
  5
57C
330
A
100
AcDbEntity
  8
CHUSIN
100
AcDbLine
 10
215.5404217926184
 20
411.0147975238295
 30
0.0
 11
215.5404217926184
 21
338.0005272407732
 31
0.0
  0
LINE
  5
57D
330
A
100
AcDbEntity
  8
CHUSIN
100
AcDbLine
 10
196.4871569555224
 20
380.1379613356766
 30
0.0
 11
241.5404217926186
 21
380.1379613356766
 31
0.0
  0
LINE
  5
57E
330
A
100
AcDbEntity
  8
CHUSIN
100
AcDbLine
 10
226.2645571804993
 20
359.6379613356766
 30
0.0
 11
246.6404217926186
 21
359.6379613356766
 31
0.0
  0
LINE
  5
57F
330
A
100
AcDbEntity
  8
CHUSIN
100
AcDbLine
 10
226.2645571804993
 20
349.6379613356765
 30
0.0
 11
246.6404217926186
 21
349.6379613356765
 31
0.0
  0
LINE
  5
5C8
330
A
100
AcDbEntity
  8
SOUZOU
 48
0.07
100
AcDbLine
 10
141.0404217926185
 20
463.6379613356766
 30
0.0
 11
181.0404217926184
 21
463.6379613356766
 31
0.0
  0
LINE
  5
5C9
330
A
100
AcDbEntity
  8
SOUZOU
 48
0.07
100
AcDbLine
 10
181.0404217926184
 20
463.6379613356766
 30
0.0
 11
181.0404217926184
 21
347.1379613356766
 31
0.0
  0
LINE
  5
5CA
330
A
100
AcDbEntity
  8
SOUZOU
 48
0.07
100
AcDbLine
 10
181.0404217926184
 20
347.1379613356766
 30
0.0
 11
141.0404217926185
 21
347.1379613356766
 31
0.0
  0
LINE
  5
5CB
330
A
100
AcDbEntity
  8
SOUZOU
 48
0.07
100
AcDbLine
 10
181.0404217926184
 20
455.1379613356766
 30
0.0
 11
275.0404217926186
 21
455.1379613356765
 31
0.0
  0
LINE
  5
5CC
330
A
100
AcDbEntity
  8
SOUZOU
 48
0.07
100
AcDbLine
 10
275.0404217926186
 20
455.1379613356765
 30
0.0
 11
275.0404217926186
 21
355.6379613356766
 31
0.0
  0
LINE
  5
5CD
330
A
100
AcDbEntity
  8
SOUZOU
 48
0.07
100
AcDbLine
 10
275.0404217926186
 20
355.6379613356766
 30
0.0
 11
181.0404217926184
 21
355.6379613356766
 31
0.0
  0
POLYLINE
  5
764
330
A
100
AcDbEntity
  8
DEFPOINTS
100
AcDb2dPolyline
 66
     1
 10
0.0
 20
0.0
 30
0.0
 70
     1
  0
VERTEX
  5
1304
330
764
100
AcDbEntity
  8
DEFPOINTS
100
AcDbVertex
100
AcDb2dVertex
 10
420.0
 20
0.0
 30
0.0
  0
VERTEX
  5
1305
330
764
100
AcDbEntity
  8
DEFPOINTS
100
AcDbVertex
100
AcDb2dVertex
 10
420.0000000000001
 20
594.0
 30
0.0
  0
VERTEX
  5
1306
330
764
100
AcDbEntity
  8
DEFPOINTS
100
AcDbVertex
100
AcDb2dVertex
 10
0.0000000000000568
 20
594.0
 30
0.0
  0
VERTEX
  5
1307
330
764
100
AcDbEntity
  8
DEFPOINTS
100
AcDbVertex
100
AcDb2dVertex
 10
0.0
 20
0.0
 30
0.0
  0
SEQEND
  5
1308
330
764
100
AcDbEntity
  8
DEFPOINTS
  0
MTEXT
  5
783
330
A
100
AcDbEntity
  8
MOJI
100
AcDbMText
 10
50.12529405105168
 20
271.5203117670681
 30
0.0
 40
6.0
 41
10.0
 71
     5
 72
     1
  1
外\P\P部
  7
0_8
1001
ACAD
1000
MTEXTBEGIN
1070
    73
1070
     1
1070
    44
1040
1.0
1070
    74
1070
     0
1000
MTEXTEND
1000
MTEXTBEGIN
1070
    73
1070
     1
1070
    44
1040
1.0
1070
    74
1070
     0
1000
MTEXTEND
  0
POLYLINE
  5
784
330
A
100
AcDbEntity
  8
SAISEN
100
AcDb2dPolyline
 66
     1
 10
0.0
 20
0.0
 30
0.0
 70
     1
  0
VERTEX
  5
1309
330
784
100
AcDbEntity
  8
SAISEN
100
AcDbVertex
100
AcDb2dVertex
 10
45.12529405105168
 20
256.5203117670681
 30
0.0
  0
VERTEX
  5
130A
330
784
100
AcDbEntity
  8
SAISEN
100
AcDbVertex
100
AcDb2dVertex
 10
55.12529405105168
 20
256.5203117670681
 30
0.0
  0
VERTEX
  5
130B
330
784
100
AcDbEntity
  8
SAISEN
100
AcDbVertex
100
AcDb2dVertex
 10
55.12529405105168
 20
286.5203117670681
 30
0.0
  0
VERTEX
  5
130C
330
784
100
AcDbEntity
  8
SAISEN
100
AcDbVertex
100
AcDb2dVertex
 10
45.12529405105168
 20
286.5203117670681
 30
0.0
  0
SEQEND
  5
130D
330
784
100
AcDbEntity
  8
SAISEN
  0
POLYLINE
  5
785
330
A
100
AcDbEntity
  8
SAISEN
100
AcDb2dPolyline
 66
     1
 10
0.0
 20
0.0
 30
0.0
 70
     1
  0
VERTEX
  5
130E
330
785
100
AcDbEntity
  8
SAISEN
100
AcDbVertex
100
AcDb2dVertex
 10
353.0643253217141
 20
256.5203117670681
 30
0.0
  0
VERTEX
  5
130F
330
785
100
AcDbEntity
  8
SAISEN
100
AcDbVertex
100
AcDb2dVertex
 10
363.064325321714
 20
256.5203117670681
 30
0.0
  0
VERTEX
  5
1310
330
785
100
AcDbEntity
  8
SAISEN
100
AcDbVertex
100
AcDb2dVertex
 10
363.064325321714
 20
286.5203117670681
 30
0.0
  0
VERTEX
  5
1311
330
785
100
AcDbEntity
  8
SAISEN
100
AcDbVertex
100
AcDb2dVertex
 10
353.0643253217141
 20
286.5203117670681
 30
0.0
  0
SEQEND
  5
1312
330
785
100
AcDbEntity
  8
SAISEN
  0
MTEXT
  5
786
330
A
100
AcDbEntity
  8
MOJI
100
AcDbMText
 10
358.064325321714
 20
271.5203117670681
 30
0.0
 40
6.0
 41
10.0
 71
     5
 72
     1
  1
内\P\P部
  7
0_8
1001
ACAD
1000
MTEXTBEGIN
1070
    73
1070
     1
1070
    44
1040
1.0
1070
    74
1070
     0
1000
MTEXTEND
1000
MTEXTBEGIN
1070
    73
1070
     1
1070
    44
1040
1.0
1070
    74
1070
     0
1000
MTEXTEND
  0
TEXT
  5
7B2
330
A
100
AcDbEntity
  8
MOJI
100
AcDbText
 10
337.7534648569217
 20
105.0758026902969
 30
0.0
 40
5.0
  1
Ｆ.Ｌ
 41
0.8
  7
0_8
 11
337.7534648569217
 21
107.5758026902968
 31
0.0
100
AcDbText
 73
     2
  0
TEXT
  5
7B5
330
A
100
AcDbEntity
  8
MOJI
100
AcDbText
 10
301.9544563120978
 20
54.15730539901481
 30
0.0
 40
6.0
  1
100Kg×2
 41
0.8
 11
301.9544563120978
 21
60.15730539901482
 31
0.0
100
AcDbText
 73
     3
  0
MTEXT
  5
7CD
102
{ACAD_REACTORS
330
7CE
102
}
330
A
100
AcDbEntity
  8
HIKIDASI
100
AcDbMText
 10
69.9973654118285
 20
455.4017123980678
 30
0.0
 40
5.0
 41
0.0
 71
     9
 72
     1
  1
Ｅ FB-50×6
  7
SUNPOU
1001
ACAD
1000
MTEXTBEGIN
1070
    73
1070
     1
1070
    44
1040
1.0
1070
    74
1070
     0
1000
MTEXTEND
1000
MTEXTBEGIN
1070
    73
1070
     1
1070
    44
1040
1.0
1070
    74
1070
     0
1000
MTEXTEND
  0
LEADER
  5
7CE
330
A
100
AcDbEntity
  8
HIKIDASI
100
AcDbLeader
  3
SUNPOU_2
 73
     0
 75
     1
 40
13.33333333333333
 41
34.0
 76
     3
 10
137.7870190845155
 20
416.5429422108248
 30
0.0
 10
73.35470756954356
 20
453.7764712379231
 30
0.0
 10
68.35470756954356
 20
453.7764712379231
 30
0.0
1001
ACAD
1000
DSTYLE
1002
{
1070
     5
1000
OPEN30
1070
    77
1070
     1
1070
   147
1040
1.0
1070
   342
1005
742
1002
}
1000
LEANOF
1010
0.0
1020
0.0
1030
0.0
1000
LEANOF
1010
0.0
1020
0.0
1030
0.0
  0
CIRCLE
  5
7CF
330
A
100
AcDbEntity
  8
HIKIDASI
100
AcDbCircle
 10
37.81312507220173
 20
458.0516078222685
 30
0.0
 40
3.0
  0
MTEXT
  5
7D8
102
{ACAD_REACTORS
330
7D9
102
}
330
A
100
AcDbEntity
  8
HIKIDASI
100
AcDbMText
 10
69.79612125464109
 20
498.2125888562799
 30
0.0
 40
5.0
 41
0.0
 71
     9
 72
     1
  1
M5タップ
  7
SUNPOU
1001
ACAD
1000
MTEXTBEGIN
1070
    73
1070
     1
1070
    44
1040
1.0
1070
    74
1070
     0
1000
MTEXTEND
1000
MTEXTBEGIN
1070
    73
1070
     1
1070
    44
1040
1.0
1070
    74
1070
     0
1000
MTEXTEND
  0
LEADER
  5
7D9
330
A
100
AcDbEntity
  8
HIKIDASI
100
AcDbLeader
  3
SUNPOU_2
 73
     0
 75
     1
 40
5.0
 41
21.06666666666666
 76
     3
 10
138.5404217926184
 20
457.6379613356766
 30
0.0
 10
73.32756052841665
 20
495.0846666127262
 30
0.0
 10
68.32756052841665
 20
495.0846666127262
 30
0.0
1001
ACAD
1000
DSTYLE
1002
{
1070
     5
1000
OPEN30
1070
    77
1070
     1
1070
   147
1040
1.0
1070
   342
1005
742
1002
}
1000
LEANOF
1010
0.0
1020
0.0
1030
0.0
1000
LEANOF
1010
0.0
1020
0.0
1030
0.0
  0
LEADER
  5
7EA
330
A
100
AcDbEntity
  8
HIKIDASI
100
AcDbLeader
  3
SUNPOU_2
 73
     0
 75
     1
 40
13.33333333333333
 41
34.0
 76
     3
 10
191.9588833854838
 20
347.8711406215638
 30
0.0
 10
82.76791914526802
 20
410.9125732187273
 30
0.0
 10
77.76791914526802
 20
410.9125732187273
 30
0.0
1001
ACAD
1000
DSTYLE
1002
{
1070
     5
1000
OPEN30
1070
    77
1070
     1
1070
   147
1040
1.0
1070
   342
1005
742
1002
}
1000
LEANOF
1010
0.0
1020
0.0
1030
0.0
1000
LEANOF
1010
0.0
1020
0.0
1030
0.0
  0
CIRCLE
  5
7EB
330
A
100
AcDbEntity
  8
HIKIDASI
100
AcDbCircle
 10
43.87226139883589
 20
415.3600716345678
 30
0.0
 40
3.0
  0
MTEXT
  5
7EC
102
{ACAD_REACTORS
330
7EA
102
}
330
A
100
AcDbEntity
  8
HIKIDASI
100
AcDbMText
 10
75.76791914526801
 20
412.7159789726386
 30
0.0
 40
5.0
 41
0.0
 71
     9
 72
     1
  1
Ｒ FB-50×6
  7
SUNPOU
1001
ACAD
1000
MTEXTBEGIN
1070
    73
1070
     1
1070
    44
1040
1.0
1070
    74
1070
     0
1000
MTEXTEND
1000
MTEXTBEGIN
1070
    73
1070
     1
1070
    44
1040
1.0
1070
    74
1070
     0
1000
MTEXTEND
  0
LEADER
  5
7ED
330
A
100
AcDbEntity
  8
HIKIDASI
100
AcDbLeader
  3
SUNPOU_2
 73
     0
 75
     1
 40
5.0
 41
21.06666666666666
 76
     3
 10
190.9208737072589
 20
365.1379613356766
 30
0.0
 10
78.32756052841665
 20
430.3309134875362
 30
0.0
 10
73.32756052841665
 20
430.3309134875362
 30
0.0
1001
ACAD
1000
DSTYLE
1002
{
1070
     5
1000
OPEN30
1070
    77
1070
     1
1070
   147
1040
1.0
1070
   342
1005
742
1002
}
1000
LEANOF
1010
0.0
1020
0.0
1030
0.0
1000
LEANOF
1010
0.0
1020
0.0
1030
0.0
  0
MTEXT
  5
7EE
102
{ACAD_REACTORS
330
7ED
102
}
330
A
100
AcDbEntity
  8
HIKIDASI
100
AcDbMText
 10
74.79612125464109
 20
433.4588357310898
 30
0.0
 40
5.0
 41
0.0
 71
     9
 72
     1
  1
M6タップ
  7
SUNPOU
1001
ACAD
1000
MTEXTBEGIN
1070
    73
1070
     1
1070
    44
1040
1.0
1070
    74
1070
     0
1000
MTEXTEND
1000
MTEXTBEGIN
1070
    73
1070
     1
1070
    44
1040
1.0
1070
    74
1070
     0
1000
MTEXTEND
  0
LEADER
  5
7F5
330
A
100
AcDbEntity
  8
HIKIDASI
100
AcDbLeader
  3
SUNPOU_2
 73
     0
 40
21.66666666666666
 41
37.06666666666665
 76
     2
 10
169.7977811054991
 20
196.2184433773898
 30
0.0
 10
78.35470756954356
 20
212.3423244406871
 30
0.0
1001
ACAD
1000
DSTYLE
1002
{
1070
     5
1000
OPEN30
1070
    77
1070
     1
1070
   147
1040
1.0
1070
   342
1005
742
1002
}
1000
LEANOF
1010
0.0
1020
0.0
1030
0.0
1000
LEANOF
1010
0.0
1020
0.0
1030
0.0
  0
MTEXT
  5
7F6
102
{ACAD_REACTORS
330
7F5
102
}
330
A
100
AcDbEntity
  8
HIKIDASI
100
AcDbMText
 10
74.06067713755911
 20
197.5813064240306
 30
0.0
 40
5.0
 41
0.0
 71
     9
 72
     1
  1
補助光電スイッチ\P取付穴φ12\P（サッシ工事）
  7
SUNPOU
1001
ACAD
1000
MTEXTBEGIN
1070
    73
1070
     1
1070
    44
1040
1.0
1070
    74
1070
     0
1000
MTEXTEND
1000
MTEXTBEGIN
1070
    73
1070
     1
1070
    44
1040
1.0
1070
    74
1070
     0
1000
MTEXTEND
  0
INSERT
  5
880
330
A
100
AcDbEntity
  8
06
  6
CONTINUOUS
100
AcDbBlockReference
  2
*X35
 10
0.0
 20
0.0
 30
0.0
1001
ACAD
1000
HATCH
1002
{
1070
    19
1000
ANSI31
1040
15.0
1040
0.0
1000
ASC_BOUNDS
1070
     2
1070
     1
1070
    15
1005
3E6
1005
452
1005
45F
1005
4A1
1005
460
1005
453
1005
450
1005
456
1005
45C
1005
458
1005
344
1005
462
1005
470
1005
45A
1005
455
1070
     1
1070
    14
1005
44F
1005
451
1005
45D
1005
4A2
1005
45E
1005
452
1005
3E6
1005
455
1005
459
1005
461
1005
343
1005
457
1005
45B
1005
454
1000
ASC_SEEDPOINT
1011
226.4876437630261
1021
111.3531476554292
1031
0.0
1000
R14_HATCH_DATA
1000
880
1011
1.0
1021
0.0
1031
0.0
1011
0.0
1021
1.0
1031
0.0
1011
0.0
1021
0.0
1031
1.0
1040
0.0
1010
0.0
1020
0.0
1030
1.0
1000
ANSI31
1070
     0
1070
     1
1071
        2
1071
        7
1070
     0
1070
     1
1071
       14
1040
226.240421792619
1040
111.9758026902798
1040
226.240421792619
1040
116.9758026902797
1040
226.8393447670839
1040
116.9758026902797
1040
226.5088326486513
1040
117.68458821557
1040
225.540421792619
1040
118.9758026902796
1040
225.5404217926193
1040
111.9758026902798
1040
215.0404217926189
1040
111.9758026902798
1040
215.040421792619
1040
109.9758026902797
1040
225.7904217926192
1040
109.9758026902796
1040
226.1029217926188
1040
104.9758026902799
1040
226.9779217926185
1040
104.9758026902799
1040
227.290421792619
1040
109.9758026902796
1040
228.0404217926192
1040
109.9758026902796
1040
228.0404217926188
1040
111.9758026902798
1071
       14
1005
454
1005
45B
1005
457
1005
343
1005
461
1005
459
1005
455
1005
3E6
1005
452
1005
45E
1005
4A2
1005
45D
1005
451
1005
44F
1071
        7
1070
     0
1070
     1
1071
       15
1040
215.0404217926189
1040
109.9758026902796
1040
215.0404217926189
1040
111.9758026902798
1040
204.540421792619
1040
111.9758026902798
1040
204.5404217926189
1040
118.8742341565472
1040
204.2357161914215
1040
118.5695285553497
1040
203.5720109365855
1040
117.6845882155685
1040
203.2414988181541
1040
116.9758026902797
1040
203.840421792619
1040
116.9758026902797
1040
203.840421792619
1040
111.9758026902798
1040
202.040421792619
1040
111.9758026902798
1040
202.040421792619
1040
109.9758026902796
1040
202.7904217926191
1040
109.9758026902797
1040
203.1029217926191
1040
104.9758026902795
1040
203.9779217926195
1040
104.9758026902797
1040
204.2904217926191
1040
109.9758026902796
1071
       15
1005
455
1005
45A
1005
470
1005
462
1005
344
1005
458
1005
45C
1005
456
1005
450
1005
453
1005
460
1005
4A1
1005
45F
1005
452
1005
3E6
1070
     0
1070
     1
1040
0.0
1040
15.0
1070
     0
1070
     1
1040
0.7853981633974483
1040
0.0
1040
16.5
1040
-1.325825214724775
1040
1.325825214724775
1070
     0
1040
0.1271534291346108
1071
        2
1040
226.4876437630261
1040
111.3531476554292
1040
0.0
1040
212.373954768469
1040
110.5902277913447
1040
0.0
1002
}
  0
DIMENSION
  5
883
330
A
100
AcDbEntity
  8
SUNPOU
100
AcDbDimension
  2
*D1
 10
75.52259023928613
 20
405.1379613356766
 30
0.0
 11
71.02259023928606
 21
355.1379613356766
 31
0.0
 70
    32
  3
SUNPOU_2
100
AcDbAlignedDimension
 13
110.5404217926185
 23
305.1379613356766
 33
0.0
 14
106.0404217926184
 24
405.1379613356766
 34
0.0
 50
90.0
100
AcDbRotatedDimension
  0
DIMENSION
  5
890
330
A
100
AcDbEntity
  8
SUNPOU
100
AcDbDimension
  2
*D2
 10
88.09801270785452
 20
385.1379613356766
 30
0.0
 11
83.59801270785444
 21
355.5589717611908
 31
0.0
 70
   160
  3
SUNPOU_2
100
AcDbAlignedDimension
 13
110.5404217926185
 23
305.1379613356766
 33
0.0
 14
146.0404217926185
 24
385.1379613356766
 34
0.0
 50
90.0
100
AcDbRotatedDimension
  0
DIMENSION
  5
89D
330
A
100
AcDbEntity
  8
SUNPOU
100
AcDbDimension
  2
*D3
 10
101.5407056914965
 20
365.1379613356766
 30
0.0
 11
97.04070569149642
 21
335.1379613356765
 31
0.0
 70
    32
  3
SUNPOU_2
100
AcDbAlignedDimension
 13
110.5404217926185
 23
305.1379613356766
 33
0.0
 14
180.0581316750033
 24
365.1379613356766
 34
0.0
 50
90.0
100
AcDbRotatedDimension
  0
DIMENSION
  5
8AA
330
A
100
AcDbEntity
  8
SUNPOU
100
AcDbDimension
  2
*D4
 10
101.5407056914965
 20
385.1379613356766
 30
0.0
 11
97.04070569149649
 21
375.1379613356766
 31
0.0
 70
    32
  3
SUNPOU_2
100
AcDbAlignedDimension
 13
180.0581316750033
 23
365.1379613356766
 33
0.0
 14
146.0404217926185
 24
385.1379613356766
 34
0.0
 50
90.0
100
AcDbRotatedDimension
  0
DIMENSION
  5
8B7
330
A
100
AcDbEntity
  8
SUNPOU
100
AcDbDimension
  2
*D5
 10
121.9115558282462
 20
405.1379613356766
 30
0.0
 11
117.4115558282462
 21
376.7220821118793
 31
0.0
 70
   160
  3
SUNPOU_2
100
AcDbAlignedDimension
 13
134.4631626676712
 23
352.6379613356766
 33
0.0
 14
139.0404217926185
 24
405.1379613356766
 34
0.0
 50
90.0
100
AcDbRotatedDimension
  0
DIMENSION
  5
8C4
330
A
100
AcDbEntity
  8
SUNPOU
100
AcDbDimension
  2
*D6
 10
121.9115558282462
 20
457.6379613356766
 30
0.0
 11
117.4115558282462
 21
441.4345391181757
 31
0.0
 70
   160
  3
SUNPOU_2
100
AcDbAlignedDimension
 13
139.0404217926185
 23
405.1379613356766
 33
0.0
 14
134.4631626676712
 24
457.6379613356766
 34
0.0
 50
90.0
100
AcDbRotatedDimension
  0
DIMENSION
  5
8D1
330
A
100
AcDbEntity
  8
SUNPOU
100
AcDbDimension
  2
*D7
 10
130.3263035950124
 20
405.1379613356766
 30
0.0
 11
125.8263035950123
 21
392.6379613356766
 31
0.0
 70
    32
  3
SUNPOU_2
100
AcDbAlignedDimension
 13
133.4631626676712
 23
380.1379613356766
 33
0.0
 14
139.0404217926185
 24
405.1379613356766
 34
0.0
 50
90.0
100
AcDbRotatedDimension
  0
DIMENSION
  5
8DE
330
A
100
AcDbEntity
  8
SUNPOU
100
AcDbDimension
  2
*D8
 10
130.3263035950124
 20
430.1379613356766
 30
0.0
 11
125.8263035950123
 21
417.6379613356766
 31
0.0
 70
    32
  3
SUNPOU_2
100
AcDbAlignedDimension
 13
139.0404217926185
 23
405.1379613356766
 33
0.0
 14
133.4631626676712
 24
430.1379613356766
 34
0.0
 50
90.0
100
AcDbRotatedDimension
  0
DIMENSION
  5
8EB
330
A
100
AcDbEntity
  8
SUNPOU
100
AcDbDimension
  2
*D9
 10
63.76625659050964
 20
191.9758026902705
 30
0.0
 11
59.2662565905096
 21
146.9758026902619
 31
0.0
 70
    32
  1
600
  3
SUNPOU_2
100
AcDbAlignedDimension
 13
63.76625659050964
 23
101.9758026902535
 33
0.0
 14
162.6017996114256
 24
191.9758026902705
 34
0.0
 50
90.0
100
AcDbRotatedDimension
  0
DIMENSION
  5
901
330
A
100
AcDbEntity
  8
SUNPOU
100
AcDbDimension
  2
*D10
 10
265.355132539396
 20
104.9758026902799
 30
0.0
 11
260.855132539396
 21
92.47580269028
 31
0.0
 70
    32
  3
SUNPOU_2
100
AcDbAlignedDimension
 13
223.3904217908238
 23
79.97580269027992
 33
0.0
 14
239.1404217908236
 24
104.9758026902799
 34
0.0
 50
90.0
100
AcDbRotatedDimension
  0
DIMENSION
  5
90E
330
A
100
AcDbEntity
  8
SUNPOU
100
AcDbDimension
  2
*D11
 10
247.9008176919899
 20
104.9758026902799
 30
0.0
 11
252.9030321693069
 21
108.1607923894875
 31
0.0
 70
   160
  3
SUNPOU_2
100
AcDbAlignedDimension
 13
247.9008176919899
 23
101.9758026902784
 33
0.0
 14
239.1404217908236
 24
104.9758026902799
 34
0.0
 50
90.0
100
AcDbRotatedDimension
  0
DIMENSION
  5
91D
330
A
100
AcDbEntity
  8
SUNPOU
100
AcDbDimension
  2
*D12
 10
305.9595782073813
 20
111.9758026902802
 30
0.0
 11
301.4595782073813
 21
106.9758026902849
 31
0.0
 70
    32
  3
SUNPOU_2
100
AcDbAlignedDimension
 13
305.9595782073813
 23
101.9758026902896
 33
0.0
 14
231.040421792619
 24
111.9758026902802
 34
0.0
 50
90.0
100
AcDbRotatedDimension
  0
DIMENSION
  5
92C
330
A
100
AcDbEntity
  8
SUNPOU
100
AcDbDimension
  2
*D13
 10
305.9595782073813
 20
315.1379613356766
 30
0.0
 11
301.4595782073813
 21
213.5568820129785
 31
0.0
 70
    32
  1
DH
  3
SUNPOU_2
100
AcDbAlignedDimension
 13
231.040421792619
 23
111.9758026902802
 33
0.0
 14
237.5404217926186
 24
315.1379613356766
 34
0.0
 50
90.0
100
AcDbRotatedDimension
  0
DIMENSION
  5
942
330
A
100
AcDbEntity
  8
SUNPOU
100
AcDbDimension
  2
*D14
 10
325.7943760984181
 20
305.1379613356766
 30
0.0
 11
321.2943760984181
 21
203.5568820129868
 31
0.0
 70
    32
  1
H
  3
SUNPOU_2
100
AcDbAlignedDimension
 13
325.7943760984181
 23
101.9758026902969
 33
0.0
 14
287.5404217926186
 24
305.1379613356766
 34
0.0
 50
90.0
100
AcDbRotatedDimension
  0
DIMENSION
  5
94F
330
A
100
AcDbEntity
  8
SUNPOU
100
AcDbDimension
  2
*D15
 10
325.7943760984183
 20
505.1379613356766
 30
0.0
 11
321.2943760984181
 21
405.1379613356766
 31
0.0
 70
    32
  3
SUNPOU_2
100
AcDbAlignedDimension
 13
287.5404217926186
 23
305.1379613356766
 33
0.0
 14
287.5404217926186
 24
505.1379613356766
 34
0.0
 50
90.0
100
AcDbRotatedDimension
  0
DIMENSION
  5
9A5
330
A
100
AcDbEntity
  8
SUNPOU
100
AcDbDimension
  2
*D16
 10
249.5075096401476
 20
315.1379613356766
 30
0.0
 11
245.0075096401476
 21
310.1379613356765
 31
0.0
 70
    32
  3
SUNPOU_2
100
AcDbAlignedDimension
 13
248.5075096401475
 23
305.1379613356766
 33
0.0
 14
238.5404217926184
 24
315.1379613356766
 34
0.0
 50
90.0
100
AcDbRotatedDimension
  0
DIMENSION
  5
9B3
330
A
100
AcDbEntity
  8
SUNPOU
100
AcDbDimension
  2
*D17
 10
196.0404217926186
 20
393.3001942575471
 30
0.0
 11
168.5404217926184
 21
397.8001942575471
 31
0.0
 70
    32
  3
SUNPOU_2
100
AcDbAlignedDimension
 13
141.0404217926186
 23
385.1379613356766
 33
0.0
 14
196.0404217926186
 24
379.1379613356766
 34
0.0
100
AcDbRotatedDimension
  0
DIMENSION
  5
9CD
330
A
100
AcDbEntity
  8
SUNPOU
100
AcDbDimension
  2
*D18
 10
194.0404217926186
 20
288.1746946372251
 30
0.0
 11
151.5404217926185
 21
292.6746946372251
 31
0.0
 70
    32
  3
SUNPOU_2
100
AcDbAlignedDimension
 13
109.0404217926185
 23
306.6379613356766
 33
0.0
 14
194.0404217926186
 24
306.6379613356766
 34
0.0
100
AcDbRotatedDimension
  0
DIMENSION
  5
9DA
330
A
100
AcDbEntity
  8
SUNPOU
100
AcDbDimension
  2
*D19
 10
199.0404217926184
 20
288.1746946372251
 30
0.0
 11
196.5404217926184
 21
292.7668418977655
 31
0.0
 70
   160
  3
SUNPOU_2
100
AcDbAlignedDimension
 13
194.0404217926186
 23
306.6379613356766
 33
0.0
 14
199.0404217926184
 24
313.1379613356766
 34
0.0
100
AcDbRotatedDimension
  0
DIMENSION
  5
9F6
330
A
100
AcDbEntity
  8
SUNPOU
100
AcDbDimension
  2
*D20
 10
231.0404217926186
 20
288.1746946372251
 30
0.0
 11
215.0404217926184
 21
282.6229564485663
 31
0.0
 70
   160
  3
SUNPOU_2
100
AcDbAlignedDimension
 13
199.0404217926184
 23
313.1379613356766
 33
0.0
 14
231.0404217926186
 24
312.6379613356764
 34
0.0
100
AcDbRotatedDimension
  0
DIMENSION
  5
A03
330
A
100
AcDbEntity
  8
SUNPOU
100
AcDbDimension
  2
*D21
 10
236.0404217926184
 20
288.1746946372251
 30
0.0
 11
233.5404217926186
 21
292.6350562647527
 31
0.0
 70
   160
  3
SUNPOU_2
100
AcDbAlignedDimension
 13
231.0404217926186
 23
312.6379613356764
 33
0.0
 14
236.0404217926184
 24
306.6379613356766
 34
0.0
100
AcDbRotatedDimension
  0
DIMENSION
  5
A12
330
A
100
AcDbEntity
  8
SUNPOU
100
AcDbDimension
  2
*D22
 10
289.0404217926184
 20
288.1746946372251
 30
0.0
 11
262.5404217926186
 21
292.6746946372251
 31
0.0
 70
    32
  3
SUNPOU_2
100
AcDbAlignedDimension
 13
236.0404217926184
 23
306.6379613356766
 33
0.0
 14
289.0404217926184
 24
306.6379613356766
 34
0.0
100
AcDbRotatedDimension
  0
DIMENSION
  5
A1F
330
A
100
AcDbEntity
  8
SUNPOU
100
AcDbDimension
  2
*D23
 10
194.0404217926186
 20
274.4743581048057
 30
0.0
 11
150.8215464300515
 21
278.9743581048057
 31
0.0
 70
   160
  3
SUNPOU_2
100
AcDbAlignedDimension
 13
94.04042179261855
 23
274.4743581048057
 33
0.0
 14
194.0404217926186
 24
306.6379613356766
 34
0.0
100
AcDbRotatedDimension
  0
DIMENSION
  5
A2C
330
A
100
AcDbEntity
  8
SUNPOU
100
AcDbDimension
  2
*D24
 10
289.0404217926184
 20
274.4743581048057
 30
0.0
 11
241.5404217926186
 21
278.9743581048057
 31
0.0
 70
    32
  3
SUNPOU_2
100
AcDbAlignedDimension
 13
194.0404217926186
 23
306.6379613356766
 33
0.0
 14
289.0404217926184
 24
306.6379613356766
 34
0.0
100
AcDbRotatedDimension
  0
DIMENSION
  5
A39
330
A
100
AcDbEntity
  8
SUNPOU
100
AcDbDimension
  2
*D25
 10
109.0404217926185
 20
262.2315041822181
 30
0.0
 11
101.5404217926185
 21
266.7315041822181
 31
0.0
 70
    32
  3
SUNPOU_2
100
AcDbAlignedDimension
 13
94.04042179261855
 23
262.2315041822181
 33
0.0
 14
109.0404217926185
 24
306.6379613356766
 34
0.0
100
AcDbRotatedDimension
  0
DIMENSION
  5
A46
330
A
100
AcDbEntity
  8
SUNPOU
100
AcDbDimension
  2
*D26
 10
289.0404217926184
 20
262.2315041822181
 30
0.0
 11
186.8760016524739
 21
266.7315041822181
 31
0.0
 70
   160
  3
SUNPOU_2
100
AcDbAlignedDimension
 13
109.0404217926185
 23
306.6379613356766
 33
0.0
 14
289.0404217926184
 24
306.6379613356766
 34
0.0
100
AcDbRotatedDimension
  0
DIMENSION
  5
A6B
330
A
100
AcDbEntity
  8
SUNPOU
100
AcDbDimension
  2
*D27
 10
223.3904217908236
 20
66.88973127277876
 30
0.0
 11
214.8904217908238
 21
71.38973127277878
 31
0.0
 70
    32
  3
SUNPOU_2
100
AcDbAlignedDimension
 13
206.3904217908236
 23
79.97580269027992
 33
0.0
 14
223.3904217908236
 24
79.97580269028
 34
0.0
100
AcDbRotatedDimension
  0
DIMENSION
  5
AA6
330
A
100
AcDbEntity
  8
SUNPOU
100
AcDbDimension
  2
*D28
 10
160.0830643746734
 20
414.8941183841567
 30
0.0
 11
168.195828977057
 21
428.2349961301072
 31
0.0
 70
   163
  1
配線孔<>
  3
SUNPOU_2
100
AcDbDiametricDimension
 15
181.9977792105636
 25
435.3818042871965
 35
0.0
 40
0.0
1001
ACAD
1000
DSTYLE
1002
{
1070
   288
1070
     1
1002
}
  0
DIMENSION
  5
AC5
330
A
100
AcDbEntity
  8
SUNPOU
100
AcDbDimension
  2
*D29
 10
97.04042179261858
 20
537.9170548326413
 30
0.0
 11
85.46648349889007
 21
542.4926546646036
 31
0.0
 70
   160
  3
SUNPOU_2
100
AcDbAlignedDimension
 13
94.0404217926186
 23
537.9170548326413
 33
0.0
 14
97.04042179261858
 24
546.6379613356767
 34
0.0
100
AcDbRotatedDimension
  0
DIMENSION
  5
AD4
330
A
100
AcDbEntity
  8
SUNPOU
100
AcDbDimension
  2
*D30
 10
191.0404217926186
 20
537.9170548326413
 30
0.0
 11
156.3874833418016
 21
542.4170548326413
 31
0.0
 70
   160
  3
SUNPOU_2
100
AcDbAlignedDimension
 13
97.04042179261858
 23
546.6379613356767
 33
0.0
 14
191.0404217926186
 24
546.6379613356767
 34
0.0
100
AcDbRotatedDimension
  0
DIMENSION
  5
AE1
330
A
100
AcDbEntity
  8
SUNPOU
100
AcDbDimension
  2
*D31
 10
194.0404217926186
 20
537.9170548326413
 30
0.0
 11
202.4306734893734
 21
542.4024247483255
 31
0.0
 70
   160
  3
SUNPOU_2
100
AcDbAlignedDimension
 13
191.0404217926186
 23
546.6379613356767
 33
0.0
 14
194.0404217926186
 24
537.9170548326413
 34
0.0
100
AcDbRotatedDimension
  0
LINE
  5
B72
330
A
100
AcDbEntity
  8
04
100
AcDbLine
 10
209.0404217926185
 20
340.6379613356766
 30
0.0
 11
209.0404217926185
 21
338.6265234273646
 31
0.0
  0
LINE
  5
B73
330
A
100
AcDbEntity
  8
04
100
AcDbLine
 10
208.0404217926186
 20
338.6265234273646
 30
0.0
 11
209.0404217926185
 21
338.6265234273646
 31
0.0
  0
LINE
  5
B74
330
A
100
AcDbEntity
  8
04
100
AcDbLine
 10
208.0404217926186
 20
338.6265234273646
 30
0.0
 11
208.0404217926186
 21
336.6379613356766
 31
0.0
  0
LINE
  5
B75
330
A
100
AcDbEntity
  8
04
100
AcDbLine
 10
219.5404217926185
 20
340.6379613356766
 30
0.0
 11
209.0404217926185
 21
340.6379613356766
 31
0.0
  0
LINE
  5
B76
330
A
100
AcDbEntity
  8
04
100
AcDbLine
 10
219.5404217926185
 20
339.1379613356765
 30
0.0
 11
227.5404217926185
 21
339.1379613356765
 31
0.0
  0
LINE
  5
B8E
330
A
100
AcDbEntity
  8
04
100
AcDbLine
 10
206.0404186384634
 20
325.2365468063803
 30
0.0
 11
206.040424526226
 21
323.6379387894115
 31
0.0
  0
LINE
  5
B8F
330
A
100
AcDbEntity
  8
04
100
AcDbLine
 10
206.5404217926186
 20
336.6379613356766
 30
0.0
 11
208.0404217926186
 21
336.6379613356766
 31
0.0
  0
LINE
  5
B90
330
A
100
AcDbEntity
  8
04
100
AcDbLine
 10
206.5404217926186
 20
326.6379613356765
 30
0.0
 11
206.5404217926186
 21
336.6379613356766
 31
0.0
  0
LINE
  5
B93
330
A
100
AcDbEntity
  8
04
100
AcDbLine
 10
204.0404217926186
 20
323.6379613356766
 30
0.0
 11
204.0404217926186
 21
319.1379613356766
 31
0.0
  0
LINE
  5
B94
330
A
100
AcDbEntity
  8
04
100
AcDbLine
 10
204.0404217926186
 20
319.1379613356766
 30
0.0
 11
232.0404217926185
 21
319.1379613356766
 31
0.0
  0
LINE
  5
B95
330
A
100
AcDbEntity
  8
04
100
AcDbLine
 10
232.0404217926185
 20
323.6379613356766
 30
0.0
 11
204.0404217926186
 21
323.6379613356766
 31
0.0
  0
LINE
  5
B97
330
A
100
AcDbEntity
  8
04
100
AcDbLine
 10
232.5404217926185
 20
324.6379613356765
 30
0.0
 11
232.5404217926185
 21
330.1379613356766
 31
0.0
  0
LINE
  5
B98
330
A
100
AcDbEntity
  8
04
100
AcDbLine
 10
232.0404217926185
 20
324.6379613356765
 30
0.0
 11
232.5404217926185
 21
324.6379613356765
 31
0.0
  0
LINE
  5
B99
330
A
100
AcDbEntity
  8
04
100
AcDbLine
 10
232.5404217926185
 20
330.1379613356766
 30
0.0
 11
236.5404217926185
 21
330.1379613356766
 31
0.0
  0
LINE
  5
B9F
330
A
100
AcDbEntity
  8
04
100
AcDbLine
 10
243.6404217926185
 20
344.7379613356766
 30
0.0
 11
243.6404217926185
 21
352.5379613356766
 31
0.0
  0
LINE
  5
BA0
330
A
100
AcDbEntity
  8
04
100
AcDbLine
 10
243.1361065676184
 20
343.8644613356766
 30
0.0
 11
243.6404217926185
 21
344.7379613356766
 31
0.0
  0
LINE
  5
BA1
330
A
100
AcDbEntity
  8
04
100
AcDbLine
 10
239.6404217926185
 20
343.8644613356766
 30
0.0
 11
243.1361065676184
 21
343.8644613356766
 31
0.0
  0
LINE
  5
BA2
330
A
100
AcDbEntity
  8
04
100
AcDbLine
 10
239.6404217926185
 20
343.5379613356766
 30
0.0
 11
239.6404217926185
 21
343.8644613356766
 31
0.0
  0
LINE
  5
BA3
330
A
100
AcDbEntity
  8
04
100
AcDbLine
 10
238.1404217926184
 20
343.5379613356766
 30
0.0
 11
239.6404217926185
 21
343.5379613356766
 31
0.0
  0
LINE
  5
BA4
330
A
100
AcDbEntity
  8
04
100
AcDbLine
 10
238.1404217926184
 20
343.3879613356765
 30
0.0
 11
236.5404217926185
 21
343.3879613356765
 31
0.0
  0
LINE
  5
BA5
330
A
100
AcDbEntity
  8
04
100
AcDbLine
 10
238.1404217926184
 20
343.5379613356766
 30
0.0
 11
238.1404217926184
 21
343.3879613356765
 31
0.0
  0
LINE
  5
BAD
330
A
100
AcDbEntity
  8
04
100
AcDbLine
 10
243.6404217926185
 20
354.7379613356766
 30
0.0
 11
243.6404217926185
 21
364.5379613356766
 31
0.0
  0
LINE
  5
BAE
330
A
100
AcDbEntity
  8
04
100
AcDbLine
 10
243.1361065676184
 20
353.8644613356766
 30
0.0
 11
243.6404217926185
 21
354.7379613356766
 31
0.0
  0
LINE
  5
BAF
330
A
100
AcDbEntity
  8
04
100
AcDbLine
 10
243.1361065676186
 20
365.4114613356767
 30
0.0
 11
243.6404217926185
 21
364.5379613356766
 31
0.0
  0
LINE
  5
BB0
330
A
100
AcDbEntity
  8
04
100
AcDbLine
 10
239.6404217926185
 20
353.8644613356766
 30
0.0
 11
243.1361065676184
 21
353.8644613356766
 31
0.0
  0
LINE
  5
BB1
330
A
100
AcDbEntity
  8
04
100
AcDbLine
 10
239.6404217926185
 20
365.4114613356767
 30
0.0
 11
243.1361065676186
 21
365.4114613356767
 31
0.0
  0
LINE
  5
BB2
330
A
100
AcDbEntity
  8
04
100
AcDbLine
 10
239.6404217926185
 20
365.7379613356766
 30
0.0
 11
238.1404217926184
 21
365.7379613356766
 31
0.0
  0
LINE
  5
BB3
330
A
100
AcDbEntity
  8
04
100
AcDbLine
 10
239.6404217926185
 20
353.5379613356766
 30
0.0
 11
239.6404217926185
 21
353.8644613356766
 31
0.0
  0
LINE
  5
BB4
330
A
100
AcDbEntity
  8
04
100
AcDbLine
 10
238.1404217926184
 20
353.5379613356766
 30
0.0
 11
239.6404217926185
 21
353.5379613356766
 31
0.0
  0
LINE
  5
BB5
330
A
100
AcDbEntity
  8
04
100
AcDbLine
 10
238.1404217926184
 20
353.3879613356766
 30
0.0
 11
236.5404217926185
 21
353.3879613356766
 31
0.0
  0
LINE
  5
BB6
330
A
100
AcDbEntity
  8
04
100
AcDbLine
 10
238.1404217926184
 20
365.8879613356766
 30
0.0
 11
238.1404217926186
 21
365.7379613356766
 31
0.0
  0
LINE
  5
BB7
330
A
100
AcDbEntity
  8
04
100
AcDbLine
 10
236.5404217926185
 20
365.8879613356766
 30
0.0
 11
238.1404217926184
 21
365.8879613356766
 31
0.0
  0
LINE
  5
BB8
330
A
100
AcDbEntity
  8
04
100
AcDbLine
 10
237.5404217926186
 20
371.6379613356766
 30
0.0
 11
236.5404217926185
 21
371.6379613356766
 31
0.0
  0
LINE
  5
BB9
330
A
100
AcDbEntity
  8
04
100
AcDbLine
 10
237.5404217926186
 20
388.6379613356766
 30
0.0
 11
237.5404217926186
 21
371.6379613356766
 31
0.0
  0
LINE
  5
BBA
330
A
100
AcDbEntity
  8
04
100
AcDbLine
 10
236.5404217926185
 20
411.1379613356764
 30
0.0
 11
236.5404217926185
 21
330.1379613356766
 31
0.0
  0
LINE
  5
BBB
330
A
100
AcDbEntity
  8
04
100
AcDbLine
 10
227.5404217926185
 20
367.6379613356766
 30
0.0
 11
227.5404217926185
 21
323.6379613356766
 31
0.0
  0
LINE
  5
BBC
330
A
100
AcDbEntity
  8
04
100
AcDbLine
 10
232.0404217926185
 20
411.1379613356764
 30
0.0
 11
232.0404217926185
 21
319.1379613356766
 31
0.0
  0
LINE
  5
BBD
330
A
100
AcDbEntity
  8
04
100
AcDbLine
 10
225.5404217926185
 20
410.1379613356765
 30
0.0
 11
225.5404217926185
 21
350.1379613356766
 31
0.0
  0
LINE
  5
BBF
330
A
100
AcDbEntity
  8
04
100
AcDbLine
 10
205.5404217926184
 20
410.1379613356765
 30
0.0
 11
205.5404217926184
 21
387.6379613356766
 31
0.0
  0
LINE
  5
BC3
330
A
100
AcDbEntity
  8
04
100
AcDbLine
 10
210.5404217926186
 20
355.1379613356766
 30
0.0
 11
220.5404217926186
 21
355.1379613356766
 31
0.0
  0
LINE
  5
BC6
330
A
100
AcDbEntity
  8
04
100
AcDbLine
 10
225.5404217926185
 20
369.1683062210736
 30
0.0
 11
232.0404217926185
 21
369.1683062210736
 31
0.0
  0
LINE
  5
BC7
330
A
100
AcDbEntity
  8
04
100
AcDbLine
 10
232.0404217926185
 20
367.6379613356766
 30
0.0
 11
227.5404217926185
 21
367.6379613356766
 31
0.0
  0
ARC
  5
BC8
330
A
100
AcDbEntity
  8
04
100
AcDbCircle
 10
219.5404217926185
 20
354.1379613356766
 30
0.0
 40
1.0
100
AcDbArc
 50
0.0
 51
90.0
  0
ARC
  5
BC9
330
A
100
AcDbEntity
  8
04
100
AcDbCircle
 10
211.5404217926184
 20
354.1379613356766
 30
0.0
 40
1.0
100
AcDbArc
 50
90.0
 51
180.0
  0
LINE
  5
BCA
330
A
100
AcDbEntity
  8
04
100
AcDbLine
 10
211.5404217926184
 20
355.1379613356766
 30
0.0
 11
219.5404217926185
 21
355.1379613356766
 31
0.0
  0
LINE
  5
BCB
330
A
100
AcDbEntity
  8
04
100
AcDbLine
 10
225.5404217926185
 20
393.6379613356766
 30
0.0
 11
230.0904217926186
 21
393.6379613356766
 31
0.0
  0
LINE
  5
BCC
330
A
100
AcDbEntity
  8
04
100
AcDbLine
 10
230.0904217926186
 20
391.1076164502794
 30
0.0
 11
230.0904217926186
 21
393.6379613356766
 31
0.0
  0
ARC
  5
BD0
330
A
100
AcDbEntity
  8
04
100
AcDbCircle
 10
220.5404217926186
 20
410.6379613356764
 30
0.0
 40
0.5
100
AcDbArc
 50
90.0
 51
180.0
  0
LINE
  5
BD1
330
A
100
AcDbEntity
  8
04
100
AcDbLine
 10
228.0404217926185
 20
399.0379613356766
 30
0.0
 11
228.0404217926185
 21
396.9879613356766
 31
0.0
  0
LINE
  5
BD2
330
A
100
AcDbEntity
  8
04
100
AcDbLine
 10
225.5404217926185
 20
396.9879613356766
 30
0.0
 11
228.0404217926185
 21
396.9879613356766
 31
0.0
  0
LINE
  5
BD4
330
A
100
AcDbEntity
  8
04
100
AcDbLine
 10
232.0404217926185
 20
399.0379613356766
 30
0.0
 11
228.0404217926185
 21
399.0379613356766
 31
0.0
  0
LINE
  5
BD6
330
A
100
AcDbEntity
  8
04
100
AcDbLine
 10
220.5404217926186
 20
411.1379613356764
 30
0.0
 11
232.0404217926185
 21
411.1379613356764
 31
0.0
  0
LINE
  5
BD7
330
A
100
AcDbEntity
  8
04
100
AcDbLine
 10
220.0404217926185
 20
410.6379613356764
 30
0.0
 11
220.0404217926185
 21
405.1379613356766
 31
0.0
  0
LINE
  5
BD9
330
A
100
AcDbEntity
  8
04
100
AcDbLine
 10
244.5404217926185
 20
404.1379613356766
 30
0.0
 11
244.5404217926185
 21
400.1379613356766
 31
0.0
  0
LINE
  5
BDA
330
A
100
AcDbEntity
  8
04
100
AcDbLine
 10
243.5404217926186
 20
405.1379613356766
 30
0.0
 11
244.5404217926185
 21
404.1379613356766
 31
0.0
  0
LINE
  5
BDB
330
A
100
AcDbEntity
  8
04
100
AcDbLine
 10
243.5404217926186
 20
399.1379613356766
 30
0.0
 11
244.5404217926185
 21
400.1379613356766
 31
0.0
  0
LINE
  5
BDC
330
A
100
AcDbEntity
  8
04
100
AcDbLine
 10
242.5404217926185
 20
405.1379613356766
 30
0.0
 11
243.5404217926186
 21
405.1379613356766
 31
0.0
  0
LINE
  5
BDD
330
A
100
AcDbEntity
  8
04
100
AcDbLine
 10
242.5404217926185
 20
399.1379613356766
 30
0.0
 11
243.5404217926186
 21
399.1379613356766
 31
0.0
  0
LINE
  5
BE1
330
A
100
AcDbEntity
  8
04
100
AcDbLine
 10
237.3404217926184
 20
409.1379613356767
 30
0.0
 11
238.0485418985091
 21
407.9114613344128
 31
0.0
  0
LINE
  5
BE2
330
A
100
AcDbEntity
  8
04
100
AcDbLine
 10
237.3404217926184
 20
395.1379613356766
 30
0.0
 11
238.0485418985091
 21
396.3644613344128
 31
0.0
  0
LINE
  5
BE4
330
A
100
AcDbEntity
  8
04
100
AcDbLine
 10
237.3404217926184
 20
395.1379613356766
 30
0.0
 11
236.5404217926185
 21
395.1379613356766
 31
0.0
  0
LINE
  5
BE5
330
A
100
AcDbEntity
  8
04
100
AcDbLine
 10
237.3404217926184
 20
409.1379613356767
 30
0.0
 11
236.5404217926185
 21
409.1379613356767
 31
0.0
  0
LINE
  5
BEB
330
A
100
AcDbEntity
  8
04
100
AcDbLine
 10
242.5404217926185
 20
405.1379613356766
 30
0.0
 11
242.5404217926185
 21
407.0379613356766
 31
0.0
  0
LINE
  5
BEC
330
A
100
AcDbEntity
  8
04
100
AcDbLine
 10
242.0361065676186
 20
396.3644613356766
 30
0.0
 11
242.5404217926185
 21
397.2379613356766
 31
0.0
  0
LINE
  5
BED
330
A
100
AcDbEntity
  8
04
100
AcDbLine
 10
242.0361065676186
 20
407.9114613356766
 30
0.0
 11
242.5404217926185
 21
407.0379613356766
 31
0.0
  0
LINE
  5
BEE
330
A
100
AcDbEntity
  8
04
100
AcDbLine
 10
238.0485418985091
 20
396.3644613344128
 30
0.0
 11
242.0361065676186
 21
396.3644613356766
 31
0.0
  0
LINE
  5
BEF
330
A
100
AcDbEntity
  8
04
100
AcDbLine
 10
238.0485419357838
 20
407.9114613344128
 30
0.0
 11
242.0361065676186
 21
407.9114613356766
 31
0.0
  0
LINE
  5
BF0
330
A
100
AcDbEntity
  8
04
100
AcDbLine
 10
236.5404217926185
 20
409.1379613356767
 30
0.0
 11
236.5404217926185
 21
395.1379613356766
 31
0.0
  0
LINE
  5
BF1
330
A
100
AcDbEntity
  8
04
100
AcDbLine
 10
236.5404217926185
 20
388.6379613356766
 30
0.0
 11
237.5404217926186
 21
388.6379613356766
 31
0.0
  0
LINE
  5
BF2
330
A
100
AcDbEntity
  8
04
100
AcDbLine
 10
210.5404217926186
 20
405.1379613356766
 30
0.0
 11
209.2006758304629
 21
410.1379613356765
 31
0.0
  0
LINE
  5
BF3
330
A
100
AcDbEntity
  8
04
100
AcDbLine
 10
221.8801677547741
 20
410.1379613356765
 30
0.0
 11
225.5404217926185
 21
410.1379613356765
 31
0.0
  0
LINE
  5
BF4
330
A
100
AcDbEntity
  8
04
100
AcDbLine
 10
220.5404217926186
 20
405.1379613356766
 30
0.0
 11
221.8801677547741
 21
410.1379613356765
 31
0.0
  0
LINE
  5
BF5
330
A
100
AcDbEntity
  8
04
100
AcDbLine
 10
210.5404217926186
 20
405.1379613356766
 30
0.0
 11
220.5404217926186
 21
405.1379613356766
 31
0.0
  0
LINE
  5
BF7
330
A
100
AcDbEntity
  8
04
100
AcDbLine
 10
236.5404217926185
 20
411.1379613356764
 30
0.0
 11
232.0404217926185
 21
411.1379613356764
 31
0.0
  0
LINE
  5
BF8
330
A
100
AcDbEntity
  8
04
100
AcDbLine
 10
209.2006758304629
 20
410.1379613356765
 30
0.0
 11
205.5404217926184
 21
410.1379613356765
 31
0.0
  0
LINE
  5
BF9
330
A
100
AcDbEntity
  8
04
100
AcDbLine
 10
205.0404217926184
 20
372.6379613356766
 30
0.0
 11
205.5404217926184
 21
372.6379613356766
 31
0.0
  0
LINE
  5
BFA
330
A
100
AcDbEntity
  8
04
100
AcDbLine
 10
205.0404217926184
 20
387.6379613356766
 30
0.0
 11
205.0404217926184
 21
372.6379613356766
 31
0.0
  0
LINE
  5
BFB
330
A
100
AcDbEntity
  8
04
100
AcDbLine
 10
205.5404217926184
 20
387.6379613356766
 30
0.0
 11
205.0404217926184
 21
387.6379613356766
 31
0.0
  0
LINE
  5
BFC
330
A
100
AcDbEntity
  8
04
100
AcDbLine
 10
220.5404217926186
 20
355.1379613356766
 30
0.0
 11
221.8801677547741
 21
350.1379613356766
 31
0.0
  0
LINE
  5
BFD
330
A
100
AcDbEntity
  8
04
100
AcDbLine
 10
209.2006758304629
 20
350.1379613356766
 30
0.0
 11
210.5404217926186
 21
355.1379613356766
 31
0.0
  0
LINE
  5
BFE
330
A
100
AcDbEntity
  8
04
100
AcDbLine
 10
205.5404217926184
 20
350.1379613356766
 30
0.0
 11
209.2006758304629
 21
350.1379613356766
 31
0.0
  0
LINE
  5
BFF
330
A
100
AcDbEntity
  8
04
100
AcDbLine
 10
221.8801677547741
 20
350.1379613356766
 30
0.0
 11
225.5404217926185
 21
350.1379613356766
 31
0.0
  0
LINE
  5
C01
330
A
100
AcDbEntity
  8
04
100
AcDbLine
 10
242.5404217926185
 20
397.2379613356766
 30
0.0
 11
242.5404217926185
 21
399.1379613356766
 31
0.0
  0
LINE
  5
C02
330
A
100
AcDbEntity
  8
04
100
AcDbLine
 10
205.5404217926184
 20
372.6379613356766
 30
0.0
 11
205.5404217926184
 21
350.1379613356766
 31
0.0
  0
LINE
  5
C03
330
A
100
AcDbEntity
  8
04
100
AcDbLine
 10
239.6404217926185
 20
365.4114613356767
 30
0.0
 11
239.6404217926185
 21
365.7379613356766
 31
0.0
  0
LINE
  5
C04
330
A
100
AcDbEntity
  8
04
100
AcDbLine
 10
238.1404217926184
 20
353.5379613356766
 30
0.0
 11
238.1404217926184
 21
353.3879613356766
 31
0.0
  0
LINE
  5
C06
330
A
100
AcDbEntity
  8
04
100
AcDbLine
 10
206.5404095042846
 20
325.2366249626195
 30
0.0
 11
206.0404210205754
 21
325.2366293470239
 31
0.0
  0
LEADER
  5
CCF
330
A
100
AcDbEntity
  8
HIKIDASI
100
AcDbLeader
  3
SUNPOU_2
 73
     0
 74
     0
 75
     1
 40
5.0
 41
43.46666666666668
 76
     3
 10
231.040421792619
 20
149.3495155014504
 30
0.0
 10
242.8890613871475
 20
170.0463874527855
 30
0.0
 10
247.8890613871476
 20
170.0463874527855
 30
0.0
340
CD0
1001
ACAD
1000
DSTYLE
1002
{
1070
     5
1000
OPEN30
1070
    77
1070
     1
1070
   147
1040
1.0
1070
   342
1005
742
1002
}
1000
LEANOF
1010
0.0
1020
0.0
1030
0.0
1000
LEANOF
1010
0.0
1020
0.0
1030
0.0
  0
MTEXT
  5
CD0
330
A
100
AcDbEntity
  8
HIKIDASI
100
AcDbMText
 10
249.8890613871476
 20
172.0463874527856
 30
0.0
 40
5.0
 41
0.0
 71
     7
 72
     1
  1
スリムセナージ･ドア
  7
SUNPOU
1001
ACAD
1000
MTEXTBEGIN
1070
    73
1070
     1
1070
    44
1040
1.0
1070
    74
1070
     0
1000
MTEXTEND
1000
MTEXTBEGIN
1070
    73
1070
     1
1070
    44
1040
1.0
1070
    74
1070
     0
1000
MTEXTEND
  0
LEADER
  5
CD3
330
A
100
AcDbEntity
  8
HIKIDASI
100
AcDbLeader
  3
SUNPOU_2
 73
     0
 74
     0
 75
     1
 40
13.33333333333333
 41
52.26666666666666
 76
     3
 10
231.6792822285348
 20
104.9758026902799
 30
0.0
 10
238.6513894559256
 20
132.7757518603344
 30
0.0
 10
243.6513894559257
 20
132.7757518603344
 30
0.0
340
CD4
213
0.0
223
8.485476332870588
233
0.0
1001
ACAD
1000
DSTYLE
1002
{
1070
     5
1000
OPEN30
1070
    77
1070
     1
1070
   147
1040
1.0
1070
   342
1005
742
1002
}
1000
LEANOF
1010
0.0
1020
8.485476332870588
1030
0.0
1000
LEANOF
1010
0.0
1020
8.485476332870588
1030
0.0
  0
MTEXT
  5
CD4
330
A
100
AcDbEntity
  8
HIKIDASI
100
AcDbMText
 10
245.6513894559257
 20
126.2902755274639
 30
0.0
 40
5.0
 41
0.0
 71
     7
 72
     1
  1
ステンレスガイドレール\P（サッシ工事）
  7
SUNPOU
1001
ACAD
1000
MTEXTBEGIN
1070
    73
1070
     1
1070
    44
1040
1.0
1070
    74
1070
     0
1000
MTEXTEND
1000
MTEXTBEGIN
1070
    73
1070
     1
1070
    44
1040
1.0
1070
    74
1070
     0
1000
MTEXTEND
  0
LEADER
  5
CD7
330
A
100
AcDbEntity
  8
HIKIDASI
100
AcDbLeader
  3
SUNPOU_2
 76
     2
 10
138.5404217926184
 20
430.1379613356766
 30
0.0
 10
73.32756052841665
 20
495.0846666127262
 30
0.0
1001
ACAD
1000
DSTYLE
1002
{
1070
     5
1000
OPEN30
1070
    77
1070
     1
1070
   147
1040
1.0
1070
   342
1005
742
1002
}
1000
LEANOF
1010
0.0
1020
0.0
1030
0.0
1000
LEANOF
1010
0.0
1020
0.0
1030
0.0
  0
LEADER
  5
CE5
330
A
100
AcDbEntity
  8
HIKIDASI
100
AcDbLeader
  3
SUNPOU_2
 73
     0
 40
5.0
 41
21.06666666666666
 76
     2
 10
138.5404217926184
 20
352.6379613356766
 30
0.0
 10
65.03280969778643
 20
337.6384122362033
 30
0.0
340
CE6
1001
ACAD
1000
DSTYLE
1002
{
1070
     5
1000
OPEN30
1070
    77
1070
     1
1070
   147
1040
1.0
1070
   342
1005
742
1002
}
1000
LEANOF
1010
0.0
1020
0.0
1030
0.0
1000
LEANOF
1010
0.0
1020
0.0
1030
0.0
  0
MTEXT
  5
CE6
330
A
100
AcDbEntity
  8
HIKIDASI
100
AcDbMText
 10
63.03280969778644
 20
339.6384122362031
 30
0.0
 40
5.0
 41
0.0
 71
     9
 72
     1
  1
M5タップ
  7
SUNPOU
1001
ACAD
1000
MTEXTBEGIN
1070
    73
1070
     1
1070
    44
1040
1.0
1070
    74
1070
     0
1000
MTEXTEND
1000
MTEXTBEGIN
1070
    73
1070
     1
1070
    44
1040
1.0
1070
    74
1070
     0
1000
MTEXTEND
  0
LEADER
  5
CE7
330
A
100
AcDbEntity
  8
HIKIDASI
100
AcDbLeader
  3
SUNPOU_2
 76
     2
 10
138.5404217926184
 20
380.1379613356766
 30
0.0
 10
65.03280969778643
 20
337.6384122362033
 30
0.0
1001
ACAD
1000
DSTYLE
1002
{
1070
     5
1000
OPEN30
1070
    77
1070
     1
1070
   147
1040
1.0
1070
   342
1005
742
1002
}
1000
LEANOF
1010
0.0
1020
0.0
1030
0.0
1000
LEANOF
1010
0.0
1020
0.0
1030
0.0
  0
DIMENSION
  5
D1E
330
A
100
AcDbEntity
  8
SUNPOU
100
AcDbDimension
  2
*D32
 10
275.0404217926186
 20
475.8260968782566
 30
0.0
 11
208.0404217926186
 21
480.3260968782566
 31
0.0
 70
    32
  3
SUNPOU_2
100
AcDbAlignedDimension
 13
141.0404217926186
 23
463.6379613356766
 33
0.0
 14
275.0404217926186
 24
455.1379613356766
 34
0.0
100
AcDbRotatedDimension
  0
LINE
  5
D3F
330
A
100
AcDbEntity
  8
04
100
AcDbLine
 10
230.0904217926186
 20
391.1076164502794
 30
0.0
 11
232.0404217926185
 21
391.1076164502794
 31
0.0
  0
LINE
  5
D40
330
A
100
AcDbEntity
  8
04
100
AcDbLine
 10
219.5404217926185
 20
340.6379613356766
 30
0.0
 11
219.5404217926185
 21
339.1379613356765
 31
0.0
  0
LINE
  5
D44
330
A
100
AcDbEntity
  8
04
100
AcDbLine
 10
206.5404217926186
 20
326.6379613356765
 30
0.0
 11
206.5404095042846
 21
325.2366249626193
 31
0.0
  0
INSERT
  5
D5F
330
A
100
AcDbEntity
  8
06
  6
CONTINUOUS
100
AcDbBlockReference
  2
*X36
 10
0.0
 20
0.0
 30
0.0
1001
ACAD
1000
HATCH
1002
{
1070
    19
1000
ANSI31
1040
20.0
1040
0.0
1000
R14_HATCH_DATA
1000
D5F
1011
1.0
1021
0.0
1031
0.0
1011
0.0
1021
1.0
1031
0.0
1011
0.0
1021
0.0
1031
1.0
1040
0.0
1010
0.0
1020
0.0
1030
1.0
1000
ANSI31
1070
     0
1070
     0
1071
        8
1071
        7
1070
     0
1070
     1
1071
        4
1040
173.3589031684203
1040
320.1379613356766
1040
167.3589031684205
1040
320.1379613356766
1040
167.3589031684205
1040
306.6379613356766
1040
173.3589031684204
1040
306.6379613356764
1071
        0
1071
        7
1070
     0
1070
     1
1071
        4
1040
179.3589031684204
1040
320.1379613356766
1040
173.3589031684204
1040
320.1379613356766
1040
173.3589031684204
1040
306.6379613356766
1040
179.3589031684204
1040
306.6379613356766
1071
        0
1071
        7
1070
     0
1070
     1
1071
        4
1040
179.3589031684204
1040
321.6379613356766
1040
173.3589031684204
1040
321.6379613356766
1040
173.3589031684204
1040
320.1379613356766
1040
179.3589031684204
1040
320.1379613356766
1071
        0
1071
        7
1070
     0
1070
     1
1071
        4
1040
173.3589031684204
1040
321.6379613356766
1040
167.3589031684205
1040
321.6379613356766
1040
167.3589031684205
1040
320.1379613356766
1040
173.3589031684204
1040
320.1379613356766
1071
        0
1071
        7
1070
     0
1070
     1
1071
        4
1040
173.3589031684204
1040
323.2379613356765
1040
167.3589031684205
1040
323.2379613356765
1040
167.3589031684205
1040
321.6379613356766
1040
173.3589031684204
1040
321.6379613356766
1071
        0
1071
        7
1070
     0
1070
     1
1071
        4
1040
179.3589031684204
1040
323.2379613356766
1040
173.3589031684204
1040
323.2379613356767
1040
173.3589031684204
1040
321.6379613356766
1040
179.3589031684204
1040
321.6379613356766
1071
        0
1071
        7
1070
     0
1070
     1
1071
        4
1040
173.3589031684204
1040
306.6379613356766
1040
167.3589031684205
1040
306.6379613356764
1040
167.3589031684205
1040
305.1379613356766
1040
173.3589031684204
1040
305.1379613356766
1071
        0
1071
        7
1070
     0
1070
     1
1071
        4
1040
179.3589031684204
1040
306.6379613356766
1040
173.3589031684204
1040
306.6379613356766
1040
173.3589031684204
1040
305.1379613356766
1040
179.3589031684204
1040
305.1379613356766
1071
        0
1070
     0
1070
     1
1040
0.0
1040
20.0
1070
     0
1070
     1
1040
0.7853981633974483
1040
0.0
1040
0.0
1040
-1.767766952966368
1040
1.767766952966368
1070
     0
1040
0.0762124715005813
1071
        8
1040
171.1395958609198
1040
309.8630447099937
1040
0.0
1040
177.3918810877431
1040
311.7683558241316
1040
0.0
1040
175.1044597992333
1040
320.8376409790245
1040
0.0
1040
170.6058638553709
1040
320.6090029740233
1040
0.0
1040
169.6146483352465
1040
322.5143154867126
1040
0.0
1040
174.8757180419456
1040
321.9046155385941
1040
0.0
1040
172.2833065051746
1040
305.7475704098314
1040
0.0
1040
176.4006655676186
1040
305.7475704098314
1040
0.0
1002
}
  0
DIMENSION
  5
D60
330
A
100
AcDbEntity
  8
SUNPOU
100
AcDbDimension
  2
*D33
 10
179.3589031684204
 20
293.6820922278718
 30
0.0
 11
173.3589031684204
 21
298.4093171293213
 31
0.0
 70
   160
  1
φ12
  3
SUNPOU_2
100
AcDbAlignedDimension
 13
167.3589031684205
 23
305.1379613356766
 33
0.0
 14
179.3589031684204
 24
305.1379613356766
 34
0.0
100
AcDbRotatedDimension
  0
LINE
  5
D61
330
A
100
AcDbEntity
  8
KAKURE
100
AcDbLine
 10
179.3589031684204
 20
323.2379613356765
 30
0.0
 11
179.3589031684204
 21
305.1379613356766
 31
0.0
  0
LINE
  5
D62
330
A
100
AcDbEntity
  8
KAKURE
100
AcDbLine
 10
167.3589031684205
 20
323.2379613356765
 30
0.0
 11
167.3589031684205
 21
305.1379613356766
 31
0.0
  0
LINE
  5
E13
330
A
100
AcDbEntity
  8
06
100
AcDbLine
 10
200.5404217926186
 20
228.8879613356764
 30
0.0
 11
200.5404217926186
 21
313.1379613356766
 31
0.0
  0
ARC
  5
E14
330
A
100
AcDbEntity
  8
06
100
AcDbCircle
 10
201.2904217926186
 20
228.8879613356764
 30
0.0
 40
0.75
100
AcDbArc
 50
180.0
 51
270.0000000000016
  0
LINE
  5
E15
330
A
100
AcDbEntity
  8
06
100
AcDbLine
 10
207.0404217926185
 20
228.1379613356764
 30
0.0
 11
201.2904217926185
 21
228.1379613356761
 31
0.0
  0
ARC
  5
E16
330
A
100
AcDbEntity
  8
06
100
AcDbCircle
 10
228.7904217926186
 20
228.8879613356765
 30
0.0
 40
0.75
100
AcDbArc
 50
270.0
 51
0.0
  0
LINE
  5
E17
330
A
100
AcDbEntity
  8
06
100
AcDbLine
 10
229.5404217926186
 20
313.1379613356766
 30
0.0
 11
229.5404217926186
 21
228.8879613356765
 31
0.0
  0
LINE
  5
E18
330
A
100
AcDbEntity
  8
06
100
AcDbLine
 10
223.0404217926186
 20
228.1379613356765
 30
0.0
 11
228.7904217926186
 21
228.1379613356765
 31
0.0
  0
LINE
  5
E24
330
A
100
AcDbEntity
  8
06
100
AcDbLine
 10
228.0404217926186
 20
313.1379613356766
 30
0.0
 11
229.5404217926186
 21
313.1379613356766
 31
0.0
  0
LINE
  5
E26
330
A
100
AcDbEntity
  8
06
100
AcDbLine
 10
229.5404217926186
 20
313.1379613356766
 30
0.0
 11
231.0404217926186
 21
313.1379613356766
 31
0.0
  0
LINE
  5
E29
330
A
100
AcDbEntity
  8
06
100
AcDbLine
 10
202.0404217926186
 20
313.1379613356766
 30
0.0
 11
200.5404217926186
 21
313.1379613356766
 31
0.0
  0
LINE
  5
E2A
330
A
100
AcDbEntity
  8
06
100
AcDbLine
 10
200.5404217926186
 20
313.1379613356766
 30
0.0
 11
199.0404217926186
 21
313.1379613356766
 31
0.0
  0
LINE
  5
E9A
330
A
100
AcDbEntity
  8
06
100
AcDbLine
 10
223.0404217926186
 20
195.4758026902793
 30
0.0
 11
228.7904217926188
 21
195.4758026902793
 31
0.0
  0
ARC
  5
E9B
330
A
100
AcDbEntity
  8
06
100
AcDbCircle
 10
228.7904217926189
 20
194.7258026902795
 30
0.0
 40
0.7500000000000001
100
AcDbArc
 50
0.0
 51
90.0
  0
LINE
  5
E9C
330
A
100
AcDbEntity
  8
06
100
AcDbLine
 10
207.0404217926185
 20
195.4758026902793
 30
0.0
 11
201.2904217926188
 21
195.4758026902793
 31
0.0
  0
ARC
  5
E9D
330
A
100
AcDbEntity
  8
06
100
AcDbCircle
 10
201.2904217926188
 20
194.7258026902795
 30
0.0
 40
0.7500000000000001
100
AcDbArc
 50
90.0
 51
180.0
  0
LINE
  5
EAE
330
A
100
AcDbEntity
  8
06
100
AcDbLine
 10
229.5404217926185
 20
194.7258026902795
 30
0.0
 11
229.5404217926185
 21
111.97580269028
 31
0.0
  0
LINE
  5
EAF
330
A
100
AcDbEntity
  8
06
100
AcDbLine
 10
200.5404217926189
 20
194.7258026902795
 30
0.0
 11
200.5404217926188
 21
111.9758026902792
 31
0.0
  0
LINE
  5
EE2
330
A
100
AcDbEntity
  8
06
100
AcDbLine
 10
228.0404217926185
 20
319.1379613356766
 30
0.0
 11
202.0404217926186
 21
319.1379613356766
 31
0.0
  0
LINE
  5
EE3
330
A
100
AcDbEntity
  8
06
100
AcDbLine
 10
202.0404217926186
 20
315.1379613356766
 30
0.0
 11
202.0404217926186
 21
319.1379613356766
 31
0.0
  0
LINE
  5
EE4
330
A
100
AcDbEntity
  8
06
100
AcDbLine
 10
228.0404217926185
 20
315.1379613356766
 30
0.0
 11
228.0404217926185
 21
319.1379613356766
 31
0.0
  0
LINE
  5
1078
330
A
100
AcDbEntity
  8
06
100
AcDbLine
 10
202.040421792619
 20
193.9758026902792
 30
0.0
 11
207.0404195222591
 21
193.9758026902792
 31
0.0
  0
LINE
  5
1079
330
A
100
AcDbEntity
  8
06
100
AcDbLine
 10
223.0404195222591
 20
193.9758026902793
 30
0.0
 11
228.040421792619
 21
193.975802690279
 31
0.0
  0
LINE
  5
1080
330
A
100
AcDbEntity
  8
06
100
AcDbLine
 10
228.040421792619
 20
193.975802690279
 30
0.0
 11
228.0404217926192
 21
111.9758026902798
 31
0.0
  0
LINE
  5
1081
330
A
100
AcDbEntity
  8
06
100
AcDbLine
 10
202.040421792619
 20
111.9758026902798
 30
0.0
 11
202.040421792619
 21
193.9758026902792
 31
0.0
  0
ARC
  5
108A
330
A
100
AcDbEntity
  8
06
100
AcDbCircle
 10
205.0404217926185
 20
190.9758026902796
 30
0.0
 40
3.0
100
AcDbArc
 50
90.00000307046915
 51
179.9999984647655
  0
LINE
  5
108C
330
A
100
AcDbEntity
  8
06
100
AcDbLine
 10
202.040421792619
 20
312.6379613356766
 30
0.0
 11
202.040421792619
 21
229.6379613356763
 31
0.0
  0
ARC
  5
108D
330
A
100
AcDbEntity
  8
06
100
AcDbCircle
 10
205.0404217926185
 20
232.637961335676
 30
0.0
 40
3.0
100
AcDbArc
 50
180.0000015352344
 51
269.9999969295308
  0
LINE
  5
108E
330
A
100
AcDbEntity
  8
06
100
AcDbLine
 10
228.040421792619
 20
229.6379613356767
 30
0.0
 11
228.0404217926192
 21
312.6379613356766
 31
0.0
  0
ARC
  5
108F
330
A
100
AcDbEntity
  8
06
100
AcDbCircle
 10
225.040421792619
 20
232.6379613356758
 30
0.0
 40
3.0
100
AcDbArc
 50
270.0000030704688
 51
359.9999984647652
  0
LINE
  5
1090
330
A
100
AcDbEntity
  8
06
100
AcDbLine
 10
223.0404195222591
 20
229.6379613356763
 30
0.0
 11
228.040421792619
 21
229.6379613356767
 31
0.0
  0
LINE
  5
1091
330
A
100
AcDbEntity
  8
06
100
AcDbLine
 10
202.040421792619
 20
229.6379613356764
 30
0.0
 11
207.0404195222591
 21
229.6379613356764
 31
0.0
  0
DIMENSION
  5
10A5
330
A
100
AcDbEntity
  8
SUNPOU
100
AcDbDimension
  2
*D34
 10
215.5404217926184
 20
393.3001942575471
 30
0.0
 11
203.9121943432164
 21
397.8001942575471
 31
0.0
 70
   160
  3
SUNPOU_2
100
AcDbAlignedDimension
 13
196.0404217926186
 23
379.1379613356766
 33
0.0
 14
215.5404217926184
 24
393.3001942575471
 34
0.0
100
AcDbRotatedDimension
  0
LINE
  5
10EF
330
A
100
AcDbEntity
  8
06
100
AcDbLine
 10
223.0404217926184
 20
256.6379613356765
 30
0.0
 11
207.0404217926184
 21
256.6379613356765
 31
0.0
  0
LINE
  5
10F0
330
A
100
AcDbEntity
  8
06
100
AcDbLine
 10
207.0404217926184
 20
256.6379613356765
 30
0.0
 11
207.0404195222591
 21
228.1379613356764
 31
0.0
  0
LINE
  5
10F1
330
A
100
AcDbEntity
  8
06
100
AcDbLine
 10
223.0404217926184
 20
256.6379613356765
 30
0.0
 11
223.0404214546723
 21
228.1379614551585
 31
0.0
  0
LINE
  5
10F2
330
A
100
AcDbEntity
  8
06
100
AcDbLine
 10
207.040421792619
 20
195.4758026902793
 30
0.0
 11
207.040421792619
 21
166.9758026902798
 31
0.0
  0
LINE
  5
10F3
330
A
100
AcDbEntity
  8
06
100
AcDbLine
 10
223.040421792619
 20
195.4758026902793
 30
0.0
 11
223.0404217926188
 21
166.9758026902796
 31
0.0
  0
LINE
  5
10F4
330
A
100
AcDbEntity
  8
06
100
AcDbLine
 10
223.040421792619
 20
166.9758026902796
 30
0.0
 11
207.040421792619
 21
166.9758026902798
 31
0.0
  0
CIRCLE
  5
11B9
330
A
100
AcDbEntity
  8
SAISEN
100
AcDbCircle
 10
392.0976380784291
 20
49.5430264122316
 30
0.0
 40
5.0
  0
TEXT
  5
11BA
330
A
100
AcDbEntity
  8
MOJI
100
AcDbText
 10
389.0488190392131
 20
45.27151320611588
 30
0.0
 40
8.0
  1
Ｓ
 41
0.8
  7
0_8
 11
389.0488190392131
 21
53.27151320611588
 31
0.0
100
AcDbText
 73
     3
  0
MTEXT
  5
12BB
330
A
100
AcDbEntity
  8
MOJI
100
AcDbMText
 10
360.999999999997
 20
28.50000000000011
 30
0.0
 40
7.0
 41
49.99999999999994
 71
     5
 72
     1
  1
たて断面図　
  7
0_80
1001
ACAD
1000
MTEXTBEGIN
1070
    73
1070
     1
1070
    44
1040
1.0
1070
    74
1070
     0
1000
MTEXTEND
1000
MTEXTBEGIN
1070
    73
1070
     1
1070
    44
1040
1.0
1070
    74
1070
     0
1000
MTEXTEND
  0
MTEXT
  5
12BC
330
A
100
AcDbEntity
  8
MOJI
100
AcDbMText
 10
310.9999999999968
 20
29.0
 30
0.0
 40
7.0
 41
50.0
 71
     5
 72
     1
  1
図番５－２
  7
0_80
1001
ACAD
1000
MTEXTBEGIN
1070
    73
1070
     1
1070
    44
1040
1.0
1070
    74
1070
     0
1000
MTEXTEND
1000
MTEXTBEGIN
1070
    73
1070
     1
1070
    44
1040
1.0
1070
    74
1070
     0
1000
MTEXTEND
  0
MTEXT
  5
12BD
330
A
100
AcDbEntity
  8
MOJI
100
AcDbMText
 10
255.9999999999999
 20
29.00000000000011
 30
0.0
 40
7.0
 41
60.0
 71
     5
 72
     1
  1
片引き又は両引き
  7
0_80
1001
ACAD
1000
MTEXTBEGIN
1070
    73
1070
     1
1070
    44
1040
1.0
1070
    74
1070
     0
1000
MTEXTEND
1000
MTEXTBEGIN
1070
    73
1070
     1
1070
    44
1040
1.0
1070
    74
1070
     0
1000
MTEXTEND
  0
POLYLINE
  5
12BE
330
A
100
AcDbEntity
  8
SAISEN
100
AcDb2dPolyline
 66
     1
 10
0.0
 20
0.0
 30
0.0
 70
     1
  0
VERTEX
  5
1313
330
12BE
100
AcDbEntity
  8
SAISEN
100
AcDbVertex
100
AcDb2dVertex
 10
35.99999999999698
 20
17.0
 30
0.0
  0
VERTEX
  5
1314
330
12BE
100
AcDbEntity
  8
SAISEN
100
AcDbVertex
100
AcDb2dVertex
 10
385.999999999997
 20
17.0
 30
0.0
  0
VERTEX
  5
1315
330
12BE
100
AcDbEntity
  8
SAISEN
100
AcDbVertex
100
AcDb2dVertex
 10
385.999999999997
 20
41.00000000000022
 30
0.0
  0
VERTEX
  5
1316
330
12BE
100
AcDbEntity
  8
SAISEN
100
AcDbVertex
100
AcDb2dVertex
 10
35.99999999999698
 20
41.00000000000022
 30
0.0
  0
SEQEND
  5
1317
330
12BE
100
AcDbEntity
  8
SAISEN
  0
MTEXT
  5
12BF
330
A
100
AcDbEntity
  8
MOJI
100
AcDbMText
 10
185.9999999999969
 20
29.00000000000011
 30
0.0
 40
7.0
 41
80.0
 71
     5
 72
     1
  1
ＳＯＶ－２００ＫＤＣ
  7
0_8
1001
ACAD
1000
MTEXTBEGIN
1070
    73
1070
     1
1070
    44
1040
1.0
1070
    74
1070
     0
1000
MTEXTEND
1000
MTEXTBEGIN
1070
    73
1070
     1
1070
    44
1040
1.0
1070
    74
1070
     0
1000
MTEXTEND
  0
LINE
  5
12C0
330
A
100
AcDbEntity
  8
SAISEN
100
AcDbLine
 10
145.9999999999969
 20
41.00000000000022
 30
0.0
 11
145.9999999999969
 21
17.0
 31
0.0
  0
LINE
  5
12C1
330
A
100
AcDbEntity
  8
SAISEN
100
AcDbLine
 10
225.999999999997
 20
41.00000000000022
 30
0.0
 11
225.999999999997
 21
17.0
 31
0.0
  0
LINE
  5
12C2
330
A
100
AcDbEntity
  8
SAISEN
100
AcDbLine
 10
285.999999999997
 20
41.00000000000022
 30
0.0
 11
285.999999999997
 21
17.0
 31
0.0
  0
MTEXT
  5
12C3
330
A
100
AcDbEntity
  8
MOJI
100
AcDbMText
 10
90.99999999999701
 20
29.00000000000011
 30
0.0
 40
7.0
 41
110.0
 71
     5
 72
     1
  1
ステンレスサッシ　方立て通し納り
  7
0_8
1001
ACAD
1000
MTEXTBEGIN
1070
    73
1070
     1
1070
    44
1040
1.0
1070
    74
1070
     0
1000
MTEXTEND
1000
MTEXTBEGIN
1070
    73
1070
     1
1070
    44
1040
1.0
1070
    74
1070
     0
1000
MTEXTEND
  0
VIEWPORT
  5
B49
102
{ACAD_XDICTIONARY
360
12F3
102
}
330
B
100
AcDbEntity
 67
     1
  8
0
100
AcDbViewport
 10
198.0508299538852
 20
285.1874487354477
 30
0.0
 40
1080.347564134148
 41
628.3535021666721
 68
     1
 69
     1
1001
ACAD
1000
MVIEW
1002
{
1070
    16
1010
0.0
1020
0.0
1030
0.0
1010
0.0
1020
0.0
1030
1.0
1040
0.0
1040
628.3535021666721
1040
198.0508299538852
1040
285.1874487354477
1040
50.0
1040
0.0
1040
0.0
1070
     0
1070
   100
1070
     1
1070
     1
1070
     0
1070
     0
1070
     0
1070
     0
1040
0.0
1040
0.0
1040
0.0
1040
10.0
1040
10.0
1040
10.0
1040
10.0
1070
     0
1002
{
1002
}
1002
}
  0
VIEWPORT
  5
12DC
102
{ACAD_XDICTIONARY
360
12F9
102
}
330
B
100
AcDbEntity
 67
     1
  8
DEFPOINTS
100
AcDbViewport
 10
198.0508309076477
 20
285.1874477816852
 30
0.0
 40
396.4883172119752
 41
570.409736121624
 68
     2
 69
     2
1001
ACAD
1000
MVIEW
1002
{
1070
    16
1010
0.0
1020
0.0
1030
0.0
1010
0.0
1020
0.0
1030
1.0
1040
0.0
1040
570.409736121624
1040
210.0
1040
297.0
1040
50.0
1040
0.0
1040
0.0
1070
     0
1070
   100
1070
     1
1070
     1
1070
     0
1070
     0
1070
     0
1070
     0
1040
0.0
1040
0.0
1040
0.0
1040
1.0
1040
1.0
1040
0.0
1040
0.0
1070
     0
1002
{
1002
}
1002
}
  0
ENDSEC
  0
SECTION
  2
OBJECTS
  0
DICTIONARY
  5
19
330
0
100
AcDbDictionary
  3
ACAD_COLOR
350
59C
  3
ACAD_GROUP
350
1A
  3
ACAD_LAYOUT
350
59D
  3
ACAD_MATERIAL
350
59B
  3
ACAD_MLINESTYLE
350
1B
  3
ACAD_PLOTSETTINGS
350
59E
  3
ACADDIM
350
CE3
  3
ASE_INDEX_DICTIONARY
350
12C4
1001
ACAD
1000
TREAT_AS_HARD
1070
     0
1000
TREAT_AS_HARD
1070
     0
  0
DICTIONARY
  5
12AB
330
2
100
AcDbDictionary
  3
ACAD_LAYERSTATES
350
12AC
1001
ACAD
1000
TREAT_AS_HARD
1070
     1
  0
DICTIONARY
  5
124F
330
A
100
AcDbDictionary
  3
ACAD_LAYOUTSELFREF
350
1301
1001
ACAD
1000
TREAT_AS_HARD
1070
     1
  0
DICTIONARY
  5
1251
330
B
100
AcDbDictionary
  3
ACAD_LAYOUTSELFREF
350
1302
1001
ACAD
1000
TREAT_AS_HARD
1070
     1
  0
DICTIONARY
  5
12F3
330
B49
100
AcDbDictionary
  3
ACAD_XREC_ROUNDTRIP
350
12F4
1001
ACAD
1000
TREAT_AS_HARD
1070
     1
  0
DICTIONARY
  5
12F9
330
12DC
100
AcDbDictionary
  3
ACAD_XREC_ROUNDTRIP
350
12FA
1001
ACAD
1000
TREAT_AS_HARD
1070
     1
  0
DICTIONARY
  5
59C
102
{ACAD_REACTORS
330
19
102
}
330
19
100
AcDbDictionary
1001
ACAD
1000
TREAT_AS_HARD
1070
     0
1000
TREAT_AS_HARD
1070
     0
  0
DICTIONARY
  5
1A
102
{ACAD_REACTORS
330
19
102
}
330
19
100
AcDbDictionary
  3
DAGROUP4EA
350
4EA
1001
ACAD
1000
TREAT_AS_HARD
1070
     0
1000
TREAT_AS_HARD
1070
     0
  0
DICTIONARY
  5
59D
102
{ACAD_REACTORS
330
19
102
}
330
19
100
AcDbDictionary
1001
ACAD
1000
TREAT_AS_HARD
1070
     0
1000
TREAT_AS_HARD
1070
     0
  0
DICTIONARY
  5
59B
102
{ACAD_REACTORS
330
19
102
}
330
19
100
AcDbDictionary
1001
ACAD
1000
TREAT_AS_HARD
1070
     0
1000
TREAT_AS_HARD
1070
     0
  0
DICTIONARY
  5
1B
102
{ACAD_REACTORS
330
19
102
}
330
19
100
AcDbDictionary
  3
STANDARD
350
1C
1001
ACAD
1000
TREAT_AS_HARD
1070
     0
1000
TREAT_AS_HARD
1070
     0
  0
DICTIONARY
  5
59E
102
{ACAD_REACTORS
330
19
102
}
330
19
100
AcDbDictionary
1001
ACAD
1000
TREAT_AS_HARD
1070
     0
1000
TREAT_AS_HARD
1070
     0
  0
XRECORD
  5
CE3
102
{ACAD_REACTORS
330
19
102
}
330
19
100
AcDbXrecord
 90
   990106
  3

 60
     0
 61
     0
 62
     4
 63
     4
 64
     1
 65
     0
 66
     0
 67
     3
 68
     1
 69
     0
 70
     0
 71
     0
 72
     0
 40
0.0
170
     2
340
CE6
  0
DICTIONARY
  5
12C4
102
{ACAD_REACTORS
330
19
102
}
330
19
100
AcDbDictionary
  3
ASEBLOCKHIERARCHYINDEXRECORD
350
12C5
1001
DCO15
1040
1508668961.156
1001
ACAD
1000
TREAT_AS_HARD
1070
     0
  0
DICTIONARY
  5
12AC
102
{ACAD_REACTORS
330
12AB
102
}
330
12AB
100
AcDbDictionary
1001
ACAD
1000
TREAT_AS_HARD
1070
     0
  0
XRECORD
  5
1301
102
{ACAD_REACTORS
330
124F
102
}
330
124F
100
AcDbXrecord
340
A
  0
XRECORD
  5
1302
102
{ACAD_REACTORS
330
1251
102
}
330
1251
100
AcDbXrecord
340
B
  0
XRECORD
  5
12F4
102
{ACAD_REACTORS
330
12F3
102
}
330
12F3
100
AcDbXrecord
102
SHADEPLOT
 70
     0
  0
XRECORD
  5
12FA
102
{ACAD_REACTORS
330
12F9
102
}
330
12F9
100
AcDbXrecord
102
SHADEPLOT
 70
     0
  0
GROUP
  5
4EA
102
{ACAD_REACTORS
330
1A
102
}
330
1A
100
AcDbGroup
300

 70
     0
 71
     1
  0
MLINESTYLE
  5
1C
102
{ACAD_REACTORS
330
1B
102
}
330
1B
100
AcDbMlineStyle
  2
STANDARD
 70
     0
  3

 62
     0
 51
90.00000000000019
 52
90.00000000000019
 71
     2
 49
0.5
 62
   256
  6
BYLAYER
 49
-0.5
 62
   256
  6
BYLAYER
  0
XRECORD
  5
12C5
102
{ACAD_REACTORS
330
12C4
102
}
330
12C4
100
AcDbXrecord
330
880
330
D5F
330
102D
330
102E
330
1025
330
1026
330
101B
330
101C
330
1012
330
1013
330
1177
330
1178
330
116E
330
116F
330
FF7
330
FF8
330
FEE
330
FEF
330
FE5
330
FE6
330
FDC
330
FDD
330
FD4
330
FD5
330
FC8
330
FC9
330
FBD
330
FBE
330
FB4
330
FB5
330
FAB
330
FAC
330
FA2
330
FA3
330
112B
330
112C
330
F8F
330
F90
330
F88
330
F87
330
F7C
330
F7D
330
F73
330
F74
330
F68
330
F67
330
F60
330
F5F
330
F55
330
F56
330
F4C
330
F4D
330
F44
330
F45
330
F3A
330
F3B
330
F33
330
F34
330
F2A
330
F2B
330
F20
330
F1F
330
F16
330
F17
330
114C
330
114D
330
F02
330
F03
330
10C8
330
10C9
  0
ENDSEC
  0
EOF
