  0
SECTION
  2
HEADER
  9
$ACADVER
  1
AC1012
  9
$DWGCODEPAGE
  3
dos932
  9
$INSBASE
 10
0.0
 20
0.0
 30
0.0
  9
$EXTMIN
 10
0.0
 20
-0.0000000000002274
 30
0.0
  9
$EXTMAX
 10
1260.0
 20
1782.0
 30
0.0
  9
$LIMMIN
 10
0.0
 20
0.0
  9
$LIMMAX
 10
1260.0
 20
1781.999999999999
  9
$ORTHOMODE
 70
     1
  9
$REGENMODE
 70
     1
  9
$FILLMODE
 70
     1
  9
$QTEXTMODE
 70
     0
  9
$MIRRTEXT
 70
     1
  9
$DRAGMODE
 70
     2
  9
$LTSCALE
 40
0.9
  9
$OSMODE
 70
    37
  9
$ATTMODE
 70
     1
  9
$TEXTSIZE
 40
10.0
  9
$TRACEWID
 40
0.05
  9
$TEXTSTYLE
  7
STANDARD
  9
$CLAYER
  8
0
  9
$CELTYPE
  6
BYLAYER
  9
$CECOLOR
 62
   256
  9
$CELTSCALE
 40
0.9
  9
$DELOBJ
 70
     1
  9
$DISPSILH
 70
     0
  9
$DIMSCALE
 40
2.0
  9
$DIMASZ
 40
2.5
  9
$DIMEXO
 40
1.5
  9
$DIMDLI
 40
0.0
  9
$DIMRND
 40
0.0
  9
$DIMDLE
 40
0.0
  9
$DIMEXE
 40
1.0
  9
$DIMTP
 40
0.0
  9
$DIMTM
 40
0.0
  9
$DIMTXT
 40
2.5
  9
$DIMCEN
 40
0.0
  9
$DIMTSZ
 40
0.0
  9
$DIMTOL
 70
     0
  9
$DIMLIM
 70
     0
  9
$DIMTIH
 70
     0
  9
$DIMTOH
 70
     0
  9
$DIMSE1
 70
     0
  9
$DIMSE2
 70
     0
  9
$DIMTAD
 70
     1
  9
$DIMZIN
 70
     8
  9
$DIMBLK
  1
OPEN30
  9
$DIMASO
 70
     1
  9
$DIMSHO
 70
     1
  9
$DIMPOST
  1

  9
$DIMAPOST
  1

  9
$DIMALT
 70
     0
  9
$DIMALTD
 70
     2
  9
$DIMALTF
 40
25.4
  9
$DIMLFAC
 40
1.0
  9
$DIMTOFL
 70
     1
  9
$DIMTVP
 40
0.0
  9
$DIMTIX
 70
     0
  9
$DIMSOXD
 70
     0
  9
$DIMSAH
 70
     0
  9
$DIMBLK1
  1

  9
$DIMBLK2
  1

  9
$DIMSTYLE
  2
SUNPOU_2
  9
$DIMCLRD
 70
   256
  9
$DIMCLRE
 70
   256
  9
$DIMCLRT
 70
   256
  9
$DIMTFAC
 40
1.0
  9
$DIMGAP
 40
1.0
  9
$DIMJUST
 70
     0
  9
$DIMSD1
 70
     0
  9
$DIMSD2
 70
     0
  9
$DIMTOLJ
 70
     1
  9
$DIMTZIN
 70
     0
  9
$DIMALTZ
 70
     0
  9
$DIMALTTZ
 70
     0
  9
$DIMFIT
 70
     3
  9
$DIMUPT
 70
     0
  9
$DIMUNIT
 70
     2
  9
$DIMDEC
 70
     1
  9
$DIMTDEC
 70
     1
  9
$DIMALTU
 70
     2
  9
$DIMALTTD
 70
     2
  9
$DIMTXSTY
  7
SUNPOU
  9
$DIMAUNIT
 70
     0
  9
$LUNITS
 70
     2
  9
$LUPREC
 70
     4
  9
$SKETCHINC
 40
0.1
  9
$FILLETRAD
 40
0.0
  9
$AUNITS
 70
     0
  9
$AUPREC
 70
     0
  9
$MENU
  1
acad
  9
$ELEVATION
 40
0.0
  9
$PELEVATION
 40
0.0
  9
$THICKNESS
 40
0.0
  9
$LIMCHECK
 70
     0
  9
$BLIPMODE
 70
     0
  9
$CHAMFERA
 40
0.0
  9
$CHAMFERB
 40
0.0
  9
$CHAMFERC
 40
0.0
  9
$CHAMFERD
 40
0.0
  9
$SKPOLY
 70
     0
  9
$TDCREATE
 40
2444972.375000000
  9
$TDUPDATE
 40
2453266.397924259
  9
$TDINDWG
 40
0.3773390509
  9
$TDUSRTIMER
 40
0.3773390509
  9
$USRTIMER
 70
     1
  9
$ANGBASE
 50
0.0
  9
$ANGDIR
 70
     0
  9
$PDMODE
 70
     0
  9
$PDSIZE
 40
1.0
  9
$PLINEWID
 40
0.0
  9
$COORDS
 70
     1
  9
$SPLFRAME
 70
     0
  9
$SPLINETYPE
 70
     6
  9
$SPLINESEGS
 70
     8
  9
$ATTDIA
 70
     0
  9
$ATTREQ
 70
     1
  9
$HANDLING
 70
-16383
  9
$HANDSEED
  5
2B27
  9
$SURFTAB1
 70
     6
  9
$SURFTAB2
 70
     6
  9
$SURFTYPE
 70
     6
  9
$SURFU
 70
     6
  9
$SURFV
 70
     6
  9
$UCSNAME
  2

  9
$UCSORG
 10
0.0
 20
0.0
 30
0.0
  9
$UCSXDIR
 10
1.0
 20
0.0
 30
0.0
  9
$UCSYDIR
 10
0.0
 20
1.0
 30
0.0
  9
$PUCSNAME
  2

  9
$PUCSORG
 10
0.0
 20
0.0
 30
0.0
  9
$PUCSXDIR
 10
1.0
 20
0.0
 30
0.0
  9
$PUCSYDIR
 10
0.0
 20
1.0
 30
0.0
  9
$USERI1
 70
     0
  9
$USERI2
 70
     0
  9
$USERI3
 70
     0
  9
$USERI4
 70
     0
  9
$USERI5
 70
     0
  9
$USERR1
 40
0.0
  9
$USERR2
 40
0.0
  9
$USERR3
 40
0.0
  9
$USERR4
 40
0.0
  9
$USERR5
 40
0.0
  9
$WORLDVIEW
 70
     1
  9
$SHADEDGE
 70
     3
  9
$SHADEDIF
 70
    70
  9
$TILEMODE
 70
     1
  9
$MAXACTVP
 70
    16
  9
$PINSBASE
 10
0.0
 20
0.0
 30
0.0
  9
$PLIMCHECK
 70
     0
  9
$PEXTMIN
 10
-0.5205239703091138
 20
-0.0522608373807998
 30
-0.0015258207003583
  9
$PEXTMAX
 10
1188.845605789304
 20
1711.17694752749
 30
0.0000000349246037
  9
$PLIMMIN
 10
-35.76243156030248
 20
-35.23474779111614
  9
$PLIMMAX
 10
1224.07753426001
 20
1746.321221447165
  9
$UNITMODE
 70
     0
  9
$VISRETAIN
 70
     0
  9
$PLINEGEN
 70
     1
  9
$PSLTSCALE
 70
     0
  9
$TREEDEPTH
 70
  3020
  9
$PICKSTYLE
 70
     1
  9
$CMLSTYLE
  2
STANDARD
  9
$CMLJUST
 70
     0
  9
$CMLSCALE
 40
1.0
  9
$SAVEIMAGES
 70
     1
  0
ENDSEC
  0
SECTION
  2
CLASSES
  0
CLASS
  1
LWPOLYLINE
  2
AcDbPolyline
  3
AutoCAD 2000
 90
    32768
280
     0
281
     1
  0
CLASS
  1
IMAGE
  2
AcDbRasterImage
  3
ISM
 90
    32895
280
     0
281
     1
  0
CLASS
  1
OLE2FRAME
  2
AcDbOle2Frame
  3
AutoCAD 2000
 90
    32768
280
     0
281
     1
  0
CLASS
  1
HATCH
  2
AcDbHatch
  3
AutoCAD 2000
 90
    32768
280
     0
281
     1
  0
CLASS
  1
DICTIONARYVAR
  2
AcDbDictionaryVar
  3
AutoCAD 2000
 90
    32768
280
     0
281
     0
  0
CLASS
  1
RASTERVARIABLES
  2
AcDbRasterVariables
  3
ISM
 90
    32768
280
     0
281
     0
  0
CLASS
  1
IMAGEDEF
  2
AcDbRasterImageDef
  3
ISM
 90
    32768
280
     0
281
     0
  0
CLASS
  1
IMAGEDEF_REACTOR
  2
AcDbRasterImageDefReactor
  3
ISM
 90
    32769
280
     0
281
     0
  0
CLASS
  1
IDBUFFER
  2
AcDbIdBuffer
  3
AutoCAD 2000
 90
    32768
280
     0
281
     0
  0
CLASS
  1
SPATIAL_FILTER
  2
AcDbSpatialFilter
  3
AutoCAD 2000
 90
    32768
280
     0
281
     0
  0
CLASS
  1
XRECORD
  2
AcDbXrecord
  3
AutoCAD 2000
 90
    32768
280
     0
281
     0
  0
CLASS
  1
SORTENTSTABLE
  2
AcDbSortentsTable
  3
AutoCAD 2000
 90
    32768
280
     0
281
     0
  0
CLASS
  1
LAYER_INDEX
  2
AcDbLayerIndex
  3
AutoCAD 2000
 90
    32768
280
     0
281
     0
  0
CLASS
  1
SPATIAL_INDEX
  2
AcDbSpatialIndex
  3
AutoCAD 2000
 90
    32768
280
     0
281
     0
  0
CLASS
  1
OBJECT_PTR
  2
CAseDLPNTableRecord
  3
ASE-LPNTableRecord
 90
    32769
280
     0
281
     0
  0
CLASS
  1
LAYOUT
  2
AcDbLayout
  3
AutoCAD 2000
 90
    32768
280
     0
281
     0
  0
CLASS
  1
PLOTSETTINGS
  2
AcDbPlotSettings
  3
AutoCAD 2000
 90
    32768
280
     0
281
     0
  0
CLASS
  1
ACDBDICTIONARYWDFLT
  2
AcDbDictionaryWithDefault
  3
AutoCAD 2000
 90
    32768
280
     0
281
     0
  0
CLASS
  1
ACDBPLACEHOLDER
  2
AcDbPlaceHolder
  3
AutoCAD 2000
 90
    32768
280
     0
281
     0
  0
CLASS
  1
VBA_PROJECT
  2
AcDbVbaProject
  3
acad
 90
    32768
280
     0
281
     0
  0
CLASS
  1
WIPEOUT
  2
AcDbWipeout
  3
"WipeOut|Product Desc: Object Enabler for WipeOut entity^I^I^I^I^I^I|Company: Autodesk, Inc.^I^I^I^I^I^I|WEB Address: www.autodesk.com"
 90
    32895
280
     0
281
     1
  0
CLASS
  1
WIPEOUTVARIABLES
  2
AcDbWipeoutVariables
  3
"WipeOut|Product Desc:     WipeOut Dbx Application|Company:          Autodesk, Inc.|WEB Address:      www.autodesk.com"
 90
    32768
280
     0
281
     0
  0
CLASS
  1
RTEXT
  2
RText
  3
RText|AutoCAD Express Tool|expresstools@autodesk.com
 90
    32768
280
     0
281
     1
  0
CLASS
  1
ARCALIGNEDTEXT
  2
AcDbArcAlignedText
  3
ATEXT|AutoCAD Express Tool|expresstools@autodesk.com
 90
    32768
280
     0
281
     1
  0
CLASS
  1
LONG_TRANSACTION
  2
AcDbLongTransaction
  3
AutoCAD 2000
 90
    32768
280
     0
281
     0
  0
CLASS
  1
LWPOLYLINE
  2
AcDbPolyline
  3
AutoCAD 2000
 90
    32768
280
     0
281
     1
  0
CLASS
  1
HATCH
  2
AcDbHatch
  3
AutoCAD 2000
 90
    32768
280
     0
281
     1
  0
CLASS
  1
XRECORD
  2
AcDbXrecord
  3
AutoCAD 2000
 90
    32768
280
     0
281
     0
  0
CLASS
  1
LONG_TRANSACTION
  2
AcDbLongTransaction
  3
AutoCAD 2000
 90
    32768
280
     0
281
     0
  0
CLASS
  1
LWPOLYLINE
  2
AcDbPolyline
  3
AutoCAD 2000
 90
    32768
280
     0
281
     1
  0
CLASS
  1
HATCH
  2
AcDbHatch
  3
AutoCAD 2000
 90
    32768
280
     0
281
     1
  0
CLASS
  1
XRECORD
  2
AcDbXrecord
  3
AutoCAD 2000
 90
    32768
280
     0
281
     0
  0
ENDSEC
  0
SECTION
  2
TABLES
  0
TABLE
  2
VPORT
  5
7
330
0
100
AcDbSymbolTable
 70
     2
  0
VPORT
  5
2B19
330
7
100
AcDbSymbolTableRecord
100
AcDbViewportTableRecord
  2
*ACTIVE
 70
     0
 10
0.0
 20
0.0
 11
1.0
 21
1.0
 12
685.0768537241724
 22
891.0000041490421
 13
0.0
 23
0.0
 14
1.0
 24
1.0
 15
0.0
 25
0.0
 16
0.0
 26
0.0
 36
1.0
 17
0.0
 27
0.0
 37
0.0
 40
1802.49039092127
 41
1.780442804428044
 42
50.0
 43
0.0
 44
0.0
 50
0.0
 51
0.0
 71
     0
 72
   100
 73
     1
 74
     1
 75
     0
 76
     0
 77
     0
 78
     0
  0
ENDTAB
  0
TABLE
  2
LTYPE
  5
4
330
0
100
AcDbSymbolTable
 70
     3
  0
LTYPE
  5
11
330
4
100
AcDbSymbolTableRecord
100
AcDbLinetypeTableRecord
  2
BYBLOCK
 70
     0
  3

 72
    65
 73
     0
 40
0.0
  0
LTYPE
  5
12
330
4
100
AcDbSymbolTableRecord
100
AcDbLinetypeTableRecord
  2
BYLAYER
 70
     0
  3

 72
    65
 73
     0
 40
0.0
  0
LTYPE
  5
13
330
4
100
AcDbSymbolTableRecord
100
AcDbLinetypeTableRecord
  2
CONTINUOUS
 70
     0
  3
Solid line
 72
    65
 73
     0
 40
0.0
  0
LTYPE
  5
21
330
4
100
AcDbSymbolTableRecord
100
AcDbLinetypeTableRecord
  2
DASHED2
 70
     0
  3
Dashed (.5x) _ _ _ _ _ _ _ _ _ _ _ _ _ _ _ _ _
 72
    65
 73
     2
 40
9.524999999999996
 49
6.349999999999998
 74
     0
 49
-3.174999999999998
 74
     0
  0
LTYPE
  5
14F0
330
4
100
AcDbSymbolTableRecord
100
AcDbLinetypeTableRecord
  2
CENTER2
 70
     0
  3
Center (.5x) ___ _ ___ _ ___ _ ___ _ ___ _ ___
 72
    65
 73
     4
 40
28.57499999999999
 49
19.05
 74
     0
 49
-3.174999999999998
 74
     0
 49
3.174999999999998
 74
     0
 49
-3.174999999999998
 74
     0
  0
ENDTAB
  0
TABLE
  2
LAYER
  5
2
102
{ACAD_XDICTIONARY
360
289B
102
}
330
0
100
AcDbSymbolTable
 70
    13
  0
LAYER
  5
14
330
2
100
AcDbSymbolTableRecord
100
AcDbLayerTableRecord
  2
0
 70
     0
 62
     7
  6
CONTINUOUS
  0
LAYER
  5
14F2
330
2
100
AcDbSymbolTableRecord
100
AcDbLayerTableRecord
  2
DEFPOINTS
 70
     0
 62
     7
  6
CONTINUOUS
  0
LAYER
  5
14F3
330
2
100
AcDbSymbolTableRecord
100
AcDbLayerTableRecord
  2
03
 70
     0
 62
     3
  6
CONTINUOUS
  0
LAYER
  5
14F4
330
2
100
AcDbSymbolTableRecord
100
AcDbLayerTableRecord
  2
04
 70
     0
 62
     4
  6
CONTINUOUS
  0
LAYER
  5
14F5
330
2
100
AcDbSymbolTableRecord
100
AcDbLayerTableRecord
  2
06
 70
     0
 62
     6
  6
CONTINUOUS
  0
LAYER
  5
14F7
330
2
100
AcDbSymbolTableRecord
100
AcDbLayerTableRecord
  2
09
 70
     0
 62
     9
  6
CONTINUOUS
  0
LAYER
  5
14F8
330
2
100
AcDbSymbolTableRecord
100
AcDbLayerTableRecord
  2
CHUSIN
 70
     0
 62
     6
  6
CENTER2
  0
LAYER
  5
14FA
330
2
100
AcDbSymbolTableRecord
100
AcDbLayerTableRecord
  2
HIKIDASI
 70
     0
 62
     6
  6
CONTINUOUS
  0
LAYER
  5
14FB
330
2
100
AcDbSymbolTableRecord
100
AcDbLayerTableRecord
  2
KAKURE
 70
     0
 62
     6
  6
DASHED2
  0
LAYER
  5
14FC
330
2
100
AcDbSymbolTableRecord
100
AcDbLayerTableRecord
  2
MOJI
 70
     0
 62
     3
  6
CONTINUOUS
  0
LAYER
  5
14FE
330
2
100
AcDbSymbolTableRecord
100
AcDbLayerTableRecord
  2
SUNPOU
 70
     0
 62
     6
  6
CONTINUOUS
  0
LAYER
  5
14FF
330
2
100
AcDbSymbolTableRecord
100
AcDbLayerTableRecord
  2
SAISEN
 70
     0
 62
     3
  6
CONTINUOUS
  0
LAYER
  5
1541
330
2
100
AcDbSymbolTableRecord
100
AcDbLayerTableRecord
  2
02
 70
     0
 62
     2
  6
CONTINUOUS
  0
ENDTAB
  0
TABLE
  2
STYLE
  5
3
330
0
100
AcDbSymbolTable
 70
     4
  0
STYLE
  5
17
330
3
100
AcDbSymbolTableRecord
100
AcDbTextStyleTableRecord
  2
STANDARD
 70
     0
 40
0.0
 41
1.0
 50
0.0
 71
     0
 42
10.0
  3
txt.shx
  4
bigfont.shx
  0
STYLE
  5
150A
330
3
100
AcDbSymbolTableRecord
100
AcDbTextStyleTableRecord
  2
SUNPOU
 70
     0
 40
0.0
 41
0.8
 50
0.0
 71
     0
 42
3.5
  3
txt.shx
  4
extfont.shx
  0
STYLE
  5
1511
330
3
100
AcDbSymbolTableRecord
100
AcDbTextStyleTableRecord
  2
0_8
 70
     0
 40
0.0
 41
0.8
 50
0.0
 71
     0
 42
6.0
  3
txt.shx
  4
extfont.shx
  0
STYLE
  5
2AB2
330
3
100
AcDbSymbolTableRecord
100
AcDbTextStyleTableRecord
  2
0_80
 70
     0
 40
0.0
 41
0.8
 50
0.0
 71
     0
 42
7.0
  3
txt.shx
  4
extfont.shx
  0
ENDTAB
  0
TABLE
  2
VIEW
  5
5
330
0
100
AcDbSymbolTable
 70
     1
  0
VIEW
  5
3F
330
5
100
AcDbSymbolTableRecord
100
AcDbViewTableRecord
  2
QQQQ
 70
     0
 40
1093.208833671494
 10
48.27735916690238
 20
12.44832822810639
 41
1565.994242000646
 11
0.0
 21
0.0
 31
1.0
 12
100.0
 22
100.0
 32
0.0
 42
50.0
 43
0.0
 44
0.0
 50
0.0
 71
     0
  0
ENDTAB
  0
TABLE
  2
UCS
  5
6
330
0
100
AcDbSymbolTable
 70
     0
  0
ENDTAB
  0
TABLE
  2
APPID
  5
8
330
0
100
AcDbSymbolTable
 70
     3
  0
APPID
  5
16
330
8
100
AcDbSymbolTableRecord
100
AcDbRegAppTableRecord
  2
ACAD
 70
     0
  0
APPID
  5
987
330
8
100
AcDbSymbolTableRecord
100
AcDbRegAppTableRecord
  2
DCO15
 70
     0
  0
APPID
  5
2A97
330
8
100
AcDbSymbolTableRecord
100
AcDbRegAppTableRecord
  2
CONTENTBLOCKICON
 70
     0
  0
ENDTAB
  0
TABLE
  2
DIMSTYLE
  5
9
330
0
100
AcDbSymbolTable
 70
     3
  0
DIMSTYLE
105
150B
102
{ACAD_REACTORS
330
15A1
330
15B0
330
162A
330
1916
330
193F
330
194F
330
1AA2
330
1B7B
330
1B91
330
1B9E
330
1C30
330
1C3D
330
1DAB
330
1E0F
102
}
330
9
100
AcDbSymbolTableRecord
100
AcDbDimStyleTableRecord
  2
SUNPOU_6
 70
     0
  3

  4

  5
OPEN30
  6

  7

 40
6.0
 41
2.5
 42
1.5
 43
0.0
 44
1.0
 45
0.0
 46
0.0
 47
0.0
 48
0.0
140
2.5
141
0.0
142
0.0
143
25.4
144
1.0
145
0.0
146
1.0
147
1.0
 71
     0
 72
     0
 73
     0
 74
     0
 75
     0
 76
     0
 77
     1
 78
     8
170
     0
171
     2
172
     1
173
     0
174
     1
175
     0
176
   256
177
   256
178
   256
270
     2
271
     1
272
     1
273
     2
274
     2
340
150A
275
     0
280
     0
281
     0
282
     0
283
     1
284
     0
285
     0
286
     0
287
     3
288
     0
  0
DIMSTYLE
105
2895
330
9
100
AcDbSymbolTableRecord
100
AcDbDimStyleTableRecord
  2
STANDARD
 70
     0
  3

  4

  5

  6

  7

 40
1.0
 41
0.18
 42
0.0625
 43
0.38
 44
0.18
 45
0.0
 46
0.0
 47
0.0
 48
0.0
140
0.18
141
0.09
142
0.0
143
25.4
144
1.0
145
0.0
146
1.0
147
0.09
 71
     0
 72
     0
 73
     1
 74
     1
 75
     0
 76
     0
 77
     0
 78
     0
170
     0
171
     2
172
     0
173
     0
174
     0
175
     0
176
     0
177
     0
178
     0
270
     2
271
     4
272
     4
273
     2
274
     2
340
17
275
     0
280
     0
281
     0
282
     0
283
     1
284
     0
285
     0
286
     0
287
     3
288
     0
  0
DIMSTYLE
105
2954
330
9
100
AcDbSymbolTableRecord
100
AcDbDimStyleTableRecord
  2
SUNPOU_2
 70
     0
  3

  4

  5
OPEN30
  6

  7

 40
2.0
 41
2.5
 42
1.5
 43
0.0
 44
1.0
 45
0.0
 46
0.0
 47
0.0
 48
0.0
140
2.5
141
0.0
142
0.0
143
25.4
144
1.0
145
0.0
146
1.0
147
1.0
 71
     0
 72
     0
 73
     0
 74
     0
 75
     0
 76
     0
 77
     1
 78
     8
170
     0
171
     2
172
     1
173
     0
174
     0
175
     0
176
   256
177
   256
178
   256
270
     2
271
     1
272
     1
273
     2
274
     2
340
150A
275
     0
280
     0
281
     0
282
     0
283
     1
284
     0
285
     0
286
     0
287
     3
288
     0
  0
ENDTAB
  0
TABLE
  2
BLOCK_RECORD
  5
1
330
0
100
AcDbSymbolTable
 70
    14
  0
BLOCK_RECORD
  5
A
102
{ACAD_XDICTIONARY
360
2A93
102
}
330
1
100
AcDbSymbolTableRecord
100
AcDbBlockTableRecord
  2
*MODEL_SPACE
  0
BLOCK_RECORD
  5
B
102
{ACAD_XDICTIONARY
360
2A95
102
}
330
1
100
AcDbSymbolTableRecord
100
AcDbBlockTableRecord
  2
*PAPER_SPACE
  0
BLOCK_RECORD
  5
1504
330
1
100
AcDbSymbolTableRecord
100
AcDbBlockTableRecord
  2
_OPEN30
1001
CONTENTBLOCKICON
1071
        0
1004
2800000020000000200000000100080000000000000400000000000000000000000000000000000000000000000080000080000000808000800000008000800080800000C0C0C000C0DCC000F0CAA6000020400000206000002080000020A0000020C0000020E00000400000004020000040400000406000004080000040A0
1004
000040C0000040E00000600000006020000060400000606000006080000060A0000060C0000060E00000800000008020000080400000806000008080000080A0000080C0000080E00000A0000000A0200000A0400000A0600000A0800000A0A00000A0C00000A0E00000C0000000C0200000C0400000C0600000C0800000C0
1004
A00000C0C00000C0E00000E0000000E0200000E0400000E0600000E0800000E0A00000E0C00000E0E00040000000400020004000400040006000400080004000A0004000C0004000E00040200000402020004020400040206000402080004020A0004020C0004020E000404000004040200040404000404060004040800040
1004
40A0004040C0004040E00040600000406020004060400040606000406080004060A0004060C0004060E00040800000408020004080400040806000408080004080A0004080C0004080E00040A0000040A0200040A0400040A0600040A0800040A0A00040A0C00040A0E00040C0000040C0200040C0400040C0600040C08000
1004
40C0A00040C0C00040C0E00040E0000040E0200040E0400040E0600040E0800040E0A00040E0C00040E0E00080000000800020008000400080006000800080008000A0008000C0008000E00080200000802020008020400080206000802080008020A0008020C0008020E00080400000804020008040400080406000804080
1004
008040A0008040C0008040E00080600000806020008060400080606000806080008060A0008060C0008060E00080800000808020008080400080806000808080008080A0008080C0008080E00080A0000080A0200080A0400080A0600080A0800080A0A00080A0C00080A0E00080C0000080C0200080C0400080C0600080C0
1004
800080C0A00080C0C00080C0E00080E0000080E0200080E0400080E0600080E0800080E0A00080E0C00080E0E000C0000000C0002000C0004000C0006000C0008000C000A000C000C000C000E000C0200000C0202000C0204000C0206000C0208000C020A000C020C000C020E000C0400000C0402000C0404000C0406000C0
1004
408000C040A000C040C000C040E000C0600000C0602000C0604000C0606000C0608000C060A000C060C000C060E000C0800000C0802000C0804000C0806000C0808000C080A000C080C000C080E000C0A00000C0A02000C0A04000C0A06000C0A08000C0A0A000C0A0C000C0A0E000C0C00000C0C02000C0C04000C0C06000
1004
C0C08000C0C0A000F0FBFF00A4A0A000808080000000FF0000FF000000FFFF00FF000000FF00FF00FFFF0000FFFFFF0000000000000000000000000000000000000000000000000000000000000000000000000000000000000000000000000000000000000000000000000000000000000000000000000000000000000000
1004
00000000000000000000000000000000000000000000000000000000000000000000000000000000000000000000000000000000000000000000000000000000000000000000000000000000000000000000000000000000000000000000000000000000000000000000000000000000000000000000000000000000000000
1004
000000000000000000000000000000000000000000000000000000000000000000000000000000000000000000000000000000FFFF0000000000000000000000000000000000000000000000000000000000000000FFFFFFFF0000000000000000000000000000000000000000000000000000000000000000FFFFFFFF0000
1004
000000000000000000000000000000000000000000000000000000000000FFFFFF0000000000000000000000000000000000000000000000000000000000000000FFFFFFFF0000000000000000000000000000000000000000000000000000000000000000FFFFFF0000000000000000000000000000000000000000000000
1004
000000000000000000FFFFFFFF0000000000000000000000000000000000000000000000000000000000000000FFFFFFFF00000000FFFFFFFFFFFFFFFFFFFFFFFFFFFFFFFFFFFFFFFFFFFFFFFFFFFFFFFFFFFF00000000000000000000000000000000000000000000000000FFFFFFFF000000000000000000000000000000
1004
000000000000000000FFFFFFFF000000000000000000000000000000000000000000000000FFFFFFFF000000000000000000000000000000000000000000000000FFFFFFFF000000000000000000000000000000000000000000000000FFFFFFFF000000000000000000000000000000000000000000000000FFFFFFFF0000
1004
0000000000000000000000000000000000000000000000FFFFFF0000000000000000000000000000000000000000000000000000000000000000000000000000000000000000000000000000000000000000000000000000000000000000000000000000000000000000000000000000000000000000000000000000000000
1004
00000000000000000000000000000000000000000000000000000000000000000000000000000000000000000000000000000000000000000000000000000000000000000000000000000000000000000000000000000000000000000000000000000000000000000000000000000000000000000000000000000000000000
1004
0000000000000000000000000000000000000000000000000000000000000000000000000000000000000000000000000000000000000000
  0
BLOCK_RECORD
  5
15A2
330
1
100
AcDbSymbolTableRecord
100
AcDbBlockTableRecord
  2
*D1
  0
BLOCK_RECORD
  5
15B1
330
1
100
AcDbSymbolTableRecord
100
AcDbBlockTableRecord
  2
*D2
  0
BLOCK_RECORD
  5
162B
330
1
100
AcDbSymbolTableRecord
100
AcDbBlockTableRecord
  2
*D3
  0
BLOCK_RECORD
  5
1917
330
1
100
AcDbSymbolTableRecord
100
AcDbBlockTableRecord
  2
*D4
  0
BLOCK_RECORD
  5
1940
330
1
100
AcDbSymbolTableRecord
100
AcDbBlockTableRecord
  2
*D5
  0
BLOCK_RECORD
  5
1950
330
1
100
AcDbSymbolTableRecord
100
AcDbBlockTableRecord
  2
*D6
  0
BLOCK_RECORD
  5
1AA3
330
1
100
AcDbSymbolTableRecord
100
AcDbBlockTableRecord
  2
*D7
  0
BLOCK_RECORD
  5
1B7C
330
1
100
AcDbSymbolTableRecord
100
AcDbBlockTableRecord
  2
*D8
  0
BLOCK_RECORD
  5
1B92
330
1
100
AcDbSymbolTableRecord
100
AcDbBlockTableRecord
  2
*D9
  0
BLOCK_RECORD
  5
1B9F
330
1
100
AcDbSymbolTableRecord
100
AcDbBlockTableRecord
  2
*D10
  0
BLOCK_RECORD
  5
1C31
330
1
100
AcDbSymbolTableRecord
100
AcDbBlockTableRecord
  2
*D11
  0
BLOCK_RECORD
  5
1C3E
330
1
100
AcDbSymbolTableRecord
100
AcDbBlockTableRecord
  2
*D12
  0
BLOCK_RECORD
  5
1DAC
330
1
100
AcDbSymbolTableRecord
100
AcDbBlockTableRecord
  2
*D13
  0
ENDTAB
  0
ENDSEC
  0
SECTION
  2
BLOCKS
  0
BLOCK
  5
D
330
A
100
AcDbEntity
  8
0
100
AcDbBlockBegin
  2
*MODEL_SPACE
 70
     0
 10
0.0
 20
0.0
 30
0.0
  3
*MODEL_SPACE
  1

  0
ENDBLK
  5
E
330
A
100
AcDbEntity
  8
0
100
AcDbBlockEnd
  0
BLOCK
  5
F
330
B
100
AcDbEntity
 67
     1
  8
0
100
AcDbBlockBegin
  2
*PAPER_SPACE
 70
     0
 10
0.0
 20
0.0
 30
0.0
  3
*PAPER_SPACE
  1

  0
ENDBLK
  5
10
330
B
100
AcDbEntity
 67
     1
  8
0
100
AcDbBlockEnd
  0
BLOCK
  5
1505
330
1504
100
AcDbEntity
  8
0
100
AcDbBlockBegin
  2
_OPEN30
 70
     0
 10
0.0
 20
0.0
 30
0.0
  3
_OPEN30
  1

  0
LINE
  5
1506
330
1504
100
AcDbEntity
  8
0
  6
BYBLOCK
 62
     0
100
AcDbLine
 10
-1.0
 20
0.26794919
 30
0.0
 11
0.0
 21
0.0
 31
0.0
  0
LINE
  5
1507
330
1504
100
AcDbEntity
  8
0
  6
BYBLOCK
 62
     0
100
AcDbLine
 10
0.0
 20
0.0
 30
0.0
 11
-1.0
 21
-0.26794919
 31
0.0
  0
LINE
  5
1508
330
1504
100
AcDbEntity
  8
0
  6
BYBLOCK
 62
     0
100
AcDbLine
 10
0.0
 20
0.0
 30
0.0
 11
-1.0
 21
0.0
 31
0.0
  0
ENDBLK
  5
1509
330
1504
100
AcDbEntity
  8
0
100
AcDbBlockEnd
  0
BLOCK
  5
15AE
330
15A2
100
AcDbEntity
  8
0
100
AcDbBlockBegin
  2
*D1
 70
     1
 10
0.0
 20
0.0
 30
0.0
  3
*D1
  1

  0
LINE
  5
267B
330
15A2
100
AcDbEntity
  8
SUNPOU
100
AcDbLine
 10
960.774382447467
 20
511.4005311079274
 30
0.0
 11
996.9973862276836
 21
511.4005311079274
 31
0.0
  0
LINE
  5
267C
330
15A2
100
AcDbEntity
  8
SUNPOU
100
AcDbLine
 10
960.774382447467
 20
505.4005311079277
 30
0.0
 11
996.9973862276836
 21
505.4005311079277
 31
0.0
  0
LINE
  5
267D
330
15A2
100
AcDbEntity
  8
SUNPOU
100
AcDbLine
 10
990.9973862276835
 20
526.4005311079273
 30
0.0
 11
990.9973862276835
 21
541.4005311079273
 31
0.0
  0
LINE
  5
267E
330
15A2
100
AcDbEntity
  8
SUNPOU
100
AcDbLine
 10
990.9973862276835
 20
490.4005311079278
 30
0.0
 11
990.9973862276835
 21
475.4005311079279
 31
0.0
  0
MTEXT
  5
267F
330
15A2
100
AcDbEntity
  8
SUNPOU
100
AcDbMText
 10
1013.497386227683
 20
523.3200385753076
 30
0.0
 40
15.0
 41
0.0
 71
     5
 72
     1
  1
\A1;6
  7
SUNPOU
 11
0.0000000000000001
 21
1.0
 31
0.0
1001
ACAD
1000
MTEXTBEGIN
1070
    73
1070
     1
1070
    44
1040
1.0
1070
    74
1070
     0
1000
MTEXTEND
1000
MTEXTBEGIN
1070
    73
1070
     1
1070
    44
1040
1.0
1070
    74
1070
     0
1000
MTEXTEND
  0
LINE
  5
2680
330
15A2
100
AcDbEntity
  8
SUNPOU
100
AcDbLine
 10
990.9973862276835
 20
511.4005311079274
 30
0.0
 11
990.9973862276835
 21
505.4005311079277
 31
0.0
  0
INSERT
  5
2681
330
15A2
100
AcDbEntity
  8
SUNPOU
100
AcDbBlockReference
  2
_OPEN30
 10
990.9973862276835
 20
511.4005311079274
 30
0.0
 41
15.0
 42
15.0
 43
15.0
 50
270.0
  0
INSERT
  5
2682
330
15A2
100
AcDbEntity
  8
SUNPOU
100
AcDbBlockReference
  2
_OPEN30
 10
990.9973862276835
 20
505.4005311079277
 30
0.0
 41
15.0
 42
15.0
 43
15.0
 50
90.0
  0
POINT
  5
2683
330
15A2
100
AcDbEntity
  8
DEFPOINTS
 62
     0
100
AcDbPoint
 10
951.7743824474672
 20
511.4005311079274
 30
0.0
  0
POINT
  5
2684
330
15A2
100
AcDbEntity
  8
DEFPOINTS
 62
     0
100
AcDbPoint
 10
951.7743824474672
 20
505.4005311079277
 30
0.0
  0
POINT
  5
2685
330
15A2
100
AcDbEntity
  8
DEFPOINTS
 62
     0
100
AcDbPoint
 10
990.9973862276835
 20
505.4005311079277
 30
0.0
  0
ENDBLK
  5
15AF
330
15A2
100
AcDbEntity
  8
0
100
AcDbBlockEnd
  0
BLOCK
  5
15BB
330
15B1
100
AcDbEntity
  8
0
100
AcDbBlockBegin
  2
*D2
 70
     1
 10
0.0
 20
0.0
 30
0.0
  3
*D2
  1

  0
LINE
  5
26DA
330
15B1
100
AcDbEntity
  8
SUNPOU
100
AcDbLine
 10
960.774382447467
 20
505.4005311079277
 30
0.0
 11
996.9973862276836
 21
505.4005311079277
 31
0.0
  0
LINE
  5
26DB
330
15B1
100
AcDbEntity
  8
SUNPOU
100
AcDbLine
 10
960.774382447467
 20
440.4005311079276
 30
0.0
 11
996.9973862276836
 21
440.4005311079276
 31
0.0
  0
LINE
  5
26DC
330
15B1
100
AcDbEntity
  8
SUNPOU
100
AcDbLine
 10
990.9973862276835
 20
490.4005311079278
 30
0.0
 11
990.9973862276835
 21
455.4005311079277
 31
0.0
  0
MTEXT
  5
26DD
330
15B1
100
AcDbEntity
  8
SUNPOU
100
AcDbMText
 10
974.4973862276836
 20
465.3259059893713
 30
0.0
 40
15.0
 41
0.0
 71
     5
 72
     1
  1
\A1;65
  7
SUNPOU
 11
0.0000000000000001
 21
1.0
 31
0.0
1001
ACAD
1000
MTEXTBEGIN
1070
    73
1070
     1
1070
    44
1040
1.0
1070
    74
1070
     0
1000
MTEXTEND
1000
MTEXTBEGIN
1070
    73
1070
     1
1070
    44
1040
1.0
1070
    74
1070
     0
1000
MTEXTEND
  0
INSERT
  5
26DE
330
15B1
100
AcDbEntity
  8
SUNPOU
100
AcDbBlockReference
  2
_OPEN30
 10
990.9973862276835
 20
505.4005311079277
 30
0.0
 41
15.0
 42
15.0
 43
15.0
 50
90.0
  0
INSERT
  5
26DF
330
15B1
100
AcDbEntity
  8
SUNPOU
100
AcDbBlockReference
  2
_OPEN30
 10
990.9973862276835
 20
440.4005311079276
 30
0.0
 41
15.0
 42
15.0
 43
15.0
 50
270.0
  0
POINT
  5
26E0
330
15B1
100
AcDbEntity
  8
DEFPOINTS
 62
     0
100
AcDbPoint
 10
951.7743824474672
 20
505.4005311079277
 30
0.0
  0
POINT
  5
26E1
330
15B1
100
AcDbEntity
  8
DEFPOINTS
 62
     0
100
AcDbPoint
 10
951.7743824474672
 20
440.4005311079276
 30
0.0
  0
POINT
  5
26E2
330
15B1
100
AcDbEntity
  8
DEFPOINTS
 62
     0
100
AcDbPoint
 10
990.9973862276835
 20
440.4005311079276
 30
0.0
  0
ENDBLK
  5
15BC
330
15B1
100
AcDbEntity
  8
0
100
AcDbBlockEnd
  0
BLOCK
  5
1635
330
162B
100
AcDbEntity
  8
0
100
AcDbBlockBegin
  2
*D3
 70
     1
 10
0.0
 20
0.0
 30
0.0
  3
*D3
  1

  0
LINE
  5
2A3F
330
162B
100
AcDbEntity
  8
SUNPOU
 48
0.9
100
AcDbLine
 10
440.997386227684
 20
1519.650525486971
 30
0.0
 11
440.997386227684
 21
1617.400525486971
 31
0.0
  0
LINE
  5
2A40
330
162B
100
AcDbEntity
  8
SUNPOU
 48
0.9
100
AcDbLine
 10
940.997386227684
 20
1519.650525486971
 30
0.0
 11
940.997386227684
 21
1617.400525486971
 31
0.0
  0
LINE
  5
2A41
330
162B
100
AcDbEntity
  8
SUNPOU
 48
0.9
100
AcDbLine
 10
455.9973862276841
 20
1611.40052548697
 30
0.0
 11
925.9973862276837
 21
1611.40052548697
 31
0.0
  0
MTEXT
  5
2A42
330
162B
100
AcDbEntity
  8
SUNPOU
 48
0.9
100
AcDbMText
 10
690.997386227684
 20
1624.900525486971
 30
0.0
 40
15.0
 41
0.0
 71
     5
 72
     1
  1
\A1;500
  7
SUNPOU
1001
ACAD
1000
MTEXTBEGIN
1070
    73
1070
     1
1070
    44
1040
1.0
1070
    74
1070
     0
1000
MTEXTEND
1000
MTEXTBEGIN
1070
    73
1070
     1
1070
    44
1040
1.0
1070
    74
1070
     0
1000
MTEXTEND
  0
INSERT
  5
2A43
330
162B
100
AcDbEntity
  8
SUNPOU
 48
0.9
100
AcDbBlockReference
  2
_OPEN30
 10
440.997386227684
 20
1611.40052548697
 30
0.0
 41
15.0
 42
15.0
 43
15.0
 50
180.0
  0
INSERT
  5
2A44
330
162B
100
AcDbEntity
  8
SUNPOU
 48
0.9
100
AcDbBlockReference
  2
_OPEN30
 10
940.997386227684
 20
1611.40052548697
 30
0.0
 41
15.0
 42
15.0
 43
15.0
  0
POINT
  5
2A45
330
162B
100
AcDbEntity
  8
DEFPOINTS
 62
     0
 48
0.9
100
AcDbPoint
 10
440.997386227684
 20
1510.650525486971
 30
0.0
  0
POINT
  5
2A46
330
162B
100
AcDbEntity
  8
DEFPOINTS
 62
     0
 48
0.9
100
AcDbPoint
 10
940.997386227684
 20
1510.650525486971
 30
0.0
  0
POINT
  5
2A47
330
162B
100
AcDbEntity
  8
DEFPOINTS
 62
     0
 48
0.9
100
AcDbPoint
 10
940.997386227684
 20
1611.40052548697
 30
0.0
  0
ENDBLK
  5
1636
330
162B
100
AcDbEntity
  8
0
100
AcDbBlockEnd
  0
BLOCK
  5
1921
330
1917
100
AcDbEntity
  8
0
100
AcDbBlockBegin
  2
*D4
 70
     1
 10
0.0
 20
0.0
 30
0.0
  3
*D4
  1

  0
LINE
  5
2A2C
330
1917
100
AcDbEntity
  8
SUNPOU
 48
0.9
100
AcDbLine
 10
434.4973862276852
 20
561.4005311079278
 30
0.0
 11
334.9973862276838
 21
561.4005311079278
 31
0.0
  0
LINE
  5
2A2D
330
1917
100
AcDbEntity
  8
SUNPOU
 48
0.9
100
AcDbLine
 10
421.9973862276844
 20
511.4005311079276
 30
0.0
 11
334.9973862276838
 21
511.4005311079276
 31
0.0
  0
LINE
  5
2A2E
330
1917
100
AcDbEntity
  8
SUNPOU
 48
0.9
100
AcDbLine
 10
340.9973862276838
 20
546.4005311079278
 30
0.0
 11
340.9973862276838
 21
526.4005311079277
 31
0.0
  0
INSERT
  5
2A2F
330
1917
100
AcDbEntity
  8
SUNPOU
 48
0.9
100
AcDbBlockReference
  2
_OPEN30
 10
340.9973862276838
 20
561.4005311079278
 30
0.0
 41
15.0
 42
15.0
 43
15.0
 50
90.0
  0
INSERT
  5
2A30
330
1917
100
AcDbEntity
  8
SUNPOU
 48
0.9
100
AcDbBlockReference
  2
_OPEN30
 10
340.9973862276838
 20
511.4005311079276
 30
0.0
 41
15.0
 42
15.0
 43
15.0
 50
270.0
  0
MTEXT
  5
2A31
330
1917
100
AcDbEntity
  8
SUNPOU
 48
0.9
100
AcDbMText
 10
327.4973862276838
 20
536.4005311079278
 30
0.0
 40
15.0
 41
0.0
 71
     5
 72
     1
  1
\A1;50
  7
SUNPOU
 11
0.0000000000000001
 21
1.0
 31
0.0
1001
ACAD
1000
MTEXTBEGIN
1070
    73
1070
     1
1070
    44
1040
1.0
1070
    74
1070
     0
1000
MTEXTEND
1000
MTEXTBEGIN
1070
    73
1070
     1
1070
    44
1040
1.0
1070
    74
1070
     0
1000
MTEXTEND
  0
POINT
  5
2A32
330
1917
100
AcDbEntity
  8
DEFPOINTS
 62
     0
 48
0.9
100
AcDbPoint
 10
443.4973862276851
 20
561.4005311079278
 30
0.0
  0
POINT
  5
2A33
330
1917
100
AcDbEntity
  8
DEFPOINTS
 62
     0
 48
0.9
100
AcDbPoint
 10
430.9973862276843
 20
511.4005311079276
 30
0.0
  0
POINT
  5
2A34
330
1917
100
AcDbEntity
  8
DEFPOINTS
 62
     0
 48
0.9
100
AcDbPoint
 10
340.9973862276838
 20
511.4005311079276
 30
0.0
  0
ENDBLK
  5
1922
330
1917
100
AcDbEntity
  8
0
100
AcDbBlockEnd
  0
BLOCK
  5
194C
330
1940
100
AcDbEntity
  8
0
100
AcDbBlockBegin
  2
*D5
 70
     1
 10
0.0
 20
0.0
 30
0.0
  3
*D5
  1

  0
LINE
  5
2A21
330
1940
100
AcDbEntity
  8
SUNPOU
 48
0.9
100
AcDbLine
 10
281.9973862276838
 20
511.4005311079276
 30
0.0
 11
284.9973862276838
 21
511.4005311079276
 31
0.0
  0
LINE
  5
2A22
330
1940
100
AcDbEntity
  8
SUNPOU
 48
0.9
100
AcDbLine
 10
281.9973862276838
 20
480.4005311079277
 30
0.0
 11
284.9973862276838
 21
480.4005311079277
 31
0.0
  0
LINE
  5
2A23
330
1940
100
AcDbEntity
  8
SUNPOU
 48
0.9
100
AcDbLine
 10
290.9973862276838
 20
526.4005311079276
 30
0.0
 11
290.9973862276838
 21
541.4005311079274
 31
0.0
  0
LINE
  5
2A24
330
1940
100
AcDbEntity
  8
SUNPOU
 48
0.9
100
AcDbLine
 10
290.9973862276838
 20
465.4005311079278
 30
0.0
 11
290.9973862276838
 21
450.4005311079279
 31
0.0
  0
LINE
  5
2A25
330
1940
100
AcDbEntity
  8
SUNPOU
 48
0.9
100
AcDbLine
 10
290.9973862276838
 20
511.4005311079276
 30
0.0
 11
290.9973862276838
 21
480.4005311079277
 31
0.0
  0
INSERT
  5
2A26
330
1940
100
AcDbEntity
  8
SUNPOU
 48
0.9
100
AcDbBlockReference
  2
_OPEN30
 10
290.9973862276838
 20
511.4005311079276
 30
0.0
 41
15.0
 42
15.0
 43
15.0
 50
270.0
  0
INSERT
  5
2A27
330
1940
100
AcDbEntity
  8
SUNPOU
 48
0.9
100
AcDbBlockReference
  2
_OPEN30
 10
290.9973862276838
 20
480.4005311079277
 30
0.0
 41
15.0
 42
15.0
 43
15.0
 50
90.0
  0
MTEXT
  5
2A28
330
1940
100
AcDbEntity
  8
SUNPOU
 48
0.9
100
AcDbMText
 10
277.4973862276838
 20
495.9005311079279
 30
0.0
 40
15.0
 41
0.0
 71
     5
 72
     1
  1
\A1;31
  7
SUNPOU
 11
0.0000000000000001
 21
1.0
 31
0.0
1001
ACAD
1000
MTEXTBEGIN
1070
    73
1070
     1
1070
    44
1040
1.0
1070
    74
1070
     0
1000
MTEXTEND
1000
MTEXTBEGIN
1070
    73
1070
     1
1070
    44
1040
1.0
1070
    74
1070
     0
1000
MTEXTEND
  0
POINT
  5
2A29
330
1940
100
AcDbEntity
  8
DEFPOINTS
 62
     0
 48
0.9
100
AcDbPoint
 10
290.9973862276838
 20
511.4005311079276
 30
0.0
  0
POINT
  5
2A2A
330
1940
100
AcDbEntity
  8
DEFPOINTS
 62
     0
 48
0.9
100
AcDbPoint
 10
290.9973862276838
 20
480.4005311079277
 30
0.0
  0
POINT
  5
2A2B
330
1940
100
AcDbEntity
  8
DEFPOINTS
 62
     0
 48
0.9
100
AcDbPoint
 10
290.9973862276838
 20
480.4005311079277
 30
0.0
  0
ENDBLK
  5
194D
330
1940
100
AcDbEntity
  8
0
100
AcDbBlockEnd
  0
BLOCK
  5
195A
330
1950
100
AcDbEntity
  8
0
100
AcDbBlockBegin
  2
*D6
 70
     1
 10
0.0
 20
0.0
 30
0.0
  3
*D6
  1

  0
LINE
  5
2A35
330
1950
100
AcDbEntity
  8
SUNPOU
 48
0.9
100
AcDbLine
 10
432.7473862276841
 20
1511.400525486971
 30
0.0
 11
284.9973862276841
 21
1511.400525486971
 31
0.0
  0
LINE
  5
2A36
330
1950
100
AcDbEntity
  8
SUNPOU
 48
0.9
100
AcDbLine
 10
421.9973862276844
 20
511.4005311079276
 30
0.0
 11
284.9973862276838
 21
511.4005311079276
 31
0.0
  0
LINE
  5
2A37
330
1950
100
AcDbEntity
  8
SUNPOU
 48
0.9
100
AcDbLine
 10
290.9973862276841
 20
1496.400525486971
 30
0.0
 11
290.9973862276838
 21
526.4005311079277
 31
0.0
  0
INSERT
  5
2A38
330
1950
100
AcDbEntity
  8
SUNPOU
 48
0.9
100
AcDbBlockReference
  2
_OPEN30
 10
290.9973862276841
 20
1511.400525486971
 30
0.0
 41
15.0
 42
15.0
 43
15.0
 50
90.0
  0
INSERT
  5
2A39
330
1950
100
AcDbEntity
  8
SUNPOU
 48
0.9
100
AcDbBlockReference
  2
_OPEN30
 10
290.9973862276838
 20
511.4005311079276
 30
0.0
 41
15.0
 42
15.0
 43
15.0
 50
270.0
  0
MTEXT
  5
2A3A
330
1950
100
AcDbEntity
  8
SUNPOU
 48
0.9
100
AcDbMText
 10
276.2473862276838
 20
1011.400528297449
 30
0.0
 40
15.0
 41
0.0
 71
     5
 72
     1
  1
\A1;1,000
  7
SUNPOU
 11
0.0000000000000001
 21
1.0
 31
0.0
1001
ACAD
1000
MTEXTBEGIN
1070
    73
1070
     1
1070
    44
1040
1.0
1070
    74
1070
     0
1000
MTEXTEND
1000
MTEXTBEGIN
1070
    73
1070
     1
1070
    44
1040
1.0
1070
    74
1070
     0
1000
MTEXTEND
  0
POINT
  5
2A3B
330
1950
100
AcDbEntity
  8
DEFPOINTS
 62
     0
 48
0.9
100
AcDbPoint
 10
441.7473862276841
 20
1511.400525486971
 30
0.0
  0
POINT
  5
2A3C
330
1950
100
AcDbEntity
  8
DEFPOINTS
 62
     0
 48
0.9
100
AcDbPoint
 10
430.9973862276843
 20
511.4005311079276
 30
0.0
  0
POINT
  5
2A3D
330
1950
100
AcDbEntity
  8
DEFPOINTS
 62
     0
 48
0.9
100
AcDbPoint
 10
290.9973862276838
 20
511.4005311079276
 30
0.0
  0
ENDBLK
  5
195B
330
1950
100
AcDbEntity
  8
0
100
AcDbBlockEnd
  0
BLOCK
  5
1AAF
330
1AA3
100
AcDbEntity
  8
0
100
AcDbBlockBegin
  2
*D7
 70
     1
 10
0.0
 20
0.0
 30
0.0
  3
*D7
  1

  0
LINE
  5
2583
330
1AA3
100
AcDbEntity
  8
SUNPOU
100
AcDbLine
 10
467.0373862276847
 20
841.4005311079275
 30
0.0
 11
334.997386227684
 21
841.4005311079275
 31
0.0
  0
LINE
  5
2584
330
1AA3
100
AcDbEntity
  8
SUNPOU
100
AcDbLine
 10
467.0373862276847
 20
826.4005311079275
 30
0.0
 11
334.997386227684
 21
826.4005311079275
 31
0.0
  0
LINE
  5
2585
330
1AA3
100
AcDbEntity
  8
SUNPOU
100
AcDbLine
 10
340.997386227684
 20
856.4005311079275
 30
0.0
 11
340.997386227684
 21
871.4005311079276
 31
0.0
  0
LINE
  5
2586
330
1AA3
100
AcDbEntity
  8
SUNPOU
100
AcDbLine
 10
340.997386227684
 20
811.4005311079276
 30
0.0
 11
340.997386227684
 21
796.4005311079276
 31
0.0
  0
MTEXT
  5
2587
330
1AA3
100
AcDbEntity
  8
SUNPOU
100
AcDbMText
 10
325.8387119649651
 20
833.4451606333887
 30
0.0
 40
15.0
 41
0.0
 71
     5
 72
     1
  1
\A1;15
  7
SUNPOU
 11
0.0000000000000001
 21
1.0
 31
0.0
1001
ACAD
1000
MTEXTBEGIN
1070
    73
1070
     1
1070
    44
1040
1.0
1070
    74
1070
     0
1000
MTEXTEND
1000
MTEXTBEGIN
1070
    73
1070
     1
1070
    44
1040
1.0
1070
    74
1070
     0
1000
MTEXTEND
  0
LINE
  5
2588
330
1AA3
100
AcDbEntity
  8
SUNPOU
100
AcDbLine
 10
340.997386227684
 20
841.4005311079275
 30
0.0
 11
340.997386227684
 21
826.4005311079275
 31
0.0
  0
INSERT
  5
2589
330
1AA3
100
AcDbEntity
  8
SUNPOU
100
AcDbBlockReference
  2
_OPEN30
 10
340.997386227684
 20
841.4005311079275
 30
0.0
 41
15.0
 42
15.0
 43
15.0
 50
270.0
  0
INSERT
  5
258A
330
1AA3
100
AcDbEntity
  8
SUNPOU
100
AcDbBlockReference
  2
_OPEN30
 10
340.997386227684
 20
826.4005311079275
 30
0.0
 41
15.0
 42
15.0
 43
15.0
 50
90.0
  0
POINT
  5
258B
330
1AA3
100
AcDbEntity
  8
DEFPOINTS
 62
     0
100
AcDbPoint
 10
476.0373862276848
 20
841.4005311079275
 30
0.0
  0
POINT
  5
258C
330
1AA3
100
AcDbEntity
  8
DEFPOINTS
 62
     0
100
AcDbPoint
 10
476.0373862276848
 20
826.4005311079275
 30
0.0
  0
POINT
  5
258D
330
1AA3
100
AcDbEntity
  8
DEFPOINTS
 62
     0
100
AcDbPoint
 10
340.997386227684
 20
826.4005311079275
 30
0.0
  0
ENDBLK
  5
1AB0
330
1AA3
100
AcDbEntity
  8
0
100
AcDbBlockEnd
  0
BLOCK
  5
1B86
330
1B7C
100
AcDbEntity
  8
0
100
AcDbBlockBegin
  2
*D8
 70
     1
 10
0.0
 20
0.0
 30
0.0
  3
*D8
  1

  0
LINE
  5
25A9
330
1B7C
100
AcDbEntity
  8
SUNPOU
100
AcDbLine
 10
566.0373862276848
 20
689.4005311079276
 30
0.0
 11
566.0373862276848
 21
659.8225226853401
 31
0.0
  0
LINE
  5
25AA
330
1B7C
100
AcDbEntity
  8
SUNPOU
100
AcDbLine
 10
816.0373862276848
 20
689.4005311079276
 30
0.0
 11
816.0373862276848
 21
659.8225226853401
 31
0.0
  0
LINE
  5
25AB
330
1B7C
100
AcDbEntity
  8
SUNPOU
100
AcDbLine
 10
581.0373862276848
 20
665.8225226853401
 30
0.0
 11
801.0373862276848
 21
665.8225226853401
 31
0.0
  0
MTEXT
  5
25AC
330
1B7C
100
AcDbEntity
  8
SUNPOU
100
AcDbMText
 10
711.0373862276849
 20
679.3225226853402
 30
0.0
 40
15.0
 41
0.0
 71
     5
 72
     1
  1
\A1;250
  7
SUNPOU
1001
ACAD
1000
MTEXTBEGIN
1070
    73
1070
     1
1070
    44
1040
1.0
1070
    74
1070
     0
1000
MTEXTEND
1000
MTEXTBEGIN
1070
    73
1070
     1
1070
    44
1040
1.0
1070
    74
1070
     0
1000
MTEXTEND
  0
INSERT
  5
25AD
330
1B7C
100
AcDbEntity
  8
SUNPOU
100
AcDbBlockReference
  2
_OPEN30
 10
566.0373862276848
 20
665.8225226853401
 30
0.0
 41
15.0
 42
15.0
 43
15.0
 50
180.0
  0
INSERT
  5
25AE
330
1B7C
100
AcDbEntity
  8
SUNPOU
100
AcDbBlockReference
  2
_OPEN30
 10
816.0373862276848
 20
665.8225226853401
 30
0.0
 41
15.0
 42
15.0
 43
15.0
  0
POINT
  5
25AF
330
1B7C
100
AcDbEntity
  8
DEFPOINTS
 62
     0
100
AcDbPoint
 10
566.0373862276848
 20
698.4005311079275
 30
0.0
  0
POINT
  5
25B0
330
1B7C
100
AcDbEntity
  8
DEFPOINTS
 62
     0
100
AcDbPoint
 10
816.0373862276848
 20
698.4005311079275
 30
0.0
  0
POINT
  5
25B1
330
1B7C
100
AcDbEntity
  8
DEFPOINTS
 62
     0
100
AcDbPoint
 10
816.0373862276848
 20
665.8225226853401
 30
0.0
  0
ENDBLK
  5
1B87
330
1B7C
100
AcDbEntity
  8
0
100
AcDbBlockEnd
  0
BLOCK
  5
1B9C
330
1B92
100
AcDbEntity
  8
0
100
AcDbBlockBegin
  2
*D9
 70
     1
 10
0.0
 20
0.0
 30
0.0
  3
*D9
  1

  0
LINE
  5
25B2
330
1B92
100
AcDbEntity
  8
SUNPOU
100
AcDbLine
 10
491.0373862276848
 20
702.4005311079275
 30
0.0
 11
491.0373862276848
 21
629.8225226853401
 31
0.0
  0
LINE
  5
25B3
330
1B92
100
AcDbEntity
  8
SUNPOU
100
AcDbLine
 10
891.0373862276848
 20
702.4005311079275
 30
0.0
 11
891.0373862276848
 21
629.8225226853401
 31
0.0
  0
LINE
  5
25B4
330
1B92
100
AcDbEntity
  8
SUNPOU
100
AcDbLine
 10
506.0373862276848
 20
635.82252268534
 30
0.0
 11
876.0373862276848
 21
635.82252268534
 31
0.0
  0
MTEXT
  5
25B5
330
1B92
100
AcDbEntity
  8
SUNPOU
100
AcDbMText
 10
711.0373862276849
 20
649.3225226853402
 30
0.0
 40
15.0
 41
0.0
 71
     5
 72
     1
  1
\A1;400
  7
SUNPOU
1001
ACAD
1000
MTEXTBEGIN
1070
    73
1070
     1
1070
    44
1040
1.0
1070
    74
1070
     0
1000
MTEXTEND
1000
MTEXTBEGIN
1070
    73
1070
     1
1070
    44
1040
1.0
1070
    74
1070
     0
1000
MTEXTEND
  0
INSERT
  5
25B6
330
1B92
100
AcDbEntity
  8
SUNPOU
100
AcDbBlockReference
  2
_OPEN30
 10
491.0373862276848
 20
635.82252268534
 30
0.0
 41
15.0
 42
15.0
 43
15.0
 50
180.0
  0
INSERT
  5
25B7
330
1B92
100
AcDbEntity
  8
SUNPOU
100
AcDbBlockReference
  2
_OPEN30
 10
891.0373862276848
 20
635.82252268534
 30
0.0
 41
15.0
 42
15.0
 43
15.0
  0
POINT
  5
25B8
330
1B92
100
AcDbEntity
  8
DEFPOINTS
 62
     0
100
AcDbPoint
 10
491.0373862276848
 20
711.4005311079275
 30
0.0
  0
POINT
  5
25B9
330
1B92
100
AcDbEntity
  8
DEFPOINTS
 62
     0
100
AcDbPoint
 10
891.0373862276848
 20
711.4005311079275
 30
0.0
  0
POINT
  5
25BA
330
1B92
100
AcDbEntity
  8
DEFPOINTS
 62
     0
100
AcDbPoint
 10
891.0373862276848
 20
635.82252268534
 30
0.0
  0
ENDBLK
  5
1B9D
330
1B92
100
AcDbEntity
  8
0
100
AcDbBlockEnd
  0
BLOCK
  5
1BA9
330
1B9F
100
AcDbEntity
  8
0
100
AcDbBlockBegin
  2
*D10
 70
     1
 10
0.0
 20
0.0
 30
0.0
  3
*D10
  1

  0
LINE
  5
25BB
330
1B9F
100
AcDbEntity
  8
SUNPOU
100
AcDbLine
 10
476.0373862276848
 20
697.4005311079277
 30
0.0
 11
476.0373862276848
 21
604.8225226853401
 31
0.0
  0
LINE
  5
25BC
330
1B9F
100
AcDbEntity
  8
SUNPOU
100
AcDbLine
 10
906.0373862276847
 20
697.4005311079277
 30
0.0
 11
906.0373862276847
 21
604.8225226853401
 31
0.0
  0
LINE
  5
25BD
330
1B9F
100
AcDbEntity
  8
SUNPOU
100
AcDbLine
 10
491.0373862276848
 20
610.82252268534
 30
0.0
 11
891.0373862276848
 21
610.82252268534
 31
0.0
  0
MTEXT
  5
25BE
330
1B9F
100
AcDbEntity
  8
SUNPOU
100
AcDbMText
 10
711.0373862276849
 20
624.3225226853402
 30
0.0
 40
15.0
 41
0.0
 71
     5
 72
     1
  1
\A1;430
  7
SUNPOU
1001
ACAD
1000
MTEXTBEGIN
1070
    73
1070
     1
1070
    44
1040
1.0
1070
    74
1070
     0
1000
MTEXTEND
1000
MTEXTBEGIN
1070
    73
1070
     1
1070
    44
1040
1.0
1070
    74
1070
     0
1000
MTEXTEND
  0
INSERT
  5
25BF
330
1B9F
100
AcDbEntity
  8
SUNPOU
100
AcDbBlockReference
  2
_OPEN30
 10
476.0373862276848
 20
610.82252268534
 30
0.0
 41
15.0
 42
15.0
 43
15.0
 50
180.0
  0
INSERT
  5
25C0
330
1B9F
100
AcDbEntity
  8
SUNPOU
100
AcDbBlockReference
  2
_OPEN30
 10
906.0373862276847
 20
610.82252268534
 30
0.0
 41
15.0
 42
15.0
 43
15.0
  0
POINT
  5
25C1
330
1B9F
100
AcDbEntity
  8
DEFPOINTS
 62
     0
100
AcDbPoint
 10
476.0373862276848
 20
706.4005311079277
 30
0.0
  0
POINT
  5
25C2
330
1B9F
100
AcDbEntity
  8
DEFPOINTS
 62
     0
100
AcDbPoint
 10
906.0373862276847
 20
706.4005311079275
 30
0.0
  0
POINT
  5
25C3
330
1B9F
100
AcDbEntity
  8
DEFPOINTS
 62
     0
100
AcDbPoint
 10
906.0373862276847
 20
610.82252268534
 30
0.0
  0
ENDBLK
  5
1BAA
330
1B9F
100
AcDbEntity
  8
0
100
AcDbBlockEnd
  0
BLOCK
  5
1C3B
330
1C31
100
AcDbEntity
  8
0
100
AcDbBlockBegin
  2
*D11
 70
     1
 10
0.0
 20
0.0
 30
0.0
  3
*D11
  1

  0
LINE
  5
25C4
330
1C31
100
AcDbEntity
  8
SUNPOU
100
AcDbLine
 10
430.9973862276843
 20
520.4005311079277
 30
0.0
 11
430.9973862276843
 21
592.1945341586288
 31
0.0
  0
LINE
  5
25C5
330
1C31
100
AcDbEntity
  8
SUNPOU
100
AcDbLine
 10
950.9973862276842
 20
520.4005311079273
 30
0.0
 11
950.9973862276842
 21
592.1945341586288
 31
0.0
  0
LINE
  5
25C6
330
1C31
100
AcDbEntity
  8
SUNPOU
100
AcDbLine
 10
445.9973862276844
 20
586.1945341586288
 30
0.0
 11
935.9973862276843
 21
586.1945341586288
 31
0.0
  0
MTEXT
  5
25C7
330
1C31
100
AcDbEntity
  8
SUNPOU
100
AcDbMText
 10
670.9973862276845
 20
599.6945341586292
 30
0.0
 40
15.0
 41
0.0
 71
     5
 72
     1
  1
\A1;520
  7
SUNPOU
1001
ACAD
1000
MTEXTBEGIN
1070
    73
1070
     1
1070
    44
1040
1.0
1070
    74
1070
     0
1000
MTEXTEND
1000
MTEXTBEGIN
1070
    73
1070
     1
1070
    44
1040
1.0
1070
    74
1070
     0
1000
MTEXTEND
  0
INSERT
  5
25C8
330
1C31
100
AcDbEntity
  8
SUNPOU
100
AcDbBlockReference
  2
_OPEN30
 10
430.9973862276843
 20
586.1945341586288
 30
0.0
 41
15.0
 42
15.0
 43
15.0
 50
180.0
  0
INSERT
  5
25C9
330
1C31
100
AcDbEntity
  8
SUNPOU
100
AcDbBlockReference
  2
_OPEN30
 10
950.9973862276842
 20
586.1945341586288
 30
0.0
 41
15.0
 42
15.0
 43
15.0
  0
POINT
  5
25CA
330
1C31
100
AcDbEntity
  8
DEFPOINTS
 62
     0
100
AcDbPoint
 10
430.9973862276843
 20
511.4005311079276
 30
0.0
  0
POINT
  5
25CB
330
1C31
100
AcDbEntity
  8
DEFPOINTS
 62
     0
100
AcDbPoint
 10
950.9973862276842
 20
511.4005311079274
 30
0.0
  0
POINT
  5
25CC
330
1C31
100
AcDbEntity
  8
DEFPOINTS
 62
     0
100
AcDbPoint
 10
950.9973862276842
 20
586.1945341586288
 30
0.0
  0
ENDBLK
  5
1C3C
330
1C31
100
AcDbEntity
  8
0
100
AcDbBlockEnd
  0
BLOCK
  5
1C48
330
1C3E
100
AcDbEntity
  8
0
100
AcDbBlockBegin
  2
*D12
 70
     1
 10
0.0
 20
0.0
 30
0.0
  3
*D12
  1

  0
LINE
  5
25CD
330
1C3E
100
AcDbEntity
  8
SUNPOU
100
AcDbLine
 10
495.9973862276844
 20
520.4005311079277
 30
0.0
 11
495.9973862276844
 21
559.6045882090982
 31
0.0
  0
LINE
  5
25CE
330
1C3E
100
AcDbEntity
  8
SUNPOU
100
AcDbLine
 10
885.9973862276843
 20
520.4005314129699
 30
0.0
 11
885.9973862276843
 21
559.6045882090982
 31
0.0
  0
LINE
  5
25CF
330
1C3E
100
AcDbEntity
  8
SUNPOU
100
AcDbLine
 10
510.9973862276843
 20
553.6045882090982
 30
0.0
 11
870.9973862276843
 21
553.6045882090982
 31
0.0
  0
MTEXT
  5
25D0
330
1C3E
100
AcDbEntity
  8
SUNPOU
100
AcDbMText
 10
670.9973862276845
 20
572.1045882090983
 30
0.0
 40
15.0
 41
0.0
 71
     5
 72
     1
  1
\A1;390
  7
SUNPOU
1001
ACAD
1000
MTEXTBEGIN
1070
    73
1070
     1
1070
    44
1040
1.0
1070
    74
1070
     0
1000
MTEXTEND
1000
MTEXTBEGIN
1070
    73
1070
     1
1070
    44
1040
1.0
1070
    74
1070
     0
1000
MTEXTEND
  0
INSERT
  5
25D1
330
1C3E
100
AcDbEntity
  8
SUNPOU
100
AcDbBlockReference
  2
_OPEN30
 10
495.9973862276844
 20
553.6045882090982
 30
0.0
 41
15.0
 42
15.0
 43
15.0
 50
180.0
  0
INSERT
  5
25D2
330
1C3E
100
AcDbEntity
  8
SUNPOU
100
AcDbBlockReference
  2
_OPEN30
 10
885.9973862276843
 20
553.6045882090982
 30
0.0
 41
15.0
 42
15.0
 43
15.0
  0
POINT
  5
25D3
330
1C3E
100
AcDbEntity
  8
DEFPOINTS
 62
     0
100
AcDbPoint
 10
495.9973862276844
 20
511.4005311079276
 30
0.0
  0
POINT
  5
25D4
330
1C3E
100
AcDbEntity
  8
DEFPOINTS
 62
     0
100
AcDbPoint
 10
885.9973862276843
 20
511.4005314129698
 30
0.0
  0
POINT
  5
25D5
330
1C3E
100
AcDbEntity
  8
DEFPOINTS
 62
     0
100
AcDbPoint
 10
885.9973862276843
 20
553.6045882090982
 30
0.0
  0
ENDBLK
  5
1C49
330
1C3E
100
AcDbEntity
  8
0
100
AcDbBlockEnd
  0
BLOCK
  5
1DB6
330
1DAC
100
AcDbEntity
  8
0
100
AcDbBlockBegin
  2
*D13
 70
     1
 10
0.0
 20
0.0
 30
0.0
  3
*D13
  1

  0
LINE
  5
2A04
330
1DAC
100
AcDbEntity
  8
SUNPOU
 48
0.9
100
AcDbLine
 10
430.9973862276843
 20
431.4005311079278
 30
0.0
 11
430.9973862276843
 21
334.4005311079278
 31
0.0
  0
LINE
  5
2A05
330
1DAC
100
AcDbEntity
  8
SUNPOU
 48
0.9
100
AcDbLine
 10
950.9973862276842
 20
431.4005311079278
 30
0.0
 11
950.9973862276842
 21
334.4005311079278
 31
0.0
  0
LINE
  5
2A06
330
1DAC
100
AcDbEntity
  8
SUNPOU
 48
0.9
100
AcDbLine
 10
445.9973862276844
 20
340.4005311079278
 30
0.0
 11
935.9973862276843
 21
340.4005311079278
 31
0.0
  0
MTEXT
  5
2A07
330
1DAC
100
AcDbEntity
  8
SUNPOU
 48
0.9
100
AcDbMText
 10
710.9973862276842
 20
353.9005311079281
 30
0.0
 40
15.0
 41
0.0
 71
     5
 72
     1
  1
\A1;520
  7
SUNPOU
1001
ACAD
1000
MTEXTBEGIN
1070
    73
1070
     1
1070
    44
1040
1.0
1070
    74
1070
     0
1000
MTEXTEND
1000
MTEXTBEGIN
1070
    73
1070
     1
1070
    44
1040
1.0
1070
    74
1070
     0
1000
MTEXTEND
  0
INSERT
  5
2A08
330
1DAC
100
AcDbEntity
  8
SUNPOU
 48
0.9
100
AcDbBlockReference
  2
_OPEN30
 10
430.9973862276843
 20
340.4005311079278
 30
0.0
 41
15.0
 42
15.0
 43
15.0
 50
180.0
  0
INSERT
  5
2A09
330
1DAC
100
AcDbEntity
  8
SUNPOU
 48
0.9
100
AcDbBlockReference
  2
_OPEN30
 10
950.9973862276842
 20
340.4005311079278
 30
0.0
 41
15.0
 42
15.0
 43
15.0
  0
POINT
  5
2A0A
330
1DAC
100
AcDbEntity
  8
DEFPOINTS
 62
     0
 48
0.9
100
AcDbPoint
 10
430.9973862276843
 20
440.4005311079278
 30
0.0
  0
POINT
  5
2A0B
330
1DAC
100
AcDbEntity
  8
DEFPOINTS
 62
     0
 48
0.9
100
AcDbPoint
 10
950.9973862276842
 20
440.4005311079278
 30
0.0
  0
POINT
  5
2A0C
330
1DAC
100
AcDbEntity
  8
DEFPOINTS
 62
     0
 48
0.9
100
AcDbPoint
 10
950.9973862276842
 20
340.4005311079278
 30
0.0
  0
ENDBLK
  5
1DB7
330
1DAC
100
AcDbEntity
  8
0
100
AcDbBlockEnd
  0
ENDSEC
  0
SECTION
  2
ENTITIES
  0
TEXT
  5
5DF
330
A
100
AcDbEntity
  8
MOJI
100
AcDbText
 10
515.9491119610756
 20
1119.976125742773
 30
0.0
 40
15.0
  1
GSL
 41
0.8
  7
0_8
 11
515.9491119610756
 21
1119.976125742773
 31
0.0
100
AcDbText
 73
     1
  0
TEXT
  5
5E0
330
A
100
AcDbEntity
  8
MOJI
100
AcDbText
 10
514.8452815878827
 20
963.5533064389598
 30
0.0
 40
15.0
  1
BP-25(パルス付）
 41
0.8
  7
0_8
 11
514.8452815878827
 21
963.5533064389598
 31
0.0
100
AcDbText
 73
     1
  0
TEXT
  5
5E1
330
A
100
AcDbEntity
  8
MOJI
100
AcDbText
 10
790.1679424494289
 20
968.6538489791194
 30
0.0
 40
15.0
  1
LP=66
 41
0.8
  7
0_8
 11
790.1679424494289
 21
968.6538489791194
 31
0.0
100
AcDbText
 73
     1
  0
TEXT
  5
5E2
330
A
100
AcDbEntity
  8
MOJI
100
AcDbText
 10
1123.002965753227
 20
493.5921493470194
 30
0.0
 40
15.0
  1
Ｇ.Ｌ
 41
0.8
  7
0_8
 11
1123.002965753227
 21
493.5921493470194
 31
0.0
100
AcDbText
 73
     1
  0
CIRCLE
  5
624
330
A
100
AcDbEntity
  8
03
100
AcDbCircle
 10
700.9173862276846
 20
900.4005311079275
 30
0.0
 40
63.50000000000001
  0
ARC
  5
627
330
A
100
AcDbEntity
  8
03
100
AcDbCircle
 10
525.9573862276844
 20
1101.400531107927
 30
0.0
 40
4.5
100
AcDbArc
 50
0.0
 51
179.9999999999999
  0
ARC
  5
628
330
A
100
AcDbEntity
  8
03
100
AcDbCircle
 10
525.9573862276844
 20
1081.400531107927
 30
0.0
 40
4.5
100
AcDbArc
 50
179.9999999999999
 51
0.0
  0
ARC
  5
62D
330
A
100
AcDbEntity
  8
03
100
AcDbCircle
 10
525.9573862276844
 20
1021.400531107927
 30
0.0
 40
4.5
100
AcDbArc
 50
0.0
 51
179.9999999999999
  0
ARC
  5
632
330
A
100
AcDbEntity
  8
03
100
AcDbCircle
 10
525.9573862276844
 20
1001.400531107927
 30
0.0
 40
4.5
100
AcDbArc
 50
179.9999999999999
 51
0.0
  0
ARC
  5
634
330
A
100
AcDbEntity
  8
03
100
AcDbCircle
 10
855.9573862276844
 20
1021.400531107927
 30
0.0
 40
4.5
100
AcDbArc
 50
0.0
 51
179.9999999999999
  0
ARC
  5
635
330
A
100
AcDbEntity
  8
03
100
AcDbCircle
 10
855.9573862276844
 20
1001.400531107927
 30
0.0
 40
4.5
100
AcDbArc
 50
179.9999999999999
 51
0.0
  0
ARC
  5
63A
330
A
100
AcDbEntity
  8
03
100
AcDbCircle
 10
855.9573862276844
 20
1101.400531107927
 30
0.0
 40
4.5
100
AcDbArc
 50
0.0
 51
179.9999999999999
  0
ARC
  5
63B
330
A
100
AcDbEntity
  8
03
100
AcDbCircle
 10
855.9573862276844
 20
1081.400531107927
 30
0.0
 40
4.5
100
AcDbArc
 50
179.9999999999999
 51
0.0
  0
CIRCLE
  5
641
330
A
100
AcDbEntity
  8
03
100
AcDbCircle
 10
618.9113862276842
 20
1051.400531107927
 30
0.0
 40
50.0
  0
CIRCLE
  5
646
330
A
100
AcDbEntity
  8
03
100
AcDbCircle
 10
695.4573862276844
 20
1051.400531107927
 30
0.0
 40
3.0
  0
ARC
  5
64B
330
A
100
AcDbEntity
  8
03
100
AcDbCircle
 10
678.9573862276844
 20
1051.400531107927
 30
0.0
 40
19.99999999999999
100
AcDbArc
 50
232.9651987815142
 51
127.0348012184858
  0
ARC
  5
64F
330
A
100
AcDbEntity
  8
03
100
AcDbCircle
 10
678.9573862276844
 20
1051.400531107927
 30
0.0
 40
21.99999999999997
100
AcDbArc
 50
236.8012166850153
 51
123.1987833149847
  0
CIRCLE
  5
656
330
A
100
AcDbEntity
  8
03
100
AcDbCircle
 10
752.9573862276844
 20
1051.400531107927
 30
0.0
 40
15.0
  0
CIRCLE
  5
65D
330
A
100
AcDbEntity
  8
03
100
AcDbCircle
 10
752.9573862276844
 20
1051.400531107927
 30
0.0
 40
11.5
  0
CIRCLE
  5
65E
330
A
100
AcDbEntity
  8
03
100
AcDbCircle
 10
752.9573862276844
 20
1051.400531107927
 30
0.0
 40
8.0
  0
ARC
  5
661
330
A
100
AcDbEntity
  8
03
100
AcDbCircle
 10
575.9113862276842
 20
1094.400531107927
 30
0.0
 40
5.0
100
AcDbArc
 50
90.0
 51
180.0
  0
ARC
  5
664
330
A
100
AcDbEntity
  8
03
100
AcDbCircle
 10
575.9113862276842
 20
1008.400531107928
 30
0.0
 40
5.0
100
AcDbArc
 50
180.0
 51
270.0
  0
ARC
  5
667
330
A
100
AcDbEntity
  8
03
100
AcDbCircle
 10
661.9113862276848
 20
1008.400531107928
 30
0.0
 40
5.0
100
AcDbArc
 50
270.0
 51
0.0
  0
ARC
  5
66A
330
A
100
AcDbEntity
  8
03
100
AcDbCircle
 10
661.9113862276848
 20
1094.400531107927
 30
0.0
 40
5.0
100
AcDbArc
 50
0.0
 51
90.0
  0
CIRCLE
  5
671
330
A
100
AcDbEntity
  8
03
100
AcDbCircle
 10
678.9573862276844
 20
1051.400531107927
 30
0.0
 40
5.0
  0
CIRCLE
  5
672
330
A
100
AcDbEntity
  8
03
100
AcDbCircle
 10
678.9573862276844
 20
1051.400531107927
 30
0.0
 40
9.0
  0
CIRCLE
  5
673
330
A
100
AcDbEntity
  8
03
100
AcDbCircle
 10
670.7073862276843
 20
1065.689950270369
 30
0.0
 40
3.0
  0
CIRCLE
  5
676
330
A
100
AcDbEntity
  8
03
100
AcDbCircle
 10
670.7073862276843
 20
1037.111111945484
 30
0.0
 40
2.999999999999998
  0
ARC
  5
67C
330
A
100
AcDbEntity
  8
03
100
AcDbCircle
 10
730.9973862276843
 20
811.4005311079276
 30
0.0
 40
10.0
100
AcDbArc
 50
0.0
 51
90.0
  0
ARC
  5
67D
330
A
100
AcDbEntity
  8
03
100
AcDbCircle
 10
650.9973862276847
 20
731.4005311079275
 30
0.0
 40
10.0
100
AcDbArc
 50
179.9999999999999
 51
270.0
  0
ARC
  5
67E
330
A
100
AcDbEntity
  8
03
100
AcDbCircle
 10
650.9973862276847
 20
811.4005311079276
 30
0.0
 40
10.0
100
AcDbArc
 50
90.0
 51
179.9999999999999
  0
ARC
  5
67F
330
A
100
AcDbEntity
  8
03
100
AcDbCircle
 10
730.9973862276847
 20
731.4005311079275
 30
0.0
 40
10.0
100
AcDbArc
 50
270.0
 51
0.0
  0
CIRCLE
  5
680
330
A
100
AcDbEntity
  8
03
100
AcDbCircle
 10
691.0373862276848
 20
771.4005311079276
 30
0.0
 40
15.0
  0
CIRCLE
  5
687
330
A
100
AcDbEntity
  8
03
100
AcDbCircle
 10
691.0373862276848
 20
771.4005311079276
 30
0.0
 40
11.5
  0
CIRCLE
  5
688
330
A
100
AcDbEntity
  8
03
100
AcDbCircle
 10
691.0373862276848
 20
771.4005311079276
 30
0.0
 40
8.0
  0
ARC
  5
699
330
A
100
AcDbEntity
  8
03
100
AcDbCircle
 10
565.9973862276847
 20
756.4005311079277
 30
0.0
 40
54.5
100
AcDbArc
 50
246.5533827449533
 51
293.4466172550463
  0
ARC
  5
69A
330
A
100
AcDbEntity
  8
03
100
AcDbCircle
 10
815.9973862276842
 20
756.4005311079275
 30
0.0
 40
54.5
100
AcDbArc
 50
246.5533827449533
 51
293.4466172550463
  0
CIRCLE
  5
69B
330
A
100
AcDbEntity
  8
03
100
AcDbCircle
 10
690.9973862276842
 20
771.4005311079276
 30
0.0
 40
63.50000000000001
  0
ARC
  5
6AD
330
A
100
AcDbEntity
  8
04
100
AcDbCircle
 10
442.2473862276854
 20
1510.150531107927
 30
0.0
 40
0.7500000000000001
100
AcDbArc
 50
90.0
 51
90.0
  0
ARC
  5
6AF
330
A
100
AcDbEntity
  8
04
100
AcDbCircle
 10
439.747386227684
 20
1500.150531107927
 30
0.0
 40
0.7500000000000001
100
AcDbArc
 50
90.0
 51
90.0
  0
ARC
  5
6C7
330
A
100
AcDbEntity
  8
04
100
AcDbCircle
 10
543.4360713543322
 20
1058.900531107927
 30
0.0
 40
7.220950126647949
100
AcDbArc
 50
159.7444344830233
 51
200.2554134315821
  0
ARC
  5
6C8
330
A
100
AcDbEntity
  8
04
100
AcDbCircle
 10
543.4360713543322
 20
1063.900531107927
 30
0.0
 40
7.220950126647949
100
AcDbArc
 50
159.7444344830233
 51
200.2554134315821
  0
ARC
  5
6D3
330
A
100
AcDbEntity
  8
04
100
AcDbCircle
 10
543.4360713543322
 20
1038.900531107927
 30
0.0
 40
7.220950126647949
100
AcDbArc
 50
159.7444344830233
 51
200.2554134315821
  0
ARC
  5
6D4
330
A
100
AcDbEntity
  8
04
100
AcDbCircle
 10
543.4360713543322
 20
1043.900531107927
 30
0.0
 40
7.220950126647949
100
AcDbArc
 50
159.7444344830233
 51
200.2554134315821
  0
CIRCLE
  5
6D6
330
A
100
AcDbEntity
  8
04
100
AcDbCircle
 10
752.9573862276844
 20
1051.400531107927
 30
0.0
 40
7.0
  0
CIRCLE
  5
6D7
330
A
100
AcDbEntity
  8
04
100
AcDbCircle
 10
691.0373862276848
 20
771.4005311079276
 30
0.0
 40
7.0
  0
ARC
  5
6E7
330
A
100
AcDbEntity
  8
04
100
AcDbCircle
 10
940.2473862276835
 20
1510.650525486971
 30
0.0
 40
0.75
100
AcDbArc
 50
0.0
 51
90.0
  0
ARC
  5
6E8
330
A
100
AcDbEntity
  8
04
100
AcDbCircle
 10
441.7473862276841
 20
1510.650525486971
 30
0.0
 40
0.75
100
AcDbArc
 50
90.0
 51
180.0
  0
CIRCLE
  5
6EF
330
A
100
AcDbEntity
  8
KAKURE
100
AcDbCircle
 10
690.9973862276842
 20
771.4005311079276
 30
0.0
 40
54.5
  0
CIRCLE
  5
6F0
330
A
100
AcDbEntity
  8
KAKURE
100
AcDbCircle
 10
815.9973862276842
 20
756.4005311079275
 30
0.0
 40
41.0
  0
CIRCLE
  5
6F1
330
A
100
AcDbEntity
  8
KAKURE
100
AcDbCircle
 10
565.9973862276847
 20
756.4005311079277
 30
0.0
 40
41.0
  0
ARC
  5
6F3
330
A
100
AcDbEntity
  8
KAKURE
100
AcDbCircle
 10
565.9973862276847
 20
756.4005311079277
 30
0.0
 40
54.5
100
AcDbArc
 50
293.4466172550463
 51
246.5533827449533
  0
ARC
  5
6F4
330
A
100
AcDbEntity
  8
KAKURE
100
AcDbCircle
 10
815.9973862276842
 20
756.4005311079275
 30
0.0
 40
54.5
100
AcDbArc
 50
293.4466172550463
 51
246.5533827449533
  0
CIRCLE
  5
6F9
330
A
100
AcDbEntity
  8
CHUSIN
100
AcDbCircle
 10
700.9173862276846
 20
900.4005311079275
 30
0.0
 40
30.44499999999999
  0
CIRCLE
  5
720
330
A
100
AcDbEntity
  8
KAKURE
100
AcDbCircle
 10
700.9173862276846
 20
900.4005311079275
 30
0.0
 40
33.0
  0
ARC
  5
7B2
330
A
100
AcDbEntity
  8
03
100
AcDbCircle
 10
788.5858023750849
 20
904.4005311079276
 30
0.0
 40
1.5
100
AcDbArc
 50
270.0
 51
344.5339900465793
  0
ARC
  5
7B3
330
A
100
AcDbEntity
  8
03
100
AcDbCircle
 10
781.3573862276841
 20
906.4005311079275
 30
0.0
 40
9.0
100
AcDbArc
 50
344.5339900465793
 51
15.46600995342052
  0
ARC
  5
7B4
330
A
100
AcDbEntity
  8
03
100
AcDbCircle
 10
788.5858023750849
 20
908.4005311079275
 30
0.0
 40
1.5
100
AcDbArc
 50
15.46600995342052
 51
90.0
  0
ARC
  5
7BB
330
A
100
AcDbEntity
  8
03
100
AcDbCircle
 10
781.3573862276841
 20
916.4005311079272
 30
0.0
 40
9.0
100
AcDbArc
 50
347.1604115930984
 51
15.46600995342052
  0
ARC
  5
7BC
330
A
100
AcDbEntity
  8
03
100
AcDbCircle
 10
788.5858023750849
 20
918.4005311079273
 30
0.0
 40
1.5
100
AcDbArc
 50
15.46600995342052
 51
90.0
  0
ARC
  5
7C5
330
A
100
AcDbEntity
  8
03
100
AcDbCircle
 10
788.5858023750849
 20
894.4005311079273
 30
0.0
 40
1.5
100
AcDbArc
 50
270.0
 51
344.5339900465793
  0
ARC
  5
7C6
330
A
100
AcDbEntity
  8
03
100
AcDbCircle
 10
781.3573862276841
 20
896.4005311079271
 30
0.0
 40
9.0
100
AcDbArc
 50
344.5339900465793
 51
15.46600995342052
  0
ARC
  5
7C7
330
A
100
AcDbEntity
  8
03
100
AcDbCircle
 10
788.5858023750849
 20
898.4005311079268
 30
0.0
 40
1.5
100
AcDbArc
 50
15.46600995342052
 51
90.0
  0
ARC
  5
7CF
330
A
100
AcDbEntity
  8
03
100
AcDbCircle
 10
788.5858023750849
 20
882.4005311079275
 30
0.0
 40
1.5
100
AcDbArc
 50
270.0
 51
344.5339900465793
  0
ARC
  5
7D0
330
A
100
AcDbEntity
  8
03
100
AcDbCircle
 10
781.3573862276841
 20
884.4005311079275
 30
0.0
 40
9.0
100
AcDbArc
 50
344.5339900465793
 51
12.83958840690457
  0
ARC
  5
8B6
330
A
100
AcDbEntity
  8
03
100
AcDbCircle
 10
593.4573862276844
 20
945.4005311079276
 30
0.0
 40
4.5
100
AcDbArc
 50
270.0
 51
90.0
  0
CIRCLE
  5
8B9
330
A
100
AcDbEntity
  8
03
100
AcDbCircle
 10
700.9573862276839
 20
900.4005311079275
 30
0.0
 40
15.0
  0
CIRCLE
  5
8C0
330
A
100
AcDbEntity
  8
03
100
AcDbCircle
 10
700.9573862276839
 20
900.4005311079275
 30
0.0
 40
11.5
  0
CIRCLE
  5
8C1
330
A
100
AcDbEntity
  8
03
100
AcDbCircle
 10
700.9573862276839
 20
900.4005311079275
 30
0.0
 40
8.0
  0
ARC
  5
8C4
330
A
100
AcDbEntity
  8
03
100
AcDbCircle
 10
833.4573862276846
 20
855.4005311079276
 30
0.0
 40
4.5
100
AcDbArc
 50
270.0
 51
90.0
  0
ARC
  5
8C7
330
A
100
AcDbEntity
  8
03
100
AcDbCircle
 10
593.4573862276844
 20
855.4005311079276
 30
0.0
 40
4.5
100
AcDbArc
 50
270.0
 51
90.00000000000005
  0
ARC
  5
8CA
330
A
100
AcDbEntity
  8
03
100
AcDbCircle
 10
833.4573862276846
 20
945.4005311079276
 30
0.0
 40
4.5
100
AcDbArc
 50
270.0
 51
90.00000000000005
  0
CIRCLE
  5
8F9
330
A
100
AcDbEntity
  8
02
100
AcDbCircle
 10
550.9573862276844
 20
945.4005311079276
 30
0.0
 40
4.0
  0
CIRCLE
  5
8FA
330
A
100
AcDbEntity
  8
02
100
AcDbCircle
 10
550.9573862276844
 20
945.4005311079276
 30
0.0
 40
3.0
  0
CIRCLE
  5
8FB
330
A
100
AcDbEntity
  8
02
100
AcDbCircle
 10
590.9573862276844
 20
945.4005311079276
 30
0.0
 40
4.0
  0
CIRCLE
  5
8FC
330
A
100
AcDbEntity
  8
02
100
AcDbCircle
 10
590.9573862276844
 20
945.4005311079276
 30
0.0
 40
3.0
  0
CIRCLE
  5
8FD
330
A
100
AcDbEntity
  8
02
100
AcDbCircle
 10
830.9573862276844
 20
855.4005311079276
 30
0.0
 40
4.0
  0
CIRCLE
  5
8FE
330
A
100
AcDbEntity
  8
02
100
AcDbCircle
 10
830.9573862276844
 20
855.4005311079276
 30
0.0
 40
3.0
  0
CIRCLE
  5
8FF
330
A
100
AcDbEntity
  8
02
100
AcDbCircle
 10
550.9573862276844
 20
855.4005311079276
 30
0.0
 40
4.0
  0
CIRCLE
  5
900
330
A
100
AcDbEntity
  8
02
100
AcDbCircle
 10
550.9573862276844
 20
855.4005311079276
 30
0.0
 40
3.0
  0
CIRCLE
  5
901
330
A
100
AcDbEntity
  8
02
100
AcDbCircle
 10
590.9573862276844
 20
855.4005311079276
 30
0.0
 40
4.0
  0
CIRCLE
  5
902
330
A
100
AcDbEntity
  8
02
100
AcDbCircle
 10
590.9573862276844
 20
855.4005311079276
 30
0.0
 40
3.0
  0
CIRCLE
  5
903
330
A
100
AcDbEntity
  8
02
100
AcDbCircle
 10
830.9573862276844
 20
945.4005311079276
 30
0.0
 40
4.0
  0
CIRCLE
  5
904
330
A
100
AcDbEntity
  8
02
100
AcDbCircle
 10
830.9573862276844
 20
945.4005311079276
 30
0.0
 40
3.0
  0
CIRCLE
  5
90B
330
A
100
AcDbEntity
  8
KAKURE
100
AcDbCircle
 10
790.9573862276846
 20
855.4005311079276
 30
0.0
 40
4.0
  0
CIRCLE
  5
90C
330
A
100
AcDbEntity
  8
KAKURE
100
AcDbCircle
 10
790.9573862276846
 20
855.4005311079276
 30
0.0
 40
3.0
  0
CIRCLE
  5
90D
330
A
100
AcDbEntity
  8
KAKURE
100
AcDbCircle
 10
790.9573862276846
 20
945.4005311079276
 30
0.0
 40
4.0
  0
CIRCLE
  5
90E
330
A
100
AcDbEntity
  8
KAKURE
100
AcDbCircle
 10
790.9573862276846
 20
945.4005311079276
 30
0.0
 40
3.0
  0
CIRCLE
  5
925
330
A
100
AcDbEntity
  8
04
100
AcDbCircle
 10
700.9573862276839
 20
900.4005311079275
 30
0.0
 40
7.0
  0
CIRCLE
  5
927
330
A
100
AcDbEntity
  8
CHUSIN
100
AcDbCircle
 10
700.9173862276846
 20
900.4005311079275
 30
0.0
 40
60.7
  0
CIRCLE
  5
92E
330
A
100
AcDbEntity
  8
CHUSIN
100
AcDbCircle
 10
752.9573862276844
 20
1051.400531107927
 30
0.0
 40
39.51
  0
TEXT
  5
93A
330
A
100
AcDbEntity
  8
MOJI
100
AcDbText
 10
793.7881588681938
 20
1018.464744483079
 30
0.0
 40
15.0
  1
N=26
 41
0.8
  7
0_8
 11
793.7881588681938
 21
1018.464744483079
 31
0.0
100
AcDbText
 73
     1
  0
TEXT
  5
93B
330
A
100
AcDbEntity
  8
MOJI
100
AcDbText
 10
748.8626307088858
 20
804.8987590451798
 30
0.0
 40
15.0
  1
LP=58
 41
0.8
  7
0_8
 11
748.8626307088858
 21
804.8987590451798
 31
0.0
100
AcDbText
 73
     1
  0
ARC
  5
93E
330
A
100
AcDbEntity
  8
CHUSIN
100
AcDbCircle
 10
678.9573862276844
 20
1051.400531107927
 30
0.0
 40
16.5
100
AcDbArc
 50
342.2222218311762
 51
17.57777775769229
  0
ARC
  5
941
330
A
100
AcDbEntity
  8
CHUSIN
100
AcDbCircle
 10
678.9573862276844
 20
1051.400531107927
 30
0.0
 40
16.49999999999999
100
AcDbArc
 50
102.2222218311761
 51
137.577777757692
  0
ARC
  5
942
330
A
100
AcDbEntity
  8
CHUSIN
100
AcDbCircle
 10
678.9573862276844
 20
1051.400531107927
 30
0.0
 40
16.49999999999999
100
AcDbArc
 50
222.2222218311761
 51
257.5777777576922
  0
CIRCLE
  5
944
330
A
100
AcDbEntity
  8
03
100
AcDbCircle
 10
752.9573862276844
 20
1051.400531107927
 30
0.0
 40
42.0
  0
TEXT
  5
975
330
A
100
AcDbEntity
  8
MOJI
100
AcDbText
 10
510.2130409395848
 20
806.7775248163203
 30
0.0
 40
15.0
  1
スプロケット装置
 41
0.8
  7
0_8
 11
510.2130409395848
 21
806.7775248163203
 31
0.0
100
AcDbText
 73
     1
  0
LINE
  5
9C7
330
A
100
AcDbEntity
  8
CHUSIN
100
AcDbLine
 10
678.9573862276844
 20
1024.480178733029
 30
0.0
 11
678.9573862276844
 21
1078.230065210189
 31
0.0
  0
LINE
  5
9C8
330
A
100
AcDbEntity
  8
CHUSIN
100
AcDbLine
 10
752.9573862276844
 20
996.9068786504386
 30
0.0
 11
752.9573862276844
 21
1105.567488946269
 31
0.0
  0
LINE
  5
9C9
330
A
100
AcDbEntity
  8
CHUSIN
100
AcDbLine
 10
791.6890319129772
 20
1043.596703681022
 30
0.0
 11
760.4215849899543
 21
888.4113555874739
 31
0.0
  0
LINE
  5
9CA
330
A
100
AcDbEntity
  8
CHUSIN
100
AcDbLine
 10
717.6416715054849
 20
1069.116072128742
 30
0.0
 11
646.6611502459707
 21
927.6172696542083
 31
0.0
  0
LINE
  5
9CB
330
A
100
AcDbEntity
  8
CHUSIN
100
AcDbLine
 10
843.4512224304951
 20
1091.400531107927
 30
0.0
 11
867.9573862276845
 21
1091.400531107927
 31
0.0
  0
LINE
  5
9CC
330
A
100
AcDbEntity
  8
CHUSIN
100
AcDbLine
 10
843.4512224304951
 20
1011.400531107927
 30
0.0
 11
867.9573862276845
 21
1011.400531107927
 31
0.0
  0
LINE
  5
9CD
330
A
100
AcDbEntity
  8
CHUSIN
100
AcDbLine
 10
538.4635500248744
 20
1011.400531107927
 30
0.0
 11
514.1251853993578
 21
1011.400531107927
 31
0.0
  0
LINE
  5
9CE
330
A
100
AcDbEntity
  8
CHUSIN
100
AcDbLine
 10
538.4635500248744
 20
1091.400531107927
 30
0.0
 11
514.1251853993578
 21
1091.400531107927
 31
0.0
  0
LINE
  5
9D3
330
A
100
AcDbEntity
  8
CHUSIN
100
AcDbLine
 10
855.9573862276844
 20
1111.511561750772
 30
0.0
 11
855.9573862276844
 21
1072.834271607964
 31
0.0
  0
LINE
  5
9D4
330
A
100
AcDbEntity
  8
CHUSIN
100
AcDbLine
 10
855.9573862276844
 20
1031.511561750772
 30
0.0
 11
855.9573862276844
 21
992.8342716079654
 31
0.0
  0
LINE
  5
9D5
330
A
100
AcDbEntity
  8
CHUSIN
100
AcDbLine
 10
525.9573862276844
 20
1031.511561750772
 30
0.0
 11
525.9573862276844
 21
992.8342716079656
 31
0.0
  0
LINE
  5
9D6
330
A
100
AcDbEntity
  8
CHUSIN
100
AcDbLine
 10
525.9573862276844
 20
1111.511561750772
 30
0.0
 11
525.9573862276844
 21
1072.834271607964
 31
0.0
  0
LINE
  5
9D7
330
A
100
AcDbEntity
  8
CHUSIN
100
AcDbLine
 10
700.9573862276839
 20
966.1791476704033
 30
0.0
 11
700.9573862276838
 21
817.4258239768175
 31
0.0
  0
LINE
  5
9D8
330
A
100
AcDbEntity
  8
KAKURE
100
AcDbLine
 10
676.2192081572273
 20
958.9005311079276
 30
0.0
 11
725.6155642981412
 21
958.9005311079276
 31
0.0
  0
LINE
  5
9D9
330
A
100
AcDbEntity
  8
KAKURE
100
AcDbLine
 10
495.9973862276844
 20
505.4005311079281
 30
0.0
 11
495.9973862276844
 21
511.4005311079281
 31
0.0
  0
LINE
  5
9DA
330
A
100
AcDbEntity
  8
KAKURE
100
AcDbLine
 10
885.9973862276843
 20
505.4005314129699
 30
0.0
 11
885.9973862276843
 21
511.4005314129698
 31
0.0
  0
LINE
  5
9DB
330
A
100
AcDbEntity
  8
KAKURE
100
AcDbLine
 10
873.5373862276848
 20
701.4005311079277
 30
0.0
 11
508.5373862276847
 21
701.4005311079277
 31
0.0
  0
LINE
  5
9DC
330
A
100
AcDbEntity
  8
KAKURE
100
AcDbLine
 10
508.5773862276844
 20
821.4005311079276
 30
0.0
 11
873.5773862276843
 21
821.4005311079276
 31
0.0
  0
LINE
  5
9DD
330
A
100
AcDbEntity
  8
KAKURE
100
AcDbLine
 10
508.5373862276847
 20
701.4005311079277
 30
0.0
 11
508.5373862276847
 21
821.4005311079276
 31
0.0
  0
LINE
  5
9DE
330
A
100
AcDbEntity
  8
KAKURE
100
AcDbLine
 10
873.5373862276848
 20
821.4005311079276
 30
0.0
 11
873.5373862276848
 21
701.4005311079277
 31
0.0
  0
LINE
  5
9DF
330
A
100
AcDbEntity
  8
02
100
AcDbLine
 10
476.0373862276848
 20
1141.400531107927
 30
0.0
 11
906.0373862276847
 21
1141.400531107927
 31
0.0
  0
LINE
  5
9E0
330
A
100
AcDbEntity
  8
02
100
AcDbLine
 10
906.0373862276852
 20
1471.400531107927
 30
0.0
 11
906.0373862276847
 21
841.4005311079275
 31
0.0
  0
LINE
  5
9E1
330
A
100
AcDbEntity
  8
02
100
AcDbLine
 10
476.0373862276848
 20
841.4005311079275
 30
0.0
 11
476.0373862276848
 21
1471.400531107927
 31
0.0
  0
LINE
  5
9E3
330
A
100
AcDbEntity
  8
02
100
AcDbLine
 10
906.0373862276847
 20
841.4005311079275
 30
0.0
 11
476.0373862276848
 21
841.4005311079275
 31
0.0
  0
LINE
  5
9E4
330
A
100
AcDbEntity
  8
02
100
AcDbLine
 10
476.0373862276848
 20
1471.400531107927
 30
0.0
 11
906.0373862276852
 21
1471.400531107927
 31
0.0
  0
LINE
  5
9F3
330
A
100
AcDbEntity
  8
CHUSIN
100
AcDbLine
 10
633.2080572342707
 20
790.0955839511397
 30
0.0
 11
671.9523397498512
 21
909.7773166731927
 31
0.0
  0
LINE
  5
9F4
330
A
100
AcDbEntity
  8
CHUSIN
100
AcDbLine
 10
730.9785115258589
 20
905.2199471314173
 30
0.0
 11
750.8920324946962
 21
781.0092863263816
 31
0.0
  0
LINE
  5
9F5
330
A
100
AcDbEntity
  8
CHUSIN
100
AcDbLine
 10
830.9573862276844
 20
940.0645803555713
 30
0.0
 11
830.9573862276844
 21
950.9380530606032
 31
0.0
  0
LINE
  5
9F6
330
A
100
AcDbEntity
  8
CHUSIN
100
AcDbLine
 10
843.0577484148994
 20
945.4005311079276
 30
0.0
 11
775.9573862276839
 21
945.4005311079276
 31
0.0
  0
LINE
  5
9F7
330
A
100
AcDbEntity
  8
CHUSIN
100
AcDbLine
 10
590.9573862276844
 20
850.0645803555711
 30
0.0
 11
590.9573862276844
 21
860.9380530606031
 31
0.0
  0
LINE
  5
9F8
330
A
100
AcDbEntity
  8
CHUSIN
100
AcDbLine
 10
550.9573862276844
 20
850.0645803555711
 30
0.0
 11
550.9573862276844
 21
860.9380530606031
 31
0.0
  0
LINE
  5
9F9
330
A
100
AcDbEntity
  8
CHUSIN
100
AcDbLine
 10
625.9573862276839
 20
855.4005311079276
 30
0.0
 11
541.2706913366434
 21
855.4005311079276
 31
0.0
  0
LINE
  5
9FA
330
A
100
AcDbEntity
  8
CHUSIN
100
AcDbLine
 10
590.9573862276844
 20
950.7364818602839
 30
0.0
 11
590.9573862276844
 21
939.863009155252
 31
0.0
  0
LINE
  5
9FB
330
A
100
AcDbEntity
  8
CHUSIN
100
AcDbLine
 10
830.9573862276844
 20
860.7364818602841
 30
0.0
 11
830.9573862276844
 21
849.8630091552518
 31
0.0
  0
LINE
  5
9FC
330
A
100
AcDbEntity
  8
CHUSIN
100
AcDbLine
 10
550.9573862276844
 20
950.7364818602839
 30
0.0
 11
550.9573862276844
 21
939.863009155252
 31
0.0
  0
LINE
  5
9FD
330
A
100
AcDbEntity
  8
CHUSIN
100
AcDbLine
 10
625.9573862276839
 20
945.4005311079276
 30
0.0
 11
541.2706913366434
 21
945.4005311079276
 31
0.0
  0
LINE
  5
9FE
330
A
100
AcDbEntity
  8
CHUSIN
100
AcDbLine
 10
843.0577484148994
 20
855.4005311079276
 30
0.0
 11
775.9573862276839
 21
855.4005311079276
 31
0.0
  0
LINE
  5
9FF
330
A
100
AcDbEntity
  8
CHUSIN
100
AcDbLine
 10
833.4573862276846
 20
935.4005311079275
 30
0.0
 11
833.4573862276846
 21
955.4005311079276
 31
0.0
  0
LINE
  5
A00
330
A
100
AcDbEntity
  8
CHUSIN
100
AcDbLine
 10
808.4573862276846
 20
935.4005311079275
 30
0.0
 11
808.4573862276846
 21
955.4005311079276
 31
0.0
  0
LINE
  5
A01
330
A
100
AcDbEntity
  8
CHUSIN
100
AcDbLine
 10
820.9573862276846
 20
935.4005311079275
 30
0.0
 11
820.9573862276846
 21
955.4005311079276
 31
0.0
  0
LINE
  5
A02
330
A
100
AcDbEntity
  8
CHUSIN
100
AcDbLine
 10
785.9573862276842
 20
955.4005311079276
 30
0.0
 11
785.9573862276842
 21
935.4005311079275
 31
0.0
  0
LINE
  5
A03
330
A
100
AcDbEntity
  8
CHUSIN
100
AcDbLine
 10
593.4573862276844
 20
845.4005311079276
 30
0.0
 11
593.4573862276844
 21
865.4005311079275
 31
0.0
  0
LINE
  5
A04
330
A
100
AcDbEntity
  8
CHUSIN
100
AcDbLine
 10
568.4573862276844
 20
845.4005311079276
 30
0.0
 11
568.4573862276844
 21
865.4005311079275
 31
0.0
  0
LINE
  5
A05
330
A
100
AcDbEntity
  8
CHUSIN
100
AcDbLine
 10
580.9573862276838
 20
845.4005311079276
 30
0.0
 11
580.9573862276841
 21
865.4005311079275
 31
0.0
  0
LINE
  5
A06
330
A
100
AcDbEntity
  8
CHUSIN
100
AcDbLine
 10
615.9573862276841
 20
865.4005311079275
 30
0.0
 11
615.957386227684
 21
845.4005311079276
 31
0.0
  0
LINE
  5
A07
330
A
100
AcDbEntity
  8
CHUSIN
100
AcDbLine
 10
833.4573862276846
 20
865.4005311079275
 30
0.0
 11
833.4573862276842
 21
845.4005311079276
 31
0.0
  0
LINE
  5
A08
330
A
100
AcDbEntity
  8
CHUSIN
100
AcDbLine
 10
808.4573862276846
 20
865.4005311079275
 30
0.0
 11
808.4573862276846
 21
845.4005311079276
 31
0.0
  0
LINE
  5
A09
330
A
100
AcDbEntity
  8
CHUSIN
100
AcDbLine
 10
820.9573862276846
 20
865.4005311079275
 30
0.0
 11
820.9573862276842
 21
845.4005311079276
 31
0.0
  0
LINE
  5
A0A
330
A
100
AcDbEntity
  8
CHUSIN
100
AcDbLine
 10
593.4573862276844
 20
955.4005311079276
 30
0.0
 11
593.4573862276844
 21
935.4005311079275
 31
0.0
  0
LINE
  5
A0B
330
A
100
AcDbEntity
  8
CHUSIN
100
AcDbLine
 10
568.4573862276844
 20
955.4005311079276
 30
0.0
 11
568.4573862276844
 21
935.4005311079275
 31
0.0
  0
LINE
  5
A0C
330
A
100
AcDbEntity
  8
CHUSIN
100
AcDbLine
 10
580.9573862276841
 20
955.4005311079276
 30
0.0
 11
580.9573862276841
 21
935.4005311079275
 31
0.0
  0
LINE
  5
A0D
330
A
100
AcDbEntity
  8
CHUSIN
100
AcDbLine
 10
615.9573862276841
 20
935.4005311079275
 30
0.0
 11
615.9573862276841
 21
955.4005311079276
 31
0.0
  0
LINE
  5
A0E
330
A
100
AcDbEntity
  8
CHUSIN
100
AcDbLine
 10
785.957386227684
 20
845.4005311079276
 30
0.0
 11
785.9573862276842
 21
865.4005311079275
 31
0.0
  0
LINE
  5
A0F
330
A
100
AcDbEntity
  8
03
100
AcDbLine
 10
844.9573862276846
 20
958.9005311079276
 30
0.0
 11
725.6155642981412
 21
958.9005311079276
 31
0.0
  0
LINE
  5
A10
330
A
100
AcDbEntity
  8
03
100
AcDbLine
 10
676.2192081572273
 20
958.9005311079276
 30
0.0
 11
556.9573862276844
 21
958.9005311079276
 31
0.0
  0
LINE
  5
A11
330
A
100
AcDbEntity
  8
03
100
AcDbLine
 10
818.168488778612
 20
949.9005311079276
 30
0.0
 11
833.4573862276846
 21
949.9005311079276
 31
0.0
  0
LINE
  5
A12
330
A
100
AcDbEntity
  8
03
100
AcDbLine
 10
818.168488778612
 20
940.9005311079276
 30
0.0
 11
833.4573862276846
 21
940.9005311079276
 31
0.0
  0
LINE
  5
A13
330
A
100
AcDbEntity
  8
03
100
AcDbLine
 10
578.1684887786119
 20
859.9005311079276
 30
0.0
 11
593.4573862276844
 21
859.9005311079276
 31
0.0
  0
LINE
  5
A14
330
A
100
AcDbEntity
  8
03
100
AcDbLine
 10
578.1684887786119
 20
850.9005311079276
 30
0.0
 11
593.4573862276844
 21
850.9005311079276
 31
0.0
  0
LINE
  5
A15
330
A
100
AcDbEntity
  8
03
100
AcDbLine
 10
818.1684887786119
 20
850.9005311079276
 30
0.0
 11
833.4573862276842
 21
850.9005311079276
 31
0.0
  0
LINE
  5
A16
330
A
100
AcDbEntity
  8
03
100
AcDbLine
 10
818.168488778612
 20
859.9005311079276
 30
0.0
 11
833.4573862276846
 21
859.9005311079276
 31
0.0
  0
LINE
  5
A17
330
A
100
AcDbEntity
  8
03
100
AcDbLine
 10
775.9573862276839
 20
958.9005311079276
 30
0.0
 11
775.9573862276838
 21
841.9005311079276
 31
0.0
  0
LINE
  5
A18
330
A
100
AcDbEntity
  8
03
100
AcDbLine
 10
625.9573862276839
 20
958.9005311079276
 30
0.0
 11
625.9573862276838
 21
841.9005311079276
 31
0.0
  0
LINE
  5
A19
330
A
100
AcDbEntity
  8
03
100
AcDbLine
 10
712.9573806326832
 20
907.3287311079274
 30
0.0
 11
700.9573862276844
 21
914.2569311079276
 31
0.0
  0
LINE
  5
A1A
330
A
100
AcDbEntity
  8
03
100
AcDbLine
 10
712.9573806326832
 20
893.4723311079277
 30
0.0
 11
712.9573806326832
 21
907.3287311079274
 31
0.0
  0
LINE
  5
A1B
330
A
100
AcDbEntity
  8
03
100
AcDbLine
 10
700.9573862276839
 20
886.5441311079276
 30
0.0
 11
712.9573806326832
 21
893.4723311079277
 31
0.0
  0
LINE
  5
A1C
330
A
100
AcDbEntity
  8
03
100
AcDbLine
 10
688.9573918226857
 20
893.4723311079277
 30
0.0
 11
700.9573862276839
 21
886.5441311079276
 31
0.0
  0
LINE
  5
A1D
330
A
100
AcDbEntity
  8
03
100
AcDbLine
 10
688.9573918226857
 20
907.3287311079274
 30
0.0
 11
688.9573918226857
 21
893.4723311079277
 31
0.0
  0
LINE
  5
A1E
330
A
100
AcDbEntity
  8
03
100
AcDbLine
 10
700.9573862276839
 20
914.2569311079276
 30
0.0
 11
688.9573918226857
 21
907.3287311079274
 31
0.0
  0
LINE
  5
A1F
330
A
100
AcDbEntity
  8
03
100
AcDbLine
 10
578.1684887786119
 20
940.9005311079276
 30
0.0
 11
593.4573862276844
 21
940.9005311079276
 31
0.0
  0
LINE
  5
A20
330
A
100
AcDbEntity
  8
03
100
AcDbLine
 10
578.1684887786119
 20
949.9005311079276
 30
0.0
 11
593.4573862276844
 21
949.9005311079276
 31
0.0
  0
LINE
  5
A21
330
A
100
AcDbEntity
  8
03
100
AcDbLine
 10
556.9573862276844
 20
958.9005311079276
 30
0.0
 11
556.9573862276844
 21
841.9005311079276
 31
0.0
  0
LINE
  5
A22
330
A
100
AcDbEntity
  8
03
100
AcDbLine
 10
844.9573862276846
 20
958.9005311079276
 30
0.0
 11
844.9573862276842
 21
841.9005311079276
 31
0.0
  0
LINE
  5
A23
330
A
100
AcDbEntity
  8
03
100
AcDbLine
 10
605.9573862276841
 20
958.9005311079276
 30
0.0
 11
605.9573862276838
 21
841.9005311079276
 31
0.0
  0
LINE
  5
A24
330
A
100
AcDbEntity
  8
03
100
AcDbLine
 10
795.9573862276839
 20
841.9005311079276
 30
0.0
 11
795.9573862276841
 21
958.9005311079276
 31
0.0
  0
LINE
  5
A25
330
A
100
AcDbEntity
  8
03
100
AcDbLine
 10
676.2192081572273
 20
841.9005311079276
 30
0.0
 11
556.9573862276844
 21
841.9005311079276
 31
0.0
  0
LINE
  5
A26
330
A
100
AcDbEntity
  8
03
100
AcDbLine
 10
844.9573862276842
 20
841.9005311079276
 30
0.0
 11
725.6155642981411
 21
841.9005311079276
 31
0.0
  0
LINE
  5
BC1
330
A
100
AcDbEntity
  8
03
100
AcDbLine
 10
786.7573862276848
 20
880.4005311079276
 30
0.0
 11
785.9573862276842
 21
880.4005311079276
 31
0.0
  0
LINE
  5
BC2
330
A
100
AcDbEntity
  8
03
100
AcDbLine
 10
786.7573862276848
 20
920.4005311079272
 30
0.0
 11
785.9573862276844
 21
920.4005311079272
 31
0.0
  0
LINE
  5
BC3
330
A
100
AcDbEntity
  8
03
100
AcDbLine
 10
790.3573862276843
 20
884.4005311079275
 30
0.0
 11
788.9573862276846
 21
884.4005311079275
 31
0.0
  0
LINE
  5
BC4
330
A
100
AcDbEntity
  8
03
100
AcDbLine
 10
787.7573862276843
 20
880.9005311079275
 30
0.0
 11
788.5858023750849
 21
880.9005311079275
 31
0.0
  0
LINE
  5
BC5
330
A
100
AcDbEntity
  8
03
100
AcDbLine
 10
786.7573862276848
 20
880.4005311079276
 30
0.0
 11
786.7573862276848
 21
886.4005311079276
 31
0.0
  0
LINE
  5
BC6
330
A
100
AcDbEntity
  8
03
100
AcDbLine
 10
787.7573862276843
 20
884.5345057041431
 30
0.0
 11
786.7573862276848
 21
884.2665565117119
 31
0.0
  0
LINE
  5
BC7
330
A
100
AcDbEntity
  8
03
100
AcDbLine
 10
787.7573862276843
 20
880.6005311079273
 30
0.0
 11
786.7573862276848
 21
880.6005311079273
 31
0.0
  0
LINE
  5
BC8
330
A
100
AcDbEntity
  8
03
100
AcDbLine
 10
787.7573862276843
 20
880.6005311079273
 30
0.0
 11
787.7573862276843
 21
886.4005311079276
 31
0.0
  0
LINE
  5
BC9
330
A
100
AcDbEntity
  8
03
100
AcDbLine
 10
790.3573862276843
 20
896.4005311079271
 30
0.0
 11
788.9573862276846
 21
896.4005311079271
 31
0.0
  0
LINE
  5
BCA
330
A
100
AcDbEntity
  8
03
100
AcDbLine
 10
788.5858023750849
 20
899.9005311079272
 30
0.0
 11
787.7573862276843
 21
899.9005311079272
 31
0.0
  0
LINE
  5
BCB
330
A
100
AcDbEntity
  8
03
100
AcDbLine
 10
787.7573862276843
 20
892.9005311079269
 30
0.0
 11
788.5858023750849
 21
892.9005311079269
 31
0.0
  0
LINE
  5
BCC
330
A
100
AcDbEntity
  8
03
100
AcDbLine
 10
786.7573862276848
 20
892.4005311079271
 30
0.0
 11
786.7573862276848
 21
900.4005311079271
 31
0.0
  0
LINE
  5
BCD
330
A
100
AcDbEntity
  8
03
100
AcDbLine
 10
787.7573862276843
 20
896.5345057041428
 30
0.0
 11
786.7573862276848
 21
896.2665565117115
 31
0.0
  0
LINE
  5
BCE
330
A
100
AcDbEntity
  8
03
100
AcDbLine
 10
787.7573862276843
 20
892.6005311079272
 30
0.0
 11
786.7573862276848
 21
892.6005311079272
 31
0.0
  0
LINE
  5
BCF
330
A
100
AcDbEntity
  8
03
100
AcDbLine
 10
787.7573862276843
 20
900.2005311079271
 30
0.0
 11
786.7573862276848
 21
900.2005311079271
 31
0.0
  0
LINE
  5
BD0
330
A
100
AcDbEntity
  8
03
100
AcDbLine
 10
787.7573862276843
 20
892.6005311079272
 30
0.0
 11
787.7573862276843
 21
900.2005311079271
 31
0.0
  0
LINE
  5
BD1
330
A
100
AcDbEntity
  8
03
100
AcDbLine
 10
790.3573862276843
 20
916.4005311079272
 30
0.0
 11
788.9573862276846
 21
916.4005311079272
 31
0.0
  0
LINE
  5
BD2
330
A
100
AcDbEntity
  8
03
100
AcDbLine
 10
788.5858023750849
 20
919.9005311079272
 30
0.0
 11
787.7573862276843
 21
919.9005311079272
 31
0.0
  0
LINE
  5
BD3
330
A
100
AcDbEntity
  8
03
100
AcDbLine
 10
786.7573862276848
 20
914.4005311079274
 30
0.0
 11
786.7573862276848
 21
920.4005311079272
 31
0.0
  0
LINE
  5
BD4
330
A
100
AcDbEntity
  8
03
100
AcDbLine
 10
787.7573862276843
 20
916.5345057041427
 30
0.0
 11
786.7573862276848
 21
916.2665565117116
 31
0.0
  0
LINE
  5
BD5
330
A
100
AcDbEntity
  8
03
100
AcDbLine
 10
787.7573862276843
 20
920.200531107927
 30
0.0
 11
786.7573862276848
 21
920.200531107927
 31
0.0
  0
LINE
  5
BD6
330
A
100
AcDbEntity
  8
03
100
AcDbLine
 10
787.7573862276843
 20
914.4005311079274
 30
0.0
 11
787.7573862276843
 21
920.200531107927
 31
0.0
  0
LINE
  5
BD7
330
A
100
AcDbEntity
  8
03
100
AcDbLine
 10
790.3573862276843
 20
906.4005311079275
 30
0.0
 11
788.9573862276846
 21
906.4005311079275
 31
0.0
  0
LINE
  5
BD8
330
A
100
AcDbEntity
  8
03
100
AcDbLine
 10
788.5858023750849
 20
909.9005311079276
 30
0.0
 11
787.7573862276843
 21
909.9005311079276
 31
0.0
  0
LINE
  5
BD9
330
A
100
AcDbEntity
  8
03
100
AcDbLine
 10
787.7573862276843
 20
902.9005311079275
 30
0.0
 11
788.5858023750849
 21
902.9005311079275
 31
0.0
  0
LINE
  5
BDA
330
A
100
AcDbEntity
  8
03
100
AcDbLine
 10
786.7573862276848
 20
902.4005311079276
 30
0.0
 11
786.7573862276848
 21
910.4005311079275
 31
0.0
  0
LINE
  5
BDB
330
A
100
AcDbEntity
  8
03
100
AcDbLine
 10
787.7573862276843
 20
906.5345057041433
 30
0.0
 11
786.7573862276848
 21
906.266556511712
 31
0.0
  0
LINE
  5
BDC
330
A
100
AcDbEntity
  8
03
100
AcDbLine
 10
787.7573862276843
 20
902.6005311079275
 30
0.0
 11
786.7573862276848
 21
902.6005311079275
 31
0.0
  0
LINE
  5
BDD
330
A
100
AcDbEntity
  8
03
100
AcDbLine
 10
787.7573862276843
 20
910.2005311079276
 30
0.0
 11
786.7573862276848
 21
910.2005311079276
 31
0.0
  0
LINE
  5
BDE
330
A
100
AcDbEntity
  8
03
100
AcDbLine
 10
787.7573862276843
 20
902.6005311079275
 30
0.0
 11
787.7573862276843
 21
910.2005311079276
 31
0.0
  0
LINE
  5
BDF
330
A
100
AcDbEntity
  8
03
100
AcDbLine
 10
795.9573862276841
 20
910.4005311079275
 30
0.0
 11
785.9573862276842
 21
910.4005311079275
 31
0.0
  0
LINE
  5
BE0
330
A
100
AcDbEntity
  8
03
100
AcDbLine
 10
785.9573862276842
 20
879.4005311079276
 30
0.0
 11
775.9573862276839
 21
879.4005311079276
 31
0.0
  0
LINE
  5
BE1
330
A
100
AcDbEntity
  8
03
100
AcDbLine
 10
795.9573862276841
 20
886.4005311079276
 30
0.0
 11
785.9573862276842
 21
886.4005311079276
 31
0.0
  0
LINE
  5
BE2
330
A
100
AcDbEntity
  8
03
100
AcDbLine
 10
795.9573862276841
 20
890.4005311079275
 30
0.0
 11
785.9573862276842
 21
890.4005311079275
 31
0.0
  0
LINE
  5
BE3
330
A
100
AcDbEntity
  8
03
100
AcDbLine
 10
795.9573862276841
 20
892.4005311079275
 30
0.0
 11
785.9573862276842
 21
892.4005311079275
 31
0.0
  0
LINE
  5
BE4
330
A
100
AcDbEntity
  8
03
100
AcDbLine
 10
795.9573862276841
 20
900.4005311079275
 30
0.0
 11
785.9573862276842
 21
900.4005311079275
 31
0.0
  0
LINE
  5
BE5
330
A
100
AcDbEntity
  8
03
100
AcDbLine
 10
795.9573862276841
 20
902.4005311079276
 30
0.0
 11
785.9573862276842
 21
902.4005311079276
 31
0.0
  0
LINE
  5
BE6
330
A
100
AcDbEntity
  8
03
100
AcDbLine
 10
785.9573862276842
 20
914.4005311079276
 30
0.0
 11
795.9573862276841
 21
914.4005311079276
 31
0.0
  0
LINE
  5
BE7
330
A
100
AcDbEntity
  8
03
100
AcDbLine
 10
785.9573862276842
 20
921.4005311079276
 30
0.0
 11
785.9573862276842
 21
879.4005311079276
 31
0.0
  0
LINE
  5
BE8
330
A
100
AcDbEntity
  8
03
100
AcDbLine
 10
775.9573862276839
 20
921.4005311079276
 30
0.0
 11
785.9573862276842
 21
921.4005311079276
 31
0.0
  0
LINE
  5
BE9
330
A
100
AcDbEntity
  8
CHUSIN
100
AcDbLine
 10
501.0373862276848
 20
1161.400531107926
 30
0.0
 11
481.0373862276848
 21
1161.400531107926
 31
0.0
  0
LINE
  5
BEA
330
A
100
AcDbEntity
  8
CHUSIN
100
AcDbLine
 10
491.0373862276848
 20
1171.400531107927
 30
0.0
 11
491.0373862276848
 21
1151.400531107926
 31
0.0
  0
LINE
  5
BEB
330
A
100
AcDbEntity
  8
CHUSIN
100
AcDbLine
 10
901.0373862276848
 20
1161.400531107926
 30
0.0
 11
881.0373862276849
 21
1161.400531107926
 31
0.0
  0
LINE
  5
BEC
330
A
100
AcDbEntity
  8
CHUSIN
100
AcDbLine
 10
891.0373862276848
 20
1171.400531107927
 30
0.0
 11
891.0373862276848
 21
1151.400531107926
 31
0.0
  0
LINE
  5
BED
330
A
100
AcDbEntity
  8
CHUSIN
100
AcDbLine
 10
901.0373862276848
 20
1436.400531107927
 30
0.0
 11
881.0373862276851
 21
1436.400531107927
 31
0.0
  0
LINE
  5
BEE
330
A
100
AcDbEntity
  8
CHUSIN
100
AcDbLine
 10
891.0373862276848
 20
1426.400531107927
 30
0.0
 11
891.0373862276848
 21
1446.400531107927
 31
0.0
  0
LINE
  5
BEF
330
A
100
AcDbEntity
  8
CHUSIN
100
AcDbLine
 10
501.0373862276848
 20
1436.400531107927
 30
0.0
 11
481.037386227685
 21
1436.400531107927
 31
0.0
  0
LINE
  5
BF0
330
A
100
AcDbEntity
  8
CHUSIN
100
AcDbLine
 10
491.0373862276848
 20
1426.400531107927
 30
0.0
 11
491.0373862276848
 21
1446.400531107927
 31
0.0
  0
LINE
  5
BF1
330
A
100
AcDbEntity
  8
CHUSIN
100
AcDbLine
 10
901.0373862276848
 20
856.4005311079274
 30
0.0
 11
881.0373862276849
 21
856.4005311079274
 31
0.0
  0
LINE
  5
BF2
330
A
100
AcDbEntity
  8
CHUSIN
100
AcDbLine
 10
891.0373862276848
 20
846.4005311079272
 30
0.0
 11
891.0373862276848
 21
866.4005311079272
 31
0.0
  0
LINE
  5
BF3
330
A
100
AcDbEntity
  8
CHUSIN
100
AcDbLine
 10
901.0373862276848
 20
991.4005311079272
 30
0.0
 11
881.0373862276849
 21
991.4005311079272
 31
0.0
  0
LINE
  5
BF4
330
A
100
AcDbEntity
  8
CHUSIN
100
AcDbLine
 10
891.0373862276848
 20
981.4005311079274
 30
0.0
 11
891.0373862276848
 21
1001.400531107927
 31
0.0
  0
LINE
  5
BF5
330
A
100
AcDbEntity
  8
CHUSIN
100
AcDbLine
 10
901.0373862276848
 20
1126.400531107927
 30
0.0
 11
881.0373862276849
 21
1126.400531107927
 31
0.0
  0
LINE
  5
BF6
330
A
100
AcDbEntity
  8
CHUSIN
100
AcDbLine
 10
891.0373862276848
 20
1116.400531107927
 30
0.0
 11
891.0373862276848
 21
1136.400531107927
 31
0.0
  0
LINE
  5
BF7
330
A
100
AcDbEntity
  8
CHUSIN
100
AcDbLine
 10
501.0373862276848
 20
1126.400531107927
 30
0.0
 11
481.0373862276848
 21
1126.400531107927
 31
0.0
  0
LINE
  5
BF8
330
A
100
AcDbEntity
  8
CHUSIN
100
AcDbLine
 10
491.0373862276848
 20
1116.400531107927
 30
0.0
 11
491.0373862276848
 21
1136.400531107927
 31
0.0
  0
LINE
  5
BF9
330
A
100
AcDbEntity
  8
CHUSIN
100
AcDbLine
 10
501.0373862276848
 20
991.4005311079272
 30
0.0
 11
481.0373862276848
 21
991.4005311079275
 31
0.0
  0
LINE
  5
BFA
330
A
100
AcDbEntity
  8
CHUSIN
100
AcDbLine
 10
491.0373862276848
 20
981.4005311079275
 30
0.0
 11
491.0373862276848
 21
1001.400531107927
 31
0.0
  0
LINE
  5
BFB
330
A
100
AcDbEntity
  8
CHUSIN
100
AcDbLine
 10
501.0373862276848
 20
856.4005311079274
 30
0.0
 11
481.0373862276848
 21
856.4005311079274
 31
0.0
  0
LINE
  5
BFC
330
A
100
AcDbEntity
  8
CHUSIN
100
AcDbLine
 10
491.0373862276848
 20
846.4005311079272
 30
0.0
 11
491.0373862276848
 21
866.4005311079272
 31
0.0
  0
LINE
  5
BFD
330
A
100
AcDbEntity
  8
CHUSIN
100
AcDbLine
 10
530.9973862276843
 20
549.5551882489038
 30
0.0
 11
530.9973862276843
 21
480.5727214790405
 31
0.0
  0
LINE
  5
BFE
330
A
100
AcDbEntity
  8
CHUSIN
100
AcDbLine
 10
850.9973862276842
 20
549.7273786200183
 30
0.0
 11
850.9973862276842
 21
480.7449118501549
 31
0.0
  0
LINE
  5
C0F
330
A
100
AcDbEntity
  8
CHUSIN
100
AcDbLine
 10
816.0373862276848
 20
698.4005311079275
 30
0.0
 11
816.0373862276848
 21
826.4005311079275
 31
0.0
  0
LINE
  5
C10
330
A
100
AcDbEntity
  8
CHUSIN
100
AcDbLine
 10
566.0373862276848
 20
698.4005311079275
 30
0.0
 11
566.0373862276848
 21
832.9764298612586
 31
0.0
  0
LINE
  5
C11
330
A
100
AcDbEntity
  8
CHUSIN
100
AcDbLine
 10
616.42504905192
 20
771.4005311079276
 30
0.0
 11
759.9171985861447
 21
771.4005311079276
 31
0.0
  0
LINE
  5
C12
330
A
100
AcDbEntity
  8
CHUSIN
100
AcDbLine
 10
878.0298504452686
 20
756.4005311079275
 30
0.0
 11
504.8524388275577
 21
756.4005311079275
 31
0.0
  0
LINE
  5
C13
330
A
100
AcDbEntity
  8
CHUSIN
100
AcDbLine
 10
871.7053439994463
 20
1051.400531107927
 30
0.0
 11
512.4736345610642
 21
1051.400531107927
 31
0.0
  0
LINE
  5
C14
330
A
100
AcDbEntity
  8
CHUSIN
100
AcDbLine
 10
618.9113862276842
 20
986.4005311079276
 30
0.0
 11
618.9113862276842
 21
1112.438266956983
 31
0.0
  0
LINE
  5
C15
330
A
100
AcDbEntity
  8
CHUSIN
100
AcDbLine
 10
851.847289497109
 20
900.4005311079275
 30
0.0
 11
533.8529355984985
 21
900.4005311079275
 31
0.0
  0
LINE
  5
C16
330
A
100
AcDbEntity
  8
CHUSIN
100
AcDbLine
 10
690.9973862276846
 20
1535.330528765953
 30
0.0
 11
690.9973862276842
 21
244.3136458906333
 31
0.0
  0
LINE
  5
C17
330
A
100
AcDbEntity
  8
03
100
AcDbLine
 10
105.0
 20
480.4005311079277
 30
0.0
 11
1155.0
 21
480.4005311079285
 31
0.0
  0
CIRCLE
  5
C18
330
A
100
AcDbEntity
  8
03
100
AcDbCircle
 10
891.0373862276848
 20
1436.400531107927
 30
0.0
 40
6.5
  0
CIRCLE
  5
C1F
330
A
100
AcDbEntity
  8
03
100
AcDbCircle
 10
891.0373862276848
 20
1436.400531107927
 30
0.0
 40
3.375
  0
CIRCLE
  5
C20
330
A
100
AcDbEntity
  8
03
100
AcDbCircle
 10
891.0373862276848
 20
1436.400531107927
 30
0.0
 40
4.0
  0
CIRCLE
  5
C21
330
A
100
AcDbEntity
  8
03
100
AcDbCircle
 10
891.0373862276848
 20
1436.400531107927
 30
0.0
 40
7.699999999999986
  0
CIRCLE
  5
C22
330
A
100
AcDbEntity
  8
03
100
AcDbCircle
 10
891.0373862276848
 20
1436.400531107927
 30
0.0
 40
8.5
  0
CIRCLE
  5
C23
330
A
100
AcDbEntity
  8
03
100
AcDbCircle
 10
891.0373862276848
 20
1161.400531107926
 30
0.0
 40
6.5
  0
CIRCLE
  5
C2A
330
A
100
AcDbEntity
  8
03
100
AcDbCircle
 10
891.0373862276848
 20
1161.400531107926
 30
0.0
 40
3.375
  0
CIRCLE
  5
C2B
330
A
100
AcDbEntity
  8
03
100
AcDbCircle
 10
891.0373862276848
 20
1161.400531107926
 30
0.0
 40
4.0
  0
CIRCLE
  5
C2C
330
A
100
AcDbEntity
  8
03
100
AcDbCircle
 10
891.0373862276848
 20
1161.400531107926
 30
0.0
 40
7.699999999999994
  0
CIRCLE
  5
C2D
330
A
100
AcDbEntity
  8
03
100
AcDbCircle
 10
891.0373862276848
 20
1161.400531107926
 30
0.0
 40
8.499999999999991
  0
CIRCLE
  5
C2E
330
A
100
AcDbEntity
  8
03
100
AcDbCircle
 10
891.0373862276848
 20
1126.400531107927
 30
0.0
 40
6.5
  0
CIRCLE
  5
C35
330
A
100
AcDbEntity
  8
03
100
AcDbCircle
 10
891.0373862276848
 20
1126.400531107927
 30
0.0
 40
3.375
  0
CIRCLE
  5
C36
330
A
100
AcDbEntity
  8
03
100
AcDbCircle
 10
891.0373862276848
 20
1126.400531107927
 30
0.0
 40
4.0
  0
CIRCLE
  5
C37
330
A
100
AcDbEntity
  8
03
100
AcDbCircle
 10
891.0373862276848
 20
1126.400531107927
 30
0.0
 40
7.699999999999998
  0
CIRCLE
  5
C38
330
A
100
AcDbEntity
  8
03
100
AcDbCircle
 10
891.0373862276848
 20
1126.400531107927
 30
0.0
 40
8.500000000000001
  0
CIRCLE
  5
C39
330
A
100
AcDbEntity
  8
03
100
AcDbCircle
 10
891.0373862276848
 20
991.4005311079272
 30
0.0
 40
6.5
  0
CIRCLE
  5
C40
330
A
100
AcDbEntity
  8
03
100
AcDbCircle
 10
891.0373862276848
 20
991.4005311079272
 30
0.0
 40
3.375
  0
CIRCLE
  5
C41
330
A
100
AcDbEntity
  8
03
100
AcDbCircle
 10
891.0373862276848
 20
991.4005311079272
 30
0.0
 40
4.0
  0
CIRCLE
  5
C42
330
A
100
AcDbEntity
  8
03
100
AcDbCircle
 10
891.0373862276848
 20
991.4005311079272
 30
0.0
 40
7.700000000000001
  0
CIRCLE
  5
C43
330
A
100
AcDbEntity
  8
03
100
AcDbCircle
 10
891.0373862276848
 20
991.4005311079272
 30
0.0
 40
8.5
  0
CIRCLE
  5
C44
330
A
100
AcDbEntity
  8
03
100
AcDbCircle
 10
891.0373862276848
 20
856.4005311079274
 30
0.0
 40
6.5
  0
CIRCLE
  5
C4B
330
A
100
AcDbEntity
  8
03
100
AcDbCircle
 10
891.0373862276848
 20
856.4005311079274
 30
0.0
 40
3.375
  0
CIRCLE
  5
C4C
330
A
100
AcDbEntity
  8
03
100
AcDbCircle
 10
891.0373862276848
 20
856.4005311079274
 30
0.0
 40
4.0
  0
CIRCLE
  5
C4D
330
A
100
AcDbEntity
  8
03
100
AcDbCircle
 10
891.0373862276848
 20
856.4005311079274
 30
0.0
 40
7.699999999999986
  0
CIRCLE
  5
C4E
330
A
100
AcDbEntity
  8
03
100
AcDbCircle
 10
891.0373862276848
 20
856.4005311079274
 30
0.0
 40
8.5
  0
CIRCLE
  5
C4F
330
A
100
AcDbEntity
  8
03
100
AcDbCircle
 10
891.0373862276848
 20
801.4005311079271
 30
0.0
 40
6.5
  0
CIRCLE
  5
C56
330
A
100
AcDbEntity
  8
03
100
AcDbCircle
 10
891.0373862276848
 20
801.4005311079271
 30
0.0
 40
3.375
  0
CIRCLE
  5
C57
330
A
100
AcDbEntity
  8
03
100
AcDbCircle
 10
891.0373862276848
 20
801.4005311079271
 30
0.0
 40
4.0
  0
CIRCLE
  5
C58
330
A
100
AcDbEntity
  8
03
100
AcDbCircle
 10
891.0373862276848
 20
801.4005311079271
 30
0.0
 40
7.699999999999986
  0
CIRCLE
  5
C59
330
A
100
AcDbEntity
  8
03
100
AcDbCircle
 10
891.0373862276848
 20
801.4005311079271
 30
0.0
 40
8.5
  0
CIRCLE
  5
C5A
330
A
100
AcDbEntity
  8
03
100
AcDbCircle
 10
891.0373862276848
 20
731.4005311079275
 30
0.0
 40
6.5
  0
CIRCLE
  5
C61
330
A
100
AcDbEntity
  8
03
100
AcDbCircle
 10
891.0373862276848
 20
731.4005311079275
 30
0.0
 40
3.375
  0
CIRCLE
  5
C62
330
A
100
AcDbEntity
  8
03
100
AcDbCircle
 10
891.0373862276848
 20
731.4005311079275
 30
0.0
 40
4.0
  0
CIRCLE
  5
C63
330
A
100
AcDbEntity
  8
03
100
AcDbCircle
 10
891.0373862276848
 20
731.4005311079275
 30
0.0
 40
7.699999999999986
  0
CIRCLE
  5
C64
330
A
100
AcDbEntity
  8
03
100
AcDbCircle
 10
891.0373862276848
 20
731.4005311079275
 30
0.0
 40
8.5
  0
CIRCLE
  5
C65
330
A
100
AcDbEntity
  8
03
100
AcDbCircle
 10
491.0373862276848
 20
731.4005311079275
 30
0.0
 40
6.5
  0
CIRCLE
  5
C6C
330
A
100
AcDbEntity
  8
03
100
AcDbCircle
 10
491.0373862276848
 20
731.4005311079275
 30
0.0
 40
3.375
  0
CIRCLE
  5
C6D
330
A
100
AcDbEntity
  8
03
100
AcDbCircle
 10
491.0373862276848
 20
731.4005311079275
 30
0.0
 40
4.0
  0
CIRCLE
  5
C6E
330
A
100
AcDbEntity
  8
03
100
AcDbCircle
 10
491.0373862276848
 20
731.4005311079275
 30
0.0
 40
7.699999999999986
  0
CIRCLE
  5
C6F
330
A
100
AcDbEntity
  8
03
100
AcDbCircle
 10
491.0373862276848
 20
731.4005311079275
 30
0.0
 40
8.5
  0
CIRCLE
  5
C70
330
A
100
AcDbEntity
  8
03
100
AcDbCircle
 10
491.0373862276848
 20
801.4005311079275
 30
0.0
 40
6.5
  0
CIRCLE
  5
C77
330
A
100
AcDbEntity
  8
03
100
AcDbCircle
 10
491.0373862276848
 20
801.4005311079275
 30
0.0
 40
3.375
  0
CIRCLE
  5
C78
330
A
100
AcDbEntity
  8
03
100
AcDbCircle
 10
491.0373862276848
 20
801.4005311079275
 30
0.0
 40
4.0
  0
CIRCLE
  5
C79
330
A
100
AcDbEntity
  8
03
100
AcDbCircle
 10
491.0373862276848
 20
801.4005311079275
 30
0.0
 40
7.699999999999986
  0
CIRCLE
  5
C7A
330
A
100
AcDbEntity
  8
03
100
AcDbCircle
 10
491.0373862276848
 20
801.4005311079275
 30
0.0
 40
8.5
  0
CIRCLE
  5
C7B
330
A
100
AcDbEntity
  8
03
100
AcDbCircle
 10
491.0373862276848
 20
856.4005311079274
 30
0.0
 40
6.5
  0
CIRCLE
  5
C82
330
A
100
AcDbEntity
  8
03
100
AcDbCircle
 10
491.0373862276848
 20
856.4005311079274
 30
0.0
 40
3.375
  0
CIRCLE
  5
C83
330
A
100
AcDbEntity
  8
03
100
AcDbCircle
 10
491.0373862276848
 20
856.4005311079274
 30
0.0
 40
4.0
  0
CIRCLE
  5
C84
330
A
100
AcDbEntity
  8
03
100
AcDbCircle
 10
491.0373862276848
 20
856.4005311079274
 30
0.0
 40
7.699999999999986
  0
CIRCLE
  5
C85
330
A
100
AcDbEntity
  8
03
100
AcDbCircle
 10
491.0373862276848
 20
856.4005311079274
 30
0.0
 40
8.5
  0
CIRCLE
  5
C86
330
A
100
AcDbEntity
  8
03
100
AcDbCircle
 10
491.0373862276848
 20
991.4005311079272
 30
0.0
 40
6.5
  0
CIRCLE
  5
C8D
330
A
100
AcDbEntity
  8
03
100
AcDbCircle
 10
491.0373862276848
 20
991.4005311079272
 30
0.0
 40
3.375
  0
CIRCLE
  5
C8E
330
A
100
AcDbEntity
  8
03
100
AcDbCircle
 10
491.0373862276848
 20
991.4005311079272
 30
0.0
 40
4.0
  0
CIRCLE
  5
C8F
330
A
100
AcDbEntity
  8
03
100
AcDbCircle
 10
491.0373862276848
 20
991.4005311079272
 30
0.0
 40
7.700000000000001
  0
CIRCLE
  5
C90
330
A
100
AcDbEntity
  8
03
100
AcDbCircle
 10
491.0373862276848
 20
991.4005311079272
 30
0.0
 40
8.5
  0
CIRCLE
  5
C91
330
A
100
AcDbEntity
  8
03
100
AcDbCircle
 10
491.0373862276848
 20
1126.400531107927
 30
0.0
 40
6.5
  0
CIRCLE
  5
C98
330
A
100
AcDbEntity
  8
03
100
AcDbCircle
 10
491.0373862276848
 20
1126.400531107927
 30
0.0
 40
3.375
  0
CIRCLE
  5
C99
330
A
100
AcDbEntity
  8
03
100
AcDbCircle
 10
491.0373862276848
 20
1126.400531107927
 30
0.0
 40
4.0
  0
CIRCLE
  5
C9A
330
A
100
AcDbEntity
  8
03
100
AcDbCircle
 10
491.0373862276848
 20
1126.400531107927
 30
0.0
 40
7.700000000000001
  0
CIRCLE
  5
C9B
330
A
100
AcDbEntity
  8
03
100
AcDbCircle
 10
491.0373862276848
 20
1126.400531107927
 30
0.0
 40
8.5
  0
CIRCLE
  5
C9C
330
A
100
AcDbEntity
  8
03
100
AcDbCircle
 10
491.0373862276848
 20
1161.400531107926
 30
0.0
 40
6.5
  0
CIRCLE
  5
CA3
330
A
100
AcDbEntity
  8
03
100
AcDbCircle
 10
491.0373862276848
 20
1161.400531107926
 30
0.0
 40
3.375
  0
CIRCLE
  5
CA4
330
A
100
AcDbEntity
  8
03
100
AcDbCircle
 10
491.0373862276848
 20
1161.400531107926
 30
0.0
 40
4.0
  0
CIRCLE
  5
CA5
330
A
100
AcDbEntity
  8
03
100
AcDbCircle
 10
491.0373862276848
 20
1161.400531107926
 30
0.0
 40
7.699999999999994
  0
CIRCLE
  5
CA6
330
A
100
AcDbEntity
  8
03
100
AcDbCircle
 10
491.0373862276848
 20
1161.400531107926
 30
0.0
 40
8.499999999999991
  0
CIRCLE
  5
CA7
330
A
100
AcDbEntity
  8
03
100
AcDbCircle
 10
491.0373862276848
 20
1436.400531107927
 30
0.0
 40
6.5
  0
CIRCLE
  5
CAE
330
A
100
AcDbEntity
  8
03
100
AcDbCircle
 10
491.0373862276848
 20
1436.400531107927
 30
0.0
 40
3.375
  0
CIRCLE
  5
CAF
330
A
100
AcDbEntity
  8
03
100
AcDbCircle
 10
491.0373862276848
 20
1436.400531107927
 30
0.0
 40
4.0
  0
CIRCLE
  5
CB0
330
A
100
AcDbEntity
  8
03
100
AcDbCircle
 10
491.0373862276848
 20
1436.400531107927
 30
0.0
 40
7.699999999999986
  0
CIRCLE
  5
CB1
330
A
100
AcDbEntity
  8
03
100
AcDbCircle
 10
491.0373862276848
 20
1436.400531107927
 30
0.0
 40
8.5
  0
ARC
  5
CD1
330
A
100
AcDbEntity
  8
03
100
AcDbCircle
 10
481.4973862276842
 20
490.9005311079278
 30
0.0
 40
8.5
100
AcDbArc
 50
0.0
 51
90.0
  0
ARC
  5
CD5
330
A
100
AcDbEntity
  8
03
100
AcDbCircle
 10
493.9973862276842
 20
444.4005311079281
 30
0.0
 40
4.0
100
AcDbArc
 50
180.0
 51
270.0
  0
ARC
  5
CD8
330
A
100
AcDbEntity
  8
03
100
AcDbCircle
 10
434.9973862276844
 20
503.4005311079276
 30
0.0
 40
4.0
100
AcDbArc
 50
180.0
 51
270.0
  0
ARC
  5
CE0
330
A
100
AcDbEntity
  8
04
100
AcDbCircle
 10
539.2049724490335
 20
528.9974950971537
 30
0.0
 40
3.903035858252419
100
AcDbArc
 50
45.36111921404947
 51
134.6388807859497
  0
ARC
  5
CE1
330
A
100
AcDbEntity
  8
04
100
AcDbCircle
 10
522.7898000063352
 20
528.9974950971537
 30
0.0
 40
3.903035858252459
100
AcDbArc
 50
45.36111921405011
 51
134.6388807859504
  0
ARC
  5
CE2
330
A
100
AcDbEntity
  8
04
100
AcDbCircle
 10
530.9973862276843
 20
519.0727211739998
 30
0.0
 40
13.8278097814063
100
AcDbArc
 50
66.7196482575294
 51
113.2803517424705
  0
ARC
  5
CF7
330
A
100
AcDbEntity
  8
04
100
AcDbCircle
 10
539.2049724490335
 20
495.3035668136593
 30
0.0
 40
3.903035858252459
100
AcDbArc
 50
225.3611192140501
 51
314.6388807859505
  0
ARC
  5
CF8
330
A
100
AcDbEntity
  8
04
100
AcDbCircle
 10
522.7898000063352
 20
495.3035668136593
 30
0.0
 40
3.903035858252419
100
AcDbArc
 50
225.3611192140493
 51
314.6388807859498
  0
ARC
  5
CF9
330
A
100
AcDbEntity
  8
04
100
AcDbCircle
 10
530.9973862276843
 20
505.2283407368133
 30
0.0
 40
13.8278097814063
100
AcDbArc
 50
246.7196482575294
 51
293.2803517424705
  0
ARC
  5
CFA
330
A
100
AcDbEntity
  8
04
100
AcDbCircle
 10
537.5973862276842
 20
500.0005309554068
 30
0.0
 40
0.5999999999999944
100
AcDbArc
 50
180.0
 51
270.0
  0
ARC
  5
CFB
330
A
100
AcDbEntity
  8
04
100
AcDbCircle
 10
524.3973862276845
 20
500.0005309554068
 30
0.0
 40
0.6000000000000229
100
AcDbArc
 50
270.0
 51
0.0
  0
ARC
  5
D2A
330
A
100
AcDbEntity
  8
03
100
AcDbCircle
 10
900.4973862276843
 20
490.9005311079278
 30
0.0
 40
8.5
100
AcDbArc
 50
90.0
 51
180.0
  0
ARC
  5
D2E
330
A
100
AcDbEntity
  8
03
100
AcDbCircle
 10
887.9973862276843
 20
444.4005311079281
 30
0.0
 40
4.0
100
AcDbArc
 50
270.0
 51
0.0
  0
ARC
  5
D31
330
A
100
AcDbEntity
  8
03
100
AcDbCircle
 10
946.9973862276843
 20
503.4005311079273
 30
0.0
 40
4.0
100
AcDbArc
 50
270.0
 51
0.0
  0
ARC
  5
D39
330
A
100
AcDbEntity
  8
04
100
AcDbCircle
 10
842.7898000063352
 20
528.9974952496748
 30
0.0
 40
3.903035858252419
100
AcDbArc
 50
45.36111921405011
 51
134.6388807859504
  0
ARC
  5
D3A
330
A
100
AcDbEntity
  8
04
100
AcDbCircle
 10
859.2049724490335
 20
528.9974952496748
 30
0.0
 40
3.903035858252459
100
AcDbArc
 50
45.36111921404947
 51
134.6388807859497
  0
ARC
  5
D3B
330
A
100
AcDbEntity
  8
04
100
AcDbCircle
 10
850.9973862276842
 20
519.0727213265208
 30
0.0
 40
13.8278097814063
100
AcDbArc
 50
66.7196482575294
 51
113.2803517424705
  0
ARC
  5
D50
330
A
100
AcDbEntity
  8
04
100
AcDbCircle
 10
842.7898000063352
 20
495.3035669661804
 30
0.0
 40
3.903035858252459
100
AcDbArc
 50
225.3611192140493
 51
314.6388807859498
  0
ARC
  5
D51
330
A
100
AcDbEntity
  8
04
100
AcDbCircle
 10
859.2049724490335
 20
495.3035669661804
 30
0.0
 40
3.903035858252419
100
AcDbArc
 50
225.3611192140501
 51
314.6388807859505
  0
ARC
  5
D52
330
A
100
AcDbEntity
  8
04
100
AcDbCircle
 10
850.9973862276842
 20
505.2283408893343
 30
0.0
 40
13.8278097814063
100
AcDbArc
 50
246.7196482575294
 51
293.2803517424705
  0
ARC
  5
D53
330
A
100
AcDbEntity
  8
04
100
AcDbCircle
 10
844.3973862276845
 20
500.0005311079277
 30
0.0
 40
0.5999999999999944
100
AcDbArc
 50
270.0
 51
0.0
  0
ARC
  5
D54
330
A
100
AcDbEntity
  8
04
100
AcDbCircle
 10
857.5973862276843
 20
500.0005311079277
 30
0.0
 40
0.6000000000000229
100
AcDbArc
 50
180.0
 51
270.0
  0
CIRCLE
  5
D6D
330
A
100
AcDbEntity
  8
06
100
AcDbCircle
 10
600.9943337281272
 20
1416.900531107927
 30
0.0
 40
3.5
  0
CIRCLE
  5
D72
330
A
100
AcDbEntity
  8
06
100
AcDbCircle
 10
600.9943337281272
 20
1430.900531107926
 30
0.0
 40
3.5
  0
CIRCLE
  5
D79
330
A
100
AcDbEntity
  8
06
100
AcDbCircle
 10
610.9943337281272
 20
1416.900531107927
 30
0.0
 40
3.5
  0
CIRCLE
  5
D7E
330
A
100
AcDbEntity
  8
06
100
AcDbCircle
 10
610.9943337281272
 20
1430.900531107926
 30
0.0
 40
3.5
  0
CIRCLE
  5
D85
330
A
100
AcDbEntity
  8
06
100
AcDbCircle
 10
620.9943337281274
 20
1416.900531107927
 30
0.0
 40
3.5
  0
CIRCLE
  5
D8A
330
A
100
AcDbEntity
  8
06
100
AcDbCircle
 10
620.9943337281274
 20
1430.900531107926
 30
0.0
 40
3.5
  0
CIRCLE
  5
D91
330
A
100
AcDbEntity
  8
06
100
AcDbCircle
 10
630.9943337281272
 20
1416.900531107927
 30
0.0
 40
3.5
  0
CIRCLE
  5
D96
330
A
100
AcDbEntity
  8
06
100
AcDbCircle
 10
630.9943337281272
 20
1430.900531107926
 30
0.0
 40
3.5
  0
CIRCLE
  5
D9D
330
A
100
AcDbEntity
  8
06
100
AcDbCircle
 10
640.9943337281272
 20
1416.900531107927
 30
0.0
 40
3.5
  0
CIRCLE
  5
DA2
330
A
100
AcDbEntity
  8
06
100
AcDbCircle
 10
640.9943337281272
 20
1430.900531107926
 30
0.0
 40
3.5
  0
CIRCLE
  5
DA9
330
A
100
AcDbEntity
  8
06
100
AcDbCircle
 10
650.9943337281272
 20
1416.900531107927
 30
0.0
 40
3.5
  0
CIRCLE
  5
DAE
330
A
100
AcDbEntity
  8
06
100
AcDbCircle
 10
650.9943337281272
 20
1430.900531107926
 30
0.0
 40
3.5
  0
CIRCLE
  5
DB5
330
A
100
AcDbEntity
  8
06
100
AcDbCircle
 10
660.9943337281272
 20
1416.900531107927
 30
0.0
 40
3.5
  0
CIRCLE
  5
DBA
330
A
100
AcDbEntity
  8
06
100
AcDbCircle
 10
660.9943337281272
 20
1430.900531107926
 30
0.0
 40
3.5
  0
CIRCLE
  5
DC1
330
A
100
AcDbEntity
  8
06
100
AcDbCircle
 10
670.9943337281274
 20
1416.900531107927
 30
0.0
 40
3.5
  0
CIRCLE
  5
DC6
330
A
100
AcDbEntity
  8
06
100
AcDbCircle
 10
670.9943337281274
 20
1430.900531107926
 30
0.0
 40
3.5
  0
CIRCLE
  5
DCD
330
A
100
AcDbEntity
  8
06
100
AcDbCircle
 10
680.9943337281272
 20
1416.900531107927
 30
0.0
 40
3.5
  0
CIRCLE
  5
DD2
330
A
100
AcDbEntity
  8
06
100
AcDbCircle
 10
680.9943337281272
 20
1430.900531107926
 30
0.0
 40
3.5
  0
CIRCLE
  5
DD9
330
A
100
AcDbEntity
  8
06
100
AcDbCircle
 10
690.9943337281273
 20
1416.900531107927
 30
0.0
 40
3.5
  0
CIRCLE
  5
DDE
330
A
100
AcDbEntity
  8
06
100
AcDbCircle
 10
690.9943337281273
 20
1430.900531107926
 30
0.0
 40
3.5
  0
CIRCLE
  5
DE5
330
A
100
AcDbEntity
  8
06
100
AcDbCircle
 10
590.9943337281272
 20
1433.400531107927
 30
0.0
 40
3.5
  0
CIRCLE
  5
DE8
330
A
100
AcDbEntity
  8
06
100
AcDbCircle
 10
702.9943337281273
 20
1414.400531107927
 30
0.0
 40
3.5
  0
TEXT
  5
DEB
330
A
100
AcDbEntity
  8
MOJI
100
AcDbText
 10
600.3234198441202
 20
1421.900531107927
 30
0.0
 40
4.0
  1
1
 41
0.8
  7
0_8
 11
600.3234198441202
 21
1421.900531107927
 31
0.0
100
AcDbText
 73
     1
  0
TEXT
  5
DEC
330
A
100
AcDbEntity
  8
MOJI
100
AcDbText
 10
610.1773592280112
 20
1421.900531107927
 30
0.0
 40
4.0
  1
2
 41
0.8
  7
0_8
 11
610.1773592280112
 21
1421.900531107927
 31
0.0
100
AcDbText
 73
     1
  0
TEXT
  5
DED
330
A
100
AcDbEntity
  8
MOJI
100
AcDbText
 10
619.852351767057
 20
1421.900531107927
 30
0.0
 40
4.0
  1
3
 41
0.8
  7
0_8
 11
619.852351767057
 21
1421.900531107927
 31
0.0
100
AcDbText
 73
     1
  0
TEXT
  5
DEE
330
A
100
AcDbEntity
  8
MOJI
100
AcDbText
 10
630.206291150948
 20
1421.900531107927
 30
0.0
 40
4.0
  1
4
 41
0.8
  7
0_8
 11
630.206291150948
 21
1421.900531107927
 31
0.0
100
AcDbText
 73
     1
  0
TEXT
  5
DEF
330
A
100
AcDbEntity
  8
MOJI
100
AcDbText
 10
640.0510204012049
 20
1421.900531107927
 30
0.0
 40
4.0
  1
5
 41
0.8
  7
0_8
 11
640.0510204012049
 21
1421.900531107927
 31
0.0
100
AcDbText
 73
     1
  0
TEXT
  5
DF0
330
A
100
AcDbEntity
  8
MOJI
100
AcDbText
 10
650.0654863626732
 20
1421.900531107927
 30
0.0
 40
4.0
  1
6
 41
0.8
  7
0_8
 11
650.0654863626732
 21
1421.900531107927
 31
0.0
100
AcDbText
 73
     1
  0
TEXT
  5
DF1
330
A
100
AcDbEntity
  8
MOJI
100
AcDbText
 10
660.240478901719
 20
1421.900531107927
 30
0.0
 40
4.0
  1
7
 41
0.8
  7
0_8
 11
660.240478901719
 21
1421.900531107927
 31
0.0
100
AcDbText
 73
     1
  0
TEXT
  5
DF2
330
A
100
AcDbEntity
  8
MOJI
100
AcDbText
 10
669.7549448631872
 20
1421.900531107927
 30
0.0
 40
4.0
  1
8
 41
0.8
  7
0_8
 11
669.7549448631872
 21
1421.900531107927
 31
0.0
100
AcDbText
 73
     1
  0
TEXT
  5
DF3
330
A
100
AcDbEntity
  8
MOJI
100
AcDbText
 10
680.2786209582895
 20
1421.900531107927
 30
0.0
 40
4.0
  1
9
 41
0.8
  7
0_8
 11
680.2786209582895
 21
1421.900531107927
 31
0.0
100
AcDbText
 73
     1
  0
TEXT
  5
DF4
330
A
100
AcDbEntity
  8
MOJI
100
AcDbText
 10
689.3338071505501
 20
1421.900531107927
 30
0.0
 40
4.0
  1
10
 41
0.8
  7
0_8
 11
689.3338071505501
 21
1421.900531107927
 31
0.0
100
AcDbText
 73
     1
  0
ARC
  5
DF5
330
A
100
AcDbEntity
  8
03
100
AcDbCircle
 10
891.0373862276848
 20
791.4005311079272
 30
0.0
 40
4.5
100
AcDbArc
 50
180.0
 51
0.0
  0
ARC
  5
DF6
330
A
100
AcDbEntity
  8
03
100
AcDbCircle
 10
891.0373862276848
 20
811.4005311079273
 30
0.0
 40
4.5
100
AcDbArc
 50
0.0
 51
180.0
  0
ARC
  5
DFB
330
A
100
AcDbEntity
  8
03
100
AcDbCircle
 10
891.0373862276848
 20
721.4005311079273
 30
0.0
 40
4.5
100
AcDbArc
 50
180.0
 51
0.0
  0
ARC
  5
DFC
330
A
100
AcDbEntity
  8
03
100
AcDbCircle
 10
891.0373862276848
 20
741.4005311079273
 30
0.0
 40
4.5
100
AcDbArc
 50
0.0
 51
180.0
  0
ARC
  5
E01
330
A
100
AcDbEntity
  8
03
100
AcDbCircle
 10
491.0373862276848
 20
721.4005311079277
 30
0.0
 40
4.5
100
AcDbArc
 50
180.0
 51
0.0
  0
ARC
  5
E02
330
A
100
AcDbEntity
  8
03
100
AcDbCircle
 10
491.0373862276848
 20
741.4005311079277
 30
0.0
 40
4.5
100
AcDbArc
 50
0.0
 51
180.0
  0
ARC
  5
E5B
330
A
100
AcDbEntity
  8
03
100
AcDbCircle
 10
491.0373862276848
 20
791.4005311079275
 30
0.0
 40
4.5
100
AcDbArc
 50
180.0
 51
0.0
  0
ARC
  5
E5C
330
A
100
AcDbEntity
  8
03
100
AcDbCircle
 10
491.0373862276848
 20
811.4005311079276
 30
0.0
 40
4.5
100
AcDbArc
 50
0.0
 51
180.0
  0
TEXT
  5
F0A
330
A
100
AcDbEntity
  8
MOJI
100
AcDbText
 10
607.0457797669905
 20
1217.562121246705
 30
0.0
 40
15.0
  1
コントローラ
 41
0.8
  7
0_8
 11
607.0457797669905
 21
1217.562121246705
 31
0.0
100
AcDbText
 73
     1
  0
CIRCLE
  5
F0F
330
A
100
AcDbEntity
  8
04
100
AcDbCircle
 10
520.9943337281273
 20
1433.400531107927
 30
0.0
 40
2.5
  0
CIRCLE
  5
F10
330
A
100
AcDbEntity
  8
04
100
AcDbCircle
 10
554.9943337281273
 20
1373.400531107927
 30
0.0
 40
2.5
  0
ARC
  5
F17
330
A
100
AcDbEntity
  8
04
100
AcDbCircle
 10
512.9943337281273
 20
1416.400531107927
 30
0.0
 40
3.0
100
AcDbArc
 50
90.0
 51
180.0
  0
ARC
  5
F18
330
A
100
AcDbEntity
  8
04
100
AcDbCircle
 10
562.9943337281272
 20
1416.400531107927
 30
0.0
 40
3.0
100
AcDbArc
 50
0.0
 51
90.0
  0
ARC
  5
F19
330
A
100
AcDbEntity
  8
04
100
AcDbCircle
 10
562.9943337281272
 20
1390.400531107927
 30
0.0
 40
3.0
100
AcDbArc
 50
270.0
 51
0.0
  0
ARC
  5
F1A
330
A
100
AcDbEntity
  8
04
100
AcDbCircle
 10
512.9943337281273
 20
1390.400531107927
 30
0.0
 40
3.0
100
AcDbArc
 50
180.0
 51
270.0
  0
CIRCLE
  5
F1B
330
A
100
AcDbEntity
  8
04
100
AcDbCircle
 10
557.4943337281273
 20
1403.400531107926
 30
0.0
 40
5.15
  0
CIRCLE
  5
F1C
330
A
100
AcDbEntity
  8
04
100
AcDbCircle
 10
557.4943337281273
 20
1403.400531107926
 30
0.0
 40
4.0
  0
ARC
  5
F1D
330
A
100
AcDbEntity
  8
04
100
AcDbCircle
 10
565.9943337281272
 20
1436.400531107927
 30
0.0
 40
2.0
100
AcDbArc
 50
0.0
 51
90.0
  0
ARC
  5
F1E
330
A
100
AcDbEntity
  8
04
100
AcDbCircle
 10
565.9943337281272
 20
1370.400531107927
 30
0.0
 40
2.0
100
AcDbArc
 50
270.0
 51
0.0
  0
ARC
  5
F1F
330
A
100
AcDbEntity
  8
04
100
AcDbCircle
 10
509.9943337281272
 20
1370.400531107927
 30
0.0
 40
2.0
100
AcDbArc
 50
180.0
 51
270.0
  0
ARC
  5
F20
330
A
100
AcDbEntity
  8
04
100
AcDbCircle
 10
509.9943337281272
 20
1436.400531107927
 30
0.0
 40
2.0
100
AcDbArc
 50
90.0
 51
180.0
  0
CIRCLE
  5
F31
330
A
100
AcDbEntity
  8
03
100
AcDbCircle
 10
855.9573862276844
 20
1091.400531107927
 30
0.0
 40
6.299999999999998
  0
CIRCLE
  5
F32
330
A
100
AcDbEntity
  8
03
100
AcDbCircle
 10
855.9573862276844
 20
1091.400531107927
 30
0.0
 40
8.5
  0
CIRCLE
  5
F39
330
A
100
AcDbEntity
  8
03
100
AcDbCircle
 10
855.9573862276844
 20
1011.400531107927
 30
0.0
 40
6.299999999999998
  0
CIRCLE
  5
F3A
330
A
100
AcDbEntity
  8
03
100
AcDbCircle
 10
855.9573862276844
 20
1011.400531107927
 30
0.0
 40
8.5
  0
CIRCLE
  5
F41
330
A
100
AcDbEntity
  8
03
100
AcDbCircle
 10
525.9573862276844
 20
1011.400531107927
 30
0.0
 40
6.299999999999998
  0
CIRCLE
  5
F42
330
A
100
AcDbEntity
  8
03
100
AcDbCircle
 10
525.9573862276844
 20
1011.400531107927
 30
0.0
 40
8.5
  0
CIRCLE
  5
F49
330
A
100
AcDbEntity
  8
03
100
AcDbCircle
 10
525.9573862276844
 20
1091.400531107927
 30
0.0
 40
6.299999999999998
  0
CIRCLE
  5
F4A
330
A
100
AcDbEntity
  8
03
100
AcDbCircle
 10
525.9573862276844
 20
1091.400531107927
 30
0.0
 40
8.5
  0
CIRCLE
  5
F51
330
A
100
AcDbEntity
  8
03
100
AcDbCircle
 10
810.9573862276846
 20
945.4005311079276
 30
0.0
 40
6.299999999999998
  0
CIRCLE
  5
F52
330
A
100
AcDbEntity
  8
03
100
AcDbCircle
 10
810.9573862276846
 20
945.4005311079276
 30
0.0
 40
8.5
  0
CIRCLE
  5
F53
330
A
100
AcDbEntity
  8
03
100
AcDbCircle
 10
785.9573862276842
 20
945.4005311079276
 30
0.0
 40
8.5
  0
CIRCLE
  5
F5A
330
A
100
AcDbEntity
  8
03
100
AcDbCircle
 10
785.9573862276842
 20
945.4005311079276
 30
0.0
 40
6.25
  0
CIRCLE
  5
F5B
330
A
100
AcDbEntity
  8
03
100
AcDbCircle
 10
785.9573862276842
 20
945.4005311079276
 30
0.0
 40
3.299999999999999
  0
CIRCLE
  5
F5C
330
A
100
AcDbEntity
  8
04
100
AcDbCircle
 10
785.9573862276842
 20
945.4005311079276
 30
0.0
 40
4.0
  0
CIRCLE
  5
F63
330
A
100
AcDbEntity
  8
03
100
AcDbCircle
 10
570.9573862276844
 20
855.4005311079276
 30
0.0
 40
6.299999999999998
  0
CIRCLE
  5
F64
330
A
100
AcDbEntity
  8
03
100
AcDbCircle
 10
570.9573862276844
 20
855.4005311079276
 30
0.0
 40
8.5
  0
CIRCLE
  5
F65
330
A
100
AcDbEntity
  8
03
100
AcDbCircle
 10
615.9573862276844
 20
855.4005311079276
 30
0.0
 40
8.5
  0
CIRCLE
  5
F6C
330
A
100
AcDbEntity
  8
03
100
AcDbCircle
 10
615.9573862276844
 20
855.4005311079276
 30
0.0
 40
6.25
  0
CIRCLE
  5
F6D
330
A
100
AcDbEntity
  8
03
100
AcDbCircle
 10
615.9573862276844
 20
855.4005311079276
 30
0.0
 40
3.299999999999999
  0
CIRCLE
  5
F6E
330
A
100
AcDbEntity
  8
04
100
AcDbCircle
 10
615.9573862276844
 20
855.4005311079276
 30
0.0
 40
4.0
  0
CIRCLE
  5
F75
330
A
100
AcDbEntity
  8
03
100
AcDbCircle
 10
810.9573862276846
 20
855.4005311079276
 30
0.0
 40
6.299999999999998
  0
CIRCLE
  5
F76
330
A
100
AcDbEntity
  8
03
100
AcDbCircle
 10
810.9573862276846
 20
855.4005311079276
 30
0.0
 40
8.5
  0
CIRCLE
  5
F7D
330
A
100
AcDbEntity
  8
03
100
AcDbCircle
 10
570.9573862276844
 20
945.4005311079276
 30
0.0
 40
6.299999999999998
  0
CIRCLE
  5
F7E
330
A
100
AcDbEntity
  8
03
100
AcDbCircle
 10
570.9573862276844
 20
945.4005311079276
 30
0.0
 40
8.5
  0
CIRCLE
  5
F7F
330
A
100
AcDbEntity
  8
03
100
AcDbCircle
 10
785.9573862276842
 20
855.4005311079276
 30
0.0
 40
8.5
  0
CIRCLE
  5
F86
330
A
100
AcDbEntity
  8
03
100
AcDbCircle
 10
785.9573862276842
 20
855.4005311079276
 30
0.0
 40
6.25
  0
CIRCLE
  5
F87
330
A
100
AcDbEntity
  8
03
100
AcDbCircle
 10
785.9573862276842
 20
855.4005311079276
 30
0.0
 40
3.299999999999999
  0
CIRCLE
  5
F88
330
A
100
AcDbEntity
  8
04
100
AcDbCircle
 10
785.9573862276842
 20
855.4005311079276
 30
0.0
 40
4.0
  0
CIRCLE
  5
F89
330
A
100
AcDbEntity
  8
03
100
AcDbCircle
 10
615.9573862276844
 20
945.4005311079276
 30
0.0
 40
8.5
  0
CIRCLE
  5
F90
330
A
100
AcDbEntity
  8
03
100
AcDbCircle
 10
615.9573862276844
 20
945.4005311079276
 30
0.0
 40
6.25
  0
CIRCLE
  5
F91
330
A
100
AcDbEntity
  8
03
100
AcDbCircle
 10
615.9573862276844
 20
945.4005311079276
 30
0.0
 40
3.299999999999999
  0
CIRCLE
  5
F92
330
A
100
AcDbEntity
  8
04
100
AcDbCircle
 10
615.9573862276844
 20
945.4005311079276
 30
0.0
 40
4.0
  0
LINE
  5
100B
330
A
100
AcDbEntity
  8
CHUSIN
100
AcDbLine
 10
501.0373862276848
 20
731.4005311079275
 30
0.0
 11
481.0373862276848
 21
731.4005311079275
 31
0.0
  0
LINE
  5
100C
330
A
100
AcDbEntity
  8
CHUSIN
100
AcDbLine
 10
491.0373862276848
 20
711.4005311079275
 30
0.0
 11
491.0373862276848
 21
752.1691989452055
 31
0.0
  0
LINE
  5
100D
330
A
100
AcDbEntity
  8
CHUSIN
100
AcDbLine
 10
501.0373862276848
 20
801.4005311079275
 30
0.0
 11
481.0373862276848
 21
801.4005311079275
 31
0.0
  0
LINE
  5
100E
330
A
100
AcDbEntity
  8
CHUSIN
100
AcDbLine
 10
491.0373862276848
 20
779.9135999405839
 30
0.0
 11
491.0373862276848
 21
821.4005311079276
 31
0.0
  0
LINE
  5
100F
330
A
100
AcDbEntity
  8
CHUSIN
100
AcDbLine
 10
901.0373862276848
 20
801.4005311079271
 30
0.0
 11
881.0373862276847
 21
801.4005311079271
 31
0.0
  0
LINE
  5
1010
330
A
100
AcDbEntity
  8
CHUSIN
100
AcDbLine
 10
891.0373862276848
 20
777.9857648890375
 30
0.0
 11
891.0373862276848
 21
819.4005311079276
 31
0.0
  0
LINE
  5
1011
330
A
100
AcDbEntity
  8
CHUSIN
100
AcDbLine
 10
901.0373862276848
 20
731.4005311079275
 30
0.0
 11
881.0373862276847
 21
731.4005311079275
 31
0.0
  0
LINE
  5
1012
330
A
100
AcDbEntity
  8
CHUSIN
100
AcDbLine
 10
891.0373862276848
 20
711.4005311079275
 30
0.0
 11
891.0373862276848
 21
754.3453454080564
 31
0.0
  0
LINE
  5
102F
330
A
100
AcDbEntity
  8
CHUSIN
100
AcDbLine
 10
533.6649501839054
 20
1041.400531107927
 30
0.0
 11
545.0316388386966
 21
1041.400531107927
 31
0.0
  0
LINE
  5
1030
330
A
100
AcDbEntity
  8
CHUSIN
100
AcDbLine
 10
533.6649501839054
 20
1061.400531107927
 30
0.0
 11
545.4039793671134
 21
1061.400531107927
 31
0.0
  0
LINE
  5
1031
330
A
100
AcDbEntity
  8
CHUSIN
100
AcDbLine
 10
810.9573862276842
 20
935.4005311079275
 30
0.0
 11
810.9573862276842
 21
955.4005311079276
 31
0.0
  0
LINE
  5
1032
330
A
100
AcDbEntity
  8
CHUSIN
100
AcDbLine
 10
570.9573862276839
 20
845.4005311079276
 30
0.0
 11
570.9573862276839
 21
865.4005311079275
 31
0.0
  0
LINE
  5
1033
330
A
100
AcDbEntity
  8
CHUSIN
100
AcDbLine
 10
810.9573862276842
 20
865.4005311079275
 30
0.0
 11
810.9573862276842
 21
845.4005311079276
 31
0.0
  0
LINE
  5
1034
330
A
100
AcDbEntity
  8
CHUSIN
100
AcDbLine
 10
570.9573862276839
 20
955.4005311079276
 30
0.0
 11
570.9573862276839
 21
935.4005311079275
 31
0.0
  0
LINE
  5
1035
330
A
100
AcDbEntity
  8
KAKURE
100
AcDbLine
 10
722.7345883728018
 20
826.4005311079275
 30
0.0
 11
659.2601840825679
 21
826.4005311079275
 31
0.0
  0
LINE
  5
103C
330
A
100
AcDbEntity
  8
04
100
AcDbLine
 10
950.9973862276842
 20
511.4005311079274
 30
0.0
 11
950.9973862276842
 21
505.4005311079274
 31
0.0
  0
LINE
  5
103D
330
A
100
AcDbEntity
  8
04
100
AcDbLine
 10
430.9973862276843
 20
505.4005311079277
 30
0.0
 11
430.9973862276843
 21
511.4005311079276
 31
0.0
  0
LINE
  5
103E
330
A
100
AcDbEntity
  8
04
100
AcDbLine
 10
950.9973862276842
 20
505.4005311079274
 30
0.0
 11
430.9973862276843
 21
505.4005311079277
 31
0.0
  0
LINE
  5
103F
330
A
100
AcDbEntity
  8
04
100
AcDbLine
 10
430.9973862276843
 20
511.4005311079276
 30
0.0
 11
950.9973862276842
 21
511.4005311079274
 31
0.0
  0
LINE
  5
1040
330
A
100
AcDbEntity
  8
04
100
AcDbLine
 10
442.4973862276841
 20
1509.900525486971
 30
0.0
 11
939.4973862276842
 21
1509.900525486971
 31
0.0
  0
LINE
  5
1041
330
A
100
AcDbEntity
  8
04
100
AcDbLine
 10
940.2473862276835
 20
1511.400525486971
 30
0.0
 11
441.7473862276841
 21
1511.400525486971
 31
0.0
  0
LINE
  5
1043
330
A
100
AcDbEntity
  8
04
100
AcDbLine
 10
540.1573862276843
 20
1041.400531107927
 30
0.0
 11
536.6617014526844
 21
1041.400531107927
 31
0.0
  0
LINE
  5
1044
330
A
100
AcDbEntity
  8
04
100
AcDbLine
 10
536.1573862276843
 20
1046.300531107926
 30
0.0
 11
536.1573862276843
 21
1036.500531107926
 31
0.0
  0
LINE
  5
1045
330
A
100
AcDbEntity
  8
04
100
AcDbLine
 10
536.2573862276847
 20
1046.400531107927
 30
0.0
 11
536.1573862276843
 21
1046.300531107926
 31
0.0
  0
LINE
  5
1046
330
A
100
AcDbEntity
  8
04
100
AcDbLine
 10
536.2573862276847
 20
1036.400531107926
 30
0.0
 11
536.1573862276843
 21
1036.500531107926
 31
0.0
  0
LINE
  5
1047
330
A
100
AcDbEntity
  8
04
100
AcDbLine
 10
540.1573862276843
 20
1046.400531107927
 30
0.0
 11
536.2573862276847
 21
1046.400531107927
 31
0.0
  0
LINE
  5
1048
330
A
100
AcDbEntity
  8
04
100
AcDbLine
 10
540.1573862276843
 20
1036.400531107926
 30
0.0
 11
536.2573862276847
 21
1036.400531107926
 31
0.0
  0
LINE
  5
1049
330
A
100
AcDbEntity
  8
04
100
AcDbLine
 10
540.1573862276843
 20
1041.199569213604
 30
0.0
 11
540.9573862276844
 21
1041.413928567548
 31
0.0
  0
LINE
  5
104A
330
A
100
AcDbEntity
  8
04
100
AcDbLine
 10
540.1573862276843
 20
1047.500531107928
 30
0.0
 11
540.9573862276844
 21
1047.500531107928
 31
0.0
  0
LINE
  5
104B
330
A
100
AcDbEntity
  8
04
100
AcDbLine
 10
540.1573862276843
 20
1035.300531107926
 30
0.0
 11
540.9573862276844
 21
1035.300531107928
 31
0.0
  0
LINE
  5
104C
330
A
100
AcDbEntity
  8
04
100
AcDbLine
 10
540.1573862276843
 20
1047.500531107928
 30
0.0
 11
540.1573862276843
 21
1035.300531107926
 31
0.0
  0
LINE
  5
104D
330
A
100
AcDbEntity
  8
04
100
AcDbLine
 10
540.1573862276843
 20
1061.400531107927
 30
0.0
 11
536.6617014526844
 21
1061.400531107927
 31
0.0
  0
LINE
  5
104E
330
A
100
AcDbEntity
  8
04
100
AcDbLine
 10
536.1573862276843
 20
1066.300531107926
 30
0.0
 11
536.1573862276843
 21
1056.500531107926
 31
0.0
  0
LINE
  5
104F
330
A
100
AcDbEntity
  8
04
100
AcDbLine
 10
536.2573862276847
 20
1066.400531107926
 30
0.0
 11
536.1573862276843
 21
1066.300531107926
 31
0.0
  0
LINE
  5
1050
330
A
100
AcDbEntity
  8
04
100
AcDbLine
 10
536.2573862276847
 20
1056.400531107927
 30
0.0
 11
536.1573862276843
 21
1056.500531107926
 31
0.0
  0
LINE
  5
1051
330
A
100
AcDbEntity
  8
04
100
AcDbLine
 10
540.1573862276843
 20
1066.400531107926
 30
0.0
 11
536.2573862276847
 21
1066.400531107926
 31
0.0
  0
LINE
  5
1052
330
A
100
AcDbEntity
  8
04
100
AcDbLine
 10
540.1573862276843
 20
1056.400531107927
 30
0.0
 11
536.2573862276847
 21
1056.400531107927
 31
0.0
  0
LINE
  5
1053
330
A
100
AcDbEntity
  8
04
100
AcDbLine
 10
540.1573862276843
 20
1061.199569213604
 30
0.0
 11
540.9573862276844
 21
1061.41392856755
 31
0.0
  0
LINE
  5
1054
330
A
100
AcDbEntity
  8
04
100
AcDbLine
 10
540.1573862276843
 20
1067.500531107927
 30
0.0
 11
540.9573862276844
 21
1067.500531107927
 31
0.0
  0
LINE
  5
1055
330
A
100
AcDbEntity
  8
04
100
AcDbLine
 10
540.1573862276843
 20
1055.300531107927
 30
0.0
 11
540.9573862276844
 21
1055.300531107927
 31
0.0
  0
LINE
  5
1056
330
A
100
AcDbEntity
  8
04
100
AcDbLine
 10
540.1573862276843
 20
1067.500531107927
 30
0.0
 11
540.1573862276843
 21
1055.300531107927
 31
0.0
  0
LINE
  5
1057
330
A
100
AcDbEntity
  8
04
100
AcDbLine
 10
540.9573862276844
 20
996.4005311079276
 30
0.0
 11
540.9573862276844
 21
1106.400531107927
 31
0.0
  0
LINE
  5
1058
330
A
100
AcDbEntity
  8
04
100
AcDbLine
 10
840.9573862276843
 20
1106.400531107927
 30
0.0
 11
840.9573862276843
 21
996.4005311079276
 31
0.0
  0
LINE
  5
1059
330
A
100
AcDbEntity
  8
04
100
AcDbLine
 10
550.9573862276844
 20
1116.400531107927
 30
0.0
 11
540.9573862276844
 21
1106.400531107927
 31
0.0
  0
LINE
  5
105A
330
A
100
AcDbEntity
  8
04
100
AcDbLine
 10
830.9573862276844
 20
1116.400531107927
 30
0.0
 11
840.9573862276843
 21
1106.400531107927
 31
0.0
  0
LINE
  5
105B
330
A
100
AcDbEntity
  8
04
100
AcDbLine
 10
550.9573862276844
 20
1116.400531107927
 30
0.0
 11
830.9573862276844
 21
1116.400531107927
 31
0.0
  0
LINE
  5
105C
330
A
100
AcDbEntity
  8
04
100
AcDbLine
 10
830.9573862276844
 20
986.4005311079276
 30
0.0
 11
840.9573862276843
 21
996.4005311079276
 31
0.0
  0
LINE
  5
105D
330
A
100
AcDbEntity
  8
04
100
AcDbLine
 10
550.9573862276844
 20
986.4005311079276
 30
0.0
 11
540.9573862276844
 21
996.4005311079276
 31
0.0
  0
LINE
  5
105E
330
A
100
AcDbEntity
  8
04
100
AcDbLine
 10
830.9573862276844
 20
986.4005311079276
 30
0.0
 11
550.9573862276844
 21
986.4005311079276
 31
0.0
  0
LINE
  5
1060
330
A
100
AcDbEntity
  8
04
100
AcDbLine
 10
440.9973862276839
 20
511.4005311079276
 30
0.0
 11
939.497386227684
 21
511.4005311079274
 31
0.0
  0
LINE
  5
1061
330
A
100
AcDbEntity
  8
04
100
AcDbLine
 10
440.997386227684
 20
1510.650525486971
 30
0.0
 11
440.9973862276839
 21
511.4005311079276
 31
0.0
  0
LINE
  5
1062
330
A
100
AcDbEntity
  8
04
100
AcDbLine
 10
442.4973862276838
 20
511.4005311079276
 30
0.0
 11
442.4973862276841
 21
1509.900525486971
 31
0.0
  0
LINE
  5
1063
330
A
100
AcDbEntity
  8
04
100
AcDbLine
 10
939.4973862276842
 20
1509.900525486971
 30
0.0
 11
939.497386227684
 21
511.4005311079274
 31
0.0
  0
LINE
  5
1064
330
A
100
AcDbEntity
  8
04
100
AcDbLine
 10
940.9973862276835
 20
1510.650525486971
 30
0.0
 11
940.9973862276848
 21
511.4005311079274
 31
0.0
  0
LINE
  5
1065
330
A
100
AcDbEntity
  8
04
100
AcDbLine
 10
939.4973862276842
 20
511.4005311079276
 30
0.0
 11
940.9973862276853
 21
511.4005311079276
 31
0.0
  0
LINE
  5
1066
330
A
100
AcDbEntity
  8
KAKURE
100
AcDbLine
 10
518.4973862276843
 20
511.4005311079276
 30
0.0
 11
518.4973862276843
 21
517.4005311079278
 31
0.0
  0
LINE
  5
1067
330
A
100
AcDbEntity
  8
KAKURE
100
AcDbLine
 10
543.4973862276843
 20
517.4005311079278
 30
0.0
 11
543.4973862276843
 21
511.4005311079276
 31
0.0
  0
LINE
  5
1068
330
A
100
AcDbEntity
  8
KAKURE
100
AcDbLine
 10
838.4973862276842
 20
511.4005311079266
 30
0.0
 11
838.4973862276842
 21
517.400531107927
 31
0.0
  0
LINE
  5
1069
330
A
100
AcDbEntity
  8
KAKURE
100
AcDbLine
 10
863.4973862276842
 20
517.400531107927
 30
0.0
 11
863.4973862276842
 21
511.400531107927
 31
0.0
  0
LINE
  5
106E
330
A
100
AcDbEntity
  8
03
100
AcDbLine
 10
908.4973862276857
 20
1458.900531107927
 30
0.0
 11
938.4973862276854
 21
1458.900531107927
 31
0.0
  0
LINE
  5
106F
330
A
100
AcDbEntity
  8
03
100
AcDbLine
 10
473.4973862276854
 20
1458.900531107927
 30
0.0
 11
443.4973862276854
 21
1458.900531107928
 31
0.0
  0
LINE
  5
1070
330
A
100
AcDbEntity
  8
03
100
AcDbLine
 10
430.9973862276843
 20
499.4005311079276
 30
0.0
 11
950.9973862276842
 21
499.4005311079273
 31
0.0
  0
LINE
  5
1071
330
A
100
AcDbEntity
  8
03
100
AcDbLine
 10
950.9973862276842
 20
505.4005311079274
 30
0.0
 11
950.9973862276842
 21
440.4005311079276
 31
0.0
  0
LINE
  5
1072
330
A
100
AcDbEntity
  8
03
100
AcDbLine
 10
430.9973862276843
 20
440.4005311079278
 30
0.0
 11
430.9973862276843
 21
505.4005311079277
 31
0.0
  0
LINE
  5
1073
330
A
100
AcDbEntity
  8
03
100
AcDbLine
 10
950.9973862276842
 20
440.4005311079276
 30
0.0
 11
430.9973862276843
 21
440.4005311079278
 31
0.0
  0
LINE
  5
1074
330
A
100
AcDbEntity
  8
03
100
AcDbLine
 10
430.9973862276843
 20
505.4005311079277
 30
0.0
 11
950.9973862276842
 21
505.4005311079274
 31
0.0
  0
LINE
  5
1075
330
A
100
AcDbEntity
  8
03
100
AcDbLine
 10
659.3001840825681
 20
826.4005311079275
 30
0.0
 11
476.0373862276848
 21
826.4005311079275
 31
0.0
  0
LINE
  5
1076
330
A
100
AcDbEntity
  8
03
100
AcDbLine
 10
906.0373862276847
 20
826.4005311079275
 30
0.0
 11
722.774588372802
 21
826.4005311079275
 31
0.0
  0
LINE
  5
1077
330
A
100
AcDbEntity
  8
03
100
AcDbLine
 10
703.0373806326836
 20
778.3287311079275
 30
0.0
 11
691.0373862276848
 21
785.2569311079276
 31
0.0
  0
LINE
  5
1078
330
A
100
AcDbEntity
  8
03
100
AcDbLine
 10
703.0373806326836
 20
764.4723311079275
 30
0.0
 11
703.0373806326836
 21
778.3287311079275
 31
0.0
  0
LINE
  5
1079
330
A
100
AcDbEntity
  8
03
100
AcDbLine
 10
691.0373862276848
 20
757.5441311079276
 30
0.0
 11
703.0373806326836
 21
764.4723311079275
 31
0.0
  0
LINE
  5
107A
330
A
100
AcDbEntity
  8
03
100
AcDbLine
 10
679.0373918226861
 20
764.4723311079275
 30
0.0
 11
691.0373862276848
 21
757.5441311079276
 31
0.0
  0
LINE
  5
107B
330
A
100
AcDbEntity
  8
03
100
AcDbLine
 10
679.0373918226861
 20
778.3287311079275
 30
0.0
 11
679.0373918226861
 21
764.4723311079275
 31
0.0
  0
LINE
  5
107C
330
A
100
AcDbEntity
  8
03
100
AcDbLine
 10
691.0373862276848
 20
785.2569311079276
 30
0.0
 11
679.0373918226861
 21
778.3287311079275
 31
0.0
  0
LINE
  5
107D
330
A
100
AcDbEntity
  8
03
100
AcDbLine
 10
906.0373862276847
 20
706.4005311079275
 30
0.0
 11
906.0373862276847
 21
826.4005311079275
 31
0.0
  0
LINE
  5
107E
330
A
100
AcDbEntity
  8
03
100
AcDbLine
 10
476.0373862276848
 20
706.4005311079275
 30
0.0
 11
906.0373862276847
 21
706.4005311079275
 31
0.0
  0
LINE
  5
107F
330
A
100
AcDbEntity
  8
03
100
AcDbLine
 10
476.0373862276848
 20
826.4005311079275
 30
0.0
 11
476.0373862276848
 21
706.4005311079275
 31
0.0
  0
LINE
  5
1080
330
A
100
AcDbEntity
  8
03
100
AcDbLine
 10
670.3193992996728
 20
1038.559098873496
 30
0.0
 11
671.0953731556957
 21
1035.663125017473
 31
0.0
  0
LINE
  5
1081
330
A
100
AcDbEntity
  8
03
100
AcDbLine
 10
669.2593992996727
 20
1036.723125017472
 30
0.0
 11
672.1553731556958
 21
1037.499098873496
 31
0.0
  0
LINE
  5
1082
330
A
100
AcDbEntity
  8
03
100
AcDbLine
 10
672.1553731556958
 20
1065.301963342359
 30
0.0
 11
669.2593992996727
 21
1066.077937198381
 31
0.0
  0
LINE
  5
1083
330
A
100
AcDbEntity
  8
03
100
AcDbLine
 10
671.0953731556957
 20
1067.137937198382
 30
0.0
 11
670.3193992996728
 21
1064.241963342358
 31
0.0
  0
LINE
  5
1088
330
A
100
AcDbEntity
  8
03
100
AcDbLine
 10
666.9113862276848
 20
1065.400531107927
 30
0.0
 11
666.9113862276848
 21
1094.400531107927
 31
0.0
  0
LINE
  5
1089
330
A
100
AcDbEntity
  8
03
100
AcDbLine
 10
632.9113862276853
 20
1099.400531107927
 30
0.0
 11
661.9113862276848
 21
1099.400531107927
 31
0.0
  0
LINE
  5
108A
330
A
100
AcDbEntity
  8
03
100
AcDbLine
 10
632.9113862276848
 20
1003.400531107927
 30
0.0
 11
661.9113862276848
 21
1003.400531107927
 31
0.0
  0
LINE
  5
108B
330
A
100
AcDbEntity
  8
03
100
AcDbLine
 10
666.9113862276848
 20
1037.400531107927
 30
0.0
 11
666.9113862276848
 21
1008.400531107928
 31
0.0
  0
LINE
  5
108C
330
A
100
AcDbEntity
  8
03
100
AcDbLine
 10
570.9113862276843
 20
1037.400531107927
 30
0.0
 11
570.9113862276843
 21
1008.400531107928
 31
0.0
  0
LINE
  5
108D
330
A
100
AcDbEntity
  8
03
100
AcDbLine
 10
604.9113862276832
 20
1003.400531107927
 30
0.0
 11
575.9113862276842
 21
1003.400531107927
 31
0.0
  0
LINE
  5
108E
330
A
100
AcDbEntity
  8
03
100
AcDbLine
 10
604.9113862276848
 20
1099.400531107927
 30
0.0
 11
575.9113862276842
 21
1099.400531107927
 31
0.0
  0
LINE
  5
108F
330
A
100
AcDbEntity
  8
03
100
AcDbLine
 10
570.9113862276843
 20
1065.400531107927
 30
0.0
 11
570.9113862276843
 21
1094.400531107927
 31
0.0
  0
LINE
  5
1090
330
A
100
AcDbEntity
  8
03
100
AcDbLine
 10
759.8855862276844
 20
1039.400536702929
 30
0.0
 11
766.8137862276843
 21
1051.400531107927
 31
0.0
  0
LINE
  5
1091
330
A
100
AcDbEntity
  8
03
100
AcDbLine
 10
746.0291862276843
 20
1039.400536702929
 30
0.0
 11
759.8855862276844
 21
1039.400536702929
 31
0.0
  0
LINE
  5
1092
330
A
100
AcDbEntity
  8
03
100
AcDbLine
 10
739.1009862276843
 20
1051.400531107927
 30
0.0
 11
746.0291862276843
 21
1039.400536702929
 31
0.0
  0
LINE
  5
1093
330
A
100
AcDbEntity
  8
03
100
AcDbLine
 10
746.0291862276843
 20
1063.400525512925
 30
0.0
 11
739.1009862276843
 21
1051.400531107927
 31
0.0
  0
LINE
  5
1094
330
A
100
AcDbEntity
  8
03
100
AcDbLine
 10
759.8855862276844
 20
1063.400525512925
 30
0.0
 11
746.0291862276843
 21
1063.400525512925
 31
0.0
  0
LINE
  5
1095
330
A
100
AcDbEntity
  8
03
100
AcDbLine
 10
766.8137862276843
 20
1051.400531107927
 30
0.0
 11
759.8855862276844
 21
1063.400525512925
 31
0.0
  0
LINE
  5
109C
330
A
100
AcDbEntity
  8
03
100
AcDbLine
 10
694.3973862276846
 20
1050.340531107926
 30
0.0
 11
696.5173862276843
 21
1052.460531107927
 31
0.0
  0
LINE
  5
109D
330
A
100
AcDbEntity
  8
03
100
AcDbLine
 10
696.5173862276843
 20
1050.340531107926
 30
0.0
 11
694.3973862276846
 21
1052.460531107927
 31
0.0
  0
LINE
  5
10A2
330
A
100
AcDbEntity
  8
03
100
AcDbLine
 10
867.9573862276845
 20
986.4005311079276
 30
0.0
 11
867.9573862276845
 21
1116.400531107927
 31
0.0
  0
LINE
  5
10A3
330
A
100
AcDbEntity
  8
03
100
AcDbLine
 10
851.4573862276844
 20
1084.189428556999
 30
0.0
 11
851.4573862276844
 21
1081.400531107927
 31
0.0
  0
LINE
  5
10A4
330
A
100
AcDbEntity
  8
03
100
AcDbLine
 10
851.4573862276844
 20
1101.400531107927
 30
0.0
 11
851.4573862276844
 21
1098.611633658854
 31
0.0
  0
LINE
  5
10A5
330
A
100
AcDbEntity
  8
03
100
AcDbLine
 10
860.4573862276843
 20
1084.189428556999
 30
0.0
 11
860.4573862276843
 21
1081.400531107927
 31
0.0
  0
LINE
  5
10A6
330
A
100
AcDbEntity
  8
03
100
AcDbLine
 10
860.4573862276843
 20
1101.400531107927
 30
0.0
 11
860.4573862276843
 21
1098.611633658854
 31
0.0
  0
LINE
  5
10A7
330
A
100
AcDbEntity
  8
03
100
AcDbLine
 10
851.4573862276844
 20
1004.189428556998
 30
0.0
 11
851.4573862276844
 21
1001.400531107927
 31
0.0
  0
LINE
  5
10A8
330
A
100
AcDbEntity
  8
03
100
AcDbLine
 10
851.4573862276844
 20
1021.400531107927
 30
0.0
 11
851.4573862276844
 21
1018.611633658855
 31
0.0
  0
LINE
  5
10A9
330
A
100
AcDbEntity
  8
03
100
AcDbLine
 10
860.4573862276843
 20
1004.189428556998
 30
0.0
 11
860.4573862276843
 21
1001.400531107927
 31
0.0
  0
LINE
  5
10AA
330
A
100
AcDbEntity
  8
03
100
AcDbLine
 10
860.4573862276843
 20
1021.400531107927
 30
0.0
 11
860.4573862276843
 21
1018.611633658855
 31
0.0
  0
LINE
  5
10AB
330
A
100
AcDbEntity
  8
03
100
AcDbLine
 10
513.957386227685
 20
986.4005311079276
 30
0.0
 11
867.9573862276845
 21
986.4005311079276
 31
0.0
  0
LINE
  5
10AC
330
A
100
AcDbEntity
  8
03
100
AcDbLine
 10
530.4573862276844
 20
1004.189428556998
 30
0.0
 11
530.4573862276844
 21
1001.400531107927
 31
0.0
  0
LINE
  5
10AD
330
A
100
AcDbEntity
  8
03
100
AcDbLine
 10
530.4573862276844
 20
1021.400531107927
 30
0.0
 11
530.4573862276844
 21
1018.611633658855
 31
0.0
  0
LINE
  5
10AE
330
A
100
AcDbEntity
  8
03
100
AcDbLine
 10
521.4573862276848
 20
1004.189428556998
 30
0.0
 11
521.4573862276848
 21
1001.400531107927
 31
0.0
  0
LINE
  5
10AF
330
A
100
AcDbEntity
  8
03
100
AcDbLine
 10
521.4573862276848
 20
1021.400531107927
 30
0.0
 11
521.4573862276848
 21
1018.611633658855
 31
0.0
  0
LINE
  5
10B0
330
A
100
AcDbEntity
  8
03
100
AcDbLine
 10
530.4573862276844
 20
1084.189428556999
 30
0.0
 11
530.4573862276844
 21
1081.400531107927
 31
0.0
  0
LINE
  5
10B1
330
A
100
AcDbEntity
  8
03
100
AcDbLine
 10
530.4573862276844
 20
1101.400531107927
 30
0.0
 11
530.4573862276844
 21
1098.611633658854
 31
0.0
  0
LINE
  5
10B2
330
A
100
AcDbEntity
  8
03
100
AcDbLine
 10
521.4573862276848
 20
1084.189428556999
 30
0.0
 11
521.4573862276848
 21
1081.400531107927
 31
0.0
  0
LINE
  5
10B3
330
A
100
AcDbEntity
  8
03
100
AcDbLine
 10
521.4573862276848
 20
1101.400531107927
 30
0.0
 11
521.4573862276848
 21
1098.611633658854
 31
0.0
  0
LINE
  5
10B4
330
A
100
AcDbEntity
  8
03
100
AcDbLine
 10
867.9573862276845
 20
1116.400531107927
 30
0.0
 11
513.957386227685
 21
1116.400531107927
 31
0.0
  0
LINE
  5
10B5
330
A
100
AcDbEntity
  8
03
100
AcDbLine
 10
513.957386227685
 20
986.4005311079276
 30
0.0
 11
513.957386227685
 21
1116.400531107927
 31
0.0
  0
LINE
  5
10B6
330
A
100
AcDbEntity
  8
03
100
AcDbLine
 10
888.4973862276842
 20
511.4005311079278
 30
0.0
 11
493.4973862276843
 21
511.4005311079278
 31
0.0
  0
LINE
  5
10B7
330
A
100
AcDbEntity
  8
03
100
AcDbLine
 10
908.4973862276857
 20
1458.900531107927
 30
0.0
 11
908.4973862276852
 21
561.4005311079278
 31
0.0
  0
LINE
  5
10B8
330
A
100
AcDbEntity
  8
03
100
AcDbLine
 10
473.4973862276851
 20
561.4005311079278
 30
0.0
 11
473.4973862276854
 21
1458.900531107927
 31
0.0
  0
LINE
  5
10B9
330
A
100
AcDbEntity
  8
03
100
AcDbLine
 10
508.4973862276853
 20
641.4005311079278
 30
0.0
 11
873.4973862276852
 21
641.4005311079278
 31
0.0
  0
LINE
  5
10BA
330
A
100
AcDbEntity
  8
03
100
AcDbLine
 10
873.4973862276852
 20
691.4005311079277
 30
0.0
 11
508.4973862276853
 21
691.4005311079277
 31
0.0
  0
LINE
  5
10BB
330
A
100
AcDbEntity
  8
03
100
AcDbLine
 10
892.9973862276836
 20
1508.900531107927
 30
0.0
 11
493.4973862276844
 21
1508.900531107927
 31
0.0
  0
LINE
  5
10BC
330
A
100
AcDbEntity
  8
03
100
AcDbLine
 10
938.4973862276853
 20
511.4005311079276
 30
0.0
 11
938.4973862276854
 21
1458.900531107927
 31
0.0
  0
LINE
  5
10BD
330
A
100
AcDbEntity
  8
03
100
AcDbLine
 10
449.4973862276853
 20
523.9005311079278
 30
0.0
 11
449.4973862276855
 21
1458.900531107928
 31
0.0
  0
LINE
  5
10BE
330
A
100
AcDbEntity
  8
03
100
AcDbLine
 10
900.9973862276842
 20
517.4005311079278
 30
0.0
 11
480.9973862276843
 21
517.4005311079278
 31
0.0
  0
LINE
  5
10BF
330
A
100
AcDbEntity
  8
03
100
AcDbLine
 10
932.4973862276857
 20
1458.900531107927
 30
0.0
 11
932.4973862276852
 21
561.4005311079275
 31
0.0
  0
LINE
  5
10C0
330
A
100
AcDbEntity
  8
03
100
AcDbLine
 10
488.9973862276853
 20
1502.900531107927
 30
0.0
 11
892.9973862276836
 21
1502.900531107927
 31
0.0
  0
LINE
  5
10C1
330
A
100
AcDbEntity
  8
03
100
AcDbLine
 10
443.4973862276854
 20
1458.900531107928
 30
0.0
 11
443.4973862276851
 21
511.4005311079278
 31
0.0
  0
LINE
  5
10C2
330
A
100
AcDbEntity
  8
03
100
AcDbLine
 10
938.4973862276854
 20
1458.900531107927
 30
0.0
 11
936.9973862276857
 21
1458.900531107927
 31
0.0
  0
ARC
  5
10C7
330
A
100
AcDbEntity
  8
03
100
AcDbCircle
 10
892.9973862276836
 20
1507.400531107927
 30
0.0
 40
4.5
100
AcDbArc
 50
180.0
 51
270.0
  0
ARC
  5
10C9
330
A
100
AcDbEntity
  8
03
100
AcDbCircle
 10
936.9973862276857
 20
1463.400531107926
 30
0.0
 40
4.5
100
AcDbArc
 50
180.0
 51
269.9999999999969
  0
ARC
  5
10CA
330
A
100
AcDbEntity
  8
03
100
AcDbCircle
 10
925.9973862276854
 20
1496.400531107927
 30
0.0
 40
6.5
100
AcDbArc
 50
0.0000000000000799
 51
89.99999999999992
  0
LINE
  5
10CC
330
A
100
AcDbEntity
  8
03
100
AcDbLine
 10
443.4973862276854
 20
1458.900531107928
 30
0.0
 11
444.9973862276845
 21
1458.900531107927
 31
0.0
  0
ARC
  5
10D1
330
A
100
AcDbEntity
  8
03
100
AcDbCircle
 10
488.9973862276853
 20
1507.400531107927
 30
0.0
 40
4.5
100
AcDbArc
 50
270.0
 51
0.0
  0
ARC
  5
10D3
330
A
100
AcDbEntity
  8
03
100
AcDbCircle
 10
444.9973862276845
 20
1463.400531107927
 30
0.0
 40
4.5
100
AcDbArc
 50
270.0000000000029
 51
0.0
  0
ARC
  5
10D4
330
A
100
AcDbEntity
  8
03
100
AcDbCircle
 10
455.9973862276854
 20
1496.400531107927
 30
0.0
 40
6.5
100
AcDbArc
 50
90.00000000000005
 51
179.9999999999999
  0
LINE
  5
10D6
330
A
100
AcDbEntity
  8
03
100
AcDbLine
 10
938.4973862276853
 20
561.4005311079275
 30
0.0
 11
936.9973862276852
 21
561.4005311079286
 31
0.0
  0
ARC
  5
10DB
330
A
100
AcDbEntity
  8
03
100
AcDbCircle
 10
892.9973862276836
 20
512.900531107927
 30
0.0
 40
4.5
100
AcDbArc
 50
89.99999999999992
 51
180.0
  0
ARC
  5
10DD
330
A
100
AcDbEntity
  8
03
100
AcDbCircle
 10
936.9973862276852
 20
556.9005311079286
 30
0.0
 40
4.5
100
AcDbArc
 50
90.00000000000296
 51
180.0
  0
ARC
  5
10DE
330
A
100
AcDbEntity
  8
03
100
AcDbCircle
 10
925.9973862276853
 20
523.9005311079278
 30
0.0
 40
6.5
100
AcDbArc
 50
270.0
 51
359.9999999999998
  0
LINE
  5
10E0
330
A
100
AcDbEntity
  8
03
100
AcDbLine
 10
443.4973862276851
 20
561.4005311079278
 30
0.0
 11
444.9973862276843
 21
561.4005311079288
 31
0.0
  0
ARC
  5
10E5
330
A
100
AcDbEntity
  8
03
100
AcDbCircle
 10
488.9973862276852
 20
512.900531107927
 30
0.0
 40
4.5
100
AcDbArc
 50
0.0
 51
90.00000000000005
  0
ARC
  5
10E7
330
A
100
AcDbEntity
  8
03
100
AcDbCircle
 10
444.9973862276843
 20
556.9005311079288
 30
0.0
 40
4.5
100
AcDbArc
 50
0.0
 51
89.99999999999705
  0
ARC
  5
10E8
330
A
100
AcDbEntity
  8
03
100
AcDbCircle
 10
455.9973862276851
 20
523.9005311079278
 30
0.0
 40
6.5
100
AcDbArc
 50
180.0
 51
270.0
  0
LINE
  5
10FD
330
A
100
AcDbEntity
  8
03
100
AcDbLine
 10
443.4973862276852
 20
891.4005311079277
 30
0.0
 11
449.4973862276853
 21
891.4005311079277
 31
0.0
  0
LINE
  5
10FE
330
A
100
AcDbEntity
  8
03
100
AcDbLine
 10
443.4973862276852
 20
941.4005311079275
 30
0.0
 11
443.4973862276852
 21
891.4005311079277
 31
0.0
  0
LINE
  5
10FF
330
A
100
AcDbEntity
  8
03
100
AcDbLine
 10
449.4973862276853
 20
941.4005311079275
 30
0.0
 11
443.4973862276852
 21
941.4005311079275
 31
0.0
  0
LINE
  5
1100
330
A
100
AcDbEntity
  8
03
100
AcDbLine
 10
449.4973862276853
 20
891.4005311079277
 30
0.0
 11
449.4973862276853
 21
941.4005311079275
 31
0.0
  0
LINE
  5
110E
330
A
100
AcDbEntity
  8
03
100
AcDbLine
 10
443.4973862276852
 20
641.4005311079278
 30
0.0
 11
449.4973862276853
 21
641.4005311079278
 31
0.0
  0
LINE
  5
110F
330
A
100
AcDbEntity
  8
03
100
AcDbLine
 10
443.4973862276852
 20
691.4005311079277
 30
0.0
 11
443.4973862276852
 21
641.4005311079278
 31
0.0
  0
LINE
  5
1110
330
A
100
AcDbEntity
  8
03
100
AcDbLine
 10
449.4973862276853
 20
691.4005311079277
 30
0.0
 11
443.4973862276852
 21
691.4005311079277
 31
0.0
  0
LINE
  5
1111
330
A
100
AcDbEntity
  8
03
100
AcDbLine
 10
449.4973862276853
 20
641.4005311079278
 30
0.0
 11
449.4973862276853
 21
691.4005311079277
 31
0.0
  0
LINE
  5
111F
330
A
100
AcDbEntity
  8
03
100
AcDbLine
 10
932.4973862276854
 20
891.4005311079275
 30
0.0
 11
938.4973862276854
 21
891.4005311079275
 31
0.0
  0
LINE
  5
1120
330
A
100
AcDbEntity
  8
03
100
AcDbLine
 10
932.4973862276854
 20
941.4005311079275
 30
0.0
 11
932.4973862276854
 21
891.4005311079275
 31
0.0
  0
LINE
  5
1121
330
A
100
AcDbEntity
  8
03
100
AcDbLine
 10
938.4973862276854
 20
941.4005311079275
 30
0.0
 11
932.4973862276854
 21
941.4005311079275
 31
0.0
  0
LINE
  5
1122
330
A
100
AcDbEntity
  8
03
100
AcDbLine
 10
938.4973862276854
 20
891.4005311079275
 30
0.0
 11
938.4973862276854
 21
941.4005311079275
 31
0.0
  0
LINE
  5
1130
330
A
100
AcDbEntity
  8
03
100
AcDbLine
 10
932.4973862276852
 20
641.4005311079273
 30
0.0
 11
938.4973862276853
 21
641.4005311079273
 31
0.0
  0
LINE
  5
1131
330
A
100
AcDbEntity
  8
03
100
AcDbLine
 10
932.4973862276852
 20
691.4005311079273
 30
0.0
 11
932.4973862276852
 21
641.4005311079273
 31
0.0
  0
LINE
  5
1132
330
A
100
AcDbEntity
  8
03
100
AcDbLine
 10
938.4973862276853
 20
691.4005311079273
 30
0.0
 11
932.4973862276852
 21
691.4005311079273
 31
0.0
  0
LINE
  5
1133
330
A
100
AcDbEntity
  8
03
100
AcDbLine
 10
938.4973862276853
 20
641.4005311079273
 30
0.0
 11
938.4973862276853
 21
691.4005311079273
 31
0.0
  0
LINE
  5
1141
330
A
100
AcDbEntity
  8
03
100
AcDbLine
 10
443.4973862276854
 20
1141.400531107927
 30
0.0
 11
449.4973862276854
 21
1141.400531107927
 31
0.0
  0
LINE
  5
1142
330
A
100
AcDbEntity
  8
03
100
AcDbLine
 10
443.4973862276854
 20
1191.400531107926
 30
0.0
 11
443.4973862276854
 21
1141.400531107927
 31
0.0
  0
LINE
  5
1143
330
A
100
AcDbEntity
  8
03
100
AcDbLine
 10
449.4973862276854
 20
1191.400531107926
 30
0.0
 11
443.4973862276854
 21
1191.400531107926
 31
0.0
  0
LINE
  5
1144
330
A
100
AcDbEntity
  8
03
100
AcDbLine
 10
449.4973862276854
 20
1141.400531107927
 30
0.0
 11
449.4973862276854
 21
1191.400531107926
 31
0.0
  0
LINE
  5
1152
330
A
100
AcDbEntity
  8
03
100
AcDbLine
 10
932.4973862276854
 20
1141.400531107927
 30
0.0
 11
938.4973862276854
 21
1141.400531107927
 31
0.0
  0
LINE
  5
1153
330
A
100
AcDbEntity
  8
03
100
AcDbLine
 10
932.4973862276854
 20
1191.400531107926
 30
0.0
 11
932.4973862276854
 21
1141.400531107927
 31
0.0
  0
LINE
  5
1154
330
A
100
AcDbEntity
  8
03
100
AcDbLine
 10
938.4973862276854
 20
1191.400531107926
 30
0.0
 11
932.4973862276854
 21
1191.400531107926
 31
0.0
  0
LINE
  5
1155
330
A
100
AcDbEntity
  8
03
100
AcDbLine
 10
938.4973862276854
 20
1141.400531107927
 30
0.0
 11
938.4973862276854
 21
1191.400531107926
 31
0.0
  0
LINE
  5
1156
330
A
100
AcDbEntity
  8
03
100
AcDbLine
 10
622.457383197059
 20
949.1533061079275
 30
0.0
 11
615.9573862276844
 21
952.9060811079276
 31
0.0
  0
LINE
  5
1157
330
A
100
AcDbEntity
  8
03
100
AcDbLine
 10
622.457383197059
 20
941.6477561079275
 30
0.0
 11
622.457383197059
 21
949.1533061079275
 31
0.0
  0
LINE
  5
1158
330
A
100
AcDbEntity
  8
03
100
AcDbLine
 10
615.9573862276844
 20
937.8949811079277
 30
0.0
 11
622.457383197059
 21
941.6477561079275
 31
0.0
  0
LINE
  5
1159
330
A
100
AcDbEntity
  8
03
100
AcDbLine
 10
609.4573892583099
 20
941.6477561079275
 30
0.0
 11
615.9573862276844
 21
937.8949811079277
 31
0.0
  0
LINE
  5
115A
330
A
100
AcDbEntity
  8
03
100
AcDbLine
 10
609.4573892583099
 20
949.1533061079275
 30
0.0
 11
609.4573892583099
 21
941.6477561079275
 31
0.0
  0
LINE
  5
115B
330
A
100
AcDbEntity
  8
03
100
AcDbLine
 10
615.9573862276844
 20
952.9060811079276
 30
0.0
 11
609.4573892583099
 21
949.1533061079275
 31
0.0
  0
LINE
  5
115C
330
A
100
AcDbEntity
  8
03
100
AcDbLine
 10
792.4573831970591
 20
859.1533061079275
 30
0.0
 11
785.9573862276844
 21
862.9060811079277
 31
0.0
  0
LINE
  5
115D
330
A
100
AcDbEntity
  8
03
100
AcDbLine
 10
792.457383197059
 20
851.6477561079277
 30
0.0
 11
792.4573831970591
 21
859.1533061079275
 31
0.0
  0
LINE
  5
115E
330
A
100
AcDbEntity
  8
03
100
AcDbLine
 10
785.957386227684
 20
847.8949811079273
 30
0.0
 11
792.457383197059
 21
851.6477561079277
 31
0.0
  0
LINE
  5
115F
330
A
100
AcDbEntity
  8
03
100
AcDbLine
 10
779.4573892583099
 20
851.6477561079277
 30
0.0
 11
785.957386227684
 21
847.8949811079273
 31
0.0
  0
LINE
  5
1160
330
A
100
AcDbEntity
  8
03
100
AcDbLine
 10
779.4573892583099
 20
859.1533061079275
 30
0.0
 11
779.4573892583099
 21
851.6477561079277
 31
0.0
  0
LINE
  5
1161
330
A
100
AcDbEntity
  8
03
100
AcDbLine
 10
785.9573862276842
 20
862.9060811079277
 30
0.0
 11
779.4573892583099
 21
859.1533061079275
 31
0.0
  0
LINE
  5
1162
330
A
100
AcDbEntity
  8
03
100
AcDbLine
 10
577.457383197059
 20
949.1533061079275
 30
0.0
 11
570.9573862276844
 21
952.9060811079276
 31
0.0
  0
LINE
  5
1163
330
A
100
AcDbEntity
  8
03
100
AcDbLine
 10
577.457383197059
 20
941.6477561079275
 30
0.0
 11
577.457383197059
 21
949.1533061079275
 31
0.0
  0
LINE
  5
1164
330
A
100
AcDbEntity
  8
03
100
AcDbLine
 10
570.9573862276844
 20
937.8949811079277
 30
0.0
 11
577.457383197059
 21
941.6477561079275
 31
0.0
  0
LINE
  5
1165
330
A
100
AcDbEntity
  8
03
100
AcDbLine
 10
564.4573892583101
 20
941.6477561079275
 30
0.0
 11
570.9573862276844
 21
937.8949811079277
 31
0.0
  0
LINE
  5
1166
330
A
100
AcDbEntity
  8
03
100
AcDbLine
 10
564.4573892583101
 20
949.1533061079275
 30
0.0
 11
564.4573892583101
 21
941.6477561079275
 31
0.0
  0
LINE
  5
1167
330
A
100
AcDbEntity
  8
03
100
AcDbLine
 10
570.9573862276844
 20
952.9060811079276
 30
0.0
 11
564.4573892583101
 21
949.1533061079275
 31
0.0
  0
LINE
  5
1168
330
A
100
AcDbEntity
  8
03
100
AcDbLine
 10
817.457383197059
 20
859.1533061079275
 30
0.0
 11
810.9573862276846
 21
862.9060811079277
 31
0.0
  0
LINE
  5
1169
330
A
100
AcDbEntity
  8
03
100
AcDbLine
 10
817.4573831970587
 20
851.6477561079277
 30
0.0
 11
817.457383197059
 21
859.1533061079275
 31
0.0
  0
LINE
  5
116A
330
A
100
AcDbEntity
  8
03
100
AcDbLine
 10
810.9573862276842
 20
847.8949811079273
 30
0.0
 11
817.4573831970587
 21
851.6477561079277
 31
0.0
  0
LINE
  5
116B
330
A
100
AcDbEntity
  8
03
100
AcDbLine
 10
804.4573892583098
 20
851.6477561079277
 30
0.0
 11
810.9573862276842
 21
847.8949811079273
 31
0.0
  0
LINE
  5
116C
330
A
100
AcDbEntity
  8
03
100
AcDbLine
 10
804.4573892583102
 20
859.1533061079275
 30
0.0
 11
804.4573892583098
 21
851.6477561079277
 31
0.0
  0
LINE
  5
116D
330
A
100
AcDbEntity
  8
03
100
AcDbLine
 10
810.9573862276846
 20
862.9060811079277
 30
0.0
 11
804.4573892583102
 21
859.1533061079275
 31
0.0
  0
LINE
  5
116E
330
A
100
AcDbEntity
  8
03
100
AcDbLine
 10
622.4573831970587
 20
851.6477561079277
 30
0.0
 11
615.9573862276844
 21
847.8949811079273
 31
0.0
  0
LINE
  5
116F
330
A
100
AcDbEntity
  8
03
100
AcDbLine
 10
622.457383197059
 20
859.1533061079275
 30
0.0
 11
622.4573831970587
 21
851.6477561079277
 31
0.0
  0
LINE
  5
1170
330
A
100
AcDbEntity
  8
03
100
AcDbLine
 10
615.9573862276844
 20
862.9060811079277
 30
0.0
 11
622.457383197059
 21
859.1533061079275
 31
0.0
  0
LINE
  5
1171
330
A
100
AcDbEntity
  8
03
100
AcDbLine
 10
609.4573892583099
 20
859.1533061079275
 30
0.0
 11
615.9573862276844
 21
862.9060811079277
 31
0.0
  0
LINE
  5
1172
330
A
100
AcDbEntity
  8
03
100
AcDbLine
 10
609.4573892583098
 20
851.6477561079277
 30
0.0
 11
609.4573892583099
 21
859.1533061079275
 31
0.0
  0
LINE
  5
1173
330
A
100
AcDbEntity
  8
03
100
AcDbLine
 10
615.9573862276844
 20
847.8949811079273
 30
0.0
 11
609.4573892583098
 21
851.6477561079277
 31
0.0
  0
LINE
  5
1174
330
A
100
AcDbEntity
  8
03
100
AcDbLine
 10
577.4573831970589
 20
851.6477561079277
 30
0.0
 11
570.9573862276844
 21
847.8949811079273
 31
0.0
  0
LINE
  5
1175
330
A
100
AcDbEntity
  8
03
100
AcDbLine
 10
577.457383197059
 20
859.1533061079275
 30
0.0
 11
577.4573831970589
 21
851.6477561079277
 31
0.0
  0
LINE
  5
1176
330
A
100
AcDbEntity
  8
03
100
AcDbLine
 10
570.9573862276844
 20
862.9060811079277
 30
0.0
 11
577.457383197059
 21
859.1533061079275
 31
0.0
  0
LINE
  5
1177
330
A
100
AcDbEntity
  8
03
100
AcDbLine
 10
564.4573892583101
 20
859.1533061079275
 30
0.0
 11
570.9573862276844
 21
862.9060811079277
 31
0.0
  0
LINE
  5
1178
330
A
100
AcDbEntity
  8
03
100
AcDbLine
 10
564.4573892583098
 20
851.6477561079277
 30
0.0
 11
564.4573892583101
 21
859.1533061079275
 31
0.0
  0
LINE
  5
1179
330
A
100
AcDbEntity
  8
03
100
AcDbLine
 10
570.9573862276844
 20
847.8949811079273
 30
0.0
 11
564.4573892583098
 21
851.6477561079277
 31
0.0
  0
LINE
  5
117A
330
A
100
AcDbEntity
  8
03
100
AcDbLine
 10
792.4573831970591
 20
941.6477561079275
 30
0.0
 11
785.9573862276844
 21
937.8949811079277
 31
0.0
  0
LINE
  5
117B
330
A
100
AcDbEntity
  8
03
100
AcDbLine
 10
792.4573831970591
 20
949.1533061079275
 30
0.0
 11
792.4573831970591
 21
941.6477561079275
 31
0.0
  0
LINE
  5
117C
330
A
100
AcDbEntity
  8
03
100
AcDbLine
 10
785.9573862276842
 20
952.9060811079276
 30
0.0
 11
792.4573831970591
 21
949.1533061079275
 31
0.0
  0
LINE
  5
117D
330
A
100
AcDbEntity
  8
03
100
AcDbLine
 10
779.4573892583099
 20
949.1533061079275
 30
0.0
 11
785.9573862276842
 21
952.9060811079276
 31
0.0
  0
LINE
  5
117E
330
A
100
AcDbEntity
  8
03
100
AcDbLine
 10
779.4573892583099
 20
941.6477561079275
 30
0.0
 11
779.4573892583099
 21
949.1533061079275
 31
0.0
  0
LINE
  5
117F
330
A
100
AcDbEntity
  8
03
100
AcDbLine
 10
785.9573862276842
 20
937.8949811079277
 30
0.0
 11
779.4573892583099
 21
941.6477561079275
 31
0.0
  0
LINE
  5
1180
330
A
100
AcDbEntity
  8
03
100
AcDbLine
 10
817.457383197059
 20
941.6477561079275
 30
0.0
 11
810.9573862276846
 21
937.8949811079277
 31
0.0
  0
LINE
  5
1181
330
A
100
AcDbEntity
  8
03
100
AcDbLine
 10
817.457383197059
 20
949.1533061079275
 30
0.0
 11
817.457383197059
 21
941.6477561079275
 31
0.0
  0
LINE
  5
1182
330
A
100
AcDbEntity
  8
03
100
AcDbLine
 10
810.9573862276846
 20
952.9060811079276
 30
0.0
 11
817.457383197059
 21
949.1533061079275
 31
0.0
  0
LINE
  5
1183
330
A
100
AcDbEntity
  8
03
100
AcDbLine
 10
804.4573892583102
 20
949.1533061079275
 30
0.0
 11
810.9573862276846
 21
952.9060811079276
 31
0.0
  0
LINE
  5
1184
330
A
100
AcDbEntity
  8
03
100
AcDbLine
 10
804.4573892583102
 20
941.6477561079275
 30
0.0
 11
804.4573892583102
 21
949.1533061079275
 31
0.0
  0
LINE
  5
1185
330
A
100
AcDbEntity
  8
03
100
AcDbLine
 10
810.9573862276846
 20
937.8949811079277
 30
0.0
 11
804.4573892583102
 21
941.6477561079275
 31
0.0
  0
LINE
  5
1186
330
A
100
AcDbEntity
  8
03
100
AcDbLine
 10
522.204611227685
 20
1084.900534138552
 30
0.0
 11
518.4518362276851
 21
1091.400531107927
 31
0.0
  0
LINE
  5
1187
330
A
100
AcDbEntity
  8
03
100
AcDbLine
 10
529.7101612276843
 20
1084.900534138552
 30
0.0
 11
522.204611227685
 21
1084.900534138552
 31
0.0
  0
LINE
  5
1188
330
A
100
AcDbEntity
  8
03
100
AcDbLine
 10
533.4629362276849
 20
1091.400531107927
 30
0.0
 11
529.7101612276843
 21
1084.900534138552
 31
0.0
  0
LINE
  5
1189
330
A
100
AcDbEntity
  8
03
100
AcDbLine
 10
529.7101612276852
 20
1097.900528077301
 30
0.0
 11
533.4629362276849
 21
1091.400531107927
 31
0.0
  0
LINE
  5
118A
330
A
100
AcDbEntity
  8
03
100
AcDbLine
 10
522.204611227685
 20
1097.900528077301
 30
0.0
 11
529.7101612276852
 21
1097.900528077301
 31
0.0
  0
LINE
  5
118B
330
A
100
AcDbEntity
  8
03
100
AcDbLine
 10
518.4518362276851
 20
1091.400531107927
 30
0.0
 11
522.204611227685
 21
1097.900528077301
 31
0.0
  0
LINE
  5
118C
330
A
100
AcDbEntity
  8
03
100
AcDbLine
 10
522.204611227685
 20
1004.900534138553
 30
0.0
 11
518.4518362276846
 21
1011.400531107927
 31
0.0
  0
LINE
  5
118D
330
A
100
AcDbEntity
  8
03
100
AcDbLine
 10
529.7101612276843
 20
1004.900534138553
 30
0.0
 11
522.204611227685
 21
1004.900534138553
 31
0.0
  0
LINE
  5
118E
330
A
100
AcDbEntity
  8
03
100
AcDbLine
 10
533.4629362276849
 20
1011.400531107927
 30
0.0
 11
529.7101612276843
 21
1004.900534138553
 31
0.0
  0
LINE
  5
118F
330
A
100
AcDbEntity
  8
03
100
AcDbLine
 10
529.7101612276843
 20
1017.900528077301
 30
0.0
 11
533.4629362276849
 21
1011.400531107927
 31
0.0
  0
LINE
  5
1190
330
A
100
AcDbEntity
  8
03
100
AcDbLine
 10
522.204611227685
 20
1017.900528077301
 30
0.0
 11
529.7101612276843
 21
1017.900528077301
 31
0.0
  0
LINE
  5
1191
330
A
100
AcDbEntity
  8
03
100
AcDbLine
 10
518.4518362276846
 20
1011.400531107927
 30
0.0
 11
522.204611227685
 21
1017.900528077301
 31
0.0
  0
LINE
  5
1192
330
A
100
AcDbEntity
  8
03
100
AcDbLine
 10
859.7101612276842
 20
1004.900534138553
 30
0.0
 11
863.4629362276843
 21
1011.400531107927
 31
0.0
  0
LINE
  5
1193
330
A
100
AcDbEntity
  8
03
100
AcDbLine
 10
852.2046112276846
 20
1004.900534138553
 30
0.0
 11
859.7101612276842
 21
1004.900534138553
 31
0.0
  0
LINE
  5
1194
330
A
100
AcDbEntity
  8
03
100
AcDbLine
 10
848.4518362276846
 20
1011.400531107927
 30
0.0
 11
852.2046112276846
 21
1004.900534138553
 31
0.0
  0
LINE
  5
1195
330
A
100
AcDbEntity
  8
03
100
AcDbLine
 10
852.2046112276846
 20
1017.900528077301
 30
0.0
 11
848.4518362276846
 21
1011.400531107927
 31
0.0
  0
LINE
  5
1196
330
A
100
AcDbEntity
  8
03
100
AcDbLine
 10
859.7101612276842
 20
1017.900528077301
 30
0.0
 11
852.2046112276846
 21
1017.900528077301
 31
0.0
  0
LINE
  5
1197
330
A
100
AcDbEntity
  8
03
100
AcDbLine
 10
863.4629362276843
 20
1011.400531107927
 30
0.0
 11
859.7101612276842
 21
1017.900528077301
 31
0.0
  0
LINE
  5
1198
330
A
100
AcDbEntity
  8
03
100
AcDbLine
 10
859.7101612276842
 20
1084.900534138552
 30
0.0
 11
863.4629362276843
 21
1091.400531107927
 31
0.0
  0
LINE
  5
1199
330
A
100
AcDbEntity
  8
03
100
AcDbLine
 10
852.2046112276846
 20
1084.900534138552
 30
0.0
 11
859.7101612276842
 21
1084.900534138552
 31
0.0
  0
LINE
  5
119A
330
A
100
AcDbEntity
  8
03
100
AcDbLine
 10
848.4518362276846
 20
1091.400531107927
 30
0.0
 11
852.2046112276846
 21
1084.900534138552
 31
0.0
  0
LINE
  5
119B
330
A
100
AcDbEntity
  8
03
100
AcDbLine
 10
852.2046112276846
 20
1097.900528077301
 30
0.0
 11
848.4518362276846
 21
1091.400531107927
 31
0.0
  0
LINE
  5
119C
330
A
100
AcDbEntity
  8
03
100
AcDbLine
 10
859.7101612276842
 20
1097.900528077301
 30
0.0
 11
852.2046112276846
 21
1097.900528077301
 31
0.0
  0
LINE
  5
119D
330
A
100
AcDbEntity
  8
03
100
AcDbLine
 10
863.4629362276843
 20
1091.400531107927
 30
0.0
 11
859.7101612276842
 21
1097.900528077301
 31
0.0
  0
TEXT
  5
11A8
330
A
100
AcDbEntity
  8
MOJI
100
AcDbText
 10
523.0517721886331
 20
1409.347186237337
 30
0.0
 40
4.0
  1
切
 41
0.8
  7
0_8
 11
523.0517721886331
 21
1409.347186237337
 31
0.0
100
AcDbText
 73
     1
  0
CIRCLE
  5
11AD
330
A
100
AcDbEntity
  8
04
100
AcDbCircle
 10
534.4943337281273
 20
1431.900531107927
 30
0.0
 40
2.5
  0
CIRCLE
  5
11AE
330
A
100
AcDbEntity
  8
04
100
AcDbCircle
 10
515.4943337281273
 20
1431.900531107927
 30
0.0
 40
2.5
  0
ARC
  5
11B3
330
A
100
AcDbEntity
  8
04
100
AcDbCircle
 10
509.9943337281272
 20
1436.400531107927
 30
0.0
 40
2.0
100
AcDbArc
 50
90.0
 51
180.0
  0
ARC
  5
11B4
330
A
100
AcDbEntity
  8
04
100
AcDbCircle
 10
509.9943337281272
 20
1436.400531107927
 30
0.0
 40
1.0
100
AcDbArc
 50
90.0
 51
180.0
  0
CIRCLE
  5
11BD
330
A
100
AcDbEntity
  8
04
100
AcDbCircle
 10
541.4943337281273
 20
1374.900531107928
 30
0.0
 40
2.5
  0
CIRCLE
  5
11BE
330
A
100
AcDbEntity
  8
04
100
AcDbCircle
 10
560.4943337281273
 20
1374.900531107928
 30
0.0
 40
2.5
  0
ARC
  5
11C3
330
A
100
AcDbEntity
  8
04
100
AcDbCircle
 10
565.9943337281272
 20
1370.400531107927
 30
0.0
 40
2.0
100
AcDbArc
 50
270.0
 51
0.0
  0
ARC
  5
11C4
330
A
100
AcDbEntity
  8
04
100
AcDbCircle
 10
565.9943337281272
 20
1370.400531107927
 30
0.0
 40
1.0
100
AcDbArc
 50
270.0
 51
0.0
  0
LINE
  5
11D0
330
A
100
AcDbEntity
  8
04
100
AcDbLine
 10
562.9943337281272
 20
1387.400531107928
 30
0.0
 11
512.9943337281273
 21
1387.400531107928
 31
0.0
  0
LINE
  5
11D1
330
A
100
AcDbEntity
  8
04
100
AcDbLine
 10
565.9943337281272
 20
1416.400531107927
 30
0.0
 11
565.9943337281272
 21
1390.400531107927
 31
0.0
  0
LINE
  5
11D2
330
A
100
AcDbEntity
  8
04
100
AcDbLine
 10
512.9943337281273
 20
1419.400531107926
 30
0.0
 11
562.9943337281272
 21
1419.400531107926
 31
0.0
  0
LINE
  5
11D3
330
A
100
AcDbEntity
  8
04
100
AcDbLine
 10
509.9943337281272
 20
1390.400531107927
 30
0.0
 11
509.9943337281272
 21
1416.400531107927
 31
0.0
  0
LINE
  5
11D4
330
A
100
AcDbEntity
  8
04
100
AcDbLine
 10
507.9943337281273
 20
1385.400531107927
 30
0.0
 11
567.9943337281271
 21
1385.400531107927
 31
0.0
  0
LINE
  5
11D5
330
A
100
AcDbEntity
  8
04
100
AcDbLine
 10
567.9943337281271
 20
1421.400531107927
 30
0.0
 11
507.9943337281273
 21
1421.400531107927
 31
0.0
  0
LINE
  5
11D6
330
A
100
AcDbEntity
  8
04
100
AcDbLine
 10
565.9943337281272
 20
1368.400531107927
 30
0.0
 11
509.9943337281272
 21
1368.400531107927
 31
0.0
  0
LINE
  5
11D7
330
A
100
AcDbEntity
  8
04
100
AcDbLine
 10
567.9943337281271
 20
1436.400531107927
 30
0.0
 11
567.9943337281271
 21
1370.400531107927
 31
0.0
  0
LINE
  5
11D8
330
A
100
AcDbEntity
  8
04
100
AcDbLine
 10
509.9943337281272
 20
1438.400531107927
 30
0.0
 11
565.9943337281272
 21
1438.400531107927
 31
0.0
  0
LINE
  5
11D9
330
A
100
AcDbEntity
  8
04
100
AcDbLine
 10
507.9943337281273
 20
1370.400531107927
 30
0.0
 11
507.9943337281273
 21
1436.400531107927
 31
0.0
  0
LINE
  5
1257
330
A
100
AcDbEntity
  8
03
100
AcDbLine
 10
486.5373862276848
 20
808.6116336588556
 30
0.0
 11
486.5373862276848
 21
811.4005311079276
 31
0.0
  0
LINE
  5
1258
330
A
100
AcDbEntity
  8
03
100
AcDbLine
 10
486.5373862276848
 20
791.4005311079275
 30
0.0
 11
486.5373862276848
 21
794.1894285569994
 31
0.0
  0
LINE
  5
1259
330
A
100
AcDbEntity
  8
03
100
AcDbLine
 10
495.5373862276847
 20
808.6116336588556
 30
0.0
 11
495.5373862276847
 21
811.4005311079276
 31
0.0
  0
LINE
  5
125A
330
A
100
AcDbEntity
  8
03
100
AcDbLine
 10
495.5373862276847
 20
791.4005311079275
 30
0.0
 11
495.5373862276847
 21
794.1894285569994
 31
0.0
  0
LINE
  5
12A3
330
A
100
AcDbEntity
  8
03
100
AcDbLine
 10
486.5373862276848
 20
738.6116336588558
 30
0.0
 11
486.5373862276848
 21
741.4005311079277
 31
0.0
  0
LINE
  5
12A4
330
A
100
AcDbEntity
  8
03
100
AcDbLine
 10
486.5373862276848
 20
721.4005311079277
 30
0.0
 11
486.5373862276848
 21
724.1894285569998
 31
0.0
  0
LINE
  5
12A5
330
A
100
AcDbEntity
  8
03
100
AcDbLine
 10
495.5373862276847
 20
738.6116336588558
 30
0.0
 11
495.5373862276847
 21
741.4005311079277
 31
0.0
  0
LINE
  5
12A6
330
A
100
AcDbEntity
  8
03
100
AcDbLine
 10
495.5373862276847
 20
721.4005311079277
 30
0.0
 11
495.5373862276847
 21
724.1894285569998
 31
0.0
  0
LINE
  5
12A7
330
A
100
AcDbEntity
  8
03
100
AcDbLine
 10
886.5373862276848
 20
738.6116336588554
 30
0.0
 11
886.5373862276848
 21
741.4005311079273
 31
0.0
  0
LINE
  5
12A8
330
A
100
AcDbEntity
  8
03
100
AcDbLine
 10
886.5373862276848
 20
721.4005311079273
 30
0.0
 11
886.5373862276848
 21
724.1894285569993
 31
0.0
  0
LINE
  5
12A9
330
A
100
AcDbEntity
  8
03
100
AcDbLine
 10
895.5373862276848
 20
738.6116336588554
 30
0.0
 11
895.5373862276848
 21
741.4005311079273
 31
0.0
  0
LINE
  5
12AA
330
A
100
AcDbEntity
  8
03
100
AcDbLine
 10
895.5373862276848
 20
721.4005311079273
 30
0.0
 11
895.5373862276848
 21
724.1894285569993
 31
0.0
  0
LINE
  5
12AB
330
A
100
AcDbEntity
  8
03
100
AcDbLine
 10
886.5373862276848
 20
808.6116336588553
 30
0.0
 11
886.5373862276848
 21
811.4005311079273
 31
0.0
  0
LINE
  5
12AC
330
A
100
AcDbEntity
  8
03
100
AcDbLine
 10
886.5373862276848
 20
791.4005311079272
 30
0.0
 11
886.5373862276848
 21
794.1894285569992
 31
0.0
  0
LINE
  5
12AD
330
A
100
AcDbEntity
  8
03
100
AcDbLine
 10
895.5373862276848
 20
808.6116336588553
 30
0.0
 11
895.5373862276848
 21
811.4005311079273
 31
0.0
  0
LINE
  5
12AE
330
A
100
AcDbEntity
  8
03
100
AcDbLine
 10
895.5373862276848
 20
791.4005311079272
 30
0.0
 11
895.5373862276848
 21
794.1894285569992
 31
0.0
  0
LINE
  5
12AF
330
A
100
AcDbEntity
  8
06
100
AcDbLine
 10
704.7621006810937
 20
1416.168298060894
 30
0.0
 11
701.2265667751607
 21
1412.63276415496
 31
0.0
  0
LINE
  5
12B0
330
A
100
AcDbEntity
  8
06
100
AcDbLine
 10
704.7621006810937
 20
1412.63276415496
 30
0.0
 11
701.2265667751607
 21
1416.168298060894
 31
0.0
  0
LINE
  5
12B1
330
A
100
AcDbEntity
  8
06
100
AcDbLine
 10
592.7621006810937
 20
1435.168298060894
 30
0.0
 11
589.2265667751607
 21
1431.632764154961
 31
0.0
  0
LINE
  5
12B2
330
A
100
AcDbEntity
  8
06
100
AcDbLine
 10
592.7621006810937
 20
1431.632764154961
 30
0.0
 11
589.2265667751607
 21
1435.168298060894
 31
0.0
  0
LINE
  5
12B3
330
A
100
AcDbEntity
  8
06
100
AcDbLine
 10
707.9943337281273
 20
1438.900531107926
 30
0.0
 11
707.9943337281273
 21
1408.900531107927
 31
0.0
  0
LINE
  5
12B4
330
A
100
AcDbEntity
  8
06
100
AcDbLine
 10
700.9943337281273
 20
1411.528249784657
 30
0.0
 11
700.9943337281273
 21
1408.900531107927
 31
0.0
  0
LINE
  5
12B5
330
A
100
AcDbEntity
  8
06
100
AcDbLine
 10
700.9943337281273
 20
1438.900531107926
 30
0.0
 11
700.9943337281273
 21
1417.272812431195
 31
0.0
  0
LINE
  5
12B6
330
A
100
AcDbEntity
  8
06
100
AcDbLine
 10
696.9943337281273
 20
1438.900531107926
 30
0.0
 11
696.9943337281273
 21
1408.900531107927
 31
0.0
  0
LINE
  5
12B7
330
A
100
AcDbEntity
  8
06
100
AcDbLine
 10
692.7621006810937
 20
1429.132764154961
 30
0.0
 11
689.2265667751606
 21
1432.668298060893
 31
0.0
  0
LINE
  5
12B8
330
A
100
AcDbEntity
  8
06
100
AcDbLine
 10
692.7621006810937
 20
1432.668298060893
 30
0.0
 11
689.2265667751606
 21
1429.132764154961
 31
0.0
  0
LINE
  5
12B9
330
A
100
AcDbEntity
  8
06
100
AcDbLine
 10
694.9943337281273
 20
1426.900531107927
 30
0.0
 11
686.9943337281272
 21
1426.900531107927
 31
0.0
  0
LINE
  5
12BA
330
A
100
AcDbEntity
  8
06
100
AcDbLine
 10
694.9943337281273
 20
1434.900531107927
 30
0.0
 11
686.9943337281272
 21
1434.900531107927
 31
0.0
  0
LINE
  5
12BB
330
A
100
AcDbEntity
  8
06
100
AcDbLine
 10
692.7621006810937
 20
1418.668298060894
 30
0.0
 11
689.2265667751606
 21
1415.132764154961
 31
0.0
  0
LINE
  5
12BC
330
A
100
AcDbEntity
  8
06
100
AcDbLine
 10
692.7621006810937
 20
1415.132764154961
 30
0.0
 11
689.2265667751606
 21
1418.668298060894
 31
0.0
  0
LINE
  5
12BD
330
A
100
AcDbEntity
  8
06
100
AcDbLine
 10
694.9943337281273
 20
1420.900531107927
 30
0.0
 11
686.9943337281272
 21
1420.900531107927
 31
0.0
  0
LINE
  5
12BE
330
A
100
AcDbEntity
  8
06
100
AcDbLine
 10
694.9943337281273
 20
1412.900531107927
 30
0.0
 11
686.9943337281272
 21
1412.900531107927
 31
0.0
  0
LINE
  5
12BF
330
A
100
AcDbEntity
  8
06
100
AcDbLine
 10
694.9943337281273
 20
1438.900531107926
 30
0.0
 11
694.9943337281273
 21
1408.900531107927
 31
0.0
  0
LINE
  5
12C0
330
A
100
AcDbEntity
  8
06
100
AcDbLine
 10
686.9943337281272
 20
1438.900531107926
 30
0.0
 11
686.9943337281272
 21
1408.900531107927
 31
0.0
  0
LINE
  5
12C1
330
A
100
AcDbEntity
  8
06
100
AcDbLine
 10
682.7621006810938
 20
1429.132764154961
 30
0.0
 11
679.2265667751609
 21
1432.668298060893
 31
0.0
  0
LINE
  5
12C2
330
A
100
AcDbEntity
  8
06
100
AcDbLine
 10
682.7621006810938
 20
1432.668298060893
 30
0.0
 11
679.2265667751609
 21
1429.132764154961
 31
0.0
  0
LINE
  5
12C3
330
A
100
AcDbEntity
  8
06
100
AcDbLine
 10
684.9943337281272
 20
1426.900531107927
 30
0.0
 11
676.9943337281272
 21
1426.900531107927
 31
0.0
  0
LINE
  5
12C4
330
A
100
AcDbEntity
  8
06
100
AcDbLine
 10
684.9943337281272
 20
1434.900531107927
 30
0.0
 11
676.9943337281272
 21
1434.900531107927
 31
0.0
  0
LINE
  5
12C5
330
A
100
AcDbEntity
  8
06
100
AcDbLine
 10
682.7621006810938
 20
1418.668298060894
 30
0.0
 11
679.2265667751609
 21
1415.132764154961
 31
0.0
  0
LINE
  5
12C6
330
A
100
AcDbEntity
  8
06
100
AcDbLine
 10
682.7621006810938
 20
1415.132764154961
 30
0.0
 11
679.2265667751609
 21
1418.668298060894
 31
0.0
  0
LINE
  5
12C7
330
A
100
AcDbEntity
  8
06
100
AcDbLine
 10
684.9943337281272
 20
1420.900531107927
 30
0.0
 11
676.9943337281272
 21
1420.900531107927
 31
0.0
  0
LINE
  5
12C8
330
A
100
AcDbEntity
  8
06
100
AcDbLine
 10
684.9943337281272
 20
1412.900531107927
 30
0.0
 11
676.9943337281272
 21
1412.900531107927
 31
0.0
  0
LINE
  5
12C9
330
A
100
AcDbEntity
  8
06
100
AcDbLine
 10
684.9943337281272
 20
1438.900531107926
 30
0.0
 11
684.9943337281272
 21
1408.900531107927
 31
0.0
  0
LINE
  5
12CA
330
A
100
AcDbEntity
  8
06
100
AcDbLine
 10
676.9943337281272
 20
1438.900531107926
 30
0.0
 11
676.9943337281272
 21
1408.900531107927
 31
0.0
  0
LINE
  5
12CB
330
A
100
AcDbEntity
  8
06
100
AcDbLine
 10
672.7621006810937
 20
1429.132764154961
 30
0.0
 11
669.2265667751609
 21
1432.668298060893
 31
0.0
  0
LINE
  5
12CC
330
A
100
AcDbEntity
  8
06
100
AcDbLine
 10
672.7621006810937
 20
1432.668298060893
 30
0.0
 11
669.2265667751609
 21
1429.132764154961
 31
0.0
  0
LINE
  5
12CD
330
A
100
AcDbEntity
  8
06
100
AcDbLine
 10
674.9943337281272
 20
1426.900531107927
 30
0.0
 11
666.9943337281272
 21
1426.900531107927
 31
0.0
  0
LINE
  5
12CE
330
A
100
AcDbEntity
  8
06
100
AcDbLine
 10
674.9943337281272
 20
1434.900531107927
 30
0.0
 11
666.9943337281272
 21
1434.900531107927
 31
0.0
  0
LINE
  5
12CF
330
A
100
AcDbEntity
  8
06
100
AcDbLine
 10
672.7621006810937
 20
1418.668298060894
 30
0.0
 11
669.2265667751609
 21
1415.132764154961
 31
0.0
  0
LINE
  5
12D0
330
A
100
AcDbEntity
  8
06
100
AcDbLine
 10
672.7621006810937
 20
1415.132764154961
 30
0.0
 11
669.2265667751609
 21
1418.668298060894
 31
0.0
  0
LINE
  5
12D1
330
A
100
AcDbEntity
  8
06
100
AcDbLine
 10
674.9943337281272
 20
1420.900531107927
 30
0.0
 11
666.9943337281272
 21
1420.900531107927
 31
0.0
  0
LINE
  5
12D2
330
A
100
AcDbEntity
  8
06
100
AcDbLine
 10
674.9943337281272
 20
1412.900531107927
 30
0.0
 11
666.9943337281272
 21
1412.900531107927
 31
0.0
  0
LINE
  5
12D3
330
A
100
AcDbEntity
  8
06
100
AcDbLine
 10
674.9943337281272
 20
1438.900531107926
 30
0.0
 11
674.9943337281272
 21
1408.900531107927
 31
0.0
  0
LINE
  5
12D4
330
A
100
AcDbEntity
  8
06
100
AcDbLine
 10
666.9943337281272
 20
1438.900531107926
 30
0.0
 11
666.9943337281272
 21
1408.900531107927
 31
0.0
  0
LINE
  5
12D5
330
A
100
AcDbEntity
  8
06
100
AcDbLine
 10
662.7621006810938
 20
1429.132764154961
 30
0.0
 11
659.2265667751608
 21
1432.668298060893
 31
0.0
  0
LINE
  5
12D6
330
A
100
AcDbEntity
  8
06
100
AcDbLine
 10
662.7621006810938
 20
1432.668298060893
 30
0.0
 11
659.2265667751608
 21
1429.132764154961
 31
0.0
  0
LINE
  5
12D7
330
A
100
AcDbEntity
  8
06
100
AcDbLine
 10
664.9943337281272
 20
1426.900531107927
 30
0.0
 11
656.9943337281272
 21
1426.900531107927
 31
0.0
  0
LINE
  5
12D8
330
A
100
AcDbEntity
  8
06
100
AcDbLine
 10
664.9943337281272
 20
1434.900531107927
 30
0.0
 11
656.9943337281272
 21
1434.900531107927
 31
0.0
  0
LINE
  5
12D9
330
A
100
AcDbEntity
  8
06
100
AcDbLine
 10
662.7621006810938
 20
1418.668298060894
 30
0.0
 11
659.2265667751608
 21
1415.132764154961
 31
0.0
  0
LINE
  5
12DA
330
A
100
AcDbEntity
  8
06
100
AcDbLine
 10
662.7621006810938
 20
1415.132764154961
 30
0.0
 11
659.2265667751608
 21
1418.668298060894
 31
0.0
  0
LINE
  5
12DB
330
A
100
AcDbEntity
  8
06
100
AcDbLine
 10
664.9943337281272
 20
1420.900531107927
 30
0.0
 11
656.9943337281272
 21
1420.900531107927
 31
0.0
  0
LINE
  5
12DC
330
A
100
AcDbEntity
  8
06
100
AcDbLine
 10
664.9943337281272
 20
1412.900531107927
 30
0.0
 11
656.9943337281272
 21
1412.900531107927
 31
0.0
  0
LINE
  5
12DD
330
A
100
AcDbEntity
  8
06
100
AcDbLine
 10
664.9943337281272
 20
1438.900531107926
 30
0.0
 11
664.9943337281272
 21
1408.900531107927
 31
0.0
  0
LINE
  5
12DE
330
A
100
AcDbEntity
  8
06
100
AcDbLine
 10
656.9943337281272
 20
1438.900531107926
 30
0.0
 11
656.9943337281272
 21
1408.900531107927
 31
0.0
  0
LINE
  5
12DF
330
A
100
AcDbEntity
  8
06
100
AcDbLine
 10
652.7621006810938
 20
1429.132764154961
 30
0.0
 11
649.2265667751609
 21
1432.668298060893
 31
0.0
  0
LINE
  5
12E0
330
A
100
AcDbEntity
  8
06
100
AcDbLine
 10
652.7621006810938
 20
1432.668298060893
 30
0.0
 11
649.2265667751609
 21
1429.132764154961
 31
0.0
  0
LINE
  5
12E1
330
A
100
AcDbEntity
  8
06
100
AcDbLine
 10
654.9943337281272
 20
1426.900531107927
 30
0.0
 11
646.9943337281272
 21
1426.900531107927
 31
0.0
  0
LINE
  5
12E2
330
A
100
AcDbEntity
  8
06
100
AcDbLine
 10
654.9943337281272
 20
1434.900531107927
 30
0.0
 11
646.9943337281272
 21
1434.900531107927
 31
0.0
  0
LINE
  5
12E3
330
A
100
AcDbEntity
  8
06
100
AcDbLine
 10
652.7621006810938
 20
1418.668298060894
 30
0.0
 11
649.2265667751609
 21
1415.132764154961
 31
0.0
  0
LINE
  5
12E4
330
A
100
AcDbEntity
  8
06
100
AcDbLine
 10
652.7621006810938
 20
1415.132764154961
 30
0.0
 11
649.2265667751609
 21
1418.668298060894
 31
0.0
  0
LINE
  5
12E5
330
A
100
AcDbEntity
  8
06
100
AcDbLine
 10
654.9943337281272
 20
1420.900531107927
 30
0.0
 11
646.9943337281272
 21
1420.900531107927
 31
0.0
  0
LINE
  5
12E6
330
A
100
AcDbEntity
  8
06
100
AcDbLine
 10
654.9943337281272
 20
1412.900531107927
 30
0.0
 11
646.9943337281272
 21
1412.900531107927
 31
0.0
  0
LINE
  5
12E7
330
A
100
AcDbEntity
  8
06
100
AcDbLine
 10
654.9943337281272
 20
1438.900531107926
 30
0.0
 11
654.9943337281272
 21
1408.900531107927
 31
0.0
  0
LINE
  5
12E8
330
A
100
AcDbEntity
  8
06
100
AcDbLine
 10
646.9943337281272
 20
1438.900531107926
 30
0.0
 11
646.9943337281272
 21
1408.900531107927
 31
0.0
  0
LINE
  5
12E9
330
A
100
AcDbEntity
  8
06
100
AcDbLine
 10
642.7621006810937
 20
1429.132764154961
 30
0.0
 11
639.2265667751607
 21
1432.668298060893
 31
0.0
  0
LINE
  5
12EA
330
A
100
AcDbEntity
  8
06
100
AcDbLine
 10
642.7621006810937
 20
1432.668298060893
 30
0.0
 11
639.2265667751607
 21
1429.132764154961
 31
0.0
  0
LINE
  5
12EB
330
A
100
AcDbEntity
  8
06
100
AcDbLine
 10
644.9943337281272
 20
1426.900531107927
 30
0.0
 11
636.9943337281272
 21
1426.900531107927
 31
0.0
  0
LINE
  5
12EC
330
A
100
AcDbEntity
  8
06
100
AcDbLine
 10
644.9943337281272
 20
1434.900531107927
 30
0.0
 11
636.9943337281272
 21
1434.900531107927
 31
0.0
  0
LINE
  5
12ED
330
A
100
AcDbEntity
  8
06
100
AcDbLine
 10
642.7621006810937
 20
1418.668298060894
 30
0.0
 11
639.2265667751607
 21
1415.132764154961
 31
0.0
  0
LINE
  5
12EE
330
A
100
AcDbEntity
  8
06
100
AcDbLine
 10
642.7621006810937
 20
1415.132764154961
 30
0.0
 11
639.2265667751607
 21
1418.668298060894
 31
0.0
  0
LINE
  5
12EF
330
A
100
AcDbEntity
  8
06
100
AcDbLine
 10
644.9943337281272
 20
1420.900531107927
 30
0.0
 11
636.9943337281272
 21
1420.900531107927
 31
0.0
  0
LINE
  5
12F0
330
A
100
AcDbEntity
  8
06
100
AcDbLine
 10
644.9943337281272
 20
1412.900531107927
 30
0.0
 11
636.9943337281272
 21
1412.900531107927
 31
0.0
  0
LINE
  5
12F1
330
A
100
AcDbEntity
  8
06
100
AcDbLine
 10
644.9943337281272
 20
1438.900531107926
 30
0.0
 11
644.9943337281272
 21
1408.900531107927
 31
0.0
  0
LINE
  5
12F2
330
A
100
AcDbEntity
  8
06
100
AcDbLine
 10
636.9943337281272
 20
1438.900531107926
 30
0.0
 11
636.9943337281272
 21
1408.900531107927
 31
0.0
  0
LINE
  5
12F3
330
A
100
AcDbEntity
  8
06
100
AcDbLine
 10
632.7621006810938
 20
1429.132764154961
 30
0.0
 11
629.2265667751609
 21
1432.668298060893
 31
0.0
  0
LINE
  5
12F4
330
A
100
AcDbEntity
  8
06
100
AcDbLine
 10
632.7621006810938
 20
1432.668298060893
 30
0.0
 11
629.2265667751609
 21
1429.132764154961
 31
0.0
  0
LINE
  5
12F5
330
A
100
AcDbEntity
  8
06
100
AcDbLine
 10
634.9943337281272
 20
1426.900531107927
 30
0.0
 11
626.9943337281272
 21
1426.900531107927
 31
0.0
  0
LINE
  5
12F6
330
A
100
AcDbEntity
  8
06
100
AcDbLine
 10
634.9943337281272
 20
1434.900531107927
 30
0.0
 11
626.9943337281272
 21
1434.900531107927
 31
0.0
  0
LINE
  5
12F7
330
A
100
AcDbEntity
  8
06
100
AcDbLine
 10
632.7621006810938
 20
1418.668298060894
 30
0.0
 11
629.2265667751609
 21
1415.132764154961
 31
0.0
  0
LINE
  5
12F8
330
A
100
AcDbEntity
  8
06
100
AcDbLine
 10
632.7621006810938
 20
1415.132764154961
 30
0.0
 11
629.2265667751609
 21
1418.668298060894
 31
0.0
  0
LINE
  5
12F9
330
A
100
AcDbEntity
  8
06
100
AcDbLine
 10
634.9943337281272
 20
1420.900531107927
 30
0.0
 11
626.9943337281272
 21
1420.900531107927
 31
0.0
  0
LINE
  5
12FA
330
A
100
AcDbEntity
  8
06
100
AcDbLine
 10
634.9943337281272
 20
1412.900531107927
 30
0.0
 11
626.9943337281272
 21
1412.900531107927
 31
0.0
  0
LINE
  5
12FB
330
A
100
AcDbEntity
  8
06
100
AcDbLine
 10
634.9943337281272
 20
1438.900531107926
 30
0.0
 11
634.9943337281272
 21
1408.900531107927
 31
0.0
  0
LINE
  5
12FC
330
A
100
AcDbEntity
  8
06
100
AcDbLine
 10
626.9943337281272
 20
1438.900531107926
 30
0.0
 11
626.9943337281272
 21
1408.900531107927
 31
0.0
  0
LINE
  5
12FD
330
A
100
AcDbEntity
  8
06
100
AcDbLine
 10
622.7621006810937
 20
1429.132764154961
 30
0.0
 11
619.2265667751609
 21
1432.668298060893
 31
0.0
  0
LINE
  5
12FE
330
A
100
AcDbEntity
  8
06
100
AcDbLine
 10
622.7621006810937
 20
1432.668298060893
 30
0.0
 11
619.2265667751609
 21
1429.132764154961
 31
0.0
  0
LINE
  5
12FF
330
A
100
AcDbEntity
  8
06
100
AcDbLine
 10
624.9943337281272
 20
1426.900531107927
 30
0.0
 11
616.9943337281272
 21
1426.900531107927
 31
0.0
  0
LINE
  5
1300
330
A
100
AcDbEntity
  8
06
100
AcDbLine
 10
624.9943337281272
 20
1434.900531107927
 30
0.0
 11
616.9943337281272
 21
1434.900531107927
 31
0.0
  0
LINE
  5
1301
330
A
100
AcDbEntity
  8
06
100
AcDbLine
 10
622.7621006810937
 20
1418.668298060894
 30
0.0
 11
619.2265667751609
 21
1415.132764154961
 31
0.0
  0
LINE
  5
1302
330
A
100
AcDbEntity
  8
06
100
AcDbLine
 10
622.7621006810937
 20
1415.132764154961
 30
0.0
 11
619.2265667751609
 21
1418.668298060894
 31
0.0
  0
LINE
  5
1303
330
A
100
AcDbEntity
  8
06
100
AcDbLine
 10
624.9943337281272
 20
1420.900531107927
 30
0.0
 11
616.9943337281272
 21
1420.900531107927
 31
0.0
  0
LINE
  5
1304
330
A
100
AcDbEntity
  8
06
100
AcDbLine
 10
624.9943337281272
 20
1412.900531107927
 30
0.0
 11
616.9943337281272
 21
1412.900531107927
 31
0.0
  0
LINE
  5
1305
330
A
100
AcDbEntity
  8
06
100
AcDbLine
 10
624.9943337281272
 20
1438.900531107926
 30
0.0
 11
624.9943337281272
 21
1408.900531107927
 31
0.0
  0
LINE
  5
1306
330
A
100
AcDbEntity
  8
06
100
AcDbLine
 10
616.9943337281272
 20
1438.900531107926
 30
0.0
 11
616.9943337281272
 21
1408.900531107927
 31
0.0
  0
LINE
  5
1307
330
A
100
AcDbEntity
  8
06
100
AcDbLine
 10
612.7621006810938
 20
1429.132764154961
 30
0.0
 11
609.2265667751608
 21
1432.668298060893
 31
0.0
  0
LINE
  5
1308
330
A
100
AcDbEntity
  8
06
100
AcDbLine
 10
612.7621006810938
 20
1432.668298060893
 30
0.0
 11
609.2265667751608
 21
1429.132764154961
 31
0.0
  0
LINE
  5
1309
330
A
100
AcDbEntity
  8
06
100
AcDbLine
 10
614.9943337281272
 20
1426.900531107927
 30
0.0
 11
606.9943337281272
 21
1426.900531107927
 31
0.0
  0
LINE
  5
130A
330
A
100
AcDbEntity
  8
06
100
AcDbLine
 10
614.9943337281272
 20
1434.900531107927
 30
0.0
 11
606.9943337281272
 21
1434.900531107927
 31
0.0
  0
LINE
  5
130B
330
A
100
AcDbEntity
  8
06
100
AcDbLine
 10
612.7621006810938
 20
1418.668298060894
 30
0.0
 11
609.2265667751608
 21
1415.132764154961
 31
0.0
  0
LINE
  5
130C
330
A
100
AcDbEntity
  8
06
100
AcDbLine
 10
612.7621006810938
 20
1415.132764154961
 30
0.0
 11
609.2265667751608
 21
1418.668298060894
 31
0.0
  0
LINE
  5
130D
330
A
100
AcDbEntity
  8
06
100
AcDbLine
 10
614.9943337281272
 20
1420.900531107927
 30
0.0
 11
606.9943337281272
 21
1420.900531107927
 31
0.0
  0
LINE
  5
130E
330
A
100
AcDbEntity
  8
06
100
AcDbLine
 10
614.9943337281272
 20
1412.900531107927
 30
0.0
 11
606.9943337281272
 21
1412.900531107927
 31
0.0
  0
LINE
  5
130F
330
A
100
AcDbEntity
  8
06
100
AcDbLine
 10
614.9943337281272
 20
1438.900531107926
 30
0.0
 11
614.9943337281272
 21
1408.900531107927
 31
0.0
  0
LINE
  5
1310
330
A
100
AcDbEntity
  8
06
100
AcDbLine
 10
606.9943337281272
 20
1438.900531107926
 30
0.0
 11
606.9943337281272
 21
1408.900531107927
 31
0.0
  0
LINE
  5
1311
330
A
100
AcDbEntity
  8
06
100
AcDbLine
 10
602.7621006810938
 20
1429.132764154961
 30
0.0
 11
599.2265667751609
 21
1432.668298060893
 31
0.0
  0
LINE
  5
1312
330
A
100
AcDbEntity
  8
06
100
AcDbLine
 10
602.7621006810938
 20
1432.668298060893
 30
0.0
 11
599.2265667751609
 21
1429.132764154961
 31
0.0
  0
LINE
  5
1313
330
A
100
AcDbEntity
  8
06
100
AcDbLine
 10
604.9943337281272
 20
1426.900531107927
 30
0.0
 11
596.9943337281272
 21
1426.900531107927
 31
0.0
  0
LINE
  5
1314
330
A
100
AcDbEntity
  8
06
100
AcDbLine
 10
604.9943337281272
 20
1434.900531107927
 30
0.0
 11
596.9943337281272
 21
1434.900531107927
 31
0.0
  0
LINE
  5
1315
330
A
100
AcDbEntity
  8
06
100
AcDbLine
 10
602.7621006810938
 20
1418.668298060894
 30
0.0
 11
599.2265667751609
 21
1415.132764154961
 31
0.0
  0
LINE
  5
1316
330
A
100
AcDbEntity
  8
06
100
AcDbLine
 10
602.7621006810938
 20
1415.132764154961
 30
0.0
 11
599.2265667751609
 21
1418.668298060894
 31
0.0
  0
LINE
  5
1317
330
A
100
AcDbEntity
  8
06
100
AcDbLine
 10
604.9943337281272
 20
1420.900531107927
 30
0.0
 11
596.9943337281272
 21
1420.900531107927
 31
0.0
  0
LINE
  5
1318
330
A
100
AcDbEntity
  8
06
100
AcDbLine
 10
604.9943337281272
 20
1412.900531107927
 30
0.0
 11
596.9943337281272
 21
1412.900531107927
 31
0.0
  0
LINE
  5
1319
330
A
100
AcDbEntity
  8
06
100
AcDbLine
 10
604.9943337281272
 20
1438.900531107926
 30
0.0
 11
604.9943337281272
 21
1408.900531107927
 31
0.0
  0
LINE
  5
131A
330
A
100
AcDbEntity
  8
06
100
AcDbLine
 10
596.9943337281272
 20
1438.900531107926
 30
0.0
 11
596.9943337281272
 21
1408.900531107927
 31
0.0
  0
LINE
  5
131B
330
A
100
AcDbEntity
  8
06
100
AcDbLine
 10
592.9943337281271
 20
1430.528249784657
 30
0.0
 11
592.9943337281271
 21
1408.900531107927
 31
0.0
  0
LINE
  5
131C
330
A
100
AcDbEntity
  8
06
100
AcDbLine
 10
592.9943337281271
 20
1438.900531107926
 30
0.0
 11
592.9943337281271
 21
1436.272812431196
 31
0.0
  0
LINE
  5
131D
330
A
100
AcDbEntity
  8
06
100
AcDbLine
 10
585.9943337281272
 20
1408.900531107927
 30
0.0
 11
707.9943337281273
 21
1408.900531107927
 31
0.0
  0
LINE
  5
131E
330
A
100
AcDbEntity
  8
06
100
AcDbLine
 10
585.9943337281272
 20
1438.900531107926
 30
0.0
 11
707.9943337281273
 21
1438.900531107926
 31
0.0
  0
LINE
  5
131F
330
A
100
AcDbEntity
  8
06
100
AcDbLine
 10
585.9943337281272
 20
1438.900531107926
 30
0.0
 11
585.9943337281272
 21
1408.900531107927
 31
0.0
  0
LINE
  5
1320
330
A
100
AcDbEntity
  8
KAKURE
100
AcDbLine
 10
856.1223862276843
 20
532.9005314129686
 30
0.0
 11
856.1223862276843
 21
509.4005311079277
 31
0.0
  0
LINE
  5
1321
330
A
100
AcDbEntity
  8
KAKURE
100
AcDbLine
 10
845.8723862276842
 20
532.9005314129686
 30
0.0
 11
845.8723862276842
 21
509.4005311079277
 31
0.0
  0
LINE
  5
1322
330
A
100
AcDbEntity
  8
03
100
AcDbLine
 10
840.0473862276841
 20
498.4005311079278
 30
0.0
 11
839.0473862276845
 21
499.4005311079276
 31
0.0
  0
LINE
  5
1323
330
A
100
AcDbEntity
  8
03
100
AcDbLine
 10
840.0473862276841
 20
497.4005311079278
 30
0.0
 11
838.047386227684
 21
499.4005311079276
 31
0.0
  0
LINE
  5
1324
330
A
100
AcDbEntity
  8
03
100
AcDbLine
 10
840.0473862276841
 20
496.4005311079279
 30
0.0
 11
837.047386227684
 21
499.4005311079276
 31
0.0
  0
LINE
  5
1325
330
A
100
AcDbEntity
  8
03
100
AcDbLine
 10
861.9473862276842
 20
498.4005311079278
 30
0.0
 11
862.9473862276842
 21
499.4005311079276
 31
0.0
  0
LINE
  5
1326
330
A
100
AcDbEntity
  8
03
100
AcDbLine
 10
861.9473862276842
 20
497.4005311079278
 30
0.0
 11
863.9473862276842
 21
499.4005311079276
 31
0.0
  0
LINE
  5
1327
330
A
100
AcDbEntity
  8
03
100
AcDbLine
 10
861.9473862276842
 20
496.4005311079279
 30
0.0
 11
864.9473862276844
 21
499.4005311079276
 31
0.0
  0
LINE
  5
1328
330
A
100
AcDbEntity
  8
03
100
AcDbLine
 10
856.9973862276842
 20
507.8849866513047
 30
0.0
 11
856.1223862276843
 21
509.4005311079277
 31
0.0
  0
LINE
  5
1329
330
A
100
AcDbEntity
  8
03
100
AcDbLine
 10
844.9973862276843
 20
507.8849866513047
 30
0.0
 11
845.8723862276842
 21
509.4005311079277
 31
0.0
  0
LINE
  5
132A
330
A
100
AcDbEntity
  8
03
100
AcDbLine
 10
856.1223862276843
 20
532.9005314129686
 30
0.0
 11
856.1223862276843
 21
538.2755311079281
 31
0.0
  0
LINE
  5
132B
330
A
100
AcDbEntity
  8
03
100
AcDbLine
 10
845.8723862276842
 20
532.9005314129686
 30
0.0
 11
845.8723862276842
 21
538.2755311079281
 31
0.0
  0
LINE
  5
132C
330
A
100
AcDbEntity
  8
KAKURE
100
AcDbLine
 10
844.9973862276843
 20
509.4005311079277
 30
0.0
 11
856.9973862276842
 21
509.4005311079277
 31
0.0
  0
LINE
  5
132D
330
A
100
AcDbEntity
  8
KAKURE
100
AcDbLine
 10
856.9973862276842
 20
532.9005314129686
 30
0.0
 11
856.9973862276842
 21
500.0005311079277
 31
0.0
  0
LINE
  5
132E
330
A
100
AcDbEntity
  8
KAKURE
100
AcDbLine
 10
844.9973862276843
 20
532.9005314129686
 30
0.0
 11
844.9973862276843
 21
500.0005311079277
 31
0.0
  0
LINE
  5
132F
330
A
100
AcDbEntity
  8
04
100
AcDbLine
 10
856.4625586703828
 20
499.4005311079276
 30
0.0
 11
856.4625586703828
 21
492.5263641328476
 31
0.0
  0
LINE
  5
1330
330
A
100
AcDbEntity
  8
04
100
AcDbLine
 10
861.9473862276842
 20
499.4005311079276
 30
0.0
 11
861.9473862276842
 21
492.5263641328476
 31
0.0
  0
LINE
  5
1331
330
A
100
AcDbEntity
  8
04
100
AcDbLine
 10
842.7898000063352
 20
491.4005311079278
 30
0.0
 11
859.2049724490335
 21
491.4005311079278
 31
0.0
  0
LINE
  5
1332
330
A
100
AcDbEntity
  8
04
100
AcDbLine
 10
840.0473862276841
 20
499.4005311079276
 30
0.0
 11
861.9473862276842
 21
499.4005311079276
 31
0.0
  0
LINE
  5
1333
330
A
100
AcDbEntity
  8
04
100
AcDbLine
 10
845.5322137849858
 20
499.4005311079276
 30
0.0
 11
845.5322137849858
 21
492.5263641328476
 31
0.0
  0
LINE
  5
1334
330
A
100
AcDbEntity
  8
04
100
AcDbLine
 10
840.0473862276841
 20
499.4005311079276
 30
0.0
 11
840.0473862276841
 21
492.5263641328476
 31
0.0
  0
LINE
  5
1335
330
A
100
AcDbEntity
  8
04
100
AcDbLine
 10
856.9973862276842
 20
537.4005311079281
 30
0.0
 11
854.9973862276843
 21
539.4005311079277
 31
0.0
  0
LINE
  5
1336
330
A
100
AcDbEntity
  8
04
100
AcDbLine
 10
844.9973862276843
 20
537.4005311079281
 30
0.0
 11
846.9973862276843
 21
539.4005311079277
 31
0.0
  0
LINE
  5
1337
330
A
100
AcDbEntity
  8
04
100
AcDbLine
 10
856.9973862276842
 20
532.9005314129686
 30
0.0
 11
856.9973862276842
 21
537.4005311079281
 31
0.0
  0
LINE
  5
1338
330
A
100
AcDbEntity
  8
04
100
AcDbLine
 10
844.9973862276843
 20
537.4005311079281
 30
0.0
 11
856.9973862276842
 21
537.4005311079281
 31
0.0
  0
LINE
  5
1339
330
A
100
AcDbEntity
  8
04
100
AcDbLine
 10
844.9973862276843
 20
532.9005314129686
 30
0.0
 11
844.9973862276843
 21
537.4005311079281
 31
0.0
  0
LINE
  5
133A
330
A
100
AcDbEntity
  8
04
100
AcDbLine
 10
846.9973862276843
 20
539.4005311079277
 30
0.0
 11
854.9973862276843
 21
539.4005311079277
 31
0.0
  0
LINE
  5
133B
330
A
100
AcDbEntity
  8
04
100
AcDbLine
 10
862.9973862276843
 20
519.9005311079266
 30
0.0
 11
838.9973862276843
 21
519.9005311079266
 31
0.0
  0
LINE
  5
133C
330
A
100
AcDbEntity
  8
04
100
AcDbLine
 10
838.9973862276843
 20
517.4005311079264
 30
0.0
 11
838.9973862276843
 21
519.9005311079266
 31
0.0
  0
LINE
  5
133D
330
A
100
AcDbEntity
  8
04
100
AcDbLine
 10
862.9973862276843
 20
517.4005311079268
 30
0.0
 11
838.9973862276843
 21
517.4005311079264
 31
0.0
  0
LINE
  5
133E
330
A
100
AcDbEntity
  8
04
100
AcDbLine
 10
862.9973862276843
 20
519.9005311079266
 30
0.0
 11
862.9973862276843
 21
517.4005311079268
 31
0.0
  0
LINE
  5
133F
330
A
100
AcDbEntity
  8
04
100
AcDbLine
 10
850.1935386503911
 20
522.9005311079268
 30
0.0
 11
850.9973862276842
 21
519.9005311079266
 31
0.0
  0
LINE
  5
1340
330
A
100
AcDbEntity
  8
04
100
AcDbLine
 10
850.9973862276842
 20
522.9005311079268
 30
0.0
 11
851.8012338049777
 21
519.9005311079266
 31
0.0
  0
LINE
  5
1341
330
A
100
AcDbEntity
  8
04
100
AcDbLine
 10
840.2473862276842
 20
519.9005311079266
 30
0.0
 11
840.2473862276842
 21
522.9005311079268
 31
0.0
  0
LINE
  5
1342
330
A
100
AcDbEntity
  8
04
100
AcDbLine
 10
861.7473862276842
 20
522.9005311079268
 30
0.0
 11
861.7473862276842
 21
519.9005311079266
 31
0.0
  0
LINE
  5
1343
330
A
100
AcDbEntity
  8
04
100
AcDbLine
 10
856.4625586703828
 20
522.9005311079268
 30
0.0
 11
856.4625586703828
 21
531.7746980830072
 31
0.0
  0
LINE
  5
1344
330
A
100
AcDbEntity
  8
04
100
AcDbLine
 10
861.9473862276842
 20
522.9005311079268
 30
0.0
 11
861.9473862276842
 21
531.7746980830072
 31
0.0
  0
LINE
  5
1345
330
A
100
AcDbEntity
  8
04
100
AcDbLine
 10
842.7898000063352
 20
532.900531107927
 30
0.0
 11
859.2049724490335
 21
532.900531107927
 31
0.0
  0
LINE
  5
1346
330
A
100
AcDbEntity
  8
04
100
AcDbLine
 10
840.0473862276841
 20
522.9005311079268
 30
0.0
 11
861.9473862276842
 21
522.9005311079268
 31
0.0
  0
LINE
  5
1347
330
A
100
AcDbEntity
  8
04
100
AcDbLine
 10
845.5322137849858
 20
522.9005311079268
 30
0.0
 11
845.5322137849858
 21
531.7746980830072
 31
0.0
  0
LINE
  5
1348
330
A
100
AcDbEntity
  8
04
100
AcDbLine
 10
840.0473862276841
 20
522.9005311079268
 30
0.0
 11
840.0473862276841
 21
531.7746980830072
 31
0.0
  0
LINE
  5
1349
330
A
100
AcDbEntity
  8
03
100
AcDbLine
 10
885.9973862276843
 20
505.4005314129699
 30
0.0
 11
950.9973862276842
 21
505.4005311079274
 31
0.0
  0
LINE
  5
134A
330
A
100
AcDbEntity
  8
03
100
AcDbLine
 10
946.9973862276843
 20
499.4005311079276
 30
0.0
 11
900.4973862276843
 21
499.4005311079278
 31
0.0
  0
LINE
  5
134B
330
A
100
AcDbEntity
  8
03
100
AcDbLine
 10
950.9973862276842
 20
505.4005311079277
 30
0.0
 11
950.9973862276842
 21
503.4005311079273
 31
0.0
  0
LINE
  5
134C
330
A
100
AcDbEntity
  8
03
100
AcDbLine
 10
891.9973862276842
 20
490.9005311079278
 30
0.0
 11
891.9973862276842
 21
444.4005311079281
 31
0.0
  0
LINE
  5
134D
330
A
100
AcDbEntity
  8
03
100
AcDbLine
 10
887.9973862276843
 20
440.4005311079282
 30
0.0
 11
885.9973862276843
 21
440.4005311079282
 31
0.0
  0
LINE
  5
134E
330
A
100
AcDbEntity
  8
03
100
AcDbLine
 10
885.9973862276843
 20
440.4005311079282
 30
0.0
 11
885.9973862276843
 21
505.4005311079281
 31
0.0
  0
LINE
  5
136E
330
A
100
AcDbEntity
  8
KAKURE
100
AcDbLine
 10
525.8723862276844
 20
532.9005312604476
 30
0.0
 11
525.8723862276844
 21
509.4005309554067
 31
0.0
  0
LINE
  5
136F
330
A
100
AcDbEntity
  8
KAKURE
100
AcDbLine
 10
536.1223862276842
 20
532.9005312604476
 30
0.0
 11
536.1223862276842
 21
509.4005309554067
 31
0.0
  0
LINE
  5
1370
330
A
100
AcDbEntity
  8
03
100
AcDbLine
 10
541.9473862276844
 20
498.400530955407
 30
0.0
 11
542.9473862276842
 21
499.4005309554068
 31
0.0
  0
LINE
  5
1371
330
A
100
AcDbEntity
  8
03
100
AcDbLine
 10
541.9473862276844
 20
497.400530955407
 30
0.0
 11
543.9473862276846
 21
499.4005309554068
 31
0.0
  0
LINE
  5
1372
330
A
100
AcDbEntity
  8
03
100
AcDbLine
 10
541.9473862276844
 20
496.400530955407
 30
0.0
 11
544.9473862276844
 21
499.4005309554068
 31
0.0
  0
LINE
  5
1373
330
A
100
AcDbEntity
  8
03
100
AcDbLine
 10
520.0473862276846
 20
498.400530955407
 30
0.0
 11
519.0473862276844
 21
499.4005309554068
 31
0.0
  0
LINE
  5
1374
330
A
100
AcDbEntity
  8
03
100
AcDbLine
 10
520.0473862276846
 20
497.400530955407
 30
0.0
 11
518.0473862276844
 21
499.4005309554068
 31
0.0
  0
LINE
  5
1375
330
A
100
AcDbEntity
  8
03
100
AcDbLine
 10
520.0473862276846
 20
496.400530955407
 30
0.0
 11
517.0473862276844
 21
499.4005309554068
 31
0.0
  0
LINE
  5
1376
330
A
100
AcDbEntity
  8
03
100
AcDbLine
 10
524.9973862276844
 20
507.8849864987838
 30
0.0
 11
525.8723862276844
 21
509.4005309554067
 31
0.0
  0
LINE
  5
1377
330
A
100
AcDbEntity
  8
03
100
AcDbLine
 10
536.9973862276842
 20
507.8849864987838
 30
0.0
 11
536.1223862276842
 21
509.4005309554067
 31
0.0
  0
LINE
  5
1378
330
A
100
AcDbEntity
  8
03
100
AcDbLine
 10
525.8723862276844
 20
532.9005312604476
 30
0.0
 11
525.8723862276844
 21
538.2755309554071
 31
0.0
  0
LINE
  5
1379
330
A
100
AcDbEntity
  8
03
100
AcDbLine
 10
536.1223862276842
 20
532.9005312604476
 30
0.0
 11
536.1223862276842
 21
538.2755309554071
 31
0.0
  0
LINE
  5
137A
330
A
100
AcDbEntity
  8
KAKURE
100
AcDbLine
 10
536.9973862276842
 20
509.4005309554067
 30
0.0
 11
524.9973862276844
 21
509.4005309554067
 31
0.0
  0
LINE
  5
137B
330
A
100
AcDbEntity
  8
KAKURE
100
AcDbLine
 10
524.9973862276844
 20
532.9005312604476
 30
0.0
 11
524.9973862276844
 21
500.0005309554068
 31
0.0
  0
LINE
  5
137C
330
A
100
AcDbEntity
  8
KAKURE
100
AcDbLine
 10
536.9973862276842
 20
532.9005312604476
 30
0.0
 11
536.9973862276842
 21
500.0005309554068
 31
0.0
  0
LINE
  5
137D
330
A
100
AcDbEntity
  8
04
100
AcDbLine
 10
525.5322137849858
 20
499.4005309554068
 30
0.0
 11
525.5322137849858
 21
492.5263639803268
 31
0.0
  0
LINE
  5
137E
330
A
100
AcDbEntity
  8
04
100
AcDbLine
 10
520.0473862276846
 20
499.4005309554068
 30
0.0
 11
520.0473862276846
 21
492.5263639803268
 31
0.0
  0
LINE
  5
137F
330
A
100
AcDbEntity
  8
04
100
AcDbLine
 10
539.2049724490335
 20
491.4005309554069
 30
0.0
 11
522.7898000063352
 21
491.4005309554069
 31
0.0
  0
LINE
  5
1380
330
A
100
AcDbEntity
  8
04
100
AcDbLine
 10
541.9473862276844
 20
499.4005309554068
 30
0.0
 11
520.0473862276846
 21
499.4005309554068
 31
0.0
  0
LINE
  5
1381
330
A
100
AcDbEntity
  8
04
100
AcDbLine
 10
536.4625586703827
 20
499.4005309554068
 30
0.0
 11
536.4625586703827
 21
492.5263639803268
 31
0.0
  0
LINE
  5
1382
330
A
100
AcDbEntity
  8
04
100
AcDbLine
 10
541.9473862276844
 20
499.4005309554068
 30
0.0
 11
541.9473862276844
 21
492.5263639803268
 31
0.0
  0
LINE
  5
1383
330
A
100
AcDbEntity
  8
04
100
AcDbLine
 10
524.9973862276844
 20
537.4005309554071
 30
0.0
 11
526.9973862276843
 21
539.400530955407
 31
0.0
  0
LINE
  5
1384
330
A
100
AcDbEntity
  8
04
100
AcDbLine
 10
536.9973862276842
 20
537.4005309554071
 30
0.0
 11
534.9973862276844
 21
539.400530955407
 31
0.0
  0
LINE
  5
1385
330
A
100
AcDbEntity
  8
04
100
AcDbLine
 10
524.9973862276844
 20
532.9005312604476
 30
0.0
 11
524.9973862276844
 21
537.4005309554071
 31
0.0
  0
LINE
  5
1386
330
A
100
AcDbEntity
  8
04
100
AcDbLine
 10
536.9973862276842
 20
537.4005309554071
 30
0.0
 11
524.9973862276844
 21
537.4005309554071
 31
0.0
  0
LINE
  5
1387
330
A
100
AcDbEntity
  8
04
100
AcDbLine
 10
536.9973862276842
 20
532.9005312604476
 30
0.0
 11
536.9973862276842
 21
537.4005309554071
 31
0.0
  0
LINE
  5
1388
330
A
100
AcDbEntity
  8
04
100
AcDbLine
 10
534.9973862276844
 20
539.400530955407
 30
0.0
 11
526.9973862276843
 21
539.400530955407
 31
0.0
  0
LINE
  5
1389
330
A
100
AcDbEntity
  8
04
100
AcDbLine
 10
518.9973862276842
 20
519.9005309554059
 30
0.0
 11
542.9973862276844
 21
519.9005309554059
 31
0.0
  0
LINE
  5
138A
330
A
100
AcDbEntity
  8
04
100
AcDbLine
 10
542.9973862276844
 20
517.4005309554056
 30
0.0
 11
542.9973862276844
 21
519.9005309554059
 31
0.0
  0
LINE
  5
138B
330
A
100
AcDbEntity
  8
04
100
AcDbLine
 10
518.9973862276842
 20
517.4005309554059
 30
0.0
 11
542.9973862276844
 21
517.4005309554056
 31
0.0
  0
LINE
  5
138C
330
A
100
AcDbEntity
  8
04
100
AcDbLine
 10
518.9973862276842
 20
519.9005309554059
 30
0.0
 11
518.9973862276842
 21
517.4005309554059
 31
0.0
  0
LINE
  5
138D
330
A
100
AcDbEntity
  8
04
100
AcDbLine
 10
531.8012338049776
 20
522.9005309554061
 30
0.0
 11
530.9973862276843
 21
519.9005309554059
 31
0.0
  0
LINE
  5
138E
330
A
100
AcDbEntity
  8
04
100
AcDbLine
 10
530.9973862276843
 20
522.9005309554061
 30
0.0
 11
530.1935386503911
 21
519.9005309554059
 31
0.0
  0
LINE
  5
138F
330
A
100
AcDbEntity
  8
04
100
AcDbLine
 10
541.7473862276843
 20
519.9005309554059
 30
0.0
 11
541.7473862276843
 21
522.9005309554061
 31
0.0
  0
LINE
  5
1390
330
A
100
AcDbEntity
  8
04
100
AcDbLine
 10
520.2473862276844
 20
522.9005309554061
 30
0.0
 11
520.2473862276844
 21
519.9005309554059
 31
0.0
  0
LINE
  5
1391
330
A
100
AcDbEntity
  8
04
100
AcDbLine
 10
525.5322137849858
 20
522.9005309554061
 30
0.0
 11
525.5322137849858
 21
531.7746979304863
 31
0.0
  0
LINE
  5
1392
330
A
100
AcDbEntity
  8
04
100
AcDbLine
 10
520.0473862276846
 20
522.9005309554061
 30
0.0
 11
520.0473862276846
 21
531.7746979304863
 31
0.0
  0
LINE
  5
1393
330
A
100
AcDbEntity
  8
04
100
AcDbLine
 10
539.2049724490335
 20
532.9005309554061
 30
0.0
 11
522.7898000063352
 21
532.9005309554061
 31
0.0
  0
LINE
  5
1394
330
A
100
AcDbEntity
  8
04
100
AcDbLine
 10
541.9473862276844
 20
522.9005309554061
 30
0.0
 11
520.0473862276846
 21
522.9005309554061
 31
0.0
  0
LINE
  5
1395
330
A
100
AcDbEntity
  8
04
100
AcDbLine
 10
536.4625586703827
 20
522.9005309554061
 30
0.0
 11
536.4625586703827
 21
531.7746979304863
 31
0.0
  0
LINE
  5
1396
330
A
100
AcDbEntity
  8
04
100
AcDbLine
 10
541.9473862276844
 20
522.9005309554061
 30
0.0
 11
541.9473862276844
 21
531.7746979304863
 31
0.0
  0
LINE
  5
1397
330
A
100
AcDbEntity
  8
03
100
AcDbLine
 10
495.9973862276844
 20
505.4005314129699
 30
0.0
 11
430.9973862276843
 21
505.4005311079277
 31
0.0
  0
LINE
  5
1398
330
A
100
AcDbEntity
  8
03
100
AcDbLine
 10
434.9973862276844
 20
499.4005311079278
 30
0.0
 11
481.4973862276842
 21
499.4005311079278
 31
0.0
  0
LINE
  5
1399
330
A
100
AcDbEntity
  8
03
100
AcDbLine
 10
430.9973862276843
 20
505.4005311079281
 30
0.0
 11
430.9973862276843
 21
503.4005311079276
 31
0.0
  0
LINE
  5
139A
330
A
100
AcDbEntity
  8
03
100
AcDbLine
 10
489.9973862276843
 20
490.9005311079278
 30
0.0
 11
489.9973862276843
 21
444.4005311079281
 31
0.0
  0
LINE
  5
139B
330
A
100
AcDbEntity
  8
03
100
AcDbLine
 10
493.9973862276842
 20
440.4005311079282
 30
0.0
 11
495.9973862276844
 21
440.4005311079282
 31
0.0
  0
LINE
  5
139C
330
A
100
AcDbEntity
  8
03
100
AcDbLine
 10
495.9973862276844
 20
440.4005311079282
 30
0.0
 11
495.9973862276844
 21
505.4005311079281
 31
0.0
  0
LINE
  5
13BC
330
A
100
AcDbEntity
  8
03
100
AcDbLine
 10
484.537386227685
 20
1432.647754358193
 30
0.0
 11
491.0373862276848
 21
1428.894977608462
 31
0.0
  0
LINE
  5
13BD
330
A
100
AcDbEntity
  8
03
100
AcDbLine
 10
484.537386227685
 20
1440.15330785766
 30
0.0
 11
484.537386227685
 21
1432.647754358193
 31
0.0
  0
LINE
  5
13BE
330
A
100
AcDbEntity
  8
03
100
AcDbLine
 10
491.0373862276848
 20
1443.906084607392
 30
0.0
 11
484.537386227685
 21
1440.15330785766
 31
0.0
  0
LINE
  5
13BF
330
A
100
AcDbEntity
  8
03
100
AcDbLine
 10
497.537386227685
 20
1440.15330785766
 30
0.0
 11
491.0373862276848
 21
1443.906084607392
 31
0.0
  0
LINE
  5
13C0
330
A
100
AcDbEntity
  8
03
100
AcDbLine
 10
497.537386227685
 20
1432.647754358193
 30
0.0
 11
497.537386227685
 21
1440.15330785766
 31
0.0
  0
LINE
  5
13C1
330
A
100
AcDbEntity
  8
03
100
AcDbLine
 10
491.0373862276848
 20
1428.894977608462
 30
0.0
 11
497.537386227685
 21
1432.647754358193
 31
0.0
  0
LINE
  5
13C2
330
A
100
AcDbEntity
  8
03
100
AcDbLine
 10
484.5373862276848
 20
1157.647754358195
 30
0.0
 11
491.0373862276848
 21
1153.894977608462
 31
0.0
  0
LINE
  5
13C3
330
A
100
AcDbEntity
  8
03
100
AcDbLine
 10
484.5373862276848
 20
1165.15330785766
 30
0.0
 11
484.5373862276848
 21
1157.647754358195
 31
0.0
  0
LINE
  5
13C4
330
A
100
AcDbEntity
  8
03
100
AcDbLine
 10
491.0373862276848
 20
1168.906084607393
 30
0.0
 11
484.5373862276848
 21
1165.15330785766
 31
0.0
  0
LINE
  5
13C5
330
A
100
AcDbEntity
  8
03
100
AcDbLine
 10
497.5373862276848
 20
1165.15330785766
 30
0.0
 11
491.0373862276848
 21
1168.906084607393
 31
0.0
  0
LINE
  5
13C6
330
A
100
AcDbEntity
  8
03
100
AcDbLine
 10
497.5373862276848
 20
1157.647754358195
 30
0.0
 11
497.5373862276848
 21
1165.15330785766
 31
0.0
  0
LINE
  5
13C7
330
A
100
AcDbEntity
  8
03
100
AcDbLine
 10
491.0373862276848
 20
1153.894977608462
 30
0.0
 11
497.5373862276848
 21
1157.647754358195
 31
0.0
  0
LINE
  5
13C8
330
A
100
AcDbEntity
  8
03
100
AcDbLine
 10
484.5373862276848
 20
1122.647754358194
 30
0.0
 11
491.0373862276848
 21
1118.894977608462
 31
0.0
  0
LINE
  5
13C9
330
A
100
AcDbEntity
  8
03
100
AcDbLine
 10
484.5373862276848
 20
1130.153307857659
 30
0.0
 11
484.5373862276848
 21
1122.647754358194
 31
0.0
  0
LINE
  5
13CA
330
A
100
AcDbEntity
  8
03
100
AcDbLine
 10
491.0373862276848
 20
1133.906084607391
 30
0.0
 11
484.5373862276848
 21
1130.153307857659
 31
0.0
  0
LINE
  5
13CB
330
A
100
AcDbEntity
  8
03
100
AcDbLine
 10
497.5373862276848
 20
1130.153307857659
 30
0.0
 11
491.0373862276848
 21
1133.906084607391
 31
0.0
  0
LINE
  5
13CC
330
A
100
AcDbEntity
  8
03
100
AcDbLine
 10
497.5373862276848
 20
1122.647754358194
 30
0.0
 11
497.5373862276848
 21
1130.153307857659
 31
0.0
  0
LINE
  5
13CD
330
A
100
AcDbEntity
  8
03
100
AcDbLine
 10
491.0373862276848
 20
1118.894977608462
 30
0.0
 11
497.5373862276848
 21
1122.647754358194
 31
0.0
  0
LINE
  5
13CE
330
A
100
AcDbEntity
  8
03
100
AcDbLine
 10
484.5373862276848
 20
987.6477543581948
 30
0.0
 11
491.0373862276848
 21
983.8949776084621
 31
0.0
  0
LINE
  5
13CF
330
A
100
AcDbEntity
  8
03
100
AcDbLine
 10
484.5373862276848
 20
995.1533078576598
 30
0.0
 11
484.5373862276848
 21
987.6477543581948
 31
0.0
  0
LINE
  5
13D0
330
A
100
AcDbEntity
  8
03
100
AcDbLine
 10
491.0373862276848
 20
998.9060846073924
 30
0.0
 11
484.5373862276848
 21
995.1533078576598
 31
0.0
  0
LINE
  5
13D1
330
A
100
AcDbEntity
  8
03
100
AcDbLine
 10
497.5373862276848
 20
995.1533078576598
 30
0.0
 11
491.0373862276848
 21
998.9060846073924
 31
0.0
  0
LINE
  5
13D2
330
A
100
AcDbEntity
  8
03
100
AcDbLine
 10
497.5373862276848
 20
987.6477543581948
 30
0.0
 11
497.5373862276848
 21
995.1533078576598
 31
0.0
  0
LINE
  5
13D3
330
A
100
AcDbEntity
  8
03
100
AcDbLine
 10
491.0373862276848
 20
983.8949776084621
 30
0.0
 11
497.5373862276848
 21
987.6477543581948
 31
0.0
  0
LINE
  5
13D4
330
A
100
AcDbEntity
  8
03
100
AcDbLine
 10
484.5373862276848
 20
852.6477543581949
 30
0.0
 11
491.0373862276848
 21
848.8949776084622
 31
0.0
  0
LINE
  5
13D5
330
A
100
AcDbEntity
  8
03
100
AcDbLine
 10
484.5373862276848
 20
860.1533078576601
 30
0.0
 11
484.5373862276848
 21
852.6477543581949
 31
0.0
  0
LINE
  5
13D6
330
A
100
AcDbEntity
  8
03
100
AcDbLine
 10
491.0373862276848
 20
863.9060846073924
 30
0.0
 11
484.5373862276848
 21
860.1533078576601
 31
0.0
  0
LINE
  5
13D7
330
A
100
AcDbEntity
  8
03
100
AcDbLine
 10
497.5373862276848
 20
860.1533078576601
 30
0.0
 11
491.0373862276848
 21
863.9060846073924
 31
0.0
  0
LINE
  5
13D8
330
A
100
AcDbEntity
  8
03
100
AcDbLine
 10
497.5373862276848
 20
852.6477543581949
 30
0.0
 11
497.5373862276848
 21
860.1533078576601
 31
0.0
  0
LINE
  5
13D9
330
A
100
AcDbEntity
  8
03
100
AcDbLine
 10
491.0373862276848
 20
848.8949776084622
 30
0.0
 11
497.5373862276848
 21
852.6477543581949
 31
0.0
  0
LINE
  5
13DA
330
A
100
AcDbEntity
  8
03
100
AcDbLine
 10
484.5373862276848
 20
797.6477543581952
 30
0.0
 11
491.0373862276848
 21
793.8949776084625
 31
0.0
  0
LINE
  5
13DB
330
A
100
AcDbEntity
  8
03
100
AcDbLine
 10
484.5373862276848
 20
805.1533078576602
 30
0.0
 11
484.5373862276848
 21
797.6477543581952
 31
0.0
  0
LINE
  5
13DC
330
A
100
AcDbEntity
  8
03
100
AcDbLine
 10
491.0373862276848
 20
808.9060846073927
 30
0.0
 11
484.5373862276848
 21
805.1533078576602
 31
0.0
  0
LINE
  5
13DD
330
A
100
AcDbEntity
  8
03
100
AcDbLine
 10
497.5373862276848
 20
805.1533078576602
 30
0.0
 11
491.0373862276848
 21
808.9060846073927
 31
0.0
  0
LINE
  5
13DE
330
A
100
AcDbEntity
  8
03
100
AcDbLine
 10
497.5373862276848
 20
797.6477543581952
 30
0.0
 11
497.5373862276848
 21
805.1533078576602
 31
0.0
  0
LINE
  5
13DF
330
A
100
AcDbEntity
  8
03
100
AcDbLine
 10
491.0373862276848
 20
793.8949776084625
 30
0.0
 11
497.5373862276848
 21
797.6477543581952
 31
0.0
  0
LINE
  5
13E0
330
A
100
AcDbEntity
  8
03
100
AcDbLine
 10
484.5373862276848
 20
727.6477543581952
 30
0.0
 11
491.0373862276848
 21
723.8949776084625
 31
0.0
  0
LINE
  5
13E1
330
A
100
AcDbEntity
  8
03
100
AcDbLine
 10
484.5373862276848
 20
735.1533078576602
 30
0.0
 11
484.5373862276848
 21
727.6477543581952
 31
0.0
  0
LINE
  5
13E2
330
A
100
AcDbEntity
  8
03
100
AcDbLine
 10
491.0373862276848
 20
738.9060846073927
 30
0.0
 11
484.5373862276848
 21
735.1533078576602
 31
0.0
  0
LINE
  5
13E3
330
A
100
AcDbEntity
  8
03
100
AcDbLine
 10
497.5373862276848
 20
735.1533078576602
 30
0.0
 11
491.0373862276848
 21
738.9060846073927
 31
0.0
  0
LINE
  5
13E4
330
A
100
AcDbEntity
  8
03
100
AcDbLine
 10
497.5373862276848
 20
727.6477543581952
 30
0.0
 11
497.5373862276848
 21
735.1533078576602
 31
0.0
  0
LINE
  5
13E5
330
A
100
AcDbEntity
  8
03
100
AcDbLine
 10
491.0373862276848
 20
723.8949776084625
 30
0.0
 11
497.5373862276848
 21
727.6477543581952
 31
0.0
  0
LINE
  5
13E6
330
A
100
AcDbEntity
  8
03
100
AcDbLine
 10
884.5373862276847
 20
727.6477543581949
 30
0.0
 11
891.0373862276848
 21
723.8949776084622
 31
0.0
  0
LINE
  5
13E7
330
A
100
AcDbEntity
  8
03
100
AcDbLine
 10
884.5373862276847
 20
735.15330785766
 30
0.0
 11
884.5373862276847
 21
727.6477543581949
 31
0.0
  0
LINE
  5
13E8
330
A
100
AcDbEntity
  8
03
100
AcDbLine
 10
891.0373862276848
 20
738.9060846073926
 30
0.0
 11
884.5373862276847
 21
735.15330785766
 31
0.0
  0
LINE
  5
13E9
330
A
100
AcDbEntity
  8
03
100
AcDbLine
 10
897.5373862276848
 20
735.15330785766
 30
0.0
 11
891.0373862276848
 21
738.9060846073926
 31
0.0
  0
LINE
  5
13EA
330
A
100
AcDbEntity
  8
03
100
AcDbLine
 10
897.5373862276848
 20
727.6477543581949
 30
0.0
 11
897.5373862276848
 21
735.15330785766
 31
0.0
  0
LINE
  5
13EB
330
A
100
AcDbEntity
  8
03
100
AcDbLine
 10
891.0373862276848
 20
723.8949776084622
 30
0.0
 11
897.5373862276848
 21
727.6477543581949
 31
0.0
  0
LINE
  5
13EC
330
A
100
AcDbEntity
  8
03
100
AcDbLine
 10
884.5373862276847
 20
797.6477543581949
 30
0.0
 11
891.0373862276848
 21
793.8949776084622
 31
0.0
  0
LINE
  5
13ED
330
A
100
AcDbEntity
  8
03
100
AcDbLine
 10
884.5373862276847
 20
805.1533078576598
 30
0.0
 11
884.5373862276847
 21
797.6477543581949
 31
0.0
  0
LINE
  5
13EE
330
A
100
AcDbEntity
  8
03
100
AcDbLine
 10
891.0373862276848
 20
808.9060846073925
 30
0.0
 11
884.5373862276847
 21
805.1533078576598
 31
0.0
  0
LINE
  5
13EF
330
A
100
AcDbEntity
  8
03
100
AcDbLine
 10
897.5373862276848
 20
805.1533078576598
 30
0.0
 11
891.0373862276848
 21
808.9060846073925
 31
0.0
  0
LINE
  5
13F0
330
A
100
AcDbEntity
  8
03
100
AcDbLine
 10
897.5373862276848
 20
797.6477543581949
 30
0.0
 11
897.5373862276848
 21
805.1533078576598
 31
0.0
  0
LINE
  5
13F1
330
A
100
AcDbEntity
  8
03
100
AcDbLine
 10
891.0373862276848
 20
793.8949776084622
 30
0.0
 11
897.5373862276848
 21
797.6477543581949
 31
0.0
  0
LINE
  5
13F2
330
A
100
AcDbEntity
  8
03
100
AcDbLine
 10
884.5373862276847
 20
852.6477543581949
 30
0.0
 11
891.0373862276848
 21
848.8949776084622
 31
0.0
  0
LINE
  5
13F3
330
A
100
AcDbEntity
  8
03
100
AcDbLine
 10
884.5373862276849
 20
860.1533078576597
 30
0.0
 11
884.5373862276847
 21
852.6477543581949
 31
0.0
  0
LINE
  5
13F4
330
A
100
AcDbEntity
  8
03
100
AcDbLine
 10
891.0373862276848
 20
863.9060846073924
 30
0.0
 11
884.5373862276849
 21
860.1533078576597
 31
0.0
  0
LINE
  5
13F5
330
A
100
AcDbEntity
  8
03
100
AcDbLine
 10
897.537386227685
 20
860.1533078576597
 30
0.0
 11
891.0373862276848
 21
863.9060846073924
 31
0.0
  0
LINE
  5
13F6
330
A
100
AcDbEntity
  8
03
100
AcDbLine
 10
897.5373862276848
 20
852.6477543581949
 30
0.0
 11
897.537386227685
 21
860.1533078576597
 31
0.0
  0
LINE
  5
13F7
330
A
100
AcDbEntity
  8
03
100
AcDbLine
 10
891.0373862276848
 20
848.8949776084622
 30
0.0
 11
897.5373862276848
 21
852.6477543581949
 31
0.0
  0
LINE
  5
13F8
330
A
100
AcDbEntity
  8
03
100
AcDbLine
 10
884.5373862276849
 20
987.6477543581948
 30
0.0
 11
891.0373862276848
 21
983.8949776084621
 31
0.0
  0
LINE
  5
13F9
330
A
100
AcDbEntity
  8
03
100
AcDbLine
 10
884.5373862276849
 20
995.1533078576598
 30
0.0
 11
884.5373862276849
 21
987.6477543581948
 31
0.0
  0
LINE
  5
13FA
330
A
100
AcDbEntity
  8
03
100
AcDbLine
 10
891.0373862276848
 20
998.9060846073924
 30
0.0
 11
884.5373862276849
 21
995.1533078576598
 31
0.0
  0
LINE
  5
13FB
330
A
100
AcDbEntity
  8
03
100
AcDbLine
 10
897.537386227685
 20
995.1533078576598
 30
0.0
 11
891.0373862276848
 21
998.9060846073924
 31
0.0
  0
LINE
  5
13FC
330
A
100
AcDbEntity
  8
03
100
AcDbLine
 10
897.537386227685
 20
987.6477543581948
 30
0.0
 11
897.537386227685
 21
995.1533078576598
 31
0.0
  0
LINE
  5
13FD
330
A
100
AcDbEntity
  8
03
100
AcDbLine
 10
891.0373862276848
 20
983.8949776084621
 30
0.0
 11
897.537386227685
 21
987.6477543581948
 31
0.0
  0
LINE
  5
13FE
330
A
100
AcDbEntity
  8
03
100
AcDbLine
 10
884.5373862276849
 20
1122.647754358194
 30
0.0
 11
891.0373862276848
 21
1118.894977608462
 31
0.0
  0
LINE
  5
13FF
330
A
100
AcDbEntity
  8
03
100
AcDbLine
 10
884.5373862276849
 20
1130.153307857659
 30
0.0
 11
884.5373862276849
 21
1122.647754358194
 31
0.0
  0
LINE
  5
1400
330
A
100
AcDbEntity
  8
03
100
AcDbLine
 10
891.0373862276848
 20
1133.906084607391
 30
0.0
 11
884.5373862276849
 21
1130.153307857659
 31
0.0
  0
LINE
  5
1401
330
A
100
AcDbEntity
  8
03
100
AcDbLine
 10
897.537386227685
 20
1130.153307857659
 30
0.0
 11
891.0373862276848
 21
1133.906084607391
 31
0.0
  0
LINE
  5
1402
330
A
100
AcDbEntity
  8
03
100
AcDbLine
 10
897.537386227685
 20
1122.647754358194
 30
0.0
 11
897.537386227685
 21
1130.153307857659
 31
0.0
  0
LINE
  5
1403
330
A
100
AcDbEntity
  8
03
100
AcDbLine
 10
891.0373862276848
 20
1118.894977608462
 30
0.0
 11
897.537386227685
 21
1122.647754358194
 31
0.0
  0
LINE
  5
1404
330
A
100
AcDbEntity
  8
03
100
AcDbLine
 10
884.5373862276849
 20
1157.647754358195
 30
0.0
 11
891.0373862276848
 21
1153.894977608462
 31
0.0
  0
LINE
  5
1405
330
A
100
AcDbEntity
  8
03
100
AcDbLine
 10
884.5373862276849
 20
1165.15330785766
 30
0.0
 11
884.5373862276849
 21
1157.647754358195
 31
0.0
  0
LINE
  5
1406
330
A
100
AcDbEntity
  8
03
100
AcDbLine
 10
891.0373862276848
 20
1168.906084607393
 30
0.0
 11
884.5373862276849
 21
1165.15330785766
 31
0.0
  0
LINE
  5
1407
330
A
100
AcDbEntity
  8
03
100
AcDbLine
 10
897.537386227685
 20
1165.15330785766
 30
0.0
 11
891.0373862276848
 21
1168.906084607393
 31
0.0
  0
LINE
  5
1408
330
A
100
AcDbEntity
  8
03
100
AcDbLine
 10
897.537386227685
 20
1157.647754358195
 30
0.0
 11
897.537386227685
 21
1165.15330785766
 31
0.0
  0
LINE
  5
1409
330
A
100
AcDbEntity
  8
03
100
AcDbLine
 10
891.0373862276848
 20
1153.894977608462
 30
0.0
 11
897.537386227685
 21
1157.647754358195
 31
0.0
  0
LINE
  5
140A
330
A
100
AcDbEntity
  8
03
100
AcDbLine
 10
884.5373862276851
 20
1432.647754358193
 30
0.0
 11
891.0373862276848
 21
1428.894977608462
 31
0.0
  0
LINE
  5
140B
330
A
100
AcDbEntity
  8
03
100
AcDbLine
 10
884.5373862276851
 20
1440.15330785766
 30
0.0
 11
884.5373862276851
 21
1432.647754358193
 31
0.0
  0
LINE
  5
140C
330
A
100
AcDbEntity
  8
03
100
AcDbLine
 10
891.0373862276848
 20
1443.906084607392
 30
0.0
 11
884.5373862276851
 21
1440.15330785766
 31
0.0
  0
LINE
  5
140D
330
A
100
AcDbEntity
  8
03
100
AcDbLine
 10
897.537386227685
 20
1440.15330785766
 30
0.0
 11
891.0373862276848
 21
1443.906084607392
 31
0.0
  0
LINE
  5
140E
330
A
100
AcDbEntity
  8
03
100
AcDbLine
 10
897.537386227685
 20
1432.647754358193
 30
0.0
 11
897.537386227685
 21
1440.15330785766
 31
0.0
  0
LINE
  5
140F
330
A
100
AcDbEntity
  8
03
100
AcDbLine
 10
891.0373862276848
 20
1428.894977608462
 30
0.0
 11
897.537386227685
 21
1432.647754358193
 31
0.0
  0
LINE
  5
141E
330
A
100
AcDbEntity
  8
04
100
AcDbLine
 10
553.9943337281273
 20
1381.400531107927
 30
0.0
 11
553.9943337281273
 21
1369.400531107927
 31
0.0
  0
LINE
  5
141F
330
A
100
AcDbEntity
  8
04
100
AcDbLine
 10
547.9943337281273
 20
1381.400531107927
 30
0.0
 11
547.9943337281273
 21
1369.400531107927
 31
0.0
  0
LINE
  5
1420
330
A
100
AcDbEntity
  8
04
100
AcDbLine
 10
566.9943337281272
 20
1370.400531107927
 30
0.0
 11
566.9943337281272
 21
1381.400531107927
 31
0.0
  0
LINE
  5
1421
330
A
100
AcDbEntity
  8
04
100
AcDbLine
 10
533.9943337281273
 20
1369.400531107927
 30
0.0
 11
565.9943337281272
 21
1369.400531107927
 31
0.0
  0
LINE
  5
1422
330
A
100
AcDbEntity
  8
04
100
AcDbLine
 10
565.9943337281272
 20
1368.400531107927
 30
0.0
 11
533.9943337281273
 21
1368.400531107927
 31
0.0
  0
LINE
  5
1423
330
A
100
AcDbEntity
  8
04
100
AcDbLine
 10
567.9943337281271
 20
1381.400531107927
 30
0.0
 11
567.9943337281271
 21
1370.400531107927
 31
0.0
  0
LINE
  5
1424
330
A
100
AcDbEntity
  8
04
100
AcDbLine
 10
533.9943337281273
 20
1381.400531107927
 30
0.0
 11
567.9943337281271
 21
1381.400531107927
 31
0.0
  0
LINE
  5
1425
330
A
100
AcDbEntity
  8
04
100
AcDbLine
 10
533.9943337281273
 20
1368.400531107927
 30
0.0
 11
533.9943337281273
 21
1381.400531107927
 31
0.0
  0
LINE
  5
142A
330
A
100
AcDbEntity
  8
04
100
AcDbLine
 10
521.9943337281273
 20
1425.400531107927
 30
0.0
 11
521.9943337281273
 21
1437.400531107928
 31
0.0
  0
LINE
  5
142B
330
A
100
AcDbEntity
  8
04
100
AcDbLine
 10
527.9943337281273
 20
1425.400531107927
 30
0.0
 11
527.9943337281273
 21
1437.400531107928
 31
0.0
  0
LINE
  5
142C
330
A
100
AcDbEntity
  8
04
100
AcDbLine
 10
508.9943337281273
 20
1436.400531107927
 30
0.0
 11
508.9943337281273
 21
1425.400531107927
 31
0.0
  0
LINE
  5
142D
330
A
100
AcDbEntity
  8
04
100
AcDbLine
 10
541.9943337281273
 20
1437.400531107928
 30
0.0
 11
509.9943337281272
 21
1437.400531107928
 31
0.0
  0
LINE
  5
142E
330
A
100
AcDbEntity
  8
04
100
AcDbLine
 10
509.9943337281272
 20
1438.400531107927
 30
0.0
 11
541.9943337281273
 21
1438.400531107927
 31
0.0
  0
LINE
  5
142F
330
A
100
AcDbEntity
  8
04
100
AcDbLine
 10
507.9943337281273
 20
1425.400531107927
 30
0.0
 11
507.9943337281273
 21
1436.400531107927
 31
0.0
  0
LINE
  5
1430
330
A
100
AcDbEntity
  8
04
100
AcDbLine
 10
541.9943337281273
 20
1425.400531107927
 30
0.0
 11
507.9943337281273
 21
1425.400531107927
 31
0.0
  0
LINE
  5
1431
330
A
100
AcDbEntity
  8
04
100
AcDbLine
 10
541.9943337281273
 20
1438.400531107927
 30
0.0
 11
541.9943337281273
 21
1425.400531107927
 31
0.0
  0
LINE
  5
1432
330
A
100
AcDbEntity
  8
04
100
AcDbLine
 10
521.4943337281273
 20
1391.400531107927
 30
0.0
 11
520.1443337281273
 21
1391.400531107927
 31
0.0
  0
LINE
  5
1433
330
A
100
AcDbEntity
  8
04
100
AcDbLine
 10
529.8443337281272
 20
1391.400531107927
 30
0.0
 11
528.4943337281273
 21
1391.400531107927
 31
0.0
  0
LINE
  5
1434
330
A
100
AcDbEntity
  8
04
100
AcDbLine
 10
528.4943337281273
 20
1408.400531107927
 30
0.0
 11
521.4943337281273
 21
1408.400531107927
 31
0.0
  0
LINE
  5
1435
330
A
100
AcDbEntity
  8
04
100
AcDbLine
 10
528.4943337281273
 20
1389.900531107928
 30
0.0
 11
521.4943337281273
 21
1389.900531107928
 31
0.0
  0
LINE
  5
1436
330
A
100
AcDbEntity
  8
04
100
AcDbLine
 10
528.4943337281273
 20
1413.900531107927
 30
0.0
 11
528.4943337281273
 21
1389.900531107928
 31
0.0
  0
LINE
  5
1437
330
A
100
AcDbEntity
  8
04
100
AcDbLine
 10
521.4943337281273
 20
1413.900531107927
 30
0.0
 11
528.4943337281273
 21
1413.900531107927
 31
0.0
  0
LINE
  5
1438
330
A
100
AcDbEntity
  8
04
100
AcDbLine
 10
521.4943337281273
 20
1389.900531107928
 30
0.0
 11
521.4943337281273
 21
1413.900531107927
 31
0.0
  0
LINE
  5
1439
330
A
100
AcDbEntity
  8
04
100
AcDbLine
 10
529.8443337281272
 20
1415.400531107927
 30
0.0
 11
529.8443337281272
 21
1391.400531107927
 31
0.0
  0
LINE
  5
143A
330
A
100
AcDbEntity
  8
04
100
AcDbLine
 10
520.1443337281273
 20
1415.400531107927
 30
0.0
 11
529.8443337281272
 21
1415.400531107927
 31
0.0
  0
LINE
  5
143B
330
A
100
AcDbEntity
  8
04
100
AcDbLine
 10
520.1443337281273
 20
1391.400531107927
 30
0.0
 11
520.1443337281273
 21
1415.400531107927
 31
0.0
  0
LINE
  5
1450
330
A
100
AcDbEntity
  8
03
100
AcDbLine
 10
449.4973862276843
 20
556.9005311079288
 30
0.0
 11
449.4973862276843
 21
523.9005311079278
 31
0.0
  0
LINE
  5
1451
330
A
100
AcDbEntity
  8
03
100
AcDbLine
 10
455.9973862276851
 20
517.400531107927
 30
0.0
 11
488.9973862276852
 21
517.400531107927
 31
0.0
  0
LINE
  5
1452
330
A
100
AcDbEntity
  8
03
100
AcDbLine
 10
443.4973862276851
 20
561.4005311079278
 30
0.0
 11
443.4973862276851
 21
511.4005311079278
 31
0.0
  0
LINE
  5
1453
330
A
100
AcDbEntity
  8
03
100
AcDbLine
 10
493.4973862276851
 20
511.4005311079278
 30
0.0
 11
493.4973862276861
 21
512.900531107927
 31
0.0
  0
LINE
  5
1454
330
A
100
AcDbEntity
  8
03
100
AcDbLine
 10
443.4973862276851
 20
511.4005311079278
 30
0.0
 11
493.4973862276851
 21
511.4005311079278
 31
0.0
  0
LINE
  5
1469
330
A
100
AcDbEntity
  8
03
100
AcDbLine
 10
932.4973862276859
 20
556.9005311079286
 30
0.0
 11
932.4973862276859
 21
523.9005311079275
 31
0.0
  0
LINE
  5
146A
330
A
100
AcDbEntity
  8
03
100
AcDbLine
 10
925.9973862276853
 20
517.400531107927
 30
0.0
 11
892.9973862276836
 21
517.400531107927
 31
0.0
  0
LINE
  5
146B
330
A
100
AcDbEntity
  8
03
100
AcDbLine
 10
938.4973862276853
 20
561.4005311079275
 30
0.0
 11
938.4973862276853
 21
511.4005311079276
 31
0.0
  0
LINE
  5
146C
330
A
100
AcDbEntity
  8
03
100
AcDbLine
 10
888.4973862276853
 20
511.4005311079278
 30
0.0
 11
888.4973862276842
 21
512.900531107927
 31
0.0
  0
LINE
  5
146D
330
A
100
AcDbEntity
  8
03
100
AcDbLine
 10
938.4973862276853
 20
511.4005311079276
 30
0.0
 11
888.4973862276853
 21
511.4005311079278
 31
0.0
  0
LINE
  5
1482
330
A
100
AcDbEntity
  8
03
100
AcDbLine
 10
449.4973862276845
 20
1463.400531107927
 30
0.0
 11
449.4973862276845
 21
1496.400531107927
 31
0.0
  0
LINE
  5
1483
330
A
100
AcDbEntity
  8
03
100
AcDbLine
 10
455.9973862276854
 20
1502.900531107927
 30
0.0
 11
488.9973862276853
 21
1502.900531107927
 31
0.0
  0
LINE
  5
1484
330
A
100
AcDbEntity
  8
03
100
AcDbLine
 10
443.4973862276854
 20
1458.900531107928
 30
0.0
 11
443.4973862276854
 21
1508.900531107927
 31
0.0
  0
LINE
  5
1485
330
A
100
AcDbEntity
  8
03
100
AcDbLine
 10
493.4973862276854
 20
1508.900531107927
 30
0.0
 11
493.4973862276863
 21
1507.400531107927
 31
0.0
  0
LINE
  5
1486
330
A
100
AcDbEntity
  8
03
100
AcDbLine
 10
443.4973862276854
 20
1508.900531107927
 30
0.0
 11
493.4973862276854
 21
1508.900531107927
 31
0.0
  0
LINE
  5
149B
330
A
100
AcDbEntity
  8
03
100
AcDbLine
 10
932.4973862276863
 20
1463.400531107926
 30
0.0
 11
932.4973862276863
 21
1496.400531107927
 31
0.0
  0
LINE
  5
149C
330
A
100
AcDbEntity
  8
03
100
AcDbLine
 10
925.9973862276854
 20
1502.900531107927
 30
0.0
 11
892.9973862276836
 21
1502.900531107927
 31
0.0
  0
LINE
  5
149D
330
A
100
AcDbEntity
  8
03
100
AcDbLine
 10
938.4973862276854
 20
1458.900531107927
 30
0.0
 11
938.4973862276854
 21
1508.900531107927
 31
0.0
  0
LINE
  5
149E
330
A
100
AcDbEntity
  8
03
100
AcDbLine
 10
888.4973862276854
 20
1508.900531107927
 30
0.0
 11
888.4973862276845
 21
1507.400531107927
 31
0.0
  0
LINE
  5
149F
330
A
100
AcDbEntity
  8
03
100
AcDbLine
 10
938.4973862276854
 20
1508.900531107927
 30
0.0
 11
888.4973862276854
 21
1508.900531107927
 31
0.0
  0
POLYLINE
  5
1519
330
A
100
AcDbEntity
  8
DEFPOINTS
100
AcDb2dPolyline
 66
     1
 10
0.0
 20
0.0
 30
0.0
 70
     1
  0
VERTEX
  5
2B1D
330
1519
100
AcDbEntity
  8
DEFPOINTS
 48
0.9
100
AcDbVertex
100
AcDb2dVertex
 10
0.0000000000003273
 20
1782.0
 30
0.0
  0
VERTEX
  5
2B1E
330
1519
100
AcDbEntity
  8
DEFPOINTS
 48
0.9
100
AcDbVertex
100
AcDb2dVertex
 10
0.0
 20
0.0
 30
0.0
  0
VERTEX
  5
2B1F
330
1519
100
AcDbEntity
  8
DEFPOINTS
 48
0.9
100
AcDbVertex
100
AcDb2dVertex
 10
1260.0
 20
-0.0000000000002274
 30
0.0
  0
VERTEX
  5
2B20
330
1519
100
AcDbEntity
  8
DEFPOINTS
 48
0.9
100
AcDbVertex
100
AcDb2dVertex
 10
1260.0
 20
1781.999999999999
 30
0.0
  0
SEQEND
  5
2B21
330
1519
100
AcDbEntity
  8
DEFPOINTS
  0
DIMENSION
  5
15A1
330
A
100
AcDbEntity
  8
SUNPOU
100
AcDbDimension
  2
*D1
 10
990.9973862276835
 20
505.4005311079277
 30
0.0
 11
1013.497386227683
 21
523.3200385753076
 31
0.0
 70
   160
  3
SUNPOU_6
100
AcDbAlignedDimension
 13
951.7743824474672
 23
511.4005311079274
 33
0.0
 14
951.7743824474672
 24
505.4005311079277
 34
0.0
 50
270.0
100
AcDbRotatedDimension
  0
DIMENSION
  5
15B0
330
A
100
AcDbEntity
  8
SUNPOU
100
AcDbDimension
  2
*D2
 10
990.9973862276835
 20
440.4005311079276
 30
0.0
 11
974.4973862276836
 21
465.3259059893713
 31
0.0
 70
   160
  3
SUNPOU_6
100
AcDbAlignedDimension
 13
951.7743824474672
 23
505.4005311079277
 33
0.0
 14
951.7743824474672
 24
440.4005311079276
 34
0.0
 50
270.0
100
AcDbRotatedDimension
  0
DIMENSION
  5
162A
330
A
100
AcDbEntity
  8
SUNPOU
100
AcDbDimension
  2
*D3
 10
940.997386227684
 20
1611.40052548697
 30
0.0
 11
690.997386227684
 21
1624.900525486971
 31
0.0
 70
   160
  3
SUNPOU_6
100
AcDbAlignedDimension
 13
440.997386227684
 23
1510.650525486971
 33
0.0
 14
940.997386227684
 24
1510.650525486971
 34
0.0
100
AcDbRotatedDimension
  0
DIMENSION
  5
1916
330
A
100
AcDbEntity
  8
SUNPOU
100
AcDbDimension
  2
*D4
 10
340.9973862276838
 20
511.4005311079276
 30
0.0
 11
327.4973862276838
 21
536.4005311079278
 31
0.0
 70
    32
  3
SUNPOU_6
100
AcDbAlignedDimension
 13
443.4973862276851
 23
561.4005311079278
 33
0.0
 14
430.9973862276843
 24
511.4005311079276
 34
0.0
 50
270.0
100
AcDbRotatedDimension
  0
DIMENSION
  5
193F
330
A
100
AcDbEntity
  8
SUNPOU
100
AcDbDimension
  2
*D5
 10
290.9973862276838
 20
480.4005311079277
 30
0.0
 11
277.4973862276838
 21
495.9005311079279
 31
0.0
 70
    32
  3
SUNPOU_6
100
AcDbAlignedDimension
 13
290.9973862276838
 23
511.4005311079276
 33
0.0
 14
290.9973862276838
 24
480.4005311079277
 34
0.0
 50
270.0
100
AcDbRotatedDimension
  0
DIMENSION
  5
194F
330
A
100
AcDbEntity
  8
SUNPOU
100
AcDbDimension
  2
*D6
 10
290.9973862276838
 20
511.4005311079276
 30
0.0
 11
276.2473862276838
 21
1011.400528297449
 31
0.0
 70
    32
  3
SUNPOU_6
100
AcDbAlignedDimension
 13
441.7473862276841
 23
1511.400525486971
 33
0.0
 14
430.9973862276843
 24
511.4005311079276
 34
0.0
 50
270.0
100
AcDbRotatedDimension
  0
DIMENSION
  5
1AA2
330
A
100
AcDbEntity
  8
SUNPOU
100
AcDbDimension
  2
*D7
 10
340.997386227684
 20
826.4005311079275
 30
0.0
 11
325.8387119649651
 21
833.4451606333887
 31
0.0
 70
   160
  3
SUNPOU_6
100
AcDbAlignedDimension
 13
476.0373862276848
 23
841.4005311079275
 33
0.0
 14
476.0373862276848
 24
826.4005311079275
 34
0.0
 50
270.0
100
AcDbRotatedDimension
  0
DIMENSION
  5
1B7B
330
A
100
AcDbEntity
  8
SUNPOU
100
AcDbDimension
  2
*D8
 10
816.0373862276848
 20
665.8225226853401
 30
0.0
 11
711.0373862276849
 21
679.3225226853402
 31
0.0
 70
   160
  3
SUNPOU_6
100
AcDbAlignedDimension
 13
566.0373862276848
 23
698.4005311079275
 33
0.0
 14
816.0373862276848
 24
698.4005311079275
 34
0.0
100
AcDbRotatedDimension
  0
DIMENSION
  5
1B91
330
A
100
AcDbEntity
  8
SUNPOU
100
AcDbDimension
  2
*D9
 10
891.0373862276848
 20
635.82252268534
 30
0.0
 11
711.0373862276849
 21
649.3225226853402
 31
0.0
 70
   160
  3
SUNPOU_6
100
AcDbAlignedDimension
 13
491.0373862276848
 23
711.4005311079275
 33
0.0
 14
891.0373862276848
 24
711.4005311079275
 34
0.0
100
AcDbRotatedDimension
  0
DIMENSION
  5
1B9E
330
A
100
AcDbEntity
  8
SUNPOU
100
AcDbDimension
  2
*D10
 10
906.0373862276847
 20
610.82252268534
 30
0.0
 11
711.0373862276849
 21
624.3225226853402
 31
0.0
 70
   160
  3
SUNPOU_6
100
AcDbAlignedDimension
 13
476.0373862276848
 23
706.4005311079277
 33
0.0
 14
906.0373862276847
 24
706.4005311079275
 34
0.0
100
AcDbRotatedDimension
  0
DIMENSION
  5
1C30
330
A
100
AcDbEntity
  8
SUNPOU
100
AcDbDimension
  2
*D11
 10
950.9973862276842
 20
586.1945341586288
 30
0.0
 11
670.9973862276845
 21
599.6945341586292
 31
0.0
 70
   160
  3
SUNPOU_6
100
AcDbAlignedDimension
 13
430.9973862276843
 23
511.4005311079276
 33
0.0
 14
950.9973862276842
 24
511.4005311079274
 34
0.0
100
AcDbRotatedDimension
  0
DIMENSION
  5
1C3D
330
A
100
AcDbEntity
  8
SUNPOU
100
AcDbDimension
  2
*D12
 10
885.9973862276843
 20
553.6045882090982
 30
0.0
 11
670.9973862276845
 21
572.1045882090983
 31
0.0
 70
   160
  3
SUNPOU_6
100
AcDbAlignedDimension
 13
495.9973862276844
 23
511.4005311079276
 33
0.0
 14
885.9973862276843
 24
511.4005314129698
 34
0.0
100
AcDbRotatedDimension
  0
DIMENSION
  5
1DAB
330
A
100
AcDbEntity
  8
SUNPOU
100
AcDbDimension
  2
*D13
 10
950.9973862276842
 20
340.4005311079278
 30
0.0
 11
710.9973862276842
 21
353.9005311079281
 31
0.0
 70
   160
  3
SUNPOU_6
100
AcDbAlignedDimension
 13
430.9973862276843
 23
440.4005311079278
 33
0.0
 14
950.9973862276842
 24
440.4005311079278
 34
0.0
100
AcDbRotatedDimension
  0
LEADER
  5
1E0F
330
A
100
AcDbEntity
  8
HIKIDASI
100
AcDbLeader
  3
SUNPOU_6
 73
     0
 74
     0
 75
     1
 40
15.0
 41
149.6
 76
     3
 10
895.7641303067841
 20
1318.030340460303
 30
0.0
 10
1015.187608111536
 20
1386.438497121463
 30
0.0
 10
1030.187608111537
 20
1386.438497121463
 30
0.0
340
1E10
1001
ACAD
1000
DSTYLE
1002
{
1070
     5
1000
OPEN30
1070
    77
1070
     1
1070
   147
1040
1.0
1070
   342
1005
1504
1002
}
1000
LEANOF
1010
0.0
1020
0.0
1030
0.0
1000
LEANOF
1010
0.0
1020
0.0
1030
0.0
  0
MTEXT
  5
1E10
330
A
100
AcDbEntity
  8
HIKIDASI
100
AcDbMText
 10
1036.187608111536
 20
1392.438497121463
 30
0.0
 40
15.0
 41
0.0
 71
     7
 72
     1
  1
CB類取付板-St1.6t
  7
SUNPOU
1001
ACAD
1000
MTEXTBEGIN
1070
    73
1070
     1
1070
    44
1040
1.0
1070
    74
1070
     0
1000
MTEXTEND
1000
MTEXTBEGIN
1070
    73
1070
     1
1070
    44
1040
1.0
1070
    74
1070
     0
1000
MTEXTEND
  0
LINE
  5
28E3
330
A
100
AcDbEntity
  8
04
100
AcDbLine
 10
571.1423188818005
 20
1219.127738901792
 30
0.0
 11
568.5967344695288
 21
1221.673323314063
 31
0.0
  0
LINE
  5
28E4
330
A
100
AcDbEntity
  8
04
100
AcDbLine
 10
568.5967344695288
 20
1219.127738901792
 30
0.0
 11
571.1423188818005
 21
1221.673323314063
 31
0.0
  0
CIRCLE
  5
28E5
330
A
100
AcDbEntity
  8
04
100
AcDbCircle
 10
569.8695266756645
 20
1220.400531107928
 30
0.0
 40
2.75
  0
LINE
  5
28E6
330
A
100
AcDbEntity
  8
04
100
AcDbLine
 10
571.1423188818005
 20
1281.673323314064
 30
0.0
 11
568.5967344695288
 21
1279.127738901792
 31
0.0
  0
LINE
  5
28E7
330
A
100
AcDbEntity
  8
04
100
AcDbLine
 10
568.5967344695288
 20
1281.673323314064
 30
0.0
 11
571.1423188818005
 21
1279.127738901792
 31
0.0
  0
CIRCLE
  5
28E8
330
A
100
AcDbEntity
  8
04
100
AcDbCircle
 10
569.8695266756645
 20
1280.400531107928
 30
0.0
 40
2.75
  0
LINE
  5
28E9
330
A
100
AcDbEntity
  8
04
100
AcDbLine
 10
808.5967344695287
 20
1219.127738901792
 30
0.0
 11
811.1423188818005
 21
1221.673323314063
 31
0.0
  0
LINE
  5
28EA
330
A
100
AcDbEntity
  8
04
100
AcDbLine
 10
811.1423188818005
 20
1219.127738901792
 30
0.0
 11
808.5967344695287
 21
1221.673323314063
 31
0.0
  0
CIRCLE
  5
28EB
330
A
100
AcDbEntity
  8
04
100
AcDbCircle
 10
809.8695266756646
 20
1220.400531107928
 30
0.0
 40
2.75
  0
LINE
  5
28EC
330
A
100
AcDbEntity
  8
04
100
AcDbLine
 10
808.5967344695287
 20
1281.673323314064
 30
0.0
 11
811.1423188818005
 21
1279.127738901792
 31
0.0
  0
LINE
  5
28ED
330
A
100
AcDbEntity
  8
04
100
AcDbLine
 10
811.1423188818005
 20
1281.673323314064
 30
0.0
 11
808.5967344695287
 21
1279.127738901792
 31
0.0
  0
CIRCLE
  5
28EE
330
A
100
AcDbEntity
  8
04
100
AcDbCircle
 10
809.8695266756646
 20
1280.400531107928
 30
0.0
 40
2.75
  0
CIRCLE
  5
28F1
330
A
100
AcDbEntity
  8
04
100
AcDbCircle
 10
824.8695266756646
 20
1256.400531107928
 30
0.0
 40
2.25
  0
CIRCLE
  5
28F3
330
A
100
AcDbEntity
  8
04
100
AcDbCircle
 10
554.8695266756647
 20
1256.400531107928
 30
0.0
 40
2.25
  0
LINE
  5
28FB
330
A
100
AcDbEntity
  8
04
100
AcDbLine
 10
827.8695266756647
 20
1304.400531107928
 30
0.0
 11
829.8695266756649
 21
1302.400531107926
 31
0.0
  0
CIRCLE
  5
28FC
330
A
100
AcDbEntity
  8
04
100
AcDbCircle
 10
824.8695266756646
 20
1290.400531107928
 30
0.0
 40
2.25
  0
LINE
  5
28FD
330
A
100
AcDbEntity
  8
04
100
AcDbLine
 10
827.8695266756647
 20
1304.400531107928
 30
0.0
 11
814.8695266756648
 21
1304.400531107928
 31
0.0
  0
LINE
  5
28FE
330
A
100
AcDbEntity
  8
04
100
AcDbLine
 10
814.8695266756648
 20
1285.455423427219
 30
0.0
 11
823.8695266756646
 21
1285.455423427219
 31
0.0
  0
LINE
  5
28FF
330
A
100
AcDbEntity
  8
04
100
AcDbLine
 10
828.8959636331096
 20
1222.892688482001
 30
0.0
 11
828.8959636331096
 21
1217.892688482001
 31
0.0
  0
LINE
  5
2900
330
A
100
AcDbEntity
  8
04
100
AcDbLine
 10
829.8695266756649
 20
1198.400531107927
 30
0.0
 11
827.8695266756647
 21
1196.400531107927
 31
0.0
  0
LINE
  5
2901
330
A
100
AcDbEntity
  8
04
100
AcDbLine
 10
814.8690315150963
 20
1246.101361223914
 30
0.0
 11
816.8690315150964
 21
1245.301361223914
 31
0.0
  0
LINE
  5
2902
330
A
100
AcDbEntity
  8
04
100
AcDbLine
 10
814.8690315150963
 20
1234.901361223914
 30
0.0
 11
816.8690315150964
 21
1235.701361223914
 31
0.0
  0
LINE
  5
2903
330
A
100
AcDbEntity
  8
04
100
AcDbLine
 10
817.3959636331096
 20
1217.892688482001
 30
0.0
 11
817.3959636331096
 21
1222.892688482001
 31
0.0
  0
LINE
  5
2904
330
A
100
AcDbEntity
  8
04
100
AcDbLine
 10
816.8690315150964
 20
1235.701361223914
 30
0.0
 11
816.8690315150964
 21
1245.301361223914
 31
0.0
  0
CIRCLE
  5
2905
330
A
100
AcDbEntity
  8
04
100
AcDbCircle
 10
824.8695266756646
 20
1210.400531107928
 30
0.0
 40
2.25
  0
LINE
  5
2906
330
A
100
AcDbEntity
  8
04
100
AcDbLine
 10
827.8695266756647
 20
1196.400531107927
 30
0.0
 11
814.8695266756648
 21
1196.400531107927
 31
0.0
  0
LINE
  5
2907
330
A
100
AcDbEntity
  8
04
100
AcDbLine
 10
814.8959636331094
 20
1222.892688482001
 30
0.0
 11
828.8959636331096
 21
1222.892688482001
 31
0.0
  0
LINE
  5
2908
330
A
100
AcDbEntity
  8
04
100
AcDbLine
 10
814.8959636331094
 20
1217.892688482001
 30
0.0
 11
828.8959636331096
 21
1217.892688482001
 31
0.0
  0
LINE
  5
2909
330
A
100
AcDbEntity
  8
04
100
AcDbLine
 10
814.8695266756648
 20
1271.455423427219
 30
0.0
 11
823.8695266756646
 21
1271.455423427219
 31
0.0
  0
LINE
  5
290A
330
A
100
AcDbEntity
  8
04
100
AcDbLine
 10
814.8695266756648
 20
1306.400531107928
 30
0.0
 11
814.8695266756648
 21
1194.400531107927
 31
0.0
  0
LINE
  5
290B
330
A
100
AcDbEntity
  8
04
100
AcDbLine
 10
829.8695266756649
 20
1198.400531107927
 30
0.0
 11
829.8695266756649
 21
1302.400531107926
 31
0.0
  0
LINE
  5
290C
330
A
100
AcDbEntity
  8
04
100
AcDbLine
 10
823.8695266756646
 20
1285.455423427219
 30
0.0
 11
823.8695266756646
 21
1271.455423427219
 31
0.0
  0
LINE
  5
290D
330
A
100
AcDbEntity
  8
04
100
AcDbLine
 10
817.3959636331096
 20
1271.708647375746
 30
0.0
 11
817.3959636331096
 21
1285.455423427219
 31
0.0
  0
LINE
  5
290E
330
A
100
AcDbEntity
  8
04
100
AcDbLine
 10
549.8695266756647
 20
1302.400531107926
 30
0.0
 11
551.8695266756647
 21
1304.400531107928
 31
0.0
  0
LINE
  5
290F
330
A
100
AcDbEntity
  8
04
100
AcDbLine
 10
551.8695266756647
 20
1304.400531107928
 30
0.0
 11
564.8695266756647
 21
1304.400531107928
 31
0.0
  0
CIRCLE
  5
2911
330
A
100
AcDbEntity
  8
04
100
AcDbCircle
 10
554.8695266756647
 20
1290.400531107928
 30
0.0
 40
2.25
  0
LINE
  5
2913
330
A
100
AcDbEntity
  8
04
100
AcDbLine
 10
564.8587499905637
 20
1244.400531107928
 30
0.0
 11
554.8695266756647
 21
1244.400531107928
 31
0.0
  0
LINE
  5
2914
330
A
100
AcDbEntity
  8
04
100
AcDbLine
 10
562.3587499905638
 20
1223.900531107928
 30
0.0
 11
562.3587499905638
 21
1216.900531107928
 31
0.0
  0
LINE
  5
2915
330
A
100
AcDbEntity
  8
04
100
AcDbLine
 10
550.8587499905639
 20
1216.900531107928
 30
0.0
 11
550.8587499905639
 21
1223.900531107928
 31
0.0
  0
LINE
  5
2916
330
A
100
AcDbEntity
  8
04
100
AcDbLine
 10
564.8587499905637
 20
1223.900531107928
 30
0.0
 11
550.8587499905639
 21
1223.900531107928
 31
0.0
  0
LINE
  5
2917
330
A
100
AcDbEntity
  8
04
100
AcDbLine
 10
564.8587499905637
 20
1216.900531107928
 30
0.0
 11
550.8587499905639
 21
1216.900531107928
 31
0.0
  0
LINE
  5
2918
330
A
100
AcDbEntity
  8
04
100
AcDbLine
 10
564.8587499905637
 20
1233.400531107927
 30
0.0
 11
554.8695266756647
 21
1233.400531107927
 31
0.0
  0
LINE
  5
2919
330
A
100
AcDbEntity
  8
04
100
AcDbLine
 10
549.8695266756647
 20
1198.400531107927
 30
0.0
 11
551.8695266756647
 21
1196.400531107927
 31
0.0
  0
CIRCLE
  5
291A
330
A
100
AcDbEntity
  8
04
100
AcDbCircle
 10
554.8695266756647
 20
1210.400531107928
 30
0.0
 40
2.25
  0
LINE
  5
291B
330
A
100
AcDbEntity
  8
04
100
AcDbLine
 10
551.8695266756647
 20
1196.400531107927
 30
0.0
 11
564.8695266756647
 21
1196.400531107927
 31
0.0
  0
LINE
  5
291C
330
A
100
AcDbEntity
  8
04
100
AcDbLine
 10
562.3587499905638
 20
1244.400531107928
 30
0.0
 11
562.3587499905638
 21
1233.400531107927
 31
0.0
  0
LINE
  5
291D
330
A
100
AcDbEntity
  8
04
100
AcDbLine
 10
554.8695266756647
 20
1244.400531107928
 30
0.0
 11
554.8695266756647
 21
1233.400531107927
 31
0.0
  0
LINE
  5
291E
330
A
100
AcDbEntity
  8
04
100
AcDbLine
 10
564.8695266756647
 20
1306.400531107928
 30
0.0
 11
564.8695266756647
 21
1194.400531107927
 31
0.0
  0
LINE
  5
291F
330
A
100
AcDbEntity
  8
04
100
AcDbLine
 10
549.8695266756647
 20
1198.400531107927
 30
0.0
 11
549.8695266756647
 21
1302.400531107926
 31
0.0
  0
LINE
  5
2920
330
A
100
AcDbEntity
  8
04
100
AcDbLine
 10
564.8695266756647
 20
1194.400531107927
 30
0.0
 11
814.8695266756648
 21
1194.400531107927
 31
0.0
  0
LINE
  5
2921
330
A
100
AcDbEntity
  8
04
100
AcDbLine
 10
564.8695266756647
 20
1306.400531107928
 30
0.0
 11
814.8695266756648
 21
1306.400531107928
 31
0.0
  0
CIRCLE
  5
2964
330
A
100
AcDbEntity
  8
SAISEN
100
AcDbCircle
 10
1173.292914235297
 20
142.6290792366945
 30
0.0
 40
15.0
  0
TEXT
  5
2965
330
A
100
AcDbEntity
  8
MOJI
100
AcDbText
 10
1164.146457117648
 20
129.8145396183473
 30
0.0
 40
24.0
  1
Ｓ
 41
0.8
  7
0_8
 11
1164.146457117648
 21
153.8145396183473
 31
0.0
100
AcDbText
 73
     3
  0
TEXT
  5
2A48
330
A
100
AcDbEntity
  8
MOJI
100
AcDbText
 10
613.2175433579583
 20
1380.332840676532
 30
0.0
 40
15.0
  1
端子台
 41
0.8
  7
0_8
 11
613.2175433579583
 21
1380.332840676532
 31
0.0
100
AcDbText
 73
     1
  0
TEXT
  5
2A49
330
A
100
AcDbEntity
  8
MOJI
100
AcDbText
 10
506.7838298226639
 20
1339.832840676532
 30
0.0
 40
15.0
  1
ブレーカー
 41
0.8
  7
0_8
 11
506.7838298226639
 21
1339.832840676532
 31
0.0
100
AcDbText
 73
     1
  0
MTEXT
  5
2AC2
330
A
100
AcDbEntity
  8
MOJI
100
AcDbMText
 10
1080.0
 20
81.0
 30
0.0
 40
21.0
 41
150.0
 71
     5
 72
     1
  1
ＥＧ部品配置図
  7
0_80
1001
ACAD
1000
MTEXTBEGIN
1070
    73
1070
     1
1070
    44
1040
1.0
1070
    74
1070
     0
1000
MTEXTEND
1000
MTEXTBEGIN
1070
    73
1070
     1
1070
    44
1040
1.0
1070
    74
1070
     0
1000
MTEXTEND
  0
MTEXT
  5
2AC3
330
A
100
AcDbEntity
  8
MOJI
100
AcDbMText
 10
930.0
 20
81.0
 30
0.0
 40
21.0
 41
150.0
 71
     5
 72
     1
  1
図番９－２
  7
0_80
1001
ACAD
1000
MTEXTBEGIN
1070
    73
1070
     1
1070
    44
1040
1.0
1070
    74
1070
     0
1000
MTEXTEND
1000
MTEXTBEGIN
1070
    73
1070
     1
1070
    44
1040
1.0
1070
    74
1070
     0
1000
MTEXTEND
  0
MTEXT
  5
2AC4
330
A
100
AcDbEntity
  8
MOJI
100
AcDbMText
 10
765.0
 20
81.00000000000022
 30
0.0
 40
21.0
 41
180.0
 71
     5
 72
     1
  1
片引き
  7
0_80
1001
ACAD
1000
MTEXTBEGIN
1070
    73
1070
     1
1070
    44
1040
1.0
1070
    74
1070
     0
1000
MTEXTEND
1000
MTEXTBEGIN
1070
    73
1070
     1
1070
    44
1040
1.0
1070
    74
1070
     0
1000
MTEXTEND
  0
LINE
  5
2AC5
330
A
100
AcDbEntity
  8
SAISEN
100
AcDbLine
 10
855.0
 20
117.0000000000005
 30
0.0
 11
855.0
 21
45.0
 31
0.0
  0
LINE
  5
2AC6
330
A
100
AcDbEntity
  8
SAISEN
100
AcDbLine
 10
675.0
 20
117.0000000000005
 30
0.0
 11
675.0
 21
45.0
 31
0.0
  0
LINE
  5
2AC7
330
A
100
AcDbEntity
  8
SAISEN
100
AcDbLine
 10
435.0
 20
117.0000000000005
 30
0.0
 11
435.0
 21
45.0
 31
0.0
  0
MTEXT
  5
2AC8
330
A
100
AcDbEntity
  8
MOJI
100
AcDbMText
 10
270.0
 20
81.00000000000045
 30
0.0
 40
21.0
 41
330.0
 71
     5
 72
     1
  1
スライド門扉納り
  7
0_8
1001
ACAD
1000
MTEXTBEGIN
1070
    73
1070
     1
1070
    44
1040
1.0
1070
    74
1070
     0
1000
MTEXTEND
1000
MTEXTBEGIN
1070
    73
1070
     1
1070
    44
1040
1.0
1070
    74
1070
     0
1000
MTEXTEND
  0
POLYLINE
  5
2AC9
330
A
100
AcDbEntity
  8
SAISEN
100
AcDb2dPolyline
 66
     1
 10
0.0
 20
0.0
 30
0.0
 70
     1
  0
VERTEX
  5
2B22
330
2AC9
100
AcDbEntity
  8
SAISEN
 48
0.9
100
AcDbVertex
100
AcDb2dVertex
 10
105.0
 20
45.00000000000023
 30
0.0
  0
VERTEX
  5
2B23
330
2AC9
100
AcDbEntity
  8
SAISEN
 48
0.9
100
AcDbVertex
100
AcDb2dVertex
 10
1155.0
 20
44.99999999999954
 30
0.0
  0
VERTEX
  5
2B24
330
2AC9
100
AcDbEntity
  8
SAISEN
 48
0.9
100
AcDbVertex
100
AcDb2dVertex
 10
1155.0
 20
117.0000000000002
 30
0.0
  0
VERTEX
  5
2B25
330
2AC9
100
AcDbEntity
  8
SAISEN
 48
0.9
100
AcDbVertex
100
AcDb2dVertex
 10
105.0
 20
117.0000000000009
 30
0.0
  0
SEQEND
  5
2B26
330
2AC9
100
AcDbEntity
  8
SAISEN
  0
MTEXT
  5
2ACA
330
A
100
AcDbEntity
  8
MOJI
100
AcDbMText
 10
554.9999999999954
 20
81.00000000000056
 30
0.0
 40
21.0
 41
239.9999999999915
 71
     5
 72
     1
  1
ＧＳＬ－４００\PＧＳＬ－６００
  7
0_8
1001
ACAD
1000
MTEXTBEGIN
1070
    73
1070
     1
1070
    44
1040
1.0
1070
    74
1070
     0
1000
MTEXTEND
1000
MTEXTBEGIN
1070
    73
1070
     1
1070
    44
1040
1.0
1070
    74
1070
     0
1000
MTEXTEND
  0
VIEWPORT
  5
2779
102
{ACAD_XDICTIONARY
360
2B0A
102
}
330
B
100
AcDbEntity
 67
     1
  8
0
 48
0.9
100
AcDbViewport
 10
594.1575513498537
 20
855.5432368280245
 30
0.0
 40
3097.181559518344
 41
1801.387761103642
 68
     1
 69
     1
1001
ACAD
1000
MVIEW
1002
{
1070
    16
1010
0.0
1020
0.0
1030
0.0
1010
0.0
1020
0.0
1030
1.0
1040
0.0
1040
1801.387761103642
1040
594.1575513498537
1040
855.5432368280245
1040
50.0
1040
0.0
1040
0.0
1070
     0
1070
   100
1070
     1
1070
     1
1070
     0
1070
     0
1070
     0
1070
     0
1040
0.0
1040
0.0
1040
0.0
1040
10.0
1040
10.0
1040
10.0
1040
10.0
1070
     0
1002
{
1002
}
1002
}
  0
VIEWPORT
  5
277B
102
{ACAD_XDICTIONARY
360
2B0C
102
}
330
B
100
AcDbEntity
 67
     1
  8
09
 48
0.9
100
AcDbViewport
 10
5.61374986265588
 20
3.898750149358913
 30
0.0
 40
8.981999780249408
 41
6.238000238974262
 68
    -1
 69
     2
1001
ACAD
1000
MVIEW
1002
{
1070
    16
1010
0.0
1020
0.0
1030
0.0
1010
0.0
1020
0.0
1030
1.0
1040
0.0
1040
1812.636103151861
1040
630.0000000000001
1040
890.9999999999996
1040
50.0
1040
0.0
1040
0.0
1070
     0
1070
   100
1070
     1
1070
     1
1070
     0
1070
     0
1070
     0
1070
     0
1040
0.0
1040
0.0
1040
0.0
1040
1.0
1040
1.0
1040
0.0
1040
0.0
1070
     0
1002
{
1002
}
1002
}
  0
VIEWPORT
  5
2AE5
102
{ACAD_XDICTIONARY
360
2B12
102
}
330
B
100
AcDbEntity
 67
     1
  8
DEFPOINTS
 48
0.9
100
AcDbViewport
 10
594.1575542108767
 20
855.5432339670014
 30
0.0
 40
1189.354974746704
 41
1711.070989608765
 68
     2
 69
     3
1001
ACAD
1000
MVIEW
1002
{
1070
    16
1010
0.0
1020
0.0
1030
0.0
1010
0.0
1020
0.0
1030
1.0
1040
0.0
1040
1711.070989608765
1040
630.0
1040
890.9999999999998
1040
50.0
1040
0.0
1040
0.0
1070
     0
1070
   100
1070
     1
1070
     1
1070
     0
1070
     0
1070
     0
1070
     0
1040
0.0
1040
0.0
1040
0.0
1040
1.0
1040
1.0
1040
0.0
1040
0.0
1070
     0
1002
{
1002
}
1002
}
  0
ENDSEC
  0
SECTION
  2
OBJECTS
  0
DICTIONARY
  5
19
330
0
100
AcDbDictionary
  3
ACAD_COLOR
350
97C
  3
ACAD_GROUP
350
1A
  3
ACAD_LAYOUT
350
97D
  3
ACAD_MATERIAL
350
97B
  3
ACAD_MLINESTYLE
350
1B
  3
ACAD_PLOTSETTINGS
350
97E
  3
ACADDIM
350
1E0E
  3
ASE_INDEX_DICTIONARY
350
2ACB
1001
ACAD
1000
TREAT_AS_HARD
1070
     0
1000
TREAT_AS_HARD
1070
     0
  0
DICTIONARY
  5
289B
330
2
100
AcDbDictionary
  3
ACAD_LAYERFILTERS
350
2979
  3
ACAD_LAYERSTATES
350
289C
1001
ACAD
1000
TREAT_AS_HARD
1070
     1
1000
TREAT_AS_HARD
1070
     1
  0
DICTIONARY
  5
2A93
330
A
100
AcDbDictionary
  3
ACAD_LAYOUTSELFREF
350
2B1A
1001
ACAD
1000
TREAT_AS_HARD
1070
     1
  0
DICTIONARY
  5
2A95
330
B
100
AcDbDictionary
  3
ACAD_LAYOUTSELFREF
350
2B1B
1001
ACAD
1000
TREAT_AS_HARD
1070
     1
  0
DICTIONARY
  5
2B0A
330
2779
100
AcDbDictionary
  3
ACAD_XREC_ROUNDTRIP
350
2B0B
1001
ACAD
1000
TREAT_AS_HARD
1070
     1
  0
DICTIONARY
  5
2B0C
330
277B
100
AcDbDictionary
  3
ACAD_XREC_ROUNDTRIP
350
2B0D
1001
ACAD
1000
TREAT_AS_HARD
1070
     1
  0
DICTIONARY
  5
2B12
330
2AE5
100
AcDbDictionary
  3
ACAD_XREC_ROUNDTRIP
350
2B13
1001
ACAD
1000
TREAT_AS_HARD
1070
     1
  0
DICTIONARY
  5
97C
102
{ACAD_REACTORS
330
19
102
}
330
19
100
AcDbDictionary
1001
ACAD
1000
TREAT_AS_HARD
1070
     0
1000
TREAT_AS_HARD
1070
     0
  0
DICTIONARY
  5
1A
102
{ACAD_REACTORS
330
19
102
}
330
19
100
AcDbDictionary
1001
ACAD
1000
TREAT_AS_HARD
1070
     0
1000
TREAT_AS_HARD
1070
     0
  0
DICTIONARY
  5
97D
102
{ACAD_REACTORS
330
19
102
}
330
19
100
AcDbDictionary
1001
ACAD
1000
TREAT_AS_HARD
1070
     0
1000
TREAT_AS_HARD
1070
     0
  0
DICTIONARY
  5
97B
102
{ACAD_REACTORS
330
19
102
}
330
19
100
AcDbDictionary
1001
ACAD
1000
TREAT_AS_HARD
1070
     0
1000
TREAT_AS_HARD
1070
     0
  0
DICTIONARY
  5
1B
102
{ACAD_REACTORS
330
19
102
}
330
19
100
AcDbDictionary
  3
STANDARD
350
1C
1001
ACAD
1000
TREAT_AS_HARD
1070
     0
1000
TREAT_AS_HARD
1070
     0
  0
DICTIONARY
  5
97E
102
{ACAD_REACTORS
330
19
102
}
330
19
100
AcDbDictionary
1001
ACAD
1000
TREAT_AS_HARD
1070
     0
1000
TREAT_AS_HARD
1070
     0
  0
XRECORD
  5
1E0E
102
{ACAD_REACTORS
330
19
102
}
330
19
100
AcDbXrecord
 90
   990106
  3

 60
     0
 61
     0
 62
     1
 63
     3
 64
     1
 65
     0
 66
     0
 67
     3
 68
     1
 69
     0
 70
     0
 71
     0
 72
     0
 40
0.0
170
     2
340
0
  0
DICTIONARY
  5
2ACB
102
{ACAD_REACTORS
330
19
102
}
330
19
100
AcDbDictionary
  3
ASEBLOCKHIERARCHYINDEXRECORD
350
2ACC
1001
DCO15
1040
1508675016.312
1001
ACAD
1000
TREAT_AS_HARD
1070
     0
  0
DICTIONARY
  5
2979
102
{ACAD_REACTORS
330
289B
102
}
330
289B
100
AcDbDictionary
1001
ACAD
1000
TREAT_AS_HARD
1070
     0
1000
TREAT_AS_HARD
1070
     0
  0
DICTIONARY
  5
289C
102
{ACAD_REACTORS
330
289B
102
}
330
289B
100
AcDbDictionary
1001
ACAD
1000
TREAT_AS_HARD
1070
     0
1000
TREAT_AS_HARD
1070
     0
  0
XRECORD
  5
2B1A
102
{ACAD_REACTORS
330
2A93
102
}
330
2A93
100
AcDbXrecord
340
A
  0
XRECORD
  5
2B1B
102
{ACAD_REACTORS
330
2A95
102
}
330
2A95
100
AcDbXrecord
340
B
  0
XRECORD
  5
2B0B
102
{ACAD_REACTORS
330
2B0A
102
}
330
2B0A
100
AcDbXrecord
102
SHADEPLOT
 70
     0
  0
XRECORD
  5
2B0D
102
{ACAD_REACTORS
330
2B0C
102
}
330
2B0C
100
AcDbXrecord
102
SHADEPLOT
 70
     0
  0
XRECORD
  5
2B13
102
{ACAD_REACTORS
330
2B12
102
}
330
2B12
100
AcDbXrecord
102
SHADEPLOT
 70
     0
  0
MLINESTYLE
  5
1C
102
{ACAD_REACTORS
330
1B
102
}
330
1B
100
AcDbMlineStyle
  2
STANDARD
 70
     0
  3

 62
     0
 51
90.0
 52
90.0
 71
     2
 49
0.5
 62
   256
  6
BYLAYER
 49
-0.5
 62
   256
  6
BYLAYER
  0
XRECORD
  5
2ACC
102
{ACAD_REACTORS
330
2ACB
102
}
330
2ACB
100
AcDbXrecord
330
2681
330
2682
330
26DE
330
26DF
330
2A43
330
2A44
330
2A2F
330
2A30
330
2A26
330
2A27
330
2A38
330
2A39
330
2589
330
258A
330
25AD
330
25AE
330
25B6
330
25B7
330
25BF
330
25C0
330
25C8
330
25C9
330
25D1
330
25D2
330
2A08
330
2A09
  0
ENDSEC
  0
EOF
